  0
SECTION
  2
HEADER
  9
$ACADVER
  1
AC1009
  9
$INSBASE
 10
0.0
 20
0.0
 30
0.0
  9
$EXTMIN
 10
-30.61946647704579
 20
-57.500000000000099
 30
-0.2
  9
$EXTMAX
 10
194.00325593441309
 20
79.75536530895036
 30
0.0000000048844772
  9
$LIMMIN
 10
0.0
 20
0.0
  9
$LIMMAX
 10
790.0
 20
790.0
  9
$ORTHOMODE
 70
     1
  9
$REGENMODE
 70
     1
  9
$FILLMODE
 70
     1
  9
$QTEXTMODE
 70
     0
  9
$MIRRTEXT
 70
     1
  9
$DRAGMODE
 70
     2
  9
$LTSCALE
 40
4.0
  9
$OSMODE
 70
   167
  9
$ATTMODE
 70
     1
  9
$TEXTSIZE
 40
3.5
  9
$TRACEWID
 40
0.05
  9
$TEXTSTYLE
  7
ISO
  9
$CLAYER
  8
0
  9
$CELTYPE
  6
BYLAYER
  9
$CECOLOR
 62
   256
  9
$DIMSCALE
 40
0.0
  9
$DIMASZ
 40
3.0
  9
$DIMEXO
 40
1.5
  9
$DIMDLI
 40
10.0
  9
$DIMRND
 40
0.0
  9
$DIMDLE
 40
0.0
  9
$DIMEXE
 40
1.5
  9
$DIMTP
 40
0.0
  9
$DIMTM
 40
0.0
  9
$DIMTXT
 40
3.5
  9
$DIMCEN
 40
-5.0
  9
$DIMTSZ
 40
0.0
  9
$DIMTOL
 70
     0
  9
$DIMLIM
 70
     0
  9
$DIMTIH
 70
     0
  9
$DIMTOH
 70
     0
  9
$DIMSE1
 70
     0
  9
$DIMSE2
 70
     0
  9
$DIMTAD
 70
     1
  9
$DIMZIN
 70
     8
  9
$DIMBLK
  1

  9
$DIMASO
 70
     1
  9
$DIMSHO
 70
     1
  9
$DIMPOST
  1

  9
$DIMAPOST
  1

  9
$DIMALT
 70
     0
  9
$DIMALTD
 70
     0
  9
$DIMALTF
 40
25.399999999999999
  9
$DIMLFAC
 40
-1.0
  9
$DIMTOFL
 70
     1
  9
$DIMTVP
 40
0.0
  9
$DIMTIX
 70
     0
  9
$DIMSOXD
 70
     0
  9
$DIMSAH
 70
     0
  9
$DIMBLK1
  1

  9
$DIMBLK2
  1

  9
$DIMSTYLE
  2
MASKIN
  9
$DIMCLRD
 70
   256
  9
$DIMCLRE
 70
   256
  9
$DIMCLRT
 70
     2
  9
$DIMTFAC
 40
1.0
  9
$DIMGAP
 40
1.0
  9
$LUNITS
 70
     2
  9
$LUPREC
 70
     8
  9
$SKETCHINC
 40
0.1
  9
$FILLETRAD
 40
0.0
  9
$AUNITS
 70
     0
  9
$AUPREC
 70
     8
  9
$MENU
  1
ACAD
  9
$ELEVATION
 40
0.0
  9
$PELEVATION
 40
0.0
  9
$THICKNESS
 40
0.0
  9
$LIMCHECK
 70
     0
  9
$BLIPMODE
 70
     0
  9
$CHAMFERA
 40
0.0
  9
$CHAMFERB
 40
0.0
  9
$SKPOLY
 70
     0
  9
$TDCREATE
 40
2455734.518348461
  9
$TDUPDATE
 40
2455994.4998614928
  9
$TDINDWG
 40
1.2018001273000001
  9
$TDUSRTIMER
 40
1.2017999421000001
  9
$USRTIMER
 70
     1
  9
$ANGBASE
 50
0.0
  9
$ANGDIR
 70
     0
  9
$PDMODE
 70
     0
  9
$PDSIZE
 40
0.0
  9
$PLINEWID
 40
0.0
  9
$COORDS
 70
     1
  9
$SPLFRAME
 70
     0
  9
$SPLINETYPE
 70
     6
  9
$SPLINESEGS
 70
     8
  9
$ATTDIA
 70
     0
  9
$ATTREQ
 70
     1
  9
$HANDLING
 70
     1
  9
$HANDSEED
  5
17CE
  9
$SURFTAB1
 70
     6
  9
$SURFTAB2
 70
     6
  9
$SURFTYPE
 70
     6
  9
$SURFU
 70
     6
  9
$SURFV
 70
     6
  9
$UCSNAME
  2

  9
$UCSORG
 10
0.0
 20
0.0
 30
0.0
  9
$UCSXDIR
 10
1.0
 20
0.0
 30
0.0
  9
$UCSYDIR
 10
0.0
 20
1.0
 30
0.0
  9
$PUCSNAME
  2

  9
$PUCSORG
 10
0.0
 20
0.0
 30
0.0
  9
$PUCSXDIR
 10
1.0
 20
0.0
 30
0.0
  9
$PUCSYDIR
 10
0.0
 20
1.0
 30
0.0
  9
$USERI1
 70
     0
  9
$USERI2
 70
     0
  9
$USERI3
 70
     0
  9
$USERI4
 70
     0
  9
$USERI5
 70
     0
  9
$USERR1
 40
0.0
  9
$USERR2
 40
0.0
  9
$USERR3
 40
0.0
  9
$USERR4
 40
0.0
  9
$USERR5
 40
0.0
  9
$WORLDVIEW
 70
     1
  9
$SHADEDGE
 70
     3
  9
$SHADEDIF
 70
    70
  9
$TILEMODE
 70
     1
  9
$MAXACTVP
 70
    16
  9
$PLIMCHECK
 70
     0
  9
$PEXTMIN
 10
1.0000000000000000E+020
 20
1.0000000000000000E+020
 30
1.0000000000000000E+020
  9
$PEXTMAX
 10
-1.0000000000000000E+020
 20
-1.0000000000000000E+020
 30
-1.0000000000000000E+020
  9
$PLIMMIN
 10
-5.069427490234375
 20
-5.8737497329711914
  9
$PLIMMAX
 10
291.89889526367187
 20
204.0995779037475
  9
$UNITMODE
 70
     0
  9
$VISRETAIN
 70
     1
  9
$PLINEGEN
 70
     0
  9
$PSLTSCALE
 70
     1
  0
ENDSEC
  0
SECTION
  2
TABLES
  0
TABLE
  2
VPORT
 70
     1
  0
VPORT
  2
*ACTIVE
 70
     0
 10
0.0
 20
0.0
 11
1.0
 21
1.0
 12
88.755261308241302
 22
48.11069731536854
 13
0.0
 23
0.0
 14
1.0
 24
1.0
 15
0.0
 25
0.0
 16
0.0
 26
0.0
 36
1.0
 17
0.0
 27
0.0
 37
0.0
 40
149.2643082019338
 41
2.37391304347826
 42
50.0
 43
0.0
 44
0.0
 50
0.0
 51
0.0
 71
     0
 72
   100
 73
     1
 74
     1
 75
     0
 76
     0
 77
     0
 78
     0
  0
ENDTAB
  0
TABLE
  2
LTYPE
 70
     3
  0
LTYPE
  2
CONTINUOUS
 70
     0
  3
Solid line
 72
    65
 73
     0
 40
0.0
  0
LTYPE
  2
BYGG-027368$0$NEWDOT
 70
     0
  3
____ . ____ . ____ . ____ . ____ . ____ . ____
 72
    65
 73
     4
 40
2.0
 49
1.0
 49
-0.5
 49
0.0
 49
-0.5
  0
LTYPE
  2
BYGG-027385$0$NEWDOT
 70
     0
  3
____ . ____ . ____ . ____ . ____ . ____ . ____
 72
    65
 73
     4
 40
2.0
 49
1.0
 49
-0.5
 49
0.0
 49
-0.5
  0
ENDTAB
  0
TABLE
  2
LAYER
 70
    31
  0
LAYER
  2
0
 70
     0
 62
     7
  6
CONTINUOUS
  0
LAYER
  2
DEFPOINTS
 70
     0
 62
     7
  6
CONTINUOUS
  0
LAYER
  2
SAPA_ARTIKELNR
 70
     0
 62
     4
  6
CONTINUOUS
  0
LAYER
  2
SAPA_ANSLUTNING
 70
     0
 62
     6
  6
CONTINUOUS
  0
LAYER
  2
SAPA_MATT
 70
     0
 62
     1
  6
CONTINUOUS
  0
LAYER
  2
SAPA_GLAS
 70
     0
 62
     4
  6
CONTINUOUS
  0
LAYER
  2
SAPA_FOGBAND
 70
     0
 62
     2
  6
CONTINUOUS
  0
LAYER
  2
SAPA_PROFIL
 70
     0
 62
     7
  6
CONTINUOUS
  0
ENDTAB
  0
TABLE
  2
STYLE
 70
    12
  0
STYLE
  2
STANDARD
 70
     0
 40
0.0
 41
1.0
 50
0.0
 71
     0
 42
0.2
  3
txt
  4

  0
STYLE
  2
ISO
 70
     0
 40
0.0
 41
1.0
 50
0.0
 71
     0
 42
3.5
  3
txt
  4

  0
STYLE
  2
BYGG-027392$0$STANDARD
 70
     0
 40
0.0
 41
1.0
 50
0.0
 71
     0
 42
0.2
  3
txt
  4

  0
STYLE
  2
BYGG-027392$0$ISO
 70
     0
 40
0.0
 41
1.0
 50
0.0
 71
     0
 42
3.5
  3
txt
  4

  0
STYLE
  2
BYGG-027458$0$STANDARD
 70
     0
 40
0.0
 41
1.0
 50
0.0
 71
     0
 42
0.2
  3
txt
  4

  0
STYLE
  2
BYGG-027458$0$ISO
 70
     0
 40
0.0
 41
1.0
 50
0.0
 71
     0
 42
3.5
  3
txt
  4

  0
STYLE
  2
BYGG-027368$0$STANDARD
 70
     0
 40
0.0
 41
1.0
 50
0.0
 71
     0
 42
0.2
  3
txt
  4

  0
STYLE
  2
BYGG-027368$0$ISO
 70
     0
 40
0.0
 41
1.0
 50
0.0
 71
     0
 42
3.5
  3
txt
  4

  0
STYLE
  2
BYGG-027414$0$STANDARD
 70
     0
 40
0.0
 41
1.0
 50
0.0
 71
     0
 42
0.2
  3
txt
  4

  0
STYLE
  2
BYGG-027414$0$ISO
 70
     0
 40
0.0
 41
1.0
 50
0.0
 71
     0
 42
3.5
  3
txt
  4

  0
STYLE
  2
BYGG-027385$0$STANDARD
 70
     0
 40
0.0
 41
1.0
 50
0.0
 71
     0
 42
0.2
  3
txt
  4

  0
STYLE
  2
BYGG-027385$0$ISO
 70
     0
 40
0.0
 41
1.0
 50
0.0
 71
     0
 42
3.5
  3
txt
  4

  0
ENDTAB
  0
TABLE
  2
VIEW
 70
     0
  0
ENDTAB
  0
TABLE
  2
UCS
 70
     0
  0
ENDTAB
  0
TABLE
  2
APPID
 70
    28
  0
APPID
  2
ACAD
 70
     0
  0
APPID
  2
ACAD_DSTYLE_DIMTEXT_FILL
 70
     0
  0
APPID
  2
ACAD_DSTYLE_DIMEXT_LENGTH
 70
     0
  0
APPID
  2
ACAD_DSTYLE_DIMEXT_ENABLED
 70
     0
  0
APPID
  2
ACAD_DSTYLE_DIM_LINETYPE
 70
     0
  0
APPID
  2
ACAD_DSTYLE_DIM_EXT1_LINETYPE
 70
     0
  0
APPID
  2
ACAD_DSTYLE_DIM_EXT2_LINETYPE
 70
     0
  0
APPID
  2
ACAD_DSTYLE_DIMJOGGED_JOGA
 70
     0
  0
APPID
  2
ACAD_DSTYLE_DIMARC_LENGTH_
 70
     0
  0
APPID
  2
ACAD_PSEXT
 70
     0
  0
APPID
  2
ACAD_MLEADERVER
 70
     0
  0
APPID
  2
GENIUS_GENODEF_13
 70
     0
  0
APPID
  2
RC_PROFILE
 70
     0
  0
APPID
  2
ACAECLAYERSTANDARD
 70
     0
  0
APPID
  2
GENIUS_GENOBJ-N-FIL_13
 70
     0
  0
APPID
  2
ACADANNOTATIVE
 70
     0
  0
APPID
  2
ACAD_EXEMPT_FROM_CAD_STANDARDS
 70
     0
  0
APPID
  2
AEC_XDATA_BOUND_SPACE
 70
     0
  0
APPID
  2
ACAD_DSTYLE_DIMJAG
 70
     0
  0
APPID
  2
ACAD_DSTYLE_DIMTALN
 70
     0
  0
APPID
  2
GENIUS_GENREC_14
 70
     0
  0
APPID
  2
GENIUS_GENOBJ-N-REC_13
 70
     0
  0
APPID
  2
ACDBDYNAMICBLOCKTRUENAME
 70
     0
  0
APPID
  2
ACDBBLOCKREPETAG
 70
     0
  0
APPID
  2
ACDBDYNAMICBLOCKGUID
 70
     0
  0
APPID
  2
ACDBBLOCKREPBTAG
 70
     0
  0
APPID
  2
ACAD_NAV_VCDISPLAY
 70
     0
  0
APPID
  2
ACCMTRANSPARENCY
 70
     0
  0
ENDTAB
  0
TABLE
  2
DIMSTYLE
 70
     6
  0
DIMSTYLE
  2
MASKIN
 70
     0
  3

  4

  5

  6

  7

 40
0.0
 41
3.0
 42
1.5
 43
10.0
 44
1.5
 45
0.0
 46
0.0
 47
0.0
 48
0.0
140
3.5
141
-5.0
142
0.0
143
25.399999999999999
144
-1.0
145
0.0
146
1.0
147
1.0
 71
     0
 72
     0
 73
     0
 74
     0
 75
     0
 76
     0
 77
     1
 78
     8
170
     0
171
     0
172
     1
173
     0
174
     0
175
     0
176
   256
177
   256
178
     2
  0
DIMSTYLE
  2
BYGG-027392$0$MASKIN
 70
     0
  3

  4

  5

  6

  7

 40
0.0
 41
3.0
 42
1.5
 43
10.0
 44
1.5
 45
0.0
 46
0.0
 47
0.0
 48
0.0
140
3.0
141
-5.0
142
0.0
143
25.399999999999999
144
-1.0
145
0.0
146
1.0
147
1.0
 71
     0
 72
     0
 73
     0
 74
     0
 75
     0
 76
     0
 77
     1
 78
     8
170
     0
171
     0
172
     1
173
     0
174
     0
175
     0
176
   256
177
   256
178
     2
  0
DIMSTYLE
  2
BYGG-027458$0$MASKIN
 70
     0
  3

  4

  5

  6

  7

 40
0.0
 41
3.0
 42
1.5
 43
10.0
 44
1.5
 45
0.0
 46
0.0
 47
0.0
 48
0.0
140
3.0
141
-5.0
142
0.0
143
25.399999999999999
144
-1.0
145
0.0
146
1.0
147
1.0
 71
     0
 72
     0
 73
     0
 74
     0
 75
     0
 76
     0
 77
     1
 78
     8
170
     0
171
     0
172
     1
173
     0
174
     0
175
     0
176
   256
177
   256
178
     2
  0
DIMSTYLE
  2
BYGG-027368$0$MASKIN
 70
     0
  3

  4

  5

  6

  7

 40
0.0
 41
3.0
 42
1.5
 43
10.0
 44
1.5
 45
0.0
 46
0.0
 47
0.0
 48
0.0
140
3.0
141
-5.0
142
0.0
143
25.399999999999999
144
-1.0
145
0.0
146
1.0
147
1.0
 71
     0
 72
     0
 73
     0
 74
     0
 75
     0
 76
     0
 77
     1
 78
     8
170
     0
171
     0
172
     1
173
     0
174
     0
175
     0
176
   256
177
   256
178
     2
  0
DIMSTYLE
  2
BYGG-027414$0$MASKIN
 70
     0
  3

  4

  5

  6

  7

 40
0.0
 41
3.0
 42
1.5
 43
10.0
 44
1.5
 45
0.0
 46
0.0
 47
0.0
 48
0.0
140
3.0
141
-5.0
142
0.0
143
25.399999999999999
144
-1.0
145
0.0
146
1.0
147
1.0
 71
     0
 72
     0
 73
     0
 74
     0
 75
     0
 76
     0
 77
     1
 78
     8
170
     0
171
     0
172
     1
173
     0
174
     0
175
     0
176
   256
177
   256
178
     2
  0
DIMSTYLE
  2
BYGG-027385$0$MASKIN
 70
     0
  3

  4

  5

  6

  7

 40
0.0
 41
3.0
 42
1.5
 43
10.0
 44
1.5
 45
0.0
 46
0.0
 47
0.0
 48
0.0
140
3.0
141
-5.0
142
0.0
143
25.399999999999999
144
-1.0
145
0.0
146
1.0
147
1.0
 71
     0
 72
     0
 73
     0
 74
     0
 75
     0
 76
     0
 77
     1
 78
     8
170
     0
171
     0
172
     1
173
     0
174
     0
175
     0
176
   256
177
   256
178
     2
  0
ENDTAB
  0
ENDSEC
  0
SECTION
  2
BLOCKS
  0
BLOCK
  8
0
  2
$MODEL_SPACE
 70
     0
 10
0.0
 20
0.0
 30
0.0
  3
$MODEL_SPACE
  1

  0
ENDBLK
  5
37
  8
0
  0
BLOCK
 67
     1
  8
0
  2
$PAPER_SPACE
 70
     0
 10
0.0
 20
0.0
 30
0.0
  3
$PAPER_SPACE
  1

  0
ENDBLK
  5
35
 67
     1
  8
0
  0
BLOCK
  8
0
  2
*D24
 70
     1
 10
0.0
 20
0.0
 30
0.0
  3
*D24
  1

  0
LINE
  5
172E
  8
SAPA_MATT
 10
14.00000000000024
 20
-0.0000000000000138
 30
0.0
 11
-7.4999999999998179
 21
-0.0000000000000077
 31
0.0
  0
LINE
  5
172F
  8
SAPA_MATT
 10
20.549999999816499
 20
-5.000000000003693
 30
0.0
 11
-7.4999999999998188
 21
-5.0000000000036851
 31
0.0
  0
LINE
  5
1730
  8
SAPA_MATT
 10
-5.9999999999998179
 20
2.999999999999992
 30
0.0
 11
-5.9999999999998179
 21
5.9999999999999911
 31
0.0
  0
LINE
  5
1731
  8
SAPA_MATT
 10
-5.9999999999998206
 20
-8.0000000000036842
 30
0.0
 11
-5.9999999999998224
 21
-11.000000000003681
 31
0.0
  0
LINE
  5
1732
  8
SAPA_MATT
 10
-5.9999999999998188
 20
-0.0000000000000081
 30
0.0
 11
-5.9999999999998197
 21
-5.0000000000036859
 31
0.0
  0
SOLID
  5
1733
  8
SAPA_MATT
 10
-6.4999999999998179
 20
2.999999999999992
 30
0.0
 11
-5.4999999999998179
 21
2.999999999999992
 31
0.0
 12
-5.9999999999998188
 22
-0.0000000000000081
 32
0.0
 13
-5.9999999999998188
 23
-0.0000000000000081
 33
0.0
  0
SOLID
  5
1734
  8
SAPA_MATT
 10
-6.4999999999998206
 20
-8.0000000000036842
 30
0.0
 11
-5.4999999999998206
 21
-8.0000000000036842
 31
0.0
 12
-5.9999999999998197
 22
-5.0000000000036859
 32
0.0
 13
-5.9999999999998197
 23
-5.0000000000036859
 33
0.0
  0
TEXT
  8
SAPA_MATT
  40
3.5
  5
1749
  62
2
  72
0
  71
0
 10
-15.7500
 20
-8.69500
 30
0.000000
  1
5
  7
ISO
  0
POINT
  5
1736
  8
DEFPOINTS
 62
     0
 10
15.50000000000024
 20
-0.0000000000000142
 30
0.0
  0
POINT
  5
1737
  8
DEFPOINTS
 62
     0
 10
22.049999999816499
 20
-5.0000000000036939
 30
0.0
  0
POINT
  5
1738
  8
DEFPOINTS
 62
     0
 10
-5.9999999999998197
 20
-5.0000000000036859
 30
0.0
  0
ENDBLK
  5
F9F
  8
0
  0
BLOCK
  8
0
  2
*D25
 70
     1
 10
0.0
 20
0.0
 30
0.0
  3
*D25
  1

  0
LINE
  5
1022
  8
SAPA_MATT
 10
14.00000000000024
 20
-0.0000000000000142
 30
0.0
 11
14.00000000000024
 21
-45.500000000000128
 31
0.0
  0
LINE
  5
1023
  8
SAPA_MATT
 10
20.500000000078789
 20
8.5000000001745502
 30
0.0
 11
20.500000000078789
 21
-45.500000000000128
 31
0.0
  0
LINE
  5
1024
  8
SAPA_MATT
 10
11.00000000000024
 20
-44.000000000000121
 30
0.0
 11
8.000000000000238
 21
-44.000000000000121
 31
0.0
  0
LINE
  5
1025
  8
SAPA_MATT
 10
23.500000000078789
 20
-44.000000000000121
 30
0.0
 11
26.500000000078789
 21
-44.000000000000121
 31
0.0
  0
LINE
  5
1026
  8
SAPA_MATT
 10
14.00000000000024
 20
-44.000000000000121
 30
0.0
 11
20.500000000078789
 21
-44.000000000000121
 31
0.0
  0
SOLID
  5
1027
  8
SAPA_MATT
 10
11.00000000000024
 20
-43.500000000000121
 30
0.0
 11
11.00000000000024
 21
-44.500000000000121
 31
0.0
 12
14.00000000000024
 22
-44.000000000000121
 32
0.0
 13
14.00000000000024
 23
-44.000000000000121
 33
0.0
  0
SOLID
  5
1028
  8
SAPA_MATT
 10
23.500000000078789
 20
-43.500000000000121
 30
0.0
 11
23.500000000078789
 21
-44.500000000000121
 31
0.0
 12
20.500000000078789
 22
-44.000000000000121
 32
0.0
 13
20.500000000078789
 23
-44.000000000000121
 33
0.0
  0
INSERT
  5
1029
  8
0
  2
*U40
 10
0.0
 20
0.0
 30
0.0
  0
POINT
  5
102A
  8
DEFPOINTS
 62
     0
 10
14.00000000000024
 20
1.4999999999999849
 30
0.0
  0
POINT
  5
102B
  8
DEFPOINTS
 62
     0
 10
20.500000000078789
 20
10.00000000017455
 30
0.0
  0
POINT
  5
102C
  8
DEFPOINTS
 62
     0
 10
20.500000000078789
 20
-44.000000000000121
 30
0.0
  0
ENDBLK
  5
FAD
  8
0
  0
BLOCK
  8
0
  2
*D26
 70
     1
 10
0.0
 20
0.0
 30
0.0
  3
*D26
  1

  0
LINE
  5
1725
  8
SAPA_MATT
 10
20.500000000078789
 20
8.5000000001745502
 30
0.0
 11
20.500000000078789
 21
-45.500000000000128
 31
0.0
  0
LINE
  5
1726
  8
SAPA_MATT
 10
67.499999999387086
 20
8.5000000001746088
 30
0.0
 11
67.499999999387086
 21
-45.500000000000128
 31
0.0
  0
LINE
  5
1727
  8
SAPA_MATT
 10
23.500000000078789
 20
-44.000000000000121
 30
0.0
 11
64.499999999387086
 21
-44.000000000000121
 31
0.0
  0
SOLID
  5
1728
  8
SAPA_MATT
 10
23.500000000078789
 20
-43.500000000000121
 30
0.0
 11
23.500000000078789
 21
-44.500000000000121
 31
0.0
 12
20.500000000078789
 22
-44.000000000000121
 32
0.0
 13
20.500000000078789
 23
-44.000000000000121
 33
0.0
  0
SOLID
  5
1729
  8
SAPA_MATT
 10
64.499999999387086
 20
-43.500000000000121
 30
0.0
 11
64.499999999387086
 21
-44.500000000000121
 31
0.0
 12
67.499999999387086
 22
-44.000000000000121
 32
0.0
 13
67.499999999387086
 23
-44.000000000000121
 33
0.0
  0
TEXT
  8
SAPA_MATT
  40
3.5
  5
174A
  62
2
  72
0
  71
0
 10
37.0000
 20
-47.4450
 30
0.000000
  1
47
  7
ISO
  0
POINT
  5
172B
  8
DEFPOINTS
 62
     0
 10
20.500000000078789
 20
10.00000000017455
 30
0.0
  0
POINT
  5
172C
  8
DEFPOINTS
 62
     0
 10
67.499999999387086
 20
10.000000000174611
 30
0.0
  0
POINT
  5
172D
  8
DEFPOINTS
 62
     0
 10
67.499999999387086
 20
-44.000000000000121
 30
0.0
  0
ENDBLK
  5
FBB
  8
0
  0
BLOCK
  8
0
  2
*D27
 70
     1
 10
0.0
 20
0.0
 30
0.0
  3
*D27
  1

  0
LINE
  5
171C
  8
SAPA_MATT
 10
67.499999999387086
 20
8.5000000001746088
 30
0.0
 11
67.499999999387086
 21
-45.500000000000149
 31
0.0
  0
LINE
  5
171D
  8
SAPA_MATT
 10
138.99999999950231
 20
0.0721139414508088
 30
0.0
 11
138.99999999950231
 21
-45.500000000000149
 31
0.0
  0
LINE
  5
171E
  8
SAPA_MATT
 10
70.499999999387086
 20
-44.000000000000149
 30
0.0
 11
135.99999999950231
 21
-44.000000000000149
 31
0.0
  0
TEXT
  8
SAPA_MATT
  40
3.5
  5
174B
  62
2
  72
0
  71
0
 10
95.8577
 20
-46.6845
 30
0.000000
  1
71.5
  7
ISO
  0
SOLID
  5
1720
  8
SAPA_MATT
 10
70.499999999387086
 20
-43.500000000000149
 30
0.0
 11
70.499999999387086
 21
-44.500000000000163
 31
0.0
 12
67.499999999387086
 22
-44.000000000000149
 32
0.0
 13
67.499999999387086
 23
-44.000000000000149
 33
0.0
  0
SOLID
  5
1721
  8
SAPA_MATT
 10
135.99999999950231
 20
-43.500000000000149
 30
0.0
 11
135.99999999950231
 21
-44.500000000000163
 31
0.0
 12
138.99999999950231
 22
-44.000000000000149
 32
0.0
 13
138.99999999950231
 23
-44.000000000000149
 33
0.0
  0
POINT
  5
1722
  8
DEFPOINTS
 62
     0
 10
67.499999999387086
 20
10.000000000174611
 30
0.0
  0
POINT
  5
1723
  8
DEFPOINTS
 62
     0
 10
138.99999999950231
 20
1.5721139414508081
 30
0.0
  0
POINT
  5
1724
  8
DEFPOINTS
 62
     0
 10
138.99999999950231
 20
-44.000000000000149
 30
0.0
  0
ENDBLK
  5
FC7
  8
0
  0
BLOCK
  8
0
  2
*D28
 70
     1
 10
0.0
 20
0.0
 30
0.0
  3
*D28
  1

  0
LINE
  5
1007
  8
SAPA_MATT
 10
14.00000000000024
 20
-0.0000000000000142
 30
0.0
 11
14.00000000000024
 21
-57.500000000000099
 31
0.0
  0
LINE
  5
1008
  8
SAPA_MATT
 10
138.99999999950231
 20
0.0721139414508088
 30
0.0
 11
138.99999999950231
 21
-57.500000000000099
 31
0.0
  0
LINE
  5
1009
  8
SAPA_MATT
 10
17.000000000000242
 20
-56.000000000000099
 30
0.0
 11
135.99999999950231
 21
-56.000000000000099
 31
0.0
  0
SOLID
  5
100A
  8
SAPA_MATT
 10
17.000000000000242
 20
-55.500000000000099
 30
0.0
 11
17.000000000000242
 21
-56.500000000000099
 31
0.0
 12
14.00000000000024
 22
-56.000000000000099
 32
0.0
 13
14.00000000000024
 23
-56.000000000000099
 33
0.0
  0
SOLID
  5
100B
  8
SAPA_MATT
 10
135.99999999950231
 20
-55.500000000000099
 30
0.0
 11
135.99999999950231
 21
-56.500000000000099
 31
0.0
 12
138.99999999950231
 22
-56.000000000000099
 32
0.0
 13
138.99999999950231
 23
-56.000000000000099
 33
0.0
  0
INSERT
  5
100C
  8
0
  2
*U39
 10
0.0
 20
0.0
 30
0.0
  0
POINT
  5
100D
  8
DEFPOINTS
 62
     0
 10
14.00000000000024
 20
1.4999999999999849
 30
0.0
  0
POINT
  5
100E
  8
DEFPOINTS
 62
     0
 10
138.99999999950231
 20
1.5721139414508081
 30
0.0
  0
POINT
  5
100F
  8
DEFPOINTS
 62
     0
 10
138.99999999950231
 20
-56.000000000000099
 30
0.0
  0
ENDBLK
  5
FD3
  8
0
  0
BLOCK
  8
0
  2
*D29
 70
     1
 10
0.0
 20
0.0
 30
0.0
  3
*D29
  1

  0
LINE
  5
FFE
  8
SAPA_MATT
 10
12.80000007175777
 20
59.999999999999872
 30
0.0
 11
-7.4999999282524126
 21
59.999999999999872
 31
0.0
  0
LINE
  5
FFF
  8
SAPA_MATT
 10
14.00000007174763
 20
-0.0000000000000138
 30
0.0
 11
-7.499999928252425
 21
-0.0000000000000077
 31
0.0
  0
LINE
  5
1000
  8
SAPA_MATT
 10
-5.9999999282524117
 20
56.999999999999872
 30
0.0
 11
-5.9999999282524241
 21
2.999999999999992
 31
0.0
  0
SOLID
  5
1001
  8
SAPA_MATT
 10
-6.4999999282524117
 20
56.999999999999872
 30
0.0
 11
-5.4999999282524117
 21
56.999999999999872
 31
0.0
 12
-5.9999999282524108
 22
59.999999999999872
 32
0.0
 13
-5.9999999282524108
 23
59.999999999999872
 33
0.0
  0
SOLID
  5
1002
  8
SAPA_MATT
 10
-6.4999999282524241
 20
2.999999999999992
 30
0.0
 11
-5.4999999282524241
 21
2.999999999999992
 31
0.0
 12
-5.999999928252425
 22
-0.0000000000000081
 32
0.0
 13
-5.999999928252425
 23
-0.0000000000000081
 33
0.0
  0
INSERT
  5
1003
  8
0
  2
*U38
 10
0.0
 20
0.0
 30
0.0
  0
POINT
  5
1004
  8
DEFPOINTS
 62
     0
 10
14.30000007175777
 20
59.999999999999872
 30
0.0
  0
POINT
  5
1005
  8
DEFPOINTS
 62
     0
 10
15.50000007174763
 20
-0.0000000000000142
 30
0.0
  0
POINT
  5
1006
  8
DEFPOINTS
 62
     0
 10
-5.999999928252425
 20
-0.0000000000000081
 30
0.0
  0
ENDBLK
  5
FDF
  8
0
  0
BLOCK
  8
0
  2
*D30
 70
     1
 10
0.0
 20
0.0
 30
0.0
  3
*D30
  1

  0
LINE
  5
FF5
  8
SAPA_MATT
 10
20.549999999816499
 20
-5.000000000003693
 30
0.0
 11
-19.4999999282524
 21
-5.0000000000036824
 31
0.0
  0
LINE
  5
FF6
  8
SAPA_MATT
 10
12.80000007175777
 20
59.999999999999872
 30
0.0
 11
-19.499999928252379
 21
59.999999999999879
 31
0.0
  0
LINE
  5
FF7
  8
SAPA_MATT
 10
-17.9999999282524
 20
-2.0000000000036819
 30
0.0
 11
-17.999999928252379
 21
56.999999999999879
 31
0.0
  0
SOLID
  5
FF8
  8
SAPA_MATT
 10
-18.4999999282524
 20
-2.0000000000036819
 30
0.0
 11
-17.4999999282524
 21
-2.0000000000036819
 31
0.0
 12
-17.9999999282524
 22
-5.0000000000036833
 32
0.0
 13
-17.9999999282524
 23
-5.0000000000036833
 33
0.0
  0
SOLID
  5
FF9
  8
SAPA_MATT
 10
-18.499999928252379
 20
56.999999999999879
 30
0.0
 11
-17.499999928252379
 21
56.999999999999879
 31
0.0
 12
-17.999999928252379
 22
59.999999999999879
 32
0.0
 13
-17.999999928252379
 23
59.999999999999879
 33
0.0
  0
INSERT
  5
FFA
  8
0
  2
*U37
 10
0.0
 20
0.0
 30
0.0
  0
POINT
  5
FFB
  8
DEFPOINTS
 62
     0
 10
22.049999999816499
 20
-5.0000000000036939
 30
0.0
  0
POINT
  5
FFC
  8
DEFPOINTS
 62
     0
 10
14.30000007175777
 20
59.999999999999872
 30
0.0
  0
POINT
  5
FFD
  8
DEFPOINTS
 62
     0
 10
-17.999999928252379
 20
59.999999999999879
 30
0.0
  0
ENDBLK
  5
FEB
  8
0
  0
BLOCK
  8
0
  2
*X31
 70
     1
 10
0.0
 20
0.0
 30
0.0
  3
*X31
  1

  0
LINE
  5
1079
  8
0
 62
     0
 10
139.04522034171541
 20
11.582373814368189
 30
0.0
 11
138.9999999277548
 21
11.53715340040759
 31
0.0
  0
LINE
  5
107A
  8
0
 62
     0
 10
139.2314874681837
 20
10.64610892570281
 30
0.0
 11
138.9999999277548
 21
10.414621385273939
 31
0.0
  0
LINE
  5
107B
  8
0
 62
     0
 10
139.5287522544362
 20
9.8208416968217804
 30
0.0
 11
138.9999999277548
 21
9.2920893701403173
 31
0.0
  0
LINE
  5
107C
  8
0
 62
     0
 10
139.9191616399809
 20
9.0887190672327307
 30
0.0
 11
138.9999999277548
 21
8.1695573550066811
 31
0.0
  0
LINE
  5
107D
  8
0
 62
     0
 10
140.39481471665391
 20
8.4418401287721352
 30
0.0
 11
138.9999999277548
 21
7.047025339873052
 31
0.0
  0
LINE
  5
107E
  8
0
 62
     0
 10
140.95430362486559
 20
7.878797021850211
 30
0.0
 11
138.9999999277548
 21
5.9244933247394078
 31
0.0
  0
LINE
  5
107F
  8
0
 62
     0
 10
141.60217573133579
 20
7.4041371131867271
 30
0.0
 11
138.9999999277548
 21
4.8019613096057929
 31
0.0
  0
LINE
  5
1080
  8
0
 62
     0
 10
142.35075441076589
 20
7.0301837774832592
 30
0.0
 11
138.9999999277548
 21
3.6794292944721501
 31
0.0
  0
LINE
  5
1081
  8
0
 62
     0
 10
143.22638571836211
 20
6.7832830699457949
 30
0.0
 11
138.99999992775491
 21
2.5568972793385281
 31
0.0
  0
LINE
  5
1082
  8
0
 62
     0
 10
144.2907394284104
 20
6.7251047648604683
 30
0.0
 11
138.99849667115441
 21
1.43286200760447
 31
0.0
  0
LINE
  5
1083
  8
0
 62
     0
 10
148.9999999277548
 20
11.43436526420488
 30
0.0
 11
148.92363608602119
 21
11.358001422471199
 31
0.0
  0
LINE
  5
1084
  8
0
 62
     0
 10
145.76608656589531
 20
7.0779198872116922
 30
0.0
 11
139.2593802864638
 21
0.5712136077802299
 31
0.0
  0
LINE
  5
1085
  8
0
 62
     0
 10
148.99999992775491
 20
10.31183324907126
 30
0.0
 11
148.43999006965689
 21
9.7518233909732341
 31
0.0
  0
LINE
  5
1086
  8
0
 62
     0
 10
148.9999999277548
 20
9.1893012339375986
 30
0.0
 11
140.5651190718105
 21
0.7544203779932773
 31
0.0
  0
LINE
  5
1087
  8
0
 62
     0
 10
148.99999992775491
 20
8.0667692188039695
 30
0.0
 11
141.78591990860059
 21
0.8526891996497099
 31
0.0
  0
LINE
  5
1088
  8
0
 62
     0
 10
148.9999999277548
 20
6.944237203670319
 30
0.0
 11
142.93738136333161
 21
0.8816186392470086
 31
0.0
  0
LINE
  5
1089
  8
0
 62
     0
 10
148.9999999277548
 20
5.8217051885366606
 30
0.0
 11
144.0303604129823
 21
0.852065673764109
 31
0.0
  0
LINE
  5
108A
  8
0
 62
     0
 10
148.9999999277548
 20
4.6991731734030324
 30
0.0
 11
145.07276903546679
 21
0.7719422811149528
 31
0.0
  0
LINE
  5
108B
  8
0
 62
     0
 10
148.99999992775491
 20
3.576641158269382
 30
0.0
 11
146.07057661514159
 21
0.6472178456561509
 31
0.0
  0
LINE
  5
108C
  8
0
 62
     0
 10
148.9999999277548
 20
2.4541091431357449
 30
0.0
 11
147.02840957961479
 21
0.4825187949956629
 31
0.0
  0
LINE
  5
108D
  8
0
 62
     0
 10
148.99999992775491
 20
1.3315771280020949
 30
0.0
 11
147.94993012140279
 21
0.2815073216499897
 31
0.0
  0
LINE
  5
108E
  8
0
 62
     0
 10
148.9999999277548
 20
0.2090451128684592
 30
0.0
 11
148.83808603074019
 21
0.0471312158537742
 31
0.0
  0
LINE
  5
108F
  8
0
 62
     0
 10
138.85117536343191
 20
0.8485977110553477
 30
0.0
 11
139.147985511234
 21
0.5517875632532708
 31
0.0
  0
LINE
  5
1090
  8
0
 62
     0
 10
138.99999992775491
 20
1.822305161866054
 30
0.0
 11
140.121051036469
 21
0.7012540531519278
 31
0.0
  0
LINE
  5
1091
  8
0
 62
     0
 10
138.99999992775491
 20
2.9448371769996982
 30
0.0
 11
141.1357776586577
 21
0.8090594460969242
 31
0.0
  0
LINE
  5
1092
  8
0
 62
     0
 10
138.9999999277548
 20
4.067369192133369
 30
0.0
 11
142.19726507094529
 21
0.870104048942892
 31
0.0
  0
LINE
  5
1093
  8
0
 62
     0
 10
138.9999999277548
 20
5.1899012072670274
 30
0.0
 11
143.312158020276
 21
0.8777431147458685
 31
0.0
  0
LINE
  5
1094
  8
0
 62
     0
 10
138.9999999277548
 20
6.3124332224006992
 30
0.0
 11
144.48937491648371
 21
0.8230582336717446
 31
0.0
  0
LINE
  5
1095
  8
0
 62
     0
 10
138.9999999277548
 20
7.4349652375343283
 30
0.0
 11
145.74135694743811
 21
0.6936082178510646
 31
0.0
  0
LINE
  5
1096
  8
0
 62
     0
 10
138.9999999277548
 20
8.5574972526680142
 30
0.0
 11
147.08638223333489
 21
0.4711149470879122
 31
0.0
  0
LINE
  5
1097
  8
0
 62
     0
 10
138.9999999277548
 20
9.6800292678016575
 30
0.0
 11
148.55332920463431
 21
0.1266999909221624
 31
0.0
  0
LINE
  5
1098
  8
0
 62
     0
 10
142.96528944010211
 20
6.8372717705879893
 30
0.0
 11
148.9999999277548
 21
0.8025612829352155
 31
0.0
  0
LINE
  5
1099
  8
0
 62
     0
 10
138.9999999277548
 20
10.802561282935301
 30
0.0
 11
139.2621674097139
 21
10.54039380097613
 31
0.0
  0
LINE
  5
109A
  8
0
 62
     0
 10
144.20478292540039
 20
6.7203103004233489
 30
0.0
 11
148.9999999277548
 21
1.9250932980688871
 31
0.0
  0
LINE
  5
109B
  8
0
 62
     0
 10
138.9999999277548
 20
11.92509329806898
 30
0.0
 11
139.01437504553621
 21
11.910718180287541
 31
0.0
  0
LINE
  5
109C
  8
0
 62
     0
 10
145.17469787669069
 20
6.8729273642666584
 30
0.0
 11
148.9999999277548
 21
3.0476253132025302
 31
0.0
  0
LINE
  5
109D
  8
0
 62
     0
 10
145.9901223838697
 20
7.1800348722212561
 30
0.0
 11
148.9999999277548
 21
4.1701573283361588
 31
0.0
  0
LINE
  5
109E
  8
0
 62
     0
 10
146.69249089581621
 20
7.6001983754084099
 30
0.0
 11
148.9999999277548
 21
5.292689343469803
 31
0.0
  0
LINE
  5
109F
  8
0
 62
     0
 10
147.3007430413094
 20
8.1144782450489004
 30
0.0
 11
148.9999999277548
 21
6.4152213586034463
 31
0.0
  0
LINE
  5
10A0
  8
0
 62
     0
 10
147.82338657536459
 20
8.7143667261273805
 30
0.0
 11
148.9999999277548
 21
7.537753373737103
 31
0.0
  0
LINE
  5
10A1
  8
0
 62
     0
 10
148.26229306071221
 20
9.3979922559134224
 30
0.0
 11
148.9999999277548
 21
8.6602853888707312
 31
0.0
  0
LINE
  5
10A2
  8
0
 62
     0
 10
148.61341571772141
 20
10.16940161403776
 30
0.0
 11
148.9999999277548
 21
9.7828174040043621
 31
0.0
  0
LINE
  5
10A3
  8
0
 62
     0
 10
148.8651857786289
 20
11.040163568264029
 30
0.0
 11
148.9999999277548
 21
10.905349419138
 31
0.0
  0
LINE
  5
10A4
  8
0
 62
     0
 10
148.99279897802481
 20
12.035082384001679
 30
0.0
 11
148.9999999277548
 21
12.027881434271681
 31
0.0
  0
ENDBLK
  5
10A6
  8
0
  0
BLOCK
  8
0
  2
*X32
 70
     1
 10
0.0
 20
0.0
 30
0.0
  3
*X32
  1

  0
LINE
  5
10A8
  8
0
 62
     0
 10
142.4781050852867
 20
7.0695983546620083
 30
0.0
 11
142.54131339093519
 21
6.9601183578185983
 31
0.0
  0
LINE
  5
10A9
  8
0
 62
     0
 10
141.28748008528669
 20
9.1318213474237027
 30
0.0
 11
141.68435508528671
 21
8.4444136831698042
 31
0.0
  0
LINE
  5
10AA
  8
0
 62
     0
 10
140.09685508528679
 20
11.1940443401854
 30
0.0
 11
140.49373008528681
 21
10.5066366759315
 31
0.0
  0
LINE
  5
10AB
  8
0
 62
     0
 10
139.03797136426141
 20
13.02808474430902
 30
0.0
 11
139.3031050852868
 21
12.568859668693189
 31
0.0
  0
LINE
  5
10AC
  8
0
 62
     0
 10
143.66872980079069
 20
7.7570058546619931
 30
0.0
 11
144.06560480079071
 21
7.0695981904080938
 31
0.0
  0
LINE
  5
10AD
  8
0
 62
     0
 10
142.4781048007907
 20
9.8192288474236875
 30
0.0
 11
142.8749798007907
 21
9.1318211831697891
 31
0.0
  0
LINE
  5
10AE
  8
0
 62
     0
 10
141.28747980079069
 20
11.881451840185379
 30
0.0
 11
141.68435480079069
 21
11.194044175931481
 31
0.0
  0
LINE
  5
10AF
  8
0
 62
     0
 10
140.09685480079071
 20
13.94367483294708
 30
0.0
 11
140.4937298007907
 21
13.25626716869318
 31
0.0
  0
LINE
  5
10B0
  8
0
 62
     0
 10
144.8593545162945
 20
8.4444133546620126
 30
0.0
 11
145.2562295162945
 21
7.7570056904081142
 31
0.0
  0
LINE
  5
10B1
  8
0
 62
     0
 10
143.66872951629449
 20
10.50663634742371
 30
0.0
 11
144.06560451629451
 21
9.8192286831698095
 31
0.0
  0
LINE
  5
10B2
  8
0
 62
     0
 10
142.47810451629459
 20
12.5688593401854
 30
0.0
 11
142.87497951629459
 21
11.881451675931499
 31
0.0
  0
LINE
  5
10B3
  8
0
 62
     0
 10
141.28747951629461
 20
14.6310823329471
 30
0.0
 11
141.6843545162946
 21
13.9436746686932
 31
0.0
  0
LINE
  5
10B4
  8
0
 62
     0
 10
140.37616464357211
 20
16.209525994195602
 30
0.0
 11
140.49372951629459
 21
16.005897661454888
 31
0.0
  0
LINE
  5
10B5
  8
0
 62
     0
 10
146.0499792317984
 20
9.1318208546619992
 30
0.0
 11
146.4468542317984
 21
8.4444131904081026
 31
0.0
  0
LINE
  5
10B6
  8
0
 62
     0
 10
144.85935423179839
 20
11.194043847423689
 30
0.0
 11
145.2562292317985
 21
10.506636183169791
 31
0.0
  0
LINE
  5
10B7
  8
0
 62
     0
 10
143.66872923179849
 20
13.25626684018539
 30
0.0
 11
144.06560423179849
 21
12.56885917593149
 31
0.0
  0
LINE
  5
10B8
  8
0
 62
     0
 10
142.47810423179851
 20
15.31848983294709
 30
0.0
 11
142.87497923179851
 21
14.63108216869319
 31
0.0
  0
LINE
  5
10B9
  8
0
 62
     0
 10
141.41983199668559
 20
17.151471112402181
 30
0.0
 11
141.68435423179849
 21
16.69330516145488
 31
0.0
  0
LINE
  5
10BA
  8
0
 62
     0
 10
147.2406039473023
 20
9.8192283546619965
 30
0.0
 11
147.6374789473023
 21
9.1318206904080981
 31
0.0
  0
LINE
  5
10BB
  8
0
 62
     0
 10
146.04997894730241
 20
11.88145134742369
 30
0.0
 11
146.44685394730229
 21
11.19404368316979
 31
0.0
  0
LINE
  5
10BC
  8
0
 62
     0
 10
144.8593539473024
 20
13.943674340185391
 30
0.0
 11
145.25622894730239
 21
13.25626667593149
 31
0.0
  0
LINE
  5
10BD
  8
0
 62
     0
 10
143.66872894730241
 20
16.005897332947079
 30
0.0
 11
144.06560394730241
 21
15.31848966869318
 31
0.0
  0
LINE
  5
10BE
  8
0
 62
     0
 10
142.66048067273141
 20
17.752234571147781
 30
0.0
 11
142.8749789473024
 21
17.380712661454879
 31
0.0
  0
LINE
  5
10BF
  8
0
 62
     0
 10
148.43122866280621
 20
10.506635854661999
 30
0.0
 11
148.61830667416149
 21
10.182607234015711
 31
0.0
  0
LINE
  5
10C0
  8
0
 62
     0
 10
147.24060366280631
 20
12.5688588474237
 30
0.0
 11
147.63747866280619
 21
11.8814511831698
 31
0.0
  0
LINE
  5
10C1
  8
0
 62
     0
 10
146.0499786628063
 20
14.63108184018539
 30
0.0
 11
146.44685366280629
 21
13.94367417593149
 31
0.0
  0
LINE
  5
10C2
  8
0
 62
     0
 10
144.85935366280631
 20
16.693304832947089
 30
0.0
 11
145.25622866280631
 21
16.005897168693188
 31
0.0
  0
LINE
  5
10C3
  8
0
 62
     0
 10
148.43122837831021
 20
13.256266347423679
 30
0.0
 11
148.8281033783102
 21
12.56885868316979
 31
0.0
  0
LINE
  5
10C4
  8
0
 62
     0
 10
147.2406033783102
 20
15.31848934018538
 30
0.0
 11
147.63747837831019
 21
14.63108167593148
 31
0.0
  0
LINE
  5
10C5
  8
0
 62
     0
 10
146.04997837831019
 20
17.38071233294707
 30
0.0
 11
146.44685337831021
 21
16.69330466869318
 31
0.0
  0
LINE
  5
10C6
  8
0
 62
     0
 10
139.3030951279234
 20
12.56888841312538
 30
0.0
 11
139.00628919786649
 21
12.054805462279109
 31
0.0
  0
LINE
  5
10C7
  8
0
 62
     0
 10
140.49372012792341
 20
14.63111140588707
 30
0.0
 11
140.09684512792339
 21
13.94370374163317
 31
0.0
  0
LINE
  5
10C8
  8
0
 62
     0
 10
141.68434512792331
 20
16.693334398648759
 30
0.0
 11
141.2874701279234
 21
16.005926734394858
 31
0.0
  0
LINE
  5
10C9
  8
0
 62
     0
 10
140.4937198434273
 20
11.88148091312538
 30
0.0
 11
140.09684484342731
 21
11.194073248871479
 31
0.0
  0
LINE
  5
10CA
  8
0
 62
     0
 10
141.68434484342731
 20
13.94370390588707
 30
0.0
 11
141.28746984342729
 21
13.256296241633169
 31
0.0
  0
LINE
  5
10CB
  8
0
 62
     0
 10
142.87496984342729
 20
16.00592689864877
 30
0.0
 11
142.4780948434273
 21
15.31851923439487
 31
0.0
  0
LINE
  5
10CC
  8
0
 62
     0
 10
144.00183134728769
 20
17.957708276428558
 30
0.0
 11
143.66871984342731
 21
17.38074222715656
 31
0.0
  0
LINE
  5
10CD
  8
0
 62
     0
 10
140.49371955893119
 20
9.1318504203636746
 30
0.0
 11
140.21983906125081
 21
8.6574754831789225
 31
0.0
  0
LINE
  5
10CE
  8
0
 62
     0
 10
141.6843445589312
 20
11.19407341312537
 30
0.0
 11
141.28746955893121
 21
10.50666574887147
 31
0.0
  0
LINE
  5
10CF
  8
0
 62
     0
 10
142.87496955893121
 20
13.25629640588706
 30
0.0
 11
142.47809455893119
 21
12.56888874163316
 31
0.0
  0
LINE
  5
10D0
  8
0
 62
     0
 10
144.0655945589312
 20
15.31851939864875
 30
0.0
 11
143.6687195589312
 21
14.63111173439485
 31
0.0
  0
LINE
  5
10D1
  8
0
 62
     0
 10
145.25621955893121
 20
17.38074239141045
 30
0.0
 11
144.85934455893121
 21
16.69333472715655
 31
0.0
  0
LINE
  5
10D2
  8
0
 62
     0
 10
141.68434427443509
 20
8.4444429203636862
 30
0.0
 11
141.2874692744351
 21
7.7570352561097877
 31
0.0
  0
LINE
  5
10D3
  8
0
 62
     0
 10
142.8749692744351
 20
10.50666591312538
 30
0.0
 11
142.47809427443511
 21
9.8192582488714812
 31
0.0
  0
LINE
  5
10D4
  8
0
 62
     0
 10
144.06559427443511
 20
12.56888890588707
 30
0.0
 11
143.66871927443509
 21
11.881481241633169
 31
0.0
  0
LINE
  5
10D5
  8
0
 62
     0
 10
145.2562192744351
 20
14.63111189864877
 30
0.0
 11
144.8593442744351
 21
13.94370423439487
 31
0.0
  0
LINE
  5
10D6
  8
0
 62
     0
 10
146.44684427443511
 20
16.693334891410458
 30
0.0
 11
146.04996927443511
 21
16.005927227156558
 31
0.0
  0
LINE
  5
10D7
  8
0
 62
     0
 10
142.87496898993899
 20
7.7570354203636711
 30
0.0
 11
142.478093989939
 21
7.0696277561097727
 31
0.0
  0
LINE
  5
10D8
  8
0
 62
     0
 10
144.065593989939
 20
9.8192584131253646
 30
0.0
 11
143.66871898993901
 21
9.1318507488714662
 31
0.0
  0
LINE
  5
10D9
  8
0
 62
     0
 10
145.25621898993899
 20
11.881481405887049
 30
0.0
 11
144.85934398993899
 21
11.19407374163316
 31
0.0
  0
LINE
  5
10DA
  8
0
 62
     0
 10
146.446843989939
 20
13.94370439864875
 30
0.0
 11
146.049968989939
 21
13.25629673439485
 31
0.0
  0
LINE
  5
10DB
  8
0
 62
     0
 10
147.63746898993901
 20
16.005927391410442
 30
0.0
 11
147.24059398993899
 21
15.31851972715655
 31
0.0
  0
LINE
  5
10DC
  8
0
 62
     0
 10
144.06559370544289
 20
7.0696279203636907
 30
0.0
 11
143.86242080379969
 21
6.717722131996358
 31
0.0
  0
LINE
  5
10DD
  8
0
 62
     0
 10
145.2562187054429
 20
9.1318509131253851
 30
0.0
 11
144.85934370544291
 21
8.4444432488714867
 31
0.0
  0
LINE
  5
10DE
  8
0
 62
     0
 10
146.44684370544289
 20
11.19407390588708
 30
0.0
 11
146.04996870544289
 21
10.50666624163318
 31
0.0
  0
LINE
  5
10DF
  8
0
 62
     0
 10
147.6374687054429
 20
13.25629689864877
 30
0.0
 11
147.2405937054429
 21
12.56888923439487
 31
0.0
  0
LINE
  5
10E0
  8
0
 62
     0
 10
148.5089946183455
 20
14.76582405990888
 30
0.0
 11
148.43121870544289
 21
14.631112227156571
 31
0.0
  0
LINE
  5
10E1
  8
0
 62
     0
 10
146.44684342094681
 20
8.4444434131253772
 30
0.0
 11
146.04996842094681
 21
7.7570357488714814
 31
0.0
  0
LINE
  5
10E2
  8
0
 62
     0
 10
147.63746842094679
 20
10.506666405887071
 30
0.0
 11
147.24059342094679
 21
9.819258741633174
 31
0.0
  0
LINE
  5
10E3
  8
0
 62
     0
 10
148.8280934209468
 20
12.568889398648761
 30
0.0
 11
148.43121842094681
 21
11.88148173439486
 31
0.0
  0
LINE
  5
10E4
  8
0
 62
     0
 10
145.25625000001361
 20
7.757029999985007
 30
0.0
 11
146.0500000000136
 21
7.757029999985007
 31
0.0
  0
LINE
  5
10E5
  8
0
 62
     0
 10
142.87500000001361
 20
7.757029999985007
 30
0.0
 11
143.6687500000136
 21
7.757029999985007
 31
0.0
  0
LINE
  5
10E6
  8
0
 62
     0
 10
141.1007687474137
 20
7.757029999985007
 30
0.0
 11
141.28750000001349
 21
7.757029999985007
 31
0.0
  0
LINE
  5
10E7
  8
0
 62
     0
 10
147.63750000001349
 20
9.1318449999850131
 30
0.0
 11
148.1077274650826
 21
9.1318449999850131
 31
0.0
  0
LINE
  5
10E8
  8
0
 62
     0
 10
145.25625000001361
 20
9.1318449999850131
 30
0.0
 11
146.0500000000136
 21
9.1318449999850131
 31
0.0
  0
LINE
  5
10E9
  8
0
 62
     0
 10
142.87500000001361
 20
9.1318449999850131
 30
0.0
 11
143.6687500000136
 21
9.1318449999850131
 31
0.0
  0
LINE
  5
10EA
  8
0
 62
     0
 10
140.49375000001359
 20
9.1318449999850131
 30
0.0
 11
141.28750000001349
 21
9.1318449999850131
 31
0.0
  0
LINE
  5
10EB
  8
0
 62
     0
 10
147.63750000001349
 20
10.506659999985009
 30
0.0
 11
148.43125000001351
 21
10.506659999985009
 31
0.0
  0
LINE
  5
10EC
  8
0
 62
     0
 10
145.25625000001361
 20
10.506659999985009
 30
0.0
 11
146.0500000000136
 21
10.506659999985009
 31
0.0
  0
LINE
  5
10ED
  8
0
 62
     0
 10
142.87500000001361
 20
10.506659999985009
 30
0.0
 11
143.6687500000136
 21
10.506659999985009
 31
0.0
  0
LINE
  5
10EE
  8
0
 62
     0
 10
140.49375000001359
 20
10.506659999985009
 30
0.0
 11
141.28750000001349
 21
10.506659999985009
 31
0.0
  0
LINE
  5
10EF
  8
0
 62
     0
 10
147.63750000001349
 20
11.881474999985009
 30
0.0
 11
148.43125000001351
 21
11.881474999985009
 31
0.0
  0
LINE
  5
10F0
  8
0
 62
     0
 10
145.25625000001361
 20
11.881474999985009
 30
0.0
 11
146.0500000000136
 21
11.881474999985009
 31
0.0
  0
LINE
  5
10F1
  8
0
 62
     0
 10
142.87500000001361
 20
11.881474999985009
 30
0.0
 11
143.6687500000136
 21
11.881474999985009
 31
0.0
  0
LINE
  5
10F2
  8
0
 62
     0
 10
140.49375000001359
 20
11.881474999985009
 30
0.0
 11
141.28750000001349
 21
11.881474999985009
 31
0.0
  0
LINE
  5
10F3
  8
0
 62
     0
 10
147.63750000001349
 20
13.256289999985009
 30
0.0
 11
148.43125000001351
 21
13.256289999985009
 31
0.0
  0
LINE
  5
10F4
  8
0
 62
     0
 10
145.25625000001361
 20
13.256289999985009
 30
0.0
 11
146.0500000000136
 21
13.256289999985009
 31
0.0
  0
LINE
  5
10F5
  8
0
 62
     0
 10
142.87500000001361
 20
13.256289999985009
 30
0.0
 11
143.6687500000136
 21
13.256289999985009
 31
0.0
  0
LINE
  5
10F6
  8
0
 62
     0
 10
140.49375000001359
 20
13.256289999985009
 30
0.0
 11
141.28750000001349
 21
13.256289999985009
 31
0.0
  0
LINE
  5
10F7
  8
0
 62
     0
 10
147.63750000001349
 20
14.631104999985009
 30
0.0
 11
148.43125000001351
 21
14.631104999985009
 31
0.0
  0
LINE
  5
10F8
  8
0
 62
     0
 10
145.25625000001361
 20
14.631104999985009
 30
0.0
 11
146.0500000000136
 21
14.631104999985009
 31
0.0
  0
LINE
  5
10F9
  8
0
 62
     0
 10
142.87500000001361
 20
14.631104999985009
 30
0.0
 11
143.6687500000136
 21
14.631104999985009
 31
0.0
  0
LINE
  5
10FA
  8
0
 62
     0
 10
140.49375000001359
 20
14.631104999985009
 30
0.0
 11
141.28750000001349
 21
14.631104999985009
 31
0.0
  0
LINE
  5
10FB
  8
0
 62
     0
 10
147.63750000001349
 20
16.005919999985011
 30
0.0
 11
147.78777218175779
 21
16.005919999985011
 31
0.0
  0
LINE
  5
10FC
  8
0
 62
     0
 10
145.25625000001361
 20
16.005919999985011
 30
0.0
 11
146.0500000000136
 21
16.005919999985011
 31
0.0
  0
LINE
  5
10FD
  8
0
 62
     0
 10
142.87500000001361
 20
16.005919999985011
 30
0.0
 11
143.6687500000136
 21
16.005919999985011
 31
0.0
  0
LINE
  5
10FE
  8
0
 62
     0
 10
140.49375000001359
 20
16.005919999985011
 30
0.0
 11
141.28750000001349
 21
16.005919999985011
 31
0.0
  0
LINE
  5
10FF
  8
0
 62
     0
 10
145.25625000001361
 20
17.380734999985009
 30
0.0
 11
146.0500000000136
 21
17.380734999985009
 31
0.0
  0
LINE
  5
1100
  8
0
 62
     0
 10
142.87500000001361
 20
17.380734999985009
 30
0.0
 11
143.6687500000136
 21
17.380734999985009
 31
0.0
  0
ENDBLK
  5
1102
  8
0
  0
BLOCK
  8
0
  2
*X33
 70
     1
 10
0.0
 20
0.0
 30
0.0
  3
*X33
  1

  0
LINE
  5
153B
  8
0
 62
     0
 10
22.319848480486151
 20
-4.7999999999993586
 30
0.0
 11
22.999999999831111
 21
-4.1198484806544036
 31
0.0
  0
LINE
  5
153C
  8
0
 62
     0
 10
22.24999999947968
 20
-3.7473164658721898
 30
0.0
 11
22.999999999831111
 21
-2.9973164655207611
 31
0.0
  0
LINE
  5
153D
  8
0
 62
     0
 10
22.249999999480899
 20
-2.624784450737315
 30
0.0
 11
22.999999999831111
 21
-1.8747844503871161
 31
0.0
  0
LINE
  5
153E
  8
0
 62
     0
 10
22.249999999482132
 20
-1.5022524356024449
 30
0.0
 11
22.999999999831111
 21
-0.7522524352534729
 31
0.0
  0
LINE
  5
153F
  8
0
 62
     0
 10
22.249999999483361
 20
-0.3797204204675708
 30
0.0
 11
22.999999999831111
 21
0.3702795798801697
 31
0.0
  0
LINE
  5
1540
  8
0
 62
     0
 10
22.249999999484601
 20
0.7428115946673071
 30
0.0
 11
22.999999999831111
 21
1.4928115950138141
 31
0.0
  0
LINE
  5
1541
  8
0
 62
     0
 10
22.24999999948583
 20
1.8653436098021801
 30
0.0
 11
22.999999999831111
 21
2.6153436101474581
 31
0.0
  0
LINE
  5
1542
  8
0
 62
     0
 10
22.249999999487059
 20
2.9878756249370522
 30
0.0
 11
22.999999999831111
 21
3.7378756252811018
 31
0.0
  0
LINE
  5
1543
  8
0
 62
     0
 10
22.249999999488288
 20
4.1104076400719274
 30
0.0
 11
22.999999999831111
 21
4.8604076404147447
 31
0.0
  0
LINE
  5
1544
  8
0
 62
     0
 10
22.249999999489521
 20
5.2329396552068017
 30
0.0
 11
22.999999999831111
 21
5.9829396555483889
 31
0.0
  0
LINE
  5
1545
  8
0
 62
     0
 10
22.24999999949075
 20
6.3554716703416743
 30
0.0
 11
22.999999999831111
 21
7.1054716706820331
 31
0.0
  0
LINE
  5
1546
  8
0
 62
     0
 10
22.24999999949198
 20
7.4780036854765468
 30
0.0
 11
22.771996314027259
 21
8.0000000000118323
 31
0.0
  0
LINE
  5
1547
  8
0
 62
     0
 10
22.249999999479531
 20
-3.8797204197180788
 30
0.0
 11
22.999999999831111
 21
-4.6297204200696562
 31
0.0
  0
LINE
  5
1548
  8
0
 62
     0
 10
22.24999999948076
 20
-2.7571884045856652
 30
0.0
 11
22.999999999831111
 21
-3.507188404936012
 31
0.0
  0
LINE
  5
1549
  8
0
 62
     0
 10
22.249999999481989
 20
-1.6346563894532511
 30
0.0
 11
22.999999999831111
 21
-2.3846563898023669
 31
0.0
  0
LINE
  5
154A
  8
0
 62
     0
 10
22.249999999483219
 20
-0.5121243743208375
 30
0.0
 11
22.999999999831111
 21
-1.2621243746687241
 31
0.0
  0
LINE
  5
154B
  8
0
 62
     0
 10
22.249999999484452
 20
0.6104076408115767
 30
0.0
 11
22.999999999831111
 21
-0.1395923595350812
 31
0.0
  0
LINE
  5
154C
  8
0
 62
     0
 10
22.249999999485681
 20
1.732939655943992
 30
0.0
 11
22.999999999831111
 21
0.9829396555985621
 31
0.0
  0
LINE
  5
154D
  8
0
 62
     0
 10
22.24999999948691
 20
2.8554716710764039
 30
0.0
 11
22.999999999831111
 21
2.1054716707322081
 31
0.0
  0
LINE
  5
154E
  8
0
 62
     0
 10
22.249999999488139
 20
3.9780036862088179
 30
0.0
 11
22.999999999831111
 21
3.2280036858658518
 31
0.0
  0
LINE
  5
154F
  8
0
 62
     0
 10
22.249999999489368
 20
5.1005357013412338
 30
0.0
 11
22.999999999831111
 21
4.3505357009994992
 31
0.0
  0
LINE
  5
1550
  8
0
 62
     0
 10
22.249999999490601
 20
6.2230677164736488
 30
0.0
 11
22.999999999831111
 21
5.4730677161331416
 31
0.0
  0
LINE
  5
1551
  8
0
 62
     0
 10
22.24999999949183
 20
7.3455997316060619
 30
0.0
 11
22.999999999831111
 21
6.5955997312667858
 31
0.0
  0
LINE
  5
1552
  8
0
 62
     0
 10
22.718131746219651
 20
8.0000000000118892
 30
0.0
 11
22.999999999831111
 21
7.7181317464004309
 31
0.0
  0
ENDBLK
  5
1554
  8
0
  0
BLOCK
  8
0
  2
*X34
 70
     1
 10
0.0
 20
0.0
 30
0.0
  3
*X34
  1

  0
LINE
  5
1556
  8
0
 62
     0
 10
64.999999999831431
 20
-4.7760650557325732
 30
0.0
 11
65.749999999843723
 21
-4.0260650557202791
 31
0.0
  0
LINE
  5
1557
  8
0
 62
     0
 10
64.999999999831417
 20
-3.653533040598929
 30
0.0
 11
65.749999999842487
 21
-2.903533040587861
 31
0.0
  0
LINE
  5
1558
  8
0
 62
     0
 10
64.999999999831431
 20
-2.5310010254652839
 30
0.0
 11
65.749999999841265
 21
-1.78100102545545
 31
0.0
  0
LINE
  5
1559
  8
0
 62
     0
 10
64.999999999831431
 20
-1.4084690103316371
 30
0.0
 11
65.749999999840028
 21
-0.6584690103230316
 31
0.0
  0
LINE
  5
155A
  8
0
 62
     0
 10
64.999999999831431
 20
-0.2859369951979929
 30
0.0
 11
65.74999999983882
 21
0.4640630048093862
 31
0.0
  0
LINE
  5
155B
  8
0
 62
     0
 10
64.999999999831431
 20
0.8365950199356522
 30
0.0
 11
65.74999999983757
 21
1.586595019941796
 31
0.0
  0
LINE
  5
155C
  8
0
 62
     0
 10
64.999999999831431
 20
1.959127035069304
 30
0.0
 11
65.749999999836348
 21
2.7091270350742191
 31
0.0
  0
LINE
  5
155D
  8
0
 62
     0
 10
64.999999999831431
 20
3.0816590502029468
 30
0.0
 11
65.749999999835111
 21
3.8316590502066279
 31
0.0
  0
LINE
  5
155E
  8
0
 62
     0
 10
64.999999999831431
 20
4.2041910653365919
 30
0.0
 11
65.749999999833889
 21
4.9541910653390451
 31
0.0
  0
LINE
  5
155F
  8
0
 62
     0
 10
64.999999999831445
 20
5.3267230804702388
 30
0.0
 11
65.749999999832653
 21
6.0767230804714556
 31
0.0
  0
LINE
  5
1560
  8
0
 62
     0
 10
64.999999999831431
 20
6.4492550956038812
 30
0.0
 11
65.749999999831431
 21
7.1992550956038741
 31
0.0
  0
LINE
  5
1561
  8
0
 62
     0
 10
64.999999999831431
 20
7.5717871107375236
 30
0.0
 11
65.428212889105936
 21
8.0000000000120295
 31
0.0
  0
LINE
  5
1562
  8
0
 62
     0
 10
64.999999999831431
 20
-3.973503844991515
 30
0.0
 11
65.749999999844491
 21
-4.7235038450045748
 31
0.0
  0
LINE
  5
1563
  8
0
 62
     0
 10
64.999999999831431
 20
-2.850971829857861
 30
0.0
 11
65.749999999843254
 21
-3.6009718298696991
 31
0.0
  0
LINE
  5
1564
  8
0
 62
     0
 10
64.999999999831431
 20
-1.7284398147242179
 30
0.0
 11
65.749999999842032
 21
-2.478439814734819
 31
0.0
  0
LINE
  5
1565
  8
0
 62
     0
 10
64.999999999831417
 20
-0.6059077995905753
 30
0.0
 11
65.74999999984081
 21
-1.355907799599954
 31
0.0
  0
LINE
  5
1566
  8
0
 62
     0
 10
64.999999999831431
 20
0.5166242155430681
 30
0.0
 11
65.749999999839574
 21
-0.2333757844650783
 31
0.0
  0
LINE
  5
1567
  8
0
 62
     0
 10
64.999999999831431
 20
1.639156230676704
 30
0.0
 11
65.749999999838337
 21
0.8891562306697871
 31
0.0
  0
LINE
  5
1568
  8
0
 62
     0
 10
64.999999999831445
 20
2.761688245810344
 30
0.0
 11
65.749999999837115
 21
2.0116882458046699
 31
0.0
  0
LINE
  5
1569
  8
0
 62
     0
 10
64.999999999831431
 20
3.88422026094399
 30
0.0
 11
65.749999999835893
 21
3.1342202609395349
 31
0.0
  0
LINE
  5
156A
  8
0
 62
     0
 10
64.999999999831431
 20
5.0067522760776342
 30
0.0
 11
65.749999999834657
 21
4.2567522760744154
 31
0.0
  0
LINE
  5
156B
  8
0
 62
     0
 10
64.999999999831445
 20
6.1292842912112766
 30
0.0
 11
65.749999999833435
 21
5.3792842912092844
 31
0.0
  0
LINE
  5
156C
  8
0
 62
     0
 10
64.999999999831445
 20
7.2518163063449173
 30
0.0
 11
65.749999999832184
 21
6.5018163063441561
 31
0.0
  0
LINE
  5
156D
  8
0
 62
     0
 10
65.374348321298029
 20
8.0000000000119726
 30
0.0
 11
65.749999999830976
 21
7.6243483214790286
 31
0.0
  0
ENDBLK
  5
156F
  8
0
  0
BLOCK
  8
0
  2
*X35
 70
     1
 10
0.0
 20
0.0
 30
0.0
  3
*X35
  1

  0
LINE
  5
158C
  8
0
 62
     0
 10
22.319848480486151
 20
-4.7999999999993586
 30
0.0
 11
22.999999999831111
 21
-4.1198484806544036
 31
0.0
  0
LINE
  5
158D
  8
0
 62
     0
 10
22.24999999947968
 20
-3.7473164658721898
 30
0.0
 11
22.999999999831111
 21
-2.9973164655207611
 31
0.0
  0
LINE
  5
158E
  8
0
 62
     0
 10
22.249999999480899
 20
-2.624784450737315
 30
0.0
 11
22.999999999831111
 21
-1.8747844503871161
 31
0.0
  0
LINE
  5
158F
  8
0
 62
     0
 10
22.249999999482132
 20
-1.5022524356024449
 30
0.0
 11
22.999999999831111
 21
-0.7522524352534729
 31
0.0
  0
LINE
  5
1590
  8
0
 62
     0
 10
22.249999999483361
 20
-0.3797204204675708
 30
0.0
 11
22.999999999831111
 21
0.3702795798801697
 31
0.0
  0
LINE
  5
1591
  8
0
 62
     0
 10
22.249999999484601
 20
0.7428115946673071
 30
0.0
 11
22.999999999831111
 21
1.4928115950138141
 31
0.0
  0
LINE
  5
1592
  8
0
 62
     0
 10
22.24999999948583
 20
1.8653436098021801
 30
0.0
 11
22.999999999831111
 21
2.6153436101474581
 31
0.0
  0
LINE
  5
1593
  8
0
 62
     0
 10
22.249999999487059
 20
2.9878756249370522
 30
0.0
 11
22.999999999831111
 21
3.7378756252811018
 31
0.0
  0
LINE
  5
1594
  8
0
 62
     0
 10
22.249999999488288
 20
4.1104076400719274
 30
0.0
 11
22.999999999831111
 21
4.8604076404147447
 31
0.0
  0
LINE
  5
1595
  8
0
 62
     0
 10
22.249999999489521
 20
5.2329396552068017
 30
0.0
 11
22.999999999831111
 21
5.9829396555483889
 31
0.0
  0
LINE
  5
1596
  8
0
 62
     0
 10
22.24999999949075
 20
6.3554716703416743
 30
0.0
 11
22.999999999831111
 21
7.1054716706820331
 31
0.0
  0
LINE
  5
1597
  8
0
 62
     0
 10
22.24999999949198
 20
7.4780036854765468
 30
0.0
 11
22.771996314027259
 21
8.0000000000118323
 31
0.0
  0
LINE
  5
1598
  8
0
 62
     0
 10
22.249999999479531
 20
-3.8797204197180788
 30
0.0
 11
22.999999999831111
 21
-4.6297204200696562
 31
0.0
  0
LINE
  5
1599
  8
0
 62
     0
 10
22.24999999948076
 20
-2.7571884045856652
 30
0.0
 11
22.999999999831111
 21
-3.507188404936012
 31
0.0
  0
LINE
  5
159A
  8
0
 62
     0
 10
22.249999999481989
 20
-1.6346563894532511
 30
0.0
 11
22.999999999831111
 21
-2.3846563898023669
 31
0.0
  0
LINE
  5
159B
  8
0
 62
     0
 10
22.249999999483219
 20
-0.5121243743208375
 30
0.0
 11
22.999999999831111
 21
-1.2621243746687241
 31
0.0
  0
LINE
  5
159C
  8
0
 62
     0
 10
22.249999999484452
 20
0.6104076408115767
 30
0.0
 11
22.999999999831111
 21
-0.1395923595350812
 31
0.0
  0
LINE
  5
159D
  8
0
 62
     0
 10
22.249999999485681
 20
1.732939655943992
 30
0.0
 11
22.999999999831111
 21
0.9829396555985621
 31
0.0
  0
LINE
  5
159E
  8
0
 62
     0
 10
22.24999999948691
 20
2.8554716710764039
 30
0.0
 11
22.999999999831111
 21
2.1054716707322081
 31
0.0
  0
LINE
  5
159F
  8
0
 62
     0
 10
22.249999999488139
 20
3.9780036862088179
 30
0.0
 11
22.999999999831111
 21
3.2280036858658518
 31
0.0
  0
LINE
  5
15A0
  8
0
 62
     0
 10
22.249999999489368
 20
5.1005357013412338
 30
0.0
 11
22.999999999831111
 21
4.3505357009994992
 31
0.0
  0
LINE
  5
15A1
  8
0
 62
     0
 10
22.249999999490601
 20
6.2230677164736488
 30
0.0
 11
22.999999999831111
 21
5.4730677161331416
 31
0.0
  0
LINE
  5
15A2
  8
0
 62
     0
 10
22.24999999949183
 20
7.3455997316060619
 30
0.0
 11
22.999999999831111
 21
6.5955997312667858
 31
0.0
  0
LINE
  5
15A3
  8
0
 62
     0
 10
22.718131746219651
 20
8.0000000000118892
 30
0.0
 11
22.999999999831111
 21
7.7181317464004309
 31
0.0
  0
ENDBLK
  5
15A5
  8
0
  0
BLOCK
  8
0
  2
*X36
 70
     1
 10
0.0
 20
0.0
 30
0.0
  3
*X36
  1

  0
LINE
  5
15A7
  8
0
 62
     0
 10
64.999999999831431
 20
-4.7760650557325732
 30
0.0
 11
65.749999999843723
 21
-4.0260650557202791
 31
0.0
  0
LINE
  5
15A8
  8
0
 62
     0
 10
64.999999999831417
 20
-3.653533040598929
 30
0.0
 11
65.749999999842487
 21
-2.903533040587861
 31
0.0
  0
LINE
  5
15A9
  8
0
 62
     0
 10
64.999999999831431
 20
-2.5310010254652839
 30
0.0
 11
65.749999999841265
 21
-1.78100102545545
 31
0.0
  0
LINE
  5
15AA
  8
0
 62
     0
 10
64.999999999831431
 20
-1.4084690103316371
 30
0.0
 11
65.749999999840028
 21
-0.6584690103230316
 31
0.0
  0
LINE
  5
15AB
  8
0
 62
     0
 10
64.999999999831431
 20
-0.2859369951979929
 30
0.0
 11
65.74999999983882
 21
0.4640630048093862
 31
0.0
  0
LINE
  5
15AC
  8
0
 62
     0
 10
64.999999999831431
 20
0.8365950199356522
 30
0.0
 11
65.74999999983757
 21
1.586595019941796
 31
0.0
  0
LINE
  5
15AD
  8
0
 62
     0
 10
64.999999999831431
 20
1.959127035069304
 30
0.0
 11
65.749999999836348
 21
2.7091270350742191
 31
0.0
  0
LINE
  5
15AE
  8
0
 62
     0
 10
64.999999999831431
 20
3.0816590502029468
 30
0.0
 11
65.749999999835111
 21
3.8316590502066279
 31
0.0
  0
LINE
  5
15AF
  8
0
 62
     0
 10
64.999999999831431
 20
4.2041910653365919
 30
0.0
 11
65.749999999833889
 21
4.9541910653390451
 31
0.0
  0
LINE
  5
15B0
  8
0
 62
     0
 10
64.999999999831445
 20
5.3267230804702388
 30
0.0
 11
65.749999999832653
 21
6.0767230804714556
 31
0.0
  0
LINE
  5
15B1
  8
0
 62
     0
 10
64.999999999831431
 20
6.4492550956038812
 30
0.0
 11
65.749999999831431
 21
7.1992550956038741
 31
0.0
  0
LINE
  5
15B2
  8
0
 62
     0
 10
64.999999999831431
 20
7.5717871107375236
 30
0.0
 11
65.428212889105936
 21
8.0000000000120295
 31
0.0
  0
LINE
  5
15B3
  8
0
 62
     0
 10
64.999999999831431
 20
-3.973503844991515
 30
0.0
 11
65.749999999844491
 21
-4.7235038450045748
 31
0.0
  0
LINE
  5
15B4
  8
0
 62
     0
 10
64.999999999831431
 20
-2.850971829857861
 30
0.0
 11
65.749999999843254
 21
-3.6009718298696991
 31
0.0
  0
LINE
  5
15B5
  8
0
 62
     0
 10
64.999999999831431
 20
-1.7284398147242179
 30
0.0
 11
65.749999999842032
 21
-2.478439814734819
 31
0.0
  0
LINE
  5
15B6
  8
0
 62
     0
 10
64.999999999831417
 20
-0.6059077995905753
 30
0.0
 11
65.74999999984081
 21
-1.355907799599954
 31
0.0
  0
LINE
  5
15B7
  8
0
 62
     0
 10
64.999999999831431
 20
0.5166242155430681
 30
0.0
 11
65.749999999839574
 21
-0.2333757844650783
 31
0.0
  0
LINE
  5
15B8
  8
0
 62
     0
 10
64.999999999831431
 20
1.639156230676704
 30
0.0
 11
65.749999999838337
 21
0.8891562306697871
 31
0.0
  0
LINE
  5
15B9
  8
0
 62
     0
 10
64.999999999831445
 20
2.761688245810344
 30
0.0
 11
65.749999999837115
 21
2.0116882458046699
 31
0.0
  0
LINE
  5
15BA
  8
0
 62
     0
 10
64.999999999831431
 20
3.88422026094399
 30
0.0
 11
65.749999999835893
 21
3.1342202609395349
 31
0.0
  0
LINE
  5
15BB
  8
0
 62
     0
 10
64.999999999831431
 20
5.0067522760776342
 30
0.0
 11
65.749999999834657
 21
4.2567522760744154
 31
0.0
  0
LINE
  5
15BC
  8
0
 62
     0
 10
64.999999999831445
 20
6.1292842912112766
 30
0.0
 11
65.749999999833435
 21
5.3792842912092844
 31
0.0
  0
LINE
  5
15BD
  8
0
 62
     0
 10
64.999999999831445
 20
7.2518163063449173
 30
0.0
 11
65.749999999832184
 21
6.5018163063441561
 31
0.0
  0
LINE
  5
15BE
  8
0
 62
     0
 10
65.374348321298029
 20
8.0000000000119726
 30
0.0
 11
65.749999999830976
 21
7.6243483214790286
 31
0.0
  0
ENDBLK
  5
15C0
  8
0
  0
BLOCK
  8
0
  2
*U37
 70
     1
 10
0.0
 20
0.0
 30
0.0
  3
*U37
  1

  0
TEXT
  5
173A
  8
SAPA_MATT
 62
     2
 10
-18.9999999282524
 20
25.049999999998089
 30
0.0
 40
3.5
  1
65
 50
90.0
  7
ISO
  0
ENDBLK
  5
173C
  8
0
  0
BLOCK
  8
0
  2
*U38
 70
     1
 10
0.0
 20
0.0
 30
0.0
  3
*U38
  1

  0
TEXT
  5
173E
  8
SAPA_MATT
 62
     2
 10
-6.9999999282524232
 20
27.54999999999993
 30
0.0
 40
3.5
  1
60
 50
90.0
  7
ISO
  0
ENDBLK
  5
1740
  8
0
  0
BLOCK
  8
0
  2
*U39
 70
     1
 10
0.0
 20
0.0
 30
0.0
  3
*U39
  1

  0
TEXT
  5
1742
  8
SAPA_MATT
 62
     2
 10
73.174999999751265
 20
-55.000000000000099
 30
0.0
 40
3.5
  1
125
  7
ISO
  0
ENDBLK
  5
1744
  8
0
  0
BLOCK
  8
0
  2
*U40
 70
     1
 10
0.0
 20
0.0
 30
0.0
  3
*U40
  1

  0
TEXT
  5
1746
  8
SAPA_MATT
 62
     2
 10
14.27500000003951
 20
-43.000000000000128
 30
0.0
 40
3.5
  1
6.5
  7
ISO
  0
ENDBLK
  5
1748
  8
0
  0
ENDSEC
  0
SECTION
  2
ENTITIES
  0
TEXT
  5
70A
  8
SAPA_ARTIKELNR
 10
11.975966135728241
 20
24.833490238477399
 30
0.0000000048844772
 40
3.5
  1
D8K025
 50
90.0
  7
ISO
  0
TEXT
  5
722
  8
SAPA_ARTIKELNR
 10
72.636684570060169
 20
-16.47047456145938
 30
0.0000000048844772
 40
3.5
  1
D8V005
 50
90.0
  7
ISO
  0
INSERT
  5
CD5
  8
SAPA_ANSLUTNING
  6
CONTINUOUS
  2
*X31
 10
0.0
 20
0.0
 30
0.0
1001
ACAD
1000
HATCH
1002
{
1070
    19
1000
ANSI37
1040
0.25
1040
0.0
1000
R14_HATCH_DATA
1000
CD5
1011
1.0
1021
0.0
1031
0.0
1021
0.0
1031
0.0
1011
0.0
1021
0.0
1031
0.0
1021
1.0
1031
0.0
1011
0.0
1021
0.0
1031
0.0
1021
0.0
1031
1.0
1040
0.0
1010
0.0
1020
0.0
1030
1.0
1000
ANSI37
1070
     0
1070
     0
1071
        1
1071
        5
1071
        6
1070
     2
1040
137.49999992775491
1040
1.4999999999850639
1040
1.4999999999999989
1040
5.49778714378209
1040
6.2831853071795569
1070
     1
1070
     1
1040
138.99999992775491
1040
1.4999999999850211
1040
138.9999999277548
1040
12.33665123667555
1070
     3
1040
143.99999992775491
1040
12.336651236675859
1040
0.0
1040
5.6210574168242138
1040
0.8895123513655372
1040
1.5707963267948959
1040
2.144309431217978
1070
     1
1070
     3
1040
143.99999992775491
1040
12.336651236675859
1040
0.0
1040
5.6210574168242138
1040
0.8895123513655372
1040
2.144309431217978
1040
4.7123889803846888
1070
     1
1070
     1
1040
148.9999999277548
1040
12.33665123667522
1040
148.9999999277548
1040
0.0000000000000142
1070
     2
1040
142.90216751658329
1040
-20.646721299902399
1040
21.528368738726542
1040
1.2836189008757071
1040
1.773853352005716
1070
     1
1071
        0
1070
     0
1070
     1
1040
0.0
1040
0.25
1070
     0
1070
     2
1040
5.4977871437821371
1040
0.0000000000136167
1040
59.999999999985
1040
-0.5612660075668221
1040
-0.5612660075668221
1070
     0
1040
3.926990816987241
1040
0.0000000000136167
1040
59.999999999985
1040
-0.5612660075668221
1040
0.5612660075668221
1070
     0
1040
0.0591690278051155
1071
        1
1040
142.9986763470032
1040
3.5796352870591188
1040
0.0
1002
}
  0
LINE
  5
CD6
  8
SAPA_ANSLUTNING
 10
14.000000000000091
 20
75.000000000005471
 30
0.0
 11
148.9999999277548
 21
75.000000000005443
 31
0.0
  0
LINE
  5
CD7
  8
SAPA_ANSLUTNING
 10
148.9999999277548
 20
0.0000000000000142
 30
0.0
 11
194.00325593441309
 21
0.0
 31
0.0
  0
LINE
  5
CD8
  8
SAPA_ANSLUTNING
 10
148.9999999277548
 20
75.000000000005443
 30
0.0
 11
148.9999999277548
 21
0.0000000000000142
 31
0.0
  0
ARC
  5
CD9
  8
SAPA_ANSLUTNING
 10
142.90216751658329
 20
-20.646721299902531
 30
0.0
 40
21.52836873872667
 50
73.545945523399851
 51
101.6343105450598
  0
INSERT
  5
CDA
  8
SAPA_ANSLUTNING
  6
CONTINUOUS
  2
*X32
 10
0.0
 20
0.0
 30
0.0
1001
ACAD
1000
HATCH
1002
{
1070
    19
1000
HEX
1040
0.25
1040
0.0
1000
ASC_BOUNDS
1070
     1
1070
     1
1070
     1
1005
CDB
1000
ASC_SEEDPOINT
1011
144.2421099378295
1021
0.0
1031
0.0
1021
12.21831354761915
1031
0.0
1000
R14_HATCH_DATA
1000
CDA
1011
1.0
1021
0.0
1031
0.0
1021
0.0
1031
0.0
1011
0.0
1021
0.0
1031
0.0
1021
1.0
1031
0.0
1011
0.0
1021
0.0
1031
0.0
1021
0.0
1031
1.0
1040
0.0
1010
0.0
1020
0.0
1030
1.0
1000
HEX
1070
     0
1070
     1
1071
        1
1071
        5
1071
        1
1070
     3
1040
143.99999992775491
1040
12.336651236675859
1040
0.0
1040
5.6210574168242138
1040
0.8895123513655372
1040
0.0
1040
6.2831853071795862
1070
     0
1071
        1
1005
CDB
1070
     0
1070
     1
1040
0.0
1040
0.25
1070
     0
1070
     3
1040
0.0
1040
0.0000000000136167
1040
59.999999999985
1040
0.0
1040
-1.374814999999999
1070
     2
1040
0.79375
1040
-1.587499999999999
1040
4.1887902047863914
1040
0.0000000000136167
1040
59.999999999985
1040
-1.190624715503902
1040
0.6874074999999996
1070
     2
1040
0.7937499999999993
1040
-1.5874999999999979
1040
5.2359877559829879
1040
0.7937500000136053
1040
59.999999999985
1040
-1.190624715503902
1040
-0.6874075000000001
1070
     2
1040
0.79375
1040
-1.587499999999999
1040
0.0591690278051155
1071
        1
1040
144.2421099378295
1040
12.21831354761915
1040
0.0
1002
}
  0
POLYLINE
  5
CDB
  8
SAPA_ANSLUTNING
 10
143.99999992775491
 20
17.957708653500074
 30
0.0
 66
     1
 70
     8
  0
VERTEX
  8
SAPA_ANSLUTNING
  5
174C
 10
144.000
 20
17.9577
 30
0.000000
  70
    32
  0
VERTEX
  8
SAPA_ANSLUTNING
  5
174D
 10
144.245
 20
17.9509
 30
0.000000
  70
    32
  0
VERTEX
  8
SAPA_ANSLUTNING
  5
174E
 10
144.490
 20
17.9306
 30
0.000000
  70
    32
  0
VERTEX
  8
SAPA_ANSLUTNING
  5
174F
 10
144.734
 20
17.8969
 30
0.000000
  70
    32
  0
VERTEX
  8
SAPA_ANSLUTNING
  5
1750
 10
144.975
 20
17.8497
 30
0.000000
  70
    32
  0
VERTEX
  8
SAPA_ANSLUTNING
  5
1751
 10
145.215
 20
17.7893
 30
0.000000
  70
    32
  0
VERTEX
  8
SAPA_ANSLUTNING
  5
1752
 10
145.451
 20
17.7157
 30
0.000000
  70
    32
  0
VERTEX
  8
SAPA_ANSLUTNING
  5
1753
 10
145.684
 20
17.6291
 30
0.000000
  70
    32
  0
VERTEX
  8
SAPA_ANSLUTNING
  5
1754
 10
145.913
 20
17.5298
 30
0.000000
  70
    32
  0
VERTEX
  8
SAPA_ANSLUTNING
  5
1755
 10
146.138
 20
17.4180
 30
0.000000
  70
    32
  0
VERTEX
  8
SAPA_ANSLUTNING
  5
1756
 10
146.357
 20
17.2940
 30
0.000000
  70
    32
  0
VERTEX
  8
SAPA_ANSLUTNING
  5
1757
 10
146.571
 20
17.1580
 30
0.000000
  70
    32
  0
VERTEX
  8
SAPA_ANSLUTNING
  5
1758
 10
146.778
 20
17.0104
 30
0.000000
  70
    32
  0
VERTEX
  8
SAPA_ANSLUTNING
  5
1759
 10
146.978
 20
16.8515
 30
0.000000
  70
    32
  0
VERTEX
  8
SAPA_ANSLUTNING
  5
175A
 10
147.172
 20
16.6818
 30
0.000000
  70
    32
  0
VERTEX
  8
SAPA_ANSLUTNING
  5
175B
 10
147.358
 20
16.5016
 30
0.000000
  70
    32
  0
VERTEX
  8
SAPA_ANSLUTNING
  5
175C
 10
147.536
 20
16.3113
 30
0.000000
  70
    32
  0
VERTEX
  8
SAPA_ANSLUTNING
  5
175D
 10
147.705
 20
16.1115
 30
0.000000
  70
    32
  0
VERTEX
  8
SAPA_ANSLUTNING
  5
175E
 10
147.865
 20
15.9026
 30
0.000000
  70
    32
  0
VERTEX
  8
SAPA_ANSLUTNING
  5
175F
 10
148.016
 20
15.6851
 30
0.000000
  70
    32
  0
VERTEX
  8
SAPA_ANSLUTNING
  5
1760
 10
148.157
 20
15.4595
 30
0.000000
  70
    32
  0
VERTEX
  8
SAPA_ANSLUTNING
  5
1761
 10
148.289
 20
15.2265
 30
0.000000
  70
    32
  0
VERTEX
  8
SAPA_ANSLUTNING
  5
1762
 10
148.410
 20
14.9864
 30
0.000000
  70
    32
  0
VERTEX
  8
SAPA_ANSLUTNING
  5
1763
 10
148.520
 20
14.7400
 30
0.000000
  70
    32
  0
VERTEX
  8
SAPA_ANSLUTNING
  5
1764
 10
148.619
 20
14.4877
 30
0.000000
  70
    32
  0
VERTEX
  8
SAPA_ANSLUTNING
  5
1765
 10
148.708
 20
14.2303
 30
0.000000
  70
    32
  0
VERTEX
  8
SAPA_ANSLUTNING
  5
1766
 10
148.785
 20
13.9684
 30
0.000000
  70
    32
  0
VERTEX
  8
SAPA_ANSLUTNING
  5
1767
 10
148.850
 20
13.7025
 30
0.000000
  70
    32
  0
VERTEX
  8
SAPA_ANSLUTNING
  5
1768
 10
148.904
 20
13.4333
 30
0.000000
  70
    32
  0
VERTEX
  8
SAPA_ANSLUTNING
  5
1769
 10
148.946
 20
13.1614
 30
0.000000
  70
    32
  0
VERTEX
  8
SAPA_ANSLUTNING
  5
176A
 10
148.976
 20
12.8876
 30
0.000000
  70
    32
  0
VERTEX
  8
SAPA_ANSLUTNING
  5
176B
 10
148.994
 20
12.6125
 30
0.000000
  70
    32
  0
VERTEX
  8
SAPA_ANSLUTNING
  5
176C
 10
149.000
 20
12.3367
 30
0.000000
  70
    32
  0
VERTEX
  8
SAPA_ANSLUTNING
  5
176D
 10
148.994
 20
12.0608
 30
0.000000
  70
    32
  0
VERTEX
  8
SAPA_ANSLUTNING
  5
176E
 10
148.976
 20
11.7857
 30
0.000000
  70
    32
  0
VERTEX
  8
SAPA_ANSLUTNING
  5
176F
 10
148.946
 20
11.5119
 30
0.000000
  70
    32
  0
VERTEX
  8
SAPA_ANSLUTNING
  5
1770
 10
148.904
 20
11.2400
 30
0.000000
  70
    32
  0
VERTEX
  8
SAPA_ANSLUTNING
  5
1771
 10
148.850
 20
10.9708
 30
0.000000
  70
    32
  0
VERTEX
  8
SAPA_ANSLUTNING
  5
1772
 10
148.785
 20
10.7049
 30
0.000000
  70
    32
  0
VERTEX
  8
SAPA_ANSLUTNING
  5
1773
 10
148.708
 20
10.4430
 30
0.000000
  70
    32
  0
VERTEX
  8
SAPA_ANSLUTNING
  5
1774
 10
148.619
 20
10.1856
 30
0.000000
  70
    32
  0
VERTEX
  8
SAPA_ANSLUTNING
  5
1775
 10
148.520
 20
9.93334
 30
0.000000
  70
    32
  0
VERTEX
  8
SAPA_ANSLUTNING
  5
1776
 10
148.410
 20
9.68690
 30
0.000000
  70
    32
  0
VERTEX
  8
SAPA_ANSLUTNING
  5
1777
 10
148.289
 20
9.44685
 30
0.000000
  70
    32
  0
VERTEX
  8
SAPA_ANSLUTNING
  5
1778
 10
148.157
 20
9.21376
 30
0.000000
  70
    32
  0
VERTEX
  8
SAPA_ANSLUTNING
  5
1779
 10
148.016
 20
8.98819
 30
0.000000
  70
    32
  0
VERTEX
  8
SAPA_ANSLUTNING
  5
177A
 10
147.865
 20
8.77069
 30
0.000000
  70
    32
  0
VERTEX
  8
SAPA_ANSLUTNING
  5
177B
 10
147.705
 20
8.56178
 30
0.000000
  70
    32
  0
VERTEX
  8
SAPA_ANSLUTNING
  5
177C
 10
147.536
 20
8.36196
 30
0.000000
  70
    32
  0
VERTEX
  8
SAPA_ANSLUTNING
  5
177D
 10
147.358
 20
8.17172
 30
0.000000
  70
    32
  0
VERTEX
  8
SAPA_ANSLUTNING
  5
177E
 10
147.172
 20
7.99152
 30
0.000000
  70
    32
  0
VERTEX
  8
SAPA_ANSLUTNING
  5
177F
 10
146.978
 20
7.82178
 30
0.000000
  70
    32
  0
VERTEX
  8
SAPA_ANSLUTNING
  5
1780
 10
146.778
 20
7.66291
 30
0.000000
  70
    32
  0
VERTEX
  8
SAPA_ANSLUTNING
  5
1781
 10
146.571
 20
7.51531
 30
0.000000
  70
    32
  0
VERTEX
  8
SAPA_ANSLUTNING
  5
1782
 10
146.357
 20
7.37932
 30
0.000000
  70
    32
  0
VERTEX
  8
SAPA_ANSLUTNING
  5
1783
 10
146.138
 20
7.25528
 30
0.000000
  70
    32
  0
VERTEX
  8
SAPA_ANSLUTNING
  5
1784
 10
145.913
 20
7.14347
 30
0.000000
  70
    32
  0
VERTEX
  8
SAPA_ANSLUTNING
  5
1785
 10
145.684
 20
7.04418
 30
0.000000
  70
    32
  0
VERTEX
  8
SAPA_ANSLUTNING
  5
1786
 10
145.451
 20
6.95763
 30
0.000000
  70
    32
  0
VERTEX
  8
SAPA_ANSLUTNING
  5
1787
 10
145.215
 20
6.88405
 30
0.000000
  70
    32
  0
VERTEX
  8
SAPA_ANSLUTNING
  5
1788
 10
144.975
 20
6.82360
 30
0.000000
  70
    32
  0
VERTEX
  8
SAPA_ANSLUTNING
  5
1789
 10
144.734
 20
6.77643
 30
0.000000
  70
    32
  0
VERTEX
  8
SAPA_ANSLUTNING
  5
178A
 10
144.490
 20
6.74266
 30
0.000000
  70
    32
  0
VERTEX
  8
SAPA_ANSLUTNING
  5
178B
 10
144.245
 20
6.72236
 30
0.000000
  70
    32
  0
VERTEX
  8
SAPA_ANSLUTNING
  5
178C
 10
144.000
 20
6.71559
 30
0.000000
  70
    32
  0
VERTEX
  8
SAPA_ANSLUTNING
  5
178D
 10
143.755
 20
6.72236
 30
0.000000
  70
    32
  0
VERTEX
  8
SAPA_ANSLUTNING
  5
178E
 10
143.510
 20
6.74266
 30
0.000000
  70
    32
  0
VERTEX
  8
SAPA_ANSLUTNING
  5
178F
 10
143.266
 20
6.77643
 30
0.000000
  70
    32
  0
VERTEX
  8
SAPA_ANSLUTNING
  5
1790
 10
143.025
 20
6.82360
 30
0.000000
  70
    32
  0
VERTEX
  8
SAPA_ANSLUTNING
  5
1791
 10
142.785
 20
6.88405
 30
0.000000
  70
    32
  0
VERTEX
  8
SAPA_ANSLUTNING
  5
1792
 10
142.549
 20
6.95763
 30
0.000000
  70
    32
  0
VERTEX
  8
SAPA_ANSLUTNING
  5
1793
 10
142.316
 20
7.04418
 30
0.000000
  70
    32
  0
VERTEX
  8
SAPA_ANSLUTNING
  5
1794
 10
142.087
 20
7.14347
 30
0.000000
  70
    32
  0
VERTEX
  8
SAPA_ANSLUTNING
  5
1795
 10
141.862
 20
7.25528
 30
0.000000
  70
    32
  0
VERTEX
  8
SAPA_ANSLUTNING
  5
1796
 10
141.643
 20
7.37932
 30
0.000000
  70
    32
  0
VERTEX
  8
SAPA_ANSLUTNING
  5
1797
 10
141.429
 20
7.51531
 30
0.000000
  70
    32
  0
VERTEX
  8
SAPA_ANSLUTNING
  5
1798
 10
141.222
 20
7.66291
 30
0.000000
  70
    32
  0
VERTEX
  8
SAPA_ANSLUTNING
  5
1799
 10
141.022
 20
7.82178
 30
0.000000
  70
    32
  0
VERTEX
  8
SAPA_ANSLUTNING
  5
179A
 10
140.828
 20
7.99152
 30
0.000000
  70
    32
  0
VERTEX
  8
SAPA_ANSLUTNING
  5
179B
 10
140.642
 20
8.17172
 30
0.000000
  70
    32
  0
VERTEX
  8
SAPA_ANSLUTNING
  5
179C
 10
140.464
 20
8.36196
 30
0.000000
  70
    32
  0
VERTEX
  8
SAPA_ANSLUTNING
  5
179D
 10
140.295
 20
8.56178
 30
0.000000
  70
    32
  0
VERTEX
  8
SAPA_ANSLUTNING
  5
179E
 10
140.135
 20
8.77069
 30
0.000000
  70
    32
  0
VERTEX
  8
SAPA_ANSLUTNING
  5
179F
 10
139.984
 20
8.98819
 30
0.000000
  70
    32
  0
VERTEX
  8
SAPA_ANSLUTNING
  5
17A0
 10
139.843
 20
9.21376
 30
0.000000
  70
    32
  0
VERTEX
  8
SAPA_ANSLUTNING
  5
17A1
 10
139.711
 20
9.44685
 30
0.000000
  70
    32
  0
VERTEX
  8
SAPA_ANSLUTNING
  5
17A2
 10
139.590
 20
9.68690
 30
0.000000
  70
    32
  0
VERTEX
  8
SAPA_ANSLUTNING
  5
17A3
 10
139.480
 20
9.93334
 30
0.000000
  70
    32
  0
VERTEX
  8
SAPA_ANSLUTNING
  5
17A4
 10
139.381
 20
10.1856
 30
0.000000
  70
    32
  0
VERTEX
  8
SAPA_ANSLUTNING
  5
17A5
 10
139.292
 20
10.4430
 30
0.000000
  70
    32
  0
VERTEX
  8
SAPA_ANSLUTNING
  5
17A6
 10
139.215
 20
10.7049
 30
0.000000
  70
    32
  0
VERTEX
  8
SAPA_ANSLUTNING
  5
17A7
 10
139.150
 20
10.9708
 30
0.000000
  70
    32
  0
VERTEX
  8
SAPA_ANSLUTNING
  5
17A8
 10
139.096
 20
11.2400
 30
0.000000
  70
    32
  0
VERTEX
  8
SAPA_ANSLUTNING
  5
17A9
 10
139.054
 20
11.5119
 30
0.000000
  70
    32
  0
VERTEX
  8
SAPA_ANSLUTNING
  5
17AA
 10
139.024
 20
11.7857
 30
0.000000
  70
    32
  0
VERTEX
  8
SAPA_ANSLUTNING
  5
17AB
 10
139.006
 20
12.0608
 30
0.000000
  70
    32
  0
VERTEX
  8
SAPA_ANSLUTNING
  5
17AC
 10
139.000
 20
12.3367
 30
0.000000
  70
    32
  0
VERTEX
  8
SAPA_ANSLUTNING
  5
17AD
 10
139.006
 20
12.6125
 30
0.000000
  70
    32
  0
VERTEX
  8
SAPA_ANSLUTNING
  5
17AE
 10
139.024
 20
12.8876
 30
0.000000
  70
    32
  0
VERTEX
  8
SAPA_ANSLUTNING
  5
17AF
 10
139.054
 20
13.1614
 30
0.000000
  70
    32
  0
VERTEX
  8
SAPA_ANSLUTNING
  5
17B0
 10
139.096
 20
13.4333
 30
0.000000
  70
    32
  0
VERTEX
  8
SAPA_ANSLUTNING
  5
17B1
 10
139.150
 20
13.7025
 30
0.000000
  70
    32
  0
VERTEX
  8
SAPA_ANSLUTNING
  5
17B2
 10
139.215
 20
13.9684
 30
0.000000
  70
    32
  0
VERTEX
  8
SAPA_ANSLUTNING
  5
17B3
 10
139.292
 20
14.2303
 30
0.000000
  70
    32
  0
VERTEX
  8
SAPA_ANSLUTNING
  5
17B4
 10
139.381
 20
14.4877
 30
0.000000
  70
    32
  0
VERTEX
  8
SAPA_ANSLUTNING
  5
17B5
 10
139.480
 20
14.7400
 30
0.000000
  70
    32
  0
VERTEX
  8
SAPA_ANSLUTNING
  5
17B6
 10
139.590
 20
14.9864
 30
0.000000
  70
    32
  0
VERTEX
  8
SAPA_ANSLUTNING
  5
17B7
 10
139.711
 20
15.2265
 30
0.000000
  70
    32
  0
VERTEX
  8
SAPA_ANSLUTNING
  5
17B8
 10
139.843
 20
15.4595
 30
0.000000
  70
    32
  0
VERTEX
  8
SAPA_ANSLUTNING
  5
17B9
 10
139.984
 20
15.6851
 30
0.000000
  70
    32
  0
VERTEX
  8
SAPA_ANSLUTNING
  5
17BA
 10
140.135
 20
15.9026
 30
0.000000
  70
    32
  0
VERTEX
  8
SAPA_ANSLUTNING
  5
17BB
 10
140.295
 20
16.1115
 30
0.000000
  70
    32
  0
VERTEX
  8
SAPA_ANSLUTNING
  5
17BC
 10
140.464
 20
16.3113
 30
0.000000
  70
    32
  0
VERTEX
  8
SAPA_ANSLUTNING
  5
17BD
 10
140.642
 20
16.5016
 30
0.000000
  70
    32
  0
VERTEX
  8
SAPA_ANSLUTNING
  5
17BE
 10
140.828
 20
16.6818
 30
0.000000
  70
    32
  0
VERTEX
  8
SAPA_ANSLUTNING
  5
17BF
 10
141.022
 20
16.8515
 30
0.000000
  70
    32
  0
VERTEX
  8
SAPA_ANSLUTNING
  5
17C0
 10
141.222
 20
17.0104
 30
0.000000
  70
    32
  0
VERTEX
  8
SAPA_ANSLUTNING
  5
17C1
 10
141.429
 20
17.1580
 30
0.000000
  70
    32
  0
VERTEX
  8
SAPA_ANSLUTNING
  5
17C2
 10
141.643
 20
17.2940
 30
0.000000
  70
    32
  0
VERTEX
  8
SAPA_ANSLUTNING
  5
17C3
 10
141.862
 20
17.4180
 30
0.000000
  70
    32
  0
VERTEX
  8
SAPA_ANSLUTNING
  5
17C4
 10
142.087
 20
17.5298
 30
0.000000
  70
    32
  0
VERTEX
  8
SAPA_ANSLUTNING
  5
17C5
 10
142.316
 20
17.6291
 30
0.000000
  70
    32
  0
VERTEX
  8
SAPA_ANSLUTNING
  5
17C6
 10
142.549
 20
17.7157
 30
0.000000
  70
    32
  0
VERTEX
  8
SAPA_ANSLUTNING
  5
17C7
 10
142.785
 20
17.7893
 30
0.000000
  70
    32
  0
VERTEX
  8
SAPA_ANSLUTNING
  5
17C8
 10
143.025
 20
17.8497
 30
0.000000
  70
    32
  0
VERTEX
  8
SAPA_ANSLUTNING
  5
17C9
 10
143.266
 20
17.8969
 30
0.000000
  70
    32
  0
VERTEX
  8
SAPA_ANSLUTNING
  5
17CA
 10
143.510
 20
17.9306
 30
0.000000
  70
    32
  0
VERTEX
  8
SAPA_ANSLUTNING
  5
17CB
 10
143.755
 20
17.9509
 30
0.000000
  70
    32
  0
VERTEX
  8
SAPA_ANSLUTNING
  5
17CC
 10
144.000
 20
17.9577
 30
0.000000
  70
    32
  0
SEQEND
  8
SAPA_ANSLUTNING
  5
17CD
  0
POLYLINE
  5
CDC
  8
SAPA_ANSLUTNING
 66
     1
 10
0.0
 20
0.0
 30
0.0
  0
VERTEX
  5
1103
  8
SAPA_ANSLUTNING
 10
140.5010714710958
 20
16.352069590546581
 30
0.0
 42
-0.8812634091771133
  0
VERTEX
  5
1104
  8
SAPA_ANSLUTNING
 10
140.99999992775491
 20
20.288837618766738
 30
0.0
  0
VERTEX
  5
1105
  8
SAPA_ANSLUTNING
 10
146.99999992775491
 20
20.288837618766738
 30
0.0
 42
0.9999999999999998
  0
VERTEX
  5
1106
  8
SAPA_ANSLUTNING
 10
146.99999992775491
 20
24.288837618766738
 30
0.0
  0
VERTEX
  5
1107
  8
SAPA_ANSLUTNING
 10
140.99999992775491
 20
24.288837618766721
 30
0.0
 42
-0.9999999999999998
  0
VERTEX
  5
1108
  8
SAPA_ANSLUTNING
 10
140.99999992775491
 20
28.288837618766721
 30
0.0
  0
VERTEX
  5
1109
  8
SAPA_ANSLUTNING
 10
146.99999992775491
 20
28.288837618766738
 30
0.0
 42
0.9999999999999998
  0
VERTEX
  5
110A
  8
SAPA_ANSLUTNING
 10
146.99999992775491
 20
32.288837618766728
 30
0.0
  0
VERTEX
  5
110B
  8
SAPA_ANSLUTNING
 10
140.99999992775491
 20
32.288837618766721
 30
0.0
 42
-0.9999999999999998
  0
VERTEX
  5
110C
  8
SAPA_ANSLUTNING
 10
140.99999992775491
 20
36.288837618766721
 30
0.0
  0
VERTEX
  5
110D
  8
SAPA_ANSLUTNING
 10
146.99999992775491
 20
36.288837618766742
 30
0.0
 42
0.9999999999999998
  0
VERTEX
  5
110E
  8
SAPA_ANSLUTNING
 10
146.99999992775491
 20
40.288837618766721
 30
0.0
  0
VERTEX
  5
110F
  8
SAPA_ANSLUTNING
 10
140.99999992775491
 20
40.288837618766721
 30
0.0
 42
-0.9999999999999998
  0
VERTEX
  5
1110
  8
SAPA_ANSLUTNING
 10
140.99999992775491
 20
44.288837618766713
 30
0.0
  0
VERTEX
  5
1111
  8
SAPA_ANSLUTNING
 10
146.99999992775491
 20
44.288837618766713
 30
0.0
 42
0.9999999999999998
  0
VERTEX
  5
1112
  8
SAPA_ANSLUTNING
 10
146.99999992775491
 20
48.288837618766721
 30
0.0
  0
VERTEX
  5
1113
  8
SAPA_ANSLUTNING
 10
140.99999992775491
 20
48.288837618766721
 30
0.0
 42
-0.9999999999999998
  0
VERTEX
  5
1114
  8
SAPA_ANSLUTNING
 10
140.99999992775491
 20
52.288837618766721
 30
0.0
  0
VERTEX
  5
1115
  8
SAPA_ANSLUTNING
 10
146.99999992775491
 20
52.288837618766721
 30
0.0
 42
0.9999999999999998
  0
VERTEX
  5
1116
  8
SAPA_ANSLUTNING
 10
146.99999992775491
 20
56.288837618766721
 30
0.0
  0
VERTEX
  5
1117
  8
SAPA_ANSLUTNING
 10
140.99999992775491
 20
56.288837618766721
 30
0.0
 42
-0.9999999999999998
  0
VERTEX
  5
1118
  8
SAPA_ANSLUTNING
 10
140.99999992775491
 20
60.288837618766721
 30
0.0
  0
VERTEX
  5
1119
  8
SAPA_ANSLUTNING
 10
146.99999992775491
 20
60.288837618766721
 30
0.0
 42
0.9999999999999998
  0
VERTEX
  5
111A
  8
SAPA_ANSLUTNING
 10
146.99999992775491
 20
64.288837618766721
 30
0.0
  0
VERTEX
  5
111B
  8
SAPA_ANSLUTNING
 10
140.99999992775491
 20
64.288837618766721
 30
0.0
 42
-0.9999999999999998
  0
VERTEX
  5
111C
  8
SAPA_ANSLUTNING
 10
140.99999992775491
 20
68.288837618766721
 30
0.0
  0
VERTEX
  5
111D
  8
SAPA_ANSLUTNING
 10
146.99999992775491
 20
68.288837618766721
 30
0.0
 42
0.9999999999999998
  0
VERTEX
  5
111E
  8
SAPA_ANSLUTNING
 10
146.99999992775491
 20
72.288837618766721
 30
0.0
  0
VERTEX
  5
111F
  8
SAPA_ANSLUTNING
 10
140.99999992775491
 20
72.288837618766721
 30
0.0
 42
-0.5251735434384823
  0
VERTEX
  5
1120
  8
SAPA_ANSLUTNING
 10
139.13070913509819
 20
75.000000000005443
 30
0.0
 42
-0.5251735434384823
  0
SEQEND
  5
1121
  8
SAPA_ANSLUTNING
  0
LINE
  5
CDD
  8
SAPA_ANSLUTNING
 10
14.000000000000091
 20
-0.0000000000000142
 30
0.0
 11
-30.61946647704579
 21
-0.0000000000000142
 31
0.0
  0
LINE
  5
CDE
  8
SAPA_ANSLUTNING
 10
14.000000000000091
 20
-0.0000000000000142
 30
0.0
 11
14.000000000000091
 21
75.000000000005471
 31
0.0
  0
POLYLINE
  5
CDF
  8
SAPA_ANSLUTNING
 66
     1
 10
0.0
 20
0.0
 30
0.0
  0
VERTEX
  5
1122
  8
SAPA_ANSLUTNING
 10
14.000000000000091
 20
73.498928456659044
 30
0.0
 42
-0.8812634091771133
  0
VERTEX
  5
1123
  8
SAPA_ANSLUTNING
 10
17.936768028220239
 20
72.999999999999957
 30
0.0
  0
VERTEX
  5
1124
  8
SAPA_ANSLUTNING
 10
17.936768028220239
 20
61.99999999999995
 30
0.0
 42
0.9999999999999998
  0
VERTEX
  5
1125
  8
SAPA_ANSLUTNING
 10
21.93676802822025
 20
61.99999999999995
 30
0.0
  0
VERTEX
  5
1126
  8
SAPA_ANSLUTNING
 10
21.936768028220229
 20
72.999999999999957
 30
0.0
 42
-0.9999999999999998
  0
VERTEX
  5
1127
  8
SAPA_ANSLUTNING
 10
25.936768028220229
 20
72.999999999999957
 30
0.0
  0
VERTEX
  5
1128
  8
SAPA_ANSLUTNING
 10
25.93676802822025
 20
61.99999999999995
 30
0.0
 42
0.9999999999999998
  0
VERTEX
  5
1129
  8
SAPA_ANSLUTNING
 10
29.936768028220239
 20
61.99999999999995
 30
0.0
  0
VERTEX
  5
112A
  8
SAPA_ANSLUTNING
 10
29.936768028220229
 20
72.999999999999957
 30
0.0
 42
-0.9999999999999998
  0
VERTEX
  5
112B
  8
SAPA_ANSLUTNING
 10
33.936768028220243
 20
72.999999999999957
 30
0.0
  0
VERTEX
  5
112C
  8
SAPA_ANSLUTNING
 10
33.936768028220243
 20
61.99999999999995
 30
0.0
 42
0.9999999999999998
  0
VERTEX
  5
112D
  8
SAPA_ANSLUTNING
 10
37.936768028220243
 20
61.99999999999995
 30
0.0
  0
VERTEX
  5
112E
  8
SAPA_ANSLUTNING
 10
37.936768028220243
 20
72.999999999999957
 30
0.0
 42
-0.9999999999999998
  0
VERTEX
  5
112F
  8
SAPA_ANSLUTNING
 10
41.936768028220229
 20
72.999999999999957
 30
0.0
  0
VERTEX
  5
1130
  8
SAPA_ANSLUTNING
 10
41.936768028220229
 20
61.99999999999995
 30
0.0
 42
0.9999999999999998
  0
VERTEX
  5
1131
  8
SAPA_ANSLUTNING
 10
45.936768028220229
 20
61.99999999999995
 30
0.0
  0
VERTEX
  5
1132
  8
SAPA_ANSLUTNING
 10
45.936768028220229
 20
72.999999999999957
 30
0.0
 42
-0.9999999999999998
  0
VERTEX
  5
1133
  8
SAPA_ANSLUTNING
 10
49.936768028220229
 20
72.999999999999957
 30
0.0
  0
VERTEX
  5
1134
  8
SAPA_ANSLUTNING
 10
49.936768028220229
 20
61.99999999999995
 30
0.0
 42
0.9999999999999998
  0
VERTEX
  5
1135
  8
SAPA_ANSLUTNING
 10
53.936768028220243
 20
61.99999999999995
 30
0.0
  0
VERTEX
  5
1136
  8
SAPA_ANSLUTNING
 10
53.936768028220243
 20
72.999999999999957
 30
0.0
 42
-0.9999999999999998
  0
VERTEX
  5
1137
  8
SAPA_ANSLUTNING
 10
57.936768028220229
 20
72.999999999999957
 30
0.0
  0
VERTEX
  5
1138
  8
SAPA_ANSLUTNING
 10
57.936768028220229
 20
61.99999999999995
 30
0.0
 42
0.9999999999999998
  0
VERTEX
  5
1139
  8
SAPA_ANSLUTNING
 10
61.936768028220229
 20
61.99999999999995
 30
0.0
  0
VERTEX
  5
113A
  8
SAPA_ANSLUTNING
 10
61.936768028220229
 20
72.999999999999957
 30
0.0
 42
-0.9999999999999998
  0
VERTEX
  5
113B
  8
SAPA_ANSLUTNING
 10
65.936768028220229
 20
72.999999999999957
 30
0.0
  0
VERTEX
  5
113C
  8
SAPA_ANSLUTNING
 10
65.936768028220229
 20
61.99999999999995
 30
0.0
 42
0.9999999999999998
  0
VERTEX
  5
113D
  8
SAPA_ANSLUTNING
 10
69.936768028220214
 20
61.99999999999995
 30
0.0
  0
VERTEX
  5
113E
  8
SAPA_ANSLUTNING
 10
69.936768028220214
 20
72.999999999999957
 30
0.0
 42
-0.5251735434384823
  0
VERTEX
  5
113F
  8
SAPA_ANSLUTNING
 10
72.647930409458951
 20
74.869290792656571
 30
0.0
 42
-0.5251735434384823
  0
SEQEND
  5
1140
  8
SAPA_ANSLUTNING
  0
POLYLINE
  5
CE0
  8
SAPA_ANSLUTNING
 66
     1
 10
0.0
 20
0.0
 30
0.0
  0
VERTEX
  5
1141
  8
SAPA_ANSLUTNING
 10
62.000000000000078
 20
73.498928456659044
 30
0.0
 42
-0.8812634091771133
  0
VERTEX
  5
1142
  8
SAPA_ANSLUTNING
 10
65.936768028220229
 20
72.999999999999957
 30
0.0
  0
VERTEX
  5
1143
  8
SAPA_ANSLUTNING
 10
65.936768028220229
 20
61.99999999999995
 30
0.0
 42
0.9999999999999998
  0
VERTEX
  5
1144
  8
SAPA_ANSLUTNING
 10
69.936768028220214
 20
61.99999999999995
 30
0.0
  0
VERTEX
  5
1145
  8
SAPA_ANSLUTNING
 10
69.936768028220214
 20
72.999999999999957
 30
0.0
 42
-0.9999999999999998
  0
VERTEX
  5
1146
  8
SAPA_ANSLUTNING
 10
73.936768028220214
 20
72.999999999999957
 30
0.0
  0
VERTEX
  5
1147
  8
SAPA_ANSLUTNING
 10
73.936768028220229
 20
61.99999999999995
 30
0.0
 42
0.9999999999999998
  0
VERTEX
  5
1148
  8
SAPA_ANSLUTNING
 10
77.936768028220229
 20
61.99999999999995
 30
0.0
  0
VERTEX
  5
1149
  8
SAPA_ANSLUTNING
 10
77.936768028220214
 20
72.999999999999957
 30
0.0
 42
-0.9999999999999998
  0
VERTEX
  5
114A
  8
SAPA_ANSLUTNING
 10
81.936768028220214
 20
72.999999999999957
 30
0.0
  0
VERTEX
  5
114B
  8
SAPA_ANSLUTNING
 10
81.936768028220214
 20
61.99999999999995
 30
0.0
 42
0.9999999999999998
  0
VERTEX
  5
114C
  8
SAPA_ANSLUTNING
 10
85.936768028220214
 20
61.99999999999995
 30
0.0
  0
VERTEX
  5
114D
  8
SAPA_ANSLUTNING
 10
85.936768028220214
 20
72.999999999999957
 30
0.0
 42
-0.9999999999999998
  0
VERTEX
  5
114E
  8
SAPA_ANSLUTNING
 10
89.936768028220214
 20
72.999999999999957
 30
0.0
  0
VERTEX
  5
114F
  8
SAPA_ANSLUTNING
 10
89.936768028220214
 20
61.99999999999995
 30
0.0
 42
0.9999999999999998
  0
VERTEX
  5
1150
  8
SAPA_ANSLUTNING
 10
93.936768028220214
 20
61.99999999999995
 30
0.0
  0
VERTEX
  5
1151
  8
SAPA_ANSLUTNING
 10
93.936768028220214
 20
72.999999999999957
 30
0.0
 42
-0.9999999999999998
  0
VERTEX
  5
1152
  8
SAPA_ANSLUTNING
 10
97.9367680282202
 20
72.999999999999957
 30
0.0
  0
VERTEX
  5
1153
  8
SAPA_ANSLUTNING
 10
97.9367680282202
 20
61.99999999999995
 30
0.0
 42
0.9999999999999998
  0
VERTEX
  5
1154
  8
SAPA_ANSLUTNING
 10
101.9367680282202
 20
61.99999999999995
 30
0.0
  0
VERTEX
  5
1155
  8
SAPA_ANSLUTNING
 10
101.9367680282202
 20
72.999999999999957
 30
0.0
 42
-0.9999999999999998
  0
VERTEX
  5
1156
  8
SAPA_ANSLUTNING
 10
105.9367680282202
 20
72.999999999999957
 30
0.0
  0
VERTEX
  5
1157
  8
SAPA_ANSLUTNING
 10
105.9367680282202
 20
61.99999999999995
 30
0.0
 42
0.9999999999999998
  0
VERTEX
  5
1158
  8
SAPA_ANSLUTNING
 10
109.9367680282202
 20
61.99999999999995
 30
0.0
  0
VERTEX
  5
1159
  8
SAPA_ANSLUTNING
 10
109.9367680282202
 20
72.999999999999957
 30
0.0
 42
-0.9999999999999998
  0
VERTEX
  5
115A
  8
SAPA_ANSLUTNING
 10
113.9367680282202
 20
72.999999999999957
 30
0.0
  0
VERTEX
  5
115B
  8
SAPA_ANSLUTNING
 10
113.9367680282202
 20
61.99999999999995
 30
0.0
 42
0.9999999999999998
  0
VERTEX
  5
115C
  8
SAPA_ANSLUTNING
 10
117.9367680282202
 20
61.99999999999995
 30
0.0
  0
VERTEX
  5
115D
  8
SAPA_ANSLUTNING
 10
117.9367680282202
 20
72.999999999999957
 30
0.0
 42
-0.5251735434384823
  0
VERTEX
  5
115E
  8
SAPA_ANSLUTNING
 10
120.64793040945889
 20
74.869290792656571
 30
0.0
 42
-0.5251735434384823
  0
SEQEND
  5
115F
  8
SAPA_ANSLUTNING
  0
POLYLINE
  5
CE1
  8
SAPA_ANSLUTNING
 66
     1
 10
0.0
 20
0.0
 30
0.0
  0
VERTEX
  5
1160
  8
SAPA_ANSLUTNING
 10
110.0
 20
73.498928456659044
 30
0.0
 42
-0.8812634091771133
  0
VERTEX
  5
1161
  8
SAPA_ANSLUTNING
 10
113.9367680282202
 20
72.999999999999957
 30
0.0
  0
VERTEX
  5
1162
  8
SAPA_ANSLUTNING
 10
113.9367680282202
 20
61.99999999999995
 30
0.0
 42
0.9999999999999998
  0
VERTEX
  5
1163
  8
SAPA_ANSLUTNING
 10
117.9367680282202
 20
61.99999999999995
 30
0.0
  0
VERTEX
  5
1164
  8
SAPA_ANSLUTNING
 10
117.9367680282202
 20
72.999999999999957
 30
0.0
 42
-0.9999999999999998
  0
VERTEX
  5
1165
  8
SAPA_ANSLUTNING
 10
121.9367680282202
 20
72.999999999999957
 30
0.0
  0
VERTEX
  5
1166
  8
SAPA_ANSLUTNING
 10
121.9367680282202
 20
61.99999999999995
 30
0.0
 42
0.9999999999999998
  0
VERTEX
  5
1167
  8
SAPA_ANSLUTNING
 10
125.9367680282202
 20
61.99999999999995
 30
0.0
  0
VERTEX
  5
1168
  8
SAPA_ANSLUTNING
 10
125.9367680282202
 20
72.999999999999957
 30
0.0
 42
-0.9999999999999998
  0
VERTEX
  5
1169
  8
SAPA_ANSLUTNING
 10
129.9367680282202
 20
72.999999999999957
 30
0.0
  0
VERTEX
  5
116A
  8
SAPA_ANSLUTNING
 10
129.9367680282202
 20
61.99999999999995
 30
0.0
 42
0.9999999999999998
  0
VERTEX
  5
116B
  8
SAPA_ANSLUTNING
 10
133.9367680282202
 20
61.99999999999995
 30
0.0
  0
VERTEX
  5
116C
  8
SAPA_ANSLUTNING
 10
133.9367680282202
 20
72.999999999999957
 30
0.0
 42
-0.9999999999999998
  0
VERTEX
  5
116D
  8
SAPA_ANSLUTNING
 10
137.9367680282202
 20
72.999999999999957
 30
0.0
  0
VERTEX
  5
116E
  8
SAPA_ANSLUTNING
 10
137.9367680282202
 20
61.99999999999995
 30
0.0
 42
0.4183530514568368
  0
VERTEX
  5
116F
  8
SAPA_ANSLUTNING
 10
139.9649918658032
 20
60.00019915616771
 30
0.0
 42
0.4183530514568368
  0
SEQEND
  5
1170
  8
SAPA_ANSLUTNING
  0
POLYLINE
  5
EE9
  8
SAPA_PROFIL
 66
     1
 10
0.0
 20
0.0
 30
0.0
 70
     1
  0
VERTEX
  5
1362
  8
SAPA_PROFIL
 10
28.756130959043968
 20
17.999999999999851
 30
0.0
 42
-0.2418327667417041
  0
VERTEX
  5
1363
  8
SAPA_PROFIL
 10
28.99999999999385
 20
17.874722325035901
 30
0.0
 42
0.2418327667547422
  0
VERTEX
  5
1364
  8
SAPA_PROFIL
 10
29.24386904095288
 20
17.749444650060319
 30
0.0
  0
VERTEX
  5
1365
  8
SAPA_PROFIL
 10
30.19999999998824
 20
17.749444650060319
 30
0.0
 42
0.2814258985282543
  0
VERTEX
  5
1366
  8
SAPA_PROFIL
 10
30.466996802293501
 20
17.91265025118658
 30
0.0
 42
-0.2814258985233465
  0
VERTEX
  5
1367
  8
SAPA_PROFIL
 10
30.73399360458907
 20
18.075855852310269
 30
0.0
  0
VERTEX
  5
1368
  8
SAPA_PROFIL
 10
32.911541959546398
 20
18.07585585230979
 30
0.0
 42
-0.0874886635248791
  0
VERTEX
  5
1369
  8
SAPA_PROFIL
 10
33.014148002542917
 20
18.057763638545989
 30
0.0
  0
VERTEX
  5
136A
  8
SAPA_PROFIL
 10
34.44150117258836
 20
17.538249570870651
 30
0.0
 42
-0.4142135623698204
  0
VERTEX
  5
136B
  8
SAPA_PROFIL
 10
34.620802915825749
 20
17.15373574162847
 30
0.0
  0
VERTEX
  5
136C
  8
SAPA_PROFIL
 10
34.552398887154702
 20
16.965797217479771
 30
0.0
 42
-0.4142135623730013
  0
VERTEX
  5
136D
  8
SAPA_PROFIL
 10
34.167885057933063
 20
16.786495474237249
 30
0.0
  0
VERTEX
  5
136E
  8
SAPA_PROFIL
 10
33.134223175063909
 20
17.162717631903941
 30
0.0
 42
0.41421356237947
  0
VERTEX
  5
136F
  8
SAPA_PROFIL
 10
32.749709345832358
 20
16.98341588865279
 30
0.0
  0
VERTEX
  5
1370
  8
SAPA_PROFIL
 10
32.090854038596532
 20
15.17322580931387
 30
0.0
 42
-0.3152987888800596
  0
VERTEX
  5
1371
  8
SAPA_PROFIL
 10
31.808946252360322
 20
14.975831852310529
 30
0.0
  0
VERTEX
  5
1372
  8
SAPA_PROFIL
 10
31.389230484540981
 20
14.97583185231063
 30
0.0
 42
-0.1316524975873857
  0
VERTEX
  5
1373
  8
SAPA_PROFIL
 10
31.239230484541071
 20
15.01602423117528
 30
0.0
  0
VERTEX
  5
1374
  8
SAPA_PROFIL
 10
29.750000000000188
 20
15.875831852310579
 30
0.0
  0
VERTEX
  5
1375
  8
SAPA_PROFIL
 10
29.300000000000239
 20
15.875843852310251
 30
0.0
 42
0.4142135623731054
  0
VERTEX
  5
1376
  8
SAPA_PROFIL
 10
29.000000000000231
 20
15.575843852310239
 30
0.0
  0
VERTEX
  5
1377
  8
SAPA_PROFIL
 10
29.000000000000291
 20
11.975831852310179
 30
0.0
 42
0.414213562373095
  0
VERTEX
  5
1378
  8
SAPA_PROFIL
 10
29.300000000000281
 20
11.67583185231018
 30
0.0
  0
VERTEX
  5
1379
  8
SAPA_PROFIL
 10
29.750000000000281
 20
11.67583185231028
 30
0.0
  0
VERTEX
  5
137A
  8
SAPA_PROFIL
 10
31.239260131074449
 20
12.53565658987926
 30
0.0
 42
-0.1316363093594254
  0
VERTEX
  5
137B
  8
SAPA_PROFIL
 10
31.389241036121192
 20
12.57584896813623
 30
0.0
  0
VERTEX
  5
137C
  8
SAPA_PROFIL
 10
31.499999999998419
 20
12.575856017927039
 30
0.0
  0
VERTEX
  5
137D
  8
SAPA_PROFIL
 10
31.499999999998419
 20
10.500000000010759
 30
0.0
 42
-0.4142135623730955
  0
VERTEX
  5
137E
  8
SAPA_PROFIL
 10
30.999999999998419
 20
10.000000000010759
 30
0.0
  0
VERTEX
  5
137F
  8
SAPA_PROFIL
 10
25.75000000033312
 20
10.000000000010759
 30
0.0
 42
-0.4142135623730953
  0
VERTEX
  5
1380
  8
SAPA_PROFIL
 10
25.25000000033312
 20
10.500000000010759
 30
0.0
  0
VERTEX
  5
1381
  8
SAPA_PROFIL
 10
25.25000000033312
 20
11.00000000359417
 30
0.0
 42
-0.4142135623730953
  0
VERTEX
  5
1382
  8
SAPA_PROFIL
 10
25.75000000033312
 20
11.50000000359417
 30
0.0
  0
VERTEX
  5
1383
  8
SAPA_PROFIL
 10
26.750000000740322
 20
11.50000000359872
 30
0.0
  0
VERTEX
  5
1384
  8
SAPA_PROFIL
 10
26.75000000074446
 20
14.70000000405364
 30
0.0
  0
VERTEX
  5
1385
  8
SAPA_PROFIL
 10
22.249999999838568
 20
14.700000004045661
 30
0.0
  0
VERTEX
  5
1386
  8
SAPA_PROFIL
 10
22.249999999817199
 20
-4.800000000000157
 30
0.0
 42
-0.4964147352859417
  0
VERTEX
  5
1387
  8
SAPA_PROFIL
 10
21.996209591491251
 20
-4.9926307139906463
 30
0.0
 42
-0.306467954212033
  0
VERTEX
  5
1388
  8
SAPA_PROFIL
 10
21.271093118642401
 20
-4.1382327808135422
 30
0.0
 42
-0.0272495355296329
  0
VERTEX
  5
1389
  8
SAPA_PROFIL
 10
20.500000000332761
 20
9.9999999999895781
 30
0.0
  0
VERTEX
  5
138A
  8
SAPA_PROFIL
 10
20.50000000019487
 20
14.9999999999089
 30
0.0
 42
-0.4142135623819769
  0
VERTEX
  5
138B
  8
SAPA_PROFIL
 10
23.500000000194881
 20
17.999999999999851
 30
0.0
  0
SEQEND
  5
138C
  8
SAPA_PROFIL
  0
POLYLINE
  5
EEA
  8
SAPA_PROFIL
 66
     1
 10
0.0
 20
0.0
 30
0.0
 70
     1
  0
VERTEX
  5
138D
  8
SAPA_PROFIL
 10
59.24386904095649
 20
17.99999999999984
 30
0.0
 42
0.2418327667417041
  0
VERTEX
  5
138E
  8
SAPA_PROFIL
 10
59.000000000006622
 20
17.874722325035901
 30
0.0
 42
-0.2418327667547422
  0
VERTEX
  5
138F
  8
SAPA_PROFIL
 10
58.756130959047589
 20
17.749444650060308
 30
0.0
  0
VERTEX
  5
1390
  8
SAPA_PROFIL
 10
57.800000000012233
 20
17.749444650060308
 30
0.0
 42
-0.2814258985282543
  0
VERTEX
  5
1391
  8
SAPA_PROFIL
 10
57.533003197706982
 20
17.91265025118658
 30
0.0
 42
0.2814258985233465
  0
VERTEX
  5
1392
  8
SAPA_PROFIL
 10
57.266006395411381
 20
18.075855852310269
 30
0.0
  0
VERTEX
  5
1393
  8
SAPA_PROFIL
 10
55.088458040454057
 20
18.07585585230979
 30
0.0
 42
0.0874886635248791
  0
VERTEX
  5
1394
  8
SAPA_PROFIL
 10
54.98585199745753
 20
18.057763638545989
 30
0.0
  0
VERTEX
  5
1395
  8
SAPA_PROFIL
 10
53.558498827412087
 20
17.53824957087064
 30
0.0
 42
0.4142135623698204
  0
VERTEX
  5
1396
  8
SAPA_PROFIL
 10
53.379197084174699
 20
17.15373574162847
 30
0.0
  0
VERTEX
  5
1397
  8
SAPA_PROFIL
 10
53.44760111284576
 20
16.965797217479771
 30
0.0
 42
0.4142135623730013
  0
VERTEX
  5
1398
  8
SAPA_PROFIL
 10
53.832114942067392
 20
16.786495474237249
 30
0.0
  0
VERTEX
  5
1399
  8
SAPA_PROFIL
 10
54.865776824936539
 20
17.162717631903941
 30
0.0
 42
-0.41421356237947
  0
VERTEX
  5
139A
  8
SAPA_PROFIL
 10
55.250290654168097
 20
16.983415888652779
 30
0.0
  0
VERTEX
  5
139B
  8
SAPA_PROFIL
 10
55.909145961403922
 20
15.17322580931387
 30
0.0
 42
0.3152987888800596
  0
VERTEX
  5
139C
  8
SAPA_PROFIL
 10
56.19105374764014
 20
14.975831852310529
 30
0.0
  0
VERTEX
  5
139D
  8
SAPA_PROFIL
 10
56.610769515459481
 20
14.97583185231063
 30
0.0
 42
0.1316524975873857
  0
VERTEX
  5
139E
  8
SAPA_PROFIL
 10
56.760769515459401
 20
15.016024231175271
 30
0.0
  0
VERTEX
  5
139F
  8
SAPA_PROFIL
 10
58.250000000000277
 20
15.875831852310579
 30
0.0
  0
VERTEX
  5
13A0
  8
SAPA_PROFIL
 10
58.70000000000023
 20
15.87584385231024
 30
0.0
 42
-0.4142135623731054
  0
VERTEX
  5
13A1
  8
SAPA_PROFIL
 10
59.000000000000227
 20
15.575843852310239
 30
0.0
  0
VERTEX
  5
13A2
  8
SAPA_PROFIL
 10
59.000000000000192
 20
11.97583185231017
 30
0.0
 42
-0.414213562373095
  0
VERTEX
  5
13A3
  8
SAPA_PROFIL
 10
58.70000000000018
 20
11.67583185231018
 30
0.0
  0
VERTEX
  5
13A4
  8
SAPA_PROFIL
 10
58.250000000000178
 20
11.67583185231028
 30
0.0
  0
VERTEX
  5
13A5
  8
SAPA_PROFIL
 10
56.760739868926009
 20
12.53565658987926
 30
0.0
 42
0.1316363093594254
  0
VERTEX
  5
13A6
  8
SAPA_PROFIL
 10
56.610758963879263
 20
12.57584896813623
 30
0.0
  0
VERTEX
  5
13A7
  8
SAPA_PROFIL
 10
56.500000000002039
 20
12.57585601792703
 30
0.0
  0
VERTEX
  5
13A8
  8
SAPA_PROFIL
 10
56.500000000002039
 20
10.500000000010759
 30
0.0
 42
0.4142135623730955
  0
VERTEX
  5
13A9
  8
SAPA_PROFIL
 10
57.000000000002039
 20
10.000000000010759
 30
0.0
  0
VERTEX
  5
13AA
  8
SAPA_PROFIL
 10
62.249999999667338
 20
10.000000000010759
 30
0.0
 42
0.4142135623730953
  0
VERTEX
  5
13AB
  8
SAPA_PROFIL
 10
62.749999999667338
 20
10.500000000010759
 30
0.0
  0
VERTEX
  5
13AC
  8
SAPA_PROFIL
 10
62.749999999667338
 20
11.00000000359417
 30
0.0
 42
0.4142135623730953
  0
VERTEX
  5
13AD
  8
SAPA_PROFIL
 10
62.249999999667338
 20
11.50000000359416
 30
0.0
  0
VERTEX
  5
13AE
  8
SAPA_PROFIL
 10
61.24999999926014
 20
11.500000003598711
 30
0.0
  0
VERTEX
  5
13AF
  8
SAPA_PROFIL
 10
61.249999999255991
 20
14.70000000405364
 30
0.0
  0
VERTEX
  5
13B0
  8
SAPA_PROFIL
 10
65.75000000016189
 20
14.70000000404565
 30
0.0
  0
VERTEX
  5
13B1
  8
SAPA_PROFIL
 10
65.750000000183249
 20
-4.8000000000001641
 30
0.0
 42
0.4964147352859417
  0
VERTEX
  5
13B2
  8
SAPA_PROFIL
 10
66.003790408509204
 20
-4.9926307139906534
 30
0.0
 42
0.306467954212033
  0
VERTEX
  5
13B3
  8
SAPA_PROFIL
 10
66.728906881358057
 20
-4.1382327808135493
 30
0.0
 42
0.0272495355296329
  0
VERTEX
  5
13B4
  8
SAPA_PROFIL
 10
67.499999999667693
 20
9.9999999999895728
 30
0.0
  0
VERTEX
  5
13B5
  8
SAPA_PROFIL
 10
67.499999999805581
 20
14.999999999908891
 30
0.0
 42
0.4142135623819769
  0
VERTEX
  5
13B6
  8
SAPA_PROFIL
 10
64.499999999805596
 20
17.99999999999984
 30
0.0
  0
SEQEND
  5
13B7
  8
SAPA_PROFIL
  0
POLYLINE
  5
EEB
  8
SAPA_PROFIL
 62
     4
 66
     1
 10
0.0
 20
0.0
 30
0.0
 70
     1
  0
VERTEX
  5
EEC
  8
SAPA_PROFIL
 62
     4
 10
56.143782217347727
 20
14.72584385230822
 30
0.0
 42
0.1316524975873979
  0
VERTEX
  5
EED
  8
SAPA_PROFIL
 62
     4
 10
56.543782217347747
 20
14.833023529280659
 30
0.0
  0
VERTEX
  5
EEE
  8
SAPA_PROFIL
 62
     4
 10
58.263397459621793
 20
15.825843852310079
 30
0.0
  0
VERTEX
  5
EEF
  8
SAPA_PROFIL
 62
     4
 10
58.700000000000237
 20
15.82584385231017
 30
0.0
 42
-0.4142135623730951
  0
VERTEX
  5
EF0
  8
SAPA_PROFIL
 62
     4
 10
58.95000000000023
 20
15.575843852310181
 30
0.0
  0
VERTEX
  5
EF1
  8
SAPA_PROFIL
 62
     4
 10
58.95000000000028
 20
11.975831852310121
 30
0.0
 42
-0.4142135623731053
  0
VERTEX
  5
EF2
  8
SAPA_PROFIL
 62
     4
 10
58.700000000000287
 20
11.72583185231011
 30
0.0
  0
VERTEX
  5
EF3
  8
SAPA_PROFIL
 62
     4
 10
58.263398078421808
 20
11.725843495045471
 30
0.0
  0
VERTEX
  5
EF4
  8
SAPA_PROFIL
 62
     4
 10
56.543782217354419
 20
12.71866417533575
 30
0.0
 42
0.1316524975874149
  0
VERTEX
  5
EF5
  8
SAPA_PROFIL
 62
     4
 10
56.143782217354378
 20
12.825843852308241
 30
0.0
  0
VERTEX
  5
EF6
  8
SAPA_PROFIL
 62
     4
 10
31.856217782646091
 20
12.825843852308241
 30
0.0
 42
0.1316524975874151
  0
VERTEX
  5
EF7
  8
SAPA_PROFIL
 62
     4
 10
31.456217782646039
 20
12.71866417533575
 30
0.0
  0
VERTEX
  5
EF8
  8
SAPA_PROFIL
 62
     4
 10
29.736601921578639
 20
11.72584349504548
 30
0.0
  0
VERTEX
  5
EF9
  8
SAPA_PROFIL
 62
     4
 10
29.300000000000178
 20
11.72583185231011
 30
0.0
 42
-0.4142135623731054
  0
VERTEX
  5
EFA
  8
SAPA_PROFIL
 62
     4
 10
29.050000000000171
 20
11.975831852310121
 30
0.0
  0
VERTEX
  5
EFB
  8
SAPA_PROFIL
 62
     4
 10
29.050000000000221
 20
15.575843852310189
 30
0.0
 42
-0.4142135623730953
  0
VERTEX
  5
EFC
  8
SAPA_PROFIL
 62
     4
 10
29.30000000000021
 20
15.825843852310181
 30
0.0
  0
VERTEX
  5
EFD
  8
SAPA_PROFIL
 62
     4
 10
29.736602540378669
 20
15.825843852310079
 30
0.0
  0
VERTEX
  5
EFE
  8
SAPA_PROFIL
 62
     4
 10
31.456217782652701
 20
14.833023529280659
 30
0.0
 42
0.1316524975873982
  0
VERTEX
  5
EFF
  8
SAPA_PROFIL
 62
     4
 10
31.85621778265272
 20
14.72584385230822
 30
0.0
  0
SEQEND
  5
F00
  8
SAPA_PROFIL
 62
     4
  0
POLYLINE
  5
F01
  8
SAPA_PROFIL
 62
     4
 66
     1
 10
0.0
 20
0.0
 30
0.0
 70
     1
  0
VERTEX
  5
13B8
  8
SAPA_PROFIL
 62
     4
 10
64.725833080859388
 20
54.50925230370207
 30
0.0
  0
VERTEX
  5
13B9
  8
SAPA_PROFIL
 62
     4
 10
63.236602540014189
 20
53.649444650059749
 30
0.0
  0
VERTEX
  5
13BA
  8
SAPA_PROFIL
 62
     4
 10
62.79999999963573
 20
53.64944465005965
 30
0.0
 42
-0.4142135623730946
  0
VERTEX
  5
13BB
  8
SAPA_PROFIL
 62
     4
 10
62.549999999635759
 20
53.89944465005965
 30
0.0
  0
VERTEX
  5
13BC
  8
SAPA_PROFIL
 62
     4
 10
62.549999999635702
 20
57.499456650059713
 30
0.0
 42
-0.414213562373107
  0
VERTEX
  5
13BD
  8
SAPA_PROFIL
 62
     4
 10
62.799999999635702
 20
57.74945665005972
 30
0.0
  0
VERTEX
  5
13BE
  8
SAPA_PROFIL
 62
     4
 10
63.236601921214167
 20
57.749445007324347
 30
0.0
  0
VERTEX
  5
13BF
  8
SAPA_PROFIL
 62
     4
 10
64.725832968251865
 20
56.889637061431372
 30
0.0
 42
0.1316524975874248
  0
VERTEX
  5
13C0
  8
SAPA_PROFIL
 62
     4
 10
64.875832968251899
 20
56.849444682566677
 30
0.0
  0
VERTEX
  5
13C1
  8
SAPA_PROFIL
 62
     4
 10
88.124166959503157
 20
56.849444682566677
 30
0.0
 42
0.1316524975874248
  0
VERTEX
  5
13C2
  8
SAPA_PROFIL
 62
     4
 10
88.274166959503191
 20
56.889637061431372
 30
0.0
  0
VERTEX
  5
13C3
  8
SAPA_PROFIL
 62
     4
 10
89.763398006540882
 20
57.749445007324347
 30
0.0
  0
VERTEX
  5
13C4
  8
SAPA_PROFIL
 62
     4
 10
90.199999928119325
 20
57.749456650059713
 30
0.0
 42
-0.4142135623731049
  0
VERTEX
  5
13C5
  8
SAPA_PROFIL
 62
     4
 10
90.449999928119325
 20
57.499456650059713
 30
0.0
  0
VERTEX
  5
13C6
  8
SAPA_PROFIL
 62
     4
 10
90.449999928119297
 20
53.89944465005965
 30
0.0
 42
-0.4142135623730951
  0
VERTEX
  5
13C7
  8
SAPA_PROFIL
 62
     4
 10
90.199999928119297
 20
53.64944465005965
 30
0.0
  0
VERTEX
  5
13C8
  8
SAPA_PROFIL
 62
     4
 10
89.763397387740838
 20
53.649444650059749
 30
0.0
  0
VERTEX
  5
13C9
  8
SAPA_PROFIL
 62
     4
 10
88.274166846895724
 20
54.509252303702013
 30
0.0
 42
0.1316524975873867
  0
VERTEX
  5
13CA
  8
SAPA_PROFIL
 62
     4
 10
88.124166846895747
 20
54.54944468256668
 30
0.0
  0
VERTEX
  5
13CB
  8
SAPA_PROFIL
 62
     4
 10
64.875833080859366
 20
54.54944468256673
 30
0.0
 42
0.1316524975873873
  0
SEQEND
  5
13CC
  8
SAPA_PROFIL
 62
     4
  0
POLYLINE
  5
F02
  8
SAPA_PROFIL
 66
     1
 10
0.0
 20
0.0
 30
0.0
 70
     1
  0
VERTEX
  5
13CD
  8
SAPA_PROFIL
 10
17.300000000010328
 20
10.000000000032591
 30
0.0
 42
0.4142135623624294
  0
VERTEX
  5
13CE
  8
SAPA_PROFIL
 10
17.50000000000011
 20
10.20000000000784
 30
0.0
  0
VERTEX
  5
13CF
  8
SAPA_PROFIL
 10
17.500000000014658
 20
11.050000000006399
 30
0.0
 42
-0.4142135623730744
  0
VERTEX
  5
13D0
  8
SAPA_PROFIL
 10
17.700000000019031
 20
11.25000000000712
 30
0.0
  0
VERTEX
  5
13D1
  8
SAPA_PROFIL
 10
18.000000000000139
 20
11.24999999999984
 30
0.0
 42
-0.4142135623731035
  0
VERTEX
  5
13D2
  8
SAPA_PROFIL
 10
18.500000000000139
 20
10.749999999999829
 30
0.0
  0
VERTEX
  5
13D3
  8
SAPA_PROFIL
 10
18.500000000000139
 20
7.7499999999998357
 30
0.0
 42
-0.4142135623731035
  0
VERTEX
  5
13D4
  8
SAPA_PROFIL
 10
18.000000000000139
 20
7.2499999999998357
 30
0.0
  0
VERTEX
  5
13D5
  8
SAPA_PROFIL
 10
17.700000000004479
 20
7.2499999999998357
 30
0.0
 42
-0.4142135623730744
  0
VERTEX
  5
13D6
  8
SAPA_PROFIL
 10
17.50000000000011
 20
7.4500000000005784
 30
0.0
  0
VERTEX
  5
13D7
  8
SAPA_PROFIL
 10
17.500000000011049
 20
8.3000000000027612
 30
0.0
 42
0.4142135623730534
  0
VERTEX
  5
13D8
  8
SAPA_PROFIL
 10
17.300000000010328
 20
8.4999999999998366
 30
0.0
  0
VERTEX
  5
13D9
  8
SAPA_PROFIL
 10
16.300000000010328
 20
8.4999999999998366
 30
0.0
 42
0.4142135623731035
  0
VERTEX
  5
13DA
  8
SAPA_PROFIL
 10
15.80000000001033
 20
7.9999999999998357
 30
0.0
  0
VERTEX
  5
13DB
  8
SAPA_PROFIL
 10
15.80000000001033
 20
1.9999999999998499
 30
0.0
 42
0.4142135623731033
  0
VERTEX
  5
13DC
  8
SAPA_PROFIL
 10
16.300000000010311
 20
1.4999999999998499
 30
0.0
  0
VERTEX
  5
13DD
  8
SAPA_PROFIL
 10
17.300000000010311
 20
1.5000000000107641
 30
0.0
 42
0.414213562373064
  0
VERTEX
  5
13DE
  8
SAPA_PROFIL
 10
17.500000000000099
 20
1.7000000000005779
 30
0.0
  0
VERTEX
  5
13DF
  8
SAPA_PROFIL
 10
17.50000000000011
 20
2.5500000000027612
 30
0.0
 42
-0.414213562373064
  0
VERTEX
  5
13E0
  8
SAPA_PROFIL
 10
17.700000000004479
 20
2.7499999999998499
 30
0.0
  0
VERTEX
  5
13E1
  8
SAPA_PROFIL
 10
18.000000000000139
 20
2.7499999999998499
 30
0.0
 42
-0.4142135623731035
  0
VERTEX
  5
13E2
  8
SAPA_PROFIL
 10
18.500000000000139
 20
2.2499999999998499
 30
0.0
  0
VERTEX
  5
13E3
  8
SAPA_PROFIL
 10
18.500000000000131
 20
0.4999999999998508
 30
0.0
 42
-0.4142135623731035
  0
VERTEX
  5
13E4
  8
SAPA_PROFIL
 10
18.000000000000131
 20
-0.0000000000001492
 30
0.0
  0
VERTEX
  5
13E5
  8
SAPA_PROFIL
 10
15.50000000000013
 20
-0.0000000000001492
 30
0.0
 42
-0.4142135623730966
  0
VERTEX
  5
13E6
  8
SAPA_PROFIL
 10
14.000000000000099
 20
1.4999999999998499
 30
0.0
  0
VERTEX
  5
13E7
  8
SAPA_PROFIL
 10
14.00000000000011
 20
59.700000000000557
 30
0.0
 42
-0.4142135623730935
  0
VERTEX
  5
13E8
  8
SAPA_PROFIL
 10
14.3000000000103
 20
59.999999999999837
 30
0.0
  0
VERTEX
  5
13E9
  8
SAPA_PROFIL
 10
62.256130958696417
 20
59.999999999999851
 30
0.0
 42
-0.2418327667378115
  0
VERTEX
  5
13EA
  8
SAPA_PROFIL
 10
62.499999999634809
 20
59.874722325032749
 30
0.0
 42
0.2418327667509125
  0
VERTEX
  5
13EB
  8
SAPA_PROFIL
 10
62.743869040590774
 20
59.749444650060312
 30
0.0
  0
VERTEX
  5
13EC
  8
SAPA_PROFIL
 10
63.699999999640681
 20
59.749444650056667
 30
0.0
 42
0.2418327667448973
  0
VERTEX
  5
13ED
  8
SAPA_PROFIL
 10
63.943869040595622
 20
59.87472232502509
 30
0.0
 42
-0.2418327667448979
  0
VERTEX
  5
13EE
  8
SAPA_PROFIL
 10
64.187738081548218
 20
59.999999999992291
 30
0.0
  0
VERTEX
  5
13EF
  8
SAPA_PROFIL
 10
66.285810437266178
 20
59.999999999992291
 30
0.0
 42
-0.6681786379192718
  0
VERTEX
  5
13F0
  8
SAPA_PROFIL
 10
66.992917218452789
 20
58.292893218805787
 30
0.0
  0
VERTEX
  5
13F1
  8
SAPA_PROFIL
 10
65.687867965283829
 20
56.987843965636607
 30
0.0
 42
-0.1989123673797335
  0
VERTEX
  5
13F2
  8
SAPA_PROFIL
 10
65.475735930927755
 20
56.899975999992513
 30
0.0
  0
VERTEX
  5
13F3
  8
SAPA_PROFIL
 10
64.889230484180558
 20
56.899975999992648
 30
0.0
 42
-0.1316524975873855
  0
VERTEX
  5
13F4
  8
SAPA_PROFIL
 10
64.739230484180638
 20
56.940168378857287
 30
0.0
  0
VERTEX
  5
13F5
  8
SAPA_PROFIL
 10
63.249999999639748
 20
57.79997599999259
 30
0.0
  0
VERTEX
  5
13F6
  8
SAPA_PROFIL
 10
62.799999999639802
 20
57.799987999992247
 30
0.0
 42
0.4142135623731054
  0
VERTEX
  5
13F7
  8
SAPA_PROFIL
 10
62.49999999963979
 20
57.49998799999225
 30
0.0
  0
VERTEX
  5
13F8
  8
SAPA_PROFIL
 10
62.49999999963984
 20
53.899975999992193
 30
0.0
 42
0.4142135623730951
  0
VERTEX
  5
13F9
  8
SAPA_PROFIL
 10
62.799999999639851
 20
53.599975999992189
 30
0.0
  0
VERTEX
  5
13FA
  8
SAPA_PROFIL
 10
63.24999999963984
 20
53.599975999992289
 30
0.0
  0
VERTEX
  5
13FB
  8
SAPA_PROFIL
 10
64.739260130714001
 20
54.459800737561281
 30
0.0
 42
-0.1316363093594257
  0
VERTEX
  5
13FC
  8
SAPA_PROFIL
 10
64.889241035760762
 20
54.499993115818242
 30
0.0
  0
VERTEX
  5
13FD
  8
SAPA_PROFIL
 10
64.999999999643592
 20
54.500000165609052
 30
0.0
  0
VERTEX
  5
13FE
  8
SAPA_PROFIL
 10
64.999999999643592
 20
52.914359353937321
 30
0.0
 42
-0.2679491924308306
  0
VERTEX
  5
13FF
  8
SAPA_PROFIL
 10
64.499999999643592
 20
52.048333950158693
 30
0.0
  0
VERTEX
  5
1400
  8
SAPA_PROFIL
 10
62.749999999643137
 20
51.037970979080207
 30
0.0
 42
0.2679491924308306
  0
VERTEX
  5
1401
  8
SAPA_PROFIL
 10
62.499999999643592
 20
50.60495827718826
 30
0.0
  0
VERTEX
  5
1402
  8
SAPA_PROFIL
 10
62.499999999643592
 20
49.39504172280779
 30
0.0
 42
0.2679491924308304
  0
VERTEX
  5
1403
  8
SAPA_PROFIL
 10
62.749999999643592
 20
48.962029020916653
 30
0.0
  0
VERTEX
  5
1404
  8
SAPA_PROFIL
 10
64.499999999643592
 20
47.951666049840988
 30
0.0
 42
-0.2679491924308308
  0
VERTEX
  5
1405
  8
SAPA_PROFIL
 10
64.999999999641716
 20
47.085640646055097
 30
0.0
  0
VERTEX
  5
1406
  8
SAPA_PROFIL
 10
64.999999999643876
 20
45.499999834386998
 30
0.0
  0
VERTEX
  5
1407
  8
SAPA_PROFIL
 10
64.889241035760762
 20
45.500006884177807
 30
0.0
 42
-0.1316363093594255
  0
VERTEX
  5
1408
  8
SAPA_PROFIL
 10
64.739260130714001
 20
45.540199262434768
 30
0.0
  0
VERTEX
  5
1409
  8
SAPA_PROFIL
 10
63.24999999963984
 20
46.400024000003746
 30
0.0
  0
VERTEX
  5
140A
  8
SAPA_PROFIL
 10
62.799999999639851
 20
46.400024000003853
 30
0.0
 42
0.4142135623730951
  0
VERTEX
  5
140B
  8
SAPA_PROFIL
 10
62.49999999963984
 20
46.100024000003863
 30
0.0
  0
VERTEX
  5
140C
  8
SAPA_PROFIL
 10
62.49999999963979
 20
42.5000120000038
 30
0.0
 42
0.4142135623731054
  0
VERTEX
  5
140D
  8
SAPA_PROFIL
 10
62.799999999639802
 20
42.200012000003788
 30
0.0
  0
VERTEX
  5
140E
  8
SAPA_PROFIL
 10
63.249999999639748
 20
42.200024000003459
 30
0.0
  0
VERTEX
  5
140F
  8
SAPA_PROFIL
 10
64.739230484180638
 20
43.05983162113877
 30
0.0
 42
-0.1316524975873855
  0
VERTEX
  5
1410
  8
SAPA_PROFIL
 10
64.889230484180558
 20
43.100024000003422
 30
0.0
  0
VERTEX
  5
1411
  8
SAPA_PROFIL
 10
65.475735930927755
 20
43.100024000003557
 30
0.0
 42
-0.1989123673797335
  0
VERTEX
  5
1412
  8
SAPA_PROFIL
 10
65.687867965283829
 20
43.012156034359428
 30
0.0
  0
VERTEX
  5
1413
  8
SAPA_PROFIL
 10
66.992917218452789
 20
41.707106781190262
 30
0.0
 42
-0.6681786379192716
  0
VERTEX
  5
1414
  8
SAPA_PROFIL
 10
66.285810437266178
 20
40.000000000003759
 30
0.0
  0
VERTEX
  5
1415
  8
SAPA_PROFIL
 10
64.187738081546485
 20
40.000000000003759
 30
0.0
 42
-0.2418327667433386
  0
VERTEX
  5
1416
  8
SAPA_PROFIL
 10
63.943869040594933
 20
40.125277674969517
 30
0.0
 42
0.2418327667449431
  0
VERTEX
  5
1417
  8
SAPA_PROFIL
 10
63.699999999640681
 20
40.25055534993573
 30
0.0
  0
VERTEX
  5
1418
  8
SAPA_PROFIL
 10
62.743869040590774
 20
40.250555349939383
 30
0.0
 42
0.2418327667509097
  0
VERTEX
  5
1419
  8
SAPA_PROFIL
 10
62.499999999643649
 20
40.125277674956962
 30
0.0
 42
-0.2418327667378167
  0
VERTEX
  5
141A
  8
SAPA_PROFIL
 10
62.256130958696417
 20
40.000000000003759
 30
0.0
  0
VERTEX
  5
141B
  8
SAPA_PROFIL
 10
60.443389324929854
 20
39.999999999985292
 30
0.0
 42
-0.1095178116817878
  0
VERTEX
  5
141C
  8
SAPA_PROFIL
 10
59.598152801458859
 20
40.187384425907119
 30
0.0
  0
VERTEX
  5
141D
  8
SAPA_PROFIL
 10
53.968326436319437
 20
42.812615574068168
 30
0.0
 42
0.1095178116855129
  0
VERTEX
  5
141E
  8
SAPA_PROFIL
 10
53.123089912835098
 20
42.999999999999837
 30
0.0
  0
VERTEX
  5
141F
  8
SAPA_PROFIL
 10
45.999999999658137
 20
43.00000000000712
 30
0.0
 42
0.4142135623730957
  0
VERTEX
  5
1420
  8
SAPA_PROFIL
 10
45.499999999658137
 20
42.499999999985292
 30
0.0
  0
VERTEX
  5
1421
  8
SAPA_PROFIL
 10
45.499999999658137
 20
41.499999999985292
 30
0.0
 42
0.4142135623730915
  0
VERTEX
  5
1422
  8
SAPA_PROFIL
 10
45.999999999658137
 20
40.999999999985292
 30
0.0
  0
VERTEX
  5
1423
  8
SAPA_PROFIL
 10
46.291287847139863
 20
40.999999999985292
 30
0.0
 42
-0.2982166266909514
  0
VERTEX
  5
1424
  8
SAPA_PROFIL
 10
46.749545416629807
 20
40.699999999998177
 30
0.0
 42
-1.5275252316550829
  0
VERTEX
  5
1425
  8
SAPA_PROFIL
 10
41.250454582702361
 20
40.699999999998283
 30
0.0
 42
-0.2982166266892446
  0
VERTEX
  5
1426
  8
SAPA_PROFIL
 10
41.708712152169142
 20
40.999999999975969
 30
0.0
  0
VERTEX
  5
1427
  8
SAPA_PROFIL
 10
41.999999999658137
 20
40.999999999985292
 30
0.0
 42
0.4142135623730915
  0
VERTEX
  5
1428
  8
SAPA_PROFIL
 10
42.499999999658137
 20
41.499999999985292
 30
0.0
  0
VERTEX
  5
1429
  8
SAPA_PROFIL
 10
42.499999999658137
 20
42.499999999985292
 30
0.0
 42
0.4142135623730918
  0
VERTEX
  5
142A
  8
SAPA_PROFIL
 10
41.999999999658137
 20
42.999999999985278
 30
0.0
  0
VERTEX
  5
142B
  8
SAPA_PROFIL
 10
23.0769100868057
 20
42.999999999985292
 30
0.0
 42
0.1095178116838485
  0
VERTEX
  5
142C
  8
SAPA_PROFIL
 10
22.231673563315901
 20
42.812615574065383
 30
0.0
  0
VERTEX
  5
142D
  8
SAPA_PROFIL
 10
17.35476347652741
 20
40.538475052471611
 30
0.0
 42
0.2914734195858569
  0
VERTEX
  5
142E
  8
SAPA_PROFIL
 10
16.200000000004479
 20
38.725859478388728
 30
0.0
  0
VERTEX
  5
142F
  8
SAPA_PROFIL
 10
16.200000000004479
 20
19.00000000000712
 30
0.0
 42
0.4142135623730951
  0
VERTEX
  5
1430
  8
SAPA_PROFIL
 10
16.700000000004479
 20
18.50000000000713
 30
0.0
  0
VERTEX
  5
1431
  8
SAPA_PROFIL
 10
17.000000000021942
 20
18.50000000000713
 30
0.0
 42
0.4142135623731035
  0
VERTEX
  5
1432
  8
SAPA_PROFIL
 10
17.500000000021942
 20
19.00000000000712
 30
0.0
  0
VERTEX
  5
1433
  8
SAPA_PROFIL
 10
17.500000000021942
 20
20.300000000006399
 30
0.0
 42
-0.4142135623730744
  0
VERTEX
  5
1434
  8
SAPA_PROFIL
 10
17.700000000019031
 20
20.500000000010768
 30
0.0
  0
VERTEX
  5
1435
  8
SAPA_PROFIL
 10
18.000000000021942
 20
20.500000000007109
 30
0.0
 42
-0.4142135623731035
  0
VERTEX
  5
1436
  8
SAPA_PROFIL
 10
18.500000000021942
 20
20.00000000000713
 30
0.0
  0
VERTEX
  5
1437
  8
SAPA_PROFIL
 10
18.500000000000139
 20
16.25000000000713
 30
0.0
 42
-0.4142135623731035
  0
VERTEX
  5
1438
  8
SAPA_PROFIL
 10
18.000000000000139
 20
15.75000000000712
 30
0.0
  0
VERTEX
  5
1439
  8
SAPA_PROFIL
 10
17.700000000004479
 20
15.75000000000712
 30
0.0
 42
-0.4142135623731159
  0
VERTEX
  5
143A
  8
SAPA_PROFIL
 10
17.499999999996501
 20
15.95000000002239
 30
0.0
  0
VERTEX
  5
143B
  8
SAPA_PROFIL
 10
17.50000000000011
 20
16.800000000006399
 30
0.0
 42
0.4142135623730951
  0
VERTEX
  5
143C
  8
SAPA_PROFIL
 10
17.300000000010328
 20
17.00000000000712
 30
0.0
  0
VERTEX
  5
143D
  8
SAPA_PROFIL
 10
16.300000000010328
 20
17.00000000000712
 30
0.0
 42
0.4142135623731035
  0
VERTEX
  5
143E
  8
SAPA_PROFIL
 10
15.80000000001033
 20
16.50000000000712
 30
0.0
  0
VERTEX
  5
143F
  8
SAPA_PROFIL
 10
15.80000000001033
 20
10.500000000007111
 30
0.0
 42
0.4142135623731033
  0
VERTEX
  5
1440
  8
SAPA_PROFIL
 10
16.300000000010328
 20
10.00000000000712
 30
0.0
  0
SEQEND
  5
1441
  8
SAPA_PROFIL
  0
POLYLINE
  5
F03
  8
SAPA_PROFIL
 66
     1
 10
0.0
 20
0.0
 30
0.0
 70
     1
  0
VERTEX
  5
1442
  8
SAPA_PROFIL
 10
59.999999999643592
 20
57.199999999986019
 30
0.0
  0
VERTEX
  5
1443
  8
SAPA_PROFIL
 10
59.999999999643592
 20
45.600000000005657
 30
0.0
 42
-0.4142135623730951
  0
VERTEX
  5
1444
  8
SAPA_PROFIL
 10
59.699999999640681
 20
45.300000000002747
 30
0.0
  0
VERTEX
  5
1445
  8
SAPA_PROFIL
 10
16.8000000000103
 20
45.299999999980933
 30
0.0
 42
-0.4142135623730935
  0
VERTEX
  5
1446
  8
SAPA_PROFIL
 10
16.500000000011031
 20
45.599999999980199
 30
0.0
  0
VERTEX
  5
1447
  8
SAPA_PROFIL
 10
16.50000000000011
 20
57.200000000000557
 30
0.0
 42
-0.4142135623730935
  0
VERTEX
  5
1448
  8
SAPA_PROFIL
 10
16.8000000000103
 20
57.499999999999837
 30
0.0
  0
VERTEX
  5
1449
  8
SAPA_PROFIL
 10
59.699999999640681
 20
57.499999999985292
 30
0.0
 42
-0.4142135623730939
  0
SEQEND
  5
144A
  8
SAPA_PROFIL
  0
POLYLINE
  5
F04
  8
SAPA_PROFIL
 66
     1
 10
0.0
 20
0.0
 30
0.0
 70
     1
  0
VERTEX
  5
144B
  8
SAPA_PROFIL
 10
135.6999999277447
 20
10.00000000003258
 30
0.0
 42
-0.4142135623624294
  0
VERTEX
  5
144C
  8
SAPA_PROFIL
 10
135.49999992775491
 20
10.200000000007821
 30
0.0
  0
VERTEX
  5
144D
  8
SAPA_PROFIL
 10
135.4999999277403
 20
11.05000000000638
 30
0.0
 42
0.4142135623730744
  0
VERTEX
  5
144E
  8
SAPA_PROFIL
 10
135.299999927736
 20
11.250000000007111
 30
0.0
  0
VERTEX
  5
144F
  8
SAPA_PROFIL
 10
134.99999992775491
 20
11.249999999999821
 30
0.0
 42
0.4142135623731035
  0
VERTEX
  5
1450
  8
SAPA_PROFIL
 10
134.49999992775491
 20
10.749999999999821
 30
0.0
  0
VERTEX
  5
1451
  8
SAPA_PROFIL
 10
134.49999992775491
 20
7.7499999999998224
 30
0.0
 42
0.4142135623731035
  0
VERTEX
  5
1452
  8
SAPA_PROFIL
 10
134.99999992775491
 20
7.2499999999998224
 30
0.0
  0
VERTEX
  5
1453
  8
SAPA_PROFIL
 10
135.29999992775049
 20
7.2499999999998224
 30
0.0
 42
0.4142135623730744
  0
VERTEX
  5
1454
  8
SAPA_PROFIL
 10
135.49999992775491
 20
7.4500000000005642
 30
0.0
  0
VERTEX
  5
1455
  8
SAPA_PROFIL
 10
135.49999992774389
 20
8.3000000000027452
 30
0.0
 42
-0.4142135623730534
  0
VERTEX
  5
1456
  8
SAPA_PROFIL
 10
135.6999999277447
 20
8.4999999999998224
 30
0.0
  0
VERTEX
  5
1457
  8
SAPA_PROFIL
 10
136.6999999277447
 20
8.4999999999998224
 30
0.0
 42
-0.4142135623731035
  0
VERTEX
  5
1458
  8
SAPA_PROFIL
 10
137.1999999277447
 20
7.9999999999998224
 30
0.0
  0
VERTEX
  5
1459
  8
SAPA_PROFIL
 10
137.1999999277447
 20
1.9999999999998359
 30
0.0
 42
-0.4142135623731033
  0
VERTEX
  5
145A
  8
SAPA_PROFIL
 10
136.6999999277447
 20
1.4999999999998359
 30
0.0
  0
VERTEX
  5
145B
  8
SAPA_PROFIL
 10
135.6999999277447
 20
1.5000000000107501
 30
0.0
 42
-0.414213562373064
  0
VERTEX
  5
145C
  8
SAPA_PROFIL
 10
135.49999992775491
 20
1.7000000000005639
 30
0.0
  0
VERTEX
  5
145D
  8
SAPA_PROFIL
 10
135.49999992775491
 20
2.5500000000027461
 30
0.0
 42
0.414213562373064
  0
VERTEX
  5
145E
  8
SAPA_PROFIL
 10
135.29999992775049
 20
2.7499999999998361
 30
0.0
  0
VERTEX
  5
145F
  8
SAPA_PROFIL
 10
134.99999992775491
 20
2.7499999999998361
 30
0.0
 42
0.4142135623731035
  0
VERTEX
  5
1460
  8
SAPA_PROFIL
 10
134.49999992775491
 20
2.2499999999998361
 30
0.0
  0
VERTEX
  5
1461
  8
SAPA_PROFIL
 10
134.49999992775491
 20
0.4999999999998366
 30
0.0
 42
0.4142135623731035
  0
VERTEX
  5
1462
  8
SAPA_PROFIL
 10
134.99999992775491
 20
-0.0000000000001634
 30
0.0
  0
VERTEX
  5
1463
  8
SAPA_PROFIL
 10
137.49999992775491
 20
-0.0000000000001634
 30
0.0
 42
0.4142135623730966
  0
VERTEX
  5
1464
  8
SAPA_PROFIL
 10
138.99999992775491
 20
1.4999999999998359
 30
0.0
  0
VERTEX
  5
1465
  8
SAPA_PROFIL
 10
138.99999992775491
 20
59.70000000000055
 30
0.0
 42
0.4142135623730935
  0
VERTEX
  5
1466
  8
SAPA_PROFIL
 10
138.6999999277447
 20
59.999999999999829
 30
0.0
  0
VERTEX
  5
1467
  8
SAPA_PROFIL
 10
90.743868969058624
 20
59.999999999999837
 30
0.0
 42
0.2418327667378115
  0
VERTEX
  5
1468
  8
SAPA_PROFIL
 10
90.499999928120218
 20
59.874722325032742
 30
0.0
 42
-0.2418327667509125
  0
VERTEX
  5
1469
  8
SAPA_PROFIL
 10
90.256130887164261
 20
59.749444650060312
 30
0.0
  0
VERTEX
  5
146A
  8
SAPA_PROFIL
 10
89.299999928114346
 20
59.749444650056667
 30
0.0
 42
-0.2418327667448973
  0
VERTEX
  5
146B
  8
SAPA_PROFIL
 10
89.056130887159412
 20
59.87472232502509
 30
0.0
 42
0.2418327667448979
  0
VERTEX
  5
146C
  8
SAPA_PROFIL
 10
88.812261846206837
 20
59.999999999992291
 30
0.0
  0
VERTEX
  5
146D
  8
SAPA_PROFIL
 10
86.714189490488835
 20
59.999999999992291
 30
0.0
 42
0.6681786379192718
  0
VERTEX
  5
146E
  8
SAPA_PROFIL
 10
86.007082709302239
 20
58.292893218805787
 30
0.0
  0
VERTEX
  5
146F
  8
SAPA_PROFIL
 10
87.312131962471227
 20
56.987843965636607
 30
0.0
 42
0.1989123673797335
  0
VERTEX
  5
1470
  8
SAPA_PROFIL
 10
87.524263996827315
 20
56.899975999992513
 30
0.0
  0
VERTEX
  5
1471
  8
SAPA_PROFIL
 10
88.110769443574497
 20
56.899975999992648
 30
0.0
 42
0.1316524975873855
  0
VERTEX
  5
1472
  8
SAPA_PROFIL
 10
88.260769443574418
 20
56.940168378857287
 30
0.0
  0
VERTEX
  5
1473
  8
SAPA_PROFIL
 10
89.749999928115315
 20
57.79997599999259
 30
0.0
  0
VERTEX
  5
1474
  8
SAPA_PROFIL
 10
90.199999928115233
 20
57.799987999992247
 30
0.0
 42
-0.4142135623731054
  0
VERTEX
  5
1475
  8
SAPA_PROFIL
 10
90.499999928115244
 20
57.49998799999225
 30
0.0
  0
VERTEX
  5
1476
  8
SAPA_PROFIL
 10
90.499999928115187
 20
53.899975999992193
 30
0.0
 42
-0.4142135623730951
  0
VERTEX
  5
1477
  8
SAPA_PROFIL
 10
90.199999928115204
 20
53.599975999992189
 30
0.0
  0
VERTEX
  5
1478
  8
SAPA_PROFIL
 10
89.749999928115173
 20
53.599975999992289
 30
0.0
  0
VERTEX
  5
1479
  8
SAPA_PROFIL
 10
88.260739797041026
 20
54.459800737561267
 30
0.0
 42
0.1316363093594257
  0
VERTEX
  5
147A
  8
SAPA_PROFIL
 10
88.110758891994294
 20
54.499993115818242
 30
0.0
  0
VERTEX
  5
147B
  8
SAPA_PROFIL
 10
87.999999928111436
 20
54.500000165609052
 30
0.0
  0
VERTEX
  5
147C
  8
SAPA_PROFIL
 10
87.999999928111436
 20
52.914359353937321
 30
0.0
 42
0.2679491924308306
  0
VERTEX
  5
147D
  8
SAPA_PROFIL
 10
88.499999928111436
 20
52.048333950158693
 30
0.0
  0
VERTEX
  5
147E
  8
SAPA_PROFIL
 10
90.24999992811189
 20
51.037970979080207
 30
0.0
 42
-0.2679491924308306
  0
VERTEX
  5
147F
  8
SAPA_PROFIL
 10
90.499999928111436
 20
50.60495827718826
 30
0.0
  0
VERTEX
  5
1480
  8
SAPA_PROFIL
 10
90.499999928111436
 20
49.39504172280779
 30
0.0
 42
-0.2679491924308304
  0
VERTEX
  5
1481
  8
SAPA_PROFIL
 10
90.249999928111436
 20
48.962029020916653
 30
0.0
  0
VERTEX
  5
1482
  8
SAPA_PROFIL
 10
88.499999928111436
 20
47.951666049840988
 30
0.0
 42
0.2679491924308308
  0
VERTEX
  5
1483
  8
SAPA_PROFIL
 10
87.999999928113311
 20
47.085640646055097
 30
0.0
  0
VERTEX
  5
1484
  8
SAPA_PROFIL
 10
87.99999992811118
 20
45.499999834386998
 30
0.0
  0
VERTEX
  5
1485
  8
SAPA_PROFIL
 10
88.110758891994294
 20
45.500006884177807
 30
0.0
 42
0.1316363093594255
  0
VERTEX
  5
1486
  8
SAPA_PROFIL
 10
88.260739797041026
 20
45.540199262434768
 30
0.0
  0
VERTEX
  5
1487
  8
SAPA_PROFIL
 10
89.749999928115173
 20
46.400024000003746
 30
0.0
  0
VERTEX
  5
1488
  8
SAPA_PROFIL
 10
90.199999928115204
 20
46.400024000003853
 30
0.0
 42
-0.4142135623730951
  0
VERTEX
  5
1489
  8
SAPA_PROFIL
 10
90.499999928115187
 20
46.100024000003849
 30
0.0
  0
VERTEX
  5
148A
  8
SAPA_PROFIL
 10
90.499999928115244
 20
42.500012000003792
 30
0.0
 42
-0.4142135623731054
  0
VERTEX
  5
148B
  8
SAPA_PROFIL
 10
90.199999928115233
 20
42.200012000003788
 30
0.0
  0
VERTEX
  5
148C
  8
SAPA_PROFIL
 10
89.749999928115315
 20
42.200024000003452
 30
0.0
  0
VERTEX
  5
148D
  8
SAPA_PROFIL
 10
88.260769443574418
 20
43.059831621138748
 30
0.0
 42
0.1316524975873855
  0
VERTEX
  5
148E
  8
SAPA_PROFIL
 10
88.110769443574497
 20
43.100024000003401
 30
0.0
  0
VERTEX
  5
148F
  8
SAPA_PROFIL
 10
87.524263996827315
 20
43.100024000003543
 30
0.0
 42
0.1989123673797335
  0
VERTEX
  5
1490
  8
SAPA_PROFIL
 10
87.312131962471227
 20
43.012156034359428
 30
0.0
  0
VERTEX
  5
1491
  8
SAPA_PROFIL
 10
86.007082709302239
 20
41.707106781190262
 30
0.0
 42
0.6681786379192716
  0
VERTEX
  5
1492
  8
SAPA_PROFIL
 10
86.714189490488835
 20
40.000000000003759
 30
0.0
  0
VERTEX
  5
1493
  8
SAPA_PROFIL
 10
88.812261846208557
 20
40.000000000003759
 30
0.0
 42
0.2418327667433386
  0
VERTEX
  5
1494
  8
SAPA_PROFIL
 10
89.056130887160094
 20
40.125277674969517
 30
0.0
 42
-0.2418327667449431
  0
VERTEX
  5
1495
  8
SAPA_PROFIL
 10
89.299999928114346
 20
40.25055534993573
 30
0.0
  0
VERTEX
  5
1496
  8
SAPA_PROFIL
 10
90.256130887164261
 20
40.250555349939383
 30
0.0
 42
-0.2418327667509097
  0
VERTEX
  5
1497
  8
SAPA_PROFIL
 10
90.499999928111365
 20
40.125277674956962
 30
0.0
 42
0.2418327667378167
  0
VERTEX
  5
1498
  8
SAPA_PROFIL
 10
90.743868969058624
 20
40.000000000003759
 30
0.0
  0
VERTEX
  5
1499
  8
SAPA_PROFIL
 10
92.556610602825174
 20
39.999999999985292
 30
0.0
 42
0.1095178116817878
  0
VERTEX
  5
149A
  8
SAPA_PROFIL
 10
93.401847126296161
 20
40.187384425907119
 30
0.0
  0
VERTEX
  5
149B
  8
SAPA_PROFIL
 10
99.031673491435583
 20
42.812615574068168
 30
0.0
 42
-0.1095178116855129
  0
VERTEX
  5
149C
  8
SAPA_PROFIL
 10
99.876910014919929
 20
42.999999999999837
 30
0.0
  0
VERTEX
  5
149D
  8
SAPA_PROFIL
 10
106.9999999280969
 20
43.00000000000712
 30
0.0
 42
-0.4142135623730957
  0
VERTEX
  5
149E
  8
SAPA_PROFIL
 10
107.4999999280969
 20
42.499999999985292
 30
0.0
  0
VERTEX
  5
149F
  8
SAPA_PROFIL
 10
107.4999999280969
 20
41.499999999985292
 30
0.0
 42
-0.4142135623730915
  0
VERTEX
  5
14A0
  8
SAPA_PROFIL
 10
106.9999999280969
 20
40.999999999985292
 30
0.0
  0
VERTEX
  5
14A1
  8
SAPA_PROFIL
 10
106.7087120806151
 20
40.999999999985292
 30
0.0
 42
0.2982166266909514
  0
VERTEX
  5
14A2
  8
SAPA_PROFIL
 10
106.2504545111252
 20
40.699999999998177
 30
0.0
 42
1.5275252316550829
  0
VERTEX
  5
14A3
  8
SAPA_PROFIL
 10
111.7495453450526
 20
40.699999999998269
 30
0.0
 42
0.2982166266892446
  0
VERTEX
  5
14A4
  8
SAPA_PROFIL
 10
111.2912877755859
 20
40.999999999975969
 30
0.0
  0
VERTEX
  5
14A5
  8
SAPA_PROFIL
 10
110.9999999280969
 20
40.999999999985292
 30
0.0
 42
-0.4142135623730915
  0
VERTEX
  5
14A6
  8
SAPA_PROFIL
 10
110.4999999280969
 20
41.499999999985292
 30
0.0
  0
VERTEX
  5
14A7
  8
SAPA_PROFIL
 10
110.4999999280969
 20
42.499999999985292
 30
0.0
 42
-0.4142135623730918
  0
VERTEX
  5
14A8
  8
SAPA_PROFIL
 10
110.9999999280969
 20
42.999999999985278
 30
0.0
  0
VERTEX
  5
14A9
  8
SAPA_PROFIL
 10
129.9230898409493
 20
42.999999999985278
 30
0.0
 42
-0.1095178116838485
  0
VERTEX
  5
14AA
  8
SAPA_PROFIL
 10
130.7683263644391
 20
42.812615574065362
 30
0.0
  0
VERTEX
  5
14AB
  8
SAPA_PROFIL
 10
135.64523645122759
 20
40.53847505247159
 30
0.0
 42
-0.2914734195858569
  0
VERTEX
  5
14AC
  8
SAPA_PROFIL
 10
136.79999992775049
 20
38.725859478388713
 30
0.0
  0
VERTEX
  5
14AD
  8
SAPA_PROFIL
 10
136.79999992775049
 20
19.000000000007109
 30
0.0
 42
-0.4142135623730951
  0
VERTEX
  5
14AE
  8
SAPA_PROFIL
 10
136.29999992775049
 20
18.500000000007109
 30
0.0
  0
VERTEX
  5
14AF
  8
SAPA_PROFIL
 10
135.99999992773311
 20
18.500000000007109
 30
0.0
 42
-0.4142135623731035
  0
VERTEX
  5
14B0
  8
SAPA_PROFIL
 10
135.49999992773311
 20
19.000000000007109
 30
0.0
  0
VERTEX
  5
14B1
  8
SAPA_PROFIL
 10
135.49999992773311
 20
20.300000000006381
 30
0.0
 42
0.4142135623730744
  0
VERTEX
  5
14B2
  8
SAPA_PROFIL
 10
135.299999927736
 20
20.500000000010751
 30
0.0
  0
VERTEX
  5
14B3
  8
SAPA_PROFIL
 10
134.99999992773311
 20
20.500000000007098
 30
0.0
 42
0.4142135623731035
  0
VERTEX
  5
14B4
  8
SAPA_PROFIL
 10
134.49999992773311
 20
20.000000000007109
 30
0.0
  0
VERTEX
  5
14B5
  8
SAPA_PROFIL
 10
134.49999992775491
 20
16.250000000007109
 30
0.0
 42
0.4142135623731035
  0
VERTEX
  5
14B6
  8
SAPA_PROFIL
 10
134.99999992775491
 20
15.750000000007111
 30
0.0
  0
VERTEX
  5
14B7
  8
SAPA_PROFIL
 10
135.29999992775049
 20
15.750000000007111
 30
0.0
 42
0.4142135623731159
  0
VERTEX
  5
14B8
  8
SAPA_PROFIL
 10
135.49999992775849
 20
15.95000000002238
 30
0.0
  0
VERTEX
  5
14B9
  8
SAPA_PROFIL
 10
135.49999992775491
 20
16.800000000006381
 30
0.0
 42
-0.4142135623730951
  0
VERTEX
  5
14BA
  8
SAPA_PROFIL
 10
135.6999999277447
 20
17.000000000007109
 30
0.0
  0
VERTEX
  5
14BB
  8
SAPA_PROFIL
 10
136.6999999277447
 20
17.000000000007109
 30
0.0
 42
-0.4142135623731035
  0
VERTEX
  5
14BC
  8
SAPA_PROFIL
 10
137.1999999277447
 20
16.500000000007109
 30
0.0
  0
VERTEX
  5
14BD
  8
SAPA_PROFIL
 10
137.1999999277447
 20
10.5000000000071
 30
0.0
 42
-0.4142135623731033
  0
VERTEX
  5
14BE
  8
SAPA_PROFIL
 10
136.6999999277447
 20
10.000000000007111
 30
0.0
  0
SEQEND
  5
14BF
  8
SAPA_PROFIL
  0
POLYLINE
  5
F05
  8
SAPA_PROFIL
 66
     1
 10
0.0
 20
0.0
 30
0.0
 70
     1
  0
VERTEX
  5
14C0
  8
SAPA_PROFIL
 10
92.999999928111436
 20
57.199999999986019
 30
0.0
  0
VERTEX
  5
14C1
  8
SAPA_PROFIL
 10
92.999999928111436
 20
45.600000000005657
 30
0.0
 42
0.4142135623730951
  0
VERTEX
  5
14C2
  8
SAPA_PROFIL
 10
93.299999928114346
 20
45.300000000002747
 30
0.0
  0
VERTEX
  5
14C3
  8
SAPA_PROFIL
 10
136.1999999277447
 20
45.299999999980912
 30
0.0
 42
0.4142135623730935
  0
VERTEX
  5
14C4
  8
SAPA_PROFIL
 10
136.499999927744
 20
45.599999999980177
 30
0.0
  0
VERTEX
  5
14C5
  8
SAPA_PROFIL
 10
136.49999992775491
 20
57.20000000000055
 30
0.0
 42
0.4142135623730935
  0
VERTEX
  5
14C6
  8
SAPA_PROFIL
 10
136.1999999277447
 20
57.499999999999829
 30
0.0
  0
VERTEX
  5
14C7
  8
SAPA_PROFIL
 10
93.299999928114346
 20
57.499999999985292
 30
0.0
 42
0.4142135623730939
  0
SEQEND
  5
14C8
  8
SAPA_PROFIL
  0
POLYLINE
  5
F06
  8
SAPA_PROFIL
 62
     4
 66
     1
 10
0.0
 20
0.0
 30
-0.2
 70
     1
1001
RC_PROFILE
1002
{
1000
Region
1002
}
  0
VERTEX
  5
14C9
  8
SAPA_PROFIL
 62
     4
 10
78.999999996510553
 20
16.652820282319251
 30
-0.2
  0
VERTEX
  5
14CA
  8
SAPA_PROFIL
 62
     4
 10
78.999999996510553
 20
2.4528202823171759
 30
-0.2
 42
-0.4142135623720297
  0
VERTEX
  5
14CB
  8
SAPA_PROFIL
 62
     4
 10
78.499999996512372
 20
1.9528202823171761
 30
-0.2
  0
VERTEX
  5
14CC
  8
SAPA_PROFIL
 62
     4
 10
74.499999995891173
 20
1.952820282314206
 30
-0.2
 42
-0.4142135623730951
  0
VERTEX
  5
14CD
  8
SAPA_PROFIL
 62
     4
 10
73.999999995891187
 20
2.4528202823142058
 30
-0.2
  0
VERTEX
  5
14CE
  8
SAPA_PROFIL
 62
     4
 10
73.999999995883911
 20
16.652820282318121
 30
-0.2
 42
-0.414213562373761
  0
VERTEX
  5
14CF
  8
SAPA_PROFIL
 62
     4
 10
74.499999995883911
 20
17.15282028231924
 30
-0.2
  0
VERTEX
  5
14D0
  8
SAPA_PROFIL
 62
     4
 10
78.499999996510553
 20
17.15282028231924
 30
-0.2
 42
-0.4142135623730951
  0
SEQEND
  5
14D1
  8
SAPA_PROFIL
 62
     4
  0
POLYLINE
  5
F07
  8
SAPA_PROFIL
 62
     4
 66
     1
 10
0.0
 20
0.0
 30
0.0
1001
GENIUS_GENOBJ-N-FIL_13
1002
{
1000
OWNER
1000
GEN
1002
}
1001
GENIUS_GENODEF_13
1002
{
1000
HIER
1070
     0
1002
}
1002
{
1000
MANEDIT
1070
     0
1002
}
1002
{
1000
NOSEL
1070
     0
1002
}
1002
{
1000
BEHIND
1070
     0
1002
}
1002
{
1000
OTHER
1070
     0
1002
}
1002
{
1000
REACTOR
1002
}
  0
VERTEX
  5
14D2
  8
SAPA_PROFIL
 62
     4
 10
65.577259926492104
 20
43.416293838728301
 30
0.0
 42
0.131652497587489
  0
VERTEX
  5
14D3
  8
SAPA_PROFIL
 62
     4
 10
64.977259926491683
 20
43.255524323269569
 30
0.0
  0
VERTEX
  5
14D4
  8
SAPA_PROFIL
 62
     4
 10
63.236601985848147
 20
42.250554992671702
 30
0.0
  0
VERTEX
  5
14D5
  8
SAPA_PROFIL
 62
     4
 10
62.800000064269682
 20
42.250543349936329
 30
0.0
 42
-0.4142135623731046
  0
VERTEX
  5
14D6
  8
SAPA_PROFIL
 62
     4
 10
62.550000064269682
 20
42.500543349936343
 30
0.0
  0
VERTEX
  5
14D7
  8
SAPA_PROFIL
 62
     4
 10
62.550000064269739
 20
46.1005553499364
 30
0.0
 42
-0.4142135623730957
  0
VERTEX
  5
14D8
  8
SAPA_PROFIL
 62
     4
 10
62.80000006426971
 20
46.350555349936393
 30
0.0
  0
VERTEX
  5
14D9
  8
SAPA_PROFIL
 62
     4
 10
63.236602604648169
 20
46.3505553499363
 30
0.0
  0
VERTEX
  5
14DA
  8
SAPA_PROFIL
 62
     4
 10
64.922740202049056
 20
45.377063354186227
 30
0.0
 42
0.1316524975873848
  0
VERTEX
  5
14DB
  8
SAPA_PROFIL
 62
     4
 10
65.522740202048993
 20
45.21629383872758
 30
0.0
  0
VERTEX
  5
14DC
  8
SAPA_PROFIL
 62
     4
 10
87.477259790340014
 20
45.21629383872758
 30
0.0
 42
0.1316524975873846
  0
VERTEX
  5
14DD
  8
SAPA_PROFIL
 62
     4
 10
88.07725979033998
 20
45.377063354186227
 30
0.0
  0
VERTEX
  5
14DE
  8
SAPA_PROFIL
 62
     4
 10
89.763397387740838
 20
46.3505553499363
 30
0.0
  0
VERTEX
  5
14DF
  8
SAPA_PROFIL
 62
     4
 10
90.199999928119297
 20
46.350555349936393
 30
0.0
 42
-0.4142135623730951
  0
VERTEX
  5
14E0
  8
SAPA_PROFIL
 62
     4
 10
90.449999928119297
 20
46.1005553499364
 30
0.0
  0
VERTEX
  5
14E1
  8
SAPA_PROFIL
 62
     4
 10
90.449999928119325
 20
42.500543349936343
 30
0.0
 42
-0.4142135623731046
  0
VERTEX
  5
14E2
  8
SAPA_PROFIL
 62
     4
 10
90.199999928119325
 20
42.250543349936329
 30
0.0
  0
VERTEX
  5
14E3
  8
SAPA_PROFIL
 62
     4
 10
89.763398006540882
 20
42.250554992671702
 30
0.0
  0
VERTEX
  5
14E4
  8
SAPA_PROFIL
 62
     4
 10
88.022740065897324
 20
43.255524323269569
 30
0.0
 42
0.1316524975874892
  0
VERTEX
  5
14E5
  8
SAPA_PROFIL
 62
     4
 10
87.422740065896903
 20
43.416293838728301
 30
0.0
  0
VERTEX
  5
14E6
  8
SAPA_PROFIL
 62
     4
 10
84.699999928368314
 20
43.416293838727633
 30
0.0
 42
0.414213562374094
  0
VERTEX
  5
14E7
  8
SAPA_PROFIL
 62
     4
 10
83.499999928369405
 20
42.216293838723487
 30
0.0
  0
VERTEX
  5
14E8
  8
SAPA_PROFIL
 62
     4
 10
83.499999928458521
 20
16.41855881180166
 30
0.0
 42
-0.4142135623730951
  0
VERTEX
  5
14E9
  8
SAPA_PROFIL
 62
     4
 10
82.999999928458536
 20
15.91855881180166
 30
0.0
  0
VERTEX
  5
14EA
  8
SAPA_PROFIL
 62
     4
 10
82.799999928458703
 20
15.918558811801431
 30
0.0
 42
-0.4142135623730951
  0
VERTEX
  5
14EB
  8
SAPA_PROFIL
 62
     4
 10
82.499999928458521
 20
16.2185588118016
 30
0.0
  0
VERTEX
  5
14EC
  8
SAPA_PROFIL
 62
     4
 10
82.499999928458521
 20
16.86855881180351
 30
0.0
 42
0.4142135623730951
  0
VERTEX
  5
14ED
  8
SAPA_PROFIL
 62
     4
 10
82.19999992845743
 20
17.168558811803479
 30
0.0
  0
VERTEX
  5
14EE
  8
SAPA_PROFIL
 62
     4
 10
81.299999928461418
 20
17.168558811802569
 30
0.0
 42
0.4142135623730951
  0
VERTEX
  5
14EF
  8
SAPA_PROFIL
 62
     4
 10
80.799999928461432
 20
16.668558811803479
 30
0.0
  0
VERTEX
  5
14F0
  8
SAPA_PROFIL
 62
     4
 10
80.799999928461432
 20
10.66855881180164
 30
0.0
 42
0.4142135623730951
  0
VERTEX
  5
14F1
  8
SAPA_PROFIL
 62
     4
 10
81.299999928461418
 20
10.16855881180164
 30
0.0
  0
VERTEX
  5
14F2
  8
SAPA_PROFIL
 62
     4
 10
82.199999928460159
 20
10.16855881180164
 30
0.0
 42
0.4142135623710974
  0
VERTEX
  5
14F3
  8
SAPA_PROFIL
 62
     4
 10
82.499999928459431
 20
10.46855881179957
 30
0.0
  0
VERTEX
  5
14F4
  8
SAPA_PROFIL
 62
     4
 10
82.499999928463964
 20
11.11855881180146
 30
0.0
 42
-0.4142135623730951
  0
VERTEX
  5
14F5
  8
SAPA_PROFIL
 62
     4
 10
82.799999928465965
 20
11.418558811799629
 30
0.0
  0
VERTEX
  5
14F6
  8
SAPA_PROFIL
 62
     4
 10
82.999999928458536
 20
11.418558811798469
 30
0.0
 42
-0.4142135623730951
  0
VERTEX
  5
14F7
  8
SAPA_PROFIL
 62
     4
 10
83.499999928458521
 20
10.918558811798469
 30
0.0
  0
VERTEX
  5
14F8
  8
SAPA_PROFIL
 62
     4
 10
83.499999928458521
 20
7.9185588117984764
 30
0.0
 42
-0.4142135623730951
  0
VERTEX
  5
14F9
  8
SAPA_PROFIL
 62
     4
 10
82.999999928458536
 20
7.4185588117984764
 30
0.0
  0
VERTEX
  5
14FA
  8
SAPA_PROFIL
 62
     4
 10
82.799999928458703
 20
7.4185588117984764
 30
0.0
 42
-0.4142135623730951
  0
VERTEX
  5
14FB
  8
SAPA_PROFIL
 62
     4
 10
82.499999928458521
 20
7.7185588117986583
 30
0.0
  0
VERTEX
  5
14FC
  8
SAPA_PROFIL
 62
     4
 10
82.499999928458521
 20
8.3685588117985077
 30
0.0
 42
0.4142135623730951
  0
VERTEX
  5
14FD
  8
SAPA_PROFIL
 62
     4
 10
82.19999992845743
 20
8.6685588117984764
 30
0.0
  0
VERTEX
  5
14FE
  8
SAPA_PROFIL
 62
     4
 10
81.299999928461418
 20
8.6685588117984764
 30
0.0
 42
0.4142135623730951
  0
VERTEX
  5
14FF
  8
SAPA_PROFIL
 62
     4
 10
80.799999928461432
 20
8.1685588117984764
 30
0.0
  0
VERTEX
  5
1500
  8
SAPA_PROFIL
 62
     4
 10
80.799999928461432
 20
2.1685588117984902
 30
0.0
 42
0.4142135623730951
  0
VERTEX
  5
1501
  8
SAPA_PROFIL
 62
     4
 10
81.299999928461418
 20
1.668558811798476
 30
0.0
  0
VERTEX
  5
1502
  8
SAPA_PROFIL
 62
     4
 10
82.19999992845743
 20
1.668558811798476
 30
0.0
 42
0.4142135623730951
  0
VERTEX
  5
1503
  8
SAPA_PROFIL
 62
     4
 10
82.499999928458521
 20
1.9685588117986721
 30
0.0
  0
VERTEX
  5
1504
  8
SAPA_PROFIL
 62
     4
 10
82.499999928458521
 20
2.6185588117985361
 30
0.0
 42
-0.4142135623730949
  0
VERTEX
  5
1505
  8
SAPA_PROFIL
 62
     4
 10
82.799999928458703
 20
2.918558811798476
 30
0.0
  0
VERTEX
  5
1506
  8
SAPA_PROFIL
 62
     4
 10
82.999999928458536
 20
2.918558811798476
 30
0.0
 42
-0.4142135623730951
  0
VERTEX
  5
1507
  8
SAPA_PROFIL
 62
     4
 10
83.499999928458521
 20
2.418558811798476
 30
0.0
  0
VERTEX
  5
1508
  8
SAPA_PROFIL
 62
     4
 10
83.499999928457612
 20
0.6685588117984765
 30
0.0
 42
-0.4142135623726955
  0
VERTEX
  5
1509
  8
SAPA_PROFIL
 62
     4
 10
82.999999928123827
 20
0.1685588117984764
 30
0.0
  0
VERTEX
  5
150A
  8
SAPA_PROFIL
 62
     4
 10
69.999999928116537
 20
0.168558811798249
 30
0.0
 42
-0.4142135623732284
  0
VERTEX
  5
150B
  8
SAPA_PROFIL
 62
     4
 10
69.499999927840051
 20
0.6685588117966576
 30
0.0
  0
VERTEX
  5
150C
  8
SAPA_PROFIL
 62
     4
 10
69.499999927840065
 20
2.418558811796657
 30
0.0
 42
-0.4142135623730951
  0
VERTEX
  5
150D
  8
SAPA_PROFIL
 62
     4
 10
69.999999927840065
 20
2.9185588117966712
 30
0.0
  0
VERTEX
  5
150E
  8
SAPA_PROFIL
 62
     4
 10
70.199999927839883
 20
2.9185588117966712
 30
0.0
 42
-0.4142135623730951
  0
VERTEX
  5
150F
  8
SAPA_PROFIL
 62
     4
 10
70.499999927840065
 20
2.6185588117964751
 30
0.0
  0
VERTEX
  5
1510
  8
SAPA_PROFIL
 62
     4
 10
70.499999927840051
 20
1.968558811796626
 30
0.0
 42
0.4142135623730951
  0
VERTEX
  5
1511
  8
SAPA_PROFIL
 62
     4
 10
70.799999927839323
 20
1.668558811796671
 30
0.0
  0
VERTEX
  5
1512
  8
SAPA_PROFIL
 62
     4
 10
71.69999992783714
 20
1.668558811796671
 30
0.0
 42
0.4142135623730951
  0
VERTEX
  5
1513
  8
SAPA_PROFIL
 62
     4
 10
72.199999927837155
 20
2.168558811796657
 30
0.0
  0
VERTEX
  5
1514
  8
SAPA_PROFIL
 62
     4
 10
72.199999927837155
 20
8.1685588117966574
 30
0.0
 42
0.4142135623730951
  0
VERTEX
  5
1515
  8
SAPA_PROFIL
 62
     4
 10
71.699999927837155
 20
8.6685588117966574
 30
0.0
  0
VERTEX
  5
1516
  8
SAPA_PROFIL
 62
     4
 10
70.799999927839337
 20
8.6685588117966574
 30
0.0
 42
0.4142135623730953
  0
VERTEX
  5
1517
  8
SAPA_PROFIL
 62
     4
 10
70.499999927840065
 20
8.3685588117964755
 30
0.0
  0
VERTEX
  5
1518
  8
SAPA_PROFIL
 62
     4
 10
70.499999927840065
 20
7.7185588117966111
 30
0.0
 42
-0.4142135623730951
  0
VERTEX
  5
1519
  8
SAPA_PROFIL
 62
     4
 10
70.199999927839883
 20
7.4185588117966574
 30
0.0
  0
VERTEX
  5
151A
  8
SAPA_PROFIL
 62
     4
 10
69.999999927840065
 20
7.4185588117966574
 30
0.0
 42
-0.4142135623730951
  0
VERTEX
  5
151B
  8
SAPA_PROFIL
 62
     4
 10
69.499999927840065
 20
7.9185588117966574
 30
0.0
  0
VERTEX
  5
151C
  8
SAPA_PROFIL
 62
     4
 10
69.499999927840065
 20
10.91855881179665
 30
0.0
 42
-0.4142135623730951
  0
VERTEX
  5
151D
  8
SAPA_PROFIL
 62
     4
 10
69.999999927840065
 20
11.41855881179665
 30
0.0
  0
VERTEX
  5
151E
  8
SAPA_PROFIL
 62
     4
 10
70.199999927832607
 20
11.418558811797791
 30
0.0
 42
-0.414213562372873
  0
VERTEX
  5
151F
  8
SAPA_PROFIL
 62
     4
 10
70.499999927834608
 20
11.118558811799661
 30
0.0
  0
VERTEX
  5
1520
  8
SAPA_PROFIL
 62
     4
 10
70.499999927837337
 20
10.46855881179866
 30
0.0
 42
0.4142135623722071
  0
VERTEX
  5
1521
  8
SAPA_PROFIL
 62
     4
 10
70.799999927838428
 20
10.168558811799629
 30
0.0
  0
VERTEX
  5
1522
  8
SAPA_PROFIL
 62
     4
 10
71.699999927837155
 20
10.168558811799629
 30
0.0
 42
0.4142135623730951
  0
VERTEX
  5
1523
  8
SAPA_PROFIL
 62
     4
 10
72.199999927837155
 20
10.668558811799601
 30
0.0
  0
VERTEX
  5
1524
  8
SAPA_PROFIL
 62
     4
 10
72.199999927829865
 20
16.66855881180166
 30
0.0
 42
0.4142135623730951
  0
VERTEX
  5
1525
  8
SAPA_PROFIL
 62
     4
 10
71.699999927829879
 20
17.16855881180166
 30
0.0
  0
VERTEX
  5
1526
  8
SAPA_PROFIL
 62
     4
 10
70.799999927832971
 20
17.16855881180166
 30
0.0
 42
0.4142135623730951
  0
VERTEX
  5
1527
  8
SAPA_PROFIL
 62
     4
 10
70.499999927832789
 20
16.868558811801481
 30
0.0
  0
VERTEX
  5
1528
  8
SAPA_PROFIL
 62
     4
 10
70.499999927832789
 20
16.218558811799571
 30
0.0
 42
-0.4142135623730951
  0
VERTEX
  5
1529
  8
SAPA_PROFIL
 62
     4
 10
70.199999927832607
 20
15.918558811799601
 30
0.0
  0
VERTEX
  5
152A
  8
SAPA_PROFIL
 62
     4
 10
69.999999927832789
 20
15.918558811799601
 30
0.0
 42
-0.4142135623730951
  0
VERTEX
  5
152B
  8
SAPA_PROFIL
 62
     4
 10
69.499999927832789
 20
16.41855881179961
 30
0.0
  0
VERTEX
  5
152C
  8
SAPA_PROFIL
 62
     4
 10
69.499999927914644
 20
42.216293838723487
 30
0.0
 42
0.414213562374094
  0
VERTEX
  5
152D
  8
SAPA_PROFIL
 62
     4
 10
68.299999927914826
 20
43.416293838727398
 30
0.0
  0
VERTEX
  5
152E
  8
SAPA_PROFIL
 62
     4
 10
65.571518577834752
 20
43.416293838727633
 30
0.0
  0
SEQEND
  5
152F
  8
SAPA_PROFIL
 62
     4
  0
POLYLINE
  5
F08
  8
SAPA_PROFIL
 62
     4
 66
     1
 10
0.0
 20
0.0
 30
0.0
 70
     1
  0
VERTEX
  5
1530
  8
SAPA_PROFIL
 62
     4
 10
73.199999995880091
 20
18.452820282317148
 30
0.0
  0
VERTEX
  5
1531
  8
SAPA_PROFIL
 62
     4
 10
80.699999996438535
 20
18.452820282321252
 30
0.0
 42
0.4142135623730951
  0
VERTEX
  5
1532
  8
SAPA_PROFIL
 62
     4
 10
81.699999996438521
 20
19.452820282321252
 30
0.0
  0
VERTEX
  5
1533
  8
SAPA_PROFIL
 62
     4
 10
81.699999996453982
 20
42.600555309245031
 30
0.0
 42
0.4142135623730949
  0
VERTEX
  5
1534
  8
SAPA_PROFIL
 62
     4
 10
80.899999996453801
 20
43.40055530924522
 30
0.0
  0
VERTEX
  5
1535
  8
SAPA_PROFIL
 62
     4
 10
72.099999995935207
 20
43.40055530924522
 30
0.0
 42
0.414213562373428
  0
VERTEX
  5
1536
  8
SAPA_PROFIL
 62
     4
 10
71.299999995935025
 20
42.600555309244129
 30
0.0
  0
VERTEX
  5
1537
  8
SAPA_PROFIL
 62
     4
 10
71.299999995958672
 20
19.452820282317148
 30
0.0
 42
0.4142135623724957
  0
VERTEX
  5
1538
  8
SAPA_PROFIL
 62
     4
 10
72.299999995957762
 20
18.452820282319191
 30
0.0
  0
SEQEND
  5
1539
  8
SAPA_PROFIL
 62
     4
  0
LINE
  5
F3C
  8
SAPA_GLAS
 10
22.249999999818101
 20
-4.799999999999609
 30
0.0
 11
22.999999999831239
 21
-4.799999999999609
 31
0.0
  0
LINE
  5
F3D
  8
SAPA_GLAS
 10
22.999999999831221
 20
8.0000000000113154
 30
0.0
 11
22.24999999983212
 21
8.0000000000121254
 31
0.0
  0
LINE
  5
F3E
  8
SAPA_GLAS
 10
65.74999999984469
 20
-4.7999999999996241
 30
0.0
 11
64.999999999831545
 21
-4.7999999999996241
 31
0.0
  0
LINE
  5
F3F
  8
SAPA_GLAS
 10
64.999999999831559
 20
8.0000000000113012
 30
0.0
 11
65.749999999830663
 21
8.0000000000121112
 31
0.0
  0
INSERT
  5
F40
  8
SAPA_GLAS
  6
CONTINUOUS
  2
*X35
 10
0.0
 20
0.0
 30
0.0
1001
ACAD
1000
HATCH
1002
{
1070
    19
1000
ANSI37
1040
0.25
1040
-1.5707963267948959
1000
R14_HATCH_DATA
1000
F40
1011
1.0
1021
0.0
1031
0.0
1021
0.0
1031
0.0
1011
0.0
1021
0.0
1031
0.0
1021
1.0
1031
0.0
1011
0.0
1021
0.0
1031
0.0
1021
0.0
1031
1.0
1040
0.0
1010
0.0
1020
0.0
1030
1.0
1000
ANSI37
1070
     0
1070
     0
1071
        1
1071
        7
1070
     0
1070
     1
1071
        4
1040
22.249999999478518
1040
-4.7999999999993568
1040
22.999999999831111
1040
-4.7999999999993568
1040
22.999999999831111
1040
8.0000000000115818
1040
22.249999999492552
1040
8.0000000000124061
1071
        0
1070
     0
1070
     1
1040
-1.5707963267948959
1040
0.25
1070
     0
1070
     2
1040
5.4977871437821371
1040
20.4999999998562
1040
18.075855852310848
1040
0.5612660075668222
1040
0.5612660075668219
1070
     0
1040
0.7853981633974481
1040
20.4999999998562
1040
18.075855852310848
1040
-0.5612660075668219
1040
0.5612660075668222
1070
     0
1040
0.0325758689756538
1071
        1
1040
22.591681415073431
1040
2.7600895002106678
1040
0.0
1002
}
  0
INSERT
  5
F41
  8
SAPA_GLAS
  6
CONTINUOUS
  2
*X36
 10
0.0
 20
0.0
 30
0.0
1001
ACAD
1000
HATCH
1002
{
1070
    19
1000
ANSI37
1040
0.25
1040
-1.5707963267948959
1000
R14_HATCH_DATA
1000
F41
1011
1.0
1021
0.0
1031
0.0
1021
0.0
1031
0.0
1011
0.0
1021
0.0
1031
0.0
1021
1.0
1031
0.0
1011
0.0
1021
0.0
1031
0.0
1021
0.0
1031
1.0
1040
0.0
1010
0.0
1020
0.0
1030
1.0
1000
ANSI37
1070
     0
1070
     0
1071
        1
1071
        7
1070
     0
1070
     1
1071
        4
1040
64.999999999831431
1040
-4.7999999999993568
1040
65.749999999844576
1040
-4.7999999999993568
1040
65.749999999830564
1040
8.0000000000123777
1040
64.999999999831445
1040
8.0000000000115676
1071
        0
1070
     0
1070
     1
1040
-1.5707963267948959
1040
0.25
1070
     0
1070
     2
1040
5.4977871437821371
1040
20.4999999998562
1040
18.075855852310848
1040
0.5612660075668222
1040
0.5612660075668219
1070
     0
1040
0.7853981633974481
1040
20.4999999998562
1040
18.075855852310848
1040
-0.5612660075668219
1040
0.5612660075668222
1070
     0
1040
0.0230646099693014
1071
        1
1040
65.347685642524084
1040
4.131577195297381
1040
0.0
1002
}
  0
POLYLINE
  5
F42
  8
SAPA_GLAS
 66
     1
 10
0.0
 20
0.0
 30
0.0
  0
VERTEX
  5
15C1
  8
SAPA_GLAS
 10
22.999999999831211
 20
-23.999999999988681
 30
0.0
  0
VERTEX
  5
15C2
  8
SAPA_GLAS
 10
22.999999999831221
 20
8.0000000000113136
 30
0.0
  0
VERTEX
  5
15C3
  8
SAPA_GLAS
 10
28.999999999831221
 20
8.0000000000113136
 30
0.0
  0
VERTEX
  5
15C4
  8
SAPA_GLAS
 10
28.999999999831211
 20
-23.999999999988681
 30
0.0
  0
SEQEND
  5
15C5
  8
SAPA_GLAS
  0
POLYLINE
  5
F43
  8
SAPA_GLAS
 66
     1
 10
0.0
 20
0.0
 30
0.0
  0
VERTEX
  5
15C6
  8
SAPA_GLAS
 10
40.999999999831367
 20
-1.9999999999887139
 30
0.0
  0
VERTEX
  5
15C7
  8
SAPA_GLAS
 10
28.999999999831392
 20
-1.9999999999886999
 30
0.0
  0
VERTEX
  5
15C8
  8
SAPA_GLAS
 10
28.999999999831392
 20
8.0000000000113136
 30
0.0
  0
VERTEX
  5
15C9
  8
SAPA_GLAS
 10
40.999999999831388
 20
8.0000000000112781
 30
0.0
  0
VERTEX
  5
15CA
  8
SAPA_GLAS
 10
40.999999999831367
 20
-1.9999999999887139
 30
0.0
  0
SEQEND
  5
15CB
  8
SAPA_GLAS
  0
POLYLINE
  5
F44
  8
SAPA_GLAS
 66
     1
 10
0.0
 20
0.0
 30
0.0
  0
VERTEX
  5
15CC
  8
SAPA_GLAS
 10
40.999999999831367
 20
-23.999999999988709
 30
0.0
  0
VERTEX
  5
15CD
  8
SAPA_GLAS
 10
40.999999999831381
 20
8.0000000000112923
 30
0.0
  0
VERTEX
  5
15CE
  8
SAPA_GLAS
 10
46.999999999831381
 20
8.0000000000112923
 30
0.0
  0
VERTEX
  5
15CF
  8
SAPA_GLAS
 10
46.999999999831367
 20
-23.999999999988709
 30
0.0
  0
SEQEND
  5
15D0
  8
SAPA_GLAS
  0
POLYLINE
  5
F45
  8
SAPA_GLAS
 66
     1
 10
0.0
 20
0.0
 30
0.0
  0
VERTEX
  5
15D1
  8
SAPA_GLAS
 10
58.99999999983153
 20
-1.9999999999887319
 30
0.0
  0
VERTEX
  5
15D2
  8
SAPA_GLAS
 10
46.999999999831537
 20
-1.9999999999887139
 30
0.0
  0
VERTEX
  5
15D3
  8
SAPA_GLAS
 10
46.999999999831537
 20
8.0000000000112923
 30
0.0
  0
VERTEX
  5
15D4
  8
SAPA_GLAS
 10
58.999999999831559
 20
8.0000000000112639
 30
0.0
  0
VERTEX
  5
15D5
  8
SAPA_GLAS
 10
58.99999999983153
 20
-1.9999999999887319
 30
0.0
  0
SEQEND
  5
15D6
  8
SAPA_GLAS
  0
POLYLINE
  5
F46
  8
SAPA_GLAS
 66
     1
 10
0.0
 20
0.0
 30
0.0
  0
VERTEX
  5
15D7
  8
SAPA_GLAS
 10
64.99999999983153
 20
-23.99999999998872
 30
0.0
  0
VERTEX
  5
15D8
  8
SAPA_GLAS
 10
64.999999999831559
 20
8.0000000000112639
 30
0.0
  0
VERTEX
  5
15D9
  8
SAPA_GLAS
 10
58.999999999831559
 20
8.0000000000112639
 30
0.0
  0
VERTEX
  5
15DA
  8
SAPA_GLAS
 10
58.99999999983153
 20
-23.99999999998872
 30
0.0
  0
SEQEND
  5
15DB
  8
SAPA_GLAS
  0
POLYLINE
  5
F6B
  8
SAPA_FOGBAND
 66
     1
 10
0.0
 20
0.0
 30
0.0
 70
     1
  0
VERTEX
  5
167C
  8
SAPA_FOGBAND
 10
16.25000000001042
 20
10.350000000017459
 30
0.0
  0
VERTEX
  5
167D
  8
SAPA_FOGBAND
 10
17.050000000010598
 20
10.350000000017459
 30
0.0
  0
VERTEX
  5
167E
  8
SAPA_FOGBAND
 10
17.050000000010598
 20
16.65000000001454
 30
0.0
  0
VERTEX
  5
167F
  8
SAPA_FOGBAND
 10
16.25000000001042
 20
16.65000000001454
 30
0.0
  0
SEQEND
  5
1680
  8
SAPA_FOGBAND
  0
POLYLINE
  5
F6C
  8
SAPA_FOGBAND
 66
     1
 10
0.0
 20
0.0
 30
0.0
  0
VERTEX
  5
1681
  8
SAPA_FOGBAND
 10
17.050000000010598
 20
15.072689603157039
 30
0.0
  0
VERTEX
  5
1682
  8
SAPA_FOGBAND
 10
20.50000000001042
 20
16.198136200472959
 30
0.0
  0
VERTEX
  5
1683
  8
SAPA_FOGBAND
 10
20.50000000001042
 20
13.75999815392443
 30
0.0
  0
VERTEX
  5
1684
  8
SAPA_FOGBAND
 10
17.050000000010598
 20
13.65000000001745
 30
0.0
  0
SEQEND
  5
1685
  8
SAPA_FOGBAND
  0
POLYLINE
  5
F6D
  8
SAPA_FOGBAND
 66
     1
 10
0.0
 20
0.0
 30
0.0
  0
VERTEX
  5
1686
  8
SAPA_FOGBAND
 10
17.050000000010598
 20
13.575000000016731
 30
0.0
  0
VERTEX
  5
1687
  8
SAPA_FOGBAND
 10
20.50000000001042
 20
13.57500000001345
 30
0.0
  0
VERTEX
  5
1688
  8
SAPA_FOGBAND
 10
20.50000000001042
 20
13.42500000001527
 30
0.0
  0
VERTEX
  5
1689
  8
SAPA_FOGBAND
 10
17.050000000010598
 20
13.42500000001527
 30
0.0
  0
SEQEND
  5
168A
  8
SAPA_FOGBAND
  0
POLYLINE
  5
F6E
  8
SAPA_FOGBAND
 66
     1
 10
0.0
 20
0.0
 30
0.0
  0
VERTEX
  5
168B
  8
SAPA_FOGBAND
 10
17.050000000010598
 20
13.35000000001455
 30
0.0
  0
VERTEX
  5
168C
  8
SAPA_FOGBAND
 10
20.50000000001042
 20
13.240002614832299
 30
0.0
  0
VERTEX
  5
168D
  8
SAPA_FOGBAND
 10
20.50000000001042
 20
10.80190927441013
 30
0.0
  0
VERTEX
  5
168E
  8
SAPA_FOGBAND
 10
17.050000000010598
 20
11.92731039687496
 30
0.0
  0
SEQEND
  5
168F
  8
SAPA_FOGBAND
  0
POLYLINE
  5
F6F
  8
SAPA_FOGBAND
 66
     1
 10
0.0
 20
0.0
 30
0.0
 70
     1
  0
VERTEX
  5
1690
  8
SAPA_FOGBAND
 10
16.25000000001042
 20
1.8500000000029071
 30
0.0
  0
VERTEX
  5
1691
  8
SAPA_FOGBAND
 10
17.050000000010598
 20
1.8500000000029071
 30
0.0
  0
VERTEX
  5
1692
  8
SAPA_FOGBAND
 10
17.050000000010598
 20
8.1499999999999915
 30
0.0
  0
VERTEX
  5
1693
  8
SAPA_FOGBAND
 10
16.25000000001042
 20
8.1499999999999915
 30
0.0
  0
SEQEND
  5
1694
  8
SAPA_FOGBAND
  0
POLYLINE
  5
F70
  8
SAPA_FOGBAND
 66
     1
 10
0.0
 20
0.0
 30
0.0
  0
VERTEX
  5
1695
  8
SAPA_FOGBAND
 10
17.050000000010598
 20
6.5726896031424911
 30
0.0
  0
VERTEX
  5
1696
  8
SAPA_FOGBAND
 10
20.50000000001042
 20
7.6981362004584142
 30
0.0
  0
VERTEX
  5
1697
  8
SAPA_FOGBAND
 10
20.50000000001042
 20
5.2599981539098764
 30
0.0
  0
VERTEX
  5
1698
  8
SAPA_FOGBAND
 10
17.050000000010598
 20
5.1500000000029038
 30
0.0
  0
SEQEND
  5
1699
  8
SAPA_FOGBAND
  0
POLYLINE
  5
F71
  8
SAPA_FOGBAND
 66
     1
 10
0.0
 20
0.0
 30
0.0
  0
VERTEX
  5
169A
  8
SAPA_FOGBAND
 10
17.050000000010598
 20
5.0750000000021771
 30
0.0
  0
VERTEX
  5
169B
  8
SAPA_FOGBAND
 10
20.50000000001042
 20
5.0749999999989024
 30
0.0
  0
VERTEX
  5
169C
  8
SAPA_FOGBAND
 10
20.50000000001042
 20
4.9250000000007148
 30
0.0
  0
VERTEX
  5
169D
  8
SAPA_FOGBAND
 10
17.050000000010598
 20
4.925000000000721
 30
0.0
  0
SEQEND
  5
169E
  8
SAPA_FOGBAND
  0
POLYLINE
  5
F72
  8
SAPA_FOGBAND
 66
     1
 10
0.0
 20
0.0
 30
0.0
  0
VERTEX
  5
169F
  8
SAPA_FOGBAND
 10
17.050000000010598
 20
4.8499999999999943
 30
0.0
  0
VERTEX
  5
16A0
  8
SAPA_FOGBAND
 10
20.50000000001042
 20
4.7400026148177474
 30
0.0
  0
VERTEX
  5
16A1
  8
SAPA_FOGBAND
 10
20.50000000001042
 20
2.3019092743955838
 30
0.0
  0
VERTEX
  5
16A2
  8
SAPA_FOGBAND
 10
17.050000000010598
 20
3.4273103968604062
 30
0.0
  0
SEQEND
  5
16A3
  8
SAPA_FOGBAND
  0
POLYLINE
  5
F73
  8
SAPA_FOGBAND
 66
     1
 10
0.0
 20
0.0
 30
0.0
 70
     1
  0
VERTEX
  5
16A4
  8
SAPA_FOGBAND
 10
71.749999999672752
 20
10.56855881185319
 30
0.0
  0
VERTEX
  5
16A5
  8
SAPA_FOGBAND
 10
70.949999999672571
 20
10.56855881185319
 30
0.0
  0
VERTEX
  5
16A6
  8
SAPA_FOGBAND
 10
70.949999999672571
 20
16.868558811850281
 30
0.0
  0
VERTEX
  5
16A7
  8
SAPA_FOGBAND
 10
71.749999999672752
 20
16.868558811850281
 30
0.0
  0
SEQEND
  5
16A8
  8
SAPA_FOGBAND
  0
POLYLINE
  5
F74
  8
SAPA_FOGBAND
 66
     1
 10
0.0
 20
0.0
 30
0.0
  0
VERTEX
  5
16A9
  8
SAPA_FOGBAND
 10
70.949999999672571
 20
15.291248414992779
 30
0.0
  0
VERTEX
  5
16AA
  8
SAPA_FOGBAND
 10
67.499999999672752
 20
16.416695012308701
 30
0.0
  0
VERTEX
  5
16AB
  8
SAPA_FOGBAND
 10
67.499999999672752
 20
13.978556965760159
 30
0.0
  0
VERTEX
  5
16AC
  8
SAPA_FOGBAND
 10
70.949999999672571
 20
13.868558811853189
 30
0.0
  0
SEQEND
  5
16AD
  8
SAPA_FOGBAND
  0
POLYLINE
  5
F75
  8
SAPA_FOGBAND
 66
     1
 10
0.0
 20
0.0
 30
0.0
  0
VERTEX
  5
16AE
  8
SAPA_FOGBAND
 10
70.949999999672571
 20
13.79355881185246
 30
0.0
  0
VERTEX
  5
16AF
  8
SAPA_FOGBAND
 10
67.499999999672752
 20
13.79355881184919
 30
0.0
  0
VERTEX
  5
16B0
  8
SAPA_FOGBAND
 10
67.499999999672752
 20
13.643558811850999
 30
0.0
  0
VERTEX
  5
16B1
  8
SAPA_FOGBAND
 10
70.949999999672571
 20
13.64355881185101
 30
0.0
  0
SEQEND
  5
16B2
  8
SAPA_FOGBAND
  0
POLYLINE
  5
F76
  8
SAPA_FOGBAND
 66
     1
 10
0.0
 20
0.0
 30
0.0
  0
VERTEX
  5
16B3
  8
SAPA_FOGBAND
 10
70.949999999672571
 20
13.568558811850281
 30
0.0
  0
VERTEX
  5
16B4
  8
SAPA_FOGBAND
 10
67.499999999672752
 20
13.45856142666803
 30
0.0
  0
VERTEX
  5
16B5
  8
SAPA_FOGBAND
 10
67.499999999672752
 20
11.02046808624587
 30
0.0
  0
VERTEX
  5
16B6
  8
SAPA_FOGBAND
 10
70.949999999672571
 20
12.145869208710691
 30
0.0
  0
SEQEND
  5
16B7
  8
SAPA_FOGBAND
  0
POLYLINE
  5
F77
  8
SAPA_FOGBAND
 66
     1
 10
0.0
 20
0.0
 30
0.0
 70
     1
  0
VERTEX
  5
16B8
  8
SAPA_FOGBAND
 10
71.749999999672752
 20
2.0685588118386411
 30
0.0
  0
VERTEX
  5
16B9
  8
SAPA_FOGBAND
 10
70.949999999672571
 20
2.0685588118386411
 30
0.0
  0
VERTEX
  5
16BA
  8
SAPA_FOGBAND
 10
70.949999999672571
 20
8.3685588118357241
 30
0.0
  0
VERTEX
  5
16BB
  8
SAPA_FOGBAND
 10
71.749999999672752
 20
8.3685588118357241
 30
0.0
  0
SEQEND
  5
16BC
  8
SAPA_FOGBAND
  0
POLYLINE
  5
F78
  8
SAPA_FOGBAND
 66
     1
 10
0.0
 20
0.0
 30
0.0
  0
VERTEX
  5
16BD
  8
SAPA_FOGBAND
 10
70.949999999672571
 20
6.7912484149782264
 30
0.0
  0
VERTEX
  5
16BE
  8
SAPA_FOGBAND
 10
67.499999999672752
 20
7.9166950122941486
 30
0.0
  0
VERTEX
  5
16BF
  8
SAPA_FOGBAND
 10
67.499999999672752
 20
5.4785569657456117
 30
0.0
  0
VERTEX
  5
16C0
  8
SAPA_FOGBAND
 10
70.949999999672571
 20
5.3685588118386391
 30
0.0
  0
SEQEND
  5
16C1
  8
SAPA_FOGBAND
  0
POLYLINE
  5
F79
  8
SAPA_FOGBAND
 66
     1
 10
0.0
 20
0.0
 30
0.0
  0
VERTEX
  5
16C2
  8
SAPA_FOGBAND
 10
70.949999999672571
 20
5.2935588118379107
 30
0.0
  0
VERTEX
  5
16C3
  8
SAPA_FOGBAND
 10
67.499999999672752
 20
5.2935588118346368
 30
0.0
  0
VERTEX
  5
16C4
  8
SAPA_FOGBAND
 10
67.499999999672752
 20
5.143558811836451
 30
0.0
  0
VERTEX
  5
16C5
  8
SAPA_FOGBAND
 10
70.949999999672571
 20
5.1435588118364564
 30
0.0
  0
SEQEND
  5
16C6
  8
SAPA_FOGBAND
  0
POLYLINE
  5
F7A
  8
SAPA_FOGBAND
 66
     1
 10
0.0
 20
0.0
 30
0.0
  0
VERTEX
  5
16C7
  8
SAPA_FOGBAND
 10
70.949999999672571
 20
5.0685588118357279
 30
0.0
  0
VERTEX
  5
16C8
  8
SAPA_FOGBAND
 10
67.499999999672752
 20
4.9585614266534828
 30
0.0
  0
VERTEX
  5
16C9
  8
SAPA_FOGBAND
 10
67.499999999672752
 20
2.52046808623132
 30
0.0
  0
VERTEX
  5
16CA
  8
SAPA_FOGBAND
 10
70.949999999672571
 20
3.6458692086961402
 30
0.0
  0
SEQEND
  5
16CB
  8
SAPA_FOGBAND
  0
POLYLINE
  5
F7B
  8
SAPA_FOGBAND
 66
     1
 10
0.0
 20
0.0
 30
0.0
 70
     1
  0
VERTEX
  5
16CC
  8
SAPA_FOGBAND
 10
136.7499999277313
 20
1.8500000000029071
 30
0.0
  0
VERTEX
  5
16CD
  8
SAPA_FOGBAND
 10
135.94999992773111
 20
1.8500000000029071
 30
0.0
  0
VERTEX
  5
16CE
  8
SAPA_FOGBAND
 10
135.94999992773111
 20
8.1499999999999915
 30
0.0
  0
VERTEX
  5
16CF
  8
SAPA_FOGBAND
 10
136.7499999277313
 20
8.1499999999999915
 30
0.0
  0
SEQEND
  5
16D0
  8
SAPA_FOGBAND
  0
POLYLINE
  5
F7C
  8
SAPA_FOGBAND
 66
     1
 10
0.0
 20
0.0
 30
0.0
  0
VERTEX
  5
16D1
  8
SAPA_FOGBAND
 10
135.94999992773111
 20
6.5726896031424911
 30
0.0
  0
VERTEX
  5
16D2
  8
SAPA_FOGBAND
 10
132.4999999277313
 20
7.6981362004584151
 30
0.0
  0
VERTEX
  5
16D3
  8
SAPA_FOGBAND
 10
132.4999999277313
 20
5.2599981539098781
 30
0.0
  0
VERTEX
  5
16D4
  8
SAPA_FOGBAND
 10
135.94999992773111
 20
5.1500000000029038
 30
0.0
  0
SEQEND
  5
16D5
  8
SAPA_FOGBAND
  0
POLYLINE
  5
F7D
  8
SAPA_FOGBAND
 66
     1
 10
0.0
 20
0.0
 30
0.0
  0
VERTEX
  5
16D6
  8
SAPA_FOGBAND
 10
135.94999992773111
 20
5.0750000000021771
 30
0.0
  0
VERTEX
  5
16D7
  8
SAPA_FOGBAND
 10
132.4999999277313
 20
5.0749999999989033
 30
0.0
  0
VERTEX
  5
16D8
  8
SAPA_FOGBAND
 10
132.4999999277313
 20
4.9250000000007157
 30
0.0
  0
VERTEX
  5
16D9
  8
SAPA_FOGBAND
 10
135.94999992773111
 20
4.925000000000721
 30
0.0
  0
SEQEND
  5
16DA
  8
SAPA_FOGBAND
  0
POLYLINE
  5
F7E
  8
SAPA_FOGBAND
 66
     1
 10
0.0
 20
0.0
 30
0.0
  0
VERTEX
  5
16DB
  8
SAPA_FOGBAND
 10
135.94999992773111
 20
4.8499999999999943
 30
0.0
  0
VERTEX
  5
16DC
  8
SAPA_FOGBAND
 10
132.4999999277313
 20
4.7400026148177492
 30
0.0
  0
VERTEX
  5
16DD
  8
SAPA_FOGBAND
 10
132.4999999277313
 20
2.301909274395586
 30
0.0
  0
VERTEX
  5
16DE
  8
SAPA_FOGBAND
 10
135.94999992773111
 20
3.4273103968604062
 30
0.0
  0
SEQEND
  5
16DF
  8
SAPA_FOGBAND
  0
POLYLINE
  5
F7F
  8
SAPA_FOGBAND
 66
     1
 10
0.0
 20
0.0
 30
0.0
 70
     1
  0
VERTEX
  5
16E0
  8
SAPA_FOGBAND
 10
136.7499999277313
 20
10.350000000017459
 30
0.0
  0
VERTEX
  5
16E1
  8
SAPA_FOGBAND
 10
135.94999992773111
 20
10.350000000017459
 30
0.0
  0
VERTEX
  5
16E2
  8
SAPA_FOGBAND
 10
135.94999992773111
 20
16.65000000001454
 30
0.0
  0
VERTEX
  5
16E3
  8
SAPA_FOGBAND
 10
136.7499999277313
 20
16.65000000001454
 30
0.0
  0
SEQEND
  5
16E4
  8
SAPA_FOGBAND
  0
POLYLINE
  5
F80
  8
SAPA_FOGBAND
 66
     1
 10
0.0
 20
0.0
 30
0.0
  0
VERTEX
  5
16E5
  8
SAPA_FOGBAND
 10
135.94999992773111
 20
15.072689603157039
 30
0.0
  0
VERTEX
  5
16E6
  8
SAPA_FOGBAND
 10
132.4999999277313
 20
16.198136200472959
 30
0.0
  0
VERTEX
  5
16E7
  8
SAPA_FOGBAND
 10
132.4999999277313
 20
13.75999815392443
 30
0.0
  0
VERTEX
  5
16E8
  8
SAPA_FOGBAND
 10
135.94999992773111
 20
13.65000000001745
 30
0.0
  0
SEQEND
  5
16E9
  8
SAPA_FOGBAND
  0
POLYLINE
  5
F81
  8
SAPA_FOGBAND
 66
     1
 10
0.0
 20
0.0
 30
0.0
  0
VERTEX
  5
16EA
  8
SAPA_FOGBAND
 10
135.94999992773111
 20
13.575000000016731
 30
0.0
  0
VERTEX
  5
16EB
  8
SAPA_FOGBAND
 10
132.4999999277313
 20
13.57500000001345
 30
0.0
  0
VERTEX
  5
16EC
  8
SAPA_FOGBAND
 10
132.4999999277313
 20
13.42500000001527
 30
0.0
  0
VERTEX
  5
16ED
  8
SAPA_FOGBAND
 10
135.94999992773111
 20
13.42500000001527
 30
0.0
  0
SEQEND
  5
16EE
  8
SAPA_FOGBAND
  0
POLYLINE
  5
F82
  8
SAPA_FOGBAND
 66
     1
 10
0.0
 20
0.0
 30
0.0
  0
VERTEX
  5
16EF
  8
SAPA_FOGBAND
 10
135.94999992773111
 20
13.35000000001455
 30
0.0
  0
VERTEX
  5
16F0
  8
SAPA_FOGBAND
 10
132.4999999277313
 20
13.240002614832299
 30
0.0
  0
VERTEX
  5
16F1
  8
SAPA_FOGBAND
 10
132.4999999277313
 20
10.801909274410139
 30
0.0
  0
VERTEX
  5
16F2
  8
SAPA_FOGBAND
 10
135.94999992773111
 20
11.92731039687496
 30
0.0
  0
SEQEND
  5
16F3
  8
SAPA_FOGBAND
  0
POLYLINE
  5
F83
  8
SAPA_FOGBAND
 66
     1
 10
0.0
 20
0.0
 30
0.0
 70
     1
  0
VERTEX
  5
16F4
  8
SAPA_FOGBAND
 10
81.249999928461435
 20
10.51855881180404
 30
0.0
  0
VERTEX
  5
16F5
  8
SAPA_FOGBAND
 10
82.049999928461617
 20
10.51855881180404
 30
0.0
  0
VERTEX
  5
16F6
  8
SAPA_FOGBAND
 10
82.049999928461617
 20
16.818558811801118
 30
0.0
  0
VERTEX
  5
16F7
  8
SAPA_FOGBAND
 10
81.249999928461435
 20
16.818558811801118
 30
0.0
  0
SEQEND
  5
16F8
  8
SAPA_FOGBAND
  0
POLYLINE
  5
F84
  8
SAPA_FOGBAND
 66
     1
 10
0.0
 20
0.0
 30
0.0
  0
VERTEX
  5
16F9
  8
SAPA_FOGBAND
 10
82.049999928461617
 20
15.24124841494362
 30
0.0
  0
VERTEX
  5
16FA
  8
SAPA_FOGBAND
 10
85.499999928461435
 20
16.366695012259552
 30
0.0
  0
VERTEX
  5
16FB
  8
SAPA_FOGBAND
 10
85.499999928461435
 20
13.92855696571101
 30
0.0
  0
VERTEX
  5
16FC
  8
SAPA_FOGBAND
 10
82.049999928461617
 20
13.81855881180404
 30
0.0
  0
SEQEND
  5
16FD
  8
SAPA_FOGBAND
  0
POLYLINE
  5
F85
  8
SAPA_FOGBAND
 66
     1
 10
0.0
 20
0.0
 30
0.0
  0
VERTEX
  5
16FE
  8
SAPA_FOGBAND
 10
82.049999928461617
 20
13.743558811803309
 30
0.0
  0
VERTEX
  5
16FF
  8
SAPA_FOGBAND
 10
85.499999928461435
 20
13.74355881180003
 30
0.0
  0
VERTEX
  5
1700
  8
SAPA_FOGBAND
 10
85.499999928461435
 20
13.59355881180185
 30
0.0
  0
VERTEX
  5
1701
  8
SAPA_FOGBAND
 10
82.049999928461617
 20
13.59355881180185
 30
0.0
  0
SEQEND
  5
1702
  8
SAPA_FOGBAND
  0
POLYLINE
  5
F86
  8
SAPA_FOGBAND
 66
     1
 10
0.0
 20
0.0
 30
0.0
  0
VERTEX
  5
1703
  8
SAPA_FOGBAND
 10
82.049999928461617
 20
13.51855881180113
 30
0.0
  0
VERTEX
  5
1704
  8
SAPA_FOGBAND
 10
85.499999928461435
 20
13.40856142661888
 30
0.0
  0
VERTEX
  5
1705
  8
SAPA_FOGBAND
 10
85.499999928461435
 20
10.970468086196719
 30
0.0
  0
VERTEX
  5
1706
  8
SAPA_FOGBAND
 10
82.049999928461617
 20
12.09586920866154
 30
0.0
  0
SEQEND
  5
1707
  8
SAPA_FOGBAND
  0
POLYLINE
  5
F87
  8
SAPA_FOGBAND
 66
     1
 10
0.0
 20
0.0
 30
0.0
 70
     1
  0
VERTEX
  5
1708
  8
SAPA_FOGBAND
 10
81.249999928461435
 20
2.018558811789489
 30
0.0
  0
VERTEX
  5
1709
  8
SAPA_FOGBAND
 10
82.049999928461617
 20
2.018558811789489
 30
0.0
  0
VERTEX
  5
170A
  8
SAPA_FOGBAND
 10
82.049999928461617
 20
8.3185588117865734
 30
0.0
  0
VERTEX
  5
170B
  8
SAPA_FOGBAND
 10
81.249999928461435
 20
8.3185588117865734
 30
0.0
  0
SEQEND
  5
170C
  8
SAPA_FOGBAND
  0
POLYLINE
  5
F88
  8
SAPA_FOGBAND
 66
     1
 10
0.0
 20
0.0
 30
0.0
  0
VERTEX
  5
170D
  8
SAPA_FOGBAND
 10
82.049999928461617
 20
6.741248414929073
 30
0.0
  0
VERTEX
  5
170E
  8
SAPA_FOGBAND
 10
85.499999928461435
 20
7.8666950122449961
 30
0.0
  0
VERTEX
  5
170F
  8
SAPA_FOGBAND
 10
85.499999928461435
 20
5.4285569656964583
 30
0.0
  0
VERTEX
  5
1710
  8
SAPA_FOGBAND
 10
82.049999928461617
 20
5.3185588117894858
 30
0.0
  0
SEQEND
  5
1711
  8
SAPA_FOGBAND
  0
POLYLINE
  5
F89
  8
SAPA_FOGBAND
 66
     1
 10
0.0
 20
0.0
 30
0.0
  0
VERTEX
  5
1712
  8
SAPA_FOGBAND
 10
82.049999928461617
 20
5.243558811788759
 30
0.0
  0
VERTEX
  5
1713
  8
SAPA_FOGBAND
 10
85.499999928461435
 20
5.2435588117854843
 30
0.0
  0
VERTEX
  5
1714
  8
SAPA_FOGBAND
 10
85.499999928461435
 20
5.0935588117872967
 30
0.0
  0
VERTEX
  5
1715
  8
SAPA_FOGBAND
 10
82.049999928461617
 20
5.093558811787303
 30
0.0
  0
SEQEND
  5
1716
  8
SAPA_FOGBAND
  0
POLYLINE
  5
F8A
  8
SAPA_FOGBAND
 66
     1
 10
0.0
 20
0.0
 30
0.0
  0
VERTEX
  5
1717
  8
SAPA_FOGBAND
 10
82.049999928461617
 20
5.0185588117865763
 30
0.0
  0
VERTEX
  5
1718
  8
SAPA_FOGBAND
 10
85.499999928461435
 20
4.9085614266043294
 30
0.0
  0
VERTEX
  5
1719
  8
SAPA_FOGBAND
 10
85.499999928461435
 20
2.4704680861821662
 30
0.0
  0
VERTEX
  5
171A
  8
SAPA_FOGBAND
 10
82.049999928461617
 20
3.5958692086469881
 30
0.0
  0
SEQEND
  5
171B
  8
SAPA_FOGBAND
  0
DIMENSION
  5
F96
  8
SAPA_MATT
  2
*D30
 10
-17.999999928252379
 20
59.999999999999879
 30
0.0
 11
-20.7499999282524
 21
27.499999999998089
 31
0.0
 70
     0
 13
22.049999999816499
 23
-5.0000000000036939
 33
0.0
 14
14.30000007175777
 24
59.999999999999872
 34
0.0
 50
270.0
1001
ACAD
1000
DSTYLE
1002
{
1070
    40
1040
1.0
1002
}
  0
DIMENSION
  5
F97
  8
SAPA_MATT
  2
*D29
 10
-5.999999928252425
 20
-0.0000000000000081
 30
0.0
 11
-8.7499999282524232
 21
29.999999999999929
 31
0.0
 70
     0
 13
14.30000007175777
 23
59.999999999999872
 33
0.0
 14
15.50000007174763
 24
-0.0000000000000142
 34
0.0
 50
270.0
1001
ACAD
1000
DSTYLE
1002
{
1070
    40
1040
1.0
1002
}
  0
DIMENSION
  5
F98
  8
SAPA_MATT
  2
*D28
 10
138.99999999950231
 20
-56.000000000000099
 30
0.0
 11
76.499999999751253
 21
-56.000000000000099
 31
0.0
 70
   128
 13
14.00000000000024
 23
1.4999999999999849
 33
0.0
 14
138.99999999950231
 24
1.5721139414508081
 34
0.0
1001
ACAD
1000
DSTYLE
1002
{
1070
    40
1040
1.0
1002
}
  0
DIMENSION
  5
F99
  8
SAPA_MATT
  2
*D27
 10
138.99999999950231
 20
-44.000000000000149
 30
0.0
 11
102.8577351492785
 21
-43.239486851189909
 31
0.0
 70
   128
 13
67.499999999387086
 23
10.000000000174611
 33
0.0
 14
138.99999999950231
 24
1.5721139414508081
 34
0.0
1001
ACAD
1000
DSTYLE
1002
{
1070
   287
1070
     4
1070
    40
1040
1.0
1070
   279
1070
     1
1002
}
  0
DIMENSION
  5
F9A
  8
SAPA_MATT
  2
*D26
 10
67.499999999387086
 20
-44.000000000000121
 30
0.0
 11
43.999999999732928
 21
-41.250000000000128
 31
0.0
 70
     0
 13
20.500000000078789
 23
10.00000000017455
 33
0.0
 14
67.499999999387086
 24
10.000000000174611
 34
0.0
1001
ACAD
1000
DSTYLE
1002
{
1070
   287
1070
     4
1070
    40
1040
1.0
1070
   279
1070
     1
1002
}
  0
DIMENSION
  5
F9B
  8
SAPA_MATT
  2
*D25
 10
20.500000000078789
 20
-44.000000000000121
 30
0.0
 11
17.25000000003951
 21
-44.000000000000121
 31
0.0
 70
   128
 13
14.00000000000024
 23
1.4999999999999849
 33
0.0
 14
20.500000000078789
 24
10.00000000017455
 34
0.0
1001
ACAD
1000
DSTYLE
1002
{
1070
    40
1040
1.0
1002
}
  0
DIMENSION
  5
F9C
  8
SAPA_MATT
  2
*D24
 10
-5.9999999999998197
 20
-5.0000000000036859
 30
0.0
 11
-8.7499999999998188
 21
-2.5000000000018479
 31
0.0
 70
     0
 13
15.50000000000024
 23
-0.0000000000000142
 33
0.0
 14
22.049999999816499
 24
-5.0000000000036939
 34
0.0
 50
270.0
1001
ACAD
1000
DSTYLE
1002
{
1070
   287
1070
     4
1070
    40
1040
1.0
1070
   279
1070
     1
1002
}
  0
VIEWPORT
  5
C4
 67
     1
  8
0
 10
160.5543545598442
 20
116.00969601843509
 30
0.0
 40
404.96977709277462
 41
256.8421457311839
 68
     1
 69
     1
1001
ACAD
1000
MVIEW
1002
{
1070
    16
1010
0.0
1020
0.0
1030
0.0
1010
0.0
1020
0.0
1030
1.0
1040
0.0
1040
256.8421457311839
1040
99.206250190734863
1040
130.70624923706049
1040
50.0
1040
0.0
1040
0.0
1070
     0
1070
     0
1070
     1
1070
     1
1070
     0
1070
     0
1070
     0
1070
     0
1040
0.0
1040
0.0
1040
0.0
1040
10.0
1040
10.0
1040
10.0
1040
10.0
1070
     0
1002
{
1002
}
1002
}
  0
ENDSEC
  0
EOF
