  0
SECTION
  2
HEADER
  9
$ACADVER
  1
AC1009
  9
$INSBASE
 10
0.0
 20
0.0
 30
0.0
  9
$EXTMIN
 10
-30.619466477046021
 20
-57.499999999999993
 30
-0.2
  9
$EXTMAX
 10
194.00325593441289
 20
79.755365308950516
 30
0.0000000048844772
  9
$LIMMIN
 10
0.0
 20
0.0
  9
$LIMMAX
 10
790.0
 20
790.0
  9
$ORTHOMODE
 70
     1
  9
$REGENMODE
 70
     1
  9
$FILLMODE
 70
     1
  9
$QTEXTMODE
 70
     0
  9
$MIRRTEXT
 70
     1
  9
$DRAGMODE
 70
     2
  9
$LTSCALE
 40
4.0
  9
$OSMODE
 70
   167
  9
$ATTMODE
 70
     1
  9
$TEXTSIZE
 40
3.5
  9
$TRACEWID
 40
0.05
  9
$TEXTSTYLE
  7
ISO
  9
$CLAYER
  8
0
  9
$CELTYPE
  6
BYLAYER
  9
$CECOLOR
 62
   256
  9
$DIMSCALE
 40
0.0
  9
$DIMASZ
 40
3.0
  9
$DIMEXO
 40
1.5
  9
$DIMDLI
 40
10.0
  9
$DIMRND
 40
0.0
  9
$DIMDLE
 40
0.0
  9
$DIMEXE
 40
1.5
  9
$DIMTP
 40
0.0
  9
$DIMTM
 40
0.0
  9
$DIMTXT
 40
3.5
  9
$DIMCEN
 40
-5.0
  9
$DIMTSZ
 40
0.0
  9
$DIMTOL
 70
     0
  9
$DIMLIM
 70
     0
  9
$DIMTIH
 70
     0
  9
$DIMTOH
 70
     0
  9
$DIMSE1
 70
     0
  9
$DIMSE2
 70
     0
  9
$DIMTAD
 70
     1
  9
$DIMZIN
 70
     8
  9
$DIMBLK
  1

  9
$DIMASO
 70
     1
  9
$DIMSHO
 70
     1
  9
$DIMPOST
  1

  9
$DIMAPOST
  1

  9
$DIMALT
 70
     0
  9
$DIMALTD
 70
     0
  9
$DIMALTF
 40
25.399999999999999
  9
$DIMLFAC
 40
-1.0
  9
$DIMTOFL
 70
     1
  9
$DIMTVP
 40
0.0
  9
$DIMTIX
 70
     0
  9
$DIMSOXD
 70
     0
  9
$DIMSAH
 70
     0
  9
$DIMBLK1
  1

  9
$DIMBLK2
  1

  9
$DIMSTYLE
  2
MASKIN
  9
$DIMCLRD
 70
   256
  9
$DIMCLRE
 70
   256
  9
$DIMCLRT
 70
     2
  9
$DIMTFAC
 40
1.0
  9
$DIMGAP
 40
1.0
  9
$LUNITS
 70
     2
  9
$LUPREC
 70
     8
  9
$SKETCHINC
 40
0.1
  9
$FILLETRAD
 40
0.0
  9
$AUNITS
 70
     0
  9
$AUPREC
 70
     8
  9
$MENU
  1
ACAD
  9
$ELEVATION
 40
0.0
  9
$PELEVATION
 40
0.0
  9
$THICKNESS
 40
0.0
  9
$LIMCHECK
 70
     0
  9
$BLIPMODE
 70
     0
  9
$CHAMFERA
 40
0.0
  9
$CHAMFERB
 40
0.0
  9
$SKPOLY
 70
     0
  9
$TDCREATE
 40
2455734.518348461
  9
$TDUPDATE
 40
2455994.5001747222
  9
$TDINDWG
 40
3.0316105671
  9
$TDUSRTIMER
 40
3.0316103819000002
  9
$USRTIMER
 70
     1
  9
$ANGBASE
 50
0.0
  9
$ANGDIR
 70
     0
  9
$PDMODE
 70
     0
  9
$PDSIZE
 40
0.0
  9
$PLINEWID
 40
0.0
  9
$COORDS
 70
     1
  9
$SPLFRAME
 70
     0
  9
$SPLINETYPE
 70
     6
  9
$SPLINESEGS
 70
     8
  9
$ATTDIA
 70
     0
  9
$ATTREQ
 70
     1
  9
$HANDLING
 70
     1
  9
$HANDSEED
  5
209A
  9
$SURFTAB1
 70
     6
  9
$SURFTAB2
 70
     6
  9
$SURFTYPE
 70
     6
  9
$SURFU
 70
     6
  9
$SURFV
 70
     6
  9
$UCSNAME
  2

  9
$UCSORG
 10
0.0
 20
0.0
 30
0.0
  9
$UCSXDIR
 10
1.0
 20
0.0
 30
0.0
  9
$UCSYDIR
 10
0.0
 20
1.0
 30
0.0
  9
$PUCSNAME
  2

  9
$PUCSORG
 10
0.0
 20
0.0
 30
0.0
  9
$PUCSXDIR
 10
1.0
 20
0.0
 30
0.0
  9
$PUCSYDIR
 10
0.0
 20
1.0
 30
0.0
  9
$USERI1
 70
     0
  9
$USERI2
 70
     0
  9
$USERI3
 70
     0
  9
$USERI4
 70
     0
  9
$USERI5
 70
     0
  9
$USERR1
 40
0.0
  9
$USERR2
 40
0.0
  9
$USERR3
 40
0.0
  9
$USERR4
 40
0.0
  9
$USERR5
 40
0.0
  9
$WORLDVIEW
 70
     1
  9
$SHADEDGE
 70
     3
  9
$SHADEDIF
 70
    70
  9
$TILEMODE
 70
     1
  9
$MAXACTVP
 70
    16
  9
$PLIMCHECK
 70
     0
  9
$PEXTMIN
 10
1.0000000000000000E+020
 20
1.0000000000000000E+020
 30
1.0000000000000000E+020
  9
$PEXTMAX
 10
-1.0000000000000000E+020
 20
-1.0000000000000000E+020
 30
-1.0000000000000000E+020
  9
$PLIMMIN
 10
-5.069427490234375
 20
-5.8737497329711914
  9
$PLIMMAX
 10
291.89889526367187
 20
204.0995779037475
  9
$UNITMODE
 70
     0
  9
$VISRETAIN
 70
     1
  9
$PLINEGEN
 70
     0
  9
$PSLTSCALE
 70
     1
  0
ENDSEC
  0
SECTION
  2
TABLES
  0
TABLE
  2
VPORT
 70
     1
  0
VPORT
  2
*ACTIVE
 70
     0
 10
0.0
 20
0.0
 11
1.0
 21
1.0
 12
85.197472668837008
 22
44.287520664152709
 13
0.0
 23
0.0
 14
1.0
 24
1.0
 15
0.0
 25
0.0
 16
0.0
 26
0.0
 36
1.0
 17
0.0
 27
0.0
 37
0.0
 40
133.02902198101651
 41
2.37391304347826
 42
50.0
 43
0.0
 44
0.0
 50
0.0
 51
0.0
 71
     0
 72
   100
 73
     1
 74
     1
 75
     0
 76
     0
 77
     0
 78
     0
  0
ENDTAB
  0
TABLE
  2
LTYPE
 70
     3
  0
LTYPE
  2
CONTINUOUS
 70
     0
  3
Solid line
 72
    65
 73
     0
 40
0.0
  0
LTYPE
  2
BYGG-027368$0$NEWDOT
 70
     0
  3
____ . ____ . ____ . ____ . ____ . ____ . ____
 72
    65
 73
     4
 40
2.0
 49
1.0
 49
-0.5
 49
0.0
 49
-0.5
  0
LTYPE
  2
BYGG-027385$0$NEWDOT
 70
     0
  3
____ . ____ . ____ . ____ . ____ . ____ . ____
 72
    65
 73
     4
 40
2.0
 49
1.0
 49
-0.5
 49
0.0
 49
-0.5
  0
ENDTAB
  0
TABLE
  2
LAYER
 70
    31
  0
LAYER
  2
0
 70
     0
 62
     7
  6
CONTINUOUS
  0
LAYER
  2
DEFPOINTS
 70
     0
 62
     7
  6
CONTINUOUS
  0
LAYER
  2
SAPA_ARTIKELNR
 70
     0
 62
     4
  6
CONTINUOUS
  0
LAYER
  2
SAPA_GLAS
 70
     0
 62
     4
  6
CONTINUOUS
  0
LAYER
  2
SAPA_ANSLUTNING
 70
     0
 62
     6
  6
CONTINUOUS
  0
LAYER
  2
SAPA_MATT
 70
     0
 62
     1
  6
CONTINUOUS
  0
LAYER
  2
SAPA_FOGBAND
 70
     0
 62
     2
  6
CONTINUOUS
  0
LAYER
  2
SAPA_PROFIL
 70
     0
 62
     7
  6
CONTINUOUS
  0
ENDTAB
  0
TABLE
  2
STYLE
 70
    12
  0
STYLE
  2
STANDARD
 70
     0
 40
0.0
 41
1.0
 50
0.0
 71
     0
 42
0.2
  3
txt
  4

  0
STYLE
  2
ISO
 70
     0
 40
0.0
 41
1.0
 50
0.0
 71
     0
 42
3.5
  3
txt
  4

  0
STYLE
  2
BYGG-027392$0$STANDARD
 70
     0
 40
0.0
 41
1.0
 50
0.0
 71
     0
 42
0.2
  3
txt
  4

  0
STYLE
  2
BYGG-027392$0$ISO
 70
     0
 40
0.0
 41
1.0
 50
0.0
 71
     0
 42
3.5
  3
txt
  4

  0
STYLE
  2
BYGG-027458$0$STANDARD
 70
     0
 40
0.0
 41
1.0
 50
0.0
 71
     0
 42
0.2
  3
txt
  4

  0
STYLE
  2
BYGG-027458$0$ISO
 70
     0
 40
0.0
 41
1.0
 50
0.0
 71
     0
 42
3.5
  3
txt
  4

  0
STYLE
  2
BYGG-027368$0$STANDARD
 70
     0
 40
0.0
 41
1.0
 50
0.0
 71
     0
 42
0.2
  3
txt
  4

  0
STYLE
  2
BYGG-027368$0$ISO
 70
     0
 40
0.0
 41
1.0
 50
0.0
 71
     0
 42
3.5
  3
txt
  4

  0
STYLE
  2
BYGG-027414$0$STANDARD
 70
     0
 40
0.0
 41
1.0
 50
0.0
 71
     0
 42
0.2
  3
txt
  4

  0
STYLE
  2
BYGG-027414$0$ISO
 70
     0
 40
0.0
 41
1.0
 50
0.0
 71
     0
 42
3.5
  3
txt
  4

  0
STYLE
  2
BYGG-027385$0$STANDARD
 70
     0
 40
0.0
 41
1.0
 50
0.0
 71
     0
 42
0.2
  3
txt
  4

  0
STYLE
  2
BYGG-027385$0$ISO
 70
     0
 40
0.0
 41
1.0
 50
0.0
 71
     0
 42
3.5
  3
txt
  4

  0
ENDTAB
  0
TABLE
  2
VIEW
 70
     0
  0
ENDTAB
  0
TABLE
  2
UCS
 70
     0
  0
ENDTAB
  0
TABLE
  2
APPID
 70
    28
  0
APPID
  2
ACAD
 70
     0
  0
APPID
  2
ACAD_DSTYLE_DIMTEXT_FILL
 70
     0
  0
APPID
  2
ACAD_DSTYLE_DIMEXT_LENGTH
 70
     0
  0
APPID
  2
ACAD_DSTYLE_DIMEXT_ENABLED
 70
     0
  0
APPID
  2
ACAD_DSTYLE_DIM_LINETYPE
 70
     0
  0
APPID
  2
ACAD_DSTYLE_DIM_EXT1_LINETYPE
 70
     0
  0
APPID
  2
ACAD_DSTYLE_DIM_EXT2_LINETYPE
 70
     0
  0
APPID
  2
ACAD_DSTYLE_DIMJOGGED_JOGA
 70
     0
  0
APPID
  2
ACAD_DSTYLE_DIMARC_LENGTH_
 70
     0
  0
APPID
  2
ACAD_PSEXT
 70
     0
  0
APPID
  2
ACAD_MLEADERVER
 70
     0
  0
APPID
  2
GENIUS_GENODEF_13
 70
     0
  0
APPID
  2
RC_PROFILE
 70
     0
  0
APPID
  2
ACAECLAYERSTANDARD
 70
     0
  0
APPID
  2
GENIUS_GENOBJ-N-FIL_13
 70
     0
  0
APPID
  2
ACADANNOTATIVE
 70
     0
  0
APPID
  2
ACAD_EXEMPT_FROM_CAD_STANDARDS
 70
     0
  0
APPID
  2
AEC_XDATA_BOUND_SPACE
 70
     0
  0
APPID
  2
ACAD_DSTYLE_DIMJAG
 70
     0
  0
APPID
  2
ACAD_DSTYLE_DIMTALN
 70
     0
  0
APPID
  2
GENIUS_GENREC_14
 70
     0
  0
APPID
  2
GENIUS_GENOBJ-N-REC_13
 70
     0
  0
APPID
  2
ACDBDYNAMICBLOCKTRUENAME
 70
     0
  0
APPID
  2
ACDBBLOCKREPETAG
 70
     0
  0
APPID
  2
ACDBDYNAMICBLOCKGUID
 70
     0
  0
APPID
  2
ACDBBLOCKREPBTAG
 70
     0
  0
APPID
  2
ACAD_NAV_VCDISPLAY
 70
     0
  0
APPID
  2
ACCMTRANSPARENCY
 70
     0
  0
ENDTAB
  0
TABLE
  2
DIMSTYLE
 70
     6
  0
DIMSTYLE
  2
MASKIN
 70
     0
  3

  4

  5

  6

  7

 40
0.0
 41
3.0
 42
1.5
 43
10.0
 44
1.5
 45
0.0
 46
0.0
 47
0.0
 48
0.0
140
3.5
141
-5.0
142
0.0
143
25.399999999999999
144
-1.0
145
0.0
146
1.0
147
1.0
 71
     0
 72
     0
 73
     0
 74
     0
 75
     0
 76
     0
 77
     1
 78
     8
170
     0
171
     0
172
     1
173
     0
174
     0
175
     0
176
   256
177
   256
178
     2
  0
DIMSTYLE
  2
BYGG-027392$0$MASKIN
 70
     0
  3

  4

  5

  6

  7

 40
0.0
 41
3.0
 42
1.5
 43
10.0
 44
1.5
 45
0.0
 46
0.0
 47
0.0
 48
0.0
140
3.0
141
-5.0
142
0.0
143
25.399999999999999
144
-1.0
145
0.0
146
1.0
147
1.0
 71
     0
 72
     0
 73
     0
 74
     0
 75
     0
 76
     0
 77
     1
 78
     8
170
     0
171
     0
172
     1
173
     0
174
     0
175
     0
176
   256
177
   256
178
     2
  0
DIMSTYLE
  2
BYGG-027458$0$MASKIN
 70
     0
  3

  4

  5

  6

  7

 40
0.0
 41
3.0
 42
1.5
 43
10.0
 44
1.5
 45
0.0
 46
0.0
 47
0.0
 48
0.0
140
3.0
141
-5.0
142
0.0
143
25.399999999999999
144
-1.0
145
0.0
146
1.0
147
1.0
 71
     0
 72
     0
 73
     0
 74
     0
 75
     0
 76
     0
 77
     1
 78
     8
170
     0
171
     0
172
     1
173
     0
174
     0
175
     0
176
   256
177
   256
178
     2
  0
DIMSTYLE
  2
BYGG-027368$0$MASKIN
 70
     0
  3

  4

  5

  6

  7

 40
0.0
 41
3.0
 42
1.5
 43
10.0
 44
1.5
 45
0.0
 46
0.0
 47
0.0
 48
0.0
140
3.0
141
-5.0
142
0.0
143
25.399999999999999
144
-1.0
145
0.0
146
1.0
147
1.0
 71
     0
 72
     0
 73
     0
 74
     0
 75
     0
 76
     0
 77
     1
 78
     8
170
     0
171
     0
172
     1
173
     0
174
     0
175
     0
176
   256
177
   256
178
     2
  0
DIMSTYLE
  2
BYGG-027414$0$MASKIN
 70
     0
  3

  4

  5

  6

  7

 40
0.0
 41
3.0
 42
1.5
 43
10.0
 44
1.5
 45
0.0
 46
0.0
 47
0.0
 48
0.0
140
3.0
141
-5.0
142
0.0
143
25.399999999999999
144
-1.0
145
0.0
146
1.0
147
1.0
 71
     0
 72
     0
 73
     0
 74
     0
 75
     0
 76
     0
 77
     1
 78
     8
170
     0
171
     0
172
     1
173
     0
174
     0
175
     0
176
   256
177
   256
178
     2
  0
DIMSTYLE
  2
BYGG-027385$0$MASKIN
 70
     0
  3

  4

  5

  6

  7

 40
0.0
 41
3.0
 42
1.5
 43
10.0
 44
1.5
 45
0.0
 46
0.0
 47
0.0
 48
0.0
140
3.0
141
-5.0
142
0.0
143
25.399999999999999
144
-1.0
145
0.0
146
1.0
147
1.0
 71
     0
 72
     0
 73
     0
 74
     0
 75
     0
 76
     0
 77
     1
 78
     8
170
     0
171
     0
172
     1
173
     0
174
     0
175
     0
176
   256
177
   256
178
     2
  0
ENDTAB
  0
ENDSEC
  0
SECTION
  2
BLOCKS
  0
BLOCK
  8
0
  2
$MODEL_SPACE
 70
     0
 10
0.0
 20
0.0
 30
0.0
  3
$MODEL_SPACE
  1

  0
ENDBLK
  5
37
  8
0
  0
BLOCK
 67
     1
  8
0
  2
$PAPER_SPACE
 70
     0
 10
0.0
 20
0.0
 30
0.0
  3
$PAPER_SPACE
  1

  0
ENDBLK
  5
35
 67
     1
  8
0
  0
BLOCK
  8
0
  2
*D24
 70
     1
 10
0.0
 20
0.0
 30
0.0
  3
*D24
  1

  0
LINE
  5
1FFA
  8
SAPA_MATT
 10
138.99999992775449
 20
0.0000000000000991
 30
0.0
 11
170.4999999277546
 21
0.0000000000000901
 31
0.0
  0
LINE
  5
1FFB
  8
SAPA_MATT
 10
132.44999992847269
 20
-5.0000000000036087
 30
0.0
 11
170.4999999277546
 21
-5.0000000000036211
 31
0.0
  0
LINE
  5
1FFC
  8
SAPA_MATT
 10
168.9999999277546
 20
3.0000000000000902
 30
0.0
 11
168.9999999277546
 21
6.0000000000000897
 31
0.0
  0
LINE
  5
1FFD
  8
SAPA_MATT
 10
168.9999999277546
 20
-8.0000000000036202
 30
0.0
 11
168.9999999277546
 21
-11.00000000000362
 31
0.0
  0
LINE
  5
1FFE
  8
SAPA_MATT
 10
168.9999999277546
 20
0.0000000000000906
 30
0.0
 11
168.9999999277546
 21
-5.0000000000036202
 31
0.0
  0
SOLID
  5
1FFF
  8
SAPA_MATT
 10
168.4999999277546
 20
3.0000000000000902
 30
0.0
 11
169.4999999277546
 21
3.0000000000000902
 31
0.0
 12
168.9999999277546
 22
0.0000000000000906
 32
0.0
 13
168.9999999277546
 23
0.0000000000000906
 33
0.0
  0
SOLID
  5
2000
  8
SAPA_MATT
 10
168.4999999277546
 20
-8.0000000000036202
 30
0.0
 11
169.4999999277546
 21
-8.0000000000036202
 31
0.0
 12
168.9999999277546
 22
-5.0000000000036202
 32
0.0
 13
168.9999999277546
 23
-5.0000000000036202
 33
0.0
  0
TEXT
  8
SAPA_MATT
  40
3.5
  5
2015
  62
2
  72
0
  71
0
 10
159.250
 20
-8.69500
 30
0.000000
  1
5
  7
ISO
  0
POINT
  5
2002
  8
DEFPOINTS
 62
     0
 10
137.49999992775449
 20
0.0000000000000995
 30
0.0
  0
POINT
  5
2003
  8
DEFPOINTS
 62
     0
 10
130.94999992847269
 20
-5.0000000000036087
 30
0.0
  0
POINT
  5
2004
  8
DEFPOINTS
 62
     0
 10
168.9999999277546
 20
-5.0000000000036202
 30
0.0
  0
ENDBLK
  5
18C2
  8
0
  0
BLOCK
  8
0
  2
*D25
 70
     1
 10
0.0
 20
0.0
 30
0.0
  3
*D25
  1

  0
LINE
  5
1945
  8
SAPA_MATT
 10
138.99999992775449
 20
0.0000000000000995
 30
0.0
 11
138.99999992775449
 21
-45.500000000000007
 31
0.0
  0
LINE
  5
1946
  8
SAPA_MATT
 10
132.4999999276759
 20
8.5000000001746514
 30
0.0
 11
132.4999999276759
 21
-45.500000000000007
 31
0.0
  0
LINE
  5
1947
  8
SAPA_MATT
 10
141.99999992775449
 20
-44.000000000000007
 30
0.0
 11
144.99999992775449
 21
-44.000000000000007
 31
0.0
  0
LINE
  5
1948
  8
SAPA_MATT
 10
129.4999999276759
 20
-44.000000000000007
 30
0.0
 11
126.4999999276759
 21
-44.000000000000007
 31
0.0
  0
LINE
  5
1949
  8
SAPA_MATT
 10
138.99999992775449
 20
-44.000000000000007
 30
0.0
 11
132.4999999276759
 21
-44.000000000000007
 31
0.0
  0
SOLID
  5
194A
  8
SAPA_MATT
 10
141.99999992775449
 20
-43.500000000000007
 30
0.0
 11
141.99999992775449
 21
-44.500000000000007
 31
0.0
 12
138.99999992775449
 22
-44.000000000000007
 32
0.0
 13
138.99999992775449
 23
-44.000000000000007
 33
0.0
  0
SOLID
  5
194B
  8
SAPA_MATT
 10
129.4999999276759
 20
-43.500000000000007
 30
0.0
 11
129.4999999276759
 21
-44.500000000000007
 31
0.0
 12
132.4999999276759
 22
-44.000000000000007
 32
0.0
 13
132.4999999276759
 23
-44.000000000000007
 33
0.0
  0
INSERT
  5
194C
  8
0
  2
*U42
 10
0.0
 20
0.0
 30
0.0
  0
POINT
  5
194D
  8
DEFPOINTS
 62
     0
 10
138.99999992775449
 20
1.500000000000099
 30
0.0
  0
POINT
  5
194E
  8
DEFPOINTS
 62
     0
 10
132.4999999276759
 20
10.00000000017465
 30
0.0
  0
POINT
  5
194F
  8
DEFPOINTS
 62
     0
 10
132.4999999276759
 20
-44.000000000000007
 30
0.0
  0
ENDBLK
  5
18D0
  8
0
  0
BLOCK
  8
0
  2
*D26
 70
     1
 10
0.0
 20
0.0
 30
0.0
  3
*D26
  1

  0
LINE
  5
1FF1
  8
SAPA_MATT
 10
132.4999999276759
 20
8.5000000001746514
 30
0.0
 11
132.4999999276759
 21
-45.500000000000007
 31
0.0
  0
LINE
  5
1FF2
  8
SAPA_MATT
 10
85.4999999283676
 20
8.500000000174694
 30
0.0
 11
85.4999999283676
 21
-45.500000000000007
 31
0.0
  0
LINE
  5
1FF3
  8
SAPA_MATT
 10
129.4999999276759
 20
-44.000000000000007
 30
0.0
 11
88.4999999283676
 21
-44.000000000000007
 31
0.0
  0
SOLID
  5
1FF4
  8
SAPA_MATT
 10
129.4999999276759
 20
-43.500000000000007
 30
0.0
 11
129.4999999276759
 21
-44.500000000000007
 31
0.0
 12
132.4999999276759
 22
-44.000000000000007
 32
0.0
 13
132.4999999276759
 23
-44.000000000000007
 33
0.0
  0
SOLID
  5
1FF5
  8
SAPA_MATT
 10
88.4999999283676
 20
-43.500000000000007
 30
0.0
 11
88.4999999283676
 21
-44.500000000000007
 31
0.0
 12
85.4999999283676
 22
-44.000000000000007
 32
0.0
 13
85.4999999283676
 23
-44.000000000000007
 33
0.0
  0
TEXT
  8
SAPA_MATT
  40
3.5
  5
2016
  62
2
  72
0
  71
0
 10
102.000
 20
-47.4450
 30
0.000000
  1
47
  7
ISO
  0
POINT
  5
1FF7
  8
DEFPOINTS
 62
     0
 10
132.4999999276759
 20
10.00000000017465
 30
0.0
  0
POINT
  5
1FF8
  8
DEFPOINTS
 62
     0
 10
85.4999999283676
 20
10.00000000017469
 30
0.0
  0
POINT
  5
1FF9
  8
DEFPOINTS
 62
     0
 10
85.4999999283676
 20
-44.000000000000007
 30
0.0
  0
ENDBLK
  5
18DE
  8
0
  0
BLOCK
  8
0
  2
*D27
 70
     1
 10
0.0
 20
0.0
 30
0.0
  3
*D27
  1

  0
LINE
  5
1FE8
  8
SAPA_MATT
 10
85.4999999283676
 20
8.500000000174694
 30
0.0
 11
85.4999999283676
 21
-45.500000000000021
 31
0.0
  0
LINE
  5
1FE9
  8
SAPA_MATT
 10
13.999999928252491
 20
-0.000599130507851
 30
0.0
 11
13.999999928252491
 21
-45.500000000000021
 31
0.0
  0
LINE
  5
1FEA
  8
SAPA_MATT
 10
82.499999928367615
 20
-44.000000000000021
 30
0.0
 11
16.999999928252489
 21
-44.000000000000021
 31
0.0
  0
TEXT
  8
SAPA_MATT
  40
3.5
  5
2017
  62
2
  72
0
  71
0
 10
43.1423
 20
-46.6845
 30
0.000000
  1
71.5
  7
ISO
  0
SOLID
  5
1FEC
  8
SAPA_MATT
 10
82.499999928367615
 20
-43.500000000000021
 30
0.0
 11
82.499999928367615
 21
-44.500000000000007
 31
0.0
 12
85.4999999283676
 22
-44.000000000000021
 32
0.0
 13
85.4999999283676
 23
-44.000000000000021
 33
0.0
  0
SOLID
  5
1FED
  8
SAPA_MATT
 10
16.999999928252489
 20
-43.500000000000021
 30
0.0
 11
16.999999928252489
 21
-44.500000000000007
 31
0.0
 12
13.999999928252491
 22
-44.000000000000021
 32
0.0
 13
13.999999928252491
 23
-44.000000000000021
 33
0.0
  0
POINT
  5
1FEE
  8
DEFPOINTS
 62
     0
 10
85.4999999283676
 20
10.00000000017469
 30
0.0
  0
POINT
  5
1FEF
  8
DEFPOINTS
 62
     0
 10
13.999999928252491
 20
1.499400869492149
 30
0.0
  0
POINT
  5
1FF0
  8
DEFPOINTS
 62
     0
 10
13.999999928252491
 20
-44.000000000000021
 30
0.0
  0
ENDBLK
  5
18EA
  8
0
  0
BLOCK
  8
0
  2
*D28
 70
     1
 10
0.0
 20
0.0
 30
0.0
  3
*D28
  1

  0
LINE
  5
192A
  8
SAPA_MATT
 10
138.99999992775449
 20
0.0000000000000995
 30
0.0
 11
138.99999992775449
 21
-57.499999999999993
 31
0.0
  0
LINE
  5
192B
  8
SAPA_MATT
 10
13.999999928252491
 20
-0.000599130507851
 30
0.0
 11
13.999999928252491
 21
-57.499999999999993
 31
0.0
  0
LINE
  5
192C
  8
SAPA_MATT
 10
135.99999992775449
 20
-55.999999999999979
 30
0.0
 11
16.999999928252489
 21
-55.999999999999979
 31
0.0
  0
SOLID
  5
192D
  8
SAPA_MATT
 10
135.99999992775449
 20
-55.499999999999979
 30
0.0
 11
135.99999992775449
 21
-56.499999999999979
 31
0.0
 12
138.99999992775449
 22
-55.999999999999979
 32
0.0
 13
138.99999992775449
 23
-55.999999999999979
 33
0.0
  0
SOLID
  5
192E
  8
SAPA_MATT
 10
16.999999928252489
 20
-55.499999999999979
 30
0.0
 11
16.999999928252489
 21
-56.499999999999979
 31
0.0
 12
13.999999928252491
 22
-55.999999999999979
 32
0.0
 13
13.999999928252491
 23
-55.999999999999979
 33
0.0
  0
INSERT
  5
192F
  8
0
  2
*U41
 10
0.0
 20
0.0
 30
0.0
  0
POINT
  5
1930
  8
DEFPOINTS
 62
     0
 10
138.99999992775449
 20
1.500000000000099
 30
0.0
  0
POINT
  5
1931
  8
DEFPOINTS
 62
     0
 10
13.999999928252491
 20
1.499400869492149
 30
0.0
  0
POINT
  5
1932
  8
DEFPOINTS
 62
     0
 10
13.999999928252491
 20
-55.999999999999979
 30
0.0
  0
ENDBLK
  5
18F6
  8
0
  0
BLOCK
  8
0
  2
*D29
 70
     1
 10
0.0
 20
0.0
 30
0.0
  3
*D29
  1

  0
LINE
  5
1921
  8
SAPA_MATT
 10
140.19999985599699
 20
60.0
 30
0.0
 11
170.49999985600721
 21
60.0
 31
0.0
  0
LINE
  5
1922
  8
SAPA_MATT
 10
138.99999985600709
 20
0.0000000000000991
 30
0.0
 11
170.49999985600721
 21
0.0000000000000901
 31
0.0
  0
LINE
  5
1923
  8
SAPA_MATT
 10
168.99999985600721
 20
56.999999999999993
 30
0.0
 11
168.99999985600721
 21
3.0000000000000902
 31
0.0
  0
SOLID
  5
1924
  8
SAPA_MATT
 10
168.49999985600721
 20
56.999999999999993
 30
0.0
 11
169.49999985600721
 21
56.999999999999993
 31
0.0
 12
168.99999985600721
 22
60.0
 32
0.0
 13
168.99999985600721
 23
60.0
 33
0.0
  0
SOLID
  5
1925
  8
SAPA_MATT
 10
168.49999985600721
 20
3.0000000000000902
 30
0.0
 11
169.49999985600721
 21
3.0000000000000902
 31
0.0
 12
168.99999985600721
 22
0.0000000000000906
 32
0.0
 13
168.99999985600721
 23
0.0000000000000906
 33
0.0
  0
INSERT
  5
1926
  8
0
  2
*U40
 10
0.0
 20
0.0
 30
0.0
  0
POINT
  5
1927
  8
DEFPOINTS
 62
     0
 10
138.69999985599699
 20
60.0
 30
0.0
  0
POINT
  5
1928
  8
DEFPOINTS
 62
     0
 10
137.49999985600709
 20
0.0000000000000995
 30
0.0
  0
POINT
  5
1929
  8
DEFPOINTS
 62
     0
 10
168.99999985600721
 20
0.0000000000000906
 30
0.0
  0
ENDBLK
  5
1902
  8
0
  0
BLOCK
  8
0
  2
*D30
 70
     1
 10
0.0
 20
0.0
 30
0.0
  3
*D30
  1

  0
LINE
  5
1918
  8
SAPA_MATT
 10
132.44999992847269
 20
-5.0000000000036087
 30
0.0
 11
182.49999985600721
 21
-5.0000000000036238
 31
0.0
  0
LINE
  5
1919
  8
SAPA_MATT
 10
140.19999985599699
 20
60.0
 30
0.0
 11
182.49999985600721
 21
59.999999999999993
 31
0.0
  0
LINE
  5
191A
  8
SAPA_MATT
 10
180.99999985600721
 20
-2.000000000003622
 30
0.0
 11
180.99999985600721
 21
56.999999999999993
 31
0.0
  0
SOLID
  5
191B
  8
SAPA_MATT
 10
180.49999985600721
 20
-2.000000000003622
 30
0.0
 11
181.49999985600721
 21
-2.0000000000036229
 31
0.0
 12
180.99999985600721
 22
-5.000000000003622
 32
0.0
 13
180.99999985600721
 23
-5.000000000003622
 33
0.0
  0
SOLID
  5
191C
  8
SAPA_MATT
 10
180.49999985600721
 20
56.999999999999993
 30
0.0
 11
181.49999985600721
 21
56.999999999999993
 31
0.0
 12
180.99999985600721
 22
59.999999999999993
 32
0.0
 13
180.99999985600721
 23
59.999999999999993
 33
0.0
  0
INSERT
  5
191D
  8
0
  2
*U39
 10
0.0
 20
0.0
 30
0.0
  0
POINT
  5
191E
  8
DEFPOINTS
 62
     0
 10
130.94999992847269
 20
-5.0000000000036087
 30
0.0
  0
POINT
  5
191F
  8
DEFPOINTS
 62
     0
 10
138.69999985599699
 20
60.0
 30
0.0
  0
POINT
  5
1920
  8
DEFPOINTS
 62
     0
 10
180.99999985600721
 20
59.999999999999993
 30
0.0
  0
ENDBLK
  5
190E
  8
0
  0
BLOCK
  8
0
  2
*X31
 70
     1
 10
0.0
 20
0.0
 30
0.0
  3
*X31
  1

  0
LINE
  5
19A6
  8
0
 62
     0
 10
85.500027590200347
 20
9.9151936961593918
 30
0.0
 11
85.49999992823561
 21
9.9152213581241355
 31
0.0
  0
LINE
  5
19A7
  8
0
 62
     0
 10
85.505658879415904
 20
8.7870303918101911
 30
0.0
 11
85.49999992823561
 21
8.7926893429904922
 31
0.0
  0
LINE
  5
19A8
  8
0
 62
     0
 10
85.521262027260605
 20
7.6488952288318544
 30
0.0
 11
85.451598444269578
 21
7.7185588118228727
 31
0.0
  0
LINE
  5
19A9
  8
0
 62
     0
 10
85.547109977523036
 20
6.5005152634357719
 30
0.0
 11
84.329066429135935
 21
7.7185588118228727
 31
0.0
  0
LINE
  5
19AA
  8
0
 62
     0
 10
82.493248866090397
 20
8.4318443597347681
 30
0.0
 11
82.263285476394429
 21
8.6618077494307357
 31
0.0
  0
LINE
  5
19AB
  8
0
 62
     0
 10
85.583490848198366
 20
5.3416023776267991
 30
0.0
 11
83.356805464847412
 21
7.5682877609777597
 31
0.0
  0
LINE
  5
19AC
  8
0
 62
     0
 10
85.630709132686405
 20
4.1718520780051227
 30
0.0
 11
81.155375446772325
 21
8.6471857639191967
 31
0.0
  0
LINE
  5
19AD
  8
0
 62
     0
 10
85.689087027036976
 20
2.9909421685209092
 30
0.0
 11
80.799999928461204
 21
7.8800292670966741
 31
0.0
  0
LINE
  5
19AE
  8
0
 62
     0
 10
85.758965899828766
 20
1.798531280595469
 30
0.0
 11
80.799999928461204
 21
6.757497251963037
 31
0.0
  0
LINE
  5
19AF
  8
0
 62
     0
 10
85.840707923913058
 20
0.5942572413775267
 30
0.0
 11
80.799999928461204
 21
5.6349652368293874
 31
0.0
  0
LINE
  5
19B0
  8
0
 62
     0
 10
82.541548867478923
 20
2.770884282678018
 30
0.0
 11
80.799999928461204
 21
4.5124332216957441
 31
0.0
  0
LINE
  5
19B1
  8
0
 62
     0
 10
85.143874338358344
 20
0.1685588117986043
 30
0.0
 11
83.499999928457981
 21
1.8124332216989669
 31
0.0
  0
LINE
  5
19B2
  8
0
 62
     0
 10
82.422534585518548
 20
1.7673665495047639
 30
0.0
 11
80.799999928461204
 21
3.389901206562107
 31
0.0
  0
LINE
  5
19B3
  8
0
 62
     0
 10
84.021342323224701
 20
0.1685588117986114
 30
0.0
 11
83.499999928457413
 21
0.6899012065658994
 31
0.0
  0
LINE
  5
19B4
  8
0
 62
     0
 10
81.398810308091015
 20
1.6685588117986321
 30
0.0
 11
80.799999928461204
 21
2.2673691914284499
 31
0.0
  0
LINE
  5
19B5
  8
0
 62
     0
 10
85.480991961955553
 20
0.1685588117986043
 30
0.0
 11
85.845184359227204
 21
0.5327512090702414
 31
0.0
  0
LINE
  5
19B6
  8
0
 62
     0
 10
84.358459946821924
 20
0.1685588117986043
 30
0.0
 11
85.772778257608849
 21
1.582877122585522
 31
0.0
  0
LINE
  5
19B7
  8
0
 62
     0
 10
83.235927931688281
 20
0.1685588117986043
 30
0.0
 11
85.708450450099406
 21
2.6410813302097358
 31
0.0
  0
LINE
  5
19B8
  8
0
 62
     0
 10
83.499999928457839
 20
1.555162823701806
 30
0.0
 11
85.65237786068829
 21
3.7075407559322571
 31
0.0
  0
LINE
  5
19B9
  8
0
 62
     0
 10
83.452841506606546
 20
2.6305364169841781
 30
0.0
 11
85.604745689106835
 21
4.7824405994844659
 31
0.0
  0
LINE
  5
19BA
  8
0
 62
     0
 10
81.368331886287365
 20
1.668558811798625
 30
0.0
 11
85.565747953418423
 21
5.8659748789297046
 31
0.0
  0
LINE
  5
19BB
  8
0
 62
     0
 10
80.799999928461204
 20
2.2227588691061149
 30
0.0
 11
85.535588079761027
 21
6.958347020405931
 31
0.0
  0
LINE
  5
19BC
  8
0
 62
     0
 10
85.49999992823561
 20
8.0452908840141717
 30
0.0
 11
85.514479544357854
 21
8.0597705001363877
 31
0.0
  0
LINE
  5
19BD
  8
0
 62
     0
 10
80.799999928461204
 20
3.3452908842397591
 30
0.0
 11
85.173267856044305
 21
7.7185588118228727
 31
0.0
  0
LINE
  5
19BE
  8
0
 62
     0
 10
85.49999992823561
 20
9.1678228991478008
 30
0.0
 11
85.502646573582055
 21
9.170469544494253
 31
0.0
  0
LINE
  5
19BF
  8
0
 62
     0
 10
80.799999928461204
 20
4.4678228993734024
 30
0.0
 11
84.050735840910676
 21
7.7185588118228798
 31
0.0
  0
LINE
  5
19C0
  8
0
 62
     0
 10
80.799999928461204
 20
5.5903549145070448
 30
0.0
 11
82.661886793148867
 21
7.4522417791947069
 31
0.0
  0
LINE
  5
19C1
  8
0
 62
     0
 10
80.799999928461204
 20
6.712886929640689
 30
0.0
 11
82.497122526331452
 21
8.4100095275109368
 31
0.0
  0
LINE
  5
19C2
  8
0
 62
     0
 10
80.799999928461204
 20
7.8354189447743394
 30
0.0
 11
81.633139795485505
 21
8.6685588117986327
 31
0.0
  0
ENDBLK
  5
19C4
  8
0
  0
BLOCK
  8
0
  2
*X32
 70
     1
 10
0.0
 20
0.0
 30
0.0
  3
*X32
  1

  0
LINE
  5
19C6
  8
0
 62
     0
 10
137.1999999277445
 20
7.6066300244956011
 30
0.0
 11
136.30662995224009
 21
8.5
 31
0.0
  0
LINE
  5
19C7
  8
0
 62
     0
 10
137.1999999277445
 20
6.4840980093619427
 30
0.0
 11
135.49999992774519
 21
8.1840980093612075
 31
0.0
  0
LINE
  5
19C8
  8
0
 62
     0
 10
137.19999992774439
 20
5.3615659942283003
 30
0.0
 11
135.311249300388
 21
7.2503166215848012
 31
0.0
  0
LINE
  5
19C9
  8
0
 62
     0
 10
132.49999992775469
 20
8.9390339790844635
 30
0.0
 11
132.49570541576591
 21
8.9433284910732098
 31
0.0
  0
LINE
  5
19CA
  8
0
 62
     0
 10
137.1999999277445
 20
4.2390339790946712
 30
0.0
 11
133.7204750950161
 21
7.7185588118230646
 31
0.0
  0
LINE
  5
19CB
  8
0
 62
     0
 10
132.49999992775469
 20
7.8165019639508131
 30
0.0
 11
132.48196320462461
 21
7.834538687080836
 31
0.0
  0
LINE
  5
19CC
  8
0
 62
     0
 10
137.19999992774439
 20
3.1165019639610132
 30
0.0
 11
132.59794307988241
 21
7.7185588118230513
 31
0.0
  0
LINE
  5
19CD
  8
0
 62
     0
 10
137.19996399697399
 20
1.9940058795978211
 30
0.0
 11
132.45899203794639
 21
6.7349778386253902
 31
0.0
  0
LINE
  5
19CE
  8
0
 62
     0
 10
135.322734177847
 20
2.7487036835911591
 30
0.0
 11
132.4270138912249
 21
5.6444239702133032
 31
0.0
  0
LINE
  5
19CF
  8
0
 62
     0
 10
136.57143786143681
 20
1.500000000001392
 30
0.0
 11
135.4987036113458
 21
2.572734250092338
 31
0.0
  0
LINE
  5
19D0
  8
0
 62
     0
 10
134.52955354578469
 20
2.4193523005198752
 30
0.0
 11
132.38624013750399
 21
4.5626657088005507
 31
0.0
  0
LINE
  5
19D1
  8
0
 62
     0
 10
134.4999999277546
 20
1.326373903416268
 30
0.0
 11
132.33687223510529
 21
3.4895015960655509
 31
0.0
  0
LINE
  5
19D2
  8
0
 62
     0
 10
134.20384181603731
 20
0.4999999999999716
 30
0.0
 11
132.27910235853949
 21
2.4247394574977932
 31
0.0
  0
LINE
  5
19D3
  8
0
 62
     0
 10
133.08130980090371
 20
0.4999999999999574
 30
0.0
 11
132.2131139782432
 21
1.3681958226604529
 31
0.0
  0
LINE
  5
19D4
  8
0
 62
     0
 10
136.20384181604271
 20
1.5000000000053999
 30
0.0
 11
137.19999992774439
 21
2.4961581117071598
 31
0.0
  0
LINE
  5
19D5
  8
0
 62
     0
 10
135.4999999277546
 20
1.9186901268510179
 30
0.0
 11
137.19999992774439
 21
3.6186901268408032
 31
0.0
  0
LINE
  5
19D6
  8
0
 62
     0
 10
134.0813098009036
 20
0.4999999999999716
 30
0.0
 11
134.4999999277546
 21
0.9186901268509899
 31
0.0
  0
LINE
  5
19D7
  8
0
 62
     0
 10
135.20877778577
 20
2.75
 30
0.0
 11
137.19999992774439
 21
4.741222141974446
 31
0.0
  0
LINE
  5
19D8
  8
0
 62
     0
 10
132.95877778577
 20
0.4999999999999716
 30
0.0
 11
134.4999999277546
 21
2.0412221419846328
 31
0.0
  0
LINE
  5
19D9
  8
0
 62
     0
 10
132.17693307708041
 20
0.8406873064439963
 30
0.0
 11
137.19999992774439
 21
5.8637541571080902
 31
0.0
  0
LINE
  5
19DA
  8
0
 62
     0
 10
132.25622675591001
 20
2.042513000407268
 30
0.0
 11
137.19999992774439
 21
6.9862861722417327
 31
0.0
  0
LINE
  5
19DB
  8
0
 62
     0
 10
132.32373287305299
 20
3.2325511326839509
 30
0.0
 11
137.19011451284661
 21
8.0989327724775801
 31
0.0
  0
LINE
  5
19DC
  8
0
 62
     0
 10
135.49999992775361
 20
7.5313502025181904
 30
0.0
 11
136.46864972523539
 21
8.4999999999999645
 31
0.0
  0
LINE
  5
19DD
  8
0
 62
     0
 10
132.37980922014691
 20
4.4111594949115371
 30
0.0
 11
135.21864972523539
 21
7.2499999999999778
 31
0.0
  0
LINE
  5
19DE
  8
0
 62
     0
 10
132.4247931313005
 20
5.5786754211987519
 30
0.0
 11
134.50785236040949
 21
7.661734650307749
 31
0.0
  0
LINE
  5
19DF
  8
0
 62
     0
 10
132.4590030801416
 20
6.7354173851735117
 30
0.0
 11
133.44214450679121
 21
7.7185588118230646
 31
0.0
  0
LINE
  5
19E0
  8
0
 62
     0
 10
132.4827401191578
 20
7.881686439323345
 30
0.0
 11
132.49999992775469
 21
7.8989462479201791
 31
0.0
  0
LINE
  5
19E1
  8
0
 62
     0
 10
132.4962891799839
 20
9.0177675152830616
 30
0.0
 11
132.49999992775469
 21
9.0214782630538153
 31
0.0
  0
ENDBLK
  5
19E3
  8
0
  0
BLOCK
  8
0
  2
*X33
 70
     1
 10
0.0
 20
0.0
 30
0.0
  3
*X33
  1

  0
LINE
  5
19E5
  8
0
 62
     0
 10
139.04522034171509
 20
11.58237381436828
 30
0.0
 11
138.9999999277546
 21
11.53715340040767
 31
0.0
  0
LINE
  5
19E6
  8
0
 62
     0
 10
139.23148746818339
 20
10.64610892570289
 30
0.0
 11
138.9999999277546
 21
10.414621385274041
 31
0.0
  0
LINE
  5
19E7
  8
0
 62
     0
 10
139.528752254436
 20
9.8208416968218657
 30
0.0
 11
138.9999999277546
 21
9.2920893701404097
 31
0.0
  0
LINE
  5
19E8
  8
0
 62
     0
 10
139.91916163998059
 20
9.0887190672328142
 30
0.0
 11
138.9999999277546
 21
8.1695573550067806
 31
0.0
  0
LINE
  5
19E9
  8
0
 62
     0
 10
140.39481471665371
 20
8.4418401287722205
 30
0.0
 11
138.9999999277546
 21
7.0470253398731444
 31
0.0
  0
LINE
  5
19EA
  8
0
 62
     0
 10
140.95430362486539
 20
7.8787970218502963
 30
0.0
 11
138.9999999277546
 21
5.9244933247395011
 31
0.0
  0
LINE
  5
19EB
  8
0
 62
     0
 10
141.60217573133551
 20
7.4041371131868132
 30
0.0
 11
138.9999999277546
 21
4.8019613096058933
 31
0.0
  0
LINE
  5
19EC
  8
0
 62
     0
 10
142.35075441076569
 20
7.0301837774833444
 30
0.0
 11
138.9999999277546
 21
3.679429294472242
 31
0.0
  0
LINE
  5
19ED
  8
0
 62
     0
 10
143.22638571836191
 20
6.783283069945881
 30
0.0
 11
138.99999992775469
 21
2.5568972793386271
 31
0.0
  0
LINE
  5
19EE
  8
0
 62
     0
 10
144.29073942841021
 20
6.7251047648605526
 30
0.0
 11
138.99849667115419
 21
1.4328620076045551
 31
0.0
  0
LINE
  5
19EF
  8
0
 62
     0
 10
148.9999999277546
 20
11.43436526420497
 30
0.0
 11
148.92363608602091
 21
11.35800142247129
 31
0.0
  0
LINE
  5
19F0
  8
0
 62
     0
 10
145.76608656589511
 20
7.0779198872117766
 30
0.0
 11
139.2593802864636
 21
0.5712136077803152
 31
0.0
  0
LINE
  5
19F1
  8
0
 62
     0
 10
148.99999992775469
 20
10.31183324907135
 30
0.0
 11
148.4399900696566
 21
9.7518233909733212
 31
0.0
  0
LINE
  5
19F2
  8
0
 62
     0
 10
148.9999999277546
 20
9.1893012339376838
 30
0.0
 11
140.5651190718103
 21
0.7544203779933625
 31
0.0
  0
LINE
  5
19F3
  8
0
 62
     0
 10
148.99999992775469
 20
8.0667692188040547
 30
0.0
 11
141.78591990860039
 21
0.8526891996497951
 31
0.0
  0
LINE
  5
19F4
  8
0
 62
     0
 10
148.9999999277546
 20
6.9442372036704043
 30
0.0
 11
142.9373813633313
 21
0.8816186392470939
 31
0.0
  0
LINE
  5
19F5
  8
0
 62
     0
 10
148.9999999277546
 20
5.8217051885367459
 30
0.0
 11
144.03036041298211
 21
0.8520656737641942
 31
0.0
  0
LINE
  5
19F6
  8
0
 62
     0
 10
148.9999999277546
 20
4.6991731734031168
 30
0.0
 11
145.07276903546659
 21
0.7719422811150382
 31
0.0
  0
LINE
  5
19F7
  8
0
 62
     0
 10
148.99999992775469
 20
3.5766411582694668
 30
0.0
 11
146.07057661514139
 21
0.6472178456562361
 31
0.0
  0
LINE
  5
19F8
  8
0
 62
     0
 10
148.9999999277546
 20
2.4541091431358311
 30
0.0
 11
147.02840957961459
 21
0.4825187949957482
 31
0.0
  0
LINE
  5
19F9
  8
0
 62
     0
 10
148.99999992775469
 20
1.33157712800218
 30
0.0
 11
147.9499301214025
 21
0.281507321650075
 31
0.0
  0
LINE
  5
19FA
  8
0
 62
     0
 10
148.9999999277546
 20
0.2090451128685444
 30
0.0
 11
148.8380860307399
 21
0.0471312158538595
 31
0.0
  0
LINE
  5
19FB
  8
0
 62
     0
 10
138.85117536343171
 20
0.848597711055433
 30
0.0
 11
139.1479855112338
 21
0.551787563253356
 31
0.0
  0
LINE
  5
19FC
  8
0
 62
     0
 10
138.9999999277546
 20
1.8223051618661681
 30
0.0
 11
140.1210510364688
 21
0.7012540531520131
 31
0.0
  0
LINE
  5
19FD
  8
0
 62
     0
 10
138.9999999277546
 20
2.944837176999811
 30
0.0
 11
141.13577765865739
 21
0.8090594460970095
 31
0.0
  0
LINE
  5
19FE
  8
0
 62
     0
 10
138.9999999277546
 20
4.0673691921334552
 30
0.0
 11
142.19726507094509
 21
0.8701040489429772
 31
0.0
  0
LINE
  5
19FF
  8
0
 62
     0
 10
138.9999999277546
 20
5.1899012072671118
 30
0.0
 11
143.31215802027569
 21
0.8777431147459537
 31
0.0
  0
LINE
  5
1A00
  8
0
 62
     0
 10
138.9999999277546
 20
6.3124332224007844
 30
0.0
 11
144.48937491648351
 21
0.82305823367183
 31
0.0
  0
LINE
  5
1A01
  8
0
 62
     0
 10
138.9999999277546
 20
7.4349652375344126
 30
0.0
 11
145.74135694743779
 21
0.6936082178511498
 31
0.0
  0
LINE
  5
1A02
  8
0
 62
     0
 10
138.9999999277546
 20
8.5574972526680995
 30
0.0
 11
147.08638223333469
 21
0.4711149470879974
 31
0.0
  0
LINE
  5
1A03
  8
0
 62
     0
 10
138.9999999277546
 20
9.6800292678017428
 30
0.0
 11
148.55332920463411
 21
0.1266999909222477
 31
0.0
  0
LINE
  5
1A04
  8
0
 62
     0
 10
142.96528944010191
 20
6.8372717705880737
 30
0.0
 11
148.99999992775469
 21
0.8025612829352866
 31
0.0
  0
LINE
  5
1A05
  8
0
 62
     0
 10
138.9999999277546
 20
10.802561282935381
 30
0.0
 11
139.2621674097137
 21
10.54039380097622
 31
0.0
  0
LINE
  5
1A06
  8
0
 62
     0
 10
144.20478292540011
 20
6.720310300423435
 30
0.0
 11
148.9999999277546
 21
1.9250932980689439
 31
0.0
  0
LINE
  5
1A07
  8
0
 62
     0
 10
138.99999992775449
 20
11.92509329806907
 30
0.0
 11
139.01437504553601
 21
11.910718180287629
 31
0.0
  0
LINE
  5
1A08
  8
0
 62
     0
 10
145.17469787669049
 20
6.8729273642667428
 30
0.0
 11
148.9999999277546
 21
3.047625313202587
 31
0.0
  0
LINE
  5
1A09
  8
0
 62
     0
 10
145.9901223838695
 20
7.1800348722213414
 30
0.0
 11
148.9999999277546
 21
4.1701573283362441
 31
0.0
  0
LINE
  5
1A0A
  8
0
 62
     0
 10
146.69249089581601
 20
7.6001983754084961
 30
0.0
 11
148.9999999277546
 21
5.2926893434698741
 31
0.0
  0
LINE
  5
1A0B
  8
0
 62
     0
 10
147.3007430413092
 20
8.1144782450489856
 30
0.0
 11
148.99999992775469
 21
6.4152213586035174
 31
0.0
  0
LINE
  5
1A0C
  8
0
 62
     0
 10
147.8233865753644
 20
8.7143667261274658
 30
0.0
 11
148.9999999277546
 21
7.537753373737174
 31
0.0
  0
LINE
  5
1A0D
  8
0
 62
     0
 10
148.2622930607119
 20
9.3979922559135076
 30
0.0
 11
148.99999992775469
 21
8.660285388870804
 31
0.0
  0
LINE
  5
1A0E
  8
0
 62
     0
 10
148.61341571772121
 20
10.16940161403785
 30
0.0
 11
148.9999999277546
 21
9.7828174040044473
 31
0.0
  0
LINE
  5
1A0F
  8
0
 62
     0
 10
148.86518577862859
 20
11.04016356826412
 30
0.0
 11
148.9999999277546
 21
10.905349419138091
 31
0.0
  0
LINE
  5
1A10
  8
0
 62
     0
 10
148.99279897802461
 20
12.03508238400177
 30
0.0
 11
148.9999999277546
 21
12.02788143427173
 31
0.0
  0
ENDBLK
  5
1A12
  8
0
  0
BLOCK
  8
0
  2
*X34
 70
     1
 10
0.0
 20
0.0
 30
0.0
  3
*X34
  1

  0
LINE
  5
1A14
  8
0
 62
     0
 10
142.4781050852865
 20
7.0695983546620926
 30
0.0
 11
142.5413133909349
 21
6.96011835781868
 31
0.0
  0
LINE
  5
1A15
  8
0
 62
     0
 10
141.28748008528649
 20
9.1318213474237862
 30
0.0
 11
141.68435508528651
 21
8.4444136831698842
 31
0.0
  0
LINE
  5
1A16
  8
0
 62
     0
 10
140.09685508528659
 20
11.19404434018548
 30
0.0
 11
140.4937300852865
 21
10.506636675931579
 31
0.0
  0
LINE
  5
1A17
  8
0
 62
     0
 10
139.0379713642611
 20
13.02808474430911
 30
0.0
 11
139.3031050852866
 21
12.568859668693269
 31
0.0
  0
LINE
  5
1A18
  8
0
 62
     0
 10
143.6687298007904
 20
7.7570058546620899
 30
0.0
 11
144.0656048007904
 21
7.0695981904081879
 31
0.0
  0
LINE
  5
1A19
  8
0
 62
     0
 10
142.47810480079039
 20
9.8192288474237852
 30
0.0
 11
142.87497980079041
 21
9.1318211831698832
 31
0.0
  0
LINE
  5
1A1A
  8
0
 62
     0
 10
141.28747980079041
 20
11.881451840185481
 30
0.0
 11
141.6843548007904
 21
11.19404417593158
 31
0.0
  0
LINE
  5
1A1B
  8
0
 62
     0
 10
140.09685480079051
 20
13.94367483294717
 30
0.0
 11
140.49372980079039
 21
13.25626716869327
 31
0.0
  0
LINE
  5
1A1C
  8
0
 62
     0
 10
144.8593545162943
 20
8.4444133546620872
 30
0.0
 11
145.2562295162943
 21
7.7570056904081852
 31
0.0
  0
LINE
  5
1A1D
  8
0
 62
     0
 10
143.66872951629429
 20
10.506636347423781
 30
0.0
 11
144.06560451629429
 21
9.8192286831698805
 31
0.0
  0
LINE
  5
1A1E
  8
0
 62
     0
 10
142.47810451629431
 20
12.56885934018548
 30
0.0
 11
142.8749795162943
 21
11.88145167593157
 31
0.0
  0
LINE
  5
1A1F
  8
0
 62
     0
 10
141.28747951629441
 20
14.63108233294717
 30
0.0
 11
141.68435451629441
 21
13.943674668693269
 31
0.0
  0
LINE
  5
1A20
  8
0
 62
     0
 10
140.37616464357191
 20
16.20952599419569
 30
0.0
 11
140.49372951629439
 21
16.005897661454959
 31
0.0
  0
LINE
  5
1A21
  8
0
 62
     0
 10
146.0499792317982
 20
9.1318208546620863
 30
0.0
 11
146.4468542317982
 21
8.4444131904081843
 31
0.0
  0
LINE
  5
1A22
  8
0
 62
     0
 10
144.85935423179819
 20
11.19404384742378
 30
0.0
 11
145.25622923179819
 21
10.50663618316988
 31
0.0
  0
LINE
  5
1A23
  8
0
 62
     0
 10
143.6687292317983
 20
13.25626684018547
 30
0.0
 11
144.0656042317982
 21
12.56885917593157
 31
0.0
  0
LINE
  5
1A24
  8
0
 62
     0
 10
142.47810423179831
 20
15.31848983294717
 30
0.0
 11
142.87497923179831
 21
14.63108216869327
 31
0.0
  0
LINE
  5
1A25
  8
0
 62
     0
 10
141.4198319966853
 20
17.151471112402259
 30
0.0
 11
141.6843542317983
 21
16.693305161454958
 31
0.0
  0
LINE
  5
1A26
  8
0
 62
     0
 10
147.24060394730211
 20
9.8192283546620818
 30
0.0
 11
147.6374789473021
 21
9.1318206904081798
 31
0.0
  0
LINE
  5
1A27
  8
0
 62
     0
 10
146.04997894730209
 20
11.88145134742377
 30
0.0
 11
146.44685394730209
 21
11.19404368316987
 31
0.0
  0
LINE
  5
1A28
  8
0
 62
     0
 10
144.85935394730211
 20
13.943674340185471
 30
0.0
 11
145.25622894730211
 21
13.25626667593157
 31
0.0
  0
LINE
  5
1A29
  8
0
 62
     0
 10
143.66872894730221
 20
16.005897332947161
 30
0.0
 11
144.06560394730221
 21
15.31848966869326
 31
0.0
  0
LINE
  5
1A2A
  8
0
 62
     0
 10
142.6604806727311
 20
17.752234571147859
 30
0.0
 11
142.8749789473022
 21
17.380712661454961
 31
0.0
  0
LINE
  5
1A2B
  8
0
 62
     0
 10
148.43122866280601
 20
10.50663585466209
 30
0.0
 11
148.61830667416129
 21
10.182607234015791
 31
0.0
  0
LINE
  5
1A2C
  8
0
 62
     0
 10
147.240603662806
 20
12.56885884742378
 30
0.0
 11
147.63747866280599
 21
11.881451183169879
 31
0.0
  0
LINE
  5
1A2D
  8
0
 62
     0
 10
146.04997866280601
 20
14.63108184018548
 30
0.0
 11
146.44685366280609
 21
13.94367417593158
 31
0.0
  0
LINE
  5
1A2E
  8
0
 62
     0
 10
144.85935366280609
 20
16.69330483294717
 30
0.0
 11
145.25622866280611
 21
16.00589716869327
 31
0.0
  0
LINE
  5
1A2F
  8
0
 62
     0
 10
148.43122837831001
 20
13.25626634742377
 30
0.0
 11
148.82810337831
 21
12.56885868316987
 31
0.0
  0
LINE
  5
1A30
  8
0
 62
     0
 10
147.24060337831
 20
15.31848934018546
 30
0.0
 11
147.63747837830999
 21
14.63108167593156
 31
0.0
  0
LINE
  5
1A31
  8
0
 62
     0
 10
146.04997837830999
 20
17.380712332947159
 30
0.0
 11
146.44685337831001
 21
16.693304668693258
 31
0.0
  0
LINE
  5
1A32
  8
0
 62
     0
 10
139.3030951279232
 20
12.568888413125469
 30
0.0
 11
139.00628919786629
 21
12.0548054622792
 31
0.0
  0
LINE
  5
1A33
  8
0
 62
     0
 10
140.4937201279231
 20
14.631111405887159
 30
0.0
 11
140.0968451279231
 21
13.943703741633261
 31
0.0
  0
LINE
  5
1A34
  8
0
 62
     0
 10
141.68434512792311
 20
16.693334398648851
 30
0.0
 11
141.28747012792309
 21
16.005926734394951
 31
0.0
  0
LINE
  5
1A35
  8
0
 62
     0
 10
140.4937198434271
 20
11.88148091312546
 30
0.0
 11
140.09684484342711
 21
11.194073248871559
 31
0.0
  0
LINE
  5
1A36
  8
0
 62
     0
 10
141.68434484342711
 20
13.94370390588716
 30
0.0
 11
141.28746984342709
 21
13.256296241633249
 31
0.0
  0
LINE
  5
1A37
  8
0
 62
     0
 10
142.87496984342701
 20
16.005926898648848
 30
0.0
 11
142.4780948434271
 21
15.31851923439495
 31
0.0
  0
LINE
  5
1A38
  8
0
 62
     0
 10
144.00183134728749
 20
17.95770827642864
 30
0.0
 11
143.668719843427
 21
17.380742227156642
 31
0.0
  0
LINE
  5
1A39
  8
0
 62
     0
 10
140.49371955893099
 20
9.1318504203637652
 30
0.0
 11
140.21983906125061
 21
8.6574754831790042
 31
0.0
  0
LINE
  5
1A3A
  8
0
 62
     0
 10
141.684344558931
 20
11.19407341312546
 30
0.0
 11
141.28746955893101
 21
10.50666574887156
 31
0.0
  0
LINE
  5
1A3B
  8
0
 62
     0
 10
142.87496955893101
 20
13.25629640588715
 30
0.0
 11
142.47809455893099
 21
12.56888874163325
 31
0.0
  0
LINE
  5
1A3C
  8
0
 62
     0
 10
144.06559455893091
 20
15.318519398648849
 30
0.0
 11
143.66871955893089
 21
14.63111173439494
 31
0.0
  0
LINE
  5
1A3D
  8
0
 62
     0
 10
145.25621955893089
 20
17.380742391410539
 30
0.0
 11
144.8593445589309
 21
16.693334727156639
 31
0.0
  0
LINE
  5
1A3E
  8
0
 62
     0
 10
141.68434427443489
 20
8.4444429203637643
 30
0.0
 11
141.2874692744349
 21
7.7570352561098632
 31
0.0
  0
LINE
  5
1A3F
  8
0
 62
     0
 10
142.8749692744349
 20
10.50666591312546
 30
0.0
 11
142.47809427443491
 21
9.8192582488715558
 31
0.0
  0
LINE
  5
1A40
  8
0
 62
     0
 10
144.06559427443489
 20
12.56888890588715
 30
0.0
 11
143.66871927443489
 21
11.881481241633249
 31
0.0
  0
LINE
  5
1A41
  8
0
 62
     0
 10
145.25621927443481
 20
14.63111189864884
 30
0.0
 11
144.85934427443479
 21
13.943704234394939
 31
0.0
  0
LINE
  5
1A42
  8
0
 62
     0
 10
146.4468442744348
 20
16.69333489141054
 30
0.0
 11
146.0499692744348
 21
16.005927227156629
 31
0.0
  0
LINE
  5
1A43
  8
0
 62
     0
 10
142.87496898993879
 20
7.7570354203637626
 30
0.0
 11
142.4780939899388
 21
7.0696277561098642
 31
0.0
  0
LINE
  5
1A44
  8
0
 62
     0
 10
144.0655939899388
 20
9.8192584131254552
 30
0.0
 11
143.66871898993881
 21
9.1318507488715568
 31
0.0
  0
LINE
  5
1A45
  8
0
 62
     0
 10
145.25621898993879
 20
11.881481405887151
 30
0.0
 11
144.85934398993879
 21
11.19407374163325
 31
0.0
  0
LINE
  5
1A46
  8
0
 62
     0
 10
146.44684398993871
 20
13.94370439864884
 30
0.0
 11
146.0499689899388
 21
13.25629673439494
 31
0.0
  0
LINE
  5
1A47
  8
0
 62
     0
 10
147.6374689899387
 20
16.005927391410541
 30
0.0
 11
147.2405939899387
 21
15.318519727156639
 31
0.0
  0
LINE
  5
1A48
  8
0
 62
     0
 10
144.06559370544269
 20
7.0696279203637689
 30
0.0
 11
143.86242080379941
 21
6.7177221319964433
 31
0.0
  0
LINE
  5
1A49
  8
0
 62
     0
 10
145.25621870544271
 20
9.1318509131254633
 30
0.0
 11
144.85934370544271
 21
8.4444432488715648
 31
0.0
  0
LINE
  5
1A4A
  8
0
 62
     0
 10
146.44684370544269
 20
11.19407390588715
 30
0.0
 11
146.04996870544269
 21
10.50666624163326
 31
0.0
  0
LINE
  5
1A4B
  8
0
 62
     0
 10
147.63746870544259
 20
13.25629689864885
 30
0.0
 11
147.24059370544271
 21
12.56888923439495
 31
0.0
  0
LINE
  5
1A4C
  8
0
 62
     0
 10
148.50899461834521
 20
14.76582405990896
 30
0.0
 11
148.4312187054426
 21
14.63111222715664
 31
0.0
  0
LINE
  5
1A4D
  8
0
 62
     0
 10
146.44684342094661
 20
8.4444434131254695
 30
0.0
 11
146.04996842094661
 21
7.7570357488715711
 31
0.0
  0
LINE
  5
1A4E
  8
0
 62
     0
 10
147.63746842094659
 20
10.506666405887159
 30
0.0
 11
147.2405934209466
 21
9.8192587416332646
 31
0.0
  0
LINE
  5
1A4F
  8
0
 62
     0
 10
148.8280934209466
 20
12.568889398648849
 30
0.0
 11
148.43121842094649
 21
11.88148173439496
 31
0.0
  0
LINE
  5
1A50
  8
0
 62
     0
 10
145.2562500000133
 20
7.7570299999850931
 30
0.0
 11
146.05000000001331
 21
7.7570299999850931
 31
0.0
  0
LINE
  5
1A51
  8
0
 62
     0
 10
142.8750000000133
 20
7.7570299999850931
 30
0.0
 11
143.66875000001329
 21
7.7570299999850931
 31
0.0
  0
LINE
  5
1A52
  8
0
 62
     0
 10
141.1007687474135
 20
7.7570299999850931
 30
0.0
 11
141.2875000000133
 21
7.7570299999850931
 31
0.0
  0
LINE
  5
1A53
  8
0
 62
     0
 10
147.63750000001329
 20
9.1318449999850984
 30
0.0
 11
148.10772746508241
 21
9.1318449999850984
 31
0.0
  0
LINE
  5
1A54
  8
0
 62
     0
 10
145.2562500000133
 20
9.1318449999850984
 30
0.0
 11
146.05000000001331
 21
9.1318449999850984
 31
0.0
  0
LINE
  5
1A55
  8
0
 62
     0
 10
142.8750000000133
 20
9.1318449999850984
 30
0.0
 11
143.66875000001329
 21
9.1318449999850984
 31
0.0
  0
LINE
  5
1A56
  8
0
 62
     0
 10
140.49375000001331
 20
9.1318449999850984
 30
0.0
 11
141.2875000000133
 21
9.1318449999850984
 31
0.0
  0
LINE
  5
1A57
  8
0
 62
     0
 10
147.63750000001329
 20
10.506659999985089
 30
0.0
 11
148.43125000001331
 21
10.506659999985089
 31
0.0
  0
LINE
  5
1A58
  8
0
 62
     0
 10
145.2562500000133
 20
10.506659999985089
 30
0.0
 11
146.05000000001331
 21
10.506659999985089
 31
0.0
  0
LINE
  5
1A59
  8
0
 62
     0
 10
142.8750000000133
 20
10.506659999985089
 30
0.0
 11
143.66875000001329
 21
10.506659999985089
 31
0.0
  0
LINE
  5
1A5A
  8
0
 62
     0
 10
140.49375000001331
 20
10.506659999985089
 30
0.0
 11
141.2875000000133
 21
10.506659999985089
 31
0.0
  0
LINE
  5
1A5B
  8
0
 62
     0
 10
147.63750000001329
 20
11.881474999985089
 30
0.0
 11
148.43125000001331
 21
11.881474999985089
 31
0.0
  0
LINE
  5
1A5C
  8
0
 62
     0
 10
145.2562500000133
 20
11.881474999985089
 30
0.0
 11
146.05000000001331
 21
11.881474999985089
 31
0.0
  0
LINE
  5
1A5D
  8
0
 62
     0
 10
142.8750000000133
 20
11.881474999985089
 30
0.0
 11
143.66875000001329
 21
11.881474999985089
 31
0.0
  0
LINE
  5
1A5E
  8
0
 62
     0
 10
140.49375000001331
 20
11.881474999985089
 30
0.0
 11
141.2875000000133
 21
11.881474999985089
 31
0.0
  0
LINE
  5
1A5F
  8
0
 62
     0
 10
147.63750000001329
 20
13.2562899999851
 30
0.0
 11
148.43125000001331
 21
13.2562899999851
 31
0.0
  0
LINE
  5
1A60
  8
0
 62
     0
 10
145.2562500000133
 20
13.2562899999851
 30
0.0
 11
146.05000000001331
 21
13.2562899999851
 31
0.0
  0
LINE
  5
1A61
  8
0
 62
     0
 10
142.8750000000133
 20
13.2562899999851
 30
0.0
 11
143.66875000001329
 21
13.2562899999851
 31
0.0
  0
LINE
  5
1A62
  8
0
 62
     0
 10
140.49375000001331
 20
13.2562899999851
 30
0.0
 11
141.2875000000133
 21
13.2562899999851
 31
0.0
  0
LINE
  5
1A63
  8
0
 62
     0
 10
147.63750000001329
 20
14.6311049999851
 30
0.0
 11
148.43125000001331
 21
14.6311049999851
 31
0.0
  0
LINE
  5
1A64
  8
0
 62
     0
 10
145.2562500000133
 20
14.6311049999851
 30
0.0
 11
146.05000000001331
 21
14.6311049999851
 31
0.0
  0
LINE
  5
1A65
  8
0
 62
     0
 10
142.8750000000133
 20
14.6311049999851
 30
0.0
 11
143.66875000001329
 21
14.6311049999851
 31
0.0
  0
LINE
  5
1A66
  8
0
 62
     0
 10
140.49375000001331
 20
14.6311049999851
 30
0.0
 11
141.2875000000133
 21
14.6311049999851
 31
0.0
  0
LINE
  5
1A67
  8
0
 62
     0
 10
147.63750000001329
 20
16.005919999985089
 30
0.0
 11
147.7877721817575
 21
16.005919999985089
 31
0.0
  0
LINE
  5
1A68
  8
0
 62
     0
 10
145.2562500000133
 20
16.005919999985089
 30
0.0
 11
146.05000000001331
 21
16.005919999985089
 31
0.0
  0
LINE
  5
1A69
  8
0
 62
     0
 10
142.8750000000133
 20
16.005919999985089
 30
0.0
 11
143.66875000001329
 21
16.005919999985089
 31
0.0
  0
LINE
  5
1A6A
  8
0
 62
     0
 10
140.49375000001331
 20
16.005919999985089
 30
0.0
 11
141.2875000000133
 21
16.005919999985089
 31
0.0
  0
LINE
  5
1A6B
  8
0
 62
     0
 10
145.2562500000133
 20
17.380734999985091
 30
0.0
 11
146.05000000001331
 21
17.380734999985091
 31
0.0
  0
LINE
  5
1A6C
  8
0
 62
     0
 10
142.8750000000133
 20
17.380734999985091
 30
0.0
 11
143.66875000001329
 21
17.380734999985091
 31
0.0
  0
ENDBLK
  5
1A6E
  8
0
  0
BLOCK
  8
0
  2
*X35
 70
     1
 10
0.0
 20
0.0
 30
0.0
  3
*X35
  1

  0
LINE
  5
1EA7
  8
0
 62
     0
 10
87.319848408775044
 20
-4.7999999999992609
 30
0.0
 11
87.99999992811999
 21
-4.1198484806543201
 31
0.0
  0
LINE
  5
1EA8
  8
0
 62
     0
 10
87.249999927768556
 20
-3.7473164658721059
 30
0.0
 11
87.999999928120005
 21
-2.9973164655206772
 31
0.0
  0
LINE
  5
1EA9
  8
0
 62
     0
 10
87.249999927769792
 20
-2.624784450737228
 30
0.0
 11
87.99999992811999
 21
-1.8747844503870319
 31
0.0
  0
LINE
  5
1EAA
  8
0
 62
     0
 10
87.249999927771029
 20
-1.502252435602361
 30
0.0
 11
87.999999928120005
 21
-0.7522524352533893
 31
0.0
  0
LINE
  5
1EAB
  8
0
 62
     0
 10
87.249999927772265
 20
-0.3797204204674838
 30
0.0
 11
87.99999992811999
 21
0.3702795798802541
 31
0.0
  0
LINE
  5
1EAC
  8
0
 62
     0
 10
87.249999927773473
 20
0.7428115946673879
 30
0.0
 11
87.999999928120005
 21
1.4928115950138989
 31
0.0
  0
LINE
  5
1EAD
  8
0
 62
     0
 10
87.249999927774724
 20
1.8653436098022651
 30
0.0
 11
87.99999992811999
 21
2.615343610147542
 31
0.0
  0
LINE
  5
1EAE
  8
0
 62
     0
 10
87.249999927775946
 20
2.9878756249371401
 30
0.0
 11
87.999999928120005
 21
3.7378756252811862
 31
0.0
  0
LINE
  5
1EAF
  8
0
 62
     0
 10
87.249999927777182
 20
4.1104076400720109
 30
0.0
 11
87.99999992811999
 21
4.8604076404148309
 31
0.0
  0
LINE
  5
1EB0
  8
0
 62
     0
 10
87.249999927778418
 20
5.232939655206887
 30
0.0
 11
87.999999928120005
 21
5.9829396555484751
 31
0.0
  0
LINE
  5
1EB1
  8
0
 62
     0
 10
87.249999927779655
 20
6.355471670341756
 30
0.0
 11
87.999999928120005
 21
7.1054716706821202
 31
0.0
  0
LINE
  5
1EB2
  8
0
 62
     0
 10
87.249999927780877
 20
7.478003685476633
 30
0.0
 11
87.771996242316177
 21
8.0000000000119336
 31
0.0
  0
LINE
  5
1EB3
  8
0
 62
     0
 10
87.249999927768414
 20
-3.879720419717974
 30
0.0
 11
87.99999992811999
 21
-4.6297204200695514
 31
0.0
  0
LINE
  5
1EB4
  8
0
 62
     0
 10
87.249999927769665
 20
-2.7571884045855621
 30
0.0
 11
87.999999928120005
 21
-3.5071884049359041
 31
0.0
  0
LINE
  5
1EB5
  8
0
 62
     0
 10
87.249999927770887
 20
-1.6346563894531461
 30
0.0
 11
87.99999992811999
 21
-2.384656389802259
 31
0.0
  0
LINE
  5
1EB6
  8
0
 62
     0
 10
87.249999927772109
 20
-0.5121243743207345
 30
0.0
 11
87.999999928120005
 21
-1.2621243746686159
 31
0.0
  0
LINE
  5
1EB7
  8
0
 62
     0
 10
87.249999927773317
 20
0.6104076408116832
 30
0.0
 11
87.99999992811999
 21
-0.1395923595349728
 31
0.0
  0
LINE
  5
1EB8
  8
0
 62
     0
 10
87.249999927774581
 20
1.732939655944095
 30
0.0
 11
87.999999928120005
 21
0.9829396555986704
 31
0.0
  0
LINE
  5
1EB9
  8
0
 62
     0
 10
87.249999927775789
 20
2.855471671076514
 30
0.0
 11
87.99999992811999
 21
2.1054716707323151
 31
0.0
  0
LINE
  5
1EBA
  8
0
 62
     0
 10
87.249999927777026
 20
3.9780036862089241
 30
0.0
 11
87.999999928120005
 21
3.228003685865958
 31
0.0
  0
LINE
  5
1EBB
  8
0
 62
     0
 10
87.249999927778262
 20
5.1005357013413457
 30
0.0
 11
87.999999928120005
 21
4.3505357009996048
 31
0.0
  0
LINE
  5
1EBC
  8
0
 62
     0
 10
87.249999927779484
 20
6.223067716473758
 30
0.0
 11
87.99999992811999
 21
5.473067716133249
 31
0.0
  0
LINE
  5
1EBD
  8
0
 62
     0
 10
87.249999927780735
 20
7.3455997316061694
 30
0.0
 11
87.999999928120005
 21
6.5955997312668933
 31
0.0
  0
LINE
  5
1EBE
  8
0
 62
     0
 10
87.718131674508555
 20
8.0000000000119851
 30
0.0
 11
87.99999992811999
 21
7.7181317464005383
 31
0.0
  0
ENDBLK
  5
1EC0
  8
0
  0
BLOCK
  8
0
  2
*X36
 70
     1
 10
0.0
 20
0.0
 30
0.0
  3
*X36
  1

  0
LINE
  5
1EC2
  8
0
 62
     0
 10
129.9999999281203
 20
-4.7760650557324773
 30
0.0
 11
130.74999992813261
 21
-4.0260650557201672
 31
0.0
  0
LINE
  5
1EC3
  8
0
 62
     0
 10
129.9999999281203
 20
-3.6535330405988331
 30
0.0
 11
130.74999992813139
 21
-2.9035330405877531
 31
0.0
  0
LINE
  5
1EC4
  8
0
 62
     0
 10
129.9999999281203
 20
-2.531001025465188
 30
0.0
 11
130.74999992813011
 21
-1.781001025455347
 31
0.0
  0
LINE
  5
1EC5
  8
0
 62
     0
 10
129.9999999281203
 20
-1.40846901033154
 30
0.0
 11
130.74999992812889
 21
-0.6584690103229322
 31
0.0
  0
LINE
  5
1EC6
  8
0
 62
     0
 10
129.9999999281203
 20
-0.2859369951978969
 30
0.0
 11
130.74999992812769
 21
0.4640630048094856
 31
0.0
  0
LINE
  5
1EC7
  8
0
 62
     0
 10
129.9999999281203
 20
0.8365950199357516
 30
0.0
 11
130.7499999281265
 21
1.586595019941899
 31
0.0
  0
LINE
  5
1EC8
  8
0
 62
     0
 10
129.9999999281203
 20
1.9591270350694121
 30
0.0
 11
130.74999992812519
 21
2.709127035074308
 31
0.0
  0
LINE
  5
1EC9
  8
0
 62
     0
 10
129.9999999281203
 20
3.0816590502030592
 30
0.0
 11
130.749999928124
 21
3.831659050206722
 31
0.0
  0
LINE
  5
1ECA
  8
0
 62
     0
 10
129.9999999281203
 20
4.2041910653367012
 30
0.0
 11
130.7499999281228
 21
4.9541910653391383
 31
0.0
  0
LINE
  5
1ECB
  8
0
 62
     0
 10
129.9999999281203
 20
5.326723080470348
 30
0.0
 11
130.7499999281215
 21
6.0767230804715409
 31
0.0
  0
LINE
  5
1ECC
  8
0
 62
     0
 10
129.9999999281203
 20
6.4492550956039914
 30
0.0
 11
130.7499999281203
 21
7.1992550956039549
 31
0.0
  0
LINE
  5
1ECD
  8
0
 62
     0
 10
129.9999999281203
 20
7.5717871107376382
 30
0.0
 11
130.42821281739481
 21
8.0000000000121183
 31
0.0
  0
LINE
  5
1ECE
  8
0
 62
     0
 10
129.9999999281203
 20
-3.9735038449914191
 30
0.0
 11
130.74999992813341
 21
-4.7235038450044859
 31
0.0
  0
LINE
  5
1ECF
  8
0
 62
     0
 10
129.9999999281203
 20
-2.8509718298577691
 30
0.0
 11
130.74999992813221
 21
-3.6009718298696209
 31
0.0
  0
LINE
  5
1ED0
  8
0
 62
     0
 10
129.9999999281203
 20
-1.728439814724126
 30
0.0
 11
130.7499999281309
 21
-2.4784398147347342
 31
0.0
  0
LINE
  5
1ED1
  8
0
 62
     0
 10
129.9999999281203
 20
-0.6059077995904865
 30
0.0
 11
130.74999992812971
 21
-1.3559077995998621
 31
0.0
  0
LINE
  5
1ED2
  8
0
 62
     0
 10
129.9999999281203
 20
0.5166242155431533
 30
0.0
 11
130.74999992812849
 21
-0.2333757844649895
 31
0.0
  0
LINE
  5
1ED3
  8
0
 62
     0
 10
129.9999999281203
 20
1.639156230676778
 30
0.0
 11
130.74999992812721
 21
0.8891562306698901
 31
0.0
  0
LINE
  5
1ED4
  8
0
 62
     0
 10
129.9999999281203
 20
2.7616882458104248
 30
0.0
 11
130.74999992812599
 21
2.0116882458047658
 31
0.0
  0
LINE
  5
1ED5
  8
0
 62
     0
 10
129.9999999281203
 20
3.884220260944065
 30
0.0
 11
130.74999992812479
 21
3.1342202609396348
 31
0.0
  0
LINE
  5
1ED6
  8
0
 62
     0
 10
129.9999999281203
 20
5.0067522760777123
 30
0.0
 11
130.74999992812349
 21
4.256752276074522
 31
0.0
  0
LINE
  5
1ED7
  8
0
 62
     0
 10
129.9999999281203
 20
6.1292842912113619
 30
0.0
 11
130.74999992812229
 21
5.3792842912094008
 31
0.0
  0
LINE
  5
1ED8
  8
0
 62
     0
 10
129.9999999281203
 20
7.2518163063449981
 30
0.0
 11
130.7499999281211
 21
6.5018163063442627
 31
0.0
  0
LINE
  5
1ED9
  8
0
 62
     0
 10
130.37434824958689
 20
8.0000000000120686
 30
0.0
 11
130.74999992811979
 21
7.6243483214791574
 31
0.0
  0
ENDBLK
  5
1EDB
  8
0
  0
BLOCK
  8
0
  2
*X37
 70
     1
 10
0.0
 20
0.0
 30
0.0
  3
*X37
  1

  0
LINE
  5
1EF8
  8
0
 62
     0
 10
87.319848408775044
 20
-4.79999999999926
 30
0.0
 11
87.99999992811999
 21
-4.1198484806543201
 31
0.0
  0
LINE
  5
1EF9
  8
0
 62
     0
 10
87.249999927768556
 20
-3.747316465872105
 30
0.0
 11
87.999999928120005
 21
-2.9973164655206772
 31
0.0
  0
LINE
  5
1EFA
  8
0
 62
     0
 10
87.249999927769792
 20
-2.6247844507372271
 30
0.0
 11
87.99999992811999
 21
-1.8747844503870319
 31
0.0
  0
LINE
  5
1EFB
  8
0
 62
     0
 10
87.249999927771029
 20
-1.5022524356023601
 30
0.0
 11
87.999999928120005
 21
-0.7522524352533893
 31
0.0
  0
LINE
  5
1EFC
  8
0
 62
     0
 10
87.249999927772265
 20
-0.3797204204674829
 30
0.0
 11
87.99999992811999
 21
0.3702795798802541
 31
0.0
  0
LINE
  5
1EFD
  8
0
 62
     0
 10
87.249999927773473
 20
0.7428115946673888
 30
0.0
 11
87.999999928120005
 21
1.4928115950138989
 31
0.0
  0
LINE
  5
1EFE
  8
0
 62
     0
 10
87.249999927774724
 20
1.865343609802266
 30
0.0
 11
87.99999992811999
 21
2.615343610147542
 31
0.0
  0
LINE
  5
1EFF
  8
0
 62
     0
 10
87.249999927775946
 20
2.987875624937141
 30
0.0
 11
87.999999928120005
 21
3.7378756252811862
 31
0.0
  0
LINE
  5
1F00
  8
0
 62
     0
 10
87.249999927777182
 20
4.1104076400720118
 30
0.0
 11
87.99999992811999
 21
4.8604076404148309
 31
0.0
  0
LINE
  5
1F01
  8
0
 62
     0
 10
87.249999927778418
 20
5.2329396552068879
 30
0.0
 11
87.999999928120005
 21
5.9829396555484751
 31
0.0
  0
LINE
  5
1F02
  8
0
 62
     0
 10
87.249999927779655
 20
6.3554716703417569
 30
0.0
 11
87.999999928120005
 21
7.1054716706821202
 31
0.0
  0
LINE
  5
1F03
  8
0
 62
     0
 10
87.249999927780877
 20
7.4780036854766339
 30
0.0
 11
87.771996242316177
 21
8.0000000000119336
 31
0.0
  0
LINE
  5
1F04
  8
0
 62
     0
 10
87.249999927768414
 20
-3.879720419717974
 30
0.0
 11
87.99999992811999
 21
-4.6297204200695514
 31
0.0
  0
LINE
  5
1F05
  8
0
 62
     0
 10
87.249999927769665
 20
-2.7571884045855621
 30
0.0
 11
87.999999928120005
 21
-3.5071884049359041
 31
0.0
  0
LINE
  5
1F06
  8
0
 62
     0
 10
87.249999927770887
 20
-1.6346563894531461
 30
0.0
 11
87.99999992811999
 21
-2.384656389802259
 31
0.0
  0
LINE
  5
1F07
  8
0
 62
     0
 10
87.249999927772109
 20
-0.5121243743207345
 30
0.0
 11
87.999999928120005
 21
-1.2621243746686159
 31
0.0
  0
LINE
  5
1F08
  8
0
 62
     0
 10
87.249999927773317
 20
0.6104076408116832
 30
0.0
 11
87.99999992811999
 21
-0.1395923595349728
 31
0.0
  0
LINE
  5
1F09
  8
0
 62
     0
 10
87.249999927774581
 20
1.732939655944095
 30
0.0
 11
87.999999928120005
 21
0.9829396555986704
 31
0.0
  0
LINE
  5
1F0A
  8
0
 62
     0
 10
87.249999927775789
 20
2.855471671076514
 30
0.0
 11
87.99999992811999
 21
2.1054716707323151
 31
0.0
  0
LINE
  5
1F0B
  8
0
 62
     0
 10
87.249999927777026
 20
3.9780036862089241
 30
0.0
 11
87.999999928120005
 21
3.228003685865958
 31
0.0
  0
LINE
  5
1F0C
  8
0
 62
     0
 10
87.249999927778262
 20
5.1005357013413457
 30
0.0
 11
87.999999928120005
 21
4.3505357009996048
 31
0.0
  0
LINE
  5
1F0D
  8
0
 62
     0
 10
87.249999927779484
 20
6.223067716473758
 30
0.0
 11
87.99999992811999
 21
5.473067716133249
 31
0.0
  0
LINE
  5
1F0E
  8
0
 62
     0
 10
87.249999927780735
 20
7.3455997316061694
 30
0.0
 11
87.999999928120005
 21
6.5955997312668933
 31
0.0
  0
LINE
  5
1F0F
  8
0
 62
     0
 10
87.718131674508555
 20
8.0000000000119851
 30
0.0
 11
87.99999992811999
 21
7.7181317464005383
 31
0.0
  0
ENDBLK
  5
1F11
  8
0
  0
BLOCK
  8
0
  2
*X38
 70
     1
 10
0.0
 20
0.0
 30
0.0
  3
*X38
  1

  0
LINE
  5
1F13
  8
0
 62
     0
 10
129.9999999281203
 20
-4.7760650557324773
 30
0.0
 11
130.74999992813261
 21
-4.0260650557201672
 31
0.0
  0
LINE
  5
1F14
  8
0
 62
     0
 10
129.9999999281203
 20
-3.6535330405988331
 30
0.0
 11
130.74999992813139
 21
-2.9035330405877531
 31
0.0
  0
LINE
  5
1F15
  8
0
 62
     0
 10
129.9999999281203
 20
-2.531001025465188
 30
0.0
 11
130.74999992813011
 21
-1.781001025455347
 31
0.0
  0
LINE
  5
1F16
  8
0
 62
     0
 10
129.9999999281203
 20
-1.40846901033154
 30
0.0
 11
130.74999992812889
 21
-0.6584690103229322
 31
0.0
  0
LINE
  5
1F17
  8
0
 62
     0
 10
129.9999999281203
 20
-0.2859369951978969
 30
0.0
 11
130.74999992812769
 21
0.4640630048094856
 31
0.0
  0
LINE
  5
1F18
  8
0
 62
     0
 10
129.9999999281203
 20
0.8365950199357516
 30
0.0
 11
130.7499999281265
 21
1.586595019941899
 31
0.0
  0
LINE
  5
1F19
  8
0
 62
     0
 10
129.9999999281203
 20
1.9591270350694121
 30
0.0
 11
130.74999992812519
 21
2.709127035074308
 31
0.0
  0
LINE
  5
1F1A
  8
0
 62
     0
 10
129.9999999281203
 20
3.0816590502030592
 30
0.0
 11
130.749999928124
 21
3.831659050206722
 31
0.0
  0
LINE
  5
1F1B
  8
0
 62
     0
 10
129.9999999281203
 20
4.2041910653367012
 30
0.0
 11
130.7499999281228
 21
4.9541910653391383
 31
0.0
  0
LINE
  5
1F1C
  8
0
 62
     0
 10
129.9999999281203
 20
5.326723080470348
 30
0.0
 11
130.7499999281215
 21
6.0767230804715409
 31
0.0
  0
LINE
  5
1F1D
  8
0
 62
     0
 10
129.9999999281203
 20
6.4492550956039914
 30
0.0
 11
130.7499999281203
 21
7.1992550956039549
 31
0.0
  0
LINE
  5
1F1E
  8
0
 62
     0
 10
129.9999999281203
 20
7.5717871107376382
 30
0.0
 11
130.42821281739481
 21
8.0000000000121183
 31
0.0
  0
LINE
  5
1F1F
  8
0
 62
     0
 10
129.9999999281203
 20
-3.9735038449914191
 30
0.0
 11
130.74999992813341
 21
-4.7235038450044859
 31
0.0
  0
LINE
  5
1F20
  8
0
 62
     0
 10
129.9999999281203
 20
-2.8509718298577691
 30
0.0
 11
130.74999992813221
 21
-3.6009718298696209
 31
0.0
  0
LINE
  5
1F21
  8
0
 62
     0
 10
129.9999999281203
 20
-1.728439814724126
 30
0.0
 11
130.7499999281309
 21
-2.4784398147347342
 31
0.0
  0
LINE
  5
1F22
  8
0
 62
     0
 10
129.9999999281203
 20
-0.6059077995904865
 30
0.0
 11
130.74999992812971
 21
-1.3559077995998621
 31
0.0
  0
LINE
  5
1F23
  8
0
 62
     0
 10
129.9999999281203
 20
0.5166242155431533
 30
0.0
 11
130.74999992812849
 21
-0.2333757844649895
 31
0.0
  0
LINE
  5
1F24
  8
0
 62
     0
 10
129.9999999281203
 20
1.639156230676778
 30
0.0
 11
130.74999992812721
 21
0.8891562306698901
 31
0.0
  0
LINE
  5
1F25
  8
0
 62
     0
 10
129.9999999281203
 20
2.7616882458104248
 30
0.0
 11
130.74999992812599
 21
2.0116882458047658
 31
0.0
  0
LINE
  5
1F26
  8
0
 62
     0
 10
129.9999999281203
 20
3.884220260944065
 30
0.0
 11
130.74999992812479
 21
3.1342202609396348
 31
0.0
  0
LINE
  5
1F27
  8
0
 62
     0
 10
129.9999999281203
 20
5.0067522760777123
 30
0.0
 11
130.74999992812349
 21
4.256752276074522
 31
0.0
  0
LINE
  5
1F28
  8
0
 62
     0
 10
129.9999999281203
 20
6.1292842912113619
 30
0.0
 11
130.74999992812229
 21
5.3792842912094008
 31
0.0
  0
LINE
  5
1F29
  8
0
 62
     0
 10
129.9999999281203
 20
7.2518163063449981
 30
0.0
 11
130.7499999281211
 21
6.5018163063442627
 31
0.0
  0
LINE
  5
1F2A
  8
0
 62
     0
 10
130.37434824958689
 20
8.0000000000120686
 30
0.0
 11
130.74999992811979
 21
7.6243483214791574
 31
0.0
  0
ENDBLK
  5
1F2C
  8
0
  0
BLOCK
  8
0
  2
*U39
 70
     1
 10
0.0
 20
0.0
 30
0.0
  3
*U39
  1

  0
TEXT
  5
2006
  8
SAPA_MATT
 62
     2
 10
179.99999985600721
 20
25.04999999999821
 30
0.0
 40
3.5
  1
65
 50
90.0
  7
ISO
  0
ENDBLK
  5
2008
  8
0
  0
BLOCK
  8
0
  2
*U40
 70
     1
 10
0.0
 20
0.0
 30
0.0
  3
*U40
  1

  0
TEXT
  5
200A
  8
SAPA_MATT
 62
     2
 10
167.99999985600721
 20
27.550000000000061
 30
0.0
 40
3.5
  1
60
 50
90.0
  7
ISO
  0
ENDBLK
  5
200C
  8
0
  0
BLOCK
  8
0
  2
*U41
 70
     1
 10
0.0
 20
0.0
 30
0.0
  3
*U41
  1

  0
TEXT
  5
200E
  8
SAPA_MATT
 62
     2
 10
73.17499992800353
 20
-54.999999999999993
 30
0.0
 40
3.5
  1
125
  7
ISO
  0
ENDBLK
  5
2010
  8
0
  0
BLOCK
  8
0
  2
*U42
 70
     1
 10
0.0
 20
0.0
 30
0.0
  3
*U42
  1

  0
TEXT
  5
2012
  8
SAPA_MATT
 62
     2
 10
132.77499992771521
 20
-43.000000000000007
 30
0.0
 40
3.5
  1
6.5
  7
ISO
  0
ENDBLK
  5
2014
  8
0
  0
ENDSEC
  0
SECTION
  2
ENTITIES
  0
TEXT
  5
70A
  8
SAPA_ARTIKELNR
 10
12.34545056576661
 20
24.188039105301709
 30
0.0000000048844772
 40
3.5
  1
D8K025
 50
90.0
  7
ISO
  0
TEXT
  5
722
  8
SAPA_ARTIKELNR
 10
84.357529844954854
 20
-17.020754006328829
 30
0.0000000048844772
 40
3.5
  1
D8V005
 50
90.0
  7
ISO
  0
POLYLINE
  5
CBE
  8
SAPA_GLAS
 66
     1
 10
0.0
 20
0.0
 30
0.0
 70
     1
  0
VERTEX
  5
199B
  8
SAPA_GLAS
 10
83.499999928235596
 20
7.7185588118228727
 30
0.0
  0
VERTEX
  5
199C
  8
SAPA_GLAS
 10
85.49999992823561
 20
7.7185588118228727
 30
0.0
  0
VERTEX
  5
199D
  8
SAPA_GLAS
 10
85.49999992823561
 20
19.71855881182287
 30
0.0
  0
VERTEX
  5
199E
  8
SAPA_GLAS
 10
83.499999928235596
 20
19.71855881182287
 30
0.0
  0
SEQEND
  5
199F
  8
SAPA_GLAS
  0
POLYLINE
  5
CBF
  8
SAPA_GLAS
 66
     1
 10
0.0
 20
0.0
 30
0.0
 70
     1
  0
VERTEX
  5
19A0
  8
SAPA_GLAS
 10
134.49999992775469
 20
7.7185588118230584
 30
0.0
  0
VERTEX
  5
19A1
  8
SAPA_GLAS
 10
132.49999992775469
 20
7.7185588118230584
 30
0.0
  0
VERTEX
  5
19A2
  8
SAPA_GLAS
 10
132.49999992775469
 20
19.718558811823058
 30
0.0
  0
VERTEX
  5
19A3
  8
SAPA_GLAS
 10
134.49999992775469
 20
19.718558811823058
 30
0.0
  0
SEQEND
  5
19A4
  8
SAPA_GLAS
  0
LINE
  5
CEA
  8
SAPA_GLAS
 10
134.49999992775469
 20
0.4999999999999716
 30
0.0
 11
132.1524198819591
 21
0.4999999999999716
 31
0.0
  0
LINE
  5
CEB
  8
SAPA_GLAS
 10
82.999999928123614
 20
0.1685588117986043
 30
0.0
 11
85.872291608869318
 21
0.1685588117986043
 31
0.0
  0
INSERT
  5
146C
  8
SAPA_GLAS
  6
CONTINUOUS
  2
*X31
 10
0.0
 20
0.0
 30
0.0
1001
ACAD
1000
HATCH
1002
{
1070
    19
1000
ANSI37
1040
0.25
1040
0.0
1000
R14_HATCH_DATA
1000
146C
1011
1.0
1021
0.0
1031
0.0
1021
0.0
1031
0.0
1011
0.0
1021
0.0
1031
0.0
1021
1.0
1031
0.0
1011
0.0
1021
0.0
1031
0.0
1021
0.0
1031
1.0
1040
0.0
1010
0.0
1020
0.0
1030
1.0
1000
ANSI37
1070
     0
1070
     0
1071
        1
1071
        7
1070
     1
1070
     1
1071
       23
1040
83.499999928458294
1040
2.4185588117986319
1040
0.0
1040
83.499999928457385
1040
0.6685588117986328
1040
-0.4142135623727038
1040
82.999999928123614
1040
0.1685588117986043
1040
0.0
1040
85.872291609133285
1040
0.1685588117986043
1040
-0.0189269460904712
1040
85.49999992823561
1040
10.000000000187489
1040
0.0
1040
85.49999992823561
1040
7.7185588118228718
1040
0.0
1040
83.499999928235596
1040
7.7185588118228736
1040
0.0
1040
83.499999928235596
1040
7.9185588117986319
1040
-0.4142134162166033
1040
83.000000177740375
1040
7.418558811798694
1040
0.0
1040
82.999999928458294
1040
7.4185588117986319
1040
0.0
1040
82.799999928458476
1040
7.4185588117986319
1040
-0.4142135623730951
1040
82.499999928458294
1040
7.7185588117988138
1040
0.0
1040
82.499999928458294
1040
8.368558811798664
1040
0.4142135623730952
1040
82.199999928457189
1040
8.6685588117986327
1040
0.0
1040
81.299999928461204
1040
8.6685588117986327
1040
0.4142135623730951
1040
80.799999928461204
1040
8.1685588117986327
1040
0.0
1040
80.799999928461204
1040
2.1685588117986461
1040
0.4142135623730951
1040
81.299999928461204
1040
1.6685588117986321
1040
0.0
1040
82.199999928457189
1040
1.6685588117986321
1040
0.4142135623730951
1040
82.499999928458294
1040
1.968558811798828
1040
0.0
1040
82.499999928458294
1040
2.618558811798692
1040
-0.4142135623730948
1040
82.799999928458476
1040
2.9185588117986319
1040
0.0
1040
82.999999928458294
1040
2.9185588117986319
1040
-0.4142135623730951
1071
        0
1070
     0
1070
     1
1040
0.0
1040
0.25
1070
     0
1070
     2
1040
0.7853981633974483
1040
0.0
1040
0.0
1040
-0.5612660075668221
1040
0.5612660075668221
1070
     0
1040
2.3561944901923439
1040
0.0
1040
0.0
1040
-0.5612660075668221
1040
-0.5612660075668221
1070
     0
1040
0.0251734658321627
1071
        1
1040
83.175600494567206
1040
5.0388410412189719
1040
0.0
1002
}
  0
INSERT
  5
1575
  8
SAPA_GLAS
  6
CONTINUOUS
  2
*X32
 10
0.0
 20
0.0
 30
0.0
1001
ACAD
1000
HATCH
1002
{
1070
    19
1000
ANSI37
1040
0.25
1040
0.0
1000
R14_HATCH_DATA
1000
1575
1011
1.0
1021
0.0
1031
0.0
1021
0.0
1031
0.0
1011
0.0
1021
0.0
1031
0.0
1021
1.0
1031
0.0
1011
0.0
1021
0.0
1031
0.0
1021
0.0
1031
1.0
1040
0.0
1010
0.0
1020
0.0
1030
1.0
1000
ANSI37
1070
     0
1070
     0
1071
        1
1071
        7
1070
     1
1070
     1
1071
       20
1040
134.9999999277546
1040
7.2499999999999778
1040
-0.3959013923895183
1040
134.5009894552332
1040
7.7185588118230584
1040
0.0
1040
132.49999992775469
1040
7.7185588118230584
1040
0.0
1040
132.49999992775469
1040
10.00000000018759
1040
-0.018287568564728
1040
132.15241988216329
1040
0.4999999999999716
1040
0.0
1040
134.4999999277546
1040
0.4999999999999717
1040
0.0
1040
134.4999999277546
1040
2.249999999999992
1040
-0.4142135623731036
1040
134.9999999277546
1040
2.749999999999992
1040
0.0
1040
135.29999992775029
1040
2.749999999999992
1040
-0.4142135623730641
1040
135.49999992775469
1040
2.5500000000029028
1040
0.0
1040
135.49999992775469
1040
1.70000000000072
1040
0.414213562373064
1040
135.69999992774439
1040
1.5000000000109059
1040
0.0
1040
136.69999992774439
1040
1.499999999999992
1040
0.4142135623731033
1040
137.19999992774439
1040
1.999999999999992
1040
0.0
1040
137.19999992774439
1040
7.9999999999999778
1040
0.4142135623731036
1040
136.69999992774439
1040
8.4999999999999787
1040
0.0
1040
135.69999992774439
1040
8.4999999999999787
1040
0.4142135623730533
1040
135.49999992774369
1040
8.3000000000029033
1040
0.0
1040
135.49999992775469
1040
7.4500000000007196
1040
-0.4142135623730744
1040
135.29999992775029
1040
7.2499999999999778
1040
0.0
1071
        0
1070
     0
1070
     1
1040
0.0
1040
0.25
1070
     0
1070
     2
1040
0.7853981633974483
1040
0.0
1040
0.0
1040
-0.5612660075668221
1040
0.5612660075668221
1070
     0
1040
2.3561944901923439
1040
0.0
1040
0.0
1040
-0.5612660075668221
1040
-0.5612660075668221
1070
     0
1040
0.0355597795489735
1071
        1
1040
134.9675510463272
1040
5.1301393214851032
1040
0.0
1002
}
  0
INSERT
  5
163C
  8
SAPA_ANSLUTNING
  6
CONTINUOUS
  2
*X33
 10
0.0
 20
0.0
 30
0.0
1001
ACAD
1000
HATCH
1002
{
1070
    19
1000
ANSI37
1040
0.25
1040
0.0
1000
R14_HATCH_DATA
1000
163C
1011
1.0
1021
0.0
1031
0.0
1021
0.0
1031
0.0
1011
0.0
1021
0.0
1031
0.0
1021
1.0
1031
0.0
1011
0.0
1021
0.0
1031
0.0
1021
0.0
1031
1.0
1040
0.0
1010
0.0
1020
0.0
1030
1.0
1000
ANSI37
1070
     0
1070
     0
1071
        1
1071
        5
1071
        6
1070
     2
1040
137.4999999277546
1040
1.499999999985149
1040
1.4999999999999989
1040
5.49778714378209
1040
6.2831853071795569
1070
     1
1070
     1
1040
138.9999999277546
1040
1.499999999985107
1040
138.99999992775449
1040
12.33665123667563
1070
     3
1040
143.9999999277546
1040
12.33665123667595
1040
0.0
1040
5.6210574168242138
1040
0.8895123513655372
1040
1.5707963267948959
1040
2.144309431217978
1070
     1
1070
     3
1040
143.9999999277546
1040
12.33665123667595
1040
0.0
1040
5.6210574168242138
1040
0.8895123513655372
1040
2.144309431217978
1040
4.7123889803846888
1070
     1
1070
     1
1040
148.9999999277546
1040
12.33665123667531
1040
148.9999999277546
1040
0.0000000000000995
1070
     2
1040
142.90216751658309
1040
-20.64672129990231
1040
21.528368738726542
1040
1.2836189008757071
1040
1.773853352005716
1070
     1
1071
        0
1070
     0
1070
     1
1040
0.0
1040
0.25
1070
     0
1070
     2
1040
5.4977871437821371
1040
0.0000000000133866
1040
59.999999999985093
1040
-0.5612660075668221
1040
-0.5612660075668221
1070
     0
1040
3.926990816987241
1040
0.0000000000133866
1040
59.999999999985093
1040
-0.5612660075668221
1040
0.5612660075668221
1070
     0
1040
0.0591690278051155
1071
        1
1040
142.998676347003
1040
3.5796352870592041
1040
0.0
1002
}
  0
LINE
  5
163D
  8
SAPA_ANSLUTNING
 10
13.99999999999986
 20
75.000000000005556
 30
0.0
 11
148.9999999277546
 21
75.000000000005528
 31
0.0
  0
LINE
  5
163E
  8
SAPA_ANSLUTNING
 10
148.9999999277546
 20
0.0000000000000995
 30
0.0
 11
194.00325593441289
 21
0.0000000000000853
 31
0.0
  0
LINE
  5
163F
  8
SAPA_ANSLUTNING
 10
148.9999999277546
 20
75.000000000005528
 30
0.0
 11
148.9999999277546
 21
0.0000000000000995
 31
0.0
  0
ARC
  5
1640
  8
SAPA_ANSLUTNING
 10
142.90216751658309
 20
-20.646721299902438
 30
0.0
 40
21.52836873872667
 50
73.545945523399851
 51
101.6343105450598
  0
INSERT
  5
1641
  8
SAPA_ANSLUTNING
  6
CONTINUOUS
  2
*X34
 10
0.0
 20
0.0
 30
0.0
1001
ACAD
1000
HATCH
1002
{
1070
    19
1000
HEX
1040
0.25
1040
0.0
1000
ASC_BOUNDS
1070
     1
1070
     1
1070
     1
1005
1642
1000
ASC_SEEDPOINT
1011
144.24210993782921
1021
0.0
1031
0.0
1021
12.21831354761923
1031
0.0
1000
R14_HATCH_DATA
1000
1641
1011
1.0
1021
0.0
1031
0.0
1021
0.0
1031
0.0
1011
0.0
1021
0.0
1031
0.0
1021
1.0
1031
0.0
1011
0.0
1021
0.0
1031
0.0
1021
0.0
1031
1.0
1040
0.0
1010
0.0
1020
0.0
1030
1.0
1000
HEX
1070
     0
1070
     1
1071
        1
1071
        5
1071
        1
1070
     3
1040
143.9999999277546
1040
12.33665123667595
1040
0.0
1040
5.6210574168242138
1040
0.8895123513655372
1040
0.0
1040
6.2831853071795862
1070
     0
1071
        1
1005
1642
1070
     0
1070
     1
1040
0.0
1040
0.25
1070
     0
1070
     3
1040
0.0
1040
0.0000000000133866
1040
59.999999999985093
1040
0.0
1040
-1.374814999999999
1070
     2
1040
0.79375
1040
-1.587499999999999
1040
4.1887902047863914
1040
0.0000000000133866
1040
59.999999999985093
1040
-1.190624715503902
1040
0.6874074999999996
1070
     2
1040
0.7937499999999993
1040
-1.5874999999999979
1040
5.2359877559829879
1040
0.7937500000133753
1040
59.999999999985093
1040
-1.190624715503902
1040
-0.6874075000000001
1070
     2
1040
0.79375
1040
-1.587499999999999
1040
0.0591690278051155
1071
        1
1040
144.24210993782921
1040
12.21831354761923
1040
0.0
1002
}
  0
POLYLINE
  5
1642
  8
SAPA_ANSLUTNING
 10
143.9999999277546
 20
17.957708653500163
 30
0.0
 66
     1
 70
     8
  0
VERTEX
  8
SAPA_ANSLUTNING
  5
2018
 10
144.000
 20
17.9577
 30
0.000000
  70
    32
  0
VERTEX
  8
SAPA_ANSLUTNING
  5
2019
 10
144.245
 20
17.9509
 30
0.000000
  70
    32
  0
VERTEX
  8
SAPA_ANSLUTNING
  5
201A
 10
144.490
 20
17.9306
 30
0.000000
  70
    32
  0
VERTEX
  8
SAPA_ANSLUTNING
  5
201B
 10
144.734
 20
17.8969
 30
0.000000
  70
    32
  0
VERTEX
  8
SAPA_ANSLUTNING
  5
201C
 10
144.975
 20
17.8497
 30
0.000000
  70
    32
  0
VERTEX
  8
SAPA_ANSLUTNING
  5
201D
 10
145.215
 20
17.7893
 30
0.000000
  70
    32
  0
VERTEX
  8
SAPA_ANSLUTNING
  5
201E
 10
145.451
 20
17.7157
 30
0.000000
  70
    32
  0
VERTEX
  8
SAPA_ANSLUTNING
  5
201F
 10
145.684
 20
17.6291
 30
0.000000
  70
    32
  0
VERTEX
  8
SAPA_ANSLUTNING
  5
2020
 10
145.913
 20
17.5298
 30
0.000000
  70
    32
  0
VERTEX
  8
SAPA_ANSLUTNING
  5
2021
 10
146.138
 20
17.4180
 30
0.000000
  70
    32
  0
VERTEX
  8
SAPA_ANSLUTNING
  5
2022
 10
146.357
 20
17.2940
 30
0.000000
  70
    32
  0
VERTEX
  8
SAPA_ANSLUTNING
  5
2023
 10
146.571
 20
17.1580
 30
0.000000
  70
    32
  0
VERTEX
  8
SAPA_ANSLUTNING
  5
2024
 10
146.778
 20
17.0104
 30
0.000000
  70
    32
  0
VERTEX
  8
SAPA_ANSLUTNING
  5
2025
 10
146.978
 20
16.8515
 30
0.000000
  70
    32
  0
VERTEX
  8
SAPA_ANSLUTNING
  5
2026
 10
147.172
 20
16.6818
 30
0.000000
  70
    32
  0
VERTEX
  8
SAPA_ANSLUTNING
  5
2027
 10
147.358
 20
16.5016
 30
0.000000
  70
    32
  0
VERTEX
  8
SAPA_ANSLUTNING
  5
2028
 10
147.536
 20
16.3113
 30
0.000000
  70
    32
  0
VERTEX
  8
SAPA_ANSLUTNING
  5
2029
 10
147.705
 20
16.1115
 30
0.000000
  70
    32
  0
VERTEX
  8
SAPA_ANSLUTNING
  5
202A
 10
147.865
 20
15.9026
 30
0.000000
  70
    32
  0
VERTEX
  8
SAPA_ANSLUTNING
  5
202B
 10
148.016
 20
15.6851
 30
0.000000
  70
    32
  0
VERTEX
  8
SAPA_ANSLUTNING
  5
202C
 10
148.157
 20
15.4595
 30
0.000000
  70
    32
  0
VERTEX
  8
SAPA_ANSLUTNING
  5
202D
 10
148.289
 20
15.2265
 30
0.000000
  70
    32
  0
VERTEX
  8
SAPA_ANSLUTNING
  5
202E
 10
148.410
 20
14.9864
 30
0.000000
  70
    32
  0
VERTEX
  8
SAPA_ANSLUTNING
  5
202F
 10
148.520
 20
14.7400
 30
0.000000
  70
    32
  0
VERTEX
  8
SAPA_ANSLUTNING
  5
2030
 10
148.619
 20
14.4877
 30
0.000000
  70
    32
  0
VERTEX
  8
SAPA_ANSLUTNING
  5
2031
 10
148.708
 20
14.2303
 30
0.000000
  70
    32
  0
VERTEX
  8
SAPA_ANSLUTNING
  5
2032
 10
148.785
 20
13.9684
 30
0.000000
  70
    32
  0
VERTEX
  8
SAPA_ANSLUTNING
  5
2033
 10
148.850
 20
13.7025
 30
0.000000
  70
    32
  0
VERTEX
  8
SAPA_ANSLUTNING
  5
2034
 10
148.904
 20
13.4333
 30
0.000000
  70
    32
  0
VERTEX
  8
SAPA_ANSLUTNING
  5
2035
 10
148.946
 20
13.1614
 30
0.000000
  70
    32
  0
VERTEX
  8
SAPA_ANSLUTNING
  5
2036
 10
148.976
 20
12.8876
 30
0.000000
  70
    32
  0
VERTEX
  8
SAPA_ANSLUTNING
  5
2037
 10
148.994
 20
12.6125
 30
0.000000
  70
    32
  0
VERTEX
  8
SAPA_ANSLUTNING
  5
2038
 10
149.000
 20
12.3367
 30
0.000000
  70
    32
  0
VERTEX
  8
SAPA_ANSLUTNING
  5
2039
 10
148.994
 20
12.0608
 30
0.000000
  70
    32
  0
VERTEX
  8
SAPA_ANSLUTNING
  5
203A
 10
148.976
 20
11.7857
 30
0.000000
  70
    32
  0
VERTEX
  8
SAPA_ANSLUTNING
  5
203B
 10
148.946
 20
11.5119
 30
0.000000
  70
    32
  0
VERTEX
  8
SAPA_ANSLUTNING
  5
203C
 10
148.904
 20
11.2400
 30
0.000000
  70
    32
  0
VERTEX
  8
SAPA_ANSLUTNING
  5
203D
 10
148.850
 20
10.9708
 30
0.000000
  70
    32
  0
VERTEX
  8
SAPA_ANSLUTNING
  5
203E
 10
148.785
 20
10.7049
 30
0.000000
  70
    32
  0
VERTEX
  8
SAPA_ANSLUTNING
  5
203F
 10
148.708
 20
10.4430
 30
0.000000
  70
    32
  0
VERTEX
  8
SAPA_ANSLUTNING
  5
2040
 10
148.619
 20
10.1856
 30
0.000000
  70
    32
  0
VERTEX
  8
SAPA_ANSLUTNING
  5
2041
 10
148.520
 20
9.93334
 30
0.000000
  70
    32
  0
VERTEX
  8
SAPA_ANSLUTNING
  5
2042
 10
148.410
 20
9.68690
 30
0.000000
  70
    32
  0
VERTEX
  8
SAPA_ANSLUTNING
  5
2043
 10
148.289
 20
9.44685
 30
0.000000
  70
    32
  0
VERTEX
  8
SAPA_ANSLUTNING
  5
2044
 10
148.157
 20
9.21376
 30
0.000000
  70
    32
  0
VERTEX
  8
SAPA_ANSLUTNING
  5
2045
 10
148.016
 20
8.98819
 30
0.000000
  70
    32
  0
VERTEX
  8
SAPA_ANSLUTNING
  5
2046
 10
147.865
 20
8.77069
 30
0.000000
  70
    32
  0
VERTEX
  8
SAPA_ANSLUTNING
  5
2047
 10
147.705
 20
8.56178
 30
0.000000
  70
    32
  0
VERTEX
  8
SAPA_ANSLUTNING
  5
2048
 10
147.536
 20
8.36196
 30
0.000000
  70
    32
  0
VERTEX
  8
SAPA_ANSLUTNING
  5
2049
 10
147.358
 20
8.17172
 30
0.000000
  70
    32
  0
VERTEX
  8
SAPA_ANSLUTNING
  5
204A
 10
147.172
 20
7.99152
 30
0.000000
  70
    32
  0
VERTEX
  8
SAPA_ANSLUTNING
  5
204B
 10
146.978
 20
7.82178
 30
0.000000
  70
    32
  0
VERTEX
  8
SAPA_ANSLUTNING
  5
204C
 10
146.778
 20
7.66291
 30
0.000000
  70
    32
  0
VERTEX
  8
SAPA_ANSLUTNING
  5
204D
 10
146.571
 20
7.51531
 30
0.000000
  70
    32
  0
VERTEX
  8
SAPA_ANSLUTNING
  5
204E
 10
146.357
 20
7.37932
 30
0.000000
  70
    32
  0
VERTEX
  8
SAPA_ANSLUTNING
  5
204F
 10
146.138
 20
7.25528
 30
0.000000
  70
    32
  0
VERTEX
  8
SAPA_ANSLUTNING
  5
2050
 10
145.913
 20
7.14347
 30
0.000000
  70
    32
  0
VERTEX
  8
SAPA_ANSLUTNING
  5
2051
 10
145.684
 20
7.04418
 30
0.000000
  70
    32
  0
VERTEX
  8
SAPA_ANSLUTNING
  5
2052
 10
145.451
 20
6.95763
 30
0.000000
  70
    32
  0
VERTEX
  8
SAPA_ANSLUTNING
  5
2053
 10
145.215
 20
6.88405
 30
0.000000
  70
    32
  0
VERTEX
  8
SAPA_ANSLUTNING
  5
2054
 10
144.975
 20
6.82360
 30
0.000000
  70
    32
  0
VERTEX
  8
SAPA_ANSLUTNING
  5
2055
 10
144.734
 20
6.77643
 30
0.000000
  70
    32
  0
VERTEX
  8
SAPA_ANSLUTNING
  5
2056
 10
144.490
 20
6.74266
 30
0.000000
  70
    32
  0
VERTEX
  8
SAPA_ANSLUTNING
  5
2057
 10
144.245
 20
6.72236
 30
0.000000
  70
    32
  0
VERTEX
  8
SAPA_ANSLUTNING
  5
2058
 10
144.000
 20
6.71559
 30
0.000000
  70
    32
  0
VERTEX
  8
SAPA_ANSLUTNING
  5
2059
 10
143.755
 20
6.72236
 30
0.000000
  70
    32
  0
VERTEX
  8
SAPA_ANSLUTNING
  5
205A
 10
143.510
 20
6.74266
 30
0.000000
  70
    32
  0
VERTEX
  8
SAPA_ANSLUTNING
  5
205B
 10
143.266
 20
6.77643
 30
0.000000
  70
    32
  0
VERTEX
  8
SAPA_ANSLUTNING
  5
205C
 10
143.025
 20
6.82360
 30
0.000000
  70
    32
  0
VERTEX
  8
SAPA_ANSLUTNING
  5
205D
 10
142.785
 20
6.88405
 30
0.000000
  70
    32
  0
VERTEX
  8
SAPA_ANSLUTNING
  5
205E
 10
142.549
 20
6.95763
 30
0.000000
  70
    32
  0
VERTEX
  8
SAPA_ANSLUTNING
  5
205F
 10
142.316
 20
7.04418
 30
0.000000
  70
    32
  0
VERTEX
  8
SAPA_ANSLUTNING
  5
2060
 10
142.087
 20
7.14347
 30
0.000000
  70
    32
  0
VERTEX
  8
SAPA_ANSLUTNING
  5
2061
 10
141.862
 20
7.25528
 30
0.000000
  70
    32
  0
VERTEX
  8
SAPA_ANSLUTNING
  5
2062
 10
141.643
 20
7.37932
 30
0.000000
  70
    32
  0
VERTEX
  8
SAPA_ANSLUTNING
  5
2063
 10
141.429
 20
7.51531
 30
0.000000
  70
    32
  0
VERTEX
  8
SAPA_ANSLUTNING
  5
2064
 10
141.222
 20
7.66291
 30
0.000000
  70
    32
  0
VERTEX
  8
SAPA_ANSLUTNING
  5
2065
 10
141.022
 20
7.82178
 30
0.000000
  70
    32
  0
VERTEX
  8
SAPA_ANSLUTNING
  5
2066
 10
140.828
 20
7.99152
 30
0.000000
  70
    32
  0
VERTEX
  8
SAPA_ANSLUTNING
  5
2067
 10
140.642
 20
8.17172
 30
0.000000
  70
    32
  0
VERTEX
  8
SAPA_ANSLUTNING
  5
2068
 10
140.464
 20
8.36196
 30
0.000000
  70
    32
  0
VERTEX
  8
SAPA_ANSLUTNING
  5
2069
 10
140.295
 20
8.56178
 30
0.000000
  70
    32
  0
VERTEX
  8
SAPA_ANSLUTNING
  5
206A
 10
140.135
 20
8.77069
 30
0.000000
  70
    32
  0
VERTEX
  8
SAPA_ANSLUTNING
  5
206B
 10
139.984
 20
8.98819
 30
0.000000
  70
    32
  0
VERTEX
  8
SAPA_ANSLUTNING
  5
206C
 10
139.843
 20
9.21376
 30
0.000000
  70
    32
  0
VERTEX
  8
SAPA_ANSLUTNING
  5
206D
 10
139.711
 20
9.44685
 30
0.000000
  70
    32
  0
VERTEX
  8
SAPA_ANSLUTNING
  5
206E
 10
139.590
 20
9.68690
 30
0.000000
  70
    32
  0
VERTEX
  8
SAPA_ANSLUTNING
  5
206F
 10
139.480
 20
9.93334
 30
0.000000
  70
    32
  0
VERTEX
  8
SAPA_ANSLUTNING
  5
2070
 10
139.381
 20
10.1856
 30
0.000000
  70
    32
  0
VERTEX
  8
SAPA_ANSLUTNING
  5
2071
 10
139.292
 20
10.4430
 30
0.000000
  70
    32
  0
VERTEX
  8
SAPA_ANSLUTNING
  5
2072
 10
139.215
 20
10.7049
 30
0.000000
  70
    32
  0
VERTEX
  8
SAPA_ANSLUTNING
  5
2073
 10
139.150
 20
10.9708
 30
0.000000
  70
    32
  0
VERTEX
  8
SAPA_ANSLUTNING
  5
2074
 10
139.096
 20
11.2400
 30
0.000000
  70
    32
  0
VERTEX
  8
SAPA_ANSLUTNING
  5
2075
 10
139.054
 20
11.5119
 30
0.000000
  70
    32
  0
VERTEX
  8
SAPA_ANSLUTNING
  5
2076
 10
139.024
 20
11.7857
 30
0.000000
  70
    32
  0
VERTEX
  8
SAPA_ANSLUTNING
  5
2077
 10
139.006
 20
12.0608
 30
0.000000
  70
    32
  0
VERTEX
  8
SAPA_ANSLUTNING
  5
2078
 10
139.000
 20
12.3367
 30
0.000000
  70
    32
  0
VERTEX
  8
SAPA_ANSLUTNING
  5
2079
 10
139.006
 20
12.6125
 30
0.000000
  70
    32
  0
VERTEX
  8
SAPA_ANSLUTNING
  5
207A
 10
139.024
 20
12.8876
 30
0.000000
  70
    32
  0
VERTEX
  8
SAPA_ANSLUTNING
  5
207B
 10
139.054
 20
13.1614
 30
0.000000
  70
    32
  0
VERTEX
  8
SAPA_ANSLUTNING
  5
207C
 10
139.096
 20
13.4333
 30
0.000000
  70
    32
  0
VERTEX
  8
SAPA_ANSLUTNING
  5
207D
 10
139.150
 20
13.7025
 30
0.000000
  70
    32
  0
VERTEX
  8
SAPA_ANSLUTNING
  5
207E
 10
139.215
 20
13.9684
 30
0.000000
  70
    32
  0
VERTEX
  8
SAPA_ANSLUTNING
  5
207F
 10
139.292
 20
14.2303
 30
0.000000
  70
    32
  0
VERTEX
  8
SAPA_ANSLUTNING
  5
2080
 10
139.381
 20
14.4877
 30
0.000000
  70
    32
  0
VERTEX
  8
SAPA_ANSLUTNING
  5
2081
 10
139.480
 20
14.7400
 30
0.000000
  70
    32
  0
VERTEX
  8
SAPA_ANSLUTNING
  5
2082
 10
139.590
 20
14.9864
 30
0.000000
  70
    32
  0
VERTEX
  8
SAPA_ANSLUTNING
  5
2083
 10
139.711
 20
15.2265
 30
0.000000
  70
    32
  0
VERTEX
  8
SAPA_ANSLUTNING
  5
2084
 10
139.843
 20
15.4595
 30
0.000000
  70
    32
  0
VERTEX
  8
SAPA_ANSLUTNING
  5
2085
 10
139.984
 20
15.6851
 30
0.000000
  70
    32
  0
VERTEX
  8
SAPA_ANSLUTNING
  5
2086
 10
140.135
 20
15.9026
 30
0.000000
  70
    32
  0
VERTEX
  8
SAPA_ANSLUTNING
  5
2087
 10
140.295
 20
16.1115
 30
0.000000
  70
    32
  0
VERTEX
  8
SAPA_ANSLUTNING
  5
2088
 10
140.464
 20
16.3113
 30
0.000000
  70
    32
  0
VERTEX
  8
SAPA_ANSLUTNING
  5
2089
 10
140.642
 20
16.5016
 30
0.000000
  70
    32
  0
VERTEX
  8
SAPA_ANSLUTNING
  5
208A
 10
140.828
 20
16.6818
 30
0.000000
  70
    32
  0
VERTEX
  8
SAPA_ANSLUTNING
  5
208B
 10
141.022
 20
16.8515
 30
0.000000
  70
    32
  0
VERTEX
  8
SAPA_ANSLUTNING
  5
208C
 10
141.222
 20
17.0104
 30
0.000000
  70
    32
  0
VERTEX
  8
SAPA_ANSLUTNING
  5
208D
 10
141.429
 20
17.1580
 30
0.000000
  70
    32
  0
VERTEX
  8
SAPA_ANSLUTNING
  5
208E
 10
141.643
 20
17.2940
 30
0.000000
  70
    32
  0
VERTEX
  8
SAPA_ANSLUTNING
  5
208F
 10
141.862
 20
17.4180
 30
0.000000
  70
    32
  0
VERTEX
  8
SAPA_ANSLUTNING
  5
2090
 10
142.087
 20
17.5298
 30
0.000000
  70
    32
  0
VERTEX
  8
SAPA_ANSLUTNING
  5
2091
 10
142.316
 20
17.6291
 30
0.000000
  70
    32
  0
VERTEX
  8
SAPA_ANSLUTNING
  5
2092
 10
142.549
 20
17.7157
 30
0.000000
  70
    32
  0
VERTEX
  8
SAPA_ANSLUTNING
  5
2093
 10
142.785
 20
17.7893
 30
0.000000
  70
    32
  0
VERTEX
  8
SAPA_ANSLUTNING
  5
2094
 10
143.025
 20
17.8497
 30
0.000000
  70
    32
  0
VERTEX
  8
SAPA_ANSLUTNING
  5
2095
 10
143.266
 20
17.8969
 30
0.000000
  70
    32
  0
VERTEX
  8
SAPA_ANSLUTNING
  5
2096
 10
143.510
 20
17.9306
 30
0.000000
  70
    32
  0
VERTEX
  8
SAPA_ANSLUTNING
  5
2097
 10
143.755
 20
17.9509
 30
0.000000
  70
    32
  0
VERTEX
  8
SAPA_ANSLUTNING
  5
2098
 10
144.000
 20
17.9577
 30
0.000000
  70
    32
  0
SEQEND
  8
SAPA_ANSLUTNING
  5
2099
  0
POLYLINE
  5
1643
  8
SAPA_ANSLUTNING
 66
     1
 10
0.0
 20
0.0
 30
0.0
  0
VERTEX
  5
1A6F
  8
SAPA_ANSLUTNING
 10
140.5010714710956
 20
16.352069590546659
 30
0.0
 42
-0.8812634091771133
  0
VERTEX
  5
1A70
  8
SAPA_ANSLUTNING
 10
140.9999999277546
 20
20.28883761876682
 30
0.0
  0
VERTEX
  5
1A71
  8
SAPA_ANSLUTNING
 10
146.9999999277546
 20
20.28883761876682
 30
0.0
 42
0.9999999999999998
  0
VERTEX
  5
1A72
  8
SAPA_ANSLUTNING
 10
146.9999999277546
 20
24.28883761876682
 30
0.0
  0
VERTEX
  5
1A73
  8
SAPA_ANSLUTNING
 10
140.9999999277546
 20
24.288837618766809
 30
0.0
 42
-0.9999999999999998
  0
VERTEX
  5
1A74
  8
SAPA_ANSLUTNING
 10
140.9999999277546
 20
28.288837618766809
 30
0.0
  0
VERTEX
  5
1A75
  8
SAPA_ANSLUTNING
 10
146.9999999277546
 20
28.28883761876682
 30
0.0
 42
0.9999999999999998
  0
VERTEX
  5
1A76
  8
SAPA_ANSLUTNING
 10
146.9999999277546
 20
32.28883761876682
 30
0.0
  0
VERTEX
  5
1A77
  8
SAPA_ANSLUTNING
 10
140.9999999277546
 20
32.288837618766813
 30
0.0
 42
-0.9999999999999998
  0
VERTEX
  5
1A78
  8
SAPA_ANSLUTNING
 10
140.9999999277546
 20
36.288837618766813
 30
0.0
  0
VERTEX
  5
1A79
  8
SAPA_ANSLUTNING
 10
146.9999999277546
 20
36.28883761876682
 30
0.0
 42
0.9999999999999998
  0
VERTEX
  5
1A7A
  8
SAPA_ANSLUTNING
 10
146.9999999277546
 20
40.28883761876682
 30
0.0
  0
VERTEX
  5
1A7B
  8
SAPA_ANSLUTNING
 10
140.9999999277546
 20
40.288837618766799
 30
0.0
 42
-0.9999999999999998
  0
VERTEX
  5
1A7C
  8
SAPA_ANSLUTNING
 10
140.9999999277546
 20
44.288837618766799
 30
0.0
  0
VERTEX
  5
1A7D
  8
SAPA_ANSLUTNING
 10
146.9999999277546
 20
44.28883761876682
 30
0.0
 42
0.9999999999999998
  0
VERTEX
  5
1A7E
  8
SAPA_ANSLUTNING
 10
146.9999999277546
 20
48.28883761876682
 30
0.0
  0
VERTEX
  5
1A7F
  8
SAPA_ANSLUTNING
 10
140.9999999277546
 20
48.288837618766813
 30
0.0
 42
-0.9999999999999998
  0
VERTEX
  5
1A80
  8
SAPA_ANSLUTNING
 10
140.9999999277546
 20
52.288837618766799
 30
0.0
  0
VERTEX
  5
1A81
  8
SAPA_ANSLUTNING
 10
146.9999999277546
 20
52.28883761876682
 30
0.0
 42
0.9999999999999998
  0
VERTEX
  5
1A82
  8
SAPA_ANSLUTNING
 10
146.9999999277546
 20
56.288837618766799
 30
0.0
  0
VERTEX
  5
1A83
  8
SAPA_ANSLUTNING
 10
140.9999999277546
 20
56.288837618766799
 30
0.0
 42
-0.9999999999999998
  0
VERTEX
  5
1A84
  8
SAPA_ANSLUTNING
 10
140.9999999277546
 20
60.288837618766813
 30
0.0
  0
VERTEX
  5
1A85
  8
SAPA_ANSLUTNING
 10
146.9999999277546
 20
60.288837618766813
 30
0.0
 42
0.9999999999999998
  0
VERTEX
  5
1A86
  8
SAPA_ANSLUTNING
 10
146.9999999277546
 20
64.288837618766806
 30
0.0
  0
VERTEX
  5
1A87
  8
SAPA_ANSLUTNING
 10
140.9999999277546
 20
64.288837618766806
 30
0.0
 42
-0.9999999999999998
  0
VERTEX
  5
1A88
  8
SAPA_ANSLUTNING
 10
140.9999999277546
 20
68.288837618766806
 30
0.0
  0
VERTEX
  5
1A89
  8
SAPA_ANSLUTNING
 10
146.9999999277546
 20
68.288837618766806
 30
0.0
 42
0.9999999999999998
  0
VERTEX
  5
1A8A
  8
SAPA_ANSLUTNING
 10
146.9999999277546
 20
72.288837618766806
 30
0.0
  0
VERTEX
  5
1A8B
  8
SAPA_ANSLUTNING
 10
140.9999999277546
 20
72.288837618766806
 30
0.0
 42
-0.5251735434384823
  0
VERTEX
  5
1A8C
  8
SAPA_ANSLUTNING
 10
139.13070913509799
 20
75.000000000005528
 30
0.0
 42
-0.5251735434384823
  0
SEQEND
  5
1A8D
  8
SAPA_ANSLUTNING
  0
LINE
  5
1644
  8
SAPA_ANSLUTNING
 10
13.99999999999986
 20
0.0000000000000711
 30
0.0
 11
-30.619466477046021
 21
0.0000000000000711
 31
0.0
  0
LINE
  5
1645
  8
SAPA_ANSLUTNING
 10
13.99999999999986
 20
0.0000000000000711
 30
0.0
 11
13.99999999999986
 21
75.000000000005556
 31
0.0
  0
POLYLINE
  5
1646
  8
SAPA_ANSLUTNING
 66
     1
 10
0.0
 20
0.0
 30
0.0
  0
VERTEX
  5
1A8E
  8
SAPA_ANSLUTNING
 10
13.99999999999986
 20
73.498928456659115
 30
0.0
 42
-0.8812634091771133
  0
VERTEX
  5
1A8F
  8
SAPA_ANSLUTNING
 10
17.936768028220008
 20
73.000000000000043
 30
0.0
  0
VERTEX
  5
1A90
  8
SAPA_ANSLUTNING
 10
17.936768028220008
 20
62.000000000000043
 30
0.0
 42
0.9999999999999998
  0
VERTEX
  5
1A91
  8
SAPA_ANSLUTNING
 10
21.936768028220019
 20
62.000000000000043
 30
0.0
  0
VERTEX
  5
1A92
  8
SAPA_ANSLUTNING
 10
21.936768028220001
 20
73.000000000000043
 30
0.0
 42
-0.9999999999999998
  0
VERTEX
  5
1A93
  8
SAPA_ANSLUTNING
 10
25.936768028220001
 20
73.000000000000043
 30
0.0
  0
VERTEX
  5
1A94
  8
SAPA_ANSLUTNING
 10
25.936768028220019
 20
62.000000000000043
 30
0.0
 42
0.9999999999999998
  0
VERTEX
  5
1A95
  8
SAPA_ANSLUTNING
 10
29.936768028220008
 20
62.000000000000043
 30
0.0
  0
VERTEX
  5
1A96
  8
SAPA_ANSLUTNING
 10
29.936768028220001
 20
73.000000000000043
 30
0.0
 42
-0.9999999999999998
  0
VERTEX
  5
1A97
  8
SAPA_ANSLUTNING
 10
33.936768028220001
 20
73.000000000000043
 30
0.0
  0
VERTEX
  5
1A98
  8
SAPA_ANSLUTNING
 10
33.936768028220001
 20
62.000000000000043
 30
0.0
 42
0.9999999999999998
  0
VERTEX
  5
1A99
  8
SAPA_ANSLUTNING
 10
37.936768028220001
 20
62.000000000000043
 30
0.0
  0
VERTEX
  5
1A9A
  8
SAPA_ANSLUTNING
 10
37.936768028220001
 20
73.000000000000043
 30
0.0
 42
-0.9999999999999998
  0
VERTEX
  5
1A9B
  8
SAPA_ANSLUTNING
 10
41.936768028219987
 20
73.000000000000043
 30
0.0
  0
VERTEX
  5
1A9C
  8
SAPA_ANSLUTNING
 10
41.936768028219987
 20
62.000000000000043
 30
0.0
 42
0.9999999999999998
  0
VERTEX
  5
1A9D
  8
SAPA_ANSLUTNING
 10
45.936768028220001
 20
62.000000000000043
 30
0.0
  0
VERTEX
  5
1A9E
  8
SAPA_ANSLUTNING
 10
45.936768028220001
 20
73.000000000000043
 30
0.0
 42
-0.9999999999999998
  0
VERTEX
  5
1A9F
  8
SAPA_ANSLUTNING
 10
49.936768028220001
 20
73.000000000000043
 30
0.0
  0
VERTEX
  5
1AA0
  8
SAPA_ANSLUTNING
 10
49.936768028220001
 20
62.000000000000043
 30
0.0
 42
0.9999999999999998
  0
VERTEX
  5
1AA1
  8
SAPA_ANSLUTNING
 10
53.936768028220001
 20
62.000000000000043
 30
0.0
  0
VERTEX
  5
1AA2
  8
SAPA_ANSLUTNING
 10
53.936768028220001
 20
73.000000000000043
 30
0.0
 42
-0.9999999999999998
  0
VERTEX
  5
1AA3
  8
SAPA_ANSLUTNING
 10
57.936768028220001
 20
73.000000000000043
 30
0.0
  0
VERTEX
  5
1AA4
  8
SAPA_ANSLUTNING
 10
57.936768028220001
 20
62.000000000000043
 30
0.0
 42
0.9999999999999998
  0
VERTEX
  5
1AA5
  8
SAPA_ANSLUTNING
 10
61.936768028220001
 20
62.000000000000043
 30
0.0
  0
VERTEX
  5
1AA6
  8
SAPA_ANSLUTNING
 10
61.936768028220001
 20
73.000000000000043
 30
0.0
 42
-0.9999999999999998
  0
VERTEX
  5
1AA7
  8
SAPA_ANSLUTNING
 10
65.936768028220001
 20
73.000000000000043
 30
0.0
  0
VERTEX
  5
1AA8
  8
SAPA_ANSLUTNING
 10
65.936768028220001
 20
62.000000000000043
 30
0.0
 42
0.9999999999999998
  0
VERTEX
  5
1AA9
  8
SAPA_ANSLUTNING
 10
69.936768028220001
 20
62.000000000000043
 30
0.0
  0
VERTEX
  5
1AAA
  8
SAPA_ANSLUTNING
 10
69.936768028220001
 20
73.000000000000043
 30
0.0
 42
-0.5251735434384823
  0
VERTEX
  5
1AAB
  8
SAPA_ANSLUTNING
 10
72.647930409458723
 20
74.869290792656656
 30
0.0
 42
-0.5251735434384823
  0
SEQEND
  5
1AAC
  8
SAPA_ANSLUTNING
  0
POLYLINE
  5
1647
  8
SAPA_ANSLUTNING
 66
     1
 10
0.0
 20
0.0
 30
0.0
  0
VERTEX
  5
1AAD
  8
SAPA_ANSLUTNING
 10
61.999999999999851
 20
73.498928456659115
 30
0.0
 42
-0.8812634091771133
  0
VERTEX
  5
1AAE
  8
SAPA_ANSLUTNING
 10
65.936768028220001
 20
73.000000000000043
 30
0.0
  0
VERTEX
  5
1AAF
  8
SAPA_ANSLUTNING
 10
65.936768028220001
 20
62.000000000000043
 30
0.0
 42
0.9999999999999998
  0
VERTEX
  5
1AB0
  8
SAPA_ANSLUTNING
 10
69.936768028220001
 20
62.000000000000043
 30
0.0
  0
VERTEX
  5
1AB1
  8
SAPA_ANSLUTNING
 10
69.936768028219987
 20
73.000000000000043
 30
0.0
 42
-0.9999999999999998
  0
VERTEX
  5
1AB2
  8
SAPA_ANSLUTNING
 10
73.936768028219987
 20
73.000000000000043
 30
0.0
  0
VERTEX
  5
1AB3
  8
SAPA_ANSLUTNING
 10
73.936768028220001
 20
62.000000000000043
 30
0.0
 42
0.9999999999999998
  0
VERTEX
  5
1AB4
  8
SAPA_ANSLUTNING
 10
77.936768028220001
 20
62.000000000000043
 30
0.0
  0
VERTEX
  5
1AB5
  8
SAPA_ANSLUTNING
 10
77.936768028219987
 20
73.000000000000043
 30
0.0
 42
-0.9999999999999998
  0
VERTEX
  5
1AB6
  8
SAPA_ANSLUTNING
 10
81.936768028219987
 20
73.000000000000043
 30
0.0
  0
VERTEX
  5
1AB7
  8
SAPA_ANSLUTNING
 10
81.936768028219987
 20
62.000000000000043
 30
0.0
 42
0.9999999999999998
  0
VERTEX
  5
1AB8
  8
SAPA_ANSLUTNING
 10
85.936768028219987
 20
62.000000000000043
 30
0.0
  0
VERTEX
  5
1AB9
  8
SAPA_ANSLUTNING
 10
85.936768028219987
 20
73.000000000000043
 30
0.0
 42
-0.9999999999999998
  0
VERTEX
  5
1ABA
  8
SAPA_ANSLUTNING
 10
89.936768028219987
 20
73.000000000000043
 30
0.0
  0
VERTEX
  5
1ABB
  8
SAPA_ANSLUTNING
 10
89.936768028219987
 20
62.000000000000043
 30
0.0
 42
0.9999999999999998
  0
VERTEX
  5
1ABC
  8
SAPA_ANSLUTNING
 10
93.936768028219987
 20
62.000000000000043
 30
0.0
  0
VERTEX
  5
1ABD
  8
SAPA_ANSLUTNING
 10
93.936768028219987
 20
73.000000000000043
 30
0.0
 42
-0.9999999999999998
  0
VERTEX
  5
1ABE
  8
SAPA_ANSLUTNING
 10
97.936768028219987
 20
73.000000000000043
 30
0.0
  0
VERTEX
  5
1ABF
  8
SAPA_ANSLUTNING
 10
97.936768028219987
 20
62.000000000000043
 30
0.0
 42
0.9999999999999998
  0
VERTEX
  5
1AC0
  8
SAPA_ANSLUTNING
 10
101.93676802822
 20
62.000000000000043
 30
0.0
  0
VERTEX
  5
1AC1
  8
SAPA_ANSLUTNING
 10
101.93676802822
 20
73.000000000000043
 30
0.0
 42
-0.9999999999999998
  0
VERTEX
  5
1AC2
  8
SAPA_ANSLUTNING
 10
105.93676802822
 20
73.000000000000043
 30
0.0
  0
VERTEX
  5
1AC3
  8
SAPA_ANSLUTNING
 10
105.93676802822
 20
62.000000000000043
 30
0.0
 42
0.9999999999999998
  0
VERTEX
  5
1AC4
  8
SAPA_ANSLUTNING
 10
109.9367680282199
 20
62.000000000000043
 30
0.0
  0
VERTEX
  5
1AC5
  8
SAPA_ANSLUTNING
 10
109.9367680282199
 20
73.000000000000043
 30
0.0
 42
-0.9999999999999998
  0
VERTEX
  5
1AC6
  8
SAPA_ANSLUTNING
 10
113.9367680282199
 20
73.000000000000043
 30
0.0
  0
VERTEX
  5
1AC7
  8
SAPA_ANSLUTNING
 10
113.9367680282199
 20
62.000000000000043
 30
0.0
 42
0.9999999999999998
  0
VERTEX
  5
1AC8
  8
SAPA_ANSLUTNING
 10
117.9367680282199
 20
62.000000000000043
 30
0.0
  0
VERTEX
  5
1AC9
  8
SAPA_ANSLUTNING
 10
117.9367680282199
 20
73.000000000000043
 30
0.0
 42
-0.5251735434384823
  0
VERTEX
  5
1ACA
  8
SAPA_ANSLUTNING
 10
120.6479304094587
 20
74.869290792656656
 30
0.0
 42
-0.5251735434384823
  0
SEQEND
  5
1ACB
  8
SAPA_ANSLUTNING
  0
POLYLINE
  5
1648
  8
SAPA_ANSLUTNING
 66
     1
 10
0.0
 20
0.0
 30
0.0
  0
VERTEX
  5
1ACC
  8
SAPA_ANSLUTNING
 10
109.9999999999998
 20
73.498928456659115
 30
0.0
 42
-0.8812634091771133
  0
VERTEX
  5
1ACD
  8
SAPA_ANSLUTNING
 10
113.9367680282199
 20
73.000000000000043
 30
0.0
  0
VERTEX
  5
1ACE
  8
SAPA_ANSLUTNING
 10
113.9367680282199
 20
62.000000000000043
 30
0.0
 42
0.9999999999999998
  0
VERTEX
  5
1ACF
  8
SAPA_ANSLUTNING
 10
117.9367680282199
 20
62.000000000000043
 30
0.0
  0
VERTEX
  5
1AD0
  8
SAPA_ANSLUTNING
 10
117.9367680282199
 20
73.000000000000043
 30
0.0
 42
-0.9999999999999998
  0
VERTEX
  5
1AD1
  8
SAPA_ANSLUTNING
 10
121.9367680282199
 20
73.000000000000043
 30
0.0
  0
VERTEX
  5
1AD2
  8
SAPA_ANSLUTNING
 10
121.9367680282199
 20
62.000000000000043
 30
0.0
 42
0.9999999999999998
  0
VERTEX
  5
1AD3
  8
SAPA_ANSLUTNING
 10
125.93676802822
 20
62.000000000000043
 30
0.0
  0
VERTEX
  5
1AD4
  8
SAPA_ANSLUTNING
 10
125.93676802822
 20
73.000000000000043
 30
0.0
 42
-0.9999999999999998
  0
VERTEX
  5
1AD5
  8
SAPA_ANSLUTNING
 10
129.93676802822
 20
73.000000000000043
 30
0.0
  0
VERTEX
  5
1AD6
  8
SAPA_ANSLUTNING
 10
129.93676802822
 20
62.000000000000043
 30
0.0
 42
0.9999999999999998
  0
VERTEX
  5
1AD7
  8
SAPA_ANSLUTNING
 10
133.93676802821989
 20
62.000000000000043
 30
0.0
  0
VERTEX
  5
1AD8
  8
SAPA_ANSLUTNING
 10
133.93676802821989
 20
73.000000000000043
 30
0.0
 42
-0.9999999999999998
  0
VERTEX
  5
1AD9
  8
SAPA_ANSLUTNING
 10
137.93676802821989
 20
73.000000000000043
 30
0.0
  0
VERTEX
  5
1ADA
  8
SAPA_ANSLUTNING
 10
137.93676802821989
 20
62.000000000000043
 30
0.0
 42
0.4183530514568368
  0
VERTEX
  5
1ADB
  8
SAPA_ANSLUTNING
 10
139.964991865803
 20
60.000199156167788
 30
0.0
 42
0.4183530514568368
  0
SEQEND
  5
1ADC
  8
SAPA_ANSLUTNING
  0
POLYLINE
  5
182C
  8
SAPA_PROFIL
 66
     1
 10
0.0
 20
0.0
 30
0.0
 70
     1
  0
VERTEX
  5
1CCE
  8
SAPA_PROFIL
 10
93.756130887332759
 20
18.00000000000021
 30
0.0
 42
-0.2418327667417041
  0
VERTEX
  5
1CCF
  8
SAPA_PROFIL
 10
93.999999928282634
 20
17.87472232503627
 30
0.0
 42
0.2418327667547422
  0
VERTEX
  5
1CD0
  8
SAPA_PROFIL
 10
94.243868969241674
 20
17.749444650060681
 30
0.0
  0
VERTEX
  5
1CD1
  8
SAPA_PROFIL
 10
95.199999928277023
 20
17.749444650060681
 30
0.0
 42
0.2814258985282543
  0
VERTEX
  5
1CD2
  8
SAPA_PROFIL
 10
95.466996730582281
 20
17.912650251186939
 30
0.0
 42
-0.2814258985233465
  0
VERTEX
  5
1CD3
  8
SAPA_PROFIL
 10
95.733993532877861
 20
18.075855852310632
 30
0.0
  0
VERTEX
  5
1CD4
  8
SAPA_PROFIL
 10
97.911541887835185
 20
18.075855852310159
 30
0.0
 42
-0.0874886635248791
  0
VERTEX
  5
1CD5
  8
SAPA_PROFIL
 10
98.014147930831712
 20
18.057763638546351
 30
0.0
  0
VERTEX
  5
1CD6
  8
SAPA_PROFIL
 10
99.441501100877147
 20
17.53824957087101
 30
0.0
 42
-0.4142135623698204
  0
VERTEX
  5
1CD7
  8
SAPA_PROFIL
 10
99.620802844114536
 20
17.153735741628839
 30
0.0
  0
VERTEX
  5
1CD8
  8
SAPA_PROFIL
 10
99.552398815443496
 20
16.965797217480141
 30
0.0
 42
-0.4142135623730013
  0
VERTEX
  5
1CD9
  8
SAPA_PROFIL
 10
99.16788498622185
 20
16.786495474237611
 30
0.0
  0
VERTEX
  5
1CDA
  8
SAPA_PROFIL
 10
98.134223103352696
 20
17.1627176319043
 30
0.0
 42
0.41421356237947
  0
VERTEX
  5
1CDB
  8
SAPA_PROFIL
 10
97.749709274121145
 20
16.983415888653148
 30
0.0
  0
VERTEX
  5
1CDC
  8
SAPA_PROFIL
 10
97.090853966885319
 20
15.17322580931423
 30
0.0
 42
-0.3152987888800596
  0
VERTEX
  5
1CDD
  8
SAPA_PROFIL
 10
96.808946180649116
 20
14.97583185231089
 30
0.0
  0
VERTEX
  5
1CDE
  8
SAPA_PROFIL
 10
96.389230412829775
 20
14.975831852310989
 30
0.0
 42
-0.1316524975873857
  0
VERTEX
  5
1CDF
  8
SAPA_PROFIL
 10
96.239230412829855
 20
15.01602423117564
 30
0.0
  0
VERTEX
  5
1CE0
  8
SAPA_PROFIL
 10
94.749999928288958
 20
15.87583185231094
 30
0.0
  0
VERTEX
  5
1CE1
  8
SAPA_PROFIL
 10
94.299999928289026
 20
15.875843852310609
 30
0.0
 42
0.4142135623731054
  0
VERTEX
  5
1CE2
  8
SAPA_PROFIL
 10
93.999999928289014
 20
15.5758438523106
 30
0.0
  0
VERTEX
  5
1CE3
  8
SAPA_PROFIL
 10
93.999999928289085
 20
11.97583185231054
 30
0.0
 42
0.414213562373095
  0
VERTEX
  5
1CE4
  8
SAPA_PROFIL
 10
94.299999928289068
 20
11.675831852310541
 30
0.0
  0
VERTEX
  5
1CE5
  8
SAPA_PROFIL
 10
94.749999928289071
 20
11.67583185231064
 30
0.0
  0
VERTEX
  5
1CE6
  8
SAPA_PROFIL
 10
96.239260059363247
 20
12.535656589879631
 30
0.0
 42
-0.1316363093594254
  0
VERTEX
  5
1CE7
  8
SAPA_PROFIL
 10
96.389240964409979
 20
12.57584896813659
 30
0.0
  0
VERTEX
  5
1CE8
  8
SAPA_PROFIL
 10
96.49999992828721
 20
12.5758560179274
 30
0.0
  0
VERTEX
  5
1CE9
  8
SAPA_PROFIL
 10
96.49999992828721
 20
10.50000000001112
 30
0.0
 42
-0.4142135623730955
  0
VERTEX
  5
1CEA
  8
SAPA_PROFIL
 10
95.999999928287195
 20
10.000000000011131
 30
0.0
  0
VERTEX
  5
1CEB
  8
SAPA_PROFIL
 10
90.749999928621904
 20
10.000000000011131
 30
0.0
 42
-0.4142135623730953
  0
VERTEX
  5
1CEC
  8
SAPA_PROFIL
 10
90.249999928621904
 20
10.500000000011131
 30
0.0
  0
VERTEX
  5
1CED
  8
SAPA_PROFIL
 10
90.249999928621904
 20
11.000000003594529
 30
0.0
 42
-0.4142135623730953
  0
VERTEX
  5
1CEE
  8
SAPA_PROFIL
 10
90.749999928621904
 20
11.500000003594529
 30
0.0
  0
VERTEX
  5
1CEF
  8
SAPA_PROFIL
 10
91.749999929029087
 20
11.50000000359908
 30
0.0
  0
VERTEX
  5
1CF0
  8
SAPA_PROFIL
 10
91.749999929033251
 20
14.700000004054001
 30
0.0
  0
VERTEX
  5
1CF1
  8
SAPA_PROFIL
 10
87.249999928127352
 20
14.70000000404602
 30
0.0
  0
VERTEX
  5
1CF2
  8
SAPA_PROFIL
 10
87.249999928106007
 20
-4.7999999999997938
 30
0.0
 42
-0.4964147352859417
  0
VERTEX
  5
1CF3
  8
SAPA_PROFIL
 10
86.996209519780024
 20
-4.992630713990283
 30
0.0
 42
-0.306467954212033
  0
VERTEX
  5
1CF4
  8
SAPA_PROFIL
 10
86.271093046931185
 20
-4.1382327808131789
 30
0.0
 42
-0.0272495355296329
  0
VERTEX
  5
1CF5
  8
SAPA_PROFIL
 10
85.499999928621534
 20
9.9999999999899405
 30
0.0
  0
VERTEX
  5
1CF6
  8
SAPA_PROFIL
 10
85.49999992848366
 20
14.99999999990926
 30
0.0
 42
-0.4142135623819769
  0
VERTEX
  5
1CF7
  8
SAPA_PROFIL
 10
88.499999928483646
 20
18.00000000000021
 30
0.0
  0
SEQEND
  5
1CF8
  8
SAPA_PROFIL
  0
POLYLINE
  5
182D
  8
SAPA_PROFIL
 66
     1
 10
0.0
 20
0.0
 30
0.0
 70
     1
  0
VERTEX
  5
1CF9
  8
SAPA_PROFIL
 10
124.2438689692453
 20
18.00000000000021
 30
0.0
 42
0.2418327667417041
  0
VERTEX
  5
1CFA
  8
SAPA_PROFIL
 10
123.9999999282954
 20
17.874722325036259
 30
0.0
 42
-0.2418327667547422
  0
VERTEX
  5
1CFB
  8
SAPA_PROFIL
 10
123.7561308873364
 20
17.749444650060681
 30
0.0
  0
VERTEX
  5
1CFC
  8
SAPA_PROFIL
 10
122.79999992830101
 20
17.749444650060681
 30
0.0
 42
-0.2814258985282543
  0
VERTEX
  5
1CFD
  8
SAPA_PROFIL
 10
122.53300312599571
 20
17.912650251186939
 30
0.0
 42
0.2814258985233465
  0
VERTEX
  5
1CFE
  8
SAPA_PROFIL
 10
122.2660063237001
 20
18.075855852310632
 30
0.0
  0
VERTEX
  5
1CFF
  8
SAPA_PROFIL
 10
120.0884579687428
 20
18.075855852310148
 30
0.0
 42
0.0874886635248791
  0
VERTEX
  5
1D00
  8
SAPA_PROFIL
 10
119.9858519257463
 20
18.057763638546351
 30
0.0
  0
VERTEX
  5
1D01
  8
SAPA_PROFIL
 10
118.5584987557009
 20
17.53824957087101
 30
0.0
 42
0.4142135623698204
  0
VERTEX
  5
1D02
  8
SAPA_PROFIL
 10
118.37919701246349
 20
17.153735741628829
 30
0.0
  0
VERTEX
  5
1D03
  8
SAPA_PROFIL
 10
118.4476010411345
 20
16.965797217480141
 30
0.0
 42
0.4142135623730013
  0
VERTEX
  5
1D04
  8
SAPA_PROFIL
 10
118.83211487035619
 20
16.786495474237611
 30
0.0
  0
VERTEX
  5
1D05
  8
SAPA_PROFIL
 10
119.8657767532253
 20
17.1627176319043
 30
0.0
 42
-0.41421356237947
  0
VERTEX
  5
1D06
  8
SAPA_PROFIL
 10
120.2502905824569
 20
16.983415888653148
 30
0.0
  0
VERTEX
  5
1D07
  8
SAPA_PROFIL
 10
120.9091458896927
 20
15.17322580931423
 30
0.0
 42
0.3152987888800596
  0
VERTEX
  5
1D08
  8
SAPA_PROFIL
 10
121.1910536759289
 20
14.97583185231089
 30
0.0
  0
VERTEX
  5
1D09
  8
SAPA_PROFIL
 10
121.6107694437482
 20
14.975831852310989
 30
0.0
 42
0.1316524975873857
  0
VERTEX
  5
1D0A
  8
SAPA_PROFIL
 10
121.7607694437482
 20
15.01602423117564
 30
0.0
  0
VERTEX
  5
1D0B
  8
SAPA_PROFIL
 10
123.249999928289
 20
15.87583185231094
 30
0.0
  0
VERTEX
  5
1D0C
  8
SAPA_PROFIL
 10
123.699999928289
 20
15.8758438523106
 30
0.0
 42
-0.4142135623731054
  0
VERTEX
  5
1D0D
  8
SAPA_PROFIL
 10
123.999999928289
 20
15.5758438523106
 30
0.0
  0
VERTEX
  5
1D0E
  8
SAPA_PROFIL
 10
123.999999928289
 20
11.97583185231054
 30
0.0
 42
-0.414213562373095
  0
VERTEX
  5
1D0F
  8
SAPA_PROFIL
 10
123.6999999282889
 20
11.675831852310541
 30
0.0
  0
VERTEX
  5
1D10
  8
SAPA_PROFIL
 10
123.249999928289
 20
11.67583185231064
 30
0.0
  0
VERTEX
  5
1D11
  8
SAPA_PROFIL
 10
121.7607397972148
 20
12.53565658987962
 30
0.0
 42
0.1316363093594254
  0
VERTEX
  5
1D12
  8
SAPA_PROFIL
 10
121.61075889216799
 20
12.57584896813659
 30
0.0
  0
VERTEX
  5
1D13
  8
SAPA_PROFIL
 10
121.4999999282908
 20
12.5758560179274
 30
0.0
  0
VERTEX
  5
1D14
  8
SAPA_PROFIL
 10
121.4999999282908
 20
10.50000000001112
 30
0.0
 42
0.4142135623730955
  0
VERTEX
  5
1D15
  8
SAPA_PROFIL
 10
121.9999999282908
 20
10.00000000001112
 30
0.0
  0
VERTEX
  5
1D16
  8
SAPA_PROFIL
 10
127.2499999279561
 20
10.00000000001112
 30
0.0
 42
0.4142135623730953
  0
VERTEX
  5
1D17
  8
SAPA_PROFIL
 10
127.7499999279561
 20
10.50000000001112
 30
0.0
  0
VERTEX
  5
1D18
  8
SAPA_PROFIL
 10
127.7499999279561
 20
11.000000003594529
 30
0.0
 42
0.4142135623730953
  0
VERTEX
  5
1D19
  8
SAPA_PROFIL
 10
127.2499999279561
 20
11.500000003594529
 30
0.0
  0
VERTEX
  5
1D1A
  8
SAPA_PROFIL
 10
126.2499999275489
 20
11.50000000359908
 30
0.0
  0
VERTEX
  5
1D1B
  8
SAPA_PROFIL
 10
126.24999992754471
 20
14.700000004054001
 30
0.0
  0
VERTEX
  5
1D1C
  8
SAPA_PROFIL
 10
130.74999992845071
 20
14.700000004046011
 30
0.0
  0
VERTEX
  5
1D1D
  8
SAPA_PROFIL
 10
130.74999992847199
 20
-4.7999999999998009
 30
0.0
 42
0.4964147352859417
  0
VERTEX
  5
1D1E
  8
SAPA_PROFIL
 10
131.00379033679801
 20
-4.992630713990291
 30
0.0
 42
0.306467954212033
  0
VERTEX
  5
1D1F
  8
SAPA_PROFIL
 10
131.72890680964679
 20
-4.138232780813186
 30
0.0
 42
0.0272495355296329
  0
VERTEX
  5
1D20
  8
SAPA_PROFIL
 10
132.49999992795651
 20
9.9999999999899352
 30
0.0
  0
VERTEX
  5
1D21
  8
SAPA_PROFIL
 10
132.49999992809441
 20
14.999999999909249
 30
0.0
 42
0.4142135623819769
  0
VERTEX
  5
1D22
  8
SAPA_PROFIL
 10
129.49999992809441
 20
18.000000000000199
 30
0.0
  0
SEQEND
  5
1D23
  8
SAPA_PROFIL
  0
POLYLINE
  5
182E
  8
SAPA_PROFIL
 62
     4
 66
     1
 10
0.0
 20
0.0
 30
0.0
 70
     1
  0
VERTEX
  5
182F
  8
SAPA_PROFIL
 62
     4
 10
121.14378214563649
 20
14.72584385230858
 30
0.0
 42
0.1316524975873979
  0
VERTEX
  5
1830
  8
SAPA_PROFIL
 62
     4
 10
121.5437821456365
 20
14.83302352928102
 30
0.0
  0
VERTEX
  5
1831
  8
SAPA_PROFIL
 62
     4
 10
123.2633973879106
 20
15.825843852310451
 30
0.0
  0
VERTEX
  5
1832
  8
SAPA_PROFIL
 62
     4
 10
123.699999928289
 20
15.825843852310539
 30
0.0
 42
-0.4142135623730951
  0
VERTEX
  5
1833
  8
SAPA_PROFIL
 62
     4
 10
123.949999928289
 20
15.575843852310539
 30
0.0
  0
VERTEX
  5
1834
  8
SAPA_PROFIL
 62
     4
 10
123.9499999282891
 20
11.975831852310479
 30
0.0
 42
-0.4142135623731053
  0
VERTEX
  5
1835
  8
SAPA_PROFIL
 62
     4
 10
123.6999999282891
 20
11.725831852310471
 30
0.0
  0
VERTEX
  5
1836
  8
SAPA_PROFIL
 62
     4
 10
123.2633980067106
 20
11.72584349504584
 30
0.0
  0
VERTEX
  5
1837
  8
SAPA_PROFIL
 62
     4
 10
121.54378214564321
 20
12.71866417533611
 30
0.0
 42
0.1316524975874149
  0
VERTEX
  5
1838
  8
SAPA_PROFIL
 62
     4
 10
121.1437821456431
 20
12.8258438523086
 30
0.0
  0
VERTEX
  5
1839
  8
SAPA_PROFIL
 62
     4
 10
96.856217710934871
 20
12.82584385230861
 30
0.0
 42
0.1316524975874151
  0
VERTEX
  5
183A
  8
SAPA_PROFIL
 62
     4
 10
96.456217710934823
 20
12.71866417533611
 30
0.0
  0
VERTEX
  5
183B
  8
SAPA_PROFIL
 62
     4
 10
94.736601849867426
 20
11.72584349504584
 30
0.0
  0
VERTEX
  5
183C
  8
SAPA_PROFIL
 62
     4
 10
94.299999928288955
 20
11.725831852310471
 30
0.0
 42
-0.4142135623731054
  0
VERTEX
  5
183D
  8
SAPA_PROFIL
 62
     4
 10
94.049999928288955
 20
11.975831852310479
 30
0.0
  0
VERTEX
  5
183E
  8
SAPA_PROFIL
 62
     4
 10
94.049999928289012
 20
15.57584385231055
 30
0.0
 42
-0.4142135623730953
  0
VERTEX
  5
183F
  8
SAPA_PROFIL
 62
     4
 10
94.299999928288997
 20
15.825843852310539
 30
0.0
  0
VERTEX
  5
1840
  8
SAPA_PROFIL
 62
     4
 10
94.736602468667456
 20
15.825843852310451
 30
0.0
  0
VERTEX
  5
1841
  8
SAPA_PROFIL
 62
     4
 10
96.456217710941473
 20
14.83302352928102
 30
0.0
 42
0.1316524975873982
  0
VERTEX
  5
1842
  8
SAPA_PROFIL
 62
     4
 10
96.856217710941507
 20
14.72584385230858
 30
0.0
  0
SEQEND
  5
1843
  8
SAPA_PROFIL
 62
     4
  0
POLYLINE
  5
1844
  8
SAPA_PROFIL
 62
     4
 66
     1
 10
0.0
 20
0.0
 30
0.0
 70
     1
  0
VERTEX
  5
1D24
  8
SAPA_PROFIL
 62
     4
 10
64.725833080859161
 20
54.509252303702233
 30
0.0
  0
VERTEX
  5
1D25
  8
SAPA_PROFIL
 62
     4
 10
63.236602540013962
 20
53.649444650059898
 30
0.0
  0
VERTEX
  5
1D26
  8
SAPA_PROFIL
 62
     4
 10
62.799999999635503
 20
53.649444650059813
 30
0.0
 42
-0.4142135623730946
  0
VERTEX
  5
1D27
  8
SAPA_PROFIL
 62
     4
 10
62.549999999635531
 20
53.899444650059813
 30
0.0
  0
VERTEX
  5
1D28
  8
SAPA_PROFIL
 62
     4
 10
62.549999999635482
 20
57.499456650059869
 30
0.0
 42
-0.414213562373107
  0
VERTEX
  5
1D29
  8
SAPA_PROFIL
 62
     4
 10
62.799999999635467
 20
57.749456650059869
 30
0.0
  0
VERTEX
  5
1D2A
  8
SAPA_PROFIL
 62
     4
 10
63.236601921213939
 20
57.74944500732451
 30
0.0
  0
VERTEX
  5
1D2B
  8
SAPA_PROFIL
 62
     4
 10
64.725832968251623
 20
56.889637061431529
 30
0.0
 42
0.1316524975874248
  0
VERTEX
  5
1D2C
  8
SAPA_PROFIL
 62
     4
 10
64.875832968251672
 20
56.84944468256684
 30
0.0
  0
VERTEX
  5
1D2D
  8
SAPA_PROFIL
 62
     4
 10
88.124166959502929
 20
56.84944468256684
 30
0.0
 42
0.1316524975874248
  0
VERTEX
  5
1D2E
  8
SAPA_PROFIL
 62
     4
 10
88.274166959502949
 20
56.889637061431522
 30
0.0
  0
VERTEX
  5
1D2F
  8
SAPA_PROFIL
 62
     4
 10
89.763398006540655
 20
57.74944500732451
 30
0.0
  0
VERTEX
  5
1D30
  8
SAPA_PROFIL
 62
     4
 10
90.199999928119084
 20
57.749456650059862
 30
0.0
 42
-0.4142135623731049
  0
VERTEX
  5
1D31
  8
SAPA_PROFIL
 62
     4
 10
90.449999928119084
 20
57.499456650059869
 30
0.0
  0
VERTEX
  5
1D32
  8
SAPA_PROFIL
 62
     4
 10
90.449999928119084
 20
53.899444650059813
 30
0.0
 42
-0.4142135623730951
  0
VERTEX
  5
1D33
  8
SAPA_PROFIL
 62
     4
 10
90.19999992811907
 20
53.649444650059799
 30
0.0
  0
VERTEX
  5
1D34
  8
SAPA_PROFIL
 62
     4
 10
89.763397387740611
 20
53.649444650059898
 30
0.0
  0
VERTEX
  5
1D35
  8
SAPA_PROFIL
 62
     4
 10
88.274166846895497
 20
54.509252303702162
 30
0.0
 42
0.1316524975873867
  0
VERTEX
  5
1D36
  8
SAPA_PROFIL
 62
     4
 10
88.124166846895506
 20
54.549444682566843
 30
0.0
  0
VERTEX
  5
1D37
  8
SAPA_PROFIL
 62
     4
 10
64.875833080859124
 20
54.549444682566879
 30
0.0
 42
0.1316524975873873
  0
SEQEND
  5
1D38
  8
SAPA_PROFIL
 62
     4
  0
POLYLINE
  5
1845
  8
SAPA_PROFIL
 66
     1
 10
0.0
 20
0.0
 30
0.0
 70
     1
  0
VERTEX
  5
1D39
  8
SAPA_PROFIL
 10
17.300000000010101
 20
10.000000000032751
 30
0.0
 42
0.4142135623624294
  0
VERTEX
  5
1D3A
  8
SAPA_PROFIL
 10
17.499999999999879
 20
10.200000000007989
 30
0.0
  0
VERTEX
  5
1D3B
  8
SAPA_PROFIL
 10
17.500000000014438
 20
11.05000000000655
 30
0.0
 42
-0.4142135623730744
  0
VERTEX
  5
1D3C
  8
SAPA_PROFIL
 10
17.7000000000188
 20
11.25000000000728
 30
0.0
  0
VERTEX
  5
1D3D
  8
SAPA_PROFIL
 10
17.999999999999911
 20
11.249999999999989
 30
0.0
 42
-0.4142135623731035
  0
VERTEX
  5
1D3E
  8
SAPA_PROFIL
 10
18.499999999999911
 20
10.749999999999989
 30
0.0
  0
VERTEX
  5
1D3F
  8
SAPA_PROFIL
 10
18.499999999999911
 20
7.749999999999992
 30
0.0
 42
-0.4142135623731035
  0
VERTEX
  5
1D40
  8
SAPA_PROFIL
 10
17.999999999999911
 20
7.249999999999992
 30
0.0
  0
VERTEX
  5
1D41
  8
SAPA_PROFIL
 10
17.700000000004248
 20
7.249999999999992
 30
0.0
 42
-0.4142135623730744
  0
VERTEX
  5
1D42
  8
SAPA_PROFIL
 10
17.499999999999879
 20
7.4500000000007338
 30
0.0
  0
VERTEX
  5
1D43
  8
SAPA_PROFIL
 10
17.500000000010829
 20
8.3000000000029175
 30
0.0
 42
0.4142135623730534
  0
VERTEX
  5
1D44
  8
SAPA_PROFIL
 10
17.300000000010101
 20
8.4999999999999911
 30
0.0
  0
VERTEX
  5
1D45
  8
SAPA_PROFIL
 10
16.300000000010101
 20
8.4999999999999911
 30
0.0
 42
0.4142135623731035
  0
VERTEX
  5
1D46
  8
SAPA_PROFIL
 10
15.800000000010099
 20
7.999999999999992
 30
0.0
  0
VERTEX
  5
1D47
  8
SAPA_PROFIL
 10
15.800000000010099
 20
2.0000000000000071
 30
0.0
 42
0.4142135623731033
  0
VERTEX
  5
1D48
  8
SAPA_PROFIL
 10
16.30000000001009
 20
1.5000000000000071
 30
0.0
  0
VERTEX
  5
1D49
  8
SAPA_PROFIL
 10
17.30000000001008
 20
1.500000000010921
 30
0.0
 42
0.414213562373064
  0
VERTEX
  5
1D4A
  8
SAPA_PROFIL
 10
17.499999999999869
 20
1.700000000000734
 30
0.0
  0
VERTEX
  5
1D4B
  8
SAPA_PROFIL
 10
17.499999999999879
 20
2.550000000002917
 30
0.0
 42
-0.414213562373064
  0
VERTEX
  5
1D4C
  8
SAPA_PROFIL
 10
17.700000000004248
 20
2.7500000000000071
 30
0.0
  0
VERTEX
  5
1D4D
  8
SAPA_PROFIL
 10
17.999999999999911
 20
2.7500000000000071
 30
0.0
 42
-0.4142135623731035
  0
VERTEX
  5
1D4E
  8
SAPA_PROFIL
 10
18.499999999999911
 20
2.2500000000000071
 30
0.0
  0
VERTEX
  5
1D4F
  8
SAPA_PROFIL
 10
18.499999999999901
 20
0.5000000000000071
 30
0.0
 42
-0.4142135623731035
  0
VERTEX
  5
1D50
  8
SAPA_PROFIL
 10
17.999999999999901
 20
0.0000000000000071
 30
0.0
  0
VERTEX
  5
1D51
  8
SAPA_PROFIL
 10
15.499999999999901
 20
0.0000000000000071
 30
0.0
 42
-0.4142135623730966
  0
VERTEX
  5
1D52
  8
SAPA_PROFIL
 10
13.99999999999987
 20
1.5000000000000071
 30
0.0
  0
VERTEX
  5
1D53
  8
SAPA_PROFIL
 10
13.99999999999989
 20
59.70000000000072
 30
0.0
 42
-0.4142135623730935
  0
VERTEX
  5
1D54
  8
SAPA_PROFIL
 10
14.300000000010071
 20
60.0
 30
0.0
  0
VERTEX
  5
1D55
  8
SAPA_PROFIL
 10
62.256130958696183
 20
60.0
 30
0.0
 42
-0.2418327667378115
  0
VERTEX
  5
1D56
  8
SAPA_PROFIL
 10
62.499999999634582
 20
59.874722325032899
 30
0.0
 42
0.2418327667509125
  0
VERTEX
  5
1D57
  8
SAPA_PROFIL
 10
62.743869040590539
 20
59.749444650060461
 30
0.0
  0
VERTEX
  5
1D58
  8
SAPA_PROFIL
 10
63.699999999640447
 20
59.74944465005683
 30
0.0
 42
0.2418327667448973
  0
VERTEX
  5
1D59
  8
SAPA_PROFIL
 10
63.943869040595388
 20
59.874722325025253
 30
0.0
 42
-0.2418327667448979
  0
VERTEX
  5
1D5A
  8
SAPA_PROFIL
 10
64.187738081547991
 20
59.99999999999244
 30
0.0
  0
VERTEX
  5
1D5B
  8
SAPA_PROFIL
 10
66.285810437265951
 20
59.99999999999244
 30
0.0
 42
-0.6681786379192718
  0
VERTEX
  5
1D5C
  8
SAPA_PROFIL
 10
66.992917218452561
 20
58.292893218805943
 30
0.0
  0
VERTEX
  5
1D5D
  8
SAPA_PROFIL
 10
65.687867965283601
 20
56.98784396563677
 30
0.0
 42
-0.1989123673797335
  0
VERTEX
  5
1D5E
  8
SAPA_PROFIL
 10
65.475735930927527
 20
56.899975999992662
 30
0.0
  0
VERTEX
  5
1D5F
  8
SAPA_PROFIL
 10
64.889230484180331
 20
56.899975999992797
 30
0.0
 42
-0.1316524975873855
  0
VERTEX
  5
1D60
  8
SAPA_PROFIL
 10
64.73923048418041
 20
56.940168378857443
 30
0.0
  0
VERTEX
  5
1D61
  8
SAPA_PROFIL
 10
63.249999999639527
 20
57.799975999992753
 30
0.0
  0
VERTEX
  5
1D62
  8
SAPA_PROFIL
 10
62.799999999639567
 20
57.79998799999241
 30
0.0
 42
0.4142135623731054
  0
VERTEX
  5
1D63
  8
SAPA_PROFIL
 10
62.499999999639549
 20
57.499987999992413
 30
0.0
  0
VERTEX
  5
1D64
  8
SAPA_PROFIL
 10
62.499999999639613
 20
53.89997599999235
 30
0.0
 42
0.4142135623730951
  0
VERTEX
  5
1D65
  8
SAPA_PROFIL
 10
62.799999999639617
 20
53.599975999992353
 30
0.0
  0
VERTEX
  5
1D66
  8
SAPA_PROFIL
 10
63.249999999639613
 20
53.599975999992452
 30
0.0
  0
VERTEX
  5
1D67
  8
SAPA_PROFIL
 10
64.739260130713774
 20
54.45980073756143
 30
0.0
 42
-0.1316363093594257
  0
VERTEX
  5
1D68
  8
SAPA_PROFIL
 10
64.889241035760534
 20
54.499993115818398
 30
0.0
  0
VERTEX
  5
1D69
  8
SAPA_PROFIL
 10
64.999999999643364
 20
54.500000165609201
 30
0.0
  0
VERTEX
  5
1D6A
  8
SAPA_PROFIL
 10
64.999999999643364
 20
52.914359353937471
 30
0.0
 42
-0.2679491924308306
  0
VERTEX
  5
1D6B
  8
SAPA_PROFIL
 10
64.499999999643364
 20
52.048333950158849
 30
0.0
  0
VERTEX
  5
1D6C
  8
SAPA_PROFIL
 10
62.74999999964291
 20
51.03797097908037
 30
0.0
 42
0.2679491924308306
  0
VERTEX
  5
1D6D
  8
SAPA_PROFIL
 10
62.499999999643357
 20
50.604958277188423
 30
0.0
  0
VERTEX
  5
1D6E
  8
SAPA_PROFIL
 10
62.499999999643357
 20
49.395041722807953
 30
0.0
 42
0.2679491924308304
  0
VERTEX
  5
1D6F
  8
SAPA_PROFIL
 10
62.749999999643357
 20
48.962029020916809
 30
0.0
  0
VERTEX
  5
1D70
  8
SAPA_PROFIL
 10
64.499999999643364
 20
47.951666049841151
 30
0.0
 42
-0.2679491924308308
  0
VERTEX
  5
1D71
  8
SAPA_PROFIL
 10
64.999999999641489
 20
47.085640646055253
 30
0.0
  0
VERTEX
  5
1D72
  8
SAPA_PROFIL
 10
64.999999999643649
 20
45.499999834387147
 30
0.0
  0
VERTEX
  5
1D73
  8
SAPA_PROFIL
 10
64.889241035760534
 20
45.500006884177957
 30
0.0
 42
-0.1316363093594255
  0
VERTEX
  5
1D74
  8
SAPA_PROFIL
 10
64.739260130713774
 20
45.540199262434932
 30
0.0
  0
VERTEX
  5
1D75
  8
SAPA_PROFIL
 10
63.249999999639613
 20
46.400024000003903
 30
0.0
  0
VERTEX
  5
1D76
  8
SAPA_PROFIL
 10
62.799999999639617
 20
46.400024000004002
 30
0.0
 42
0.4142135623730951
  0
VERTEX
  5
1D77
  8
SAPA_PROFIL
 10
62.499999999639613
 20
46.100024000004019
 30
0.0
  0
VERTEX
  5
1D78
  8
SAPA_PROFIL
 10
62.499999999639549
 20
42.500012000003963
 30
0.0
 42
0.4142135623731054
  0
VERTEX
  5
1D79
  8
SAPA_PROFIL
 10
62.799999999639567
 20
42.200012000003952
 30
0.0
  0
VERTEX
  5
1D7A
  8
SAPA_PROFIL
 10
63.249999999639527
 20
42.200024000003623
 30
0.0
  0
VERTEX
  5
1D7B
  8
SAPA_PROFIL
 10
64.73923048418041
 20
43.059831621138919
 30
0.0
 42
-0.1316524975873855
  0
VERTEX
  5
1D7C
  8
SAPA_PROFIL
 10
64.889230484180331
 20
43.100024000003572
 30
0.0
  0
VERTEX
  5
1D7D
  8
SAPA_PROFIL
 10
65.475735930927527
 20
43.100024000003707
 30
0.0
 42
-0.1989123673797335
  0
VERTEX
  5
1D7E
  8
SAPA_PROFIL
 10
65.687867965283601
 20
43.012156034359577
 30
0.0
  0
VERTEX
  5
1D7F
  8
SAPA_PROFIL
 10
66.992917218452561
 20
41.707106781190419
 30
0.0
 42
-0.6681786379192716
  0
VERTEX
  5
1D80
  8
SAPA_PROFIL
 10
66.285810437265951
 20
40.000000000003922
 30
0.0
  0
VERTEX
  5
1D81
  8
SAPA_PROFIL
 10
64.187738081546243
 20
40.000000000003922
 30
0.0
 42
-0.2418327667433386
  0
VERTEX
  5
1D82
  8
SAPA_PROFIL
 10
63.943869040594699
 20
40.125277674969681
 30
0.0
 42
0.2418327667449431
  0
VERTEX
  5
1D83
  8
SAPA_PROFIL
 10
63.699999999640447
 20
40.250555349935887
 30
0.0
  0
VERTEX
  5
1D84
  8
SAPA_PROFIL
 10
62.743869040590539
 20
40.250555349939532
 30
0.0
 42
0.2418327667509097
  0
VERTEX
  5
1D85
  8
SAPA_PROFIL
 10
62.499999999643421
 20
40.125277674957111
 30
0.0
 42
-0.2418327667378167
  0
VERTEX
  5
1D86
  8
SAPA_PROFIL
 10
62.256130958696183
 20
40.000000000003922
 30
0.0
  0
VERTEX
  5
1D87
  8
SAPA_PROFIL
 10
60.443389324929619
 20
39.999999999985448
 30
0.0
 42
-0.1095178116817878
  0
VERTEX
  5
1D88
  8
SAPA_PROFIL
 10
59.598152801458639
 20
40.187384425907283
 30
0.0
  0
VERTEX
  5
1D89
  8
SAPA_PROFIL
 10
53.968326436319209
 20
42.812615574068332
 30
0.0
 42
0.1095178116855129
  0
VERTEX
  5
1D8A
  8
SAPA_PROFIL
 10
53.123089912834871
 20
43.0
 30
0.0
  0
VERTEX
  5
1D8B
  8
SAPA_PROFIL
 10
45.999999999657909
 20
43.000000000007283
 30
0.0
 42
0.4142135623730957
  0
VERTEX
  5
1D8C
  8
SAPA_PROFIL
 10
45.499999999657909
 20
42.499999999985448
 30
0.0
  0
VERTEX
  5
1D8D
  8
SAPA_PROFIL
 10
45.499999999657909
 20
41.499999999985441
 30
0.0
 42
0.4142135623730915
  0
VERTEX
  5
1D8E
  8
SAPA_PROFIL
 10
45.999999999657909
 20
40.999999999985441
 30
0.0
  0
VERTEX
  5
1D8F
  8
SAPA_PROFIL
 10
46.291287847139643
 20
40.999999999985441
 30
0.0
 42
-0.2982166266909514
  0
VERTEX
  5
1D90
  8
SAPA_PROFIL
 10
46.74954541662958
 20
40.69999999999834
 30
0.0
 42
-1.5275252316550829
  0
VERTEX
  5
1D91
  8
SAPA_PROFIL
 10
41.250454582702133
 20
40.699999999998433
 30
0.0
 42
-0.2982166266892446
  0
VERTEX
  5
1D92
  8
SAPA_PROFIL
 10
41.708712152168907
 20
40.999999999976133
 30
0.0
  0
VERTEX
  5
1D93
  8
SAPA_PROFIL
 10
41.999999999657909
 20
40.999999999985441
 30
0.0
 42
0.4142135623730915
  0
VERTEX
  5
1D94
  8
SAPA_PROFIL
 10
42.499999999657909
 20
41.499999999985441
 30
0.0
  0
VERTEX
  5
1D95
  8
SAPA_PROFIL
 10
42.499999999657909
 20
42.499999999985448
 30
0.0
 42
0.4142135623730918
  0
VERTEX
  5
1D96
  8
SAPA_PROFIL
 10
41.999999999657909
 20
42.999999999985441
 30
0.0
  0
VERTEX
  5
1D97
  8
SAPA_PROFIL
 10
23.076910086805469
 20
42.999999999985448
 30
0.0
 42
0.1095178116838485
  0
VERTEX
  5
1D98
  8
SAPA_PROFIL
 10
22.23167356331567
 20
42.812615574065539
 30
0.0
  0
VERTEX
  5
1D99
  8
SAPA_PROFIL
 10
17.354763476527179
 20
40.53847505247176
 30
0.0
 42
0.2914734195858569
  0
VERTEX
  5
1D9A
  8
SAPA_PROFIL
 10
16.200000000004248
 20
38.725859478388891
 30
0.0
  0
VERTEX
  5
1D9B
  8
SAPA_PROFIL
 10
16.200000000004248
 20
19.00000000000728
 30
0.0
 42
0.4142135623730951
  0
VERTEX
  5
1D9C
  8
SAPA_PROFIL
 10
16.700000000004248
 20
18.50000000000728
 30
0.0
  0
VERTEX
  5
1D9D
  8
SAPA_PROFIL
 10
17.000000000021711
 20
18.50000000000728
 30
0.0
 42
0.4142135623731035
  0
VERTEX
  5
1D9E
  8
SAPA_PROFIL
 10
17.500000000021711
 20
19.00000000000728
 30
0.0
  0
VERTEX
  5
1D9F
  8
SAPA_PROFIL
 10
17.500000000021711
 20
20.300000000006559
 30
0.0
 42
-0.4142135623730744
  0
VERTEX
  5
1DA0
  8
SAPA_PROFIL
 10
17.7000000000188
 20
20.500000000010921
 30
0.0
  0
VERTEX
  5
1DA1
  8
SAPA_PROFIL
 10
18.000000000021711
 20
20.500000000007269
 30
0.0
 42
-0.4142135623731035
  0
VERTEX
  5
1DA2
  8
SAPA_PROFIL
 10
18.500000000021711
 20
20.00000000000728
 30
0.0
  0
VERTEX
  5
1DA3
  8
SAPA_PROFIL
 10
18.499999999999911
 20
16.25000000000728
 30
0.0
 42
-0.4142135623731035
  0
VERTEX
  5
1DA4
  8
SAPA_PROFIL
 10
17.999999999999911
 20
15.75000000000728
 30
0.0
  0
VERTEX
  5
1DA5
  8
SAPA_PROFIL
 10
17.700000000004248
 20
15.75000000000728
 30
0.0
 42
-0.4142135623731159
  0
VERTEX
  5
1DA6
  8
SAPA_PROFIL
 10
17.49999999999628
 20
15.95000000002255
 30
0.0
  0
VERTEX
  5
1DA7
  8
SAPA_PROFIL
 10
17.499999999999879
 20
16.800000000006548
 30
0.0
 42
0.4142135623730951
  0
VERTEX
  5
1DA8
  8
SAPA_PROFIL
 10
17.300000000010101
 20
17.00000000000728
 30
0.0
  0
VERTEX
  5
1DA9
  8
SAPA_PROFIL
 10
16.300000000010101
 20
17.00000000000728
 30
0.0
 42
0.4142135623731035
  0
VERTEX
  5
1DAA
  8
SAPA_PROFIL
 10
15.800000000010099
 20
16.50000000000728
 30
0.0
  0
VERTEX
  5
1DAB
  8
SAPA_PROFIL
 10
15.800000000010099
 20
10.500000000007271
 30
0.0
 42
0.4142135623731033
  0
VERTEX
  5
1DAC
  8
SAPA_PROFIL
 10
16.300000000010101
 20
10.00000000000728
 30
0.0
  0
SEQEND
  5
1DAD
  8
SAPA_PROFIL
  0
POLYLINE
  5
1846
  8
SAPA_PROFIL
 66
     1
 10
0.0
 20
0.0
 30
0.0
 70
     1
  0
VERTEX
  5
1DAE
  8
SAPA_PROFIL
 10
59.999999999643357
 20
57.199999999986169
 30
0.0
  0
VERTEX
  5
1DAF
  8
SAPA_PROFIL
 10
59.999999999643357
 20
45.600000000005821
 30
0.0
 42
-0.4142135623730951
  0
VERTEX
  5
1DB0
  8
SAPA_PROFIL
 10
59.699999999640447
 20
45.30000000000291
 30
0.0
  0
VERTEX
  5
1DB1
  8
SAPA_PROFIL
 10
16.800000000010069
 20
45.29999999998109
 30
0.0
 42
-0.4142135623730935
  0
VERTEX
  5
1DB2
  8
SAPA_PROFIL
 10
16.5000000000108
 20
45.599999999980362
 30
0.0
  0
VERTEX
  5
1DB3
  8
SAPA_PROFIL
 10
16.499999999999879
 20
57.20000000000072
 30
0.0
 42
-0.4142135623730935
  0
VERTEX
  5
1DB4
  8
SAPA_PROFIL
 10
16.800000000010069
 20
57.5
 30
0.0
  0
VERTEX
  5
1DB5
  8
SAPA_PROFIL
 10
59.699999999640447
 20
57.499999999985448
 30
0.0
 42
-0.4142135623730939
  0
SEQEND
  5
1DB6
  8
SAPA_PROFIL
  0
POLYLINE
  5
1847
  8
SAPA_PROFIL
 66
     1
 10
0.0
 20
0.0
 30
0.0
 70
     1
  0
VERTEX
  5
1DB7
  8
SAPA_PROFIL
 10
135.69999992774439
 20
10.000000000032729
 30
0.0
 42
-0.4142135623624294
  0
VERTEX
  5
1DB8
  8
SAPA_PROFIL
 10
135.49999992775469
 20
10.20000000000798
 30
0.0
  0
VERTEX
  5
1DB9
  8
SAPA_PROFIL
 10
135.49999992774011
 20
11.050000000006539
 30
0.0
 42
0.4142135623730744
  0
VERTEX
  5
1DBA
  8
SAPA_PROFIL
 10
135.2999999277358
 20
11.250000000007271
 30
0.0
  0
VERTEX
  5
1DBB
  8
SAPA_PROFIL
 10
134.9999999277546
 20
11.24999999999998
 30
0.0
 42
0.4142135623731035
  0
VERTEX
  5
1DBC
  8
SAPA_PROFIL
 10
134.4999999277546
 20
10.74999999999998
 30
0.0
  0
VERTEX
  5
1DBD
  8
SAPA_PROFIL
 10
134.4999999277546
 20
7.7499999999999778
 30
0.0
 42
0.4142135623731035
  0
VERTEX
  5
1DBE
  8
SAPA_PROFIL
 10
134.9999999277546
 20
7.2499999999999778
 30
0.0
  0
VERTEX
  5
1DBF
  8
SAPA_PROFIL
 10
135.29999992775029
 20
7.2499999999999778
 30
0.0
 42
0.4142135623730744
  0
VERTEX
  5
1DC0
  8
SAPA_PROFIL
 10
135.49999992775469
 20
7.4500000000007196
 30
0.0
  0
VERTEX
  5
1DC1
  8
SAPA_PROFIL
 10
135.49999992774369
 20
8.3000000000029033
 30
0.0
 42
-0.4142135623730534
  0
VERTEX
  5
1DC2
  8
SAPA_PROFIL
 10
135.69999992774439
 20
8.4999999999999787
 30
0.0
  0
VERTEX
  5
1DC3
  8
SAPA_PROFIL
 10
136.69999992774439
 20
8.4999999999999787
 30
0.0
 42
-0.4142135623731035
  0
VERTEX
  5
1DC4
  8
SAPA_PROFIL
 10
137.19999992774439
 20
7.9999999999999778
 30
0.0
  0
VERTEX
  5
1DC5
  8
SAPA_PROFIL
 10
137.19999992774439
 20
1.999999999999992
 30
0.0
 42
-0.4142135623731033
  0
VERTEX
  5
1DC6
  8
SAPA_PROFIL
 10
136.69999992774439
 20
1.499999999999992
 30
0.0
  0
VERTEX
  5
1DC7
  8
SAPA_PROFIL
 10
135.69999992774439
 20
1.5000000000109059
 30
0.0
 42
-0.414213562373064
  0
VERTEX
  5
1DC8
  8
SAPA_PROFIL
 10
135.49999992775469
 20
1.70000000000072
 30
0.0
  0
VERTEX
  5
1DC9
  8
SAPA_PROFIL
 10
135.49999992775469
 20
2.5500000000029028
 30
0.0
 42
0.414213562373064
  0
VERTEX
  5
1DCA
  8
SAPA_PROFIL
 10
135.29999992775029
 20
2.749999999999992
 30
0.0
  0
VERTEX
  5
1DCB
  8
SAPA_PROFIL
 10
134.9999999277546
 20
2.749999999999992
 30
0.0
 42
0.4142135623731035
  0
VERTEX
  5
1DCC
  8
SAPA_PROFIL
 10
134.4999999277546
 20
2.249999999999992
 30
0.0
  0
VERTEX
  5
1DCD
  8
SAPA_PROFIL
 10
134.4999999277546
 20
0.4999999999999929
 30
0.0
 42
0.4142135623731035
  0
VERTEX
  5
1DCE
  8
SAPA_PROFIL
 10
134.9999999277546
 20
-0.0000000000000071
 30
0.0
  0
VERTEX
  5
1DCF
  8
SAPA_PROFIL
 10
137.4999999277546
 20
-0.0000000000000071
 30
0.0
 42
0.4142135623730966
  0
VERTEX
  5
1DD0
  8
SAPA_PROFIL
 10
138.9999999277546
 20
1.499999999999992
 30
0.0
  0
VERTEX
  5
1DD1
  8
SAPA_PROFIL
 10
138.99999992775469
 20
59.700000000000699
 30
0.0
 42
0.4142135623730935
  0
VERTEX
  5
1DD2
  8
SAPA_PROFIL
 10
138.6999999277445
 20
59.999999999999993
 30
0.0
  0
VERTEX
  5
1DD3
  8
SAPA_PROFIL
 10
90.743868969058383
 20
60.0
 30
0.0
 42
0.2418327667378115
  0
VERTEX
  5
1DD4
  8
SAPA_PROFIL
 10
90.49999992811999
 20
59.874722325032891
 30
0.0
 42
-0.2418327667509125
  0
VERTEX
  5
1DD5
  8
SAPA_PROFIL
 10
90.256130887164019
 20
59.749444650060461
 30
0.0
  0
VERTEX
  5
1DD6
  8
SAPA_PROFIL
 10
89.299999928114119
 20
59.74944465005683
 30
0.0
 42
-0.2418327667448973
  0
VERTEX
  5
1DD7
  8
SAPA_PROFIL
 10
89.056130887159185
 20
59.874722325025253
 30
0.0
 42
0.2418327667448979
  0
VERTEX
  5
1DD8
  8
SAPA_PROFIL
 10
88.81226184620661
 20
59.99999999999244
 30
0.0
  0
VERTEX
  5
1DD9
  8
SAPA_PROFIL
 10
86.714189490488607
 20
59.99999999999244
 30
0.0
 42
0.6681786379192718
  0
VERTEX
  5
1DDA
  8
SAPA_PROFIL
 10
86.007082709302011
 20
58.292893218805943
 30
0.0
  0
VERTEX
  5
1DDB
  8
SAPA_PROFIL
 10
87.312131962471
 20
56.98784396563677
 30
0.0
 42
0.1989123673797335
  0
VERTEX
  5
1DDC
  8
SAPA_PROFIL
 10
87.524263996827074
 20
56.899975999992662
 30
0.0
  0
VERTEX
  5
1DDD
  8
SAPA_PROFIL
 10
88.11076944357427
 20
56.899975999992797
 30
0.0
 42
0.1316524975873855
  0
VERTEX
  5
1DDE
  8
SAPA_PROFIL
 10
88.260769443574191
 20
56.940168378857443
 30
0.0
  0
VERTEX
  5
1DDF
  8
SAPA_PROFIL
 10
89.749999928115074
 20
57.799975999992753
 30
0.0
  0
VERTEX
  5
1DE0
  8
SAPA_PROFIL
 10
90.199999928115005
 20
57.79998799999241
 30
0.0
 42
-0.4142135623731054
  0
VERTEX
  5
1DE1
  8
SAPA_PROFIL
 10
90.499999928115017
 20
57.499987999992413
 30
0.0
  0
VERTEX
  5
1DE2
  8
SAPA_PROFIL
 10
90.49999992811496
 20
53.89997599999235
 30
0.0
 42
-0.4142135623730951
  0
VERTEX
  5
1DE3
  8
SAPA_PROFIL
 10
90.199999928114977
 20
53.599975999992353
 30
0.0
  0
VERTEX
  5
1DE4
  8
SAPA_PROFIL
 10
89.749999928114946
 20
53.599975999992452
 30
0.0
  0
VERTEX
  5
1DE5
  8
SAPA_PROFIL
 10
88.260739797040799
 20
54.45980073756143
 30
0.0
 42
0.1316363093594257
  0
VERTEX
  5
1DE6
  8
SAPA_PROFIL
 10
88.110758891994067
 20
54.499993115818398
 30
0.0
  0
VERTEX
  5
1DE7
  8
SAPA_PROFIL
 10
87.999999928111208
 20
54.500000165609201
 30
0.0
  0
VERTEX
  5
1DE8
  8
SAPA_PROFIL
 10
87.999999928111208
 20
52.914359353937471
 30
0.0
 42
0.2679491924308306
  0
VERTEX
  5
1DE9
  8
SAPA_PROFIL
 10
88.499999928111194
 20
52.048333950158849
 30
0.0
  0
VERTEX
  5
1DEA
  8
SAPA_PROFIL
 10
90.249999928111649
 20
51.03797097908037
 30
0.0
 42
-0.2679491924308306
  0
VERTEX
  5
1DEB
  8
SAPA_PROFIL
 10
90.499999928111208
 20
50.604958277188423
 30
0.0
  0
VERTEX
  5
1DEC
  8
SAPA_PROFIL
 10
90.499999928111208
 20
49.395041722807953
 30
0.0
 42
-0.2679491924308304
  0
VERTEX
  5
1DED
  8
SAPA_PROFIL
 10
90.249999928111208
 20
48.962029020916809
 30
0.0
  0
VERTEX
  5
1DEE
  8
SAPA_PROFIL
 10
88.499999928111194
 20
47.951666049841151
 30
0.0
 42
0.2679491924308308
  0
VERTEX
  5
1DEF
  8
SAPA_PROFIL
 10
87.999999928113084
 20
47.085640646055253
 30
0.0
  0
VERTEX
  5
1DF0
  8
SAPA_PROFIL
 10
87.999999928110952
 20
45.499999834387147
 30
0.0
  0
VERTEX
  5
1DF1
  8
SAPA_PROFIL
 10
88.110758891994067
 20
45.500006884177957
 30
0.0
 42
0.1316363093594255
  0
VERTEX
  5
1DF2
  8
SAPA_PROFIL
 10
88.260739797040799
 20
45.540199262434932
 30
0.0
  0
VERTEX
  5
1DF3
  8
SAPA_PROFIL
 10
89.749999928114946
 20
46.400024000003903
 30
0.0
  0
VERTEX
  5
1DF4
  8
SAPA_PROFIL
 10
90.199999928114977
 20
46.400024000004002
 30
0.0
 42
-0.4142135623730951
  0
VERTEX
  5
1DF5
  8
SAPA_PROFIL
 10
90.49999992811496
 20
46.100024000004012
 30
0.0
  0
VERTEX
  5
1DF6
  8
SAPA_PROFIL
 10
90.499999928115017
 20
42.500012000003949
 30
0.0
 42
-0.4142135623731054
  0
VERTEX
  5
1DF7
  8
SAPA_PROFIL
 10
90.199999928115005
 20
42.200012000003952
 30
0.0
  0
VERTEX
  5
1DF8
  8
SAPA_PROFIL
 10
89.749999928115074
 20
42.200024000003609
 30
0.0
  0
VERTEX
  5
1DF9
  8
SAPA_PROFIL
 10
88.260769443574191
 20
43.059831621138912
 30
0.0
 42
0.1316524975873855
  0
VERTEX
  5
1DFA
  8
SAPA_PROFIL
 10
88.11076944357427
 20
43.100024000003557
 30
0.0
  0
VERTEX
  5
1DFB
  8
SAPA_PROFIL
 10
87.524263996827074
 20
43.1000240000037
 30
0.0
 42
0.1989123673797335
  0
VERTEX
  5
1DFC
  8
SAPA_PROFIL
 10
87.312131962471
 20
43.012156034359577
 30
0.0
  0
VERTEX
  5
1DFD
  8
SAPA_PROFIL
 10
86.007082709302011
 20
41.707106781190419
 30
0.0
 42
0.6681786379192716
  0
VERTEX
  5
1DFE
  8
SAPA_PROFIL
 10
86.714189490488607
 20
40.000000000003922
 30
0.0
  0
VERTEX
  5
1DFF
  8
SAPA_PROFIL
 10
88.812261846208315
 20
40.000000000003922
 30
0.0
 42
0.2418327667433386
  0
VERTEX
  5
1E00
  8
SAPA_PROFIL
 10
89.056130887159867
 20
40.125277674969681
 30
0.0
 42
-0.2418327667449431
  0
VERTEX
  5
1E01
  8
SAPA_PROFIL
 10
89.299999928114119
 20
40.250555349935887
 30
0.0
  0
VERTEX
  5
1E02
  8
SAPA_PROFIL
 10
90.256130887164019
 20
40.250555349939532
 30
0.0
 42
-0.2418327667509097
  0
VERTEX
  5
1E03
  8
SAPA_PROFIL
 10
90.499999928111137
 20
40.125277674957111
 30
0.0
 42
0.2418327667378167
  0
VERTEX
  5
1E04
  8
SAPA_PROFIL
 10
90.743868969058383
 20
40.000000000003922
 30
0.0
  0
VERTEX
  5
1E05
  8
SAPA_PROFIL
 10
92.556610602824946
 20
39.999999999985448
 30
0.0
 42
0.1095178116817878
  0
VERTEX
  5
1E06
  8
SAPA_PROFIL
 10
93.401847126295934
 20
40.187384425907283
 30
0.0
  0
VERTEX
  5
1E07
  8
SAPA_PROFIL
 10
99.03167349143537
 20
42.812615574068332
 30
0.0
 42
-0.1095178116855129
  0
VERTEX
  5
1E08
  8
SAPA_PROFIL
 10
99.876910014919702
 20
43.0
 30
0.0
  0
VERTEX
  5
1E09
  8
SAPA_PROFIL
 10
106.9999999280967
 20
43.000000000007283
 30
0.0
 42
-0.4142135623730957
  0
VERTEX
  5
1E0A
  8
SAPA_PROFIL
 10
107.4999999280966
 20
42.499999999985448
 30
0.0
  0
VERTEX
  5
1E0B
  8
SAPA_PROFIL
 10
107.4999999280966
 20
41.499999999985441
 30
0.0
 42
-0.4142135623730915
  0
VERTEX
  5
1E0C
  8
SAPA_PROFIL
 10
106.9999999280967
 20
40.999999999985441
 30
0.0
  0
VERTEX
  5
1E0D
  8
SAPA_PROFIL
 10
106.7087120806149
 20
40.999999999985441
 30
0.0
 42
0.2982166266909514
  0
VERTEX
  5
1E0E
  8
SAPA_PROFIL
 10
106.250454511125
 20
40.69999999999834
 30
0.0
 42
1.5275252316550829
  0
VERTEX
  5
1E0F
  8
SAPA_PROFIL
 10
111.7495453450524
 20
40.699999999998433
 30
0.0
 42
0.2982166266892446
  0
VERTEX
  5
1E10
  8
SAPA_PROFIL
 10
111.2912877755856
 20
40.999999999976133
 30
0.0
  0
VERTEX
  5
1E11
  8
SAPA_PROFIL
 10
110.9999999280967
 20
40.999999999985441
 30
0.0
 42
-0.4142135623730915
  0
VERTEX
  5
1E12
  8
SAPA_PROFIL
 10
110.4999999280966
 20
41.499999999985441
 30
0.0
  0
VERTEX
  5
1E13
  8
SAPA_PROFIL
 10
110.4999999280966
 20
42.499999999985448
 30
0.0
 42
-0.4142135623730918
  0
VERTEX
  5
1E14
  8
SAPA_PROFIL
 10
110.9999999280967
 20
42.999999999985441
 30
0.0
  0
VERTEX
  5
1E15
  8
SAPA_PROFIL
 10
129.9230898409491
 20
42.999999999985427
 30
0.0
 42
-0.1095178116838485
  0
VERTEX
  5
1E16
  8
SAPA_PROFIL
 10
130.76832636443891
 20
42.812615574065511
 30
0.0
  0
VERTEX
  5
1E17
  8
SAPA_PROFIL
 10
135.64523645122739
 20
40.538475052471753
 30
0.0
 42
-0.2914734195858569
  0
VERTEX
  5
1E18
  8
SAPA_PROFIL
 10
136.79999992775029
 20
38.72585947838887
 30
0.0
  0
VERTEX
  5
1E19
  8
SAPA_PROFIL
 10
136.79999992775029
 20
19.000000000007269
 30
0.0
 42
-0.4142135623730951
  0
VERTEX
  5
1E1A
  8
SAPA_PROFIL
 10
136.29999992775029
 20
18.500000000007269
 30
0.0
  0
VERTEX
  5
1E1B
  8
SAPA_PROFIL
 10
135.9999999277328
 20
18.500000000007269
 30
0.0
 42
-0.4142135623731035
  0
VERTEX
  5
1E1C
  8
SAPA_PROFIL
 10
135.4999999277328
 20
19.000000000007269
 30
0.0
  0
VERTEX
  5
1E1D
  8
SAPA_PROFIL
 10
135.4999999277328
 20
20.300000000006541
 30
0.0
 42
0.4142135623730744
  0
VERTEX
  5
1E1E
  8
SAPA_PROFIL
 10
135.2999999277358
 20
20.50000000001091
 30
0.0
  0
VERTEX
  5
1E1F
  8
SAPA_PROFIL
 10
134.9999999277328
 20
20.500000000007251
 30
0.0
 42
0.4142135623731035
  0
VERTEX
  5
1E20
  8
SAPA_PROFIL
 10
134.4999999277328
 20
20.000000000007269
 30
0.0
  0
VERTEX
  5
1E21
  8
SAPA_PROFIL
 10
134.4999999277546
 20
16.250000000007269
 30
0.0
 42
0.4142135623731035
  0
VERTEX
  5
1E22
  8
SAPA_PROFIL
 10
134.9999999277546
 20
15.750000000007271
 30
0.0
  0
VERTEX
  5
1E23
  8
SAPA_PROFIL
 10
135.29999992775029
 20
15.750000000007271
 30
0.0
 42
0.4142135623731159
  0
VERTEX
  5
1E24
  8
SAPA_PROFIL
 10
135.4999999277583
 20
15.950000000022531
 30
0.0
  0
VERTEX
  5
1E25
  8
SAPA_PROFIL
 10
135.49999992775469
 20
16.800000000006541
 30
0.0
 42
-0.4142135623730951
  0
VERTEX
  5
1E26
  8
SAPA_PROFIL
 10
135.69999992774439
 20
17.000000000007269
 30
0.0
  0
VERTEX
  5
1E27
  8
SAPA_PROFIL
 10
136.69999992774439
 20
17.000000000007269
 30
0.0
 42
-0.4142135623731035
  0
VERTEX
  5
1E28
  8
SAPA_PROFIL
 10
137.19999992774439
 20
16.500000000007269
 30
0.0
  0
VERTEX
  5
1E29
  8
SAPA_PROFIL
 10
137.19999992774439
 20
10.500000000007249
 30
0.0
 42
-0.4142135623731033
  0
VERTEX
  5
1E2A
  8
SAPA_PROFIL
 10
136.69999992774439
 20
10.000000000007271
 30
0.0
  0
SEQEND
  5
1E2B
  8
SAPA_PROFIL
  0
POLYLINE
  5
1848
  8
SAPA_PROFIL
 66
     1
 10
0.0
 20
0.0
 30
0.0
 70
     1
  0
VERTEX
  5
1E2C
  8
SAPA_PROFIL
 10
92.999999928111208
 20
57.199999999986169
 30
0.0
  0
VERTEX
  5
1E2D
  8
SAPA_PROFIL
 10
92.999999928111208
 20
45.600000000005821
 30
0.0
 42
0.4142135623730951
  0
VERTEX
  5
1E2E
  8
SAPA_PROFIL
 10
93.299999928114119
 20
45.30000000000291
 30
0.0
  0
VERTEX
  5
1E2F
  8
SAPA_PROFIL
 10
136.1999999277445
 20
45.299999999981061
 30
0.0
 42
0.4142135623730935
  0
VERTEX
  5
1E30
  8
SAPA_PROFIL
 10
136.49999992774369
 20
45.599999999980341
 30
0.0
  0
VERTEX
  5
1E31
  8
SAPA_PROFIL
 10
136.49999992775469
 20
57.200000000000699
 30
0.0
 42
0.4142135623730935
  0
VERTEX
  5
1E32
  8
SAPA_PROFIL
 10
136.1999999277445
 20
57.499999999999993
 30
0.0
  0
VERTEX
  5
1E33
  8
SAPA_PROFIL
 10
93.299999928114119
 20
57.499999999985441
 30
0.0
 42
0.4142135623730939
  0
SEQEND
  5
1E34
  8
SAPA_PROFIL
  0
POLYLINE
  5
1849
  8
SAPA_PROFIL
 62
     4
 66
     1
 10
0.0
 20
0.0
 30
-0.2
 70
     1
1001
RC_PROFILE
1002
{
1000
Region
1002
}
  0
VERTEX
  5
1E35
  8
SAPA_PROFIL
 62
     4
 10
78.999999996510326
 20
16.652820282319411
 30
-0.2
  0
VERTEX
  5
1E36
  8
SAPA_PROFIL
 62
     4
 10
78.999999996510326
 20
2.4528202823173331
 30
-0.2
 42
-0.4142135623720297
  0
VERTEX
  5
1E37
  8
SAPA_PROFIL
 62
     4
 10
78.499999996512145
 20
1.9528202823173331
 30
-0.2
  0
VERTEX
  5
1E38
  8
SAPA_PROFIL
 62
     4
 10
74.499999995890946
 20
1.9528202823143621
 30
-0.2
 42
-0.4142135623730951
  0
VERTEX
  5
1E39
  8
SAPA_PROFIL
 62
     4
 10
73.99999999589096
 20
2.4528202823143621
 30
-0.2
  0
VERTEX
  5
1E3A
  8
SAPA_PROFIL
 62
     4
 10
73.999999995883684
 20
16.65282028231827
 30
-0.2
 42
-0.414213562373761
  0
VERTEX
  5
1E3B
  8
SAPA_PROFIL
 62
     4
 10
74.499999995883684
 20
17.152820282319389
 30
-0.2
  0
VERTEX
  5
1E3C
  8
SAPA_PROFIL
 62
     4
 10
78.499999996510326
 20
17.152820282319389
 30
-0.2
 42
-0.4142135623730951
  0
SEQEND
  5
1E3D
  8
SAPA_PROFIL
 62
     4
  0
POLYLINE
  5
184A
  8
SAPA_PROFIL
 62
     4
 66
     1
 10
0.0
 20
0.0
 30
0.0
1001
GENIUS_GENOBJ-N-FIL_13
1002
{
1000
OWNER
1000
GEN
1002
}
1001
GENIUS_GENODEF_13
1002
{
1000
HIER
1070
     0
1002
}
1002
{
1000
MANEDIT
1070
     0
1002
}
1002
{
1000
NOSEL
1070
     0
1002
}
1002
{
1000
BEHIND
1070
     0
1002
}
1002
{
1000
OTHER
1070
     0
1002
}
1002
{
1000
REACTOR
1002
}
  0
VERTEX
  5
1E3E
  8
SAPA_PROFIL
 62
     4
 10
65.577259926491877
 20
43.416293838728457
 30
0.0
 42
0.131652497587489
  0
VERTEX
  5
1E3F
  8
SAPA_PROFIL
 62
     4
 10
64.977259926491456
 20
43.255524323269718
 30
0.0
  0
VERTEX
  5
1E40
  8
SAPA_PROFIL
 62
     4
 10
63.236601985847933
 20
42.250554992671852
 30
0.0
  0
VERTEX
  5
1E41
  8
SAPA_PROFIL
 62
     4
 10
62.800000064269447
 20
42.250543349936493
 30
0.0
 42
-0.4142135623731046
  0
VERTEX
  5
1E42
  8
SAPA_PROFIL
 62
     4
 10
62.550000064269447
 20
42.500543349936493
 30
0.0
  0
VERTEX
  5
1E43
  8
SAPA_PROFIL
 62
     4
 10
62.550000064269511
 20
46.100555349936549
 30
0.0
 42
-0.4142135623730957
  0
VERTEX
  5
1E44
  8
SAPA_PROFIL
 62
     4
 10
62.800000064269483
 20
46.350555349936549
 30
0.0
  0
VERTEX
  5
1E45
  8
SAPA_PROFIL
 62
     4
 10
63.236602604647942
 20
46.350555349936457
 30
0.0
  0
VERTEX
  5
1E46
  8
SAPA_PROFIL
 62
     4
 10
64.922740202048828
 20
45.37706335418639
 30
0.0
 42
0.1316524975873848
  0
VERTEX
  5
1E47
  8
SAPA_PROFIL
 62
     4
 10
65.522740202048766
 20
45.216293838727729
 30
0.0
  0
VERTEX
  5
1E48
  8
SAPA_PROFIL
 62
     4
 10
87.477259790339787
 20
45.216293838727729
 30
0.0
 42
0.1316524975873846
  0
VERTEX
  5
1E49
  8
SAPA_PROFIL
 62
     4
 10
88.077259790339752
 20
45.37706335418639
 30
0.0
  0
VERTEX
  5
1E4A
  8
SAPA_PROFIL
 62
     4
 10
89.763397387740611
 20
46.350555349936457
 30
0.0
  0
VERTEX
  5
1E4B
  8
SAPA_PROFIL
 62
     4
 10
90.19999992811907
 20
46.350555349936549
 30
0.0
 42
-0.4142135623730951
  0
VERTEX
  5
1E4C
  8
SAPA_PROFIL
 62
     4
 10
90.449999928119084
 20
46.100555349936549
 30
0.0
  0
VERTEX
  5
1E4D
  8
SAPA_PROFIL
 62
     4
 10
90.449999928119084
 20
42.500543349936493
 30
0.0
 42
-0.4142135623731046
  0
VERTEX
  5
1E4E
  8
SAPA_PROFIL
 62
     4
 10
90.199999928119084
 20
42.250543349936493
 30
0.0
  0
VERTEX
  5
1E4F
  8
SAPA_PROFIL
 62
     4
 10
89.763398006540655
 20
42.250554992671852
 30
0.0
  0
VERTEX
  5
1E50
  8
SAPA_PROFIL
 62
     4
 10
88.022740065897096
 20
43.255524323269718
 30
0.0
 42
0.1316524975874892
  0
VERTEX
  5
1E51
  8
SAPA_PROFIL
 62
     4
 10
87.422740065896676
 20
43.416293838728457
 30
0.0
  0
VERTEX
  5
1E52
  8
SAPA_PROFIL
 62
     4
 10
84.699999928368072
 20
43.416293838727782
 30
0.0
 42
0.414213562374094
  0
VERTEX
  5
1E53
  8
SAPA_PROFIL
 62
     4
 10
83.499999928369164
 20
42.216293838723637
 30
0.0
  0
VERTEX
  5
1E54
  8
SAPA_PROFIL
 62
     4
 10
83.499999928458294
 20
16.418558811801809
 30
0.0
 42
-0.4142135623730951
  0
VERTEX
  5
1E55
  8
SAPA_PROFIL
 62
     4
 10
82.999999928458294
 20
15.918558811801811
 30
0.0
  0
VERTEX
  5
1E56
  8
SAPA_PROFIL
 62
     4
 10
82.799999928458476
 20
15.91855881180159
 30
0.0
 42
-0.4142135623730951
  0
VERTEX
  5
1E57
  8
SAPA_PROFIL
 62
     4
 10
82.499999928458294
 20
16.218558811801749
 30
0.0
  0
VERTEX
  5
1E58
  8
SAPA_PROFIL
 62
     4
 10
82.499999928458294
 20
16.868558811803659
 30
0.0
 42
0.4142135623730951
  0
VERTEX
  5
1E59
  8
SAPA_PROFIL
 62
     4
 10
82.199999928457189
 20
17.168558811803631
 30
0.0
  0
VERTEX
  5
1E5A
  8
SAPA_PROFIL
 62
     4
 10
81.299999928461204
 20
17.168558811802718
 30
0.0
 42
0.4142135623730951
  0
VERTEX
  5
1E5B
  8
SAPA_PROFIL
 62
     4
 10
80.799999928461204
 20
16.668558811803631
 30
0.0
  0
VERTEX
  5
1E5C
  8
SAPA_PROFIL
 62
     4
 10
80.799999928461204
 20
10.6685588118018
 30
0.0
 42
0.4142135623730951
  0
VERTEX
  5
1E5D
  8
SAPA_PROFIL
 62
     4
 10
81.299999928461204
 20
10.1685588118018
 30
0.0
  0
VERTEX
  5
1E5E
  8
SAPA_PROFIL
 62
     4
 10
82.199999928459931
 20
10.1685588118018
 30
0.0
 42
0.4142135623710974
  0
VERTEX
  5
1E5F
  8
SAPA_PROFIL
 62
     4
 10
82.499999928459204
 20
10.468558811799721
 30
0.0
  0
VERTEX
  5
1E60
  8
SAPA_PROFIL
 62
     4
 10
82.499999928463737
 20
11.11855881180162
 30
0.0
 42
-0.4142135623730951
  0
VERTEX
  5
1E61
  8
SAPA_PROFIL
 62
     4
 10
82.799999928465738
 20
11.41855881179978
 30
0.0
  0
VERTEX
  5
1E62
  8
SAPA_PROFIL
 62
     4
 10
82.999999928458294
 20
11.418558811798629
 30
0.0
 42
-0.4142135623730951
  0
VERTEX
  5
1E63
  8
SAPA_PROFIL
 62
     4
 10
83.499999928458294
 20
10.918558811798629
 30
0.0
  0
VERTEX
  5
1E64
  8
SAPA_PROFIL
 62
     4
 10
83.499999928458294
 20
7.9185588117986319
 30
0.0
 42
-0.4142135623730951
  0
VERTEX
  5
1E65
  8
SAPA_PROFIL
 62
     4
 10
82.999999928458294
 20
7.4185588117986319
 30
0.0
  0
VERTEX
  5
1E66
  8
SAPA_PROFIL
 62
     4
 10
82.799999928458476
 20
7.4185588117986319
 30
0.0
 42
-0.4142135623730951
  0
VERTEX
  5
1E67
  8
SAPA_PROFIL
 62
     4
 10
82.499999928458294
 20
7.7185588117988138
 30
0.0
  0
VERTEX
  5
1E68
  8
SAPA_PROFIL
 62
     4
 10
82.499999928458294
 20
8.368558811798664
 30
0.0
 42
0.4142135623730951
  0
VERTEX
  5
1E69
  8
SAPA_PROFIL
 62
     4
 10
82.199999928457189
 20
8.6685588117986327
 30
0.0
  0
VERTEX
  5
1E6A
  8
SAPA_PROFIL
 62
     4
 10
81.299999928461204
 20
8.6685588117986327
 30
0.0
 42
0.4142135623730951
  0
VERTEX
  5
1E6B
  8
SAPA_PROFIL
 62
     4
 10
80.799999928461204
 20
8.1685588117986327
 30
0.0
  0
VERTEX
  5
1E6C
  8
SAPA_PROFIL
 62
     4
 10
80.799999928461204
 20
2.1685588117986461
 30
0.0
 42
0.4142135623730951
  0
VERTEX
  5
1E6D
  8
SAPA_PROFIL
 62
     4
 10
81.299999928461204
 20
1.6685588117986321
 30
0.0
  0
VERTEX
  5
1E6E
  8
SAPA_PROFIL
 62
     4
 10
82.199999928457189
 20
1.6685588117986321
 30
0.0
 42
0.4142135623730951
  0
VERTEX
  5
1E6F
  8
SAPA_PROFIL
 62
     4
 10
82.499999928458294
 20
1.968558811798828
 30
0.0
  0
VERTEX
  5
1E70
  8
SAPA_PROFIL
 62
     4
 10
82.499999928458294
 20
2.618558811798692
 30
0.0
 42
-0.4142135623730949
  0
VERTEX
  5
1E71
  8
SAPA_PROFIL
 62
     4
 10
82.799999928458476
 20
2.9185588117986319
 30
0.0
  0
VERTEX
  5
1E72
  8
SAPA_PROFIL
 62
     4
 10
82.999999928458294
 20
2.9185588117986319
 30
0.0
 42
-0.4142135623730951
  0
VERTEX
  5
1E73
  8
SAPA_PROFIL
 62
     4
 10
83.499999928458294
 20
2.4185588117986319
 30
0.0
  0
VERTEX
  5
1E74
  8
SAPA_PROFIL
 62
     4
 10
83.499999928457385
 20
0.6685588117986328
 30
0.0
 42
-0.4142135623726955
  0
VERTEX
  5
1E75
  8
SAPA_PROFIL
 62
     4
 10
82.9999999281236
 20
0.1685588117986327
 30
0.0
  0
VERTEX
  5
1E76
  8
SAPA_PROFIL
 62
     4
 10
69.999999928116296
 20
0.1685588117984054
 30
0.0
 42
-0.4142135623732284
  0
VERTEX
  5
1E77
  8
SAPA_PROFIL
 62
     4
 10
69.499999927839823
 20
0.6685588117968138
 30
0.0
  0
VERTEX
  5
1E78
  8
SAPA_PROFIL
 62
     4
 10
69.499999927839823
 20
2.4185588117968129
 30
0.0
 42
-0.4142135623730951
  0
VERTEX
  5
1E79
  8
SAPA_PROFIL
 62
     4
 10
69.999999927839823
 20
2.9185588117968271
 30
0.0
  0
VERTEX
  5
1E7A
  8
SAPA_PROFIL
 62
     4
 10
70.199999927839656
 20
2.9185588117968271
 30
0.0
 42
-0.4142135623730951
  0
VERTEX
  5
1E7B
  8
SAPA_PROFIL
 62
     4
 10
70.499999927839838
 20
2.618558811796631
 30
0.0
  0
VERTEX
  5
1E7C
  8
SAPA_PROFIL
 62
     4
 10
70.499999927839823
 20
1.968558811796782
 30
0.0
 42
0.4142135623730951
  0
VERTEX
  5
1E7D
  8
SAPA_PROFIL
 62
     4
 10
70.799999927839096
 20
1.6685588117968271
 30
0.0
  0
VERTEX
  5
1E7E
  8
SAPA_PROFIL
 62
     4
 10
71.699999927836913
 20
1.6685588117968271
 30
0.0
 42
0.4142135623730951
  0
VERTEX
  5
1E7F
  8
SAPA_PROFIL
 62
     4
 10
72.199999927836927
 20
2.1685588117968129
 30
0.0
  0
VERTEX
  5
1E80
  8
SAPA_PROFIL
 62
     4
 10
72.199999927836927
 20
8.1685588117968138
 30
0.0
 42
0.4142135623730951
  0
VERTEX
  5
1E81
  8
SAPA_PROFIL
 62
     4
 10
71.699999927836927
 20
8.6685588117968138
 30
0.0
  0
VERTEX
  5
1E82
  8
SAPA_PROFIL
 62
     4
 10
70.79999992783911
 20
8.6685588117968138
 30
0.0
 42
0.4142135623730953
  0
VERTEX
  5
1E83
  8
SAPA_PROFIL
 62
     4
 10
70.499999927839838
 20
8.3685588117966319
 30
0.0
  0
VERTEX
  5
1E84
  8
SAPA_PROFIL
 62
     4
 10
70.499999927839838
 20
7.7185588117967683
 30
0.0
 42
-0.4142135623730951
  0
VERTEX
  5
1E85
  8
SAPA_PROFIL
 62
     4
 10
70.199999927839656
 20
7.4185588117968129
 30
0.0
  0
VERTEX
  5
1E86
  8
SAPA_PROFIL
 62
     4
 10
69.999999927839823
 20
7.4185588117968129
 30
0.0
 42
-0.4142135623730951
  0
VERTEX
  5
1E87
  8
SAPA_PROFIL
 62
     4
 10
69.499999927839823
 20
7.9185588117968129
 30
0.0
  0
VERTEX
  5
1E88
  8
SAPA_PROFIL
 62
     4
 10
69.499999927839823
 20
10.91855881179681
 30
0.0
 42
-0.4142135623730951
  0
VERTEX
  5
1E89
  8
SAPA_PROFIL
 62
     4
 10
69.999999927839823
 20
11.41855881179681
 30
0.0
  0
VERTEX
  5
1E8A
  8
SAPA_PROFIL
 62
     4
 10
70.19999992783238
 20
11.418558811797951
 30
0.0
 42
-0.414213562372873
  0
VERTEX
  5
1E8B
  8
SAPA_PROFIL
 62
     4
 10
70.499999927834381
 20
11.11855881179981
 30
0.0
  0
VERTEX
  5
1E8C
  8
SAPA_PROFIL
 62
     4
 10
70.499999927837095
 20
10.468558811798809
 30
0.0
 42
0.4142135623722071
  0
VERTEX
  5
1E8D
  8
SAPA_PROFIL
 62
     4
 10
70.799999927838201
 20
10.16855881179978
 30
0.0
  0
VERTEX
  5
1E8E
  8
SAPA_PROFIL
 62
     4
 10
71.699999927836927
 20
10.16855881179978
 30
0.0
 42
0.4142135623730951
  0
VERTEX
  5
1E8F
  8
SAPA_PROFIL
 62
     4
 10
72.199999927836927
 20
10.66855881179975
 30
0.0
  0
VERTEX
  5
1E90
  8
SAPA_PROFIL
 62
     4
 10
72.199999927829651
 20
16.668558811801809
 30
0.0
 42
0.4142135623730951
  0
VERTEX
  5
1E91
  8
SAPA_PROFIL
 62
     4
 10
71.699999927829651
 20
17.168558811801809
 30
0.0
  0
VERTEX
  5
1E92
  8
SAPA_PROFIL
 62
     4
 10
70.799999927832744
 20
17.168558811801809
 30
0.0
 42
0.4142135623730951
  0
VERTEX
  5
1E93
  8
SAPA_PROFIL
 62
     4
 10
70.499999927832562
 20
16.868558811801631
 30
0.0
  0
VERTEX
  5
1E94
  8
SAPA_PROFIL
 62
     4
 10
70.499999927832562
 20
16.218558811799721
 30
0.0
 42
-0.4142135623730951
  0
VERTEX
  5
1E95
  8
SAPA_PROFIL
 62
     4
 10
70.19999992783238
 20
15.91855881179975
 30
0.0
  0
VERTEX
  5
1E96
  8
SAPA_PROFIL
 62
     4
 10
69.999999927832562
 20
15.91855881179975
 30
0.0
 42
-0.4142135623730951
  0
VERTEX
  5
1E97
  8
SAPA_PROFIL
 62
     4
 10
69.499999927832562
 20
16.41855881179977
 30
0.0
  0
VERTEX
  5
1E98
  8
SAPA_PROFIL
 62
     4
 10
69.499999927914416
 20
42.216293838723637
 30
0.0
 42
0.414213562374094
  0
VERTEX
  5
1E99
  8
SAPA_PROFIL
 62
     4
 10
68.299999927914598
 20
43.416293838727547
 30
0.0
  0
VERTEX
  5
1E9A
  8
SAPA_PROFIL
 62
     4
 10
65.571518577834524
 20
43.416293838727782
 30
0.0
  0
SEQEND
  5
1E9B
  8
SAPA_PROFIL
 62
     4
  0
POLYLINE
  5
184B
  8
SAPA_PROFIL
 62
     4
 66
     1
 10
0.0
 20
0.0
 30
0.0
 70
     1
  0
VERTEX
  5
1E9C
  8
SAPA_PROFIL
 62
     4
 10
73.199999995879864
 20
18.452820282317301
 30
0.0
  0
VERTEX
  5
1E9D
  8
SAPA_PROFIL
 62
     4
 10
80.699999996438294
 20
18.452820282321412
 30
0.0
 42
0.4142135623730951
  0
VERTEX
  5
1E9E
  8
SAPA_PROFIL
 62
     4
 10
81.699999996438294
 20
19.452820282321412
 30
0.0
  0
VERTEX
  5
1E9F
  8
SAPA_PROFIL
 62
     4
 10
81.699999996453755
 20
42.600555309245188
 30
0.0
 42
0.4142135623730949
  0
VERTEX
  5
1EA0
  8
SAPA_PROFIL
 62
     4
 10
80.899999996453573
 20
43.40055530924537
 30
0.0
  0
VERTEX
  5
1EA1
  8
SAPA_PROFIL
 62
     4
 10
72.099999995934979
 20
43.40055530924537
 30
0.0
 42
0.414213562373428
  0
VERTEX
  5
1EA2
  8
SAPA_PROFIL
 62
     4
 10
71.299999995934783
 20
42.600555309244278
 30
0.0
  0
VERTEX
  5
1EA3
  8
SAPA_PROFIL
 62
     4
 10
71.299999995958444
 20
19.452820282317301
 30
0.0
 42
0.4142135623724957
  0
VERTEX
  5
1EA4
  8
SAPA_PROFIL
 62
     4
 10
72.299999995957535
 20
18.452820282319351
 30
0.0
  0
SEQEND
  5
1EA5
  8
SAPA_PROFIL
 62
     4
  0
LINE
  5
187F
  8
SAPA_GLAS
 10
87.249999928106888
 20
-4.7999999999992466
 30
0.0
 11
87.999999928120019
 21
-4.7999999999992466
 31
0.0
  0
LINE
  5
1880
  8
SAPA_GLAS
 10
87.999999928120005
 20
8.0000000000116778
 30
0.0
 11
87.2499999281209
 21
8.0000000000124878
 31
0.0
  0
LINE
  5
1881
  8
SAPA_GLAS
 10
130.74999992813349
 20
-4.7999999999992609
 30
0.0
 11
129.9999999281203
 21
-4.7999999999992609
 31
0.0
  0
LINE
  5
1882
  8
SAPA_GLAS
 10
129.9999999281203
 20
8.0000000000116636
 30
0.0
 11
130.74999992811939
 21
8.0000000000124736
 31
0.0
  0
INSERT
  5
1883
  8
SAPA_GLAS
  6
CONTINUOUS
  2
*X37
 10
0.0
 20
0.0
 30
0.0
1001
ACAD
1000
HATCH
1002
{
1070
    19
1000
ANSI37
1040
0.25
1040
-1.5707963267948959
1000
R14_HATCH_DATA
1000
1883
1011
1.0
1021
0.0
1031
0.0
1021
0.0
1031
0.0
1011
0.0
1021
0.0
1031
0.0
1021
1.0
1031
0.0
1011
0.0
1021
0.0
1031
0.0
1021
0.0
1031
1.0
1040
0.0
1010
0.0
1020
0.0
1030
1.0
1000
ANSI37
1070
     0
1070
     0
1071
        1
1071
        7
1070
     0
1070
     1
1071
        4
1040
87.249999927767419
1040
-4.7999999999992609
1040
87.999999928120005
1040
-4.7999999999992609
1040
87.999999928120005
1040
8.0000000000116778
1040
87.249999927781445
1040
8.0000000000125002
1071
        0
1070
     0
1070
     1
1040
-1.5707963267948959
1040
0.25
1070
     0
1070
     2
1040
5.4977871437821371
1040
85.499999928145115
1040
18.075855852310951
1040
0.5612660075668222
1040
0.5612660075668219
1070
     0
1040
0.7853981633974481
1040
85.499999928145115
1040
18.075855852310951
1040
-0.5612660075668219
1040
0.5612660075668222
1070
     0
1040
0.0325758689756538
1071
        1
1040
87.591681343362325
1040
2.7600895002107642
1040
0.0
1002
}
  0
INSERT
  5
1884
  8
SAPA_GLAS
  6
CONTINUOUS
  2
*X38
 10
0.0
 20
0.0
 30
0.0
1001
ACAD
1000
HATCH
1002
{
1070
    19
1000
ANSI37
1040
0.25
1040
-1.5707963267948959
1000
R14_HATCH_DATA
1000
1884
1011
1.0
1021
0.0
1031
0.0
1021
0.0
1031
0.0
1011
0.0
1021
0.0
1031
0.0
1021
1.0
1031
0.0
1011
0.0
1021
0.0
1031
0.0
1021
0.0
1031
1.0
1040
0.0
1010
0.0
1020
0.0
1030
1.0
1000
ANSI37
1070
     0
1070
     0
1071
        1
1071
        7
1070
     0
1070
     1
1071
        4
1040
129.9999999281203
1040
-4.7999999999992609
1040
130.74999992813349
1040
-4.7999999999992609
1040
130.74999992811939
1040
8.0000000000124736
1040
129.9999999281203
1040
8.0000000000116636
1071
        0
1070
     0
1070
     1
1040
-1.5707963267948959
1040
0.25
1070
     0
1070
     2
1040
5.4977871437821371
1040
85.499999928145115
1040
18.075855852310951
1040
0.5612660075668222
1040
0.5612660075668219
1070
     0
1040
0.7853981633974481
1040
85.499999928145115
1040
18.075855852310951
1040
-0.5612660075668219
1040
0.5612660075668222
1070
     0
1040
0.0230646099693014
1071
        1
1040
130.3476855708129
1040
4.1315771952974769
1040
0.0
1002
}
  0
POLYLINE
  5
1885
  8
SAPA_GLAS
 66
     1
 10
0.0
 20
0.0
 30
0.0
  0
VERTEX
  5
1F2D
  8
SAPA_GLAS
 10
87.999999928120005
 20
-23.999999999988319
 30
0.0
  0
VERTEX
  5
1F2E
  8
SAPA_GLAS
 10
87.999999928120005
 20
8.0000000000116742
 30
0.0
  0
VERTEX
  5
1F2F
  8
SAPA_GLAS
 10
93.999999928120005
 20
8.0000000000116742
 30
0.0
  0
VERTEX
  5
1F30
  8
SAPA_GLAS
 10
93.999999928120005
 20
-23.999999999988319
 30
0.0
  0
SEQEND
  5
1F31
  8
SAPA_GLAS
  0
POLYLINE
  5
1886
  8
SAPA_GLAS
 66
     1
 10
0.0
 20
0.0
 30
0.0
  0
VERTEX
  5
1F32
  8
SAPA_GLAS
 10
105.9999999281201
 20
-1.999999999988352
 30
0.0
  0
VERTEX
  5
1F33
  8
SAPA_GLAS
 10
93.999999928120175
 20
-1.999999999988338
 30
0.0
  0
VERTEX
  5
1F34
  8
SAPA_GLAS
 10
93.999999928120175
 20
8.0000000000116742
 30
0.0
  0
VERTEX
  5
1F35
  8
SAPA_GLAS
 10
105.9999999281201
 20
8.0000000000116405
 30
0.0
  0
VERTEX
  5
1F36
  8
SAPA_GLAS
 10
105.9999999281201
 20
-1.999999999988352
 30
0.0
  0
SEQEND
  5
1F37
  8
SAPA_GLAS
  0
POLYLINE
  5
1887
  8
SAPA_GLAS
 66
     1
 10
0.0
 20
0.0
 30
0.0
  0
VERTEX
  5
1F38
  8
SAPA_GLAS
 10
105.9999999281201
 20
-23.999999999988351
 30
0.0
  0
VERTEX
  5
1F39
  8
SAPA_GLAS
 10
105.9999999281201
 20
8.0000000000116547
 30
0.0
  0
VERTEX
  5
1F3A
  8
SAPA_GLAS
 10
111.9999999281201
 20
8.0000000000116547
 30
0.0
  0
VERTEX
  5
1F3B
  8
SAPA_GLAS
 10
111.9999999281201
 20
-23.999999999988351
 30
0.0
  0
SEQEND
  5
1F3C
  8
SAPA_GLAS
  0
POLYLINE
  5
1888
  8
SAPA_GLAS
 66
     1
 10
0.0
 20
0.0
 30
0.0
  0
VERTEX
  5
1F3D
  8
SAPA_GLAS
 10
123.9999999281203
 20
-1.99999999998837
 30
0.0
  0
VERTEX
  5
1F3E
  8
SAPA_GLAS
 10
111.9999999281203
 20
-1.999999999988352
 30
0.0
  0
VERTEX
  5
1F3F
  8
SAPA_GLAS
 10
111.9999999281203
 20
8.0000000000116547
 30
0.0
  0
VERTEX
  5
1F40
  8
SAPA_GLAS
 10
123.9999999281203
 20
8.0000000000116263
 30
0.0
  0
VERTEX
  5
1F41
  8
SAPA_GLAS
 10
123.9999999281203
 20
-1.99999999998837
 30
0.0
  0
SEQEND
  5
1F42
  8
SAPA_GLAS
  0
POLYLINE
  5
1889
  8
SAPA_GLAS
 66
     1
 10
0.0
 20
0.0
 30
0.0
  0
VERTEX
  5
1F43
  8
SAPA_GLAS
 10
129.9999999281203
 20
-23.999999999988361
 30
0.0
  0
VERTEX
  5
1F44
  8
SAPA_GLAS
 10
129.9999999281203
 20
8.0000000000116263
 30
0.0
  0
VERTEX
  5
1F45
  8
SAPA_GLAS
 10
123.9999999281203
 20
8.0000000000116263
 30
0.0
  0
VERTEX
  5
1F46
  8
SAPA_GLAS
 10
123.9999999281203
 20
-23.999999999988361
 30
0.0
  0
SEQEND
  5
1F47
  8
SAPA_GLAS
  0
POLYLINE
  5
189E
  8
SAPA_FOGBAND
 66
     1
 10
0.0
 20
0.0
 30
0.0
 70
     1
  0
VERTEX
  5
1F98
  8
SAPA_FOGBAND
 10
16.250000000023469
 20
1.850000000003035
 30
0.0
  0
VERTEX
  5
1F99
  8
SAPA_FOGBAND
 10
17.050000000023658
 20
1.850000000003035
 30
0.0
  0
VERTEX
  5
1F9A
  8
SAPA_FOGBAND
 10
17.050000000023658
 20
8.1500000000001194
 30
0.0
  0
VERTEX
  5
1F9B
  8
SAPA_FOGBAND
 10
16.250000000023469
 20
8.1500000000001194
 30
0.0
  0
SEQEND
  5
1F9C
  8
SAPA_FOGBAND
  0
POLYLINE
  5
189F
  8
SAPA_FOGBAND
 66
     1
 10
0.0
 20
0.0
 30
0.0
  0
VERTEX
  5
1F9D
  8
SAPA_FOGBAND
 10
17.050000000023658
 20
6.572689603142619
 30
0.0
  0
VERTEX
  5
1F9E
  8
SAPA_FOGBAND
 10
20.50000000002348
 20
7.6981362004585421
 30
0.0
  0
VERTEX
  5
1F9F
  8
SAPA_FOGBAND
 10
20.50000000002348
 20
5.2599981539100042
 30
0.0
  0
VERTEX
  5
1FA0
  8
SAPA_FOGBAND
 10
17.050000000023658
 20
5.1500000000030317
 30
0.0
  0
SEQEND
  5
1FA1
  8
SAPA_FOGBAND
  0
POLYLINE
  5
18A0
  8
SAPA_FOGBAND
 66
     1
 10
0.0
 20
0.0
 30
0.0
  0
VERTEX
  5
1FA2
  8
SAPA_FOGBAND
 10
17.050000000023658
 20
5.075000000002305
 30
0.0
  0
VERTEX
  5
1FA3
  8
SAPA_FOGBAND
 10
20.50000000002348
 20
5.0749999999990303
 30
0.0
  0
VERTEX
  5
1FA4
  8
SAPA_FOGBAND
 10
20.50000000002348
 20
4.9250000000008427
 30
0.0
  0
VERTEX
  5
1FA5
  8
SAPA_FOGBAND
 10
17.050000000023658
 20
4.9250000000008489
 30
0.0
  0
SEQEND
  5
1FA6
  8
SAPA_FOGBAND
  0
POLYLINE
  5
18A1
  8
SAPA_FOGBAND
 66
     1
 10
0.0
 20
0.0
 30
0.0
  0
VERTEX
  5
1FA7
  8
SAPA_FOGBAND
 10
17.050000000023658
 20
4.8500000000001222
 30
0.0
  0
VERTEX
  5
1FA8
  8
SAPA_FOGBAND
 10
20.50000000002348
 20
4.7400026148178753
 30
0.0
  0
VERTEX
  5
1FA9
  8
SAPA_FOGBAND
 10
20.50000000002348
 20
2.3019092743957121
 30
0.0
  0
VERTEX
  5
1FAA
  8
SAPA_FOGBAND
 10
17.050000000023658
 20
3.4273103968605341
 30
0.0
  0
SEQEND
  5
1FAB
  8
SAPA_FOGBAND
  0
POLYLINE
  5
18A2
  8
SAPA_FOGBAND
 66
     1
 10
0.0
 20
0.0
 30
0.0
 70
     1
  0
VERTEX
  5
1FAC
  8
SAPA_FOGBAND
 10
16.250000000023469
 20
10.35000000001031
 30
0.0
  0
VERTEX
  5
1FAD
  8
SAPA_FOGBAND
 10
17.050000000023658
 20
10.35000000001031
 30
0.0
  0
VERTEX
  5
1FAE
  8
SAPA_FOGBAND
 10
17.050000000023658
 20
16.650000000007392
 30
0.0
  0
VERTEX
  5
1FAF
  8
SAPA_FOGBAND
 10
16.250000000023469
 20
16.650000000007392
 30
0.0
  0
SEQEND
  5
1FB0
  8
SAPA_FOGBAND
  0
POLYLINE
  5
18A3
  8
SAPA_FOGBAND
 66
     1
 10
0.0
 20
0.0
 30
0.0
  0
VERTEX
  5
1FB1
  8
SAPA_FOGBAND
 10
17.050000000023658
 20
15.0726896031499
 30
0.0
  0
VERTEX
  5
1FB2
  8
SAPA_FOGBAND
 10
20.50000000002348
 20
16.198136200465811
 30
0.0
  0
VERTEX
  5
1FB3
  8
SAPA_FOGBAND
 10
20.50000000002348
 20
13.75999815391728
 30
0.0
  0
VERTEX
  5
1FB4
  8
SAPA_FOGBAND
 10
17.050000000023658
 20
13.65000000001031
 30
0.0
  0
SEQEND
  5
1FB5
  8
SAPA_FOGBAND
  0
POLYLINE
  5
18A4
  8
SAPA_FOGBAND
 66
     1
 10
0.0
 20
0.0
 30
0.0
  0
VERTEX
  5
1FB6
  8
SAPA_FOGBAND
 10
17.050000000023658
 20
13.575000000009579
 30
0.0
  0
VERTEX
  5
1FB7
  8
SAPA_FOGBAND
 10
20.50000000002348
 20
13.5750000000063
 30
0.0
  0
VERTEX
  5
1FB8
  8
SAPA_FOGBAND
 10
20.50000000002348
 20
13.42500000000812
 30
0.0
  0
VERTEX
  5
1FB9
  8
SAPA_FOGBAND
 10
17.050000000023658
 20
13.42500000000812
 30
0.0
  0
SEQEND
  5
1FBA
  8
SAPA_FOGBAND
  0
POLYLINE
  5
18A5
  8
SAPA_FOGBAND
 66
     1
 10
0.0
 20
0.0
 30
0.0
  0
VERTEX
  5
1FBB
  8
SAPA_FOGBAND
 10
17.050000000023658
 20
13.3500000000074
 30
0.0
  0
VERTEX
  5
1FBC
  8
SAPA_FOGBAND
 10
20.50000000002348
 20
13.24000261482515
 30
0.0
  0
VERTEX
  5
1FBD
  8
SAPA_FOGBAND
 10
20.50000000002348
 20
10.801909274402981
 30
0.0
  0
VERTEX
  5
1FBE
  8
SAPA_FOGBAND
 10
17.050000000023658
 20
11.92731039686781
 30
0.0
  0
SEQEND
  5
1FBF
  8
SAPA_FOGBAND
  0
POLYLINE
  5
18A6
  8
SAPA_FOGBAND
 66
     1
 10
0.0
 20
0.0
 30
0.0
 70
     1
  0
VERTEX
  5
1FC0
  8
SAPA_FOGBAND
 10
71.749999927836939
 20
2.018558811792516
 30
0.0
  0
VERTEX
  5
1FC1
  8
SAPA_FOGBAND
 10
70.949999927836757
 20
2.018558811792516
 30
0.0
  0
VERTEX
  5
1FC2
  8
SAPA_FOGBAND
 10
70.949999927836757
 20
8.3185588117896003
 30
0.0
  0
VERTEX
  5
1FC3
  8
SAPA_FOGBAND
 10
71.749999927836939
 20
8.3185588117896003
 30
0.0
  0
SEQEND
  5
1FC4
  8
SAPA_FOGBAND
  0
POLYLINE
  5
18A7
  8
SAPA_FOGBAND
 66
     1
 10
0.0
 20
0.0
 30
0.0
  0
VERTEX
  5
1FC5
  8
SAPA_FOGBAND
 10
70.949999927836757
 20
6.7412484149320999
 30
0.0
  0
VERTEX
  5
1FC6
  8
SAPA_FOGBAND
 10
67.499999927836939
 20
7.866695012248023
 30
0.0
  0
VERTEX
  5
1FC7
  8
SAPA_FOGBAND
 10
67.499999927836939
 20
5.4285569656994861
 30
0.0
  0
VERTEX
  5
1FC8
  8
SAPA_FOGBAND
 10
70.949999927836757
 20
5.3185588117925127
 30
0.0
  0
SEQEND
  5
1FC9
  8
SAPA_FOGBAND
  0
POLYLINE
  5
18A8
  8
SAPA_FOGBAND
 66
     1
 10
0.0
 20
0.0
 30
0.0
  0
VERTEX
  5
1FCA
  8
SAPA_FOGBAND
 10
70.949999927836757
 20
5.2435588117917851
 30
0.0
  0
VERTEX
  5
1FCB
  8
SAPA_FOGBAND
 10
67.499999927836939
 20
5.2435588117885121
 30
0.0
  0
VERTEX
  5
1FCC
  8
SAPA_FOGBAND
 10
67.499999927836939
 20
5.0935588117903254
 30
0.0
  0
VERTEX
  5
1FCD
  8
SAPA_FOGBAND
 10
70.949999927836757
 20
5.0935588117903299
 30
0.0
  0
SEQEND
  5
1FCE
  8
SAPA_FOGBAND
  0
POLYLINE
  5
18A9
  8
SAPA_FOGBAND
 66
     1
 10
0.0
 20
0.0
 30
0.0
  0
VERTEX
  5
1FCF
  8
SAPA_FOGBAND
 10
70.949999927836757
 20
5.0185588117896032
 30
0.0
  0
VERTEX
  5
1FD0
  8
SAPA_FOGBAND
 10
67.499999927836939
 20
4.9085614266073581
 30
0.0
  0
VERTEX
  5
1FD1
  8
SAPA_FOGBAND
 10
67.499999927836939
 20
2.4704680861851949
 30
0.0
  0
VERTEX
  5
1FD2
  8
SAPA_FOGBAND
 10
70.949999927836757
 20
3.595869208650015
 30
0.0
  0
SEQEND
  5
1FD3
  8
SAPA_FOGBAND
  0
POLYLINE
  5
18AA
  8
SAPA_FOGBAND
 66
     1
 10
0.0
 20
0.0
 30
0.0
 70
     1
  0
VERTEX
  5
1FD4
  8
SAPA_FOGBAND
 10
71.749999927836939
 20
10.518558811799791
 30
0.0
  0
VERTEX
  5
1FD5
  8
SAPA_FOGBAND
 10
70.949999927836757
 20
10.518558811799791
 30
0.0
  0
VERTEX
  5
1FD6
  8
SAPA_FOGBAND
 10
70.949999927836757
 20
16.818558811796869
 30
0.0
  0
VERTEX
  5
1FD7
  8
SAPA_FOGBAND
 10
71.749999927836939
 20
16.818558811796869
 30
0.0
  0
SEQEND
  5
1FD8
  8
SAPA_FOGBAND
  0
POLYLINE
  5
18AB
  8
SAPA_FOGBAND
 66
     1
 10
0.0
 20
0.0
 30
0.0
  0
VERTEX
  5
1FD9
  8
SAPA_FOGBAND
 10
70.949999927836757
 20
15.241248414939379
 30
0.0
  0
VERTEX
  5
1FDA
  8
SAPA_FOGBAND
 10
67.499999927836939
 20
16.366695012255299
 30
0.0
  0
VERTEX
  5
1FDB
  8
SAPA_FOGBAND
 10
67.499999927836939
 20
13.928556965706759
 30
0.0
  0
VERTEX
  5
1FDC
  8
SAPA_FOGBAND
 10
70.949999927836757
 20
13.81855881179979
 30
0.0
  0
SEQEND
  5
1FDD
  8
SAPA_FOGBAND
  0
POLYLINE
  5
18AC
  8
SAPA_FOGBAND
 66
     1
 10
0.0
 20
0.0
 30
0.0
  0
VERTEX
  5
1FDE
  8
SAPA_FOGBAND
 10
70.949999927836757
 20
13.74355881179906
 30
0.0
  0
VERTEX
  5
1FDF
  8
SAPA_FOGBAND
 10
67.499999927836939
 20
13.74355881179579
 30
0.0
  0
VERTEX
  5
1FE0
  8
SAPA_FOGBAND
 10
67.499999927836939
 20
13.5935588117976
 30
0.0
  0
VERTEX
  5
1FE1
  8
SAPA_FOGBAND
 10
70.949999927836757
 20
13.59355881179761
 30
0.0
  0
SEQEND
  5
1FE2
  8
SAPA_FOGBAND
  0
POLYLINE
  5
18AD
  8
SAPA_FOGBAND
 66
     1
 10
0.0
 20
0.0
 30
0.0
  0
VERTEX
  5
1FE3
  8
SAPA_FOGBAND
 10
70.949999927836757
 20
13.518558811796879
 30
0.0
  0
VERTEX
  5
1FE4
  8
SAPA_FOGBAND
 10
67.499999927836939
 20
13.40856142661463
 30
0.0
  0
VERTEX
  5
1FE5
  8
SAPA_FOGBAND
 10
67.499999927836939
 20
10.97046808619247
 30
0.0
  0
VERTEX
  5
1FE6
  8
SAPA_FOGBAND
 10
70.949999927836757
 20
12.095869208657289
 30
0.0
  0
SEQEND
  5
1FE7
  8
SAPA_FOGBAND
  0
DIMENSION
  5
18B9
  8
SAPA_MATT
  2
*D30
 10
180.99999985600721
 20
59.999999999999993
 30
0.0
 11
178.24999985600721
 21
27.499999999998209
 31
0.0
 70
     0
 13
130.94999992847269
 23
-5.0000000000036087
 33
0.0
 14
138.69999985599699
 24
60.0
 34
0.0
 50
270.0
1001
ACAD
1000
DSTYLE
1002
{
1070
    40
1040
1.0
1002
}
  0
DIMENSION
  5
18BA
  8
SAPA_MATT
  2
*D29
 10
168.99999985600721
 20
0.0000000000000906
 30
0.0
 11
166.24999985600721
 21
30.000000000000071
 31
0.0
 70
     0
 13
138.69999985599699
 23
60.0
 33
0.0
 14
137.49999985600709
 24
0.0000000000000995
 34
0.0
 50
270.0
1001
ACAD
1000
DSTYLE
1002
{
1070
    40
1040
1.0
1002
}
  0
DIMENSION
  5
18BB
  8
SAPA_MATT
  2
*D28
 10
13.999999928252491
 20
-55.999999999999979
 30
0.0
 11
76.499999928003518
 21
-55.999999999999979
 31
0.0
 70
   128
 13
138.99999992775449
 23
1.500000000000099
 33
0.0
 14
13.999999928252491
 24
1.499400869492149
 34
0.0
 50
180.0
1001
ACAD
1000
DSTYLE
1002
{
1070
    40
1040
1.0
1002
}
  0
DIMENSION
  5
18BC
  8
SAPA_MATT
  2
*D27
 10
13.999999928252491
 20
-44.000000000000021
 30
0.0
 11
50.142264778476253
 21
-43.239486851189767
 31
0.0
 70
   128
 13
85.4999999283676
 23
10.00000000017469
 33
0.0
 14
13.999999928252491
 24
1.499400869492149
 34
0.0
 50
180.0
1001
ACAD
1000
DSTYLE
1002
{
1070
   287
1070
     4
1070
    40
1040
1.0
1070
   279
1070
     1
1002
}
  0
DIMENSION
  5
18BD
  8
SAPA_MATT
  2
*D26
 10
85.4999999283676
 20
-44.000000000000007
 30
0.0
 11
108.99999992802169
 21
-41.250000000000007
 31
0.0
 70
     0
 13
132.4999999276759
 23
10.00000000017465
 33
0.0
 14
85.4999999283676
 24
10.00000000017469
 34
0.0
 50
180.0
1001
ACAD
1000
DSTYLE
1002
{
1070
   287
1070
     4
1070
    40
1040
1.0
1070
   279
1070
     1
1002
}
  0
DIMENSION
  5
18BE
  8
SAPA_MATT
  2
*D25
 10
132.4999999276759
 20
-44.000000000000007
 30
0.0
 11
135.74999992771521
 21
-44.000000000000007
 31
0.0
 70
   128
 13
138.99999992775449
 23
1.500000000000099
 33
0.0
 14
132.4999999276759
 24
10.00000000017465
 34
0.0
 50
180.0
1001
ACAD
1000
DSTYLE
1002
{
1070
    40
1040
1.0
1002
}
  0
DIMENSION
  5
18BF
  8
SAPA_MATT
  2
*D24
 10
168.9999999277546
 20
-5.0000000000036202
 30
0.0
 11
166.2499999277546
 21
-2.5000000000017368
 31
0.0
 70
     0
 13
137.49999992775449
 23
0.0000000000000995
 33
0.0
 14
130.94999992847269
 24
-5.0000000000036087
 34
0.0
 50
270.0
1001
ACAD
1000
DSTYLE
1002
{
1070
   287
1070
     4
1070
    40
1040
1.0
1070
   279
1070
     1
1002
}
  0
VIEWPORT
  5
C4
 67
     1
  8
0
 10
160.5543545598442
 20
116.00969601843509
 30
0.0
 40
404.96977709277462
 41
256.8421457311839
 68
     1
 69
     1
1001
ACAD
1000
MVIEW
1002
{
1070
    16
1010
0.0
1020
0.0
1030
0.0
1010
0.0
1020
0.0
1030
1.0
1040
0.0
1040
256.8421457311839
1040
99.206250190734863
1040
130.70624923706049
1040
50.0
1040
0.0
1040
0.0
1070
     0
1070
     0
1070
     1
1070
     1
1070
     0
1070
     0
1070
     0
1070
     0
1040
0.0
1040
0.0
1040
0.0
1040
10.0
1040
10.0
1040
10.0
1040
10.0
1070
     0
1002
{
1002
}
1002
}
  0
ENDSEC
  0
EOF
