  0
SECTION
  2
HEADER
  9
$ACADVER
  1
AC1009
  9
$INSBASE
 10
0.0
 20
0.0
 30
0.0
  9
$EXTMIN
 10
-36.49147905908525
 20
-111.29283270961361
 30
-0.2
  9
$EXTMAX
 10
194.0032559343997
 20
119.2500000000001
 30
0.0000000048844772
  9
$LIMMIN
 10
0.0
 20
0.0
  9
$LIMMAX
 10
790.0
 20
790.0
  9
$ORTHOMODE
 70
     1
  9
$REGENMODE
 70
     1
  9
$FILLMODE
 70
     1
  9
$QTEXTMODE
 70
     0
  9
$MIRRTEXT
 70
     1
  9
$DRAGMODE
 70
     2
  9
$LTSCALE
 40
4.0
  9
$OSMODE
 70
    37
  9
$ATTMODE
 70
     1
  9
$TEXTSIZE
 40
3.5
  9
$TRACEWID
 40
0.05
  9
$TEXTSTYLE
  7
ISO
  9
$CLAYER
  8
0
  9
$CELTYPE
  6
BYLAYER
  9
$CECOLOR
 62
   256
  9
$DIMSCALE
 40
0.0
  9
$DIMASZ
 40
3.0
  9
$DIMEXO
 40
1.5
  9
$DIMDLI
 40
10.0
  9
$DIMRND
 40
0.0
  9
$DIMDLE
 40
0.0
  9
$DIMEXE
 40
1.5
  9
$DIMTP
 40
0.0
  9
$DIMTM
 40
0.0
  9
$DIMTXT
 40
3.5
  9
$DIMCEN
 40
-5.0
  9
$DIMTSZ
 40
0.0
  9
$DIMTOL
 70
     0
  9
$DIMLIM
 70
     0
  9
$DIMTIH
 70
     0
  9
$DIMTOH
 70
     0
  9
$DIMSE1
 70
     0
  9
$DIMSE2
 70
     0
  9
$DIMTAD
 70
     1
  9
$DIMZIN
 70
     8
  9
$DIMBLK
  1

  9
$DIMASO
 70
     1
  9
$DIMSHO
 70
     1
  9
$DIMPOST
  1

  9
$DIMAPOST
  1

  9
$DIMALT
 70
     0
  9
$DIMALTD
 70
     0
  9
$DIMALTF
 40
25.399999999999999
  9
$DIMLFAC
 40
-1.0
  9
$DIMTOFL
 70
     1
  9
$DIMTVP
 40
0.0
  9
$DIMTIX
 70
     0
  9
$DIMSOXD
 70
     0
  9
$DIMSAH
 70
     0
  9
$DIMBLK1
  1

  9
$DIMBLK2
  1

  9
$DIMSTYLE
  2
MASKIN
  9
$DIMCLRD
 70
   256
  9
$DIMCLRE
 70
   256
  9
$DIMCLRT
 70
     2
  9
$DIMTFAC
 40
1.0
  9
$DIMGAP
 40
1.0
  9
$LUNITS
 70
     2
  9
$LUPREC
 70
     8
  9
$SKETCHINC
 40
0.1
  9
$FILLETRAD
 40
0.0
  9
$AUNITS
 70
     0
  9
$AUPREC
 70
     8
  9
$MENU
  1
ACAD
  9
$ELEVATION
 40
0.0
  9
$PELEVATION
 40
0.0
  9
$THICKNESS
 40
0.0
  9
$LIMCHECK
 70
     0
  9
$BLIPMODE
 70
     0
  9
$CHAMFERA
 40
0.0
  9
$CHAMFERB
 40
0.0
  9
$SKPOLY
 70
     0
  9
$TDCREATE
 40
2455734.560015128
  9
$TDUPDATE
 40
2455782.487733576
  9
$TDINDWG
 40
1.1172942939999999
  9
$TDUSRTIMER
 40
1.1172941087999999
  9
$USRTIMER
 70
     1
  9
$ANGBASE
 50
0.0
  9
$ANGDIR
 70
     0
  9
$PDMODE
 70
     0
  9
$PDSIZE
 40
0.0
  9
$PLINEWID
 40
0.0
  9
$COORDS
 70
     1
  9
$SPLFRAME
 70
     0
  9
$SPLINETYPE
 70
     6
  9
$SPLINESEGS
 70
     8
  9
$ATTDIA
 70
     0
  9
$ATTREQ
 70
     1
  9
$HANDLING
 70
     1
  9
$HANDSEED
  5
1A30
  9
$SURFTAB1
 70
     6
  9
$SURFTAB2
 70
     6
  9
$SURFTYPE
 70
     6
  9
$SURFU
 70
     6
  9
$SURFV
 70
     6
  9
$UCSNAME
  2

  9
$UCSORG
 10
0.0
 20
0.0
 30
0.0
  9
$UCSXDIR
 10
1.0
 20
0.0
 30
0.0
  9
$UCSYDIR
 10
0.0
 20
1.0
 30
0.0
  9
$PUCSNAME
  2

  9
$PUCSORG
 10
0.0
 20
0.0
 30
0.0
  9
$PUCSXDIR
 10
1.0
 20
0.0
 30
0.0
  9
$PUCSYDIR
 10
0.0
 20
1.0
 30
0.0
  9
$USERI1
 70
     0
  9
$USERI2
 70
     0
  9
$USERI3
 70
     0
  9
$USERI4
 70
     0
  9
$USERI5
 70
     0
  9
$USERR1
 40
0.0
  9
$USERR2
 40
0.0
  9
$USERR3
 40
0.0
  9
$USERR4
 40
0.0
  9
$USERR5
 40
0.0
  9
$WORLDVIEW
 70
     1
  9
$SHADEDGE
 70
     3
  9
$SHADEDIF
 70
    70
  9
$TILEMODE
 70
     1
  9
$MAXACTVP
 70
    16
  9
$PLIMCHECK
 70
     0
  9
$PEXTMIN
 10
1.0000000000000000E+020
 20
1.0000000000000000E+020
 30
1.0000000000000000E+020
  9
$PEXTMAX
 10
-1.0000000000000000E+020
 20
-1.0000000000000000E+020
 30
-1.0000000000000000E+020
  9
$PLIMMIN
 10
-5.069427490234375
 20
-5.8737497329711914
  9
$PLIMMAX
 10
291.89889526367187
 20
204.0995779037475
  9
$UNITMODE
 70
     0
  9
$VISRETAIN
 70
     1
  9
$PLINEGEN
 70
     0
  9
$PSLTSCALE
 70
     1
  0
ENDSEC
  0
SECTION
  2
TABLES
  0
TABLE
  2
VPORT
 70
     1
  0
VPORT
  2
*ACTIVE
 70
     0
 10
0.0
 20
0.0
 11
1.0
 21
1.0
 12
84.856197547306152
 22
3.976694037052197
 13
0.0
 23
0.0
 14
1.0
 24
1.0
 15
0.0
 25
0.0
 16
0.0
 26
0.0
 36
1.0
 17
0.0
 27
0.0
 37
0.0
 40
232.30642208043139
 41
2.362397820163487
 42
50.0
 43
0.0
 44
0.0
 50
0.0
 51
0.0
 71
     0
 72
   100
 73
     1
 74
     1
 75
     0
 76
     0
 77
     0
 78
     0
  0
ENDTAB
  0
TABLE
  2
LTYPE
 70
     3
  0
LTYPE
  2
CONTINUOUS
 70
     0
  3
Solid line
 72
    65
 73
     0
 40
0.0
  0
LTYPE
  2
BYGG-027377$0$NEWDOT
 70
     0
  3
____ . ____ . ____ . ____ . ____ . ____ . ____
 72
    65
 73
     4
 40
2.0
 49
1.0
 49
-0.5
 49
0.0
 49
-0.5
  0
LTYPE
  2
BYGG-027291$0$NEWDOT
 70
     0
  3
____ . ____ . ____ . ____ . ____ . ____ . ____
 72
    65
 73
     4
 40
2.0
 49
1.0
 49
-0.5
 49
0.0
 49
-0.5
  0
ENDTAB
  0
TABLE
  2
LAYER
 70
    31
  0
LAYER
  2
0
 70
     0
 62
     7
  6
CONTINUOUS
  0
LAYER
  2
DEFPOINTS
 70
     0
 62
     7
  6
CONTINUOUS
  0
LAYER
  2
SAPA_ARTIKELNR
 70
     0
 62
     4
  6
CONTINUOUS
  0
LAYER
  2
SAPA_GLAS
 70
     0
 62
     4
  6
CONTINUOUS
  0
LAYER
  2
SAPA_ANSLUTNING
 70
     0
 62
     6
  6
CONTINUOUS
  0
LAYER
  2
SAPA_MATT
 70
     0
 62
     1
  6
CONTINUOUS
  0
LAYER
  2
SAPA_FOGBAND
 70
     0
 62
     2
  6
CONTINUOUS
  0
LAYER
  2
SAPA_PROFIL
 70
     0
 62
     7
  6
CONTINUOUS
  0
ENDTAB
  0
TABLE
  2
STYLE
 70
    12
  0
STYLE
  2
STANDARD
 70
     0
 40
0.0
 41
1.0
 50
0.0
 71
     0
 42
0.2
  3
txt
  4

  0
STYLE
  2
ISO
 70
     0
 40
0.0
 41
1.0
 50
0.0
 71
     0
 42
3.5
  3
txt
  4

  0
STYLE
  2
BYGG-027459$0$STANDARD
 70
     0
 40
0.0
 41
1.0
 50
0.0
 71
     0
 42
0.2
  3
txt
  4

  0
STYLE
  2
BYGG-027459$0$ISO
 70
     0
 40
0.0
 41
1.0
 50
0.0
 71
     0
 42
3.5
  3
txt
  4

  0
STYLE
  2
BYGG-027377$0$STANDARD
 70
     0
 40
0.0
 41
1.0
 50
0.0
 71
     0
 42
0.2
  3
txt
  4

  0
STYLE
  2
BYGG-027377$0$ISO
 70
     0
 40
0.0
 41
1.0
 50
0.0
 71
     0
 42
3.5
  3
txt
  4

  0
STYLE
  2
BYGG-027392$0$STANDARD
 70
     0
 40
0.0
 41
1.0
 50
0.0
 71
     0
 42
0.2
  3
txt
  4

  0
STYLE
  2
BYGG-027392$0$ISO
 70
     0
 40
0.0
 41
1.0
 50
0.0
 71
     0
 42
3.5
  3
txt
  4

  0
STYLE
  2
BYGG-027413$0$STANDARD
 70
     0
 40
0.0
 41
1.0
 50
0.0
 71
     0
 42
0.2
  3
txt
  4

  0
STYLE
  2
BYGG-027413$0$ISO
 70
     0
 40
0.0
 41
1.0
 50
0.0
 71
     0
 42
3.5
  3
txt
  4

  0
STYLE
  2
BYGG-027291$0$STANDARD
 70
     0
 40
0.0
 41
1.0
 50
0.0
 71
     0
 42
0.2
  3
txt
  4

  0
STYLE
  2
BYGG-027291$0$ISO
 70
     0
 40
0.0
 41
1.0
 50
0.0
 71
     0
 42
3.5
  3
txt
  4

  0
ENDTAB
  0
TABLE
  2
VIEW
 70
     0
  0
ENDTAB
  0
TABLE
  2
UCS
 70
     0
  0
ENDTAB
  0
TABLE
  2
APPID
 70
    27
  0
APPID
  2
ACAD
 70
     0
  0
APPID
  2
ACAD_DSTYLE_DIMTEXT_FILL
 70
     0
  0
APPID
  2
ACAD_DSTYLE_DIMEXT_LENGTH
 70
     0
  0
APPID
  2
ACAD_DSTYLE_DIMEXT_ENABLED
 70
     0
  0
APPID
  2
ACAD_DSTYLE_DIM_LINETYPE
 70
     0
  0
APPID
  2
ACAD_DSTYLE_DIM_EXT1_LINETYPE
 70
     0
  0
APPID
  2
ACAD_DSTYLE_DIM_EXT2_LINETYPE
 70
     0
  0
APPID
  2
ACAD_DSTYLE_DIMJOGGED_JOGA
 70
     0
  0
APPID
  2
ACAD_DSTYLE_DIMARC_LENGTH_
 70
     0
  0
APPID
  2
ACAD_PSEXT
 70
     0
  0
APPID
  2
ACAD_MLEADERVER
 70
     0
  0
APPID
  2
GENIUS_GENODEF_13
 70
     0
  0
APPID
  2
RC_PROFILE
 70
     0
  0
APPID
  2
ACAECLAYERSTANDARD
 70
     0
  0
APPID
  2
GENIUS_GENOBJ-N-FIL_13
 70
     0
  0
APPID
  2
ACADANNOTATIVE
 70
     0
  0
APPID
  2
ACAD_EXEMPT_FROM_CAD_STANDARDS
 70
     0
  0
APPID
  2
AEC_XDATA_BOUND_SPACE
 70
     0
  0
APPID
  2
ACAD_DSTYLE_DIMJAG
 70
     0
  0
APPID
  2
ACAD_DSTYLE_DIMTALN
 70
     0
  0
APPID
  2
GENIUS_GENREC_14
 70
     0
  0
APPID
  2
GENIUS_GENOBJ-N-REC_13
 70
     0
  0
APPID
  2
ACDBDYNAMICBLOCKTRUENAME
 70
     0
  0
APPID
  2
ACDBBLOCKREPETAG
 70
     0
  0
APPID
  2
ACDBDYNAMICBLOCKGUID
 70
     0
  0
APPID
  2
ACDBBLOCKREPBTAG
 70
     0
  0
APPID
  2
GENIUS_GENOREF_13
 70
     0
  0
ENDTAB
  0
TABLE
  2
DIMSTYLE
 70
     6
  0
DIMSTYLE
  2
MASKIN
 70
     0
  3

  4

  5

  6

  7

 40
0.0
 41
3.0
 42
1.5
 43
10.0
 44
1.5
 45
0.0
 46
0.0
 47
0.0
 48
0.0
140
3.5
141
-5.0
142
0.0
143
25.399999999999999
144
-1.0
145
0.0
146
1.0
147
1.0
 71
     0
 72
     0
 73
     0
 74
     0
 75
     0
 76
     0
 77
     1
 78
     8
170
     0
171
     0
172
     1
173
     0
174
     0
175
     0
176
   256
177
   256
178
     2
  0
DIMSTYLE
  2
BYGG-027459$0$MASKIN
 70
     0
  3

  4

  5

  6

  7

 40
0.0
 41
3.0
 42
1.5
 43
10.0
 44
1.5
 45
0.0
 46
0.0
 47
0.0
 48
0.0
140
3.0
141
-5.0
142
0.0
143
25.399999999999999
144
-1.0
145
0.0
146
1.0
147
1.0
 71
     0
 72
     0
 73
     0
 74
     0
 75
     0
 76
     0
 77
     1
 78
     8
170
     0
171
     0
172
     1
173
     0
174
     0
175
     0
176
   256
177
   256
178
     2
  0
DIMSTYLE
  2
BYGG-027377$0$MASKIN
 70
     0
  3

  4

  5

  6

  7

 40
0.0
 41
3.0
 42
1.5
 43
10.0
 44
1.5
 45
0.0
 46
0.0
 47
0.0
 48
0.0
140
3.0
141
-5.0
142
0.0
143
25.399999999999999
144
-1.0
145
0.0
146
1.0
147
1.0
 71
     0
 72
     0
 73
     0
 74
     0
 75
     0
 76
     0
 77
     1
 78
     8
170
     0
171
     0
172
     1
173
     0
174
     0
175
     0
176
   256
177
   256
178
     2
  0
DIMSTYLE
  2
BYGG-027392$0$MASKIN
 70
     0
  3

  4

  5

  6

  7

 40
0.0
 41
3.0
 42
1.5
 43
10.0
 44
1.5
 45
0.0
 46
0.0
 47
0.0
 48
0.0
140
3.0
141
-5.0
142
0.0
143
25.399999999999999
144
-1.0
145
0.0
146
1.0
147
1.0
 71
     0
 72
     0
 73
     0
 74
     0
 75
     0
 76
     0
 77
     1
 78
     8
170
     0
171
     0
172
     1
173
     0
174
     0
175
     0
176
   256
177
   256
178
     2
  0
DIMSTYLE
  2
BYGG-027413$0$MASKIN
 70
     0
  3

  4

  5

  6

  7

 40
0.0
 41
3.0
 42
1.5
 43
10.0
 44
1.5
 45
0.0
 46
0.0
 47
0.0
 48
0.0
140
3.0
141
-5.0
142
0.0
143
25.399999999999999
144
-1.0
145
0.0
146
1.0
147
1.0
 71
     0
 72
     0
 73
     0
 74
     0
 75
     0
 76
     0
 77
     1
 78
     8
170
     0
171
     0
172
     1
173
     0
174
     0
175
     0
176
   256
177
   256
178
     2
  0
DIMSTYLE
  2
BYGG-027291$0$MASKIN
 70
     0
  3

  4

  5

  6

  7

 40
0.0
 41
3.0
 42
1.5
 43
10.0
 44
1.5
 45
0.0
 46
0.0
 47
0.0
 48
0.0
140
3.0
141
-5.0
142
0.0
143
25.399999999999999
144
-1.0
145
0.0
146
1.0
147
1.0
 71
     0
 72
     0
 73
     0
 74
     0
 75
     0
 76
     0
 77
     1
 78
     8
170
     0
171
     0
172
     1
173
     0
174
     0
175
     0
176
   256
177
   256
178
     2
  0
ENDTAB
  0
ENDSEC
  0
SECTION
  2
BLOCKS
  0
BLOCK
  8
0
  2
$MODEL_SPACE
 70
     0
 10
0.0
 20
0.0
 30
0.0
  3
$MODEL_SPACE
  1

  0
ENDBLK
  5
37
  8
0
  0
BLOCK
 67
     1
  8
0
  2
$PAPER_SPACE
 70
     0
 10
0.0
 20
0.0
 30
0.0
  3
$PAPER_SPACE
  1

  0
ENDBLK
  5
35
 67
     1
  8
0
  0
BLOCK
  8
0
  2
*D24
 70
     1
 10
0.0
 20
0.0
 30
0.0
  3
*D24
  1

  0
LINE
  5
1047
  8
SAPA_MATT
 10
139.12499999950211
 20
-56.999999999999972
 30
0.0
 11
170.49999999950211
 21
-56.999999999999979
 31
0.0
  0
LINE
  5
1048
  8
SAPA_MATT
 10
138.99999999950211
 20
60.0
 30
0.0
 11
170.49999999950211
 21
60.0
 31
0.0
  0
LINE
  5
1049
  8
SAPA_MATT
 10
168.99999999950211
 20
-53.999999999999979
 30
0.0
 11
168.99999999950211
 21
56.999999999999993
 31
0.0
  0
SOLID
  5
104A
  8
SAPA_MATT
 10
168.49999999950211
 20
-53.999999999999979
 30
0.0
 11
169.49999999950211
 21
-53.999999999999979
 31
0.0
 12
168.99999999950211
 22
-56.999999999999979
 32
0.0
 13
168.99999999950211
 23
-56.999999999999979
 33
0.0
  0
SOLID
  5
104B
  8
SAPA_MATT
 10
168.49999999950211
 20
56.999999999999993
 30
0.0
 11
169.49999999950211
 21
56.999999999999993
 31
0.0
 12
168.99999999950211
 22
60.0
 32
0.0
 13
168.99999999950211
 23
60.0
 33
0.0
  0
INSERT
  5
104C
  8
0
  2
*U62
 10
0.0
 20
0.0
 30
0.0
  0
POINT
  5
104D
  8
DEFPOINTS
 62
     0
 10
137.62499999950211
 20
-56.999999999999972
 30
0.0
  0
POINT
  5
104E
  8
DEFPOINTS
 62
     0
 10
137.49999999950211
 20
60.0
 30
0.0
  0
POINT
  5
104F
  8
DEFPOINTS
 62
     0
 10
168.99999999950211
 20
60.0
 30
0.0
  0
ENDBLK
  5
FBB
  8
0
  0
BLOCK
  8
0
  2
*D25
 70
     1
 10
0.0
 20
0.0
 30
0.0
  3
*D25
  1

  0
LINE
  5
1992
  8
SAPA_MATT
 10
138.99999999950211
 20
60.0
 30
0.0
 11
170.49999999950211
 21
60.0
 31
0.0
  0
LINE
  5
1993
  8
SAPA_MATT
 10
132.4499999282481
 20
70.000000000011042
 30
0.0
 11
170.49999999950211
 21
70.000000000011028
 31
0.0
  0
LINE
  5
1994
  8
SAPA_MATT
 10
168.99999999950211
 20
62.999999999999993
 30
0.0
 11
168.99999999950211
 21
67.000000000011028
 31
0.0
  0
SOLID
  5
1995
  8
SAPA_MATT
 10
168.49999999950211
 20
62.999999999999993
 30
0.0
 11
169.49999999950211
 21
62.999999999999993
 31
0.0
 12
168.99999999950211
 22
60.0
 32
0.0
 13
168.99999999950211
 23
60.0
 33
0.0
  0
SOLID
  5
1996
  8
SAPA_MATT
 10
168.49999999950211
 20
67.000000000011028
 30
0.0
 11
169.49999999950211
 21
67.000000000011028
 31
0.0
 12
168.99999999950211
 22
70.000000000011028
 32
0.0
 13
168.99999999950211
 23
70.000000000011028
 33
0.0
  0
TEXT
  8
SAPA_MATT
  40
3.5
  5
19AB
  62
2
  72
0
  71
0
 10
159.250
 20
58.8050
 30
0.000000
  1
10
  7
ISO
  0
POINT
  5
1998
  8
DEFPOINTS
 62
     0
 10
137.49999999950211
 20
60.0
 30
0.0
  0
POINT
  5
1999
  8
DEFPOINTS
 62
     0
 10
130.9499999282481
 20
70.000000000011042
 30
0.0
  0
POINT
  5
199A
  8
DEFPOINTS
 62
     0
 10
168.99999999950211
 20
70.000000000011028
 30
0.0
  0
ENDBLK
  5
FC7
  8
0
  0
BLOCK
  8
0
  2
*D26
 70
     1
 10
0.0
 20
0.0
 30
0.0
  3
*D26
  1

  0
LINE
  5
1035
  8
SAPA_MATT
 10
14.00000000000003
 20
60.0
 30
0.0
 11
14.00000000000003
 21
102.5000000000001
 31
0.0
  0
LINE
  5
1036
  8
SAPA_MATT
 10
85.500000000180634
 20
56.500000000019853
 30
0.0
 11
85.500000000180634
 21
102.5000000000001
 31
0.0
  0
LINE
  5
1037
  8
SAPA_MATT
 10
17.000000000000028
 20
101.0000000000001
 30
0.0
 11
82.500000000180648
 21
101.0000000000001
 31
0.0
  0
SOLID
  5
1038
  8
SAPA_MATT
 10
17.000000000000028
 20
101.5000000000001
 30
0.0
 11
17.000000000000028
 21
100.5000000000001
 31
0.0
 12
14.00000000000003
 22
101.0000000000001
 32
0.0
 13
14.00000000000003
 23
101.0000000000001
 33
0.0
  0
SOLID
  5
1039
  8
SAPA_MATT
 10
82.500000000180648
 20
101.5000000000001
 30
0.0
 11
82.500000000180648
 21
100.5000000000001
 31
0.0
 12
85.500000000180634
 22
101.0000000000001
 32
0.0
 13
85.500000000180634
 23
101.0000000000001
 33
0.0
  0
INSERT
  5
103A
  8
0
  2
*U61
 10
0.0
 20
0.0
 30
0.0
  0
POINT
  5
103B
  8
DEFPOINTS
 62
     0
 10
14.00000000000003
 20
58.5
 30
0.0
  0
POINT
  5
103C
  8
DEFPOINTS
 62
     0
 10
85.500000000180634
 20
55.000000000019853
 30
0.0
  0
POINT
  5
103D
  8
DEFPOINTS
 62
     0
 10
85.500000000180634
 20
101.0000000000001
 30
0.0
  0
ENDBLK
  5
FD3
  8
0
  0
BLOCK
  8
0
  2
*D27
 70
     1
 10
0.0
 20
0.0
 30
0.0
  3
*D27
  1

  0
LINE
  5
1989
  8
SAPA_MATT
 10
85.500000000180634
 20
56.500000000019853
 30
0.0
 11
85.500000000180634
 21
102.5000000000005
 31
0.0
  0
LINE
  5
198A
  8
SAPA_MATT
 10
132.49999999950211
 20
56.500000000019853
 30
0.0
 11
132.49999999950211
 21
102.5000000000005
 31
0.0
  0
LINE
  5
198B
  8
SAPA_MATT
 10
88.500000000180648
 20
101.0000000000005
 30
0.0
 11
129.49999999950211
 21
101.0000000000005
 31
0.0
  0
SOLID
  5
198C
  8
SAPA_MATT
 10
88.500000000180648
 20
101.5000000000005
 30
0.0
 11
88.500000000180648
 21
100.5000000000005
 31
0.0
 12
85.500000000180634
 22
101.0000000000005
 32
0.0
 13
85.500000000180634
 23
101.0000000000005
 33
0.0
  0
SOLID
  5
198D
  8
SAPA_MATT
 10
129.49999999950211
 20
101.5000000000005
 30
0.0
 11
129.49999999950211
 21
100.5000000000005
 31
0.0
 12
132.49999999950211
 22
101.0000000000005
 32
0.0
 13
132.49999999950211
 23
101.0000000000005
 33
0.0
  0
TEXT
  8
SAPA_MATT
  40
3.5
  5
19AC
  62
2
  72
0
  71
0
 10
102.000
 20
97.5550
 30
0.000000
  1
47
  7
ISO
  0
POINT
  5
198F
  8
DEFPOINTS
 62
     0
 10
85.500000000180634
 20
55.000000000019853
 30
0.0
  0
POINT
  5
1990
  8
DEFPOINTS
 62
     0
 10
132.49999999950211
 20
55.000000000019853
 30
0.0
  0
POINT
  5
1991
  8
DEFPOINTS
 62
     0
 10
132.49999999950211
 20
101.0000000000005
 30
0.0
  0
ENDBLK
  5
FDF
  8
0
  0
BLOCK
  8
0
  2
*D28
 70
     1
 10
0.0
 20
0.0
 30
0.0
  3
*D28
  1

  0
LINE
  5
197E
  8
SAPA_MATT
 10
132.49999999950211
 20
56.500000000018979
 30
0.0
 11
132.49999999950211
 21
102.5000000000001
 31
0.0
  0
LINE
  5
197F
  8
SAPA_MATT
 10
139.0
 20
60.000792081048303
 30
0.0
 11
139.0
 21
102.5000000000001
 31
0.0
  0
LINE
  5
1980
  8
SAPA_MATT
 10
129.49999999950211
 20
101.0000000000001
 30
0.0
 11
126.49999999950209
 21
101.0000000000001
 31
0.0
  0
LINE
  5
1981
  8
SAPA_MATT
 10
142.0
 20
101.0000000000001
 30
0.0
 11
145.0
 21
101.0000000000001
 31
0.0
  0
TEXT
  8
SAPA_MATT
  40
3.5
  5
19AD
  62
2
  72
0
  71
0
 10
128.750
 20
97.5550
 30
0.000000
  1
6.5
  7
ISO
  0
LINE
  5
1983
  8
SAPA_MATT
 10
132.49999999950211
 20
101.0000000000001
 30
0.0
 11
139.0
 21
101.0000000000001
 31
0.0
  0
SOLID
  5
1984
  8
SAPA_MATT
 10
129.49999999950211
 20
101.5000000000001
 30
0.0
 11
129.49999999950211
 21
100.5000000000001
 31
0.0
 12
132.49999999950211
 22
101.0000000000001
 32
0.0
 13
132.49999999950211
 23
101.0000000000001
 33
0.0
  0
SOLID
  5
1985
  8
SAPA_MATT
 10
142.0
 20
101.5000000000001
 30
0.0
 11
142.0
 21
100.5000000000001
 31
0.0
 12
139.0
 22
101.0000000000001
 32
0.0
 13
139.0
 23
101.0000000000001
 33
0.0
  0
POINT
  5
1986
  8
DEFPOINTS
 62
     0
 10
132.49999999950211
 20
55.000000000018979
 30
0.0
  0
POINT
  5
1987
  8
DEFPOINTS
 62
     0
 10
139.0
 20
58.500792081048303
 30
0.0
  0
POINT
  5
1988
  8
DEFPOINTS
 62
     0
 10
139.0
 20
101.0000000000001
 30
0.0
  0
ENDBLK
  5
FEB
  8
0
  0
BLOCK
  8
0
  2
*D29
 70
     1
 10
0.0
 20
0.0
 30
0.0
  3
*D29
  1

  0
LINE
  5
1018
  8
SAPA_MATT
 10
14.00000000000003
 20
60.0
 30
0.0
 11
14.00000000000003
 21
114.5000000000001
 31
0.0
  0
LINE
  5
1019
  8
SAPA_MATT
 10
139.0
 20
60.000792081048303
 30
0.0
 11
139.0
 21
114.5000000000001
 31
0.0
  0
LINE
  5
101A
  8
SAPA_MATT
 10
17.000000000000028
 20
113.0000000000001
 30
0.0
 11
136.0
 21
113.0000000000001
 31
0.0
  0
SOLID
  5
101B
  8
SAPA_MATT
 10
17.000000000000028
 20
113.5000000000001
 30
0.0
 11
17.000000000000028
 21
112.5000000000001
 31
0.0
 12
14.00000000000003
 22
113.0000000000001
 32
0.0
 13
14.00000000000003
 23
113.0000000000001
 33
0.0
  0
SOLID
  5
101C
  8
SAPA_MATT
 10
136.0
 20
113.5000000000001
 30
0.0
 11
136.0
 21
112.5000000000001
 31
0.0
 12
139.0
 22
113.0000000000001
 32
0.0
 13
139.0
 23
113.0000000000001
 33
0.0
  0
INSERT
  5
101D
  8
0
  2
*U60
 10
0.0
 20
0.0
 30
0.0
  0
POINT
  5
101E
  8
DEFPOINTS
 62
     0
 10
14.00000000000003
 20
58.5
 30
0.0
  0
POINT
  5
101F
  8
DEFPOINTS
 62
     0
 10
139.0
 20
58.500792081048303
 30
0.0
  0
POINT
  5
1020
  8
DEFPOINTS
 62
     0
 10
139.0
 20
113.0000000000001
 30
0.0
  0
ENDBLK
  5
FF9
  8
0
  0
BLOCK
  8
0
  2
*D30
 70
     1
 10
0.0
 20
0.0
 30
0.0
  3
*D30
  1

  0
LINE
  5
100F
  8
SAPA_MATT
 10
150.49999992774141
 20
-70.000000000005429
 30
0.0
 11
182.4999999277415
 21
-70.000000000005443
 31
0.0
  0
LINE
  5
1010
  8
SAPA_MATT
 10
167.49999992773959
 20
60.000000000015881
 30
0.0
 11
182.49999992774161
 21
60.000000000015881
 31
0.0
  0
LINE
  5
1011
  8
SAPA_MATT
 10
180.9999999277415
 20
-67.000000000005443
 30
0.0
 11
180.99999992774161
 21
57.000000000015881
 31
0.0
  0
SOLID
  5
1012
  8
SAPA_MATT
 10
180.4999999277415
 20
-67.000000000005443
 30
0.0
 11
181.4999999277415
 21
-67.000000000005443
 31
0.0
 12
180.9999999277415
 22
-70.000000000005443
 32
0.0
 13
180.9999999277415
 23
-70.000000000005443
 33
0.0
  0
SOLID
  5
1013
  8
SAPA_MATT
 10
180.49999992774161
 20
57.000000000015881
 30
0.0
 11
181.49999992774161
 21
57.000000000015881
 31
0.0
 12
180.99999992774161
 22
60.000000000015881
 32
0.0
 13
180.99999992774161
 23
60.000000000015881
 33
0.0
  0
INSERT
  5
1014
  8
0
  2
*U59
 10
0.0
 20
0.0
 30
0.0
  0
POINT
  5
1015
  8
DEFPOINTS
 62
     0
 10
148.99999992774141
 20
-70.000000000005429
 30
0.0
  0
POINT
  5
1016
  8
DEFPOINTS
 62
     0
 10
165.99999992773971
 20
60.000000000015881
 30
0.0
  0
POINT
  5
1017
  8
DEFPOINTS
 62
     0
 10
180.99999992774161
 20
60.000000000015881
 30
0.0
  0
ENDBLK
  5
1005
  8
0
  0
BLOCK
  8
0
  2
*X31
 70
     1
 10
0.0
 20
0.0
 30
0.0
  3
*X31
  1

  0
LINE
  5
1087
  8
0
 62
     0
 10
85.569082987631433
 20
59.237546964608669
 30
0.0
 11
84.685267908996934
 21
60.121362043243167
 31
0.0
  0
LINE
  5
1088
  8
0
 62
     0
 10
85.538072784031954
 20
58.146025153074483
 30
0.0
 11
83.751148968801957
 21
59.93294896830448
 31
0.0
  0
LINE
  5
1089
  8
0
 62
     0
 10
85.51609314582609
 20
57.045472776146703
 30
0.0
 11
83.499999999908169
 21
59.061565922064609
 31
0.0
  0
LINE
  5
108A
  8
0
 62
     0
 10
85.503367244189107
 20
55.935666662650043
 30
0.0
 11
83.499999999908169
 21
57.939033906930987
 31
0.0
  0
LINE
  5
108B
  8
0
 62
     0
 10
82.499999999908155
 20
57.816501891797337
 30
0.0
 11
82.035060703542356
 21
58.281441188163157
 31
0.0
  0
LINE
  5
108C
  8
0
 62
     0
 10
85.500000000175447
 20
54.816501891530038
 30
0.0
 11
83.229354155396294
 21
57.087147736309177
 31
0.0
  0
LINE
  5
108D
  8
0
 62
     0
 10
85.5000000001438
 20
53.693969876428064
 30
0.0
 11
81.007216605925919
 21
58.186753270645951
 31
0.0
  0
LINE
  5
108E
  8
0
 62
     0
 10
85.500000000112124
 20
52.571437861326082
 30
0.0
 11
80.799999999911066
 21
57.271437861527133
 31
0.0
  0
LINE
  5
108F
  8
0
 62
     0
 10
85.048374496384497
 20
51.900531349920101
 30
0.0
 11
80.799999999911066
 21
56.148905846393511
 31
0.0
  0
LINE
  5
1090
  8
0
 62
     0
 10
83.925842481250839
 20
51.900531349920087
 30
0.0
 11
80.799999999911066
 21
55.026373831259853
 31
0.0
  0
LINE
  5
1091
  8
0
 62
     0
 10
82.499999999908184
 20
52.203841816129128
 30
0.0
 11
80.799999999911066
 21
53.90384181612621
 31
0.0
  0
LINE
  5
1092
  8
0
 62
     0
 10
82.286982046133176
 20
51.29432775477045
 30
0.0
 11
80.799999999911066
 21
52.781309800992553
 31
0.0
  0
LINE
  5
1093
  8
0
 62
     0
 10
81.156217013638326
 20
51.30256077213167
 30
0.0
 11
80.821119583879579
 21
51.637658201890417
 31
0.0
  0
LINE
  5
1094
  8
0
 62
     0
 10
84.453959788795785
 20
51.900531349920087
 30
0.0
 11
85.500000000122711
 21
52.946571561247019
 31
0.0
  0
LINE
  5
1095
  8
0
 62
     0
 10
83.49867765273838
 20
52.067781228996317
 30
0.0
 11
85.500000000154387
 21
54.069103576412331
 31
0.0
  0
LINE
  5
1096
  8
0
 62
     0
 10
82.839805596771569
 20
52.531441188163157
 30
0.0
 11
85.500141455780224
 21
55.191777047171833
 31
0.0
  0
LINE
  5
1097
  8
0
 62
     0
 10
81.589805596771583
 20
51.281441188163178
 30
0.0
 11
82.499999999908184
 21
52.191635591299757
 31
0.0
  0
LINE
  5
1098
  8
0
 62
     0
 10
80.821669993429353
 20
51.635837599954598
 30
0.0
 11
85.506710632314466
 21
56.320878238839697
 31
0.0
  0
LINE
  5
1099
  8
0
 62
     0
 10
80.799999999911066
 20
52.736699621569969
 30
0.0
 11
85.523277026841157
 21
57.459976648500053
 31
0.0
  0
LINE
  5
109A
  8
0
 62
     0
 10
80.799999999911066
 20
53.859231636703591
 30
0.0
 11
85.550114979046469
 21
58.609346615839002
 31
0.0
  0
LINE
  5
109B
  8
0
 62
     0
 10
83.499999999908169
 20
57.681763651834352
 30
0.0
 11
85.587514112147915
 21
59.769277764074069
 31
0.0
  0
LINE
  5
109C
  8
0
 62
     0
 10
80.799999999911066
 20
54.981763651837248
 30
0.0
 11
82.849677536236996
 21
57.031441188163178
 31
0.0
  0
LINE
  5
109D
  8
0
 62
     0
 10
83.499999999908169
 20
58.804295666967967
 30
0.0
 11
84.850367112615487
 21
60.154662779675292
 31
0.0
  0
LINE
  5
109E
  8
0
 62
     0
 10
80.799999999911066
 20
56.104295666970891
 30
0.0
 11
82.499999999908184
 21
57.804295666967988
 31
0.0
  0
LINE
  5
109F
  8
0
 62
     0
 10
83.273306307588996
 20
59.700133989782451
 30
0.0
 11
83.444211595853957
 21
59.871039278047419
 31
0.0
  0
LINE
  5
10A0
  8
0
 62
     0
 10
80.799999999911066
 20
57.226827682104542
 30
0.0
 11
81.854613505969709
 21
58.281441188163178
 31
0.0
  0
ENDBLK
  5
10A2
  8
0
  0
BLOCK
  8
0
  2
*X32
 70
     1
 10
0.0
 20
0.0
 30
0.0
  3
*X32
  1

  0
LINE
  5
10A4
  8
0
 62
     0
 10
137.17976389230449
 20
58.140806740949543
 30
0.0
 11
136.8408066686807
 21
58.479763964573358
 31
0.0
  0
LINE
  5
10A5
  8
0
 62
     0
 10
134.52932435293209
 20
59.668714265188306
 30
0.0
 11
134.2107957464703
 21
59.987242871650132
 31
0.0
  0
LINE
  5
10A6
  8
0
 62
     0
 10
137.19999992773111
 20
56.998038690389279
 30
0.0
 11
135.69804814202669
 21
58.499990476093721
 31
0.0
  0
LINE
  5
10A7
  8
0
 62
     0
 10
134.4999999277413
 20
58.57550667524545
 30
0.0
 11
132.85150324247641
 21
60.224003360510387
 31
0.0
  0
LINE
  5
10A8
  8
0
 62
     0
 10
137.19999992773111
 20
55.875506675255643
 30
0.0
 11
135.4999999277475
 21
57.575506675239247
 31
0.0
  0
LINE
  5
10A9
  8
0
 62
     0
 10
137.19999992773111
 20
54.752974660122
 30
0.0
 11
132.42097992329909
 21
59.531994664553977
 31
0.0
  0
LINE
  5
10AA
  8
0
 62
     0
 10
137.19999992773111
 20
53.630442644988349
 30
0.0
 11
132.4562022455425
 21
58.374240327176992
 31
0.0
  0
LINE
  5
10AB
  8
0
 62
     0
 10
137.19999992773111
 20
52.507910629854699
 30
0.0
 11
132.48092371370191
 21
57.226986843883928
 31
0.0
  0
LINE
  5
10AC
  8
0
 62
     0
 10
136.99156669855009
 20
51.593811843902103
 30
0.0
 11
132.49543074147411
 21
56.089947800978059
 31
0.0
  0
LINE
  5
10AD
  8
0
 62
     0
 10
134.7692673566599
 20
52.693579170658587
 30
0.0
 11
132.49999999950319
 21
54.96284652781533
 31
0.0
  0
LINE
  5
10AE
  8
0
 62
     0
 10
135.9628465273185
 20
51.499999999999979
 30
0.0
 11
135.4999999277338
 21
51.962846599584751
 31
0.0
  0
LINE
  5
10AF
  8
0
 62
     0
 10
134.4999999277413
 20
51.840314584443583
 30
0.0
 11
132.49999999953491
 21
53.840314512650039
 31
0.0
  0
LINE
  5
10B0
  8
0
 62
     0
 10
133.48580995892789
 20
51.731972538123379
 30
0.0
 11
132.49999999956651
 21
52.717782497484713
 31
0.0
  0
LINE
  5
10B1
  8
0
 62
     0
 10
136.829492496954
 20
51.517059346797069
 30
0.0
 11
137.182940580934
 21
51.870507430777067
 31
0.0
  0
LINE
  5
10B2
  8
0
 62
     0
 10
135.69014412476369
 20
51.500242989740379
 30
0.0
 11
137.19999992773111
 21
53.010098792707787
 31
0.0
  0
LINE
  5
10B3
  8
0
 62
     0
 10
135.49999992773979
 20
52.432630807850138
 30
0.0
 11
137.19999992773111
 21
54.132630807841458
 31
0.0
  0
LINE
  5
10B4
  8
0
 62
     0
 10
133.67680964287939
 20
51.731972538123401
 30
0.0
 11
137.19999992773111
 21
55.255162822975088
 31
0.0
  0
LINE
  5
10B5
  8
0
 62
     0
 10
132.55427762774571
 20
51.731972538123387
 30
0.0
 11
137.19999992773111
 21
56.377694838108752
 31
0.0
  0
LINE
  5
10B6
  8
0
 62
     0
 10
132.49999999956421
 20
52.800226925075457
 30
0.0
 11
137.19999992773111
 21
57.500226853242388
 31
0.0
  0
LINE
  5
10B7
  8
0
 62
     0
 10
132.49999999953249
 20
53.922758940177438
 30
0.0
 11
136.986805164456
 21
58.409564105100969
 31
0.0
  0
LINE
  5
10B8
  8
0
 62
     0
 10
135.49999992774349
 20
58.04529088352205
 30
0.0
 11
135.9547090442133
 21
58.499999999991871
 31
0.0
  0
LINE
  5
10B9
  8
0
 62
     0
 10
132.49999211274681
 20
55.0452830685254
 30
0.0
 11
134.763941211408
 21
57.309232167186558
 31
0.0
  0
LINE
  5
10BA
  8
0
 62
     0
 10
132.49480106992701
 20
56.162624040839198
 30
0.0
 11
134.4999999277413
 21
58.167822898653512
 31
0.0
  0
LINE
  5
10BB
  8
0
 62
     0
 10
132.4801704647569
 20
57.270525450802772
 30
0.0
 11
134.4999999277413
 21
59.290354913787148
 31
0.0
  0
LINE
  5
10BC
  8
0
 62
     0
 10
132.4563325111464
 20
58.369219512325877
 30
0.0
 11
134.09459553161369
 21
60.00748253279319
 31
0.0
  0
LINE
  5
10BD
  8
0
 62
     0
 10
132.423508144018
 20
59.458927160331122
 30
0.0
 11
133.13858131372999
 21
60.174000330043157
 31
0.0
  0
ENDBLK
  5
10BF
  8
0
  0
BLOCK
  8
0
  2
*U33
 70
     1
 10
0.0
 20
0.0
 30
0.0
  3
*U33
  1

  0
TEXT
  5
10C1
  8
0
 62
     2
 10
106.37499999984141
 20
102.0000000000005
 30
0.0
 40
3.5
  1
47
  7
ISO
  0
ENDBLK
  5
10C3
  8
0
  0
BLOCK
  8
0
  2
*U34
 70
     1
 10
0.0
 20
0.0
 30
0.0
  3
*U34
  1

  0
TEXT
  5
10C5
  8
0
 62
     2
 10
132.77499999950211
 20
102.0000000000001
 30
0.0
 40
3.5
  1
6.5
  7
ISO
  0
ENDBLK
  5
10C7
  8
0
  0
BLOCK
  8
0
  2
*X35
 70
     1
 10
0.0
 20
0.0
 30
0.0
  3
*X35
  1

  0
LINE
  5
10C9
  8
0
 62
     0
 10
148.99999992774141
 20
59.790954887131498
 30
0.0
 11
148.83808603072671
 21
59.952868784146212
 31
0.0
  0
LINE
  5
10CA
  8
0
 62
     0
 10
148.9999999277413
 20
58.668422871997869
 30
0.0
 11
147.94993012138929
 21
59.71849267835001
 31
0.0
  0
LINE
  5
10CB
  8
0
 62
     0
 10
148.99999992774141
 20
57.545890856864212
 30
0.0
 11
147.02840957960129
 21
59.51748120500433
 31
0.0
  0
LINE
  5
10CC
  8
0
 62
     0
 10
148.9999999277413
 20
56.423358841730582
 30
0.0
 11
146.07057661512809
 21
59.352782154343828
 31
0.0
  0
LINE
  5
10CD
  8
0
 62
     0
 10
148.99999992774141
 20
55.300826826596932
 30
0.0
 11
145.07276903545329
 21
59.228057718885033
 31
0.0
  0
LINE
  5
10CE
  8
0
 62
     0
 10
148.9999999277413
 20
54.178294811463303
 30
0.0
 11
144.0303604129688
 21
59.147934326235877
 31
0.0
  0
LINE
  5
10CF
  8
0
 62
     0
 10
148.9999999277413
 20
53.055762796329653
 30
0.0
 11
142.93738136331811
 21
59.118381360752977
 31
0.0
  0
LINE
  5
10D0
  8
0
 62
     0
 10
148.99999992774141
 20
51.933230781196002
 30
0.0
 11
141.78591990858709
 21
59.14731080035029
 31
0.0
  0
LINE
  5
10D1
  8
0
 62
     0
 10
148.99999992774141
 20
50.810698766062352
 30
0.0
 11
140.565119071797
 21
59.245579622006723
 31
0.0
  0
LINE
  5
10D2
  8
0
 62
     0
 10
145.76608656588181
 20
52.922080112788286
 30
0.0
 11
139.25938028645029
 21
59.428786392219777
 31
0.0
  0
LINE
  5
10D3
  8
0
 62
     0
 10
148.9999999277413
 20
49.688166750928723
 30
0.0
 11
148.43999006964339
 21
50.248176609026743
 31
0.0
  0
LINE
  5
10D4
  8
0
 62
     0
 10
144.29073942839699
 20
53.274895235139503
 30
0.0
 11
138.998496671141
 21
58.567137992395473
 31
0.0
  0
LINE
  5
10D5
  8
0
 62
     0
 10
148.99999992774141
 20
48.565634735795058
 30
0.0
 11
148.92363608600769
 21
48.64199857752876
 31
0.0
  0
LINE
  5
10D6
  8
0
 62
     0
 10
143.22638571834861
 20
53.21671693005419
 30
0.0
 11
138.99999992774141
 21
57.443102720661422
 31
0.0
  0
LINE
  5
10D7
  8
0
 62
     0
 10
142.35075441075239
 20
52.969816222516712
 30
0.0
 11
138.99999992774141
 21
56.320570705527793
 31
0.0
  0
LINE
  5
10D8
  8
0
 62
     0
 10
141.60217573132229
 20
52.595862886813258
 30
0.0
 11
138.99999992774141
 21
55.198038690394164
 31
0.0
  0
LINE
  5
10D9
  8
0
 62
     0
 10
140.95430362485209
 20
52.121202978149761
 30
0.0
 11
138.9999999277413
 21
54.075506675260542
 31
0.0
  0
LINE
  5
10DA
  8
0
 62
     0
 10
140.39481471664041
 20
51.558159871227843
 30
0.0
 11
138.9999999277413
 21
52.952974660126912
 31
0.0
  0
LINE
  5
10DB
  8
0
 62
     0
 10
139.9191616399674
 20
50.911280932767241
 30
0.0
 11
138.9999999277413
 21
51.830442644993262
 31
0.0
  0
LINE
  5
10DC
  8
0
 62
     0
 10
139.52875225442281
 20
50.179158303178191
 30
0.0
 11
138.9999999277413
 21
50.707910629859633
 31
0.0
  0
LINE
  5
10DD
  8
0
 62
     0
 10
139.23148746817009
 20
49.353891074297159
 30
0.0
 11
138.9999999277413
 21
49.585378614725997
 31
0.0
  0
LINE
  5
10DE
  8
0
 62
     0
 10
139.04522034170191
 20
48.417626185631761
 30
0.0
 11
138.9999999277413
 21
48.462846599592382
 31
0.0
  0
LINE
  5
10DF
  8
0
 62
     0
 10
148.99279897801131
 20
47.96491761599821
 30
0.0
 11
148.9999999277413
 21
47.972118565728252
 31
0.0
  0
LINE
  5
10E0
  8
0
 62
     0
 10
148.8651857786154
 20
48.959836431735859
 30
0.0
 11
148.9999999277413
 21
49.094650580861888
 31
0.0
  0
LINE
  5
10E1
  8
0
 62
     0
 10
148.61341571770799
 20
49.830598385962134
 30
0.0
 11
148.9999999277413
 21
50.217182595995538
 31
0.0
  0
LINE
  5
10E2
  8
0
 62
     0
 10
148.26229306069871
 20
50.602007744086507
 30
0.0
 11
148.9999999277413
 21
51.339714611129182
 31
0.0
  0
LINE
  5
10E3
  8
0
 62
     0
 10
147.82338657535109
 20
51.28563327387257
 30
0.0
 11
148.9999999277413
 21
52.462246626262832
 31
0.0
  0
LINE
  5
10E4
  8
0
 62
     0
 10
147.3007430412959
 20
51.885521754951043
 30
0.0
 11
148.9999999277413
 21
53.584778641396468
 31
0.0
  0
LINE
  5
10E5
  8
0
 62
     0
 10
146.69249089580279
 20
52.399801624591547
 30
0.0
 11
148.9999999277413
 21
54.707310656530098
 31
0.0
  0
LINE
  5
10E6
  8
0
 62
     0
 10
145.99012238385629
 20
52.819965127778701
 30
0.0
 11
148.9999999277413
 21
55.829842671663769
 31
0.0
  0
LINE
  5
10E7
  8
0
 62
     0
 10
145.1746978766773
 20
53.127072635733327
 30
0.0
 11
148.9999999277413
 21
56.952374686797398
 31
0.0
  0
LINE
  5
10E8
  8
0
 62
     0
 10
144.20478292538701
 20
53.279689699576629
 30
0.0
 11
148.9999999277413
 21
58.074906701931049
 31
0.0
  0
LINE
  5
10E9
  8
0
 62
     0
 10
138.9999999277413
 20
48.074906701930963
 30
0.0
 11
139.0143750455226
 21
48.089281819712362
 31
0.0
  0
LINE
  5
10EA
  8
0
 62
     0
 10
142.9652894400887
 20
53.162728229412032
 30
0.0
 11
148.9999999277413
 21
59.197438717064692
 31
0.0
  0
LINE
  5
10EB
  8
0
 62
     0
 10
138.9999999277413
 20
49.197438717064607
 30
0.0
 11
139.2621674097004
 21
49.459606199023732
 31
0.0
  0
LINE
  5
10EC
  8
0
 62
     0
 10
138.9999999277413
 20
50.319970732198271
 30
0.0
 11
148.55332920462089
 21
59.87330000907788
 31
0.0
  0
LINE
  5
10ED
  8
0
 62
     0
 10
138.9999999277413
 20
51.442502747331908
 30
0.0
 11
147.0863822333215
 21
59.528885052912131
 31
0.0
  0
LINE
  5
10EE
  8
0
 62
     0
 10
138.9999999277413
 20
52.565034762465558
 30
0.0
 11
145.74135694742469
 21
59.306391782148928
 31
0.0
  0
LINE
  5
10EF
  8
0
 62
     0
 10
138.9999999277413
 20
53.687566777599208
 30
0.0
 11
144.48937491647041
 21
59.176941766328241
 31
0.0
  0
LINE
  5
10F0
  8
0
 62
     0
 10
138.99999992774141
 20
54.810098792732887
 30
0.0
 11
143.31215802026259
 21
59.122256885254131
 31
0.0
  0
LINE
  5
10F1
  8
0
 62
     0
 10
138.99999992774141
 20
55.932630807866552
 30
0.0
 11
142.19726507093191
 21
59.129895951057101
 31
0.0
  0
LINE
  5
10F2
  8
0
 62
     0
 10
138.99999992774141
 20
57.055162823000188
 30
0.0
 11
141.1357776586442
 21
59.190940553903062
 31
0.0
  0
LINE
  5
10F3
  8
0
 62
     0
 10
138.99999992774141
 20
58.177694838133853
 30
0.0
 11
140.12105103645561
 21
59.298745946848072
 31
0.0
  0
LINE
  5
10F4
  8
0
 62
     0
 10
138.85117536341849
 20
59.15140228894461
 30
0.0
 11
139.14798551122061
 21
59.448212436746722
 31
0.0
  0
ENDBLK
  5
10F6
  8
0
  0
BLOCK
  8
0
  2
*X36
 70
     1
 10
0.0
 20
0.0
 30
0.0
  3
*X36
  1

  0
LINE
  5
110C
  8
0
 62
     0
 10
148.43122837829671
 20
46.74373365257626
 30
0.0
 11
148.8281033782967
 21
47.431141316830157
 31
0.0
  0
LINE
  5
110D
  8
0
 62
     0
 10
147.2406033782967
 20
44.681510659814577
 30
0.0
 11
147.63747837829669
 21
45.368918324068467
 31
0.0
  0
LINE
  5
110E
  8
0
 62
     0
 10
146.04997837829669
 20
42.61928766705288
 30
0.0
 11
146.44685337829671
 21
43.306695331306777
 31
0.0
  0
LINE
  5
110F
  8
0
 62
     0
 10
148.43122866279279
 20
49.493364145337956
 30
0.0
 11
148.61830667414799
 21
49.817392765984231
 31
0.0
  0
LINE
  5
1110
  8
0
 62
     0
 10
147.24060366279281
 20
47.431141152576267
 30
0.0
 11
147.6374786627928
 21
48.11854881683017
 31
0.0
  0
LINE
  5
1111
  8
0
 62
     0
 10
146.0499786627928
 20
45.368918159814577
 30
0.0
 11
146.44685366279279
 21
46.05632582406848
 31
0.0
  0
LINE
  5
1112
  8
0
 62
     0
 10
144.85935366279281
 20
43.306695167052887
 30
0.0
 11
145.25622866279281
 21
43.99410283130679
 31
0.0
  0
LINE
  5
1113
  8
0
 62
     0
 10
147.2406039472888
 20
50.180771645337977
 30
0.0
 11
147.6374789472888
 21
50.868179309591874
 31
0.0
  0
LINE
  5
1114
  8
0
 62
     0
 10
146.04997894728891
 20
48.118548652576287
 30
0.0
 11
146.44685394728879
 21
48.805956316830184
 31
0.0
  0
LINE
  5
1115
  8
0
 62
     0
 10
144.85935394728889
 20
46.05632565981459
 30
0.0
 11
145.25622894728889
 21
46.743733324068486
 31
0.0
  0
LINE
  5
1116
  8
0
 62
     0
 10
143.66872894728891
 20
43.994102667052907
 30
0.0
 11
144.06560394728891
 21
44.681510331306797
 31
0.0
  0
LINE
  5
1117
  8
0
 62
     0
 10
142.66048067271791
 20
42.247765428852183
 30
0.0
 11
142.87497894728889
 21
42.619287338545107
 31
0.0
  0
LINE
  5
1118
  8
0
 62
     0
 10
146.04997923178499
 20
50.868179145337969
 30
0.0
 11
146.44685423178501
 21
51.555586809591858
 31
0.0
  0
LINE
  5
1119
  8
0
 62
     0
 10
144.85935423178501
 20
48.805956152576279
 30
0.0
 11
145.256229231785
 21
49.493363816830183
 31
0.0
  0
LINE
  5
111A
  8
0
 62
     0
 10
143.66872923178499
 20
46.743733159814582
 30
0.0
 11
144.06560423178499
 21
47.431140824068478
 31
0.0
  0
LINE
  5
111B
  8
0
 62
     0
 10
142.47810423178501
 20
44.681510167052899
 30
0.0
 11
142.87497923178501
 21
45.368917831306803
 31
0.0
  0
LINE
  5
111C
  8
0
 62
     0
 10
141.41983199667209
 20
42.84852888759778
 30
0.0
 11
141.68435423178499
 21
43.306694838545098
 31
0.0
  0
LINE
  5
111D
  8
0
 62
     0
 10
144.859354516281
 20
51.555586645337961
 30
0.0
 11
145.256229516281
 21
52.24299430959185
 31
0.0
  0
LINE
  5
111E
  8
0
 62
     0
 10
143.66872951628099
 20
49.493363652576271
 30
0.0
 11
144.06560451628101
 21
50.180771316830167
 31
0.0
  0
LINE
  5
111F
  8
0
 62
     0
 10
142.47810451628109
 20
47.431140659814567
 30
0.0
 11
142.87497951628109
 21
48.11854832406847
 31
0.0
  0
LINE
  5
1120
  8
0
 62
     0
 10
141.28747951628111
 20
45.368917667052891
 30
0.0
 11
141.6843545162811
 21
46.056325331306788
 31
0.0
  0
LINE
  5
1121
  8
0
 62
     0
 10
140.37616464355861
 20
43.79047400580437
 30
0.0
 11
140.49372951628109
 21
43.99410233854509
 31
0.0
  0
LINE
  5
1122
  8
0
 62
     0
 10
143.66872980077719
 20
52.24299414533796
 30
0.0
 11
144.06560480077721
 21
52.930401809591856
 31
0.0
  0
LINE
  5
1123
  8
0
 62
     0
 10
142.4781048007772
 20
50.180771152576277
 30
0.0
 11
142.8749798007772
 21
50.868178816830181
 31
0.0
  0
LINE
  5
1124
  8
0
 62
     0
 10
141.28747980077719
 20
48.11854815981458
 30
0.0
 11
141.68435480077719
 21
48.805955824068477
 31
0.0
  0
LINE
  5
1125
  8
0
 62
     0
 10
140.09685480077721
 20
46.056325167052897
 30
0.0
 11
140.4937298007772
 21
46.743732831306787
 31
0.0
  0
LINE
  5
1126
  8
0
 62
     0
 10
142.4781050852732
 20
52.930401645337959
 30
0.0
 11
142.54131339092169
 21
53.039881642181363
 31
0.0
  0
LINE
  5
1127
  8
0
 62
     0
 10
141.2874800852733
 20
50.868178652576283
 30
0.0
 11
141.6843550852733
 21
51.555586316830173
 31
0.0
  0
LINE
  5
1128
  8
0
 62
     0
 10
140.09685508527329
 20
48.805955659814579
 30
0.0
 11
140.49373008527331
 21
49.493363324068483
 31
0.0
  0
LINE
  5
1129
  8
0
 62
     0
 10
139.03797136424791
 20
46.971915255690952
 30
0.0
 11
139.3031050852733
 21
47.431140331306793
 31
0.0
  0
LINE
  5
112A
  8
0
 62
     0
 10
146.44684342093331
 20
51.555556586874637
 30
0.0
 11
146.04996842093331
 21
52.242964251128541
 31
0.0
  0
LINE
  5
112B
  8
0
 62
     0
 10
147.63746842093329
 20
49.49333359411294
 30
0.0
 11
147.24059342093329
 21
50.180741258366837
 31
0.0
  0
LINE
  5
112C
  8
0
 62
     0
 10
148.8280934209333
 20
47.431110601351257
 30
0.0
 11
148.43121842093331
 21
48.118518265605147
 31
0.0
  0
LINE
  5
112D
  8
0
 62
     0
 10
144.06559370542951
 20
52.930372079636328
 30
0.0
 11
143.86242080378619
 21
53.282277868003654
 31
0.0
  0
LINE
  5
112E
  8
0
 62
     0
 10
145.25621870542949
 20
50.868149086874652
 30
0.0
 11
144.8593437054295
 21
51.555556751128542
 31
0.0
  0
LINE
  5
112F
  8
0
 62
     0
 10
146.4468437054295
 20
48.805926094112948
 30
0.0
 11
146.04996870542939
 21
49.493333758366852
 31
0.0
  0
LINE
  5
1130
  8
0
 62
     0
 10
147.6374687054294
 20
46.743703101351272
 30
0.0
 11
147.2405937054294
 21
47.431110765605162
 31
0.0
  0
LINE
  5
1131
  8
0
 62
     0
 10
148.508994618332
 20
45.23417594009107
 30
0.0
 11
148.43121870542939
 21
45.368887772843472
 31
0.0
  0
LINE
  5
1132
  8
0
 62
     0
 10
142.87496898992561
 20
52.242964579636329
 30
0.0
 11
142.47809398992561
 21
52.930372243890218
 31
0.0
  0
LINE
  5
1133
  8
0
 62
     0
 10
144.06559398992559
 20
50.180741586874639
 30
0.0
 11
143.66871898992559
 21
50.868149251128543
 31
0.0
  0
LINE
  5
1134
  8
0
 62
     0
 10
145.25621898992549
 20
48.118518594112942
 30
0.0
 11
144.85934398992549
 21
48.805926258366839
 31
0.0
  0
LINE
  5
1135
  8
0
 62
     0
 10
146.4468439899255
 20
46.056295601351259
 30
0.0
 11
146.0499689899255
 21
46.743703265605163
 31
0.0
  0
LINE
  5
1136
  8
0
 62
     0
 10
147.63746898992551
 20
43.994072608589562
 30
0.0
 11
147.24059398992549
 21
44.681480272843459
 31
0.0
  0
LINE
  5
1137
  8
0
 62
     0
 10
141.68434427442159
 20
51.55555707963633
 30
0.0
 11
141.28746927442171
 21
52.242964743890226
 31
0.0
  0
LINE
  5
1138
  8
0
 62
     0
 10
142.8749692744216
 20
49.49333408687464
 30
0.0
 11
142.47809427442161
 21
50.180741751128537
 31
0.0
  0
LINE
  5
1139
  8
0
 62
     0
 10
144.06559427442161
 20
47.431111094112943
 30
0.0
 11
143.66871927442159
 21
48.118518758366839
 31
0.0
  0
LINE
  5
113A
  8
0
 62
     0
 10
145.2562192744216
 20
45.36888810135126
 30
0.0
 11
144.8593442744216
 21
46.056295765605157
 31
0.0
  0
LINE
  5
113B
  8
0
 62
     0
 10
146.44684427442161
 20
43.306665108589563
 30
0.0
 11
146.04996927442161
 21
43.99407277284346
 31
0.0
  0
LINE
  5
113C
  8
0
 62
     0
 10
140.4937195589178
 20
50.868149579636317
 30
0.0
 11
140.21983906123731
 21
51.342524516821051
 31
0.0
  0
LINE
  5
113D
  8
0
 62
     0
 10
141.6843445589177
 20
48.805926586874627
 30
0.0
 11
141.28746955891771
 21
49.49333425112853
 31
0.0
  0
LINE
  5
113E
  8
0
 62
     0
 10
142.87496955891771
 20
46.743703594112937
 30
0.0
 11
142.47809455891769
 21
47.43111125836684
 31
0.0
  0
LINE
  5
113F
  8
0
 62
     0
 10
144.0655945589177
 20
44.681480601351247
 30
0.0
 11
143.6687195589177
 21
45.36888826560515
 31
0.0
  0
LINE
  5
1140
  8
0
 62
     0
 10
145.25621955891771
 20
42.619257608589557
 30
0.0
 11
144.85934455891771
 21
43.306665272843453
 31
0.0
  0
LINE
  5
1141
  8
0
 62
     0
 10
140.4937198434138
 20
48.11851908687462
 30
0.0
 11
140.09684484341381
 21
48.805926751128517
 31
0.0
  0
LINE
  5
1142
  8
0
 62
     0
 10
141.68434484341381
 20
46.056296094112938
 30
0.0
 11
141.28746984341379
 21
46.743703758366827
 31
0.0
  0
LINE
  5
1143
  8
0
 62
     0
 10
142.87496984341379
 20
43.99407310135124
 30
0.0
 11
142.4780948434138
 21
44.681480765605137
 31
0.0
  0
LINE
  5
1144
  8
0
 62
     0
 10
144.0018313472743
 20
42.042291723571438
 30
0.0
 11
143.66871984341381
 21
42.619257772843447
 31
0.0
  0
LINE
  5
1145
  8
0
 62
     0
 10
139.3030951279099
 20
47.431111586874643
 30
0.0
 11
139.00628919785299
 21
47.945194537720838
 31
0.0
  0
LINE
  5
1146
  8
0
 62
     0
 10
140.49372012790991
 20
45.368888594112953
 30
0.0
 11
140.09684512790989
 21
46.056296258366849
 31
0.0
  0
LINE
  5
1147
  8
0
 62
     0
 10
141.68434512790989
 20
43.306665601351263
 30
0.0
 11
141.2874701279099
 21
43.994073265605159
 31
0.0
  0
LINE
  5
1148
  8
0
 62
     0
 10
145.25625000000011
 20
42.61926500001497
 30
0.0
 11
146.0500000000001
 21
42.61926500001497
 31
0.0
  0
LINE
  5
1149
  8
0
 62
     0
 10
142.87500000000011
 20
42.61926500001497
 30
0.0
 11
143.6687500000001
 21
42.61926500001497
 31
0.0
  0
LINE
  5
114A
  8
0
 62
     0
 10
147.6375000000001
 20
43.994080000014968
 30
0.0
 11
147.78777218174429
 21
43.994080000014968
 31
0.0
  0
LINE
  5
114B
  8
0
 62
     0
 10
145.25625000000011
 20
43.994080000014968
 30
0.0
 11
146.0500000000001
 21
43.994080000014968
 31
0.0
  0
LINE
  5
114C
  8
0
 62
     0
 10
142.87500000000011
 20
43.994080000014968
 30
0.0
 11
143.6687500000001
 21
43.994080000014968
 31
0.0
  0
LINE
  5
114D
  8
0
 62
     0
 10
140.49375000000009
 20
43.994080000014968
 30
0.0
 11
141.28750000000011
 21
43.994080000014968
 31
0.0
  0
LINE
  5
114E
  8
0
 62
     0
 10
147.6375000000001
 20
45.368895000014973
 30
0.0
 11
148.43125000000009
 21
45.368895000014973
 31
0.0
  0
LINE
  5
114F
  8
0
 62
     0
 10
145.25625000000011
 20
45.368895000014973
 30
0.0
 11
146.0500000000001
 21
45.368895000014973
 31
0.0
  0
LINE
  5
1150
  8
0
 62
     0
 10
142.87500000000011
 20
45.368895000014973
 30
0.0
 11
143.6687500000001
 21
45.368895000014973
 31
0.0
  0
LINE
  5
1151
  8
0
 62
     0
 10
140.49375000000009
 20
45.368895000014973
 30
0.0
 11
141.28750000000011
 21
45.368895000014973
 31
0.0
  0
LINE
  5
1152
  8
0
 62
     0
 10
147.6375000000001
 20
46.743710000014971
 30
0.0
 11
148.43125000000009
 21
46.743710000014971
 31
0.0
  0
LINE
  5
1153
  8
0
 62
     0
 10
145.25625000000011
 20
46.743710000014971
 30
0.0
 11
146.0500000000001
 21
46.743710000014971
 31
0.0
  0
LINE
  5
1154
  8
0
 62
     0
 10
142.87500000000011
 20
46.743710000014971
 30
0.0
 11
143.6687500000001
 21
46.743710000014971
 31
0.0
  0
LINE
  5
1155
  8
0
 62
     0
 10
140.49375000000009
 20
46.743710000014971
 30
0.0
 11
141.28750000000011
 21
46.743710000014971
 31
0.0
  0
LINE
  5
1156
  8
0
 62
     0
 10
147.6375000000001
 20
48.118525000014976
 30
0.0
 11
148.43125000000009
 21
48.118525000014976
 31
0.0
  0
LINE
  5
1157
  8
0
 62
     0
 10
145.25625000000011
 20
48.118525000014976
 30
0.0
 11
146.0500000000001
 21
48.118525000014976
 31
0.0
  0
LINE
  5
1158
  8
0
 62
     0
 10
142.87500000000011
 20
48.118525000014976
 30
0.0
 11
143.6687500000001
 21
48.118525000014976
 31
0.0
  0
LINE
  5
1159
  8
0
 62
     0
 10
140.49375000000009
 20
48.118525000014976
 30
0.0
 11
141.28750000000011
 21
48.118525000014976
 31
0.0
  0
LINE
  5
115A
  8
0
 62
     0
 10
147.6375000000001
 20
49.493340000014967
 30
0.0
 11
148.43125000000009
 21
49.493340000014967
 31
0.0
  0
LINE
  5
115B
  8
0
 62
     0
 10
145.25625000000011
 20
49.493340000014967
 30
0.0
 11
146.0500000000001
 21
49.493340000014967
 31
0.0
  0
LINE
  5
115C
  8
0
 62
     0
 10
142.87500000000011
 20
49.493340000014967
 30
0.0
 11
143.6687500000001
 21
49.493340000014967
 31
0.0
  0
LINE
  5
115D
  8
0
 62
     0
 10
140.49375000000009
 20
49.493340000014967
 30
0.0
 11
141.28750000000011
 21
49.493340000014967
 31
0.0
  0
LINE
  5
115E
  8
0
 62
     0
 10
147.6375000000001
 20
50.868155000014973
 30
0.0
 11
148.10772746506919
 21
50.868155000014973
 31
0.0
  0
LINE
  5
115F
  8
0
 62
     0
 10
145.25625000000011
 20
50.868155000014973
 30
0.0
 11
146.0500000000001
 21
50.868155000014973
 31
0.0
  0
LINE
  5
1160
  8
0
 62
     0
 10
142.87500000000011
 20
50.868155000014973
 30
0.0
 11
143.6687500000001
 21
50.868155000014973
 31
0.0
  0
LINE
  5
1161
  8
0
 62
     0
 10
140.49375000000009
 20
50.868155000014973
 30
0.0
 11
141.28750000000011
 21
50.868155000014973
 31
0.0
  0
LINE
  5
1162
  8
0
 62
     0
 10
145.25625000000011
 20
52.242970000014978
 30
0.0
 11
146.0500000000001
 21
52.242970000014978
 31
0.0
  0
LINE
  5
1163
  8
0
 62
     0
 10
142.87500000000011
 20
52.242970000014978
 30
0.0
 11
143.6687500000001
 21
52.242970000014978
 31
0.0
  0
LINE
  5
1164
  8
0
 62
     0
 10
141.1007687474002
 20
52.242970000014978
 30
0.0
 11
141.28750000000011
 21
52.242970000014978
 31
0.0
  0
ENDBLK
  5
1166
  8
0
  0
BLOCK
  8
0
  2
*U37
 70
     1
 10
0.0
 20
0.0
 30
0.0
  3
*U37
  1

  0
TEXT
  5
11B2
  8
0
 62
     2
 10
167.99999999950211
 20
62.900000000005527
 30
0.0
 40
3.5
  1
10
 50
90.0
  7
ISO
  0
ENDBLK
  5
11B4
  8
0
  0
BLOCK
  8
0
  2
*U38
 70
     1
 10
0.0
 20
0.0
 30
0.0
  3
*U38
  1

  0
TEXT
  5
11B6
  8
0
 62
     2
 10
167.99999999950211
 20
-1.4749999999999679
 30
0.0
 40
3.5
  1
117
 50
90.0
  7
ISO
  0
ENDBLK
  5
11B8
  8
0
  0
BLOCK
  8
0
  2
*U39
 70
     1
 10
0.0
 20
0.0
 30
0.0
  3
*U39
  1

  0
TEXT
  5
11BA
  8
0
 62
     2
 10
179.99734841258999
 20
-13.224999999994751
 30
0.0
 40
3.5
  1
min. 130
 50
90.0
  7
ISO
  0
ENDBLK
  5
11BC
  8
0
  0
BLOCK
  8
0
  2
*U40
 70
     1
 10
0.0
 20
0.0
 30
0.0
  3
*U40
  1

  0
TEXT
  5
133E
  8
0
 62
     2
 10
59.174999963870683
 20
-11.46275614065862
 30
0.0
 40
3.5
  1
125
  7
BYGG-027377$0$ISO
  0
ENDBLK
  5
1340
  8
0
  0
BLOCK
  8
0
  2
*U41
 70
     1
 10
0.0
 20
0.0
 30
0.0
  3
*U41
  1

  0
TEXT
  5
1342
  8
0
 62
     2
 10
138.9070189266192
 20
55.525000000000013
 30
0.0
 40
3.5
  1
117
 50
90.0
  7
BYGG-027377$0$ISO
  0
ENDBLK
  5
1344
  8
0
  0
BLOCK
  8
0
  2
*X42
 70
     1
 10
0.0
 20
0.0
 30
0.0
  3
*X42
  1

  0
LINE
  5
1346
  8
0
 62
     0
 10
76.199999999999989
 20
70.599975999985048
 30
0.0
 11
76.199999999999989
 21
74.699456650023421
 31
0.0
  0
LINE
  5
1347
  8
0
 62
     0
 10
74.612499999999983
 20
71.26391552932489
 30
0.0
 11
74.612499999999983
 21
74.034973770722118
 31
0.0
  0
LINE
  5
1348
  8
0
 62
     0
 10
73.024999999999991
 20
71.73370616123222
 30
0.0
 11
73.024999999999991
 21
73.533706161232203
 31
0.0
  0
LINE
  5
1349
  8
0
 62
     0
 10
71.4375
 20
71.73370616123222
 30
0.0
 11
71.4375
 21
73.533706161232345
 31
0.0
  0
LINE
  5
134A
  8
0
 62
     0
 10
69.849999999999994
 20
71.73370616123222
 30
0.0
 11
69.849999999999994
 21
73.88665244376044
 31
0.0
  0
LINE
  5
134B
  8
0
 62
     0
 10
68.262500000000003
 20
106.77485855299869
 30
0.0
 11
68.262500000000003
 21
108.28802382332501
 31
0.0
  0
LINE
  5
134C
  8
0
 62
     0
 10
68.262500000000003
 20
115.27485855300129
 30
0.0
 11
68.262500000000017
 21
116.78144118816149
 31
0.0
  0
LINE
  5
134D
  8
0
 62
     0
 10
68.262500000000003
 20
71.73370616123222
 30
0.0
 11
68.262500000000003
 21
99.788023823318554
 31
0.0
  0
LINE
  5
134E
  8
0
 62
     0
 10
66.674999999999997
 20
98.497179717640634
 30
0.0
 11
66.675000000000011
 21
116.78144118816149
 31
0.0
  0
LINE
  5
134F
  8
0
 62
     0
 10
66.674999999999997
 20
71.73370616123222
 30
0.0
 11
66.674999999999997
 21
73.54944469071458
 31
0.0
  0
LINE
  5
1350
  8
0
 62
     0
 10
65.087499999999991
 20
98.497179717642254
 30
0.0
 11
65.087500000000006
 21
116.78144118816139
 31
0.0
  0
LINE
  5
1351
  8
0
 62
     0
 10
65.087499999999991
 20
71.73370616123222
 30
0.0
 11
65.087499999999991
 21
73.54944469071458
 31
0.0
  0
LINE
  5
1352
  8
0
 62
     0
 10
63.500000000000007
 20
98.497179717641387
 30
0.0
 11
63.500000000000007
 21
99.797179717640546
 31
0.0
  0
LINE
  5
1353
  8
0
 62
     0
 10
63.500000000000007
 20
114.9971797176448
 30
0.0
 11
63.500000000000007
 21
116.78144118816139
 31
0.0
  0
LINE
  5
1354
  8
0
 62
     0
 10
63.500000000000007
 20
71.73370616123222
 30
0.0
 11
63.500000000000007
 21
73.54944469071458
 31
0.0
  0
LINE
  5
1355
  8
0
 62
     0
 10
61.912500000000001
 20
98.49717971764052
 30
0.0
 11
61.912500000000001
 21
99.797179717640546
 31
0.0
  0
LINE
  5
1356
  8
0
 62
     0
 10
61.912500000000001
 20
114.9971797176436
 30
0.0
 11
61.912500000000001
 21
116.78144118816139
 31
0.0
  0
LINE
  5
1357
  8
0
 62
     0
 10
61.912500000000001
 20
71.73370616123222
 30
0.0
 11
61.912500000000001
 21
73.54944469071458
 31
0.0
  0
LINE
  5
1358
  8
0
 62
     0
 10
60.325000000000003
 20
98.497179717639654
 30
0.0
 11
60.325000000000003
 21
99.828804842068848
 31
0.0
  0
LINE
  5
1359
  8
0
 62
     0
 10
60.325000000000003
 20
114.96555459321431
 30
0.0
 11
60.325000000000003
 21
116.78144118816139
 31
0.0
  0
LINE
  5
135A
  8
0
 62
     0
 10
60.325000000000003
 20
71.73370616123222
 30
0.0
 11
60.325000000000003
 21
73.54944469071458
 31
0.0
  0
LINE
  5
135B
  8
0
 62
     0
 10
58.737500000000011
 20
98.497179717638801
 30
0.0
 11
58.737500000000011
 21
116.7814411881613
 31
0.0
  0
LINE
  5
135C
  8
0
 62
     0
 10
58.737500000000011
 20
71.73370616123222
 30
0.0
 11
58.737500000000011
 21
73.54944469071458
 31
0.0
  0
LINE
  5
135D
  8
0
 62
     0
 10
57.149999999999999
 20
106.7814411881581
 30
0.0
 11
57.149999999999999
 21
108.2814411881613
 31
0.0
  0
LINE
  5
135E
  8
0
 62
     0
 10
57.149999999999999
 20
115.2814411881613
 30
0.0
 11
57.149999999999999
 21
116.7814411881613
 31
0.0
  0
LINE
  5
135F
  8
0
 62
     0
 10
57.149999999999999
 20
71.73370616123222
 30
0.0
 11
57.149999999999999
 21
99.781441188156677
 31
0.0
  0
LINE
  5
1360
  8
0
 62
     0
 10
55.562500000000007
 20
105.7893797277396
 30
0.0
 11
55.562500000000007
 21
109.273502648583
 31
0.0
  0
LINE
  5
1361
  8
0
 62
     0
 10
55.562500000000007
 20
114.2893797277396
 30
0.0
 11
55.562500000000007
 21
116.5235026484573
 31
0.0
  0
LINE
  5
1362
  8
0
 62
     0
 10
55.562500000000007
 20
71.73370616123222
 30
0.0
 11
55.562500000000007
 21
100.77350264857979
 31
0.0
  0
LINE
  5
1363
  8
0
 62
     0
 10
53.975000000000001
 20
71.73370616123222
 30
0.0
 11
53.975000000000001
 21
73.533706161232089
 31
0.0
  0
LINE
  5
1364
  8
0
 62
     0
 10
52.387500000000003
 20
71.73370616123222
 30
0.0
 11
52.387500000000003
 21
73.533706161231692
 31
0.0
  0
LINE
  5
1365
  8
0
 62
     0
 10
50.799999999999997
 20
71.502072594400531
 30
0.0
 11
50.799999999999997
 21
73.796816705646393
 31
0.0
  0
LINE
  5
1366
  8
0
 62
     0
 10
49.212499999999999
 20
70.599975999985134
 30
0.0
 11
49.212499999999999
 21
74.69944565000695
 31
0.0
  0
ENDBLK
  5
1368
  8
0
  0
BLOCK
  8
0
  2
*X43
 70
     1
 10
0.0
 20
0.0
 30
0.0
  3
*X43
  1

  0
LINE
  5
136A
  8
0
 62
     0
 10
76.199999999999989
 20
59.299444650023403
 30
0.0
 11
76.199999999999989
 21
63.39945665002346
 31
0.0
  0
LINE
  5
136B
  8
0
 62
     0
 10
74.612499999999983
 20
59.963915566641319
 30
0.0
 11
74.612499999999983
 21
62.734973733405681
 31
0.0
  0
LINE
  5
136C
  8
0
 62
     0
 10
73.024999999999991
 20
60.199444682530469
 30
0.0
 11
73.024999999999991
 21
62.499444682530417
 31
0.0
  0
LINE
  5
136D
  8
0
 62
     0
 10
71.4375
 20
60.199444682530462
 30
0.0
 11
71.4375
 21
62.499444682530417
 31
0.0
  0
LINE
  5
136E
  8
0
 62
     0
 10
69.849999999999994
 20
60.199444682530462
 30
0.0
 11
69.849999999999994
 21
62.499444682530417
 31
0.0
  0
LINE
  5
136F
  8
0
 62
     0
 10
68.262500000000003
 20
60.199444682530448
 30
0.0
 11
68.262500000000003
 21
62.499444682530417
 31
0.0
  0
LINE
  5
1370
  8
0
 62
     0
 10
66.674999999999997
 20
60.199444682530448
 30
0.0
 11
66.674999999999997
 21
62.499444682530417
 31
0.0
  0
LINE
  5
1371
  8
0
 62
     0
 10
65.087499999999991
 20
60.199444682530448
 30
0.0
 11
65.087499999999991
 21
62.499444682530417
 31
0.0
  0
LINE
  5
1372
  8
0
 62
     0
 10
63.500000000000007
 20
60.199444682530441
 30
0.0
 11
63.500000000000007
 21
62.499444682530417
 31
0.0
  0
LINE
  5
1373
  8
0
 62
     0
 10
61.912500000000001
 20
60.199444682530441
 30
0.0
 11
61.912500000000001
 21
62.499444682530417
 31
0.0
  0
LINE
  5
1374
  8
0
 62
     0
 10
60.325000000000003
 20
60.199444682530441
 30
0.0
 11
60.325000000000003
 21
62.499444682530417
 31
0.0
  0
LINE
  5
1375
  8
0
 62
     0
 10
58.737500000000011
 20
60.199444682530441
 30
0.0
 11
58.737500000000011
 21
62.499444682530417
 31
0.0
  0
LINE
  5
1376
  8
0
 62
     0
 10
57.149999999999999
 20
60.199444682530441
 30
0.0
 11
57.149999999999999
 21
62.499444682530417
 31
0.0
  0
LINE
  5
1377
  8
0
 62
     0
 10
55.562500000000007
 20
60.199444682530441
 30
0.0
 11
55.562500000000007
 21
62.499444682530417
 31
0.0
  0
LINE
  5
1378
  8
0
 62
     0
 10
53.975000000000001
 20
60.199444682530441
 30
0.0
 11
53.975000000000001
 21
62.499444682530417
 31
0.0
  0
LINE
  5
1379
  8
0
 62
     0
 10
52.387500000000003
 20
60.199444682530427
 30
0.0
 11
52.387500000000003
 21
62.499444682530417
 31
0.0
  0
LINE
  5
137A
  8
0
 62
     0
 10
50.799999999999997
 20
60.18970205771393
 30
0.0
 11
50.799999999999997
 21
62.509187277926962
 31
0.0
  0
LINE
  5
137B
  8
0
 62
     0
 10
49.212499999999999
 20
59.299444650023482
 30
0.0
 11
49.212499999999999
 21
63.39944565000696
 31
0.0
  0
ENDBLK
  5
137D
  8
0
  0
BLOCK
  8
0
  2
*X44
 70
     1
 10
0.0
 20
0.0
 30
0.0
  3
*X44
  1

  0
LINE
  5
13B9
  8
0
 62
     0
 10
22.99999999983179
 20
9.7760650556289335
 30
0.0
 11
22.249999999819501
 21
9.0260650556166411
 31
0.0
  0
LINE
  5
13BA
  8
0
 62
     0
 10
22.99999999983179
 20
8.6535330404952884
 30
0.0
 11
22.24999999982073
 21
7.903533040484227
 31
0.0
  0
LINE
  5
13BB
  8
0
 62
     0
 10
22.99999999983179
 20
7.5310010253616451
 30
0.0
 11
22.249999999821959
 21
6.7810010253518112
 31
0.0
  0
LINE
  5
13BC
  8
0
 62
     0
 10
22.99999999983179
 20
6.4084690102279911
 30
0.0
 11
22.249999999823189
 21
5.6584690102193926
 31
0.0
  0
LINE
  5
13BD
  8
0
 62
     0
 10
22.99999999983179
 20
5.2859369950943487
 30
0.0
 11
22.249999999824421
 21
4.5359369950869768
 31
0.0
  0
LINE
  5
13BE
  8
0
 62
     0
 10
22.999999999831779
 20
4.1634049799606974
 30
0.0
 11
22.24999999982564
 21
3.4134049799545632
 31
0.0
  0
LINE
  5
13BF
  8
0
 62
     0
 10
22.999999999831779
 20
3.0408729648270501
 30
0.0
 11
22.24999999982688
 21
2.2908729648221451
 31
0.0
  0
LINE
  5
13C0
  8
0
 62
     0
 10
22.999999999831768
 20
1.918340949693403
 30
0.0
 11
22.249999999828098
 21
1.1683409496897299
 31
0.0
  0
LINE
  5
13C1
  8
0
 62
     0
 10
22.999999999831779
 20
0.7958089345597621
 30
0.0
 11
22.249999999829338
 21
0.0458089345573143
 31
0.0
  0
LINE
  5
13C2
  8
0
 62
     0
 10
22.999999999831768
 20
-0.3267230805738848
 30
0.0
 11
22.24999999983055
 21
-1.0767230805751029
 31
0.0
  0
LINE
  5
13C3
  8
0
 62
     0
 10
22.999999999831779
 20
-1.4492550957075281
 30
0.0
 11
22.24999999983179
 21
-2.199255095707513
 31
0.0
  0
LINE
  5
13C4
  8
0
 62
     0
 10
22.999999999831761
 20
-2.5717871108411741
 30
0.0
 11
22.571787110557249
 21
-3.000000000115687
 31
0.0
  0
LINE
  5
13C5
  8
0
 62
     0
 10
22.9999999998318
 20
8.9735038448878406
 30
0.0
 11
22.249999999818751
 21
9.7235038449008933
 31
0.0
  0
LINE
  5
13C6
  8
0
 62
     0
 10
22.99999999983179
 20
7.8509718297541973
 30
0.0
 11
22.24999999981997
 21
8.6009718297660207
 31
0.0
  0
LINE
  5
13C7
  8
0
 62
     0
 10
22.99999999983179
 20
6.7284398146205531
 30
0.0
 11
22.249999999821188
 21
7.4784398146311482
 31
0.0
  0
LINE
  5
13C8
  8
0
 62
     0
 10
22.9999999998318
 20
5.6059077994869142
 30
0.0
 11
22.249999999822439
 21
6.3559077994962747
 31
0.0
  0
LINE
  5
13C9
  8
0
 62
     0
 10
22.99999999983179
 20
4.48337578435327
 30
0.0
 11
22.24999999982365
 21
5.233375784361403
 31
0.0
  0
LINE
  5
13CA
  8
0
 62
     0
 10
22.99999999983179
 20
3.3608437692196271
 30
0.0
 11
22.249999999824901
 21
4.1108437692265234
 31
0.0
  0
LINE
  5
13CB
  8
0
 62
     0
 10
22.999999999831779
 20
2.2383117540859869
 30
0.0
 11
22.249999999826109
 21
2.9883117540916539
 31
0.0
  0
LINE
  5
13CC
  8
0
 62
     0
 10
22.999999999831779
 20
1.1157797389523401
 30
0.0
 11
22.249999999827349
 21
1.8657797389567781
 31
0.0
  0
LINE
  5
13CD
  8
0
 62
     0
 10
22.999999999831779
 20
-0.0067522761812988
 30
0.0
 11
22.249999999828571
 21
0.743247723821913
 31
0.0
  0
LINE
  5
13CE
  8
0
 62
     0
 10
22.999999999831779
 20
-1.1292842913149379
 30
0.0
 11
22.2499999998298
 21
-0.3792842913129633
 31
0.0
  0
LINE
  5
13CF
  8
0
 62
     0
 10
22.999999999831779
 20
-2.251816306448581
 30
0.0
 11
22.249999999831029
 21
-1.5018163064478349
 31
0.0
  0
LINE
  5
13D0
  8
0
 62
     0
 10
22.625651678365191
 20
-3.0000000001156399
 30
0.0
 11
22.249999999832259
 21
-2.6243483215827079
 31
0.0
  0
ENDBLK
  5
13D2
  8
0
  0
BLOCK
  8
0
  2
*X45
 70
     1
 10
0.0
 20
0.0
 30
0.0
  3
*X45
  1

  0
LINE
  5
13D4
  8
0
 62
     0
 10
65.680151519177045
 20
9.7999999998957108
 30
0.0
 11
64.999999999832113
 21
9.1198484805507611
 31
0.0
  0
LINE
  5
13D5
  8
0
 62
     0
 10
65.750000000183562
 20
8.7473164657685647
 30
0.0
 11
64.999999999832113
 21
7.9973164654171169
 31
0.0
  0
LINE
  5
13D6
  8
0
 62
     0
 10
65.750000000182325
 20
7.624784450633685
 30
0.0
 11
64.999999999832113
 21
6.8747844502834718
 31
0.0
  0
LINE
  5
13D7
  8
0
 62
     0
 10
65.750000000181089
 20
6.502252435498808
 30
0.0
 11
64.999999999832113
 21
5.7522524351498294
 31
0.0
  0
LINE
  5
13D8
  8
0
 62
     0
 10
65.750000000179853
 20
5.3797204203639364
 30
0.0
 11
64.999999999832113
 21
4.6297204200161861
 31
0.0
  0
LINE
  5
13D9
  8
0
 62
     0
 10
65.75000000017863
 20
4.2571884052290567
 30
0.0
 11
64.999999999832113
 21
3.5071884048825401
 31
0.0
  0
LINE
  5
13DA
  8
0
 62
     0
 10
65.750000000177408
 20
3.1346563900941882
 30
0.0
 11
64.999999999832113
 21
2.3846563897488959
 31
0.0
  0
LINE
  5
13DB
  8
0
 62
     0
 10
65.750000000176172
 20
2.0121243749593098
 30
0.0
 11
64.999999999832113
 21
1.2621243746152531
 31
0.0
  0
LINE
  5
13DC
  8
0
 62
     0
 10
65.750000000174936
 20
0.8895923598244319
 30
0.0
 11
64.999999999832113
 21
0.139592359481608
 31
0.0
  0
LINE
  5
13DD
  8
0
 62
     0
 10
65.750000000173699
 20
-0.2329396553104397
 30
0.0
 11
64.999999999832113
 21
-0.9829396556520372
 31
0.0
  0
LINE
  5
13DE
  8
0
 62
     0
 10
65.750000000172463
 20
-1.3554716704453169
 30
0.0
 11
64.999999999832113
 21
-2.1054716707856809
 31
0.0
  0
LINE
  5
13DF
  8
0
 62
     0
 10
65.750000000171241
 20
-2.4780036855801941
 30
0.0
 11
65.228003685635954
 21
-3.0000000001154801
 31
0.0
  0
LINE
  5
13E0
  8
0
 62
     0
 10
65.750000000183718
 20
8.8797204196144044
 30
0.0
 11
64.999999999832113
 21
9.6297204199659951
 31
0.0
  0
LINE
  5
13E1
  8
0
 62
     0
 10
65.750000000182453
 20
7.757188404481993
 30
0.0
 11
64.999999999832113
 21
8.5071884048323536
 31
0.0
  0
LINE
  5
13E2
  8
0
 62
     0
 10
65.750000000181245
 20
6.6346563893495762
 30
0.0
 11
64.999999999832113
 21
7.3846563896987059
 31
0.0
  0
LINE
  5
13E3
  8
0
 62
     0
 10
65.750000000179995
 20
5.5121243742171666
 30
0.0
 11
64.999999999832113
 21
6.2621243745650652
 31
0.0
  0
LINE
  5
13E4
  8
0
 62
     0
 10
65.750000000178773
 20
4.3895923590847561
 30
0.0
 11
64.999999999832113
 21
5.139592359431421
 31
0.0
  0
LINE
  5
13E5
  8
0
 62
     0
 10
65.75000000017755
 20
3.2670603439523398
 30
0.0
 11
64.999999999832113
 21
4.0170603442977768
 31
0.0
  0
LINE
  5
13E6
  8
0
 62
     0
 10
65.750000000176314
 20
2.1445283288199279
 30
0.0
 11
64.999999999832113
 21
2.8945283291641308
 31
0.0
  0
LINE
  5
13E7
  8
0
 62
     0
 10
65.750000000175064
 20
1.021996313687519
 30
0.0
 11
64.999999999832113
 21
1.771996314030488
 31
0.0
  0
LINE
  5
13E8
  8
0
 62
     0
 10
65.750000000173856
 20
-0.1005357014448984
 30
0.0
 11
64.999999999832113
 21
0.6494642988968434
 31
0.0
  0
LINE
  5
13E9
  8
0
 62
     0
 10
65.750000000172605
 20
-1.2230677165773081
 30
0.0
 11
64.999999999832113
 21
-0.4730677162368
 31
0.0
  0
LINE
  5
13EA
  8
0
 62
     0
 10
65.750000000171383
 20
-2.345599731709723
 30
0.0
 11
64.999999999832113
 21
-1.5955997313704451
 31
0.0
  0
LINE
  5
13EB
  8
0
 62
     0
 10
65.281868253443562
 20
-3.00000000011554
 30
0.0
 11
64.999999999832113
 21
-2.7181317465040911
 31
0.0
  0
ENDBLK
  5
13ED
  8
0
  0
BLOCK
  8
0
  2
*U46
 70
     1
 10
0.0
 20
0.0
 30
0.0
  3
*U46
  1

  0
TEXT
  5
145A
  8
0
 62
     2
 10
20.874999999845372
 20
-7.3958485393668081
 30
0.0
 40
3.5
  1
47
  7
BYGG-027291$0$ISO
  0
ENDBLK
  5
145C
  8
0
  0
BLOCK
  8
0
  2
*U47
 70
     1
 10
0.0
 20
0.0
 30
0.0
  3
*U47
  1

  0
TEXT
  5
145E
  8
0
 62
     2
 10
56.848944787702273
 20
11.55000000062725
 30
0.0
 40
3.5
  1
28
 50
90.0
  7
BYGG-027291$0$ISO
  0
ENDBLK
  5
1460
  8
0
  0
BLOCK
  8
0
  2
*X48
 70
     1
 10
0.0
 20
0.0
 30
0.0
  3
*X48
  1

  0
LINE
  5
1462
  8
0
 62
     0
 10
38.100000000000001
 20
7.2500120012615614
 30
0.0
 11
38.100000000000001
 21
11.35002133459094
 31
0.0
  0
LINE
  5
1463
  8
0
 62
     0
 10
36.512500000000003
 20
7.9722179862134324
 30
0.0
 11
36.512500000000003
 21
10.62780601630983
 31
0.0
  0
LINE
  5
1464
  8
0
 62
     0
 10
34.924999999999997
 20
8.3500120012634955
 30
0.0
 11
34.924999999999997
 21
10.250012001263469
 31
0.0
  0
LINE
  5
1465
  8
0
 62
     0
 10
33.337499999999999
 20
8.3500120012634955
 30
0.0
 11
33.337499999999999
 21
10.250012001263469
 31
0.0
  0
LINE
  5
1466
  8
0
 62
     0
 10
31.75
 20
8.3500120012634955
 30
0.0
 11
31.75
 21
10.250012001263469
 31
0.0
  0
LINE
  5
1467
  8
0
 62
     0
 10
30.162500000000001
 20
8.3500120012634955
 30
0.0
 11
30.162500000000001
 21
10.250012001263469
 31
0.0
  0
LINE
  5
1468
  8
0
 62
     0
 10
28.574999999999999
 20
8.3500120012634955
 30
0.0
 11
28.574999999999999
 21
10.250012001263469
 31
0.0
  0
LINE
  5
1469
  8
0
 62
     0
 10
26.987500000000001
 20
8.3500120012634955
 30
0.0
 11
26.987500000000001
 21
10.250012001263469
 31
0.0
  0
LINE
  5
146A
  8
0
 62
     0
 10
25.399999999999999
 20
8.3500120012634955
 30
0.0
 11
25.399999999999999
 21
10.250012001263469
 31
0.0
  0
LINE
  5
146B
  8
0
 62
     0
 10
23.8125
 20
8.3500120012634955
 30
0.0
 11
23.8125
 21
10.250012001263469
 31
0.0
  0
LINE
  5
146C
  8
0
 62
     0
 10
22.225000000000001
 20
8.3500120012634955
 30
0.0
 11
22.225000000000001
 21
10.250012001263469
 31
0.0
  0
LINE
  5
146D
  8
0
 62
     0
 10
20.637499999999999
 20
8.3500120012634955
 30
0.0
 11
20.637499999999999
 21
10.250012001263469
 31
0.0
  0
LINE
  5
146E
  8
0
 62
     0
 10
19.050000000000001
 20
8.3500120012634955
 30
0.0
 11
19.050000000000001
 21
10.250012001263469
 31
0.0
  0
LINE
  5
146F
  8
0
 62
     0
 10
17.462499999999999
 20
8.3500120012634955
 30
0.0
 11
17.462499999999999
 21
10.250012001263469
 31
0.0
  0
LINE
  5
1470
  8
0
 62
     0
 10
15.875
 20
8.3500120012634955
 30
0.0
 11
15.875
 21
10.250012001263469
 31
0.0
  0
LINE
  5
1471
  8
0
 62
     0
 10
14.2875
 20
8.3500120012634955
 30
0.0
 11
14.2875
 21
10.250012001263469
 31
0.0
  0
LINE
  5
1472
  8
0
 62
     0
 10
12.699999999999999
 20
8.3500120012634955
 30
0.0
 11
12.699999999999999
 21
10.250012001263469
 31
0.0
  0
LINE
  5
1473
  8
0
 62
     0
 10
11.112500000000001
 20
8.3119842071177121
 30
0.0
 11
11.112500000000001
 21
10.288039795407149
 31
0.0
  0
LINE
  5
1474
  8
0
 62
     0
 10
9.5249999999999986
 20
7.4165183522970084
 30
0.0
 11
9.5249999999999986
 21
11.183505650226451
 31
0.0
  0
ENDBLK
  5
1476
  8
0
  0
BLOCK
  8
0
  2
*U49
 70
     1
 10
0.0
 20
0.0
 30
0.0
  3
*U49
  1

  0
TEXT
  5
1479
  8
0
 62
     2
 10
45.900000000090387
 20
102.0000000000001
 30
0.0
 40
3.5
  1
71.5
  7
ISO
  0
ENDBLK
  5
147B
  8
0
  0
BLOCK
  8
0
  2
*U50
 70
     1
 10
0.0
 20
0.0
 30
0.0
  3
*U50
  1

  0
TEXT
  5
147D
  8
0
 62
     2
 10
73.17500000000004
 20
114.0000000000001
 30
0.0
 40
3.5
  1
125
  7
ISO
  0
ENDBLK
  5
147F
  8
0
  0
BLOCK
  8
0
  2
*U51
 70
     1
 10
0.0
 20
0.0
 30
0.0
  3
*U51
  1

  0
TEXT
  5
1481
  8
0
 62
     2
 10
73.174999963870675
 20
-68.462756140658584
 30
0.0
 40
3.5
  1
125
  7
BYGG-027377$0$ISO
  0
ENDBLK
  5
1483
  8
0
  0
BLOCK
  8
0
  2
*U52
 70
     1
 10
0.0
 20
0.0
 30
0.0
  3
*U52
  1

  0
TEXT
  5
181F
  8
0
 62
     2
 10
106.374999928059
 20
34.604151459371842
 30
0.0
 40
3.5
  1
47
  7
BYGG-027291$0$ISO
  0
ENDBLK
  5
1821
  8
0
  0
BLOCK
  8
0
  2
*U53
 70
     1
 10
0.0
 20
0.0
 30
0.0
  3
*U53
  1

  0
TEXT
  5
1823
  8
0
 62
     2
 10
142.34894471591591
 20
53.549999999365909
 30
0.0
 40
3.5
  1
28
 50
90.0
  7
BYGG-027291$0$ISO
  0
ENDBLK
  5
1825
  8
0
  0
BLOCK
  8
0
  2
*U54
 70
     1
 10
0.0
 20
0.0
 30
0.0
  3
*U54
  1

  0
TEXT
  5
1827
  8
0
 62
     2
 10
152.90701892661929
 20
-1.474999999999967
 30
0.0
 40
3.5
  1
117
 50
90.0
  7
BYGG-027377$0$ISO
  0
ENDBLK
  5
1829
  8
0
  0
BLOCK
  8
0
  2
*X55
 70
     1
 10
0.0
 20
0.0
 30
0.0
  3
*X55
  1

  0
LINE
  5
182B
  8
0
 62
     0
 10
130.680151447236
 20
69.799999999895832
 30
0.0
 11
129.999999927891
 21
69.119848480550885
 31
0.0
  0
LINE
  5
182C
  8
0
 62
     0
 10
130.74999992824249
 20
68.747316465768677
 30
0.0
 11
129.999999927891
 21
67.997316465417242
 31
0.0
  0
LINE
  5
182D
  8
0
 62
     0
 10
130.74999992824129
 20
67.624784450633811
 30
0.0
 11
129.999999927891
 21
66.874784450283599
 31
0.0
  0
LINE
  5
182E
  8
0
 62
     0
 10
130.74999992823999
 20
66.502252435498932
 30
0.0
 11
129.999999927891
 21
65.752252435149956
 31
0.0
  0
LINE
  5
182F
  8
0
 62
     0
 10
130.74999992823879
 20
65.379720420364066
 30
0.0
 11
129.999999927891
 21
64.629720420016312
 31
0.0
  0
LINE
  5
1830
  8
0
 62
     0
 10
130.74999992823749
 20
64.257188405229186
 30
0.0
 11
129.999999927891
 21
63.507188404882669
 31
0.0
  0
LINE
  5
1831
  8
0
 62
     0
 10
130.74999992823629
 20
63.134656390094307
 30
0.0
 11
129.999999927891
 21
62.384656389749019
 31
0.0
  0
LINE
  5
1832
  8
0
 62
     0
 10
130.7499999282351
 20
62.012124374959427
 30
0.0
 11
129.999999927891
 21
61.262124374615382
 31
0.0
  0
LINE
  5
1833
  8
0
 62
     0
 10
130.7499999282339
 20
60.889592359824562
 30
0.0
 11
129.999999927891
 21
60.139592359481739
 31
0.0
  0
LINE
  5
1834
  8
0
 62
     0
 10
130.7499999282326
 20
59.767060344689689
 30
0.0
 11
129.999999927891
 21
59.017060344348089
 31
0.0
  0
LINE
  5
1835
  8
0
 62
     0
 10
130.7499999282314
 20
58.644528329554809
 30
0.0
 11
129.999999927891
 21
57.894528329214452
 31
0.0
  0
LINE
  5
1836
  8
0
 62
     0
 10
130.7499999282301
 20
57.52199631441993
 30
0.0
 11
130.22800361369491
 21
56.999999999884629
 31
0.0
  0
LINE
  5
1837
  8
0
 62
     0
 10
130.7499999282426
 20
68.879720419614529
 30
0.0
 11
129.999999927891
 21
69.629720419966119
 31
0.0
  0
LINE
  5
1838
  8
0
 62
     0
 10
130.74999992824141
 20
67.757188404482122
 30
0.0
 11
129.99999992789111
 21
68.507188404832476
 31
0.0
  0
LINE
  5
1839
  8
0
 62
     0
 10
130.74999992824019
 20
66.634656389349715
 30
0.0
 11
129.999999927891
 21
67.384656389698833
 31
0.0
  0
LINE
  5
183A
  8
0
 62
     0
 10
130.74999992823891
 20
65.512124374217294
 30
0.0
 11
129.999999927891
 21
66.26212437456519
 31
0.0
  0
LINE
  5
183B
  8
0
 62
     0
 10
130.74999992823771
 20
64.389592359084901
 30
0.0
 11
129.999999927891
 21
65.139592359431546
 31
0.0
  0
LINE
  5
183C
  8
0
 62
     0
 10
130.74999992823641
 20
63.26706034395248
 30
0.0
 11
129.999999927891
 21
64.017060344297903
 31
0.0
  0
LINE
  5
183D
  8
0
 62
     0
 10
130.74999992823521
 20
62.144528328820051
 30
0.0
 11
129.999999927891
 21
62.89452832916426
 31
0.0
  0
LINE
  5
183E
  8
0
 62
     0
 10
130.74999992823399
 20
61.021996313687652
 30
0.0
 11
129.999999927891
 21
61.771996314030631
 31
0.0
  0
LINE
  5
183F
  8
0
 62
     0
 10
130.7499999282328
 20
59.899464298555237
 30
0.0
 11
129.999999927891
 21
60.64946429889698
 31
0.0
  0
LINE
  5
1840
  8
0
 62
     0
 10
130.74999992823149
 20
58.776932283422823
 30
0.0
 11
129.999999927891
 21
59.526932283763323
 31
0.0
  0
LINE
  5
1841
  8
0
 62
     0
 10
130.7499999282303
 20
57.654400268290424
 30
0.0
 11
129.999999927891
 21
58.404400268629679
 31
0.0
  0
LINE
  5
1842
  8
0
 62
     0
 10
130.28186818150249
 20
56.999999999884558
 30
0.0
 11
129.999999927891
 21
57.281868253496043
 31
0.0
  0
ENDBLK
  5
1844
  8
0
  0
BLOCK
  8
0
  2
*X56
 70
     1
 10
0.0
 20
0.0
 30
0.0
  3
*X56
  1

  0
LINE
  5
1846
  8
0
 62
     0
 10
87.999999927890727
 20
69.776065055629061
 30
0.0
 11
87.249999927878449
 21
69.026065055616769
 31
0.0
  0
LINE
  5
1847
  8
0
 62
     0
 10
87.999999927890727
 20
68.653533040495404
 30
0.0
 11
87.249999927879685
 21
67.903533040484362
 31
0.0
  0
LINE
  5
1848
  8
0
 62
     0
 10
87.999999927890727
 20
67.531001025361775
 30
0.0
 11
87.249999927880921
 21
66.781001025351955
 31
0.0
  0
LINE
  5
1849
  8
0
 62
     0
 10
87.999999927890727
 20
66.408469010228103
 30
0.0
 11
87.249999927882143
 21
65.658469010219534
 31
0.0
  0
LINE
  5
184A
  8
0
 62
     0
 10
87.999999927890727
 20
65.285936995094474
 30
0.0
 11
87.249999927883394
 21
64.535936995087113
 31
0.0
  0
LINE
  5
184B
  8
0
 62
     0
 10
87.999999927890713
 20
64.163404979960831
 30
0.0
 11
87.249999927884588
 21
63.413404979954713
 31
0.0
  0
LINE
  5
184C
  8
0
 62
     0
 10
87.999999927890727
 20
63.040872964827173
 30
0.0
 11
87.249999927885824
 21
62.29087296482227
 31
0.0
  0
LINE
  5
184D
  8
0
 62
     0
 10
87.999999927890713
 20
61.918340949693523
 30
0.0
 11
87.24999992788706
 21
61.168340949689863
 31
0.0
  0
LINE
  5
184E
  8
0
 62
     0
 10
87.999999927890727
 20
60.795808934559894
 30
0.0
 11
87.249999927888297
 21
60.045808934557449
 31
0.0
  0
LINE
  5
184F
  8
0
 62
     0
 10
87.999999927890713
 20
59.67327691942625
 30
0.0
 11
87.249999927889505
 21
58.923276919425042
 31
0.0
  0
LINE
  5
1850
  8
0
 62
     0
 10
87.999999927890713
 20
58.550744904292593
 30
0.0
 11
87.249999927890741
 21
57.800744904292628
 31
0.0
  0
LINE
  5
1851
  8
0
 62
     0
 10
87.999999927890713
 20
57.428212889158942
 30
0.0
 11
87.571787038616193
 21
56.999999999884423
 31
0.0
  0
LINE
  5
1852
  8
0
 62
     0
 10
87.999999927890713
 20
68.973503844887972
 30
0.0
 11
87.249999927877681
 21
69.723503844901018
 31
0.0
  0
LINE
  5
1853
  8
0
 62
     0
 10
87.999999927890727
 20
67.850971829754329
 30
0.0
 11
87.249999927878903
 21
68.600971829766124
 31
0.0
  0
LINE
  5
1854
  8
0
 62
     0
 10
87.999999927890713
 20
66.728439814620685
 30
0.0
 11
87.249999927880125
 21
67.478439814631272
 31
0.0
  0
LINE
  5
1855
  8
0
 62
     0
 10
87.999999927890713
 20
65.605907799487056
 30
0.0
 11
87.249999927881362
 21
66.355907799496407
 31
0.0
  0
LINE
  5
1856
  8
0
 62
     0
 10
87.999999927890713
 20
64.483375784353399
 30
0.0
 11
87.249999927882598
 21
65.233375784361513
 31
0.0
  0
LINE
  5
1857
  8
0
 62
     0
 10
87.999999927890727
 20
63.360843769219763
 30
0.0
 11
87.249999927883835
 21
64.110843769226648
 31
0.0
  0
LINE
  5
1858
  8
0
 62
     0
 10
87.999999927890713
 20
62.238311754086119
 30
0.0
 11
87.249999927885057
 21
62.988311754091768
 31
0.0
  0
LINE
  5
1859
  8
0
 62
     0
 10
87.999999927890713
 20
61.115779738952483
 30
0.0
 11
87.249999927886293
 21
61.865779738956903
 31
0.0
  0
LINE
  5
185A
  8
0
 62
     0
 10
87.999999927890713
 20
59.99324772381884
 30
0.0
 11
87.249999927887515
 21
60.743247723822023
 31
0.0
  0
LINE
  5
185B
  8
0
 62
     0
 10
87.999999927890698
 20
58.870715708685204
 30
0.0
 11
87.249999927888751
 21
59.62071570868715
 31
0.0
  0
LINE
  5
185C
  8
0
 62
     0
 10
87.999999927890713
 20
57.74818369355156
 30
0.0
 11
87.249999927889974
 21
58.498183693552278
 31
0.0
  0
LINE
  5
185D
  8
0
 62
     0
 10
87.625651606424128
 20
56.999999999884487
 30
0.0
 11
87.249999927891224
 21
57.375651678417398
 31
0.0
  0
ENDBLK
  5
185F
  8
0
  0
BLOCK
  8
0
  2
*X57
 70
     1
 10
0.0
 20
0.0
 30
0.0
  3
*X57
  1

  0
LINE
  5
1885
  8
0
 62
     0
 10
130.680151447236
 20
69.799999999895832
 30
0.0
 11
129.999999927891
 21
69.119848480550885
 31
0.0
  0
LINE
  5
1886
  8
0
 62
     0
 10
130.74999992824249
 20
68.747316465768677
 30
0.0
 11
129.999999927891
 21
67.997316465417242
 31
0.0
  0
LINE
  5
1887
  8
0
 62
     0
 10
130.74999992824129
 20
67.624784450633811
 30
0.0
 11
129.999999927891
 21
66.874784450283599
 31
0.0
  0
LINE
  5
1888
  8
0
 62
     0
 10
130.74999992823999
 20
66.502252435498932
 30
0.0
 11
129.999999927891
 21
65.752252435149956
 31
0.0
  0
LINE
  5
1889
  8
0
 62
     0
 10
130.74999992823879
 20
65.379720420364066
 30
0.0
 11
129.999999927891
 21
64.629720420016312
 31
0.0
  0
LINE
  5
188A
  8
0
 62
     0
 10
130.74999992823749
 20
64.257188405229186
 30
0.0
 11
129.999999927891
 21
63.507188404882669
 31
0.0
  0
LINE
  5
188B
  8
0
 62
     0
 10
130.74999992823629
 20
63.134656390094307
 30
0.0
 11
129.999999927891
 21
62.384656389749019
 31
0.0
  0
LINE
  5
188C
  8
0
 62
     0
 10
130.7499999282351
 20
62.012124374959427
 30
0.0
 11
129.999999927891
 21
61.262124374615382
 31
0.0
  0
LINE
  5
188D
  8
0
 62
     0
 10
130.7499999282339
 20
60.889592359824562
 30
0.0
 11
129.999999927891
 21
60.139592359481739
 31
0.0
  0
LINE
  5
188E
  8
0
 62
     0
 10
130.7499999282326
 20
59.767060344689689
 30
0.0
 11
129.999999927891
 21
59.017060344348089
 31
0.0
  0
LINE
  5
188F
  8
0
 62
     0
 10
130.7499999282314
 20
58.644528329554809
 30
0.0
 11
129.999999927891
 21
57.894528329214452
 31
0.0
  0
LINE
  5
1890
  8
0
 62
     0
 10
130.7499999282301
 20
57.52199631441993
 30
0.0
 11
130.22800361369491
 21
56.999999999884629
 31
0.0
  0
LINE
  5
1891
  8
0
 62
     0
 10
130.7499999282426
 20
68.879720419614529
 30
0.0
 11
129.999999927891
 21
69.629720419966119
 31
0.0
  0
LINE
  5
1892
  8
0
 62
     0
 10
130.74999992824141
 20
67.757188404482122
 30
0.0
 11
129.99999992789111
 21
68.507188404832476
 31
0.0
  0
LINE
  5
1893
  8
0
 62
     0
 10
130.74999992824019
 20
66.634656389349715
 30
0.0
 11
129.999999927891
 21
67.384656389698833
 31
0.0
  0
LINE
  5
1894
  8
0
 62
     0
 10
130.74999992823891
 20
65.512124374217294
 30
0.0
 11
129.999999927891
 21
66.26212437456519
 31
0.0
  0
LINE
  5
1895
  8
0
 62
     0
 10
130.74999992823771
 20
64.389592359084901
 30
0.0
 11
129.999999927891
 21
65.139592359431546
 31
0.0
  0
LINE
  5
1896
  8
0
 62
     0
 10
130.74999992823641
 20
63.26706034395248
 30
0.0
 11
129.999999927891
 21
64.017060344297903
 31
0.0
  0
LINE
  5
1897
  8
0
 62
     0
 10
130.74999992823521
 20
62.144528328820051
 30
0.0
 11
129.999999927891
 21
62.89452832916426
 31
0.0
  0
LINE
  5
1898
  8
0
 62
     0
 10
130.74999992823399
 20
61.021996313687652
 30
0.0
 11
129.999999927891
 21
61.771996314030631
 31
0.0
  0
LINE
  5
1899
  8
0
 62
     0
 10
130.7499999282328
 20
59.899464298555237
 30
0.0
 11
129.999999927891
 21
60.64946429889698
 31
0.0
  0
LINE
  5
189A
  8
0
 62
     0
 10
130.74999992823149
 20
58.776932283422823
 30
0.0
 11
129.999999927891
 21
59.526932283763323
 31
0.0
  0
LINE
  5
189B
  8
0
 62
     0
 10
130.7499999282303
 20
57.654400268290424
 30
0.0
 11
129.999999927891
 21
58.404400268629679
 31
0.0
  0
LINE
  5
189C
  8
0
 62
     0
 10
130.28186818150249
 20
56.999999999884558
 30
0.0
 11
129.999999927891
 21
57.281868253496043
 31
0.0
  0
ENDBLK
  5
189E
  8
0
  0
BLOCK
  8
0
  2
*X58
 70
     1
 10
0.0
 20
0.0
 30
0.0
  3
*X58
  1

  0
LINE
  5
18A0
  8
0
 62
     0
 10
87.999999927890727
 20
69.776065055629061
 30
0.0
 11
87.249999927878449
 21
69.026065055616769
 31
0.0
  0
LINE
  5
18A1
  8
0
 62
     0
 10
87.999999927890727
 20
68.653533040495404
 30
0.0
 11
87.249999927879685
 21
67.903533040484362
 31
0.0
  0
LINE
  5
18A2
  8
0
 62
     0
 10
87.999999927890727
 20
67.531001025361775
 30
0.0
 11
87.249999927880921
 21
66.781001025351955
 31
0.0
  0
LINE
  5
18A3
  8
0
 62
     0
 10
87.999999927890727
 20
66.408469010228103
 30
0.0
 11
87.249999927882143
 21
65.658469010219534
 31
0.0
  0
LINE
  5
18A4
  8
0
 62
     0
 10
87.999999927890727
 20
65.285936995094474
 30
0.0
 11
87.249999927883394
 21
64.535936995087113
 31
0.0
  0
LINE
  5
18A5
  8
0
 62
     0
 10
87.999999927890713
 20
64.163404979960831
 30
0.0
 11
87.249999927884588
 21
63.413404979954713
 31
0.0
  0
LINE
  5
18A6
  8
0
 62
     0
 10
87.999999927890727
 20
63.040872964827173
 30
0.0
 11
87.249999927885824
 21
62.29087296482227
 31
0.0
  0
LINE
  5
18A7
  8
0
 62
     0
 10
87.999999927890713
 20
61.918340949693523
 30
0.0
 11
87.24999992788706
 21
61.168340949689863
 31
0.0
  0
LINE
  5
18A8
  8
0
 62
     0
 10
87.999999927890727
 20
60.795808934559894
 30
0.0
 11
87.249999927888297
 21
60.045808934557449
 31
0.0
  0
LINE
  5
18A9
  8
0
 62
     0
 10
87.999999927890713
 20
59.67327691942625
 30
0.0
 11
87.249999927889505
 21
58.923276919425042
 31
0.0
  0
LINE
  5
18AA
  8
0
 62
     0
 10
87.999999927890713
 20
58.550744904292593
 30
0.0
 11
87.249999927890741
 21
57.800744904292628
 31
0.0
  0
LINE
  5
18AB
  8
0
 62
     0
 10
87.999999927890713
 20
57.428212889158942
 30
0.0
 11
87.571787038616193
 21
56.999999999884423
 31
0.0
  0
LINE
  5
18AC
  8
0
 62
     0
 10
87.999999927890713
 20
68.973503844887972
 30
0.0
 11
87.249999927877681
 21
69.723503844901018
 31
0.0
  0
LINE
  5
18AD
  8
0
 62
     0
 10
87.999999927890727
 20
67.850971829754329
 30
0.0
 11
87.249999927878903
 21
68.600971829766124
 31
0.0
  0
LINE
  5
18AE
  8
0
 62
     0
 10
87.999999927890713
 20
66.728439814620685
 30
0.0
 11
87.249999927880125
 21
67.478439814631272
 31
0.0
  0
LINE
  5
18AF
  8
0
 62
     0
 10
87.999999927890713
 20
65.605907799487056
 30
0.0
 11
87.249999927881362
 21
66.355907799496407
 31
0.0
  0
LINE
  5
18B0
  8
0
 62
     0
 10
87.999999927890713
 20
64.483375784353399
 30
0.0
 11
87.249999927882598
 21
65.233375784361513
 31
0.0
  0
LINE
  5
18B1
  8
0
 62
     0
 10
87.999999927890727
 20
63.360843769219763
 30
0.0
 11
87.249999927883835
 21
64.110843769226648
 31
0.0
  0
LINE
  5
18B2
  8
0
 62
     0
 10
87.999999927890713
 20
62.238311754086119
 30
0.0
 11
87.249999927885057
 21
62.988311754091768
 31
0.0
  0
LINE
  5
18B3
  8
0
 62
     0
 10
87.999999927890713
 20
61.115779738952483
 30
0.0
 11
87.249999927886293
 21
61.865779738956903
 31
0.0
  0
LINE
  5
18B4
  8
0
 62
     0
 10
87.999999927890713
 20
59.99324772381884
 30
0.0
 11
87.249999927887515
 21
60.743247723822023
 31
0.0
  0
LINE
  5
18B5
  8
0
 62
     0
 10
87.999999927890698
 20
58.870715708685204
 30
0.0
 11
87.249999927888751
 21
59.62071570868715
 31
0.0
  0
LINE
  5
18B6
  8
0
 62
     0
 10
87.999999927890713
 20
57.74818369355156
 30
0.0
 11
87.249999927889974
 21
58.498183693552278
 31
0.0
  0
LINE
  5
18B7
  8
0
 62
     0
 10
87.625651606424128
 20
56.999999999884487
 30
0.0
 11
87.249999927891224
 21
57.375651678417398
 31
0.0
  0
ENDBLK
  5
18B9
  8
0
  0
BLOCK
  8
0
  2
*U59
 70
     1
 10
0.0
 20
0.0
 30
0.0
  3
*U59
  1

  0
TEXT
  5
199C
  8
SAPA_MATT
 62
     2
 10
179.99734841258999
 20
-13.224999999994751
 30
0.0
 40
3.5
  1
min. 130
 50
90.0
  7
ISO
  0
ENDBLK
  5
199E
  8
0
  0
BLOCK
  8
0
  2
*U60
 70
     1
 10
0.0
 20
0.0
 30
0.0
  3
*U60
  1

  0
TEXT
  5
19A0
  8
SAPA_MATT
 62
     2
 10
73.17500000000004
 20
114.0000000000001
 30
0.0
 40
3.5
  1
125
  7
ISO
  0
ENDBLK
  5
19A2
  8
0
  0
BLOCK
  8
0
  2
*U61
 70
     1
 10
0.0
 20
0.0
 30
0.0
  3
*U61
  1

  0
TEXT
  5
19A4
  8
SAPA_MATT
 62
     2
 10
45.900000000090387
 20
102.0000000000001
 30
0.0
 40
3.5
  1
71.5
  7
ISO
  0
ENDBLK
  5
19A6
  8
0
  0
BLOCK
  8
0
  2
*U62
 70
     1
 10
0.0
 20
0.0
 30
0.0
  3
*U62
  1

  0
TEXT
  5
19A8
  8
SAPA_MATT
 62
     2
 10
167.99999999950211
 20
-1.4749999999999679
 30
0.0
 40
3.5
  1
117
 50
90.0
  7
ISO
  0
ENDBLK
  5
19AA
  8
0
  0
ENDSEC
  0
SECTION
  2
ENTITIES
  0
TEXT
  5
70A
  8
SAPA_ARTIKELNR
 10
12.345450637514279
 20
-32.243587403564142
 30
0.0000000048844772
 40
3.5
  1
D8K029
 50
90.0
  7
ISO
  0
POLYLINE
  5
9BB
  8
SAPA_GLAS
 66
     1
 10
0.0
 20
0.0
 30
0.0
 70
     1
  0
VERTEX
  5
106D
  8
SAPA_GLAS
 10
132.49999992774141
 20
51.731972538123401
 30
0.0
  0
VERTEX
  5
106E
  8
SAPA_GLAS
 10
132.49999992774141
 20
39.731972538123401
 30
0.0
  0
VERTEX
  5
106F
  8
SAPA_GLAS
 10
134.49999992774141
 20
39.731972538123401
 30
0.0
  0
VERTEX
  5
1070
  8
SAPA_GLAS
 10
134.49999992774141
 20
51.731972538123401
 30
0.0
  0
SEQEND
  5
1071
  8
SAPA_GLAS
  0
POLYLINE
  5
9BD
  8
SAPA_GLAS
 66
     1
 10
0.0
 20
0.0
 30
0.0
 70
     1
  0
VERTEX
  5
1072
  8
SAPA_GLAS
 10
83.500000000090196
 20
51.900531349920101
 30
0.0
  0
VERTEX
  5
1073
  8
SAPA_GLAS
 10
83.500000000090196
 20
39.900531349920101
 30
0.0
  0
VERTEX
  5
1074
  8
SAPA_GLAS
 10
85.500000000090196
 20
39.900531349920101
 30
0.0
  0
VERTEX
  5
1075
  8
SAPA_GLAS
 10
85.500000000090424
 20
51.900531349920101
 30
0.0
  0
SEQEND
  5
1076
  8
SAPA_GLAS
  0
POLYLINE
  5
9C3
  8
SAPA_GLAS
 66
     1
 10
0.0
 20
0.0
 30
0.0
 70
     1
  0
VERTEX
  5
1077
  8
SAPA_GLAS
 10
118.9999999273319
 20
49.49999999999882
 30
0.0
  0
VERTEX
  5
1078
  8
SAPA_GLAS
 10
118.9999999273319
 20
46.999999999991537
 30
0.0
  0
VERTEX
  5
1079
  8
SAPA_GLAS
 10
130.49999992776119
 20
46.999999999991537
 30
0.0
  0
VERTEX
  5
107A
  8
SAPA_GLAS
 10
130.4999999277685
 20
17.000000000006089
 30
0.0
  0
VERTEX
  5
107B
  8
SAPA_GLAS
 10
112.0999999280872
 20
17.000000000002451
 30
0.0
  0
VERTEX
  5
107C
  8
SAPA_GLAS
 10
112.0999999280872
 20
23.999999999995179
 30
0.0
  0
VERTEX
  5
107D
  8
SAPA_GLAS
 10
105.8999999280901
 20
23.999999999995179
 30
0.0
  0
VERTEX
  5
107E
  8
SAPA_GLAS
 10
105.8999999280755
 20
16.999999999989718
 30
0.0
  0
VERTEX
  5
107F
  8
SAPA_GLAS
 10
99.99999992733197
 20
16.999999999995179
 30
0.0
  0
VERTEX
  5
1080
  8
SAPA_GLAS
 10
99.99999992733197
 20
19.99999999999882
 30
0.0
  0
VERTEX
  5
1081
  8
SAPA_GLAS
 10
87.499999928437916
 20
19.99999999999882
 30
0.0
  0
VERTEX
  5
1082
  8
SAPA_GLAS
 10
87.499999928437916
 20
46.999999999992447
 30
0.0
  0
VERTEX
  5
1083
  8
SAPA_GLAS
 10
98.999999928845384
 20
46.999999999991537
 30
0.0
  0
VERTEX
  5
1084
  8
SAPA_GLAS
 10
98.999999928845384
 20
49.49999999999882
 30
0.0
  0
SEQEND
  5
1085
  8
SAPA_GLAS
  0
LINE
  5
9C5
  8
SAPA_GLAS
 10
82.999999999631669
 20
59.78144118816158
 30
0.0
 11
85.608391980101416
 21
60.307557437964959
 31
0.0
  0
LINE
  5
9C6
  8
SAPA_GLAS
 10
134.7022107357586
 20
59.901648599074271
 30
0.0
 11
132.391749950752
 21
60.30408282374875
 31
0.0
  0
INSERT
  5
A78
  8
SAPA_GLAS
  6
CONTINUOUS
  2
*X31
 10
0.0
 20
0.0
 30
0.0
1001
ACAD
1000
HATCH
1002
{
1070
    19
1000
ANSI37
1040
0.25
1040
0.0
1000
R14_HATCH_DATA
1000
A78
1011
1.0
1021
0.0
1031
0.0
1021
0.0
1031
0.0
1011
0.0
1021
0.0
1031
0.0
1021
1.0
1031
0.0
1011
0.0
1021
0.0
1031
0.0
1021
0.0
1031
1.0
1040
0.0
1010
0.0
1020
0.0
1030
1.0
1000
ANSI37
1070
     0
1070
     0
1071
        1
1071
        7
1070
     1
1070
     1
1071
       22
1040
82.999999999908155
1040
57.031441188163171
1040
0.0
1040
82.799999999908351
1040
57.031441188163171
1040
-0.4142135623730951
1040
82.499999999908184
1040
57.331441188163353
1040
0.0
1040
82.499999999908184
1040
57.98144118816321
1040
0.4142135623730951
1040
82.199999999908897
1040
58.281441188163171
1040
0.0
1040
81.29999999991108
1040
58.281441188163171
1040
0.4142135623730951
1040
80.799999999911066
1040
57.781441188163171
1040
0.0
1040
80.799999999911066
1040
51.781441188163171
1040
0.4142135623730951
1040
81.29999999991108
1040
51.281441188163171
1040
0.0
1040
82.199999999908897
1040
51.281441188163171
1040
0.4142135623730951
1040
82.499999999908184
1040
51.581441188163353
1040
0.0
1040
82.499999999908184
1040
52.23144118816321
1040
-0.4142135623730951
1040
82.799999999908351
1040
52.531441188163171
1040
0.0
1040
82.999999999908155
1040
52.531441188163171
1040
-0.4142135623730951
1040
83.499999999908169
1040
52.031441188163171
1040
0.0
1040
83.499999999908169
1040
51.900531349920101
1040
0.0
1040
85.500000000093223
1040
51.900531349920101
1040
0.0
1040
85.500000000180634
1040
55.000000000019412
1040
-0.0102100337002159
1040
85.60839198010143
1040
60.307557437964959
1040
0.0
1040
82.999999999631669
1040
59.78144118816158
1040
-0.4142135623732285
1040
83.499999999908169
1040
59.281441188163171
1040
0.0
1040
83.499999999908169
1040
57.531441188163171
1040
-0.4142135623730951
1071
        0
1070
     0
1070
     1
1040
0.0
1040
0.25
1070
     0
1070
     2
1040
0.7853981633974483
1040
0.0
1040
0.0
1040
-0.5612660075668221
1040
0.5612660075668221
1070
     0
1040
2.3561944901923439
1040
0.0
1040
0.0
1040
-0.5612660075668221
1040
-0.5612660075668221
1070
     0
1040
0.0187891028622905
1071
        1
1040
83.069876732154853
1040
54.860964283475589
1040
0.0
1002
}
  0
INSERT
  5
BB3
  8
SAPA_GLAS
  6
CONTINUOUS
  2
*X32
 10
0.0
 20
0.0
 30
0.0
1001
ACAD
1000
HATCH
1002
{
1070
    19
1000
ANSI37
1040
0.25
1040
0.0
1000
R14_HATCH_DATA
1000
BB3
1011
1.0
1021
0.0
1031
0.0
1021
0.0
1031
0.0
1011
0.0
1021
0.0
1031
0.0
1021
1.0
1031
0.0
1011
0.0
1021
0.0
1031
0.0
1021
0.0
1031
1.0
1040
0.0
1010
0.0
1020
0.0
1030
1.0
1000
ANSI37
1070
     0
1070
     0
1071
        1
1071
        7
1070
     1
1070
     1
1071
       22
1040
134.4999999277413
1040
57.75
1040
0.0
1040
134.4999999277413
1040
59.5
1040
-0.2375242063862277
1040
134.7022107357586
1040
59.901648599074271
1040
0.0
1040
132.391749950752
1040
60.30408282374875
1040
-0.0102033454808161
1040
132.49999999950211
1040
55.000000000019412
1040
0.0
1040
132.49999999959431
1040
51.731972538123401
1040
0.0
1040
134.4999999277413
1040
51.731972538123401
1040
0.0
1040
134.4999999277413
1040
52.25
1040
-0.4142135623731036
1040
134.9999999277413
1040
52.75
1040
0.0
1040
135.29999992774421
1040
52.75
1040
-0.4142135623730744
1040
135.4999999277413
1040
52.549999999999272
1040
0.0
1040
135.49999992773041
1040
51.70000000000072
1040
0.4142135623730534
1040
135.69999992773111
1040
51.5
1040
0.0
1040
136.69999992773111
1040
51.5
1040
0.4142135623731036
1040
137.19999992773111
1040
52.0
1040
0.0
1040
137.19999992773111
1040
58.0
1040
0.4142135623730868
1040
136.69999992773111
1040
58.5
1040
0.0
1040
135.69999992773111
1040
58.499999999989079
1040
0.4142135623730533
1040
135.4999999277413
1040
58.299999999999272
1040
0.0
1040
135.4999999277486
1040
57.45000000000072
1040
-0.4142135623730744
1040
135.29999992774421
1040
57.25
1040
0.0
1040
134.9999999277413
1040
57.25
1040
-0.4142135623731036
1071
        0
1070
     0
1070
     1
1040
0.0
1040
0.25
1070
     0
1070
     2
1040
0.7853981633974483
1040
0.0
1040
0.0
1040
-0.5612660075668221
1040
0.5612660075668221
1070
     0
1040
2.3561944901923439
1040
0.0
1040
0.0
1040
-0.5612660075668221
1040
-0.5612660075668221
1070
     0
1040
0.0679243982816846
1071
        1
1040
134.59740313766949
1040
55.46648737866883
1040
0.0
1002
}
  0
TEXT
  5
C90
  8
SAPA_ARTIKELNR
 10
83.628268953423884
 20
62.548553556965302
 30
0.0000000048844772
 40
3.5
  1
D8V004
 50
90.0
  7
ISO
  0
LINE
  5
CE5
  8
SAPA_ANSLUTNING
 10
4.0000000000002087
 20
60.000000000015881
 30
0.0
 11
-36.49147905908525
 21
60.000000000015881
 31
0.0
  0
LINE
  5
CE6
  8
SAPA_ANSLUTNING
 10
4.0000000000002087
 20
30.99999999999989
 30
0.0
 11
-36.49147905908525
 21
30.99999999999989
 31
0.0
1001
GENIUS_GENREC_14
1002
{
1000
PYDIR
1011
-38.500000036128903
1021
0.0
1031
0.0
1021
30.99999999999989
1031
0.0
1002
}
1002
{
1000
PXDIR
1011
31.999999999992941
1021
0.0
1031
0.0
1021
-70.000000000000114
1031
0.0
1002
}
1002
{
1000
PORI
1011
-33.500000036128903
1021
0.0
1031
0.0
1021
-70.000000000000114
1031
0.0
1002
}
1002
{
1000
PINS
1011
-33.500000036128903
1021
0.0
1031
0.0
1021
-70.000000000000114
1031
0.0
1002
}
1002
{
1000
PINS2
1011
3.9999999999784812
1021
0.0
1031
0.0
1021
30.99999999999989
1031
0.0
1002
}
1002
{
1000
C
1070
     1
1002
}
1001
GENIUS_GENOBJ-N-REC_13
1002
{
1000
OWNER
1000
GEN
1002
}
1001
GENIUS_GENODEF_13
1002
{
1000
HIER
1070
     0
1002
}
1002
{
1000
MANEDIT
1070
     0
1002
}
1002
{
1000
NOSEL
1070
     0
1002
}
1002
{
1000
BEHIND
1070
     0
1002
}
1002
{
1000
OTHER
1070
     0
1002
}
1002
{
1000
REACTOR
1002
}
  0
INSERT
  5
CE7
  8
SAPA_ANSLUTNING
  6
CONTINUOUS
  2
*X35
 10
0.0
 20
0.0
 30
0.0
1001
ACAD
1000
HATCH
1002
{
1070
    19
1000
ANSI37
1040
0.25
1040
0.0
1000
R14_HATCH_DATA
1000
CE7
1011
1.0
1021
0.0
1031
0.0
1021
0.0
1031
0.0
1011
0.0
1021
0.0
1031
0.0
1021
1.0
1031
0.0
1011
0.0
1021
0.0
1031
0.0
1021
0.0
1031
1.0
1040
0.0
1010
0.0
1020
0.0
1030
1.0
1000
ANSI37
1070
     0
1070
     0
1071
        1
1071
        5
1071
        6
1070
     2
1040
137.49999992774141
1040
58.50000000001495
1040
1.4999999999999989
1040
5.49778714378209
1040
6.2831853071795569
1070
     0
1070
     1
1040
138.99999992774141
1040
58.500000000014978
1040
138.9999999277413
1040
47.66334876332445
1070
     3
1040
143.99999992774141
1040
47.663348763324137
1040
0.0
1040
-5.6210574168242138
1040
0.8895123513655372
1040
1.5707963267948959
1040
2.144309431217978
1070
     0
1070
     3
1040
143.99999992774141
1040
47.663348763324137
1040
0.0
1040
-5.6210574168242138
1040
0.8895123513655372
1040
2.144309431217978
1040
4.7123889803846888
1070
     0
1070
     1
1040
148.99999992774141
1040
47.663348763324791
1040
148.99999992774141
1040
60.0
1070
     2
1040
142.90216751656979
1040
80.646721299902396
1040
21.528368738726542
1040
1.2836189008757071
1040
1.773853352005716
1070
     0
1071
        0
1070
     0
1070
     1
1040
0.0
1040
0.25
1070
     0
1070
     2
1040
0.7853981633974483
1040
0.0000000000001386
1040
0.0000000000149782
1040
-0.5612660075668221
1040
0.5612660075668221
1070
     0
1040
2.3561944901923439
1040
0.0000000000001386
1040
0.0000000000149782
1040
-0.5612660075668221
1040
-0.5612660075668221
1070
     0
1040
0.0591690278051155
1071
        1
1040
142.9986763469897
1040
56.420364712940881
1040
0.0
1002
}
  0
LINE
  5
CE8
  8
SAPA_ANSLUTNING
 10
4.0000000000002522
 20
-70.000000000005429
 30
0.0
 11
148.99999992774141
 21
-70.000000000005429
 31
0.0
  0
LINE
  5
CE9
  8
SAPA_ANSLUTNING
 10
4.0000000000002451
 20
-111.29283270961361
 30
0.0
 11
4.0000000000002656
 21
60.00000000001603
 31
0.0
  0
POLYLINE
  5
CEA
  8
SAPA_ANSLUTNING
 66
     1
 10
0.0
 20
0.0
 30
0.0
 70
     1
  0
VERTEX
  5
10F7
  8
SAPA_ANSLUTNING
 10
69.749999999999972
 20
-67.000000000005414
 30
0.0
 42
-0.4142135623730951
  0
VERTEX
  5
10F8
  8
SAPA_ANSLUTNING
 10
71.749999999999972
 20
-69.000000000005429
 30
0.0
  0
VERTEX
  5
10F9
  8
SAPA_ANSLUTNING
 10
71.749999999999972
 20
-70.000000000005429
 30
0.0
  0
VERTEX
  5
10FA
  8
SAPA_ANSLUTNING
 10
16.750000000000082
 20
-70.000000000005429
 30
0.0
  0
VERTEX
  5
10FB
  8
SAPA_ANSLUTNING
 10
16.749999999999972
 20
-10.00000000000543
 30
0.0
  0
VERTEX
  5
10FC
  8
SAPA_ANSLUTNING
 10
17.749999999999961
 20
-10.00000000000543
 30
0.0
 42
-0.4142135623730951
  0
VERTEX
  5
10FD
  8
SAPA_ANSLUTNING
 10
19.749999999999972
 20
-12.00000000000543
 30
0.0
  0
VERTEX
  5
10FE
  8
SAPA_ANSLUTNING
 10
19.750000000000082
 20
-65.000000000005429
 30
0.0
 42
0.4142135623730951
  0
VERTEX
  5
10FF
  8
SAPA_ANSLUTNING
 10
21.750000000000082
 20
-67.000000000005414
 30
0.0
  0
SEQEND
  5
1100
  8
SAPA_ANSLUTNING
  0
POLYLINE
  5
CEB
  8
SAPA_ANSLUTNING
 66
     1
 10
0.0
 20
0.0
 30
0.0
 70
     1
1001
GENIUS_GENOREF_13
1005
0
  0
VERTEX
  5
1101
  8
SAPA_ANSLUTNING
 10
133.24999992774141
 20
-12.00000000000543
 30
0.0
  0
VERTEX
  5
1102
  8
SAPA_ANSLUTNING
 10
133.24999992774141
 20
-65.000000000005429
 30
0.0
 42
-0.4142135623730951
  0
VERTEX
  5
1103
  8
SAPA_ANSLUTNING
 10
131.24999992774141
 20
-67.000000000005414
 30
0.0
  0
VERTEX
  5
1104
  8
SAPA_ANSLUTNING
 10
83.249999927741413
 20
-67.000000000005414
 30
0.0
 42
0.4142135623730951
  0
VERTEX
  5
1105
  8
SAPA_ANSLUTNING
 10
81.249999927741399
 20
-69.000000000005429
 30
0.0
  0
VERTEX
  5
1106
  8
SAPA_ANSLUTNING
 10
81.249999927741399
 20
-70.000000000005429
 30
0.0
  0
VERTEX
  5
1107
  8
SAPA_ANSLUTNING
 10
136.24999992774141
 20
-70.000000000005429
 30
0.0
  0
VERTEX
  5
1108
  8
SAPA_ANSLUTNING
 10
136.24999992774141
 20
-10.00000000000543
 30
0.0
  0
VERTEX
  5
1109
  8
SAPA_ANSLUTNING
 10
135.24999992774141
 20
-10.00000000000543
 30
0.0
 42
0.4142135623730951
  0
SEQEND
  5
110A
  8
SAPA_ANSLUTNING
  0
LINE
  5
CEC
  8
SAPA_ANSLUTNING
 10
148.99999992774141
 20
60.0
 30
0.0
 11
194.0032559343997
 21
60.000000000000028
 31
0.0
  0
LINE
  5
CED
  8
SAPA_ANSLUTNING
 10
194.0032559343995
 20
31.0
 30
0.0
 11
148.9999999277413
 21
31.000000000000028
 31
0.0
  0
LINE
  5
CEE
  8
SAPA_ANSLUTNING
 10
148.99999992774141
 20
-70.000000000005429
 30
0.0
 11
148.99999992774141
 21
60.0
 31
0.0
  0
ARC
  5
CEF
  8
SAPA_ANSLUTNING
 10
142.90216751656979
 20
80.646721299902538
 30
0.0
 40
21.52836873872667
 50
258.3656894549398
 51
286.45405447659971
  0
INSERT
  5
CF0
  8
SAPA_ANSLUTNING
  6
CONTINUOUS
  2
*X36
 10
0.0
 20
0.0
 30
0.0
1001
ACAD
1000
HATCH
1002
{
1070
    19
1000
HEX
1040
0.25
1040
0.0
1000
ASC_BOUNDS
1070
     1
1070
     1
1070
     1
1005
CF1
1000
ASC_SEEDPOINT
1011
144.242109937816
1021
0.0
1031
0.0
1021
47.781686452380853
1031
0.0
1000
R14_HATCH_DATA
1000
CF0
1011
1.0
1021
0.0
1031
0.0
1021
0.0
1031
0.0
1011
0.0
1021
0.0
1031
0.0
1021
1.0
1031
0.0
1011
0.0
1021
0.0
1031
0.0
1021
0.0
1031
1.0
1040
0.0
1010
0.0
1020
0.0
1030
1.0
1000
HEX
1070
     0
1070
     1
1071
        1
1071
        5
1071
        1
1070
     3
1040
143.99999992774141
1040
47.663348763324137
1040
0.0
1040
-5.6210574168242138
1040
0.8895123513655372
1040
0.0
1040
6.2831853071795862
1070
     1
1071
        1
1005
CF1
1070
     0
1070
     1
1040
0.0
1040
0.25
1070
     0
1070
     3
1040
0.0
1040
0.0000000000001386
1040
0.0000000000149782
1040
0.0
1040
1.374814999999999
1070
     2
1040
0.79375
1040
-1.587499999999999
1040
2.0943951023931948
1040
0.0000000000001386
1040
0.0000000000149782
1040
-1.190624715503902
1040
-0.6874074999999996
1070
     2
1040
0.7937499999999989
1040
-1.587499999999997
1040
1.047197551196597
1040
0.7937500000001272
1040
0.0000000000149782
1040
-1.190624715503902
1040
0.6874075000000001
1070
     2
1040
0.79375
1040
-1.587499999999999
1040
0.0591690278051155
1071
        1
1040
144.242109937816
1040
47.781686452380853
1040
0.0
1002
}
  0
POLYLINE
  5
CF1
  8
SAPA_ANSLUTNING
 10
143.99999992774141
 20
42.042291346499923
 30
0.0
 66
     1
 70
     8
  0
VERTEX
  8
SAPA_ANSLUTNING
  5
19AE
 10
144.000
 20
42.0423
 30
0.000000
  70
    32
  0
VERTEX
  8
SAPA_ANSLUTNING
  5
19AF
 10
144.245
 20
42.0491
 30
0.000000
  70
    32
  0
VERTEX
  8
SAPA_ANSLUTNING
  5
19B0
 10
144.490
 20
42.0694
 30
0.000000
  70
    32
  0
VERTEX
  8
SAPA_ANSLUTNING
  5
19B1
 10
144.734
 20
42.1031
 30
0.000000
  70
    32
  0
VERTEX
  8
SAPA_ANSLUTNING
  5
19B2
 10
144.975
 20
42.1503
 30
0.000000
  70
    32
  0
VERTEX
  8
SAPA_ANSLUTNING
  5
19B3
 10
145.215
 20
42.2107
 30
0.000000
  70
    32
  0
VERTEX
  8
SAPA_ANSLUTNING
  5
19B4
 10
145.451
 20
42.2843
 30
0.000000
  70
    32
  0
VERTEX
  8
SAPA_ANSLUTNING
  5
19B5
 10
145.684
 20
42.3709
 30
0.000000
  70
    32
  0
VERTEX
  8
SAPA_ANSLUTNING
  5
19B6
 10
145.913
 20
42.4702
 30
0.000000
  70
    32
  0
VERTEX
  8
SAPA_ANSLUTNING
  5
19B7
 10
146.138
 20
42.5820
 30
0.000000
  70
    32
  0
VERTEX
  8
SAPA_ANSLUTNING
  5
19B8
 10
146.357
 20
42.7060
 30
0.000000
  70
    32
  0
VERTEX
  8
SAPA_ANSLUTNING
  5
19B9
 10
146.571
 20
42.8420
 30
0.000000
  70
    32
  0
VERTEX
  8
SAPA_ANSLUTNING
  5
19BA
 10
146.778
 20
42.9896
 30
0.000000
  70
    32
  0
VERTEX
  8
SAPA_ANSLUTNING
  5
19BB
 10
146.978
 20
43.1485
 30
0.000000
  70
    32
  0
VERTEX
  8
SAPA_ANSLUTNING
  5
19BC
 10
147.172
 20
43.3182
 30
0.000000
  70
    32
  0
VERTEX
  8
SAPA_ANSLUTNING
  5
19BD
 10
147.358
 20
43.4984
 30
0.000000
  70
    32
  0
VERTEX
  8
SAPA_ANSLUTNING
  5
19BE
 10
147.536
 20
43.6887
 30
0.000000
  70
    32
  0
VERTEX
  8
SAPA_ANSLUTNING
  5
19BF
 10
147.705
 20
43.8885
 30
0.000000
  70
    32
  0
VERTEX
  8
SAPA_ANSLUTNING
  5
19C0
 10
147.865
 20
44.0974
 30
0.000000
  70
    32
  0
VERTEX
  8
SAPA_ANSLUTNING
  5
19C1
 10
148.016
 20
44.3149
 30
0.000000
  70
    32
  0
VERTEX
  8
SAPA_ANSLUTNING
  5
19C2
 10
148.157
 20
44.5405
 30
0.000000
  70
    32
  0
VERTEX
  8
SAPA_ANSLUTNING
  5
19C3
 10
148.289
 20
44.7735
 30
0.000000
  70
    32
  0
VERTEX
  8
SAPA_ANSLUTNING
  5
19C4
 10
148.410
 20
45.0136
 30
0.000000
  70
    32
  0
VERTEX
  8
SAPA_ANSLUTNING
  5
19C5
 10
148.520
 20
45.2600
 30
0.000000
  70
    32
  0
VERTEX
  8
SAPA_ANSLUTNING
  5
19C6
 10
148.619
 20
45.5123
 30
0.000000
  70
    32
  0
VERTEX
  8
SAPA_ANSLUTNING
  5
19C7
 10
148.708
 20
45.7697
 30
0.000000
  70
    32
  0
VERTEX
  8
SAPA_ANSLUTNING
  5
19C8
 10
148.785
 20
46.0316
 30
0.000000
  70
    32
  0
VERTEX
  8
SAPA_ANSLUTNING
  5
19C9
 10
148.850
 20
46.2975
 30
0.000000
  70
    32
  0
VERTEX
  8
SAPA_ANSLUTNING
  5
19CA
 10
148.904
 20
46.5667
 30
0.000000
  70
    32
  0
VERTEX
  8
SAPA_ANSLUTNING
  5
19CB
 10
148.946
 20
46.8386
 30
0.000000
  70
    32
  0
VERTEX
  8
SAPA_ANSLUTNING
  5
19CC
 10
148.976
 20
47.1124
 30
0.000000
  70
    32
  0
VERTEX
  8
SAPA_ANSLUTNING
  5
19CD
 10
148.994
 20
47.3875
 30
0.000000
  70
    32
  0
VERTEX
  8
SAPA_ANSLUTNING
  5
19CE
 10
149.000
 20
47.6633
 30
0.000000
  70
    32
  0
VERTEX
  8
SAPA_ANSLUTNING
  5
19CF
 10
148.994
 20
47.9392
 30
0.000000
  70
    32
  0
VERTEX
  8
SAPA_ANSLUTNING
  5
19D0
 10
148.976
 20
48.2143
 30
0.000000
  70
    32
  0
VERTEX
  8
SAPA_ANSLUTNING
  5
19D1
 10
148.946
 20
48.4881
 30
0.000000
  70
    32
  0
VERTEX
  8
SAPA_ANSLUTNING
  5
19D2
 10
148.904
 20
48.7600
 30
0.000000
  70
    32
  0
VERTEX
  8
SAPA_ANSLUTNING
  5
19D3
 10
148.850
 20
49.0292
 30
0.000000
  70
    32
  0
VERTEX
  8
SAPA_ANSLUTNING
  5
19D4
 10
148.785
 20
49.2951
 30
0.000000
  70
    32
  0
VERTEX
  8
SAPA_ANSLUTNING
  5
19D5
 10
148.708
 20
49.5570
 30
0.000000
  70
    32
  0
VERTEX
  8
SAPA_ANSLUTNING
  5
19D6
 10
148.619
 20
49.8144
 30
0.000000
  70
    32
  0
VERTEX
  8
SAPA_ANSLUTNING
  5
19D7
 10
148.520
 20
50.0667
 30
0.000000
  70
    32
  0
VERTEX
  8
SAPA_ANSLUTNING
  5
19D8
 10
148.410
 20
50.3131
 30
0.000000
  70
    32
  0
VERTEX
  8
SAPA_ANSLUTNING
  5
19D9
 10
148.289
 20
50.5531
 30
0.000000
  70
    32
  0
VERTEX
  8
SAPA_ANSLUTNING
  5
19DA
 10
148.157
 20
50.7862
 30
0.000000
  70
    32
  0
VERTEX
  8
SAPA_ANSLUTNING
  5
19DB
 10
148.016
 20
51.0118
 30
0.000000
  70
    32
  0
VERTEX
  8
SAPA_ANSLUTNING
  5
19DC
 10
147.865
 20
51.2293
 30
0.000000
  70
    32
  0
VERTEX
  8
SAPA_ANSLUTNING
  5
19DD
 10
147.705
 20
51.4382
 30
0.000000
  70
    32
  0
VERTEX
  8
SAPA_ANSLUTNING
  5
19DE
 10
147.536
 20
51.6380
 30
0.000000
  70
    32
  0
VERTEX
  8
SAPA_ANSLUTNING
  5
19DF
 10
147.358
 20
51.8283
 30
0.000000
  70
    32
  0
VERTEX
  8
SAPA_ANSLUTNING
  5
19E0
 10
147.172
 20
52.0085
 30
0.000000
  70
    32
  0
VERTEX
  8
SAPA_ANSLUTNING
  5
19E1
 10
146.978
 20
52.1782
 30
0.000000
  70
    32
  0
VERTEX
  8
SAPA_ANSLUTNING
  5
19E2
 10
146.778
 20
52.3371
 30
0.000000
  70
    32
  0
VERTEX
  8
SAPA_ANSLUTNING
  5
19E3
 10
146.571
 20
52.4847
 30
0.000000
  70
    32
  0
VERTEX
  8
SAPA_ANSLUTNING
  5
19E4
 10
146.357
 20
52.6207
 30
0.000000
  70
    32
  0
VERTEX
  8
SAPA_ANSLUTNING
  5
19E5
 10
146.138
 20
52.7447
 30
0.000000
  70
    32
  0
VERTEX
  8
SAPA_ANSLUTNING
  5
19E6
 10
145.913
 20
52.8565
 30
0.000000
  70
    32
  0
VERTEX
  8
SAPA_ANSLUTNING
  5
19E7
 10
145.684
 20
52.9558
 30
0.000000
  70
    32
  0
VERTEX
  8
SAPA_ANSLUTNING
  5
19E8
 10
145.451
 20
53.0424
 30
0.000000
  70
    32
  0
VERTEX
  8
SAPA_ANSLUTNING
  5
19E9
 10
145.215
 20
53.1160
 30
0.000000
  70
    32
  0
VERTEX
  8
SAPA_ANSLUTNING
  5
19EA
 10
144.975
 20
53.1764
 30
0.000000
  70
    32
  0
VERTEX
  8
SAPA_ANSLUTNING
  5
19EB
 10
144.734
 20
53.2236
 30
0.000000
  70
    32
  0
VERTEX
  8
SAPA_ANSLUTNING
  5
19EC
 10
144.490
 20
53.2573
 30
0.000000
  70
    32
  0
VERTEX
  8
SAPA_ANSLUTNING
  5
19ED
 10
144.245
 20
53.2776
 30
0.000000
  70
    32
  0
VERTEX
  8
SAPA_ANSLUTNING
  5
19EE
 10
144.000
 20
53.2844
 30
0.000000
  70
    32
  0
VERTEX
  8
SAPA_ANSLUTNING
  5
19EF
 10
143.755
 20
53.2776
 30
0.000000
  70
    32
  0
VERTEX
  8
SAPA_ANSLUTNING
  5
19F0
 10
143.510
 20
53.2573
 30
0.000000
  70
    32
  0
VERTEX
  8
SAPA_ANSLUTNING
  5
19F1
 10
143.266
 20
53.2236
 30
0.000000
  70
    32
  0
VERTEX
  8
SAPA_ANSLUTNING
  5
19F2
 10
143.025
 20
53.1764
 30
0.000000
  70
    32
  0
VERTEX
  8
SAPA_ANSLUTNING
  5
19F3
 10
142.785
 20
53.1160
 30
0.000000
  70
    32
  0
VERTEX
  8
SAPA_ANSLUTNING
  5
19F4
 10
142.549
 20
53.0424
 30
0.000000
  70
    32
  0
VERTEX
  8
SAPA_ANSLUTNING
  5
19F5
 10
142.316
 20
52.9558
 30
0.000000
  70
    32
  0
VERTEX
  8
SAPA_ANSLUTNING
  5
19F6
 10
142.087
 20
52.8565
 30
0.000000
  70
    32
  0
VERTEX
  8
SAPA_ANSLUTNING
  5
19F7
 10
141.862
 20
52.7447
 30
0.000000
  70
    32
  0
VERTEX
  8
SAPA_ANSLUTNING
  5
19F8
 10
141.643
 20
52.6207
 30
0.000000
  70
    32
  0
VERTEX
  8
SAPA_ANSLUTNING
  5
19F9
 10
141.429
 20
52.4847
 30
0.000000
  70
    32
  0
VERTEX
  8
SAPA_ANSLUTNING
  5
19FA
 10
141.222
 20
52.3371
 30
0.000000
  70
    32
  0
VERTEX
  8
SAPA_ANSLUTNING
  5
19FB
 10
141.022
 20
52.1782
 30
0.000000
  70
    32
  0
VERTEX
  8
SAPA_ANSLUTNING
  5
19FC
 10
140.828
 20
52.0085
 30
0.000000
  70
    32
  0
VERTEX
  8
SAPA_ANSLUTNING
  5
19FD
 10
140.642
 20
51.8283
 30
0.000000
  70
    32
  0
VERTEX
  8
SAPA_ANSLUTNING
  5
19FE
 10
140.464
 20
51.6380
 30
0.000000
  70
    32
  0
VERTEX
  8
SAPA_ANSLUTNING
  5
19FF
 10
140.295
 20
51.4382
 30
0.000000
  70
    32
  0
VERTEX
  8
SAPA_ANSLUTNING
  5
1A00
 10
140.135
 20
51.2293
 30
0.000000
  70
    32
  0
VERTEX
  8
SAPA_ANSLUTNING
  5
1A01
 10
139.984
 20
51.0118
 30
0.000000
  70
    32
  0
VERTEX
  8
SAPA_ANSLUTNING
  5
1A02
 10
139.843
 20
50.7862
 30
0.000000
  70
    32
  0
VERTEX
  8
SAPA_ANSLUTNING
  5
1A03
 10
139.711
 20
50.5531
 30
0.000000
  70
    32
  0
VERTEX
  8
SAPA_ANSLUTNING
  5
1A04
 10
139.590
 20
50.3131
 30
0.000000
  70
    32
  0
VERTEX
  8
SAPA_ANSLUTNING
  5
1A05
 10
139.480
 20
50.0667
 30
0.000000
  70
    32
  0
VERTEX
  8
SAPA_ANSLUTNING
  5
1A06
 10
139.381
 20
49.8144
 30
0.000000
  70
    32
  0
VERTEX
  8
SAPA_ANSLUTNING
  5
1A07
 10
139.292
 20
49.5570
 30
0.000000
  70
    32
  0
VERTEX
  8
SAPA_ANSLUTNING
  5
1A08
 10
139.215
 20
49.2951
 30
0.000000
  70
    32
  0
VERTEX
  8
SAPA_ANSLUTNING
  5
1A09
 10
139.150
 20
49.0292
 30
0.000000
  70
    32
  0
VERTEX
  8
SAPA_ANSLUTNING
  5
1A0A
 10
139.096
 20
48.7600
 30
0.000000
  70
    32
  0
VERTEX
  8
SAPA_ANSLUTNING
  5
1A0B
 10
139.054
 20
48.4881
 30
0.000000
  70
    32
  0
VERTEX
  8
SAPA_ANSLUTNING
  5
1A0C
 10
139.024
 20
48.2143
 30
0.000000
  70
    32
  0
VERTEX
  8
SAPA_ANSLUTNING
  5
1A0D
 10
139.006
 20
47.9392
 30
0.000000
  70
    32
  0
VERTEX
  8
SAPA_ANSLUTNING
  5
1A0E
 10
139.000
 20
47.6633
 30
0.000000
  70
    32
  0
VERTEX
  8
SAPA_ANSLUTNING
  5
1A0F
 10
139.006
 20
47.3875
 30
0.000000
  70
    32
  0
VERTEX
  8
SAPA_ANSLUTNING
  5
1A10
 10
139.024
 20
47.1124
 30
0.000000
  70
    32
  0
VERTEX
  8
SAPA_ANSLUTNING
  5
1A11
 10
139.054
 20
46.8386
 30
0.000000
  70
    32
  0
VERTEX
  8
SAPA_ANSLUTNING
  5
1A12
 10
139.096
 20
46.5667
 30
0.000000
  70
    32
  0
VERTEX
  8
SAPA_ANSLUTNING
  5
1A13
 10
139.150
 20
46.2975
 30
0.000000
  70
    32
  0
VERTEX
  8
SAPA_ANSLUTNING
  5
1A14
 10
139.215
 20
46.0316
 30
0.000000
  70
    32
  0
VERTEX
  8
SAPA_ANSLUTNING
  5
1A15
 10
139.292
 20
45.7697
 30
0.000000
  70
    32
  0
VERTEX
  8
SAPA_ANSLUTNING
  5
1A16
 10
139.381
 20
45.5123
 30
0.000000
  70
    32
  0
VERTEX
  8
SAPA_ANSLUTNING
  5
1A17
 10
139.480
 20
45.2600
 30
0.000000
  70
    32
  0
VERTEX
  8
SAPA_ANSLUTNING
  5
1A18
 10
139.590
 20
45.0136
 30
0.000000
  70
    32
  0
VERTEX
  8
SAPA_ANSLUTNING
  5
1A19
 10
139.711
 20
44.7735
 30
0.000000
  70
    32
  0
VERTEX
  8
SAPA_ANSLUTNING
  5
1A1A
 10
139.843
 20
44.5405
 30
0.000000
  70
    32
  0
VERTEX
  8
SAPA_ANSLUTNING
  5
1A1B
 10
139.984
 20
44.3149
 30
0.000000
  70
    32
  0
VERTEX
  8
SAPA_ANSLUTNING
  5
1A1C
 10
140.135
 20
44.0974
 30
0.000000
  70
    32
  0
VERTEX
  8
SAPA_ANSLUTNING
  5
1A1D
 10
140.295
 20
43.8885
 30
0.000000
  70
    32
  0
VERTEX
  8
SAPA_ANSLUTNING
  5
1A1E
 10
140.464
 20
43.6887
 30
0.000000
  70
    32
  0
VERTEX
  8
SAPA_ANSLUTNING
  5
1A1F
 10
140.642
 20
43.4984
 30
0.000000
  70
    32
  0
VERTEX
  8
SAPA_ANSLUTNING
  5
1A20
 10
140.828
 20
43.3182
 30
0.000000
  70
    32
  0
VERTEX
  8
SAPA_ANSLUTNING
  5
1A21
 10
141.022
 20
43.1485
 30
0.000000
  70
    32
  0
VERTEX
  8
SAPA_ANSLUTNING
  5
1A22
 10
141.222
 20
42.9896
 30
0.000000
  70
    32
  0
VERTEX
  8
SAPA_ANSLUTNING
  5
1A23
 10
141.429
 20
42.8420
 30
0.000000
  70
    32
  0
VERTEX
  8
SAPA_ANSLUTNING
  5
1A24
 10
141.643
 20
42.7060
 30
0.000000
  70
    32
  0
VERTEX
  8
SAPA_ANSLUTNING
  5
1A25
 10
141.862
 20
42.5820
 30
0.000000
  70
    32
  0
VERTEX
  8
SAPA_ANSLUTNING
  5
1A26
 10
142.087
 20
42.4702
 30
0.000000
  70
    32
  0
VERTEX
  8
SAPA_ANSLUTNING
  5
1A27
 10
142.316
 20
42.3709
 30
0.000000
  70
    32
  0
VERTEX
  8
SAPA_ANSLUTNING
  5
1A28
 10
142.549
 20
42.2843
 30
0.000000
  70
    32
  0
VERTEX
  8
SAPA_ANSLUTNING
  5
1A29
 10
142.785
 20
42.2107
 30
0.000000
  70
    32
  0
VERTEX
  8
SAPA_ANSLUTNING
  5
1A2A
 10
143.025
 20
42.1503
 30
0.000000
  70
    32
  0
VERTEX
  8
SAPA_ANSLUTNING
  5
1A2B
 10
143.266
 20
42.1031
 30
0.000000
  70
    32
  0
VERTEX
  8
SAPA_ANSLUTNING
  5
1A2C
 10
143.510
 20
42.0694
 30
0.000000
  70
    32
  0
VERTEX
  8
SAPA_ANSLUTNING
  5
1A2D
 10
143.755
 20
42.0491
 30
0.000000
  70
    32
  0
VERTEX
  8
SAPA_ANSLUTNING
  5
1A2E
 10
144.000
 20
42.0423
 30
0.000000
  70
    32
  0
SEQEND
  8
SAPA_ANSLUTNING
  5
1A2F
  0
POLYLINE
  5
CF2
  8
SAPA_ANSLUTNING
 66
     1
 10
0.0
 20
0.0
 30
0.0
  0
VERTEX
  5
1167
  8
SAPA_ANSLUTNING
 10
140.5010714710823
 20
43.64793040945343
 30
0.0
 42
0.8812634091771057
  0
VERTEX
  5
1168
  8
SAPA_ANSLUTNING
 10
140.99999992774141
 20
39.711162381233272
 30
0.0
  0
VERTEX
  5
1169
  8
SAPA_ANSLUTNING
 10
146.99999992774141
 20
39.711162381233272
 30
0.0
 42
-0.9999999999999998
  0
VERTEX
  5
116A
  8
SAPA_ANSLUTNING
 10
146.99999992774141
 20
35.711162381233272
 30
0.0
  0
VERTEX
  5
116B
  8
SAPA_ANSLUTNING
 10
140.99999992774141
 20
35.711162381233287
 30
0.0
 42
0.9999999999999998
  0
VERTEX
  5
116C
  8
SAPA_ANSLUTNING
 10
140.99999992774141
 20
31.71116238123329
 30
0.0
  0
VERTEX
  5
116D
  8
SAPA_ANSLUTNING
 10
146.99999992774141
 20
31.711162381233269
 30
0.0
 42
-0.9999999999999998
  0
VERTEX
  5
116E
  8
SAPA_ANSLUTNING
 10
146.99999992774141
 20
27.711162381233262
 30
0.0
  0
VERTEX
  5
116F
  8
SAPA_ANSLUTNING
 10
140.99999992774141
 20
27.711162381233301
 30
0.0
 42
0.9999999999999998
  0
VERTEX
  5
1170
  8
SAPA_ANSLUTNING
 10
140.99999992774141
 20
23.71116238123329
 30
0.0
  0
VERTEX
  5
1171
  8
SAPA_ANSLUTNING
 10
146.99999992774141
 20
23.711162381233269
 30
0.0
 42
-0.9999999999999998
  0
VERTEX
  5
1172
  8
SAPA_ANSLUTNING
 10
146.99999992774141
 20
19.711162381233262
 30
0.0
  0
VERTEX
  5
1173
  8
SAPA_ANSLUTNING
 10
140.99999992774141
 20
19.71116238123329
 30
0.0
 42
0.9999999999999998
  0
VERTEX
  5
1174
  8
SAPA_ANSLUTNING
 10
140.99999992774141
 20
15.71116238123329
 30
0.0
  0
VERTEX
  5
1175
  8
SAPA_ANSLUTNING
 10
146.99999992774141
 20
15.71116238123326
 30
0.0
 42
-0.9999999999999998
  0
VERTEX
  5
1176
  8
SAPA_ANSLUTNING
 10
146.99999992774141
 20
11.71116238123326
 30
0.0
  0
VERTEX
  5
1177
  8
SAPA_ANSLUTNING
 10
140.99999992774141
 20
11.71116238123329
 30
0.0
 42
0.9999999999999998
  0
VERTEX
  5
1178
  8
SAPA_ANSLUTNING
 10
140.99999992774141
 20
7.7111623812332928
 30
0.0
  0
VERTEX
  5
1179
  8
SAPA_ANSLUTNING
 10
146.99999992774141
 20
7.7111623812332653
 30
0.0
 42
-0.9999999999999998
  0
VERTEX
  5
117A
  8
SAPA_ANSLUTNING
 10
146.99999992774141
 20
3.7111623812332648
 30
0.0
  0
VERTEX
  5
117B
  8
SAPA_ANSLUTNING
 10
140.99999992774141
 20
3.7111623812332928
 30
0.0
 42
0.9999999999999998
  0
VERTEX
  5
117C
  8
SAPA_ANSLUTNING
 10
140.99999992774141
 20
-0.2888376187667063
 30
0.0
  0
VERTEX
  5
117D
  8
SAPA_ANSLUTNING
 10
146.99999992774141
 20
-0.2888376187667347
 30
0.0
 42
-0.9999999999999998
  0
VERTEX
  5
117E
  8
SAPA_ANSLUTNING
 10
146.99999992774141
 20
-4.2888376187667339
 30
0.0
  0
VERTEX
  5
117F
  8
SAPA_ANSLUTNING
 10
140.99999992774141
 20
-4.2888376187667063
 30
0.0
 42
0.9999999999999998
  0
VERTEX
  5
1180
  8
SAPA_ANSLUTNING
 10
140.99999992774141
 20
-8.2888376187667063
 30
0.0
  0
VERTEX
  5
1181
  8
SAPA_ANSLUTNING
 10
146.99999992774141
 20
-8.2888376187667347
 30
0.0
 42
-0.9999999999999998
  0
VERTEX
  5
1182
  8
SAPA_ANSLUTNING
 10
146.99999992774141
 20
-12.288837618766729
 30
0.0
  0
VERTEX
  5
1183
  8
SAPA_ANSLUTNING
 10
140.99999992774141
 20
-12.28883761876671
 30
0.0
 42
0.9999999999999998
  0
VERTEX
  5
1184
  8
SAPA_ANSLUTNING
 10
140.99999992774141
 20
-16.288837618766699
 30
0.0
  0
VERTEX
  5
1185
  8
SAPA_ANSLUTNING
 10
146.99999992774141
 20
-16.288837618766731
 30
0.0
 42
-0.9999999999999998
  0
VERTEX
  5
1186
  8
SAPA_ANSLUTNING
 10
146.9999999277413
 20
-20.288837618766738
 30
0.0
  0
VERTEX
  5
1187
  8
SAPA_ANSLUTNING
 10
140.9999999277413
 20
-20.28883761876671
 30
0.0
 42
0.9999999999999998
  0
VERTEX
  5
1188
  8
SAPA_ANSLUTNING
 10
140.9999999277413
 20
-24.28883761876671
 30
0.0
  0
VERTEX
  5
1189
  8
SAPA_ANSLUTNING
 10
146.9999999277413
 20
-24.288837618766738
 30
0.0
 42
-0.9999999999999998
  0
VERTEX
  5
118A
  8
SAPA_ANSLUTNING
 10
146.9999999277413
 20
-28.288837618766738
 30
0.0
  0
VERTEX
  5
118B
  8
SAPA_ANSLUTNING
 10
140.9999999277413
 20
-28.28883761876671
 30
0.0
 42
0.9999999999999998
  0
VERTEX
  5
118C
  8
SAPA_ANSLUTNING
 10
140.9999999277413
 20
-32.288837618766713
 30
0.0
  0
VERTEX
  5
118D
  8
SAPA_ANSLUTNING
 10
146.9999999277413
 20
-32.288837618766728
 30
0.0
 42
-0.9999999999999998
  0
VERTEX
  5
118E
  8
SAPA_ANSLUTNING
 10
146.9999999277413
 20
-36.288837618766742
 30
0.0
  0
VERTEX
  5
118F
  8
SAPA_ANSLUTNING
 10
140.9999999277413
 20
-36.288837618766713
 30
0.0
 42
0.9999999999999998
  0
VERTEX
  5
1190
  8
SAPA_ANSLUTNING
 10
140.9999999277413
 20
-40.288837618766699
 30
0.0
  0
VERTEX
  5
1191
  8
SAPA_ANSLUTNING
 10
146.9999999277413
 20
-40.288837618766728
 30
0.0
 42
-0.9999999999999998
  0
VERTEX
  5
1192
  8
SAPA_ANSLUTNING
 10
146.9999999277413
 20
-44.288837618766728
 30
0.0
  0
VERTEX
  5
1193
  8
SAPA_ANSLUTNING
 10
140.9999999277413
 20
-44.288837618766699
 30
0.0
 42
0.9999999999999998
  0
VERTEX
  5
1194
  8
SAPA_ANSLUTNING
 10
140.9999999277413
 20
-48.288837618766713
 30
0.0
  0
VERTEX
  5
1195
  8
SAPA_ANSLUTNING
 10
146.9999999277413
 20
-48.288837618766742
 30
0.0
 42
-0.9999999999999998
  0
VERTEX
  5
1196
  8
SAPA_ANSLUTNING
 10
146.9999999277413
 20
-52.288837618766728
 30
0.0
  0
VERTEX
  5
1197
  8
SAPA_ANSLUTNING
 10
140.9999999277413
 20
-52.288837618766699
 30
0.0
 42
0.9999999999999998
  0
VERTEX
  5
1198
  8
SAPA_ANSLUTNING
 10
140.9999999277413
 20
-56.288837618766713
 30
0.0
  0
VERTEX
  5
1199
  8
SAPA_ANSLUTNING
 10
146.9999999277413
 20
-56.288837618766728
 30
0.0
 42
-0.9999999999999998
  0
VERTEX
  5
119A
  8
SAPA_ANSLUTNING
 10
146.9999999277413
 20
-60.288837618766742
 30
0.0
  0
VERTEX
  5
119B
  8
SAPA_ANSLUTNING
 10
138.24999992774141
 20
-60.288837618766699
 30
0.0
 42
0.9999999999999998
  0
VERTEX
  5
119C
  8
SAPA_ANSLUTNING
 10
138.24999992774141
 20
-64.288837618766735
 30
0.0
  0
VERTEX
  5
119D
  8
SAPA_ANSLUTNING
 10
146.9999999277413
 20
-64.288837618766735
 30
0.0
 42
-0.9999999999999998
  0
VERTEX
  5
119E
  8
SAPA_ANSLUTNING
 10
146.9999999277413
 20
-68.288837618766735
 30
0.0
  0
VERTEX
  5
119F
  8
SAPA_ANSLUTNING
 10
138.24999992774141
 20
-68.288837618766735
 30
0.0
 42
0.3723754158642647
  0
VERTEX
  5
11A0
  8
SAPA_ANSLUTNING
 10
136.27096662079879
 20
-70.000000000005429
 30
0.0
  0
SEQEND
  5
11A1
  8
SAPA_ANSLUTNING
  0
POLYLINE
  5
CF3
  8
SAPA_ANSLUTNING
 66
     1
 10
0.0
 20
0.0
 30
0.0
  0
VERTEX
  5
11A2
  8
SAPA_ANSLUTNING
 10
21.094751612380801
 20
-66.889616244249538
 30
0.0
 42
0.4609155493572824
  0
VERTEX
  5
11A3
  8
SAPA_ANSLUTNING
 10
31.499999999714731
 20
-58.000000000007297
 30
0.0
  0
VERTEX
  5
11A4
  8
SAPA_ANSLUTNING
 10
31.499999999714731
 20
-8.9999999999901945
 30
0.0
 42
-0.9999999999999998
  0
VERTEX
  5
11A5
  8
SAPA_ANSLUTNING
 10
49.499999999714731
 20
-8.9999999999901945
 30
0.0
  0
VERTEX
  5
11A6
  8
SAPA_ANSLUTNING
 10
49.499999999714731
 20
-58.000000000007297
 30
0.0
 42
0.9999999999999998
  0
VERTEX
  5
11A7
  8
SAPA_ANSLUTNING
 10
67.499999999714731
 20
-58.000000000007297
 30
0.0
  0
VERTEX
  5
11A8
  8
SAPA_ANSLUTNING
 10
67.499999999714731
 20
-5.8005553174544948
 30
0.0
 42
-0.9999999999999998
  0
VERTEX
  5
11A9
  8
SAPA_ANSLUTNING
 10
85.499999999714845
 20
-5.8005553174544948
 30
0.0
  0
VERTEX
  5
11AA
  8
SAPA_ANSLUTNING
 10
85.499999999714845
 20
-58.000000000007297
 30
0.0
 42
0.9999999999999998
  0
VERTEX
  5
11AB
  8
SAPA_ANSLUTNING
 10
103.4999999997148
 20
-58.000000000007297
 30
0.0
  0
VERTEX
  5
11AC
  8
SAPA_ANSLUTNING
 10
103.4999999997148
 20
-8.9999999999901945
 30
0.0
 42
-0.9999999999999998
  0
VERTEX
  5
11AD
  8
SAPA_ANSLUTNING
 10
121.4999999997148
 20
-8.9999999999901945
 30
0.0
  0
VERTEX
  5
11AE
  8
SAPA_ANSLUTNING
 10
121.4999999997148
 20
-58.000000000007297
 30
0.0
 42
0.4609155448655906
  0
VERTEX
  5
11AF
  8
SAPA_ANSLUTNING
 10
131.90524825531659
 20
-66.889616265073442
 30
0.0
 42
0.4609155448655906
  0
SEQEND
  5
11B0
  8
SAPA_ANSLUTNING
  0
POLYLINE
  5
F17
  8
SAPA_PROFIL
 66
     1
 10
0.0
 20
0.0
 30
0.0
 70
     1
  0
VERTEX
  5
1651
  8
SAPA_PROFIL
 10
122.31226184615301
 20
47.000000000000121
 30
0.0
  0
VERTEX
  5
1652
  8
SAPA_PROFIL
 10
120.2141894904327
 20
47.000000000000121
 30
0.0
 42
-0.6681786379192718
  0
VERTEX
  5
1653
  8
SAPA_PROFIL
 10
119.50708270924611
 20
48.70710678118661
 30
0.0
  0
VERTEX
  5
1654
  8
SAPA_PROFIL
 10
120.81213196241509
 20
50.01215603435579
 30
0.0
 42
-0.1989123673797335
  0
VERTEX
  5
1655
  8
SAPA_PROFIL
 10
121.0242639967711
 20
50.100023999999898
 30
0.0
  0
VERTEX
  5
1656
  8
SAPA_PROFIL
 10
121.61076944351829
 20
50.100023999999763
 30
0.0
 42
-0.1316524975873855
  0
VERTEX
  5
1657
  8
SAPA_PROFIL
 10
121.7607694435183
 20
50.05983162113511
 30
0.0
  0
VERTEX
  5
1658
  8
SAPA_PROFIL
 10
123.2499999280591
 20
49.2000239999998
 30
0.0
  0
VERTEX
  5
1659
  8
SAPA_PROFIL
 10
123.6999999280591
 20
49.200012000000143
 30
0.0
 42
0.4142135623731054
  0
VERTEX
  5
165A
  8
SAPA_PROFIL
 10
123.9999999280591
 20
49.500012000000147
 30
0.0
  0
VERTEX
  5
165B
  8
SAPA_PROFIL
 10
123.9999999280591
 20
53.100024000000211
 30
0.0
 42
0.4142135623730951
  0
VERTEX
  5
165C
  8
SAPA_PROFIL
 10
123.699999928059
 20
53.400024000000201
 30
0.0
  0
VERTEX
  5
165D
  8
SAPA_PROFIL
 10
123.249999928059
 20
53.400024000000109
 30
0.0
  0
VERTEX
  5
165E
  8
SAPA_PROFIL
 10
121.76073979698489
 20
52.54019926243113
 30
0.0
 42
-0.1316363093594254
  0
VERTEX
  5
165F
  8
SAPA_PROFIL
 10
121.6107588919381
 20
52.500006884174162
 30
0.0
  0
VERTEX
  5
1660
  8
SAPA_PROFIL
 10
121.4999999280591
 20
52.499999834383352
 30
0.0
  0
VERTEX
  5
1661
  8
SAPA_PROFIL
 10
121.4999999280591
 20
54.499999999989207
 30
0.0
 42
-0.4142135623730957
  0
VERTEX
  5
1662
  8
SAPA_PROFIL
 10
121.9999999280591
 20
54.9999999999892
 30
0.0
  0
VERTEX
  5
1663
  8
SAPA_PROFIL
 10
127.24999992668469
 20
54.9999999999892
 30
0.0
 42
-0.4142135623730957
  0
VERTEX
  5
1664
  8
SAPA_PROFIL
 10
127.74999992668469
 20
54.499999999989207
 30
0.0
  0
VERTEX
  5
1665
  8
SAPA_PROFIL
 10
127.74999992668469
 20
53.99999999997312
 30
0.0
 42
-0.4142135623730783
  0
VERTEX
  5
1666
  8
SAPA_PROFIL
 10
127.24999992668469
 20
53.49999999997312
 30
0.0
  0
VERTEX
  5
1667
  8
SAPA_PROFIL
 10
126.4499999266893
 20
53.49999999997312
 30
0.0
 42
0.4142135623730946
  0
VERTEX
  5
1668
  8
SAPA_PROFIL
 10
126.2499999266893
 20
53.299999999973132
 30
0.0
  0
VERTEX
  5
1669
  8
SAPA_PROFIL
 10
126.2499999266893
 20
50.499999999978229
 30
0.0
 42
0.414213562373094
  0
VERTEX
  5
166A
  8
SAPA_PROFIL
 10
126.4499999266893
 20
50.299999999978247
 30
0.0
  0
VERTEX
  5
166B
  8
SAPA_PROFIL
 10
130.54999992821899
 20
50.299999999978233
 30
0.0
 42
0.4142135623726658
  0
VERTEX
  5
166C
  8
SAPA_PROFIL
 10
130.74999992821901
 20
50.499999999977952
 30
0.0
  0
VERTEX
  5
166D
  8
SAPA_PROFIL
 10
130.74999992824809
 20
69.799999999994327
 30
0.0
 42
-0.4964147352864319
  0
VERTEX
  5
166E
  8
SAPA_PROFIL
 10
131.00379033657379
 20
69.992630713983701
 30
0.0
 42
-0.3064679542112438
  0
VERTEX
  5
166F
  8
SAPA_PROFIL
 10
131.72890680941941
 20
69.138232780807016
 30
0.0
 42
-0.0272495355296178
  0
VERTEX
  5
1670
  8
SAPA_PROFIL
 10
132.499999927728
 20
55.000000000012193
 30
0.0
  0
VERTEX
  5
1671
  8
SAPA_PROFIL
 10
132.49999992808091
 20
42.199999998749377
 30
0.0
 42
-0.4142135623890783
  0
VERTEX
  5
1672
  8
SAPA_PROFIL
 10
132.29999992808021
 20
41.999999998737742
 30
0.0
  0
VERTEX
  5
1673
  8
SAPA_PROFIL
 10
131.96546998182029
 20
41.999999998739561
 30
0.0
 42
-0.267949192439649
  0
VERTEX
  5
1674
  8
SAPA_PROFIL
 10
131.7922649010612
 20
42.099999998744529
 30
0.0
  0
VERTEX
  5
1675
  8
SAPA_PROFIL
 10
130.77679484746849
 20
43.858845725139084
 30
0.0
 42
-0.1316524975843789
  0
VERTEX
  5
1676
  8
SAPA_PROFIL
 10
130.749999928226
 20
43.958845725139447
 30
0.0
  0
VERTEX
  5
1677
  8
SAPA_PROFIL
 10
130.74999992823001
 20
46.799999999999393
 30
0.0
 42
0.4142135623730974
  0
VERTEX
  5
1678
  8
SAPA_PROFIL
 10
130.54999992822931
 20
47.000000000000121
 30
0.0
  0
VERTEX
  5
1679
  8
SAPA_PROFIL
 10
124.2438689690208
 20
47.000000000000121
 30
0.0
 42
-0.2418327667441245
  0
VERTEX
  5
167A
  8
SAPA_PROFIL
 10
123.9999999280693
 20
47.125277674966298
 30
0.0
 42
0.2418327667528755
  0
VERTEX
  5
167B
  8
SAPA_PROFIL
 10
123.7561308871083
 20
47.250555349939653
 30
0.0
  0
VERTEX
  5
167C
  8
SAPA_PROFIL
 10
122.7999999280693
 20
47.250555349939653
 30
0.0
 42
0.2418327667504218
  0
VERTEX
  5
167D
  8
SAPA_PROFIL
 10
122.55613088710651
 20
47.125277674968707
 30
0.0
 42
-0.2418327667464108
  0
SEQEND
  5
167E
  8
SAPA_PROFIL
  0
POLYLINE
  5
F18
  8
SAPA_PROFIL
 66
     1
 10
0.0
 20
0.0
 30
0.0
 70
     1
  0
VERTEX
  5
167F
  8
SAPA_PROFIL
 10
95.687738009965202
 20
47.000000000000121
 30
0.0
  0
VERTEX
  5
1680
  8
SAPA_PROFIL
 10
97.785810365685464
 20
47.000000000000121
 30
0.0
 42
0.6681786379192718
  0
VERTEX
  5
1681
  8
SAPA_PROFIL
 10
98.49291714687206
 20
48.70710678118661
 30
0.0
  0
VERTEX
  5
1682
  8
SAPA_PROFIL
 10
97.187867893703114
 20
50.01215603435579
 30
0.0
 42
0.1989123673797335
  0
VERTEX
  5
1683
  8
SAPA_PROFIL
 10
96.975735859347026
 20
50.100023999999898
 30
0.0
  0
VERTEX
  5
1684
  8
SAPA_PROFIL
 10
96.389230412599844
 20
50.100023999999763
 30
0.0
 42
0.1316524975873855
  0
VERTEX
  5
1685
  8
SAPA_PROFIL
 10
96.239230412599923
 20
50.05983162113511
 30
0.0
  0
VERTEX
  5
1686
  8
SAPA_PROFIL
 10
94.749999928059026
 20
49.2000239999998
 30
0.0
  0
VERTEX
  5
1687
  8
SAPA_PROFIL
 10
94.299999928059094
 20
49.200012000000143
 30
0.0
 42
-0.4142135623731054
  0
VERTEX
  5
1688
  8
SAPA_PROFIL
 10
93.999999928059069
 20
49.500012000000147
 30
0.0
  0
VERTEX
  5
1689
  8
SAPA_PROFIL
 10
93.999999928059125
 20
53.100024000000211
 30
0.0
 42
-0.4142135623730951
  0
VERTEX
  5
168A
  8
SAPA_PROFIL
 10
94.299999928059123
 20
53.400024000000201
 30
0.0
  0
VERTEX
  5
168B
  8
SAPA_PROFIL
 10
94.749999928059125
 20
53.400024000000109
 30
0.0
  0
VERTEX
  5
168C
  8
SAPA_PROFIL
 10
96.239260059133315
 20
52.54019926243113
 30
0.0
 42
0.1316363093594254
  0
VERTEX
  5
168D
  8
SAPA_PROFIL
 10
96.389240964180033
 20
52.500006884174162
 30
0.0
  0
VERTEX
  5
168E
  8
SAPA_PROFIL
 10
96.499999928059097
 20
52.499999834383352
 30
0.0
  0
VERTEX
  5
168F
  8
SAPA_PROFIL
 10
96.499999928059097
 20
54.499999999989207
 30
0.0
 42
0.4142135623730957
  0
VERTEX
  5
1690
  8
SAPA_PROFIL
 10
95.999999928059097
 20
54.9999999999892
 30
0.0
  0
VERTEX
  5
1691
  8
SAPA_PROFIL
 10
90.749999929433443
 20
54.9999999999892
 30
0.0
 42
0.4142135623730957
  0
VERTEX
  5
1692
  8
SAPA_PROFIL
 10
90.249999929433457
 20
54.499999999989207
 30
0.0
  0
VERTEX
  5
1693
  8
SAPA_PROFIL
 10
90.249999929433457
 20
53.99999999997312
 30
0.0
 42
0.4142135623730783
  0
VERTEX
  5
1694
  8
SAPA_PROFIL
 10
90.749999929433443
 20
53.49999999997312
 30
0.0
  0
VERTEX
  5
1695
  8
SAPA_PROFIL
 10
91.549999929428864
 20
53.49999999997312
 30
0.0
 42
-0.4142135623730946
  0
VERTEX
  5
1696
  8
SAPA_PROFIL
 10
91.749999929428839
 20
53.299999999973132
 30
0.0
  0
VERTEX
  5
1697
  8
SAPA_PROFIL
 10
91.749999929428867
 20
50.499999999978229
 30
0.0
 42
-0.414213562373094
  0
VERTEX
  5
1698
  8
SAPA_PROFIL
 10
91.549999929428864
 20
50.299999999978247
 30
0.0
  0
VERTEX
  5
1699
  8
SAPA_PROFIL
 10
87.449999927899185
 20
50.299999999978233
 30
0.0
 42
-0.4142135623726658
  0
VERTEX
  5
169A
  8
SAPA_PROFIL
 10
87.249999927899196
 20
50.499999999977952
 30
0.0
  0
VERTEX
  5
169B
  8
SAPA_PROFIL
 10
87.249999927870036
 20
69.799999999994327
 30
0.0
 42
0.4964147352864319
  0
VERTEX
  5
169C
  8
SAPA_PROFIL
 10
86.996209519544408
 20
69.992630713983701
 30
0.0
 42
0.3064679542112438
  0
VERTEX
  5
169D
  8
SAPA_PROFIL
 10
86.271093046698752
 20
69.138232780807016
 30
0.0
 42
0.0272495355296178
  0
VERTEX
  5
169E
  8
SAPA_PROFIL
 10
85.499999928390167
 20
55.000000000012193
 30
0.0
  0
VERTEX
  5
169F
  8
SAPA_PROFIL
 10
85.499999928037255
 20
42.199999998749377
 30
0.0
 42
0.4142135623890783
  0
VERTEX
  5
16A0
  8
SAPA_PROFIL
 10
85.699999928037997
 20
41.999999998737742
 30
0.0
  0
VERTEX
  5
16A1
  8
SAPA_PROFIL
 10
86.03452987429786
 20
41.999999998739561
 30
0.0
 42
0.267949192439649
  0
VERTEX
  5
16A2
  8
SAPA_PROFIL
 10
86.207734955057006
 20
42.099999998744529
 30
0.0
  0
VERTEX
  5
16A3
  8
SAPA_PROFIL
 10
87.223205008649657
 20
43.858845725139084
 30
0.0
 42
0.1316524975843789
  0
VERTEX
  5
16A4
  8
SAPA_PROFIL
 10
87.249999927892205
 20
43.958845725139447
 30
0.0
  0
VERTEX
  5
16A5
  8
SAPA_PROFIL
 10
87.249999927888112
 20
46.799999999999393
 30
0.0
 42
-0.4142135623730974
  0
VERTEX
  5
16A6
  8
SAPA_PROFIL
 10
87.449999927888825
 20
47.000000000000121
 30
0.0
  0
VERTEX
  5
16A7
  8
SAPA_PROFIL
 10
93.75613088709737
 20
47.000000000000121
 30
0.0
 42
0.2418327667441245
  0
VERTEX
  5
16A8
  8
SAPA_PROFIL
 10
93.999999928048837
 20
47.125277674966298
 30
0.0
 42
-0.2418327667528755
  0
VERTEX
  5
16A9
  8
SAPA_PROFIL
 10
94.243868969009895
 20
47.250555349939653
 30
0.0
  0
VERTEX
  5
16AA
  8
SAPA_PROFIL
 10
95.199999928048911
 20
47.250555349939653
 30
0.0
 42
-0.2418327667504218
  0
VERTEX
  5
16AB
  8
SAPA_PROFIL
 10
95.443868969011618
 20
47.125277674968707
 30
0.0
 42
0.2418327667464108
  0
SEQEND
  5
16AC
  8
SAPA_PROFIL
  0
POLYLINE
  5
F19
  8
SAPA_PROFIL
 62
     4
 66
     1
 10
0.0
 20
0.0
 30
0.0
 70
     1
  0
VERTEX
  5
F1A
  8
SAPA_PROFIL
 62
     4
 10
96.856217710711604
 20
50.350012000002138
 30
0.0
 42
0.1316524975873979
  0
VERTEX
  5
F1B
  8
SAPA_PROFIL
 62
     4
 10
96.45621771071157
 20
50.24283232302971
 30
0.0
  0
VERTEX
  5
F1C
  8
SAPA_PROFIL
 62
     4
 10
94.736602468437525
 20
49.250012000000282
 30
0.0
  0
VERTEX
  5
F1D
  8
SAPA_PROFIL
 62
     4
 10
94.299999928059094
 20
49.25001200000019
 30
0.0
 42
-0.4142135623730951
  0
VERTEX
  5
F1E
  8
SAPA_PROFIL
 62
     4
 10
94.049999928059094
 20
49.500012000000183
 30
0.0
  0
VERTEX
  5
F1F
  8
SAPA_PROFIL
 62
     4
 10
94.049999928059023
 20
53.100024000000239
 30
0.0
 42
-0.4142135623731053
  0
VERTEX
  5
F20
  8
SAPA_PROFIL
 62
     4
 10
94.299999928059023
 20
53.350024000000253
 30
0.0
  0
VERTEX
  5
F21
  8
SAPA_PROFIL
 62
     4
 10
94.736601849637509
 20
53.350012357264887
 30
0.0
  0
VERTEX
  5
F22
  8
SAPA_PROFIL
 62
     4
 10
96.456217710704905
 20
52.357191676974622
 30
0.0
 42
0.1316524975874149
  0
VERTEX
  5
F23
  8
SAPA_PROFIL
 62
     4
 10
96.856217710704954
 20
52.250012000002123
 30
0.0
  0
VERTEX
  5
F24
  8
SAPA_PROFIL
 62
     4
 10
121.1437821454132
 20
52.250012000002123
 30
0.0
 42
0.1316524975874151
  0
VERTEX
  5
F25
  8
SAPA_PROFIL
 62
     4
 10
121.5437821454133
 20
52.357191676974622
 30
0.0
  0
VERTEX
  5
F26
  8
SAPA_PROFIL
 62
     4
 10
123.2633980064807
 20
53.350012357264887
 30
0.0
  0
VERTEX
  5
F27
  8
SAPA_PROFIL
 62
     4
 10
123.6999999280591
 20
53.350024000000253
 30
0.0
 42
-0.4142135623731054
  0
VERTEX
  5
F28
  8
SAPA_PROFIL
 62
     4
 10
123.9499999280591
 20
53.100024000000239
 30
0.0
  0
VERTEX
  5
F29
  8
SAPA_PROFIL
 62
     4
 10
123.9499999280591
 20
49.500012000000183
 30
0.0
 42
-0.4142135623730953
  0
VERTEX
  5
F2A
  8
SAPA_PROFIL
 62
     4
 10
123.6999999280591
 20
49.25001200000019
 30
0.0
  0
VERTEX
  5
F2B
  8
SAPA_PROFIL
 62
     4
 10
123.2633973876806
 20
49.250012000000282
 30
0.0
  0
VERTEX
  5
F2C
  8
SAPA_PROFIL
 62
     4
 10
121.5437821454066
 20
50.24283232302971
 30
0.0
 42
0.1316524975873982
  0
VERTEX
  5
F2D
  8
SAPA_PROFIL
 62
     4
 10
121.1437821454066
 20
50.350012000002138
 30
0.0
  0
SEQEND
  5
F2E
  8
SAPA_PROFIL
 62
     4
  0
POLYLINE
  5
F2F
  8
SAPA_PROFIL
 66
     1
 10
0.0
 20
0.0
 30
0.0
 70
     1
  0
VERTEX
  5
16AD
  8
SAPA_PROFIL
 10
135.64523645122861
 20
19.46152494752096
 30
0.0
 42
0.2914734195858593
  0
VERTEX
  5
16AE
  8
SAPA_PROFIL
 10
136.79999992774421
 20
21.274140521607482
 30
0.0
  0
VERTEX
  5
16AF
  8
SAPA_PROFIL
 10
136.79999992774421
 20
40.999999999985441
 30
0.0
 42
0.4142135623731033
  0
VERTEX
  5
16B0
  8
SAPA_PROFIL
 10
136.29999992774421
 20
41.499999999985441
 30
0.0
  0
VERTEX
  5
16B1
  8
SAPA_PROFIL
 10
135.999999927734
 20
41.499999999985441
 30
0.0
 42
0.4142135623731035
  0
VERTEX
  5
16B2
  8
SAPA_PROFIL
 10
135.499999927734
 20
40.999999999985441
 30
0.0
  0
VERTEX
  5
16B3
  8
SAPA_PROFIL
 10
135.499999927734
 20
39.699999999986183
 30
0.0
 42
-0.4142135623731159
  0
VERTEX
  5
16B4
  8
SAPA_PROFIL
 10
135.29999992771511
 20
39.499999999974541
 30
0.0
  0
VERTEX
  5
16B5
  8
SAPA_PROFIL
 10
134.999999927734
 20
39.499999999985448
 30
0.0
 42
-0.4142135623731035
  0
VERTEX
  5
16B6
  8
SAPA_PROFIL
 10
134.499999927734
 20
39.999999999985448
 30
0.0
  0
VERTEX
  5
16B7
  8
SAPA_PROFIL
 10
134.4999999277413
 20
43.749999999985448
 30
0.0
 42
-0.4142135623731035
  0
VERTEX
  5
16B8
  8
SAPA_PROFIL
 10
134.9999999277413
 20
44.249999999985441
 30
0.0
  0
VERTEX
  5
16B9
  8
SAPA_PROFIL
 10
135.29999992774421
 20
44.249999999985441
 30
0.0
 42
-0.4142135623731159
  0
VERTEX
  5
16BA
  8
SAPA_PROFIL
 10
135.49999992775221
 20
44.049999999973807
 30
0.0
  0
VERTEX
  5
16BB
  8
SAPA_PROFIL
 10
135.4999999277413
 20
43.199999999986169
 30
0.0
 42
0.4142135623730951
  0
VERTEX
  5
16BC
  8
SAPA_PROFIL
 10
135.69999992773111
 20
42.999999999985441
 30
0.0
  0
VERTEX
  5
16BD
  8
SAPA_PROFIL
 10
136.69999992773111
 20
42.999999999985441
 30
0.0
 42
0.4142135623731035
  0
VERTEX
  5
16BE
  8
SAPA_PROFIL
 10
137.19999992773111
 20
43.499999999985441
 30
0.0
  0
VERTEX
  5
16BF
  8
SAPA_PROFIL
 10
137.19999992773111
 20
49.499999999985448
 30
0.0
 42
0.4142135623731033
  0
VERTEX
  5
16C0
  8
SAPA_PROFIL
 10
136.69999992773111
 20
49.999999999985448
 30
0.0
  0
VERTEX
  5
16C1
  8
SAPA_PROFIL
 10
135.69999992773111
 20
49.999999999985448
 30
0.0
 42
0.4142135623731054
  0
VERTEX
  5
16C2
  8
SAPA_PROFIL
 10
135.4999999277413
 20
49.799999999973807
 30
0.0
  0
VERTEX
  5
16C3
  8
SAPA_PROFIL
 10
135.499999927734
 20
48.949999999986169
 30
0.0
 42
-0.4142135623731159
  0
VERTEX
  5
16C4
  8
SAPA_PROFIL
 10
135.29999992771511
 20
48.749999999974527
 30
0.0
  0
VERTEX
  5
16C5
  8
SAPA_PROFIL
 10
134.9999999277413
 20
48.75
 30
0.0
 42
-0.4142135623731035
  0
VERTEX
  5
16C6
  8
SAPA_PROFIL
 10
134.4999999277413
 20
49.25
 30
0.0
  0
VERTEX
  5
16C7
  8
SAPA_PROFIL
 10
134.4999999277413
 20
52.25
 30
0.0
 42
-0.4142135623731035
  0
VERTEX
  5
16C8
  8
SAPA_PROFIL
 10
134.9999999277413
 20
52.75
 30
0.0
  0
VERTEX
  5
16C9
  8
SAPA_PROFIL
 10
135.29999992774421
 20
52.75
 30
0.0
 42
-0.4142135623730744
  0
VERTEX
  5
16CA
  8
SAPA_PROFIL
 10
135.4999999277413
 20
52.549999999999272
 30
0.0
  0
VERTEX
  5
16CB
  8
SAPA_PROFIL
 10
135.49999992773041
 20
51.70000000000072
 30
0.0
 42
0.4142135623730534
  0
VERTEX
  5
16CC
  8
SAPA_PROFIL
 10
135.69999992773111
 20
51.5
 30
0.0
  0
VERTEX
  5
16CD
  8
SAPA_PROFIL
 10
136.69999992773111
 20
51.5
 30
0.0
 42
0.4142135623731035
  0
VERTEX
  5
16CE
  8
SAPA_PROFIL
 10
137.19999992773111
 20
52.0
 30
0.0
  0
VERTEX
  5
16CF
  8
SAPA_PROFIL
 10
137.19999992773111
 20
58.0
 30
0.0
 42
0.4142135623730869
  0
VERTEX
  5
16D0
  8
SAPA_PROFIL
 10
136.69999992773111
 20
58.5
 30
0.0
  0
VERTEX
  5
16D1
  8
SAPA_PROFIL
 10
135.69999992773111
 20
58.499999999989079
 30
0.0
 42
0.4142135623730534
  0
VERTEX
  5
16D2
  8
SAPA_PROFIL
 10
135.4999999277413
 20
58.299999999999272
 30
0.0
  0
VERTEX
  5
16D3
  8
SAPA_PROFIL
 10
135.4999999277486
 20
57.45000000000072
 30
0.0
 42
-0.4142135623730744
  0
VERTEX
  5
16D4
  8
SAPA_PROFIL
 10
135.29999992774421
 20
57.25
 30
0.0
  0
VERTEX
  5
16D5
  8
SAPA_PROFIL
 10
134.9999999277413
 20
57.25
 30
0.0
 42
-0.4142135623731035
  0
VERTEX
  5
16D6
  8
SAPA_PROFIL
 10
134.4999999277413
 20
57.75
 30
0.0
  0
VERTEX
  5
16D7
  8
SAPA_PROFIL
 10
134.4999999277413
 20
59.5
 30
0.0
 42
-0.4142135623731035
  0
VERTEX
  5
16D8
  8
SAPA_PROFIL
 10
134.9999999277413
 20
60.0
 30
0.0
  0
VERTEX
  5
16D9
  8
SAPA_PROFIL
 10
137.4999999277413
 20
60.0
 30
0.0
 42
-0.4142135623730951
  0
VERTEX
  5
16DA
  8
SAPA_PROFIL
 10
138.9999999277413
 20
58.5
 30
0.0
  0
VERTEX
  5
16DB
  8
SAPA_PROFIL
 10
138.9999999277413
 20
-55.625
 30
0.0
 42
-0.9999999999999792
  0
VERTEX
  5
16DC
  8
SAPA_PROFIL
 10
136.2499999277413
 20
-55.625
 30
0.0
  0
VERTEX
  5
16DD
  8
SAPA_PROFIL
 10
136.2499999277413
 20
-3.9999999999999849
 30
0.0
 42
0.4142135623730959
  0
VERTEX
  5
16DE
  8
SAPA_PROFIL
 10
132.2499999277413
 20
0.0000000000000142
 30
0.0
  0
VERTEX
  5
16DF
  8
SAPA_PROFIL
 10
90.743868969062234
 20
-0.0000000000109139
 30
0.0
 42
-0.2418327667378102
  0
VERTEX
  5
16E0
  8
SAPA_PROFIL
 10
90.499999928123856
 20
0.1252776749561804
 30
0.0
 42
0.2418327667509117
  0
VERTEX
  5
16E1
  8
SAPA_PROFIL
 10
90.256130887167899
 20
0.2505553499286179
 30
0.0
  0
VERTEX
  5
16E2
  8
SAPA_PROFIL
 10
89.299999928117984
 20
0.2505553499322559
 30
0.0
 42
0.2418327667448982
  0
VERTEX
  5
16E3
  8
SAPA_PROFIL
 10
89.056130887163064
 20
0.12527767496384
 30
0.0
 42
-0.2418327667448982
  0
VERTEX
  5
16E4
  8
SAPA_PROFIL
 10
88.812261846210475
 20
-0.0000000000033538
 30
0.0
  0
VERTEX
  5
16E5
  8
SAPA_PROFIL
 10
86.714189490492487
 20
-0.0000000000033538
 30
0.0
 42
-0.6681786379192726
  0
VERTEX
  5
16E6
  8
SAPA_PROFIL
 10
86.007082709305891
 20
1.707106781183142
 30
0.0
  0
VERTEX
  5
16E7
  8
SAPA_PROFIL
 10
87.312131962474865
 20
3.0121560343523011
 30
0.0
 42
-0.1989123673797352
  0
VERTEX
  5
16E8
  8
SAPA_PROFIL
 10
87.524263996830925
 20
3.100023999996437
 30
0.0
  0
VERTEX
  5
16E9
  8
SAPA_PROFIL
 10
88.110769443578135
 20
3.1000239999962811
 30
0.0
 42
-0.1316524975873824
  0
VERTEX
  5
16EA
  8
SAPA_PROFIL
 10
88.260769443578056
 20
3.059831621131635
 30
0.0
  0
VERTEX
  5
16EB
  8
SAPA_PROFIL
 10
89.749999928118925
 20
2.2000239999963318
 30
0.0
  0
VERTEX
  5
16EC
  8
SAPA_PROFIL
 10
90.199999928118885
 20
2.2000119999966752
 30
0.0
 42
0.4142135623731039
  0
VERTEX
  5
16ED
  8
SAPA_PROFIL
 10
90.499999928118896
 20
2.5000119999966719
 30
0.0
  0
VERTEX
  5
16EE
  8
SAPA_PROFIL
 10
90.499999928118825
 20
6.1000239999967363
 30
0.0
 42
0.4142135623730826
  0
VERTEX
  5
16EF
  8
SAPA_PROFIL
 10
90.199999928118842
 20
6.4000239999967334
 30
0.0
  0
VERTEX
  5
16F0
  8
SAPA_PROFIL
 10
89.749999928118839
 20
6.4000239999966331
 30
0.0
  0
VERTEX
  5
16F1
  8
SAPA_PROFIL
 10
88.260739797044664
 20
5.5401992624276479
 30
0.0
 42
-0.1316363093594268
  0
VERTEX
  5
16F2
  8
SAPA_PROFIL
 10
88.110758891997904
 20
5.5000068841706868
 30
0.0
  0
VERTEX
  5
16F3
  8
SAPA_PROFIL
 10
87.999999928115074
 20
5.4999998343798771
 30
0.0
  0
VERTEX
  5
16F4
  8
SAPA_PROFIL
 10
87.999999928115074
 20
7.0856406460516146
 30
0.0
 42
-0.2679491924308297
  0
VERTEX
  5
16F5
  8
SAPA_PROFIL
 10
88.499999928115074
 20
7.9516660498302372
 30
0.0
  0
VERTEX
  5
16F6
  8
SAPA_PROFIL
 10
90.249999928115528
 20
8.9620290209087141
 30
0.0
 42
0.2679491924308301
  0
VERTEX
  5
16F7
  8
SAPA_PROFIL
 10
90.499999928115074
 20
9.3950417228006682
 30
0.0
  0
VERTEX
  5
16F8
  8
SAPA_PROFIL
 10
90.499999928115074
 20
10.60495827718114
 30
0.0
 42
0.267949192430829
  0
VERTEX
  5
16F9
  8
SAPA_PROFIL
 10
90.249999928115059
 20
11.03797097907227
 30
0.0
  0
VERTEX
  5
16FA
  8
SAPA_PROFIL
 10
88.499999928115074
 20
12.04833395014793
 30
0.0
 42
-0.2679491924308297
  0
VERTEX
  5
16FB
  8
SAPA_PROFIL
 10
87.999999928116949
 20
12.914359353933831
 30
0.0
  0
VERTEX
  5
16FC
  8
SAPA_PROFIL
 10
87.999999928114818
 20
14.50000016560193
 30
0.0
  0
VERTEX
  5
16FD
  8
SAPA_PROFIL
 10
88.110758891997904
 20
14.499993115811121
 30
0.0
 42
-0.1316363093594264
  0
VERTEX
  5
16FE
  8
SAPA_PROFIL
 10
88.260739797044664
 20
14.45980073755416
 30
0.0
  0
VERTEX
  5
16FF
  8
SAPA_PROFIL
 10
89.749999928118839
 20
13.599975999985171
 30
0.0
  0
VERTEX
  5
1700
  8
SAPA_PROFIL
 10
90.199999928118842
 20
13.59997599998507
 30
0.0
 42
0.4142135623730951
  0
VERTEX
  5
1701
  8
SAPA_PROFIL
 10
90.499999928118825
 20
13.89997599998507
 30
0.0
  0
VERTEX
  5
1702
  8
SAPA_PROFIL
 10
90.499999928118896
 20
17.499987999985141
 30
0.0
 42
0.4142135623731165
  0
VERTEX
  5
1703
  8
SAPA_PROFIL
 10
90.199999928118885
 20
17.799987999985131
 30
0.0
  0
VERTEX
  5
1704
  8
SAPA_PROFIL
 10
89.749999928118925
 20
17.799975999985481
 30
0.0
  0
VERTEX
  5
1705
  8
SAPA_PROFIL
 10
88.260769443578056
 20
16.940168378850171
 30
0.0
 42
-0.1316524975873824
  0
VERTEX
  5
1706
  8
SAPA_PROFIL
 10
88.110769443578135
 20
16.899975999985529
 30
0.0
  0
VERTEX
  5
1707
  8
SAPA_PROFIL
 10
87.524263996830925
 20
16.89997599998539
 30
0.0
 42
-0.1989123673797351
  0
VERTEX
  5
1708
  8
SAPA_PROFIL
 10
87.312131962474865
 20
16.987843965629509
 30
0.0
  0
VERTEX
  5
1709
  8
SAPA_PROFIL
 10
86.007082709305891
 20
18.292893218798671
 30
0.0
 42
-0.6681786379192719
  0
VERTEX
  5
170A
  8
SAPA_PROFIL
 10
86.714189490492487
 20
19.99999999998516
 30
0.0
  0
VERTEX
  5
170B
  8
SAPA_PROFIL
 10
88.812261846212166
 20
19.99999999998516
 30
0.0
 42
-0.2418327667433408
  0
VERTEX
  5
170C
  8
SAPA_PROFIL
 10
89.056130887163732
 20
19.874722325019398
 30
0.0
 42
0.2418327667449424
  0
VERTEX
  5
170D
  8
SAPA_PROFIL
 10
89.299999928117984
 20
19.749444650053189
 30
0.0
  0
VERTEX
  5
170E
  8
SAPA_PROFIL
 10
90.256130887167899
 20
19.749444650049551
 30
0.0
 42
0.2418327667509086
  0
VERTEX
  5
170F
  8
SAPA_PROFIL
 10
90.499999928115017
 20
19.874722325031971
 30
0.0
 42
-0.2418327667378184
  0
VERTEX
  5
1710
  8
SAPA_PROFIL
 10
90.743868969052286
 20
19.999999999993801
 30
0.0
  0
VERTEX
  5
1711
  8
SAPA_PROFIL
 10
92.556610602811588
 20
20.000000000003642
 30
0.0
 42
-0.1095178116817878
  0
VERTEX
  5
1712
  8
SAPA_PROFIL
 10
93.401847126282576
 20
19.8126155740818
 30
0.0
  0
VERTEX
  5
1713
  8
SAPA_PROFIL
 10
99.031673491414722
 20
17.187384425924389
 30
0.0
 42
0.1095178116855124
  0
VERTEX
  5
1714
  8
SAPA_PROFIL
 10
99.876910014920895
 20
17.0
 30
0.0
  0
VERTEX
  5
1715
  8
SAPA_PROFIL
 10
106.9999999280833
 20
16.999999999985452
 30
0.0
 42
0.414213562373099
  0
VERTEX
  5
1716
  8
SAPA_PROFIL
 10
107.4999999280833
 20
17.500000000003642
 30
0.0
  0
VERTEX
  5
1717
  8
SAPA_PROFIL
 10
107.4999999280833
 20
18.500000000003631
 30
0.0
 42
0.4142135623730951
  0
VERTEX
  5
1718
  8
SAPA_PROFIL
 10
106.9999999280833
 20
19.000000000003642
 30
0.0
  0
VERTEX
  5
1719
  8
SAPA_PROFIL
 10
106.7087120806161
 20
19.000000000003642
 30
0.0
 42
-0.2982166266909471
  0
VERTEX
  5
171A
  8
SAPA_PROFIL
 10
106.25045451112619
 20
19.299999999990739
 30
0.0
 42
-1.5275252316550949
  0
VERTEX
  5
171B
  8
SAPA_PROFIL
 10
111.74954534504521
 20
19.299999999998899
 30
0.0
 42
-0.2982166266892463
  0
VERTEX
  5
171C
  8
SAPA_PROFIL
 10
111.291287775565
 20
19.00000000001296
 30
0.0
  0
VERTEX
  5
171D
  8
SAPA_PROFIL
 10
110.9999999280833
 20
19.000000000003642
 30
0.0
 42
0.4142135623730951
  0
VERTEX
  5
171E
  8
SAPA_PROFIL
 10
110.4999999280833
 20
18.500000000003631
 30
0.0
  0
VERTEX
  5
171F
  8
SAPA_PROFIL
 10
110.4999999280833
 20
17.500000000003642
 30
0.0
 42
0.4142135623730946
  0
VERTEX
  5
1720
  8
SAPA_PROFIL
 10
110.9999999280833
 20
17.000000000003642
 30
0.0
  0
VERTEX
  5
1721
  8
SAPA_PROFIL
 10
129.92308984094299
 20
17.000000000003642
 30
0.0
 42
0.1095178116834561
  0
VERTEX
  5
1722
  8
SAPA_PROFIL
 10
130.7683263644287
 20
17.18738442592506
 30
0.0
  0
SEQEND
  5
1723
  8
SAPA_PROFIL
  0
POLYLINE
  5
F30
  8
SAPA_PROFIL
 66
     1
 10
0.0
 20
0.0
 30
0.0
 70
     1
  0
VERTEX
  5
1724
  8
SAPA_PROFIL
 10
136.4999999277413
 20
2.7999999999992862
 30
0.0
 42
-0.4142135623730916
  0
VERTEX
  5
1725
  8
SAPA_PROFIL
 10
136.19999992773111
 20
2.5000000000000142
 30
0.0
  0
VERTEX
  5
1726
  8
SAPA_PROFIL
 10
93.299999928115355
 20
2.5000000000036371
 30
0.0
 42
-0.4142135623730959
  0
VERTEX
  5
1727
  8
SAPA_PROFIL
 10
92.999999928116054
 20
2.8000000000029099
 30
0.0
  0
VERTEX
  5
1728
  8
SAPA_PROFIL
 10
92.999999928112402
 20
14.3999999999869
 30
0.0
 42
-0.4142135623730951
  0
VERTEX
  5
1729
  8
SAPA_PROFIL
 10
93.299999928115312
 20
14.69999999998981
 30
0.0
  0
VERTEX
  5
172A
  8
SAPA_PROFIL
 10
136.19999992773111
 20
14.70000000001165
 30
0.0
 42
-0.4142135623730946
  0
VERTEX
  5
172B
  8
SAPA_PROFIL
 10
136.4999999277413
 20
14.400000000019659
 30
0.0
  0
SEQEND
  5
172C
  8
SAPA_PROFIL
  0
POLYLINE
  5
F31
  8
SAPA_PROFIL
 62
     4
 66
     1
 10
0.0
 20
0.0
 30
0.0
 70
     1
  0
VERTEX
  5
F32
  8
SAPA_PROFIL
 62
     4
 10
88.124166846888869
 20
3.1994446825304972
 30
0.0
 42
-0.1316524975873876
  0
VERTEX
  5
F33
  8
SAPA_PROFIL
 62
     4
 10
88.274166846888846
 20
3.1592523036658369
 30
0.0
  0
VERTEX
  5
F34
  8
SAPA_PROFIL
 62
     4
 10
89.763397387734059
 20
2.2994446500235171
 30
0.0
  0
VERTEX
  5
F35
  8
SAPA_PROFIL
 62
     4
 10
90.199999928112504
 20
2.2994446500234309
 30
0.0
 42
0.4142135623730934
  0
VERTEX
  5
F36
  8
SAPA_PROFIL
 62
     4
 10
90.449999928112476
 20
2.5494446500234171
 30
0.0
  0
VERTEX
  5
F37
  8
SAPA_PROFIL
 62
     4
 10
90.449999928112547
 20
6.1494566500234811
 30
0.0
 42
0.4142135623731066
  0
VERTEX
  5
F38
  8
SAPA_PROFIL
 62
     4
 10
90.199999928112533
 20
6.3994566500234953
 30
0.0
  0
VERTEX
  5
F39
  8
SAPA_PROFIL
 62
     4
 10
89.763398006534075
 20
6.3994450072881364
 30
0.0
  0
VERTEX
  5
F3A
  8
SAPA_PROFIL
 62
     4
 10
88.274166959496384
 20
5.5396370613951396
 30
0.0
 42
-0.131652497587425
  0
VERTEX
  5
F3B
  8
SAPA_PROFIL
 62
     4
 10
88.124166959496335
 20
5.4994446825304522
 30
0.0
  0
VERTEX
  5
F3C
  8
SAPA_PROFIL
 62
     4
 10
64.875832968245092
 20
5.4994446825304522
 30
0.0
 42
-0.1316524975874248
  0
VERTEX
  5
F3D
  8
SAPA_PROFIL
 62
     4
 10
64.725832968245058
 20
5.5396370613951396
 30
0.0
  0
VERTEX
  5
F3E
  8
SAPA_PROFIL
 62
     4
 10
63.236601921207367
 20
6.3994450072881364
 30
0.0
  0
VERTEX
  5
F3F
  8
SAPA_PROFIL
 62
     4
 10
62.799999999628909
 20
6.3994566500234953
 30
0.0
 42
0.4142135623731049
  0
VERTEX
  5
F40
  8
SAPA_PROFIL
 62
     4
 10
62.549999999628902
 20
6.1494566500234811
 30
0.0
  0
VERTEX
  5
F41
  8
SAPA_PROFIL
 62
     4
 10
62.549999999628952
 20
2.5494446500234171
 30
0.0
 42
0.4142135623730951
  0
VERTEX
  5
F42
  8
SAPA_PROFIL
 62
     4
 10
62.79999999962893
 20
2.2994446500234309
 30
0.0
  0
VERTEX
  5
F43
  8
SAPA_PROFIL
 62
     4
 10
63.236602540007389
 20
2.2994446500235171
 30
0.0
  0
VERTEX
  5
F44
  8
SAPA_PROFIL
 62
     4
 10
64.72583308085251
 20
3.1592523036657951
 30
0.0
 42
-0.1316524975873866
  0
VERTEX
  5
F45
  8
SAPA_PROFIL
 62
     4
 10
64.875833080852473
 20
3.1994446825304541
 30
0.0
  0
SEQEND
  5
F46
  8
SAPA_PROFIL
 62
     4
  0
POLYLINE
  5
F47
  8
SAPA_PROFIL
 66
     1
 10
0.0
 20
0.0
 30
0.0
 70
     1
  0
VERTEX
  5
172D
  8
SAPA_PROFIL
 10
17.354763476512758
 20
19.46152494752096
 30
0.0
 42
-0.2914734195858593
  0
VERTEX
  5
172E
  8
SAPA_PROFIL
 10
16.199999999997111
 20
21.274140521607482
 30
0.0
  0
VERTEX
  5
172F
  8
SAPA_PROFIL
 10
16.199999999997111
 20
40.999999999985441
 30
0.0
 42
-0.4142135623731033
  0
VERTEX
  5
1730
  8
SAPA_PROFIL
 10
16.6999999999971
 20
41.499999999985441
 30
0.0
  0
VERTEX
  5
1731
  8
SAPA_PROFIL
 10
17.000000000007301
 20
41.499999999985441
 30
0.0
 42
-0.4142135623731035
  0
VERTEX
  5
1732
  8
SAPA_PROFIL
 10
17.500000000007301
 20
40.999999999985441
 30
0.0
  0
VERTEX
  5
1733
  8
SAPA_PROFIL
 10
17.500000000007301
 20
39.699999999986183
 30
0.0
 42
0.4142135623731159
  0
VERTEX
  5
1734
  8
SAPA_PROFIL
 10
17.700000000026211
 20
39.499999999974541
 30
0.0
  0
VERTEX
  5
1735
  8
SAPA_PROFIL
 10
18.000000000007301
 20
39.499999999985448
 30
0.0
 42
0.4142135623731035
  0
VERTEX
  5
1736
  8
SAPA_PROFIL
 10
18.50000000000729
 20
39.999999999985448
 30
0.0
  0
VERTEX
  5
1737
  8
SAPA_PROFIL
 10
18.500000000000028
 20
43.749999999985448
 30
0.0
 42
0.4142135623731035
  0
VERTEX
  5
1738
  8
SAPA_PROFIL
 10
18.000000000000028
 20
44.249999999985441
 30
0.0
  0
VERTEX
  5
1739
  8
SAPA_PROFIL
 10
17.699999999997129
 20
44.249999999985441
 30
0.0
 42
0.4142135623731159
  0
VERTEX
  5
173A
  8
SAPA_PROFIL
 10
17.499999999989111
 20
44.049999999973807
 30
0.0
  0
VERTEX
  5
173B
  8
SAPA_PROFIL
 10
17.500000000000028
 20
43.199999999986169
 30
0.0
 42
-0.4142135623730951
  0
VERTEX
  5
173C
  8
SAPA_PROFIL
 10
17.300000000010211
 20
42.999999999985441
 30
0.0
  0
VERTEX
  5
173D
  8
SAPA_PROFIL
 10
16.300000000010211
 20
42.999999999985441
 30
0.0
 42
-0.4142135623731035
  0
VERTEX
  5
173E
  8
SAPA_PROFIL
 10
15.80000000001022
 20
43.499999999985441
 30
0.0
  0
VERTEX
  5
173F
  8
SAPA_PROFIL
 10
15.80000000001022
 20
49.499999999985448
 30
0.0
 42
-0.4142135623731033
  0
VERTEX
  5
1740
  8
SAPA_PROFIL
 10
16.300000000010211
 20
49.999999999985448
 30
0.0
  0
VERTEX
  5
1741
  8
SAPA_PROFIL
 10
17.300000000010211
 20
49.999999999985448
 30
0.0
 42
-0.4142135623731054
  0
VERTEX
  5
1742
  8
SAPA_PROFIL
 10
17.500000000000028
 20
49.799999999973807
 30
0.0
  0
VERTEX
  5
1743
  8
SAPA_PROFIL
 10
17.500000000007301
 20
48.949999999986169
 30
0.0
 42
0.4142135623731159
  0
VERTEX
  5
1744
  8
SAPA_PROFIL
 10
17.700000000026229
 20
48.749999999974527
 30
0.0
  0
VERTEX
  5
1745
  8
SAPA_PROFIL
 10
18.000000000000028
 20
48.75
 30
0.0
 42
0.4142135623731035
  0
VERTEX
  5
1746
  8
SAPA_PROFIL
 10
18.500000000000028
 20
49.25
 30
0.0
  0
VERTEX
  5
1747
  8
SAPA_PROFIL
 10
18.500000000000028
 20
52.25
 30
0.0
 42
0.4142135623731035
  0
VERTEX
  5
1748
  8
SAPA_PROFIL
 10
18.000000000000028
 20
52.75
 30
0.0
  0
VERTEX
  5
1749
  8
SAPA_PROFIL
 10
17.699999999997129
 20
52.75
 30
0.0
 42
0.4142135623730744
  0
VERTEX
  5
174A
  8
SAPA_PROFIL
 10
17.500000000000028
 20
52.549999999999272
 30
0.0
  0
VERTEX
  5
174B
  8
SAPA_PROFIL
 10
17.500000000010949
 20
51.70000000000072
 30
0.0
 42
-0.4142135623730534
  0
VERTEX
  5
174C
  8
SAPA_PROFIL
 10
17.300000000010211
 20
51.5
 30
0.0
  0
VERTEX
  5
174D
  8
SAPA_PROFIL
 10
16.300000000010211
 20
51.5
 30
0.0
 42
-0.4142135623731035
  0
VERTEX
  5
174E
  8
SAPA_PROFIL
 10
15.80000000001022
 20
52.0
 30
0.0
  0
VERTEX
  5
174F
  8
SAPA_PROFIL
 10
15.80000000001022
 20
58.0
 30
0.0
 42
-0.4142135623730869
  0
VERTEX
  5
1750
  8
SAPA_PROFIL
 10
16.300000000010211
 20
58.5
 30
0.0
  0
VERTEX
  5
1751
  8
SAPA_PROFIL
 10
17.300000000010211
 20
58.499999999989079
 30
0.0
 42
-0.4142135623730534
  0
VERTEX
  5
1752
  8
SAPA_PROFIL
 10
17.500000000000028
 20
58.299999999999272
 30
0.0
  0
VERTEX
  5
1753
  8
SAPA_PROFIL
 10
17.499999999992749
 20
57.45000000000072
 30
0.0
 42
0.4142135623730744
  0
VERTEX
  5
1754
  8
SAPA_PROFIL
 10
17.699999999997129
 20
57.25
 30
0.0
  0
VERTEX
  5
1755
  8
SAPA_PROFIL
 10
18.000000000000028
 20
57.25
 30
0.0
 42
0.4142135623731035
  0
VERTEX
  5
1756
  8
SAPA_PROFIL
 10
18.500000000000028
 20
57.75
 30
0.0
  0
VERTEX
  5
1757
  8
SAPA_PROFIL
 10
18.500000000000028
 20
59.5
 30
0.0
 42
0.4142135623731035
  0
VERTEX
  5
1758
  8
SAPA_PROFIL
 10
18.000000000000028
 20
60.0
 30
0.0
  0
VERTEX
  5
1759
  8
SAPA_PROFIL
 10
15.50000000000003
 20
60.0
 30
0.0
 42
0.4142135623730951
  0
VERTEX
  5
175A
  8
SAPA_PROFIL
 10
14.00000000000003
 20
58.5
 30
0.0
  0
VERTEX
  5
175B
  8
SAPA_PROFIL
 10
14.0
 20
-55.625
 30
0.0
 42
0.9999999999999792
  0
VERTEX
  5
175C
  8
SAPA_PROFIL
 10
16.75
 20
-55.625
 30
0.0
  0
VERTEX
  5
175D
  8
SAPA_PROFIL
 10
16.750000000000028
 20
-3.9999999999999849
 30
0.0
 42
-0.4142135623730959
  0
VERTEX
  5
175E
  8
SAPA_PROFIL
 10
20.750000000000011
 20
0.0000000000000142
 30
0.0
  0
VERTEX
  5
175F
  8
SAPA_PROFIL
 10
62.256130958679108
 20
-0.0000000000109139
 30
0.0
 42
0.2418327667378102
  0
VERTEX
  5
1760
  8
SAPA_PROFIL
 10
62.499999999617501
 20
0.1252776749561804
 30
0.0
 42
-0.2418327667509117
  0
VERTEX
  5
1761
  8
SAPA_PROFIL
 10
62.743869040573458
 20
0.2505553499286179
 30
0.0
  0
VERTEX
  5
1762
  8
SAPA_PROFIL
 10
63.699999999623373
 20
0.2505553499322559
 30
0.0
 42
-0.2418327667448982
  0
VERTEX
  5
1763
  8
SAPA_PROFIL
 10
63.943869040578313
 20
0.12527767496384
 30
0.0
 42
0.2418327667448982
  0
VERTEX
  5
1764
  8
SAPA_PROFIL
 10
64.187738081530881
 20
-0.0000000000033538
 30
0.0
  0
VERTEX
  5
1765
  8
SAPA_PROFIL
 10
66.28581043724887
 20
-0.0000000000033538
 30
0.0
 42
0.6681786379192726
  0
VERTEX
  5
1766
  8
SAPA_PROFIL
 10
66.992917218435466
 20
1.707106781183142
 30
0.0
  0
VERTEX
  5
1767
  8
SAPA_PROFIL
 10
65.687867965266491
 20
3.0121560343523011
 30
0.0
 42
0.1989123673797352
  0
VERTEX
  5
1768
  8
SAPA_PROFIL
 10
65.475735930910403
 20
3.100023999996437
 30
0.0
  0
VERTEX
  5
1769
  8
SAPA_PROFIL
 10
64.889230484163221
 20
3.1000239999962811
 30
0.0
 42
0.1316524975873824
  0
VERTEX
  5
176A
  8
SAPA_PROFIL
 10
64.739230484163301
 20
3.059831621131635
 30
0.0
  0
VERTEX
  5
176B
  8
SAPA_PROFIL
 10
63.24999999962241
 20
2.2000239999963318
 30
0.0
  0
VERTEX
  5
176C
  8
SAPA_PROFIL
 10
62.799999999622472
 20
2.2000119999966752
 30
0.0
 42
-0.4142135623731039
  0
VERTEX
  5
176D
  8
SAPA_PROFIL
 10
62.499999999622467
 20
2.5000119999966719
 30
0.0
  0
VERTEX
  5
176E
  8
SAPA_PROFIL
 10
62.499999999622517
 20
6.1000239999967363
 30
0.0
 42
-0.4142135623730826
  0
VERTEX
  5
176F
  8
SAPA_PROFIL
 10
62.799999999622507
 20
6.4000239999967334
 30
0.0
  0
VERTEX
  5
1770
  8
SAPA_PROFIL
 10
63.24999999962251
 20
6.4000239999966331
 30
0.0
  0
VERTEX
  5
1771
  8
SAPA_PROFIL
 10
64.739260130696692
 20
5.5401992624276479
 30
0.0
 42
0.1316363093594268
  0
VERTEX
  5
1772
  8
SAPA_PROFIL
 10
64.889241035743424
 20
5.5000068841706868
 30
0.0
  0
VERTEX
  5
1773
  8
SAPA_PROFIL
 10
64.999999999626283
 20
5.4999998343798771
 30
0.0
  0
VERTEX
  5
1774
  8
SAPA_PROFIL
 10
64.999999999626283
 20
7.0856406460516146
 30
0.0
 42
0.2679491924308297
  0
VERTEX
  5
1775
  8
SAPA_PROFIL
 10
64.499999999626283
 20
7.9516660498302372
 30
0.0
  0
VERTEX
  5
1776
  8
SAPA_PROFIL
 10
62.749999999625828
 20
8.9620290209087141
 30
0.0
 42
-0.2679491924308301
  0
VERTEX
  5
1777
  8
SAPA_PROFIL
 10
62.49999999962629
 20
9.3950417228006682
 30
0.0
  0
VERTEX
  5
1778
  8
SAPA_PROFIL
 10
62.49999999962629
 20
10.60495827718114
 30
0.0
 42
-0.267949192430829
  0
VERTEX
  5
1779
  8
SAPA_PROFIL
 10
62.749999999626283
 20
11.03797097907227
 30
0.0
  0
VERTEX
  5
177A
  8
SAPA_PROFIL
 10
64.499999999626283
 20
12.04833395014793
 30
0.0
 42
0.2679491924308297
  0
VERTEX
  5
177B
  8
SAPA_PROFIL
 10
64.999999999624393
 20
12.914359353933831
 30
0.0
  0
VERTEX
  5
177C
  8
SAPA_PROFIL
 10
64.999999999626525
 20
14.50000016560193
 30
0.0
  0
VERTEX
  5
177D
  8
SAPA_PROFIL
 10
64.889241035743424
 20
14.499993115811121
 30
0.0
 42
0.1316363093594264
  0
VERTEX
  5
177E
  8
SAPA_PROFIL
 10
64.739260130696692
 20
14.45980073755416
 30
0.0
  0
VERTEX
  5
177F
  8
SAPA_PROFIL
 10
63.24999999962251
 20
13.599975999985171
 30
0.0
  0
VERTEX
  5
1780
  8
SAPA_PROFIL
 10
62.799999999622507
 20
13.59997599998507
 30
0.0
 42
-0.4142135623730951
  0
VERTEX
  5
1781
  8
SAPA_PROFIL
 10
62.499999999622517
 20
13.89997599998507
 30
0.0
  0
VERTEX
  5
1782
  8
SAPA_PROFIL
 10
62.499999999622467
 20
17.499987999985141
 30
0.0
 42
-0.4142135623731165
  0
VERTEX
  5
1783
  8
SAPA_PROFIL
 10
62.799999999622472
 20
17.799987999985131
 30
0.0
  0
VERTEX
  5
1784
  8
SAPA_PROFIL
 10
63.24999999962241
 20
17.799975999985481
 30
0.0
  0
VERTEX
  5
1785
  8
SAPA_PROFIL
 10
64.739230484163301
 20
16.940168378850171
 30
0.0
 42
0.1316524975873824
  0
VERTEX
  5
1786
  8
SAPA_PROFIL
 10
64.889230484163221
 20
16.899975999985529
 30
0.0
  0
VERTEX
  5
1787
  8
SAPA_PROFIL
 10
65.475735930910403
 20
16.89997599998539
 30
0.0
 42
0.1989123673797351
  0
VERTEX
  5
1788
  8
SAPA_PROFIL
 10
65.687867965266491
 20
16.987843965629509
 30
0.0
  0
VERTEX
  5
1789
  8
SAPA_PROFIL
 10
66.992917218435466
 20
18.292893218798671
 30
0.0
 42
0.6681786379192719
  0
VERTEX
  5
178A
  8
SAPA_PROFIL
 10
66.28581043724887
 20
19.99999999998516
 30
0.0
  0
VERTEX
  5
178B
  8
SAPA_PROFIL
 10
64.187738081529176
 20
19.99999999998516
 30
0.0
 42
0.2418327667433408
  0
VERTEX
  5
178C
  8
SAPA_PROFIL
 10
63.943869040577617
 20
19.874722325019398
 30
0.0
 42
-0.2418327667449424
  0
VERTEX
  5
178D
  8
SAPA_PROFIL
 10
63.699999999623373
 20
19.749444650053189
 30
0.0
  0
VERTEX
  5
178E
  8
SAPA_PROFIL
 10
62.743869040573458
 20
19.749444650049551
 30
0.0
 42
-0.2418327667509086
  0
VERTEX
  5
178F
  8
SAPA_PROFIL
 10
62.49999999962634
 20
19.874722325031971
 30
0.0
 42
0.2418327667378184
  0
VERTEX
  5
1790
  8
SAPA_PROFIL
 10
62.256130958689049
 20
19.999999999993801
 30
0.0
  0
VERTEX
  5
1791
  8
SAPA_PROFIL
 10
60.443389324929761
 20
20.000000000003642
 30
0.0
 42
0.1095178116817878
  0
VERTEX
  5
1792
  8
SAPA_PROFIL
 10
59.598152801458781
 20
19.8126155740818
 30
0.0
  0
VERTEX
  5
1793
  8
SAPA_PROFIL
 10
53.968326436326628
 20
17.187384425924389
 30
0.0
 42
-0.1095178116855124
  0
VERTEX
  5
1794
  8
SAPA_PROFIL
 10
53.123089912820461
 20
17.0
 30
0.0
  0
VERTEX
  5
1795
  8
SAPA_PROFIL
 10
45.999999999658051
 20
16.999999999985452
 30
0.0
 42
-0.414213562373099
  0
VERTEX
  5
1796
  8
SAPA_PROFIL
 10
45.499999999658051
 20
17.500000000003642
 30
0.0
  0
VERTEX
  5
1797
  8
SAPA_PROFIL
 10
45.499999999658051
 20
18.500000000003631
 30
0.0
 42
-0.4142135623730951
  0
VERTEX
  5
1798
  8
SAPA_PROFIL
 10
45.999999999658051
 20
19.000000000003642
 30
0.0
  0
VERTEX
  5
1799
  8
SAPA_PROFIL
 10
46.291287847125233
 20
19.000000000003642
 30
0.0
 42
0.2982166266909471
  0
VERTEX
  5
179A
  8
SAPA_PROFIL
 10
46.74954541661517
 20
19.299999999990739
 30
0.0
 42
1.5275252316550949
  0
VERTEX
  5
179B
  8
SAPA_PROFIL
 10
41.250454582696158
 20
19.299999999998899
 30
0.0
 42
0.2982166266892463
  0
VERTEX
  5
179C
  8
SAPA_PROFIL
 10
41.708712152176332
 20
19.00000000001296
 30
0.0
  0
VERTEX
  5
179D
  8
SAPA_PROFIL
 10
41.999999999658058
 20
19.000000000003642
 30
0.0
 42
-0.4142135623730951
  0
VERTEX
  5
179E
  8
SAPA_PROFIL
 10
42.499999999658058
 20
18.500000000003631
 30
0.0
  0
VERTEX
  5
179F
  8
SAPA_PROFIL
 10
42.499999999658058
 20
17.500000000003642
 30
0.0
 42
-0.4142135623730946
  0
VERTEX
  5
17A0
  8
SAPA_PROFIL
 10
41.999999999658058
 20
17.000000000003642
 30
0.0
  0
VERTEX
  5
17A1
  8
SAPA_PROFIL
 10
23.076910086798321
 20
17.000000000003642
 30
0.0
 42
-0.1095178116834561
  0
VERTEX
  5
17A2
  8
SAPA_PROFIL
 10
22.23167356331259
 20
17.18738442592506
 30
0.0
  0
SEQEND
  5
17A3
  8
SAPA_PROFIL
  0
POLYLINE
  5
F48
  8
SAPA_PROFIL
 66
     1
 10
0.0
 20
0.0
 30
0.0
 70
     1
  0
VERTEX
  5
17A4
  8
SAPA_PROFIL
 10
16.500000000000021
 20
2.7999999999992862
 30
0.0
 42
0.4142135623730916
  0
VERTEX
  5
17A5
  8
SAPA_PROFIL
 10
16.800000000010211
 20
2.5000000000000142
 30
0.0
  0
VERTEX
  5
17A6
  8
SAPA_PROFIL
 10
59.699999999626023
 20
2.5000000000036371
 30
0.0
 42
0.4142135623730959
  0
VERTEX
  5
17A7
  8
SAPA_PROFIL
 10
59.999999999625288
 20
2.8000000000029099
 30
0.0
  0
VERTEX
  5
17A8
  8
SAPA_PROFIL
 10
59.999999999628947
 20
14.3999999999869
 30
0.0
 42
0.4142135623730951
  0
VERTEX
  5
17A9
  8
SAPA_PROFIL
 10
59.699999999626037
 20
14.69999999998981
 30
0.0
  0
VERTEX
  5
17AA
  8
SAPA_PROFIL
 10
16.800000000010211
 20
14.70000000001165
 30
0.0
 42
0.4142135623730946
  0
VERTEX
  5
17AB
  8
SAPA_PROFIL
 10
16.500000000000021
 20
14.400000000019659
 30
0.0
  0
SEQEND
  5
17AC
  8
SAPA_PROFIL
  0
POLYLINE
  5
F49
  8
SAPA_PROFIL
 62
     4
 66
     1
 10
0.0
 20
0.0
 30
-0.2
 70
     1
1001
RC_PROFILE
1002
{
1000
Region
1002
}
  0
VERTEX
  5
17AD
  8
SAPA_PROFIL
 62
     4
 10
73.999999931237681
 20
43.297179717640567
 30
-0.2
  0
VERTEX
  5
17AE
  8
SAPA_PROFIL
 62
     4
 10
73.999999931237681
 20
57.497179717642659
 30
-0.2
 42
-0.4142135623720297
  0
VERTEX
  5
17AF
  8
SAPA_PROFIL
 62
     4
 10
74.499999931235863
 20
57.997179717642659
 30
-0.2
  0
VERTEX
  5
17B0
  8
SAPA_PROFIL
 62
     4
 10
78.499999931857033
 20
57.997179717645622
 30
-0.2
 42
-0.4142135623730951
  0
VERTEX
  5
17B1
  8
SAPA_PROFIL
 62
     4
 10
78.999999931857047
 20
57.497179717645622
 30
-0.2
  0
VERTEX
  5
17B2
  8
SAPA_PROFIL
 62
     4
 10
78.999999931864323
 20
43.297179717641697
 30
-0.2
 42
-0.414213562373761
  0
VERTEX
  5
17B3
  8
SAPA_PROFIL
 62
     4
 10
78.499999931864323
 20
42.797179717640567
 30
-0.2
  0
VERTEX
  5
17B4
  8
SAPA_PROFIL
 62
     4
 10
74.499999931237681
 20
42.797179717640567
 30
-0.2
 42
-0.4142135623730951
  0
SEQEND
  5
17B5
  8
SAPA_PROFIL
 62
     4
  0
POLYLINE
  5
F4A
  8
SAPA_PROFIL
 62
     4
 66
     1
 10
0.0
 20
0.0
 30
0.0
1001
GENIUS_GENOBJ-N-FIL_13
1002
{
1000
OWNER
1000
GEN
1002
}
1001
GENIUS_GENODEF_13
1002
{
1000
HIER
1070
     0
1002
}
1002
{
1000
MANEDIT
1070
     0
1002
}
1002
{
1000
NOSEL
1070
     0
1002
}
1002
{
1000
BEHIND
1070
     0
1002
}
1002
{
1000
OTHER
1070
     0
1002
}
1002
{
1000
REACTOR
1002
}
  0
VERTEX
  5
17B6
  8
SAPA_PROFIL
 62
     4
 10
87.42274000125613
 20
16.533706161231521
 30
0.0
 42
0.131652497587489
  0
VERTEX
  5
17B7
  8
SAPA_PROFIL
 62
     4
 10
88.022740001256565
 20
16.69447567669026
 30
0.0
  0
VERTEX
  5
17B8
  8
SAPA_PROFIL
 62
     4
 10
89.763397941900095
 20
17.69944500728813
 30
0.0
  0
VERTEX
  5
17B9
  8
SAPA_PROFIL
 62
     4
 10
90.199999863478567
 20
17.699456650023489
 30
0.0
 42
-0.4142135623731046
  0
VERTEX
  5
17BA
  8
SAPA_PROFIL
 62
     4
 10
90.449999863478567
 20
17.449456650023489
 30
0.0
  0
VERTEX
  5
17BB
  8
SAPA_PROFIL
 62
     4
 10
90.449999863478524
 20
13.849444650023431
 30
0.0
 42
-0.4142135623730957
  0
VERTEX
  5
17BC
  8
SAPA_PROFIL
 62
     4
 10
90.199999863478524
 20
13.599444650023431
 30
0.0
  0
VERTEX
  5
17BD
  8
SAPA_PROFIL
 62
     4
 10
89.763397323100065
 20
13.59944465002353
 30
0.0
  0
VERTEX
  5
17BE
  8
SAPA_PROFIL
 62
     4
 10
88.077259725699193
 20
14.57293664577359
 30
0.0
 42
0.1316524975873848
  0
VERTEX
  5
17BF
  8
SAPA_PROFIL
 62
     4
 10
87.477259725699241
 20
14.73370616123225
 30
0.0
  0
VERTEX
  5
17C0
  8
SAPA_PROFIL
 62
     4
 10
65.522740137408221
 20
14.73370616123225
 30
0.0
 42
0.1316524975873846
  0
VERTEX
  5
17C1
  8
SAPA_PROFIL
 62
     4
 10
64.922740137408269
 20
14.57293664577359
 30
0.0
  0
VERTEX
  5
17C2
  8
SAPA_PROFIL
 62
     4
 10
63.236602540007389
 20
13.59944465002353
 30
0.0
  0
VERTEX
  5
17C3
  8
SAPA_PROFIL
 62
     4
 10
62.79999999962893
 20
13.599444650023431
 30
0.0
 42
-0.4142135623730951
  0
VERTEX
  5
17C4
  8
SAPA_PROFIL
 62
     4
 10
62.549999999628952
 20
13.849444650023431
 30
0.0
  0
VERTEX
  5
17C5
  8
SAPA_PROFIL
 62
     4
 10
62.549999999628902
 20
17.449456650023489
 30
0.0
 42
-0.4142135623731046
  0
VERTEX
  5
17C6
  8
SAPA_PROFIL
 62
     4
 10
62.799999999628909
 20
17.699456650023489
 30
0.0
  0
VERTEX
  5
17C7
  8
SAPA_PROFIL
 62
     4
 10
63.236601921207367
 20
17.69944500728813
 30
0.0
  0
VERTEX
  5
17C8
  8
SAPA_PROFIL
 62
     4
 10
64.977259861850911
 20
16.69447567669026
 30
0.0
 42
0.1316524975874892
  0
VERTEX
  5
17C9
  8
SAPA_PROFIL
 62
     4
 10
65.577259861851331
 20
16.533706161231521
 30
0.0
  0
VERTEX
  5
17CA
  8
SAPA_PROFIL
 62
     4
 10
68.299999999379935
 20
16.5337061612322
 30
0.0
 42
0.414213562374094
  0
VERTEX
  5
17CB
  8
SAPA_PROFIL
 62
     4
 10
69.499999999378844
 20
17.733706161236341
 30
0.0
  0
VERTEX
  5
17CC
  8
SAPA_PROFIL
 62
     4
 10
69.499999999289713
 20
43.531441188158169
 30
0.0
 42
-0.4142135623730951
  0
VERTEX
  5
17CD
  8
SAPA_PROFIL
 62
     4
 10
69.999999999289713
 20
44.031441188158162
 30
0.0
  0
VERTEX
  5
17CE
  8
SAPA_PROFIL
 62
     4
 10
70.199999999289531
 20
44.031441188158396
 30
0.0
 42
-0.4142135623730951
  0
VERTEX
  5
17CF
  8
SAPA_PROFIL
 62
     4
 10
70.499999999289713
 20
43.731441188158207
 30
0.0
  0
VERTEX
  5
17D0
  8
SAPA_PROFIL
 62
     4
 10
70.499999999289713
 20
43.081441188156298
 30
0.0
 42
0.4142135623730951
  0
VERTEX
  5
17D1
  8
SAPA_PROFIL
 62
     4
 10
70.799999999290804
 20
42.781441188156343
 30
0.0
  0
VERTEX
  5
17D2
  8
SAPA_PROFIL
 62
     4
 10
71.699999999286803
 20
42.78144118815726
 30
0.0
 42
0.4142135623730951
  0
VERTEX
  5
17D3
  8
SAPA_PROFIL
 62
     4
 10
72.199999999286803
 20
43.28144118815635
 30
0.0
  0
VERTEX
  5
17D4
  8
SAPA_PROFIL
 62
     4
 10
72.199999999286803
 20
49.281441188158169
 30
0.0
 42
0.4142135623730951
  0
VERTEX
  5
17D5
  8
SAPA_PROFIL
 62
     4
 10
71.699999999286803
 20
49.781441188158169
 30
0.0
  0
VERTEX
  5
17D6
  8
SAPA_PROFIL
 62
     4
 10
70.799999999288076
 20
49.781441188158169
 30
0.0
 42
0.4142135623710974
  0
VERTEX
  5
17D7
  8
SAPA_PROFIL
 62
     4
 10
70.499999999288804
 20
49.481441188160261
 30
0.0
  0
VERTEX
  5
17D8
  8
SAPA_PROFIL
 62
     4
 10
70.499999999284256
 20
48.831441188158351
 30
0.0
 42
-0.4142135623730951
  0
VERTEX
  5
17D9
  8
SAPA_PROFIL
 62
     4
 10
70.199999999282255
 20
48.531441188160223
 30
0.0
  0
VERTEX
  5
17DA
  8
SAPA_PROFIL
 62
     4
 10
69.999999999289713
 20
48.531441188161352
 30
0.0
 42
-0.4142135623730951
  0
VERTEX
  5
17DB
  8
SAPA_PROFIL
 62
     4
 10
69.499999999289713
 20
49.031441188161352
 30
0.0
  0
VERTEX
  5
17DC
  8
SAPA_PROFIL
 62
     4
 10
69.499999999289713
 20
52.031441188161352
 30
0.0
 42
-0.4142135623730951
  0
VERTEX
  5
17DD
  8
SAPA_PROFIL
 62
     4
 10
69.999999999289713
 20
52.531441188161352
 30
0.0
  0
VERTEX
  5
17DE
  8
SAPA_PROFIL
 62
     4
 10
70.199999999289531
 20
52.531441188161352
 30
0.0
 42
-0.4142135623730951
  0
VERTEX
  5
17DF
  8
SAPA_PROFIL
 62
     4
 10
70.499999999289713
 20
52.23144118816117
 30
0.0
  0
VERTEX
  5
17E0
  8
SAPA_PROFIL
 62
     4
 10
70.499999999289713
 20
51.581441188161307
 30
0.0
 42
0.4142135623730951
  0
VERTEX
  5
17E1
  8
SAPA_PROFIL
 62
     4
 10
70.799999999290804
 20
51.281441188161352
 30
0.0
  0
VERTEX
  5
17E2
  8
SAPA_PROFIL
 62
     4
 10
71.699999999286803
 20
51.281441188161352
 30
0.0
 42
0.4142135623730951
  0
VERTEX
  5
17E3
  8
SAPA_PROFIL
 62
     4
 10
72.199999999286803
 20
51.781441188161352
 30
0.0
  0
VERTEX
  5
17E4
  8
SAPA_PROFIL
 62
     4
 10
72.199999999286803
 20
57.781441188161352
 30
0.0
 42
0.4142135623730951
  0
VERTEX
  5
17E5
  8
SAPA_PROFIL
 62
     4
 10
71.699999999286803
 20
58.281441188161352
 30
0.0
  0
VERTEX
  5
17E6
  8
SAPA_PROFIL
 62
     4
 10
70.799999999290804
 20
58.281441188161352
 30
0.0
 42
0.4142135623730951
  0
VERTEX
  5
17E7
  8
SAPA_PROFIL
 62
     4
 10
70.499999999289713
 20
57.98144118816117
 30
0.0
  0
VERTEX
  5
17E8
  8
SAPA_PROFIL
 62
     4
 10
70.499999999289713
 20
57.331441188161307
 30
0.0
 42
-0.4142135623730949
  0
VERTEX
  5
17E9
  8
SAPA_PROFIL
 62
     4
 10
70.199999999289531
 20
57.031441188161352
 30
0.0
  0
VERTEX
  5
17EA
  8
SAPA_PROFIL
 62
     4
 10
69.999999999289713
 20
57.031441188161352
 30
0.0
 42
-0.4142135623730951
  0
VERTEX
  5
17EB
  8
SAPA_PROFIL
 62
     4
 10
69.499999999289713
 20
57.531441188161352
 30
0.0
  0
VERTEX
  5
17EC
  8
SAPA_PROFIL
 62
     4
 10
69.499999999290623
 20
59.281441188161352
 30
0.0
 42
-0.4142135623726955
  0
VERTEX
  5
17ED
  8
SAPA_PROFIL
 62
     4
 10
69.999999999624393
 20
59.781441188161352
 30
0.0
  0
VERTEX
  5
17EE
  8
SAPA_PROFIL
 62
     4
 10
82.999999999631669
 20
59.78144118816158
 30
0.0
 42
-0.4142135623732284
  0
VERTEX
  5
17EF
  8
SAPA_PROFIL
 62
     4
 10
83.499999999908169
 20
59.281441188163171
 30
0.0
  0
VERTEX
  5
17F0
  8
SAPA_PROFIL
 62
     4
 10
83.499999999908169
 20
57.531441188163171
 30
0.0
 42
-0.4142135623730951
  0
VERTEX
  5
17F1
  8
SAPA_PROFIL
 62
     4
 10
82.999999999908155
 20
57.031441188163171
 30
0.0
  0
VERTEX
  5
17F2
  8
SAPA_PROFIL
 62
     4
 10
82.799999999908351
 20
57.031441188163171
 30
0.0
 42
-0.4142135623730951
  0
VERTEX
  5
17F3
  8
SAPA_PROFIL
 62
     4
 10
82.499999999908184
 20
57.331441188163353
 30
0.0
  0
VERTEX
  5
17F4
  8
SAPA_PROFIL
 62
     4
 10
82.499999999908184
 20
57.98144118816321
 30
0.0
 42
0.4142135623730951
  0
VERTEX
  5
17F5
  8
SAPA_PROFIL
 62
     4
 10
82.199999999908897
 20
58.281441188163171
 30
0.0
  0
VERTEX
  5
17F6
  8
SAPA_PROFIL
 62
     4
 10
81.29999999991108
 20
58.281441188163171
 30
0.0
 42
0.4142135623730951
  0
VERTEX
  5
17F7
  8
SAPA_PROFIL
 62
     4
 10
80.799999999911066
 20
57.781441188163171
 30
0.0
  0
VERTEX
  5
17F8
  8
SAPA_PROFIL
 62
     4
 10
80.799999999911066
 20
51.781441188163171
 30
0.0
 42
0.4142135623730951
  0
VERTEX
  5
17F9
  8
SAPA_PROFIL
 62
     4
 10
81.29999999991108
 20
51.281441188163171
 30
0.0
  0
VERTEX
  5
17FA
  8
SAPA_PROFIL
 62
     4
 10
82.199999999908897
 20
51.281441188163171
 30
0.0
 42
0.4142135623730953
  0
VERTEX
  5
17FB
  8
SAPA_PROFIL
 62
     4
 10
82.499999999908184
 20
51.581441188163353
 30
0.0
  0
VERTEX
  5
17FC
  8
SAPA_PROFIL
 62
     4
 10
82.499999999908184
 20
52.23144118816321
 30
0.0
 42
-0.4142135623730951
  0
VERTEX
  5
17FD
  8
SAPA_PROFIL
 62
     4
 10
82.799999999908351
 20
52.531441188163171
 30
0.0
  0
VERTEX
  5
17FE
  8
SAPA_PROFIL
 62
     4
 10
82.999999999908155
 20
52.531441188163171
 30
0.0
 42
-0.4142135623730951
  0
VERTEX
  5
17FF
  8
SAPA_PROFIL
 62
     4
 10
83.499999999908169
 20
52.031441188163171
 30
0.0
  0
VERTEX
  5
1800
  8
SAPA_PROFIL
 62
     4
 10
83.499999999908169
 20
49.031441188163171
 30
0.0
 42
-0.4142135623730951
  0
VERTEX
  5
1801
  8
SAPA_PROFIL
 62
     4
 10
82.999999999908155
 20
48.531441188163171
 30
0.0
  0
VERTEX
  5
1802
  8
SAPA_PROFIL
 62
     4
 10
82.799999999915627
 20
48.531441188162027
 30
0.0
 42
-0.414213562372873
  0
VERTEX
  5
1803
  8
SAPA_PROFIL
 62
     4
 10
82.499999999913626
 20
48.83144118816017
 30
0.0
  0
VERTEX
  5
1804
  8
SAPA_PROFIL
 62
     4
 10
82.499999999910884
 20
49.48144118816117
 30
0.0
 42
0.4142135623722071
  0
VERTEX
  5
1805
  8
SAPA_PROFIL
 62
     4
 10
82.199999999909807
 20
49.781441188160223
 30
0.0
  0
VERTEX
  5
1806
  8
SAPA_PROFIL
 62
     4
 10
81.29999999991108
 20
49.781441188160223
 30
0.0
 42
0.4142135623730951
  0
VERTEX
  5
1807
  8
SAPA_PROFIL
 62
     4
 10
80.799999999911066
 20
49.281441188160208
 30
0.0
  0
VERTEX
  5
1808
  8
SAPA_PROFIL
 62
     4
 10
80.799999999918356
 20
43.281441188158162
 30
0.0
 42
0.4142135623730951
  0
VERTEX
  5
1809
  8
SAPA_PROFIL
 62
     4
 10
81.299999999918356
 20
42.781441188158162
 30
0.0
  0
VERTEX
  5
180A
  8
SAPA_PROFIL
 62
     4
 10
82.199999999915264
 20
42.781441188158162
 30
0.0
 42
0.4142135623730951
  0
VERTEX
  5
180B
  8
SAPA_PROFIL
 62
     4
 10
82.499999999915445
 20
43.081441188158337
 30
0.0
  0
VERTEX
  5
180C
  8
SAPA_PROFIL
 62
     4
 10
82.499999999915445
 20
43.731441188160261
 30
0.0
 42
-0.4142135623730951
  0
VERTEX
  5
180D
  8
SAPA_PROFIL
 62
     4
 10
82.799999999915627
 20
44.031441188160223
 30
0.0
  0
VERTEX
  5
180E
  8
SAPA_PROFIL
 62
     4
 10
82.999999999915445
 20
44.031441188160223
 30
0.0
 42
-0.4142135623730951
  0
VERTEX
  5
180F
  8
SAPA_PROFIL
 62
     4
 10
83.499999999915445
 20
43.531441188160208
 30
0.0
  0
VERTEX
  5
1810
  8
SAPA_PROFIL
 62
     4
 10
83.499999999833577
 20
17.733706161236341
 30
0.0
 42
0.414213562374094
  0
VERTEX
  5
1811
  8
SAPA_PROFIL
 62
     4
 10
84.699999999833409
 20
16.533706161232431
 30
0.0
  0
VERTEX
  5
1812
  8
SAPA_PROFIL
 62
     4
 10
87.428481349913483
 20
16.5337061612322
 30
0.0
  0
SEQEND
  5
1813
  8
SAPA_PROFIL
 62
     4
  0
POLYLINE
  5
F4B
  8
SAPA_PROFIL
 62
     4
 66
     1
 10
0.0
 20
0.0
 30
0.0
 70
     1
  0
VERTEX
  5
1814
  8
SAPA_PROFIL
 62
     4
 10
79.799999931868143
 20
41.497179717642673
 30
0.0
  0
VERTEX
  5
1815
  8
SAPA_PROFIL
 62
     4
 10
72.299999931309713
 20
41.497179717638573
 30
0.0
 42
0.4142135623730951
  0
VERTEX
  5
1816
  8
SAPA_PROFIL
 62
     4
 10
71.299999931309713
 20
40.497179717638573
 30
0.0
  0
VERTEX
  5
1817
  8
SAPA_PROFIL
 62
     4
 10
71.299999931294252
 20
17.34944469071479
 30
0.0
 42
0.4142135623730949
  0
VERTEX
  5
1818
  8
SAPA_PROFIL
 62
     4
 10
72.099999931294434
 20
16.549444690714608
 30
0.0
  0
VERTEX
  5
1819
  8
SAPA_PROFIL
 62
     4
 10
80.899999931813028
 20
16.549444690714608
 30
0.0
 42
0.414213562373428
  0
VERTEX
  5
181A
  8
SAPA_PROFIL
 62
     4
 10
81.699999931813196
 20
17.3494446907157
 30
0.0
  0
VERTEX
  5
181B
  8
SAPA_PROFIL
 62
     4
 10
81.699999931789563
 20
40.497179717642659
 30
0.0
 42
0.4142135623724957
  0
VERTEX
  5
181C
  8
SAPA_PROFIL
 62
     4
 10
80.699999931790472
 20
41.497179717640613
 30
0.0
  0
SEQEND
  5
181D
  8
SAPA_PROFIL
 62
     4
  0
LINE
  5
F77
  8
SAPA_GLAS
 10
130.74999992790421
 20
69.799999999895817
 30
0.0
 11
129.999999927891
 21
69.799999999895817
 31
0.0
  0
LINE
  5
F78
  8
SAPA_GLAS
 10
129.999999927891
 20
56.999999999884892
 30
0.0
 11
130.7499999278902
 21
56.999999999884082
 31
0.0
  0
LINE
  5
F79
  8
SAPA_GLAS
 10
87.249999927877596
 20
69.799999999895817
 30
0.0
 11
87.999999927890727
 21
69.799999999895817
 31
0.0
  0
LINE
  5
F7A
  8
SAPA_GLAS
 10
87.999999927890713
 20
56.999999999884892
 30
0.0
 11
87.249999927891636
 21
56.999999999884082
 31
0.0
  0
INSERT
  5
F7B
  8
SAPA_GLAS
  6
CONTINUOUS
  2
*X57
 10
0.0
 20
0.0
 30
0.0
1001
ACAD
1000
HATCH
1002
{
1070
    19
1000
ANSI37
1040
0.25
1040
1.5707963267948959
1000
R14_HATCH_DATA
1000
F7B
1011
1.0
1021
0.0
1031
0.0
1021
0.0
1031
0.0
1011
0.0
1021
0.0
1031
0.0
1021
1.0
1031
0.0
1011
0.0
1021
0.0
1031
0.0
1021
0.0
1031
1.0
1040
0.0
1010
0.0
1020
0.0
1030
1.0
1000
ANSI37
1070
     0
1070
     0
1071
        1
1071
        7
1070
     0
1070
     1
1071
        4
1040
130.7499999282436
1040
69.799999999895832
1040
129.999999927891
1040
69.799999999895832
1040
129.999999927891
1040
56.999999999884892
1040
130.74999992822961
1040
56.999999999884061
1071
        0
1070
     0
1070
     1
1040
1.5707963267948959
1040
0.25
1070
     0
1070
     2
1040
2.3561944901923439
1040
132.4999999278659
1040
46.924144147585622
1040
-0.5612660075668221
1040
-0.5612660075668221
1070
     0
1040
3.926990816987241
1040
132.4999999278659
1040
46.924144147585622
1040
0.5612660075668221
1040
-0.5612660075668221
1070
     0
1040
0.0325758689756538
1071
        1
1040
130.40831851264869
1040
62.239910499685813
1040
0.0
1002
}
  0
INSERT
  5
F7C
  8
SAPA_GLAS
  6
CONTINUOUS
  2
*X58
 10
0.0
 20
0.0
 30
0.0
1001
ACAD
1000
HATCH
1002
{
1070
    19
1000
ANSI37
1040
0.25
1040
1.5707963267948959
1000
R14_HATCH_DATA
1000
F7C
1011
1.0
1021
0.0
1031
0.0
1021
0.0
1031
0.0
1011
0.0
1021
0.0
1031
0.0
1021
1.0
1031
0.0
1011
0.0
1021
0.0
1031
0.0
1021
0.0
1031
1.0
1040
0.0
1010
0.0
1020
0.0
1030
1.0
1000
ANSI37
1070
     0
1070
     0
1071
        1
1071
        7
1070
     0
1070
     1
1071
        4
1040
87.999999927890727
1040
69.799999999895817
1040
87.24999992787761
1040
69.799999999895817
1040
87.249999927891636
1040
56.999999999884082
1040
87.999999927890713
1040
56.999999999884892
1071
        0
1070
     0
1070
     1
1040
1.5707963267948959
1040
0.25
1070
     0
1070
     2
1040
2.3561944901923439
1040
132.4999999278659
1040
46.924144147585622
1040
-0.5612660075668221
1040
-0.5612660075668221
1070
     0
1040
3.926990816987241
1040
132.4999999278659
1040
46.924144147585622
1040
0.5612660075668221
1040
-0.5612660075668221
1070
     0
1040
0.0230646099693014
1071
        1
1040
87.652314285198074
1040
60.868422804599078
1040
0.0
1002
}
  0
POLYLINE
  5
F7D
  8
SAPA_GLAS
 66
     1
 10
0.0
 20
0.0
 30
0.0
  0
VERTEX
  5
18BA
  8
SAPA_GLAS
 10
129.999999927891
 20
88.999999999884864
 30
0.0
  0
VERTEX
  5
18BB
  8
SAPA_GLAS
 10
129.999999927891
 20
56.999999999884857
 30
0.0
  0
VERTEX
  5
18BC
  8
SAPA_GLAS
 10
123.999999927891
 20
56.999999999884857
 30
0.0
  0
VERTEX
  5
18BD
  8
SAPA_GLAS
 10
123.999999927891
 20
88.999999999884864
 30
0.0
  0
SEQEND
  5
18BE
  8
SAPA_GLAS
  0
POLYLINE
  5
F7E
  8
SAPA_GLAS
 66
     1
 10
0.0
 20
0.0
 30
0.0
  0
VERTEX
  5
18BF
  8
SAPA_GLAS
 10
111.9999999278909
 20
66.999999999884878
 30
0.0
  0
VERTEX
  5
18C0
  8
SAPA_GLAS
 10
123.9999999278909
 20
66.999999999884864
 30
0.0
  0
VERTEX
  5
18C1
  8
SAPA_GLAS
 10
123.9999999278909
 20
56.999999999884857
 30
0.0
  0
VERTEX
  5
18C2
  8
SAPA_GLAS
 10
111.9999999278909
 20
56.999999999884878
 30
0.0
  0
VERTEX
  5
18C3
  8
SAPA_GLAS
 10
111.9999999278909
 20
66.999999999884878
 30
0.0
  0
SEQEND
  5
18C4
  8
SAPA_GLAS
  0
POLYLINE
  5
F7F
  8
SAPA_GLAS
 66
     1
 10
0.0
 20
0.0
 30
0.0
  0
VERTEX
  5
18C5
  8
SAPA_GLAS
 10
111.9999999278909
 20
88.999999999884864
 30
0.0
  0
VERTEX
  5
18C6
  8
SAPA_GLAS
 10
111.9999999278909
 20
56.999999999884878
 30
0.0
  0
VERTEX
  5
18C7
  8
SAPA_GLAS
 10
105.9999999278909
 20
56.999999999884878
 30
0.0
  0
VERTEX
  5
18C8
  8
SAPA_GLAS
 10
105.9999999278909
 20
88.999999999884864
 30
0.0
  0
SEQEND
  5
18C9
  8
SAPA_GLAS
  0
POLYLINE
  5
F80
  8
SAPA_GLAS
 66
     1
 10
0.0
 20
0.0
 30
0.0
  0
VERTEX
  5
18CA
  8
SAPA_GLAS
 10
93.999999927890755
 20
66.999999999884892
 30
0.0
  0
VERTEX
  5
18CB
  8
SAPA_GLAS
 10
105.9999999278907
 20
66.999999999884878
 30
0.0
  0
VERTEX
  5
18CC
  8
SAPA_GLAS
 10
105.9999999278907
 20
56.999999999884878
 30
0.0
  0
VERTEX
  5
18CD
  8
SAPA_GLAS
 10
93.999999927890713
 20
56.999999999884892
 30
0.0
  0
VERTEX
  5
18CE
  8
SAPA_GLAS
 10
93.999999927890755
 20
66.999999999884892
 30
0.0
  0
SEQEND
  5
18CF
  8
SAPA_GLAS
  0
POLYLINE
  5
F81
  8
SAPA_GLAS
 66
     1
 10
0.0
 20
0.0
 30
0.0
  0
VERTEX
  5
18D0
  8
SAPA_GLAS
 10
87.999999927890727
 20
88.999999999884892
 30
0.0
  0
VERTEX
  5
18D1
  8
SAPA_GLAS
 10
87.999999927890713
 20
56.999999999884892
 30
0.0
  0
VERTEX
  5
18D2
  8
SAPA_GLAS
 10
93.999999927890713
 20
56.999999999884892
 30
0.0
  0
VERTEX
  5
18D3
  8
SAPA_GLAS
 10
93.999999927890755
 20
88.999999999884892
 30
0.0
  0
SEQEND
  5
18D4
  8
SAPA_GLAS
  0
POLYLINE
  5
F82
  8
SAPA_GLAS
 66
     1
 10
0.0
 20
0.0
 30
0.0
 70
     1
  0
VERTEX
  5
18D5
  8
SAPA_GLAS
 10
87.999999927890883
 20
56.999999999884892
 30
0.0
  0
VERTEX
  5
18D6
  8
SAPA_GLAS
 10
129.99999992789091
 20
56.999999999884857
 30
0.0
  0
VERTEX
  5
18D7
  8
SAPA_GLAS
 10
129.9999999278981
 20
54.999999999986727
 30
0.0
  0
VERTEX
  5
18D8
  8
SAPA_GLAS
 10
120.9999999278908
 20
54.999999999986748
 30
0.0
  0
VERTEX
  5
18D9
  8
SAPA_GLAS
 10
120.9999999278908
 20
52.999999999986748
 30
0.0
  0
VERTEX
  5
18DA
  8
SAPA_GLAS
 10
96.999999927890897
 20
52.999999999986748
 30
0.0
  0
VERTEX
  5
18DB
  8
SAPA_GLAS
 10
96.999999927890897
 20
54.999999999986748
 30
0.0
  0
VERTEX
  5
18DC
  8
SAPA_GLAS
 10
87.999999927890883
 20
54.999999999986748
 30
0.0
  0
SEQEND
  5
18DD
  8
SAPA_GLAS
  0
POLYLINE
  5
F97
  8
SAPA_FOGBAND
 66
     1
 10
0.0
 20
0.0
 30
0.0
 70
     1
  0
VERTEX
  5
192E
  8
SAPA_FOGBAND
 10
16.250000000010221
 20
49.649999999982533
 30
0.0
  0
VERTEX
  5
192F
  8
SAPA_FOGBAND
 10
17.0500000000104
 20
49.649999999982533
 30
0.0
  0
VERTEX
  5
1930
  8
SAPA_FOGBAND
 10
17.0500000000104
 20
43.34999999998545
 30
0.0
  0
VERTEX
  5
1931
  8
SAPA_FOGBAND
 10
16.250000000010221
 20
43.34999999998545
 30
0.0
  0
SEQEND
  5
1932
  8
SAPA_FOGBAND
  0
POLYLINE
  5
F98
  8
SAPA_FOGBAND
 66
     1
 10
0.0
 20
0.0
 30
0.0
  0
VERTEX
  5
1933
  8
SAPA_FOGBAND
 10
17.0500000000104
 20
44.927310396842941
 30
0.0
  0
VERTEX
  5
1934
  8
SAPA_FOGBAND
 10
20.500000000010221
 20
43.801863799527027
 30
0.0
  0
VERTEX
  5
1935
  8
SAPA_FOGBAND
 10
20.500000000010221
 20
46.240001846075558
 30
0.0
  0
VERTEX
  5
1936
  8
SAPA_FOGBAND
 10
17.0500000000104
 20
46.349999999982529
 30
0.0
  0
SEQEND
  5
1937
  8
SAPA_FOGBAND
  0
POLYLINE
  5
F99
  8
SAPA_FOGBAND
 66
     1
 10
0.0
 20
0.0
 30
0.0
  0
VERTEX
  5
1938
  8
SAPA_FOGBAND
 10
17.0500000000104
 20
46.424999999983257
 30
0.0
  0
VERTEX
  5
1939
  8
SAPA_FOGBAND
 10
20.500000000010221
 20
46.424999999986539
 30
0.0
  0
VERTEX
  5
193A
  8
SAPA_FOGBAND
 10
20.500000000010221
 20
46.574999999984719
 30
0.0
  0
VERTEX
  5
193B
  8
SAPA_FOGBAND
 10
17.0500000000104
 20
46.574999999984719
 30
0.0
  0
SEQEND
  5
193C
  8
SAPA_FOGBAND
  0
POLYLINE
  5
F9A
  8
SAPA_FOGBAND
 66
     1
 10
0.0
 20
0.0
 30
0.0
  0
VERTEX
  5
193D
  8
SAPA_FOGBAND
 10
17.0500000000104
 20
46.649999999985447
 30
0.0
  0
VERTEX
  5
193E
  8
SAPA_FOGBAND
 10
20.500000000010221
 20
46.759997385167694
 30
0.0
  0
VERTEX
  5
193F
  8
SAPA_FOGBAND
 10
20.500000000010221
 20
49.198090725589857
 30
0.0
  0
VERTEX
  5
1940
  8
SAPA_FOGBAND
 10
17.0500000000104
 20
48.072689603125028
 30
0.0
  0
SEQEND
  5
1941
  8
SAPA_FOGBAND
  0
POLYLINE
  5
F9B
  8
SAPA_FOGBAND
 66
     1
 10
0.0
 20
0.0
 30
0.0
 70
     1
  0
VERTEX
  5
1942
  8
SAPA_FOGBAND
 10
16.250000000010221
 20
58.149999999997092
 30
0.0
  0
VERTEX
  5
1943
  8
SAPA_FOGBAND
 10
17.0500000000104
 20
58.149999999997092
 30
0.0
  0
VERTEX
  5
1944
  8
SAPA_FOGBAND
 10
17.0500000000104
 20
51.850000000000001
 30
0.0
  0
VERTEX
  5
1945
  8
SAPA_FOGBAND
 10
16.250000000010221
 20
51.850000000000001
 30
0.0
  0
SEQEND
  5
1946
  8
SAPA_FOGBAND
  0
POLYLINE
  5
F9C
  8
SAPA_FOGBAND
 66
     1
 10
0.0
 20
0.0
 30
0.0
  0
VERTEX
  5
1947
  8
SAPA_FOGBAND
 10
17.0500000000104
 20
53.4273103968575
 30
0.0
  0
VERTEX
  5
1948
  8
SAPA_FOGBAND
 10
20.500000000010221
 20
52.301863799541579
 30
0.0
  0
VERTEX
  5
1949
  8
SAPA_FOGBAND
 10
20.500000000010221
 20
54.740001846090109
 30
0.0
  0
VERTEX
  5
194A
  8
SAPA_FOGBAND
 10
17.0500000000104
 20
54.849999999997081
 30
0.0
  0
SEQEND
  5
194B
  8
SAPA_FOGBAND
  0
POLYLINE
  5
F9D
  8
SAPA_FOGBAND
 66
     1
 10
0.0
 20
0.0
 30
0.0
  0
VERTEX
  5
194C
  8
SAPA_FOGBAND
 10
17.0500000000104
 20
54.924999999997823
 30
0.0
  0
VERTEX
  5
194D
  8
SAPA_FOGBAND
 10
20.500000000010221
 20
54.925000000001091
 30
0.0
  0
VERTEX
  5
194E
  8
SAPA_FOGBAND
 10
20.500000000010221
 20
55.074999999999278
 30
0.0
  0
VERTEX
  5
194F
  8
SAPA_FOGBAND
 10
17.0500000000104
 20
55.074999999999271
 30
0.0
  0
SEQEND
  5
1950
  8
SAPA_FOGBAND
  0
POLYLINE
  5
F9E
  8
SAPA_FOGBAND
 66
     1
 10
0.0
 20
0.0
 30
0.0
  0
VERTEX
  5
1951
  8
SAPA_FOGBAND
 10
17.0500000000104
 20
55.149999999999999
 30
0.0
  0
VERTEX
  5
1952
  8
SAPA_FOGBAND
 10
20.500000000010221
 20
55.259997385182238
 30
0.0
  0
VERTEX
  5
1953
  8
SAPA_FOGBAND
 10
20.500000000010221
 20
57.698090725604409
 30
0.0
  0
VERTEX
  5
1954
  8
SAPA_FOGBAND
 10
17.0500000000104
 20
56.572689603139587
 30
0.0
  0
SEQEND
  5
1955
  8
SAPA_FOGBAND
  0
POLYLINE
  5
F9F
  8
SAPA_FOGBAND
 66
     1
 10
0.0
 20
0.0
 30
0.0
 70
     1
  0
VERTEX
  5
1956
  8
SAPA_FOGBAND
 10
71.749999999672553
 20
49.431441188146799
 30
0.0
  0
VERTEX
  5
1957
  8
SAPA_FOGBAND
 10
70.949999999672372
 20
49.431441188146799
 30
0.0
  0
VERTEX
  5
1958
  8
SAPA_FOGBAND
 10
70.949999999672372
 20
43.131441188149708
 30
0.0
  0
VERTEX
  5
1959
  8
SAPA_FOGBAND
 10
71.749999999672553
 20
43.131441188149708
 30
0.0
  0
SEQEND
  5
195A
  8
SAPA_FOGBAND
  0
POLYLINE
  5
FA0
  8
SAPA_FOGBAND
 66
     1
 10
0.0
 20
0.0
 30
0.0
  0
VERTEX
  5
195B
  8
SAPA_FOGBAND
 10
70.949999999672372
 20
44.708751585007207
 30
0.0
  0
VERTEX
  5
195C
  8
SAPA_FOGBAND
 10
67.499999999672553
 20
43.583304987691292
 30
0.0
  0
VERTEX
  5
195D
  8
SAPA_FOGBAND
 10
67.499999999672553
 20
46.021443034239823
 30
0.0
  0
VERTEX
  5
195E
  8
SAPA_FOGBAND
 10
70.949999999672372
 20
46.131441188146802
 30
0.0
  0
SEQEND
  5
195F
  8
SAPA_FOGBAND
  0
POLYLINE
  5
FA1
  8
SAPA_FOGBAND
 66
     1
 10
0.0
 20
0.0
 30
0.0
  0
VERTEX
  5
1960
  8
SAPA_FOGBAND
 10
70.949999999672372
 20
46.206441188147529
 30
0.0
  0
VERTEX
  5
1961
  8
SAPA_FOGBAND
 10
67.499999999672553
 20
46.206441188150798
 30
0.0
  0
VERTEX
  5
1962
  8
SAPA_FOGBAND
 10
67.499999999672553
 20
46.356441188148992
 30
0.0
  0
VERTEX
  5
1963
  8
SAPA_FOGBAND
 10
70.949999999672372
 20
46.356441188148978
 30
0.0
  0
SEQEND
  5
1964
  8
SAPA_FOGBAND
  0
POLYLINE
  5
FA2
  8
SAPA_FOGBAND
 66
     1
 10
0.0
 20
0.0
 30
0.0
  0
VERTEX
  5
1965
  8
SAPA_FOGBAND
 10
70.949999999672372
 20
46.431441188149712
 30
0.0
  0
VERTEX
  5
1966
  8
SAPA_FOGBAND
 10
67.499999999672553
 20
46.541438573331952
 30
0.0
  0
VERTEX
  5
1967
  8
SAPA_FOGBAND
 10
67.499999999672553
 20
48.979531913754123
 30
0.0
  0
VERTEX
  5
1968
  8
SAPA_FOGBAND
 10
70.949999999672372
 20
47.8541307912893
 30
0.0
  0
SEQEND
  5
1969
  8
SAPA_FOGBAND
  0
POLYLINE
  5
FA3
  8
SAPA_FOGBAND
 66
     1
 10
0.0
 20
0.0
 30
0.0
 70
     1
  0
VERTEX
  5
196A
  8
SAPA_FOGBAND
 10
71.749999999672553
 20
57.931441188161351
 30
0.0
  0
VERTEX
  5
196B
  8
SAPA_FOGBAND
 10
70.949999999672372
 20
57.931441188161351
 30
0.0
  0
VERTEX
  5
196C
  8
SAPA_FOGBAND
 10
70.949999999672372
 20
51.63144118816426
 30
0.0
  0
VERTEX
  5
196D
  8
SAPA_FOGBAND
 10
71.749999999672553
 20
51.63144118816426
 30
0.0
  0
SEQEND
  5
196E
  8
SAPA_FOGBAND
  0
POLYLINE
  5
FA4
  8
SAPA_FOGBAND
 66
     1
 10
0.0
 20
0.0
 30
0.0
  0
VERTEX
  5
196F
  8
SAPA_FOGBAND
 10
70.949999999672372
 20
53.208751585021759
 30
0.0
  0
VERTEX
  5
1970
  8
SAPA_FOGBAND
 10
67.499999999672553
 20
52.083304987705837
 30
0.0
  0
VERTEX
  5
1971
  8
SAPA_FOGBAND
 10
67.499999999672553
 20
54.521443034254382
 30
0.0
  0
VERTEX
  5
1972
  8
SAPA_FOGBAND
 10
70.949999999672372
 20
54.631441188161347
 30
0.0
  0
SEQEND
  5
1973
  8
SAPA_FOGBAND
  0
POLYLINE
  5
FA5
  8
SAPA_FOGBAND
 66
     1
 10
0.0
 20
0.0
 30
0.0
  0
VERTEX
  5
1974
  8
SAPA_FOGBAND
 10
70.949999999672372
 20
54.706441188162081
 30
0.0
  0
VERTEX
  5
1975
  8
SAPA_FOGBAND
 10
67.499999999672553
 20
54.706441188165357
 30
0.0
  0
VERTEX
  5
1976
  8
SAPA_FOGBAND
 10
67.499999999672553
 20
54.856441188163537
 30
0.0
  0
VERTEX
  5
1977
  8
SAPA_FOGBAND
 10
70.949999999672372
 20
54.856441188163529
 30
0.0
  0
SEQEND
  5
1978
  8
SAPA_FOGBAND
  0
POLYLINE
  5
FA6
  8
SAPA_FOGBAND
 66
     1
 10
0.0
 20
0.0
 30
0.0
  0
VERTEX
  5
1979
  8
SAPA_FOGBAND
 10
70.949999999672372
 20
54.931441188164257
 30
0.0
  0
VERTEX
  5
197A
  8
SAPA_FOGBAND
 10
67.499999999672553
 20
55.041438573346511
 30
0.0
  0
VERTEX
  5
197B
  8
SAPA_FOGBAND
 10
67.499999999672553
 20
57.479531913768668
 30
0.0
  0
VERTEX
  5
197C
  8
SAPA_FOGBAND
 10
70.949999999672372
 20
56.354130791303852
 30
0.0
  0
SEQEND
  5
197D
  8
SAPA_FOGBAND
  0
DIMENSION
  5
FB2
  8
SAPA_MATT
  2
*D30
 10
180.99999992774161
 20
60.000000000015881
 30
0.0
 11
178.2486741701658
 21
-4.9999999999947491
 31
0.0
 70
     0
  1
min. 130
 13
148.99999992774141
 23
-70.000000000005429
 33
0.0
 14
165.99999992773971
 24
60.000000000015881
 34
0.0
 50
90.0
1001
ACAD
1000
DSTYLE
1002
{
1070
    40
1040
1.0
1002
}
  0
DIMENSION
  5
FB3
  8
SAPA_MATT
  2
*D29
 10
139.0
 20
113.0000000000001
 30
0.0
 11
76.500000000000028
 21
115.7500000000001
 31
0.0
 70
     0
 13
14.00000000000003
 23
58.5
 33
0.0
 14
139.0
 24
58.500792081048303
 34
0.0
1001
ACAD
1000
DSTYLE
1002
{
1070
    40
1040
1.0
1002
}
  0
DIMENSION
  5
FB4
  8
SAPA_MATT
  2
*D28
 10
139.0
 20
101.0000000000001
 30
0.0
 11
135.74999999950211
 21
101.0000000000001
 31
0.0
 70
   128
 13
132.49999999950211
 23
55.000000000018979
 33
0.0
 14
139.0
 24
58.500792081048303
 34
0.0
1001
ACAD
1000
DSTYLE
1002
{
1070
   287
1070
     4
1070
    40
1040
1.0
1070
   279
1070
     1
1002
}
  0
DIMENSION
  5
FB5
  8
SAPA_MATT
  2
*D27
 10
132.49999999950211
 20
101.0000000000005
 30
0.0
 11
108.99999999984141
 21
103.7500000000005
 31
0.0
 70
     0
 13
85.500000000180634
 23
55.000000000019853
 33
0.0
 14
132.49999999950211
 24
55.000000000019853
 34
0.0
1001
ACAD
1000
DSTYLE
1002
{
1070
   287
1070
     4
1070
    40
1040
1.0
1070
   279
1070
     1
1002
}
  0
DIMENSION
  5
FB6
  8
SAPA_MATT
  2
*D26
 10
85.500000000180634
 20
101.0000000000001
 30
0.0
 11
49.750000000090388
 21
101.0000000000001
 31
0.0
 70
   128
 13
14.00000000000003
 23
58.5
 33
0.0
 14
85.500000000180634
 24
55.000000000019853
 34
0.0
1001
ACAD
1000
DSTYLE
1002
{
1070
    40
1040
1.0
1002
}
  0
DIMENSION
  5
FB7
  8
SAPA_MATT
  2
*D25
 10
168.99999999950211
 20
70.000000000011028
 30
0.0
 11
166.24999999950211
 21
65.000000000005528
 31
0.0
 70
     0
 13
137.49999999950211
 23
60.0
 33
0.0
 14
130.9499999282481
 24
70.000000000011042
 34
0.0
 50
90.0
1001
ACAD
1000
DSTYLE
1002
{
1070
   287
1070
     4
1070
    40
1040
1.0
1070
   279
1070
     1
1002
}
  0
DIMENSION
  5
FB8
  8
SAPA_MATT
  2
*D24
 10
168.99999999950211
 20
60.0
 30
0.0
 11
166.24999999950211
 21
1.500000000000032
 31
0.0
 70
     0
 13
137.62499999950211
 23
-56.999999999999972
 33
0.0
 14
137.49999999950211
 24
60.0
 34
0.0
 50
90.0
1001
ACAD
1000
DSTYLE
1002
{
1070
    40
1040
1.0
1002
}
  0
VIEWPORT
  5
C4
 67
     1
  8
0
 10
160.5543545598442
 20
116.00969601843509
 30
0.0
 40
404.96977709277462
 41
256.8421457311839
 68
     1
 69
     1
1001
ACAD
1000
MVIEW
1002
{
1070
    16
1010
0.0
1020
0.0
1030
0.0
1010
0.0
1020
0.0
1030
1.0
1040
0.0
1040
256.8421457311839
1040
99.206250190734863
1040
130.70624923706049
1040
50.0
1040
0.0
1040
0.0
1070
     0
1070
     0
1070
     1
1070
     1
1070
     0
1070
     0
1070
     0
1070
     0
1040
0.0
1040
0.0
1040
0.0
1040
10.0
1040
10.0
1040
10.0
1040
10.0
1070
     0
1002
{
1002
}
1002
}
  0
ENDSEC
  0
EOF
