  0
SECTION
  2
HEADER
  9
$ACADVER
  1
AC1009
  9
$INSBASE
 10
0.0
 20
0.0
 30
0.0
  9
$EXTMIN
 10
-36.491479059085229
 20
-111.29283270961361
 30
-0.2
  9
$EXTMAX
 10
194.0032559343997
 20
119.2500000000001
 30
0.0000000048844772
  9
$LIMMIN
 10
0.0
 20
0.0
  9
$LIMMAX
 10
790.0
 20
790.0
  9
$ORTHOMODE
 70
     1
  9
$REGENMODE
 70
     1
  9
$FILLMODE
 70
     1
  9
$QTEXTMODE
 70
     0
  9
$MIRRTEXT
 70
     1
  9
$DRAGMODE
 70
     2
  9
$LTSCALE
 40
4.0
  9
$OSMODE
 70
    37
  9
$ATTMODE
 70
     1
  9
$TEXTSIZE
 40
3.5
  9
$TRACEWID
 40
0.05
  9
$TEXTSTYLE
  7
ISO
  9
$CLAYER
  8
0
  9
$CELTYPE
  6
BYLAYER
  9
$CECOLOR
 62
   256
  9
$DIMSCALE
 40
0.0
  9
$DIMASZ
 40
3.0
  9
$DIMEXO
 40
1.5
  9
$DIMDLI
 40
10.0
  9
$DIMRND
 40
0.0
  9
$DIMDLE
 40
0.0
  9
$DIMEXE
 40
1.5
  9
$DIMTP
 40
0.0
  9
$DIMTM
 40
0.0
  9
$DIMTXT
 40
3.5
  9
$DIMCEN
 40
-5.0
  9
$DIMTSZ
 40
0.0
  9
$DIMTOL
 70
     0
  9
$DIMLIM
 70
     0
  9
$DIMTIH
 70
     0
  9
$DIMTOH
 70
     0
  9
$DIMSE1
 70
     0
  9
$DIMSE2
 70
     0
  9
$DIMTAD
 70
     1
  9
$DIMZIN
 70
     8
  9
$DIMBLK
  1

  9
$DIMASO
 70
     1
  9
$DIMSHO
 70
     1
  9
$DIMPOST
  1

  9
$DIMAPOST
  1

  9
$DIMALT
 70
     0
  9
$DIMALTD
 70
     0
  9
$DIMALTF
 40
25.399999999999999
  9
$DIMLFAC
 40
-1.0
  9
$DIMTOFL
 70
     1
  9
$DIMTVP
 40
0.0
  9
$DIMTIX
 70
     0
  9
$DIMSOXD
 70
     0
  9
$DIMSAH
 70
     0
  9
$DIMBLK1
  1

  9
$DIMBLK2
  1

  9
$DIMSTYLE
  2
MASKIN
  9
$DIMCLRD
 70
   256
  9
$DIMCLRE
 70
   256
  9
$DIMCLRT
 70
     2
  9
$DIMTFAC
 40
1.0
  9
$DIMGAP
 40
1.0
  9
$LUNITS
 70
     2
  9
$LUPREC
 70
     8
  9
$SKETCHINC
 40
0.1
  9
$FILLETRAD
 40
0.0
  9
$AUNITS
 70
     0
  9
$AUPREC
 70
     8
  9
$MENU
  1
ACAD
  9
$ELEVATION
 40
0.0
  9
$PELEVATION
 40
0.0
  9
$THICKNESS
 40
0.0
  9
$LIMCHECK
 70
     0
  9
$BLIPMODE
 70
     0
  9
$CHAMFERA
 40
0.0
  9
$CHAMFERB
 40
0.0
  9
$SKPOLY
 70
     0
  9
$TDCREATE
 40
2455734.560015128
  9
$TDUPDATE
 40
2455782.4948264011
  9
$TDINDWG
 40
1.0931914236
  9
$TDUSRTIMER
 40
1.0931912384
  9
$USRTIMER
 70
     1
  9
$ANGBASE
 50
0.0
  9
$ANGDIR
 70
     0
  9
$PDMODE
 70
     0
  9
$PDSIZE
 40
0.0
  9
$PLINEWID
 40
0.0
  9
$COORDS
 70
     1
  9
$SPLFRAME
 70
     0
  9
$SPLINETYPE
 70
     6
  9
$SPLINESEGS
 70
     8
  9
$ATTDIA
 70
     0
  9
$ATTREQ
 70
     1
  9
$HANDLING
 70
     1
  9
$HANDSEED
  5
17E9
  9
$SURFTAB1
 70
     6
  9
$SURFTAB2
 70
     6
  9
$SURFTYPE
 70
     6
  9
$SURFU
 70
     6
  9
$SURFV
 70
     6
  9
$UCSNAME
  2

  9
$UCSORG
 10
0.0
 20
0.0
 30
0.0
  9
$UCSXDIR
 10
1.0
 20
0.0
 30
0.0
  9
$UCSYDIR
 10
0.0
 20
1.0
 30
0.0
  9
$PUCSNAME
  2

  9
$PUCSORG
 10
0.0
 20
0.0
 30
0.0
  9
$PUCSXDIR
 10
1.0
 20
0.0
 30
0.0
  9
$PUCSYDIR
 10
0.0
 20
1.0
 30
0.0
  9
$USERI1
 70
     0
  9
$USERI2
 70
     0
  9
$USERI3
 70
     0
  9
$USERI4
 70
     0
  9
$USERI5
 70
     0
  9
$USERR1
 40
0.0
  9
$USERR2
 40
0.0
  9
$USERR3
 40
0.0
  9
$USERR4
 40
0.0
  9
$USERR5
 40
0.0
  9
$WORLDVIEW
 70
     1
  9
$SHADEDGE
 70
     3
  9
$SHADEDIF
 70
    70
  9
$TILEMODE
 70
     1
  9
$MAXACTVP
 70
    16
  9
$PLIMCHECK
 70
     0
  9
$PEXTMIN
 10
1.0000000000000000E+020
 20
1.0000000000000000E+020
 30
1.0000000000000000E+020
  9
$PEXTMAX
 10
-1.0000000000000000E+020
 20
-1.0000000000000000E+020
 30
-1.0000000000000000E+020
  9
$PLIMMIN
 10
-5.069427490234375
 20
-5.8737497329711914
  9
$PLIMMAX
 10
291.89889526367187
 20
204.0995779037475
  9
$UNITMODE
 70
     0
  9
$VISRETAIN
 70
     1
  9
$PLINEGEN
 70
     0
  9
$PSLTSCALE
 70
     1
  0
ENDSEC
  0
SECTION
  2
TABLES
  0
TABLE
  2
VPORT
 70
     1
  0
VPORT
  2
*ACTIVE
 70
     0
 10
0.0
 20
0.0
 11
1.0
 21
1.0
 12
84.858102814184463
 22
3.967846773579367
 13
0.0
 23
0.0
 14
1.0
 24
1.0
 15
0.0
 25
0.0
 16
0.0
 26
0.0
 36
1.0
 17
0.0
 27
0.0
 37
0.0
 40
232.36551203816339
 41
2.362397820163487
 42
50.0
 43
0.0
 44
0.0
 50
0.0
 51
0.0
 71
     0
 72
   100
 73
     1
 74
     1
 75
     0
 76
     0
 77
     0
 78
     0
  0
ENDTAB
  0
TABLE
  2
LTYPE
 70
     3
  0
LTYPE
  2
CONTINUOUS
 70
     0
  3
Solid line
 72
    65
 73
     0
 40
0.0
  0
LTYPE
  2
BYGG-027377$0$NEWDOT
 70
     0
  3
____ . ____ . ____ . ____ . ____ . ____ . ____
 72
    65
 73
     4
 40
2.0
 49
1.0
 49
-0.5
 49
0.0
 49
-0.5
  0
LTYPE
  2
BYGG-027291$0$NEWDOT
 70
     0
  3
____ . ____ . ____ . ____ . ____ . ____ . ____
 72
    65
 73
     4
 40
2.0
 49
1.0
 49
-0.5
 49
0.0
 49
-0.5
  0
ENDTAB
  0
TABLE
  2
LAYER
 70
    31
  0
LAYER
  2
0
 70
     0
 62
     7
  6
CONTINUOUS
  0
LAYER
  2
DEFPOINTS
 70
     0
 62
     7
  6
CONTINUOUS
  0
LAYER
  2
SAPA_ARTIKELNR
 70
     0
 62
     4
  6
CONTINUOUS
  0
LAYER
  2
SAPA_BESLAG
 70
     0
 62
     1
  6
CONTINUOUS
  0
LAYER
  2
SAPA_ANSLUTNING
 70
     0
 62
     6
  6
CONTINUOUS
  0
LAYER
  2
SAPA_MATT
 70
     0
 62
     1
  6
CONTINUOUS
  0
LAYER
  2
SAPA_GLAS
 70
     0
 62
     4
  6
CONTINUOUS
  0
LAYER
  2
SAPA_FOGBAND
 70
     0
 62
     2
  6
CONTINUOUS
  0
LAYER
  2
SAPA_PROFIL
 70
     0
 62
     7
  6
CONTINUOUS
  0
ENDTAB
  0
TABLE
  2
STYLE
 70
    12
  0
STYLE
  2
STANDARD
 70
     0
 40
0.0
 41
1.0
 50
0.0
 71
     0
 42
0.2
  3
txt
  4

  0
STYLE
  2
ISO
 70
     0
 40
0.0
 41
1.0
 50
0.0
 71
     0
 42
3.5
  3
txt
  4

  0
STYLE
  2
BYGG-027459$0$STANDARD
 70
     0
 40
0.0
 41
1.0
 50
0.0
 71
     0
 42
0.2
  3
txt
  4

  0
STYLE
  2
BYGG-027459$0$ISO
 70
     0
 40
0.0
 41
1.0
 50
0.0
 71
     0
 42
3.5
  3
txt
  4

  0
STYLE
  2
BYGG-027377$0$STANDARD
 70
     0
 40
0.0
 41
1.0
 50
0.0
 71
     0
 42
0.2
  3
txt
  4

  0
STYLE
  2
BYGG-027377$0$ISO
 70
     0
 40
0.0
 41
1.0
 50
0.0
 71
     0
 42
3.5
  3
txt
  4

  0
STYLE
  2
BYGG-027392$0$STANDARD
 70
     0
 40
0.0
 41
1.0
 50
0.0
 71
     0
 42
0.2
  3
txt
  4

  0
STYLE
  2
BYGG-027392$0$ISO
 70
     0
 40
0.0
 41
1.0
 50
0.0
 71
     0
 42
3.5
  3
txt
  4

  0
STYLE
  2
BYGG-027413$0$STANDARD
 70
     0
 40
0.0
 41
1.0
 50
0.0
 71
     0
 42
0.2
  3
txt
  4

  0
STYLE
  2
BYGG-027413$0$ISO
 70
     0
 40
0.0
 41
1.0
 50
0.0
 71
     0
 42
3.5
  3
txt
  4

  0
STYLE
  2
BYGG-027291$0$STANDARD
 70
     0
 40
0.0
 41
1.0
 50
0.0
 71
     0
 42
0.2
  3
txt
  4

  0
STYLE
  2
BYGG-027291$0$ISO
 70
     0
 40
0.0
 41
1.0
 50
0.0
 71
     0
 42
3.5
  3
txt
  4

  0
ENDTAB
  0
TABLE
  2
VIEW
 70
     0
  0
ENDTAB
  0
TABLE
  2
UCS
 70
     0
  0
ENDTAB
  0
TABLE
  2
APPID
 70
    27
  0
APPID
  2
ACAD
 70
     0
  0
APPID
  2
ACAD_DSTYLE_DIMTEXT_FILL
 70
     0
  0
APPID
  2
ACAD_DSTYLE_DIMEXT_LENGTH
 70
     0
  0
APPID
  2
ACAD_DSTYLE_DIMEXT_ENABLED
 70
     0
  0
APPID
  2
ACAD_DSTYLE_DIM_LINETYPE
 70
     0
  0
APPID
  2
ACAD_DSTYLE_DIM_EXT1_LINETYPE
 70
     0
  0
APPID
  2
ACAD_DSTYLE_DIM_EXT2_LINETYPE
 70
     0
  0
APPID
  2
ACAD_DSTYLE_DIMJOGGED_JOGA
 70
     0
  0
APPID
  2
ACAD_DSTYLE_DIMARC_LENGTH_
 70
     0
  0
APPID
  2
ACAD_PSEXT
 70
     0
  0
APPID
  2
ACAD_MLEADERVER
 70
     0
  0
APPID
  2
GENIUS_GENODEF_13
 70
     0
  0
APPID
  2
RC_PROFILE
 70
     0
  0
APPID
  2
ACAECLAYERSTANDARD
 70
     0
  0
APPID
  2
GENIUS_GENOBJ-N-FIL_13
 70
     0
  0
APPID
  2
ACADANNOTATIVE
 70
     0
  0
APPID
  2
ACAD_EXEMPT_FROM_CAD_STANDARDS
 70
     0
  0
APPID
  2
AEC_XDATA_BOUND_SPACE
 70
     0
  0
APPID
  2
ACAD_DSTYLE_DIMJAG
 70
     0
  0
APPID
  2
ACAD_DSTYLE_DIMTALN
 70
     0
  0
APPID
  2
GENIUS_GENREC_14
 70
     0
  0
APPID
  2
GENIUS_GENOBJ-N-REC_13
 70
     0
  0
APPID
  2
ACDBDYNAMICBLOCKTRUENAME
 70
     0
  0
APPID
  2
ACDBBLOCKREPETAG
 70
     0
  0
APPID
  2
ACDBDYNAMICBLOCKGUID
 70
     0
  0
APPID
  2
ACDBBLOCKREPBTAG
 70
     0
  0
APPID
  2
GENIUS_GENOREF_13
 70
     0
  0
ENDTAB
  0
TABLE
  2
DIMSTYLE
 70
     6
  0
DIMSTYLE
  2
MASKIN
 70
     0
  3

  4

  5

  6

  7

 40
0.0
 41
3.0
 42
1.5
 43
10.0
 44
1.5
 45
0.0
 46
0.0
 47
0.0
 48
0.0
140
3.5
141
-5.0
142
0.0
143
25.399999999999999
144
-1.0
145
0.0
146
1.0
147
1.0
 71
     0
 72
     0
 73
     0
 74
     0
 75
     0
 76
     0
 77
     1
 78
     8
170
     0
171
     0
172
     1
173
     0
174
     0
175
     0
176
   256
177
   256
178
     2
  0
DIMSTYLE
  2
BYGG-027459$0$MASKIN
 70
     0
  3

  4

  5

  6

  7

 40
0.0
 41
3.0
 42
1.5
 43
10.0
 44
1.5
 45
0.0
 46
0.0
 47
0.0
 48
0.0
140
3.0
141
-5.0
142
0.0
143
25.399999999999999
144
-1.0
145
0.0
146
1.0
147
1.0
 71
     0
 72
     0
 73
     0
 74
     0
 75
     0
 76
     0
 77
     1
 78
     8
170
     0
171
     0
172
     1
173
     0
174
     0
175
     0
176
   256
177
   256
178
     2
  0
DIMSTYLE
  2
BYGG-027377$0$MASKIN
 70
     0
  3

  4

  5

  6

  7

 40
0.0
 41
3.0
 42
1.5
 43
10.0
 44
1.5
 45
0.0
 46
0.0
 47
0.0
 48
0.0
140
3.0
141
-5.0
142
0.0
143
25.399999999999999
144
-1.0
145
0.0
146
1.0
147
1.0
 71
     0
 72
     0
 73
     0
 74
     0
 75
     0
 76
     0
 77
     1
 78
     8
170
     0
171
     0
172
     1
173
     0
174
     0
175
     0
176
   256
177
   256
178
     2
  0
DIMSTYLE
  2
BYGG-027392$0$MASKIN
 70
     0
  3

  4

  5

  6

  7

 40
0.0
 41
3.0
 42
1.5
 43
10.0
 44
1.5
 45
0.0
 46
0.0
 47
0.0
 48
0.0
140
3.0
141
-5.0
142
0.0
143
25.399999999999999
144
-1.0
145
0.0
146
1.0
147
1.0
 71
     0
 72
     0
 73
     0
 74
     0
 75
     0
 76
     0
 77
     1
 78
     8
170
     0
171
     0
172
     1
173
     0
174
     0
175
     0
176
   256
177
   256
178
     2
  0
DIMSTYLE
  2
BYGG-027413$0$MASKIN
 70
     0
  3

  4

  5

  6

  7

 40
0.0
 41
3.0
 42
1.5
 43
10.0
 44
1.5
 45
0.0
 46
0.0
 47
0.0
 48
0.0
140
3.0
141
-5.0
142
0.0
143
25.399999999999999
144
-1.0
145
0.0
146
1.0
147
1.0
 71
     0
 72
     0
 73
     0
 74
     0
 75
     0
 76
     0
 77
     1
 78
     8
170
     0
171
     0
172
     1
173
     0
174
     0
175
     0
176
   256
177
   256
178
     2
  0
DIMSTYLE
  2
BYGG-027291$0$MASKIN
 70
     0
  3

  4

  5

  6

  7

 40
0.0
 41
3.0
 42
1.5
 43
10.0
 44
1.5
 45
0.0
 46
0.0
 47
0.0
 48
0.0
140
3.0
141
-5.0
142
0.0
143
25.399999999999999
144
-1.0
145
0.0
146
1.0
147
1.0
 71
     0
 72
     0
 73
     0
 74
     0
 75
     0
 76
     0
 77
     1
 78
     8
170
     0
171
     0
172
     1
173
     0
174
     0
175
     0
176
   256
177
   256
178
     2
  0
ENDTAB
  0
ENDSEC
  0
SECTION
  2
BLOCKS
  0
BLOCK
  8
0
  2
$MODEL_SPACE
 70
     0
 10
0.0
 20
0.0
 30
0.0
  3
$MODEL_SPACE
  1

  0
ENDBLK
  5
37
  8
0
  0
BLOCK
 67
     1
  8
0
  2
$PAPER_SPACE
 70
     0
 10
0.0
 20
0.0
 30
0.0
  3
$PAPER_SPACE
  1

  0
ENDBLK
  5
35
 67
     1
  8
0
  0
BLOCK
  8
0
  2
*D24
 70
     1
 10
0.0
 20
0.0
 30
0.0
  3
*D24
  1

  0
LINE
  5
D66
  8
SAPA_MATT
 10
14.00000000000003
 20
60.0
 30
0.0
 11
14.00000000000003
 21
102.5000000000001
 31
0.0
  0
LINE
  5
D67
  8
SAPA_MATT
 10
85.500000000180634
 20
56.500000000019853
 30
0.0
 11
85.500000000180634
 21
102.5000000000001
 31
0.0
  0
LINE
  5
D68
  8
SAPA_MATT
 10
17.000000000000028
 20
101.0000000000001
 30
0.0
 11
82.500000000180648
 21
101.0000000000001
 31
0.0
  0
SOLID
  5
D69
  8
SAPA_MATT
 10
17.000000000000028
 20
101.5000000000001
 30
0.0
 11
17.000000000000028
 21
100.5000000000001
 31
0.0
 12
14.00000000000003
 22
101.0000000000001
 32
0.0
 13
14.00000000000003
 23
101.0000000000001
 33
0.0
  0
SOLID
  5
D6A
  8
SAPA_MATT
 10
82.500000000180648
 20
101.5000000000001
 30
0.0
 11
82.500000000180648
 21
100.5000000000001
 31
0.0
 12
85.500000000180634
 22
101.0000000000001
 32
0.0
 13
85.500000000180634
 23
101.0000000000001
 33
0.0
  0
INSERT
  5
D6B
  8
0
  2
*U60
 10
0.0
 20
0.0
 30
0.0
  0
POINT
  5
D6C
  8
DEFPOINTS
 62
     0
 10
14.00000000000003
 20
58.5
 30
0.0
  0
POINT
  5
D6D
  8
DEFPOINTS
 62
     0
 10
85.500000000180634
 20
55.000000000019853
 30
0.0
  0
POINT
  5
D6E
  8
DEFPOINTS
 62
     0
 10
85.500000000180634
 20
101.0000000000001
 30
0.0
  0
ENDBLK
  5
CDA
  8
0
  0
BLOCK
  8
0
  2
*D25
 70
     1
 10
0.0
 20
0.0
 30
0.0
  3
*D25
  1

  0
LINE
  5
174B
  8
SAPA_MATT
 10
85.500000000180634
 20
56.500000000019853
 30
0.0
 11
85.500000000180634
 21
102.5000000000005
 31
0.0
  0
LINE
  5
174C
  8
SAPA_MATT
 10
132.49999999950211
 20
56.500000000019853
 30
0.0
 11
132.49999999950211
 21
102.5000000000005
 31
0.0
  0
LINE
  5
174D
  8
SAPA_MATT
 10
88.500000000180648
 20
101.0000000000005
 30
0.0
 11
129.49999999950211
 21
101.0000000000005
 31
0.0
  0
SOLID
  5
174E
  8
SAPA_MATT
 10
88.500000000180648
 20
101.5000000000005
 30
0.0
 11
88.500000000180648
 21
100.5000000000005
 31
0.0
 12
85.500000000180634
 22
101.0000000000005
 32
0.0
 13
85.500000000180634
 23
101.0000000000005
 33
0.0
  0
SOLID
  5
174F
  8
SAPA_MATT
 10
129.49999999950211
 20
101.5000000000005
 30
0.0
 11
129.49999999950211
 21
100.5000000000005
 31
0.0
 12
132.49999999950211
 22
101.0000000000005
 32
0.0
 13
132.49999999950211
 23
101.0000000000005
 33
0.0
  0
TEXT
  8
SAPA_MATT
  40
3.5
  5
1764
  62
2
  72
0
  71
0
 10
102.000
 20
97.5550
 30
0.000000
  1
47
  7
ISO
  0
POINT
  5
1751
  8
DEFPOINTS
 62
     0
 10
85.500000000180634
 20
55.000000000019853
 30
0.0
  0
POINT
  5
1752
  8
DEFPOINTS
 62
     0
 10
132.49999999950211
 20
55.000000000019853
 30
0.0
  0
POINT
  5
1753
  8
DEFPOINTS
 62
     0
 10
132.49999999950211
 20
101.0000000000005
 30
0.0
  0
ENDBLK
  5
CE6
  8
0
  0
BLOCK
  8
0
  2
*D26
 70
     1
 10
0.0
 20
0.0
 30
0.0
  3
*D26
  1

  0
LINE
  5
1740
  8
SAPA_MATT
 10
132.49999999950211
 20
56.500000000018979
 30
0.0
 11
132.49999999950211
 21
102.5000000000001
 31
0.0
  0
LINE
  5
1741
  8
SAPA_MATT
 10
138.99999999950211
 20
60.0
 30
0.0
 11
138.99999999950211
 21
102.5000000000001
 31
0.0
  0
LINE
  5
1742
  8
SAPA_MATT
 10
129.49999999950211
 20
101.0000000000001
 30
0.0
 11
126.49999999950209
 21
101.0000000000001
 31
0.0
  0
LINE
  5
1743
  8
SAPA_MATT
 10
141.99999999950211
 20
101.0000000000001
 30
0.0
 11
144.99999999950211
 21
101.0000000000001
 31
0.0
  0
TEXT
  8
SAPA_MATT
  40
3.5
  5
1765
  62
2
  72
0
  71
0
 10
128.750
 20
97.5550
 30
0.000000
  1
6.5
  7
ISO
  0
LINE
  5
1745
  8
SAPA_MATT
 10
132.49999999950211
 20
101.0000000000001
 30
0.0
 11
138.99999999950211
 21
101.0000000000001
 31
0.0
  0
SOLID
  5
1746
  8
SAPA_MATT
 10
129.49999999950211
 20
101.5000000000001
 30
0.0
 11
129.49999999950211
 21
100.5000000000001
 31
0.0
 12
132.49999999950211
 22
101.0000000000001
 32
0.0
 13
132.49999999950211
 23
101.0000000000001
 33
0.0
  0
SOLID
  5
1747
  8
SAPA_MATT
 10
141.99999999950211
 20
101.5000000000001
 30
0.0
 11
141.99999999950211
 21
100.5000000000001
 31
0.0
 12
138.99999999950211
 22
101.0000000000001
 32
0.0
 13
138.99999999950211
 23
101.0000000000001
 33
0.0
  0
POINT
  5
1748
  8
DEFPOINTS
 62
     0
 10
132.49999999950211
 20
55.000000000018979
 30
0.0
  0
POINT
  5
1749
  8
DEFPOINTS
 62
     0
 10
138.99999999950211
 20
58.5
 30
0.0
  0
POINT
  5
174A
  8
DEFPOINTS
 62
     0
 10
138.99999999950211
 20
101.0000000000001
 30
0.0
  0
ENDBLK
  5
CF2
  8
0
  0
BLOCK
  8
0
  2
*D27
 70
     1
 10
0.0
 20
0.0
 30
0.0
  3
*D27
  1

  0
LINE
  5
D49
  8
SAPA_MATT
 10
14.00000000000003
 20
60.0
 30
0.0
 11
14.00000000000003
 21
114.5000000000001
 31
0.0
  0
LINE
  5
D4A
  8
SAPA_MATT
 10
138.99999999950211
 20
61.5
 30
0.0
 11
138.99999999950211
 21
114.5000000000001
 31
0.0
  0
LINE
  5
D4B
  8
SAPA_MATT
 10
17.000000000000028
 20
113.0000000000001
 30
0.0
 11
135.99999999950211
 21
113.0000000000001
 31
0.0
  0
SOLID
  5
D4C
  8
SAPA_MATT
 10
17.000000000000028
 20
113.5000000000001
 30
0.0
 11
17.000000000000028
 21
112.5000000000001
 31
0.0
 12
14.00000000000003
 22
113.0000000000001
 32
0.0
 13
14.00000000000003
 23
113.0000000000001
 33
0.0
  0
SOLID
  5
D4D
  8
SAPA_MATT
 10
135.99999999950211
 20
113.5000000000001
 30
0.0
 11
135.99999999950211
 21
112.5000000000001
 31
0.0
 12
138.99999999950211
 22
113.0000000000001
 32
0.0
 13
138.99999999950211
 23
113.0000000000001
 33
0.0
  0
INSERT
  5
D4E
  8
0
  2
*U59
 10
0.0
 20
0.0
 30
0.0
  0
POINT
  5
D4F
  8
DEFPOINTS
 62
     0
 10
14.00000000000003
 20
58.5
 30
0.0
  0
POINT
  5
D50
  8
DEFPOINTS
 62
     0
 10
138.99999999950211
 20
60.0
 30
0.0
  0
POINT
  5
D51
  8
DEFPOINTS
 62
     0
 10
138.99999999950211
 20
113.0000000000001
 30
0.0
  0
ENDBLK
  5
D00
  8
0
  0
BLOCK
  8
0
  2
*D28
 70
     1
 10
0.0
 20
0.0
 30
0.0
  3
*D28
  1

  0
LINE
  5
D40
  8
SAPA_MATT
 10
139.12499999950211
 20
-56.999999999999972
 30
0.0
 11
170.49999999950211
 21
-56.999999999999979
 31
0.0
  0
LINE
  5
D41
  8
SAPA_MATT
 10
138.99999999950211
 20
60.0
 30
0.0
 11
170.49999999950211
 21
60.0
 31
0.0
  0
LINE
  5
D42
  8
SAPA_MATT
 10
168.99999999950211
 20
-53.999999999999979
 30
0.0
 11
168.99999999950211
 21
56.999999999999993
 31
0.0
  0
SOLID
  5
D43
  8
SAPA_MATT
 10
168.49999999950211
 20
-53.999999999999979
 30
0.0
 11
169.49999999950211
 21
-53.999999999999979
 31
0.0
 12
168.99999999950211
 22
-56.999999999999979
 32
0.0
 13
168.99999999950211
 23
-56.999999999999979
 33
0.0
  0
SOLID
  5
D44
  8
SAPA_MATT
 10
168.49999999950211
 20
56.999999999999993
 30
0.0
 11
169.49999999950211
 21
56.999999999999993
 31
0.0
 12
168.99999999950211
 22
60.0
 32
0.0
 13
168.99999999950211
 23
60.0
 33
0.0
  0
INSERT
  5
D45
  8
0
  2
*U58
 10
0.0
 20
0.0
 30
0.0
  0
POINT
  5
D46
  8
DEFPOINTS
 62
     0
 10
137.62499999950211
 20
-56.999999999999972
 30
0.0
  0
POINT
  5
D47
  8
DEFPOINTS
 62
     0
 10
137.49999999950211
 20
60.0
 30
0.0
  0
POINT
  5
D48
  8
DEFPOINTS
 62
     0
 10
168.99999999950211
 20
60.0
 30
0.0
  0
ENDBLK
  5
D0C
  8
0
  0
BLOCK
  8
0
  2
*D29
 70
     1
 10
0.0
 20
0.0
 30
0.0
  3
*D29
  1

  0
LINE
  5
1737
  8
SAPA_MATT
 10
138.99999999950211
 20
60.0
 30
0.0
 11
170.49999999950211
 21
60.0
 31
0.0
  0
LINE
  5
1738
  8
SAPA_MATT
 10
132.44999992824791
 20
70.000000000011042
 30
0.0
 11
170.49999999950211
 21
70.000000000011028
 31
0.0
  0
LINE
  5
1739
  8
SAPA_MATT
 10
168.99999999950211
 20
62.999999999999993
 30
0.0
 11
168.99999999950211
 21
67.000000000011028
 31
0.0
  0
SOLID
  5
173A
  8
SAPA_MATT
 10
168.49999999950211
 20
62.999999999999993
 30
0.0
 11
169.49999999950211
 21
62.999999999999993
 31
0.0
 12
168.99999999950211
 22
60.0
 32
0.0
 13
168.99999999950211
 23
60.0
 33
0.0
  0
SOLID
  5
173B
  8
SAPA_MATT
 10
168.49999999950211
 20
67.000000000011028
 30
0.0
 11
169.49999999950211
 21
67.000000000011028
 31
0.0
 12
168.99999999950211
 22
70.000000000011028
 32
0.0
 13
168.99999999950211
 23
70.000000000011028
 33
0.0
  0
TEXT
  8
SAPA_MATT
  40
3.5
  5
1766
  62
2
  72
0
  71
0
 10
159.250
 20
58.8050
 30
0.000000
  1
10
  7
ISO
  0
POINT
  5
173D
  8
DEFPOINTS
 62
     0
 10
137.49999999950211
 20
60.0
 30
0.0
  0
POINT
  5
173E
  8
DEFPOINTS
 62
     0
 10
130.94999992824791
 20
70.000000000011042
 30
0.0
  0
POINT
  5
173F
  8
DEFPOINTS
 62
     0
 10
168.99999999950211
 20
70.000000000011028
 30
0.0
  0
ENDBLK
  5
D18
  8
0
  0
BLOCK
  8
0
  2
*D30
 70
     1
 10
0.0
 20
0.0
 30
0.0
  3
*D30
  1

  0
LINE
  5
D2E
  8
SAPA_MATT
 10
150.49999992774141
 20
-70.000000000005429
 30
0.0
 11
182.49999992774161
 21
-70.000000000005443
 31
0.0
  0
LINE
  5
D2F
  8
SAPA_MATT
 10
170.49999999950211
 20
60.000000000000071
 30
0.0
 11
182.49999992774161
 21
60.000000000000071
 31
0.0
  0
LINE
  5
D30
  8
SAPA_MATT
 10
180.99999992774161
 20
-67.000000000005443
 30
0.0
 11
180.99999992774161
 21
57.000000000000071
 31
0.0
  0
SOLID
  5
D31
  8
SAPA_MATT
 10
180.49999992774161
 20
-67.000000000005443
 30
0.0
 11
181.49999992774161
 21
-67.000000000005443
 31
0.0
 12
180.99999992774161
 22
-70.000000000005443
 32
0.0
 13
180.99999992774161
 23
-70.000000000005443
 33
0.0
  0
SOLID
  5
D32
  8
SAPA_MATT
 10
180.49999992774161
 20
57.000000000000071
 30
0.0
 11
181.49999992774161
 21
57.000000000000071
 31
0.0
 12
180.99999992774161
 22
60.000000000000071
 32
0.0
 13
180.99999992774161
 23
60.000000000000071
 33
0.0
  0
INSERT
  5
D33
  8
0
  2
*U57
 10
0.0
 20
0.0
 30
0.0
  0
POINT
  5
D34
  8
DEFPOINTS
 62
     0
 10
148.99999992774141
 20
-70.000000000005429
 30
0.0
  0
POINT
  5
D35
  8
DEFPOINTS
 62
     0
 10
168.99999999950211
 20
60.000000000000071
 30
0.0
  0
POINT
  5
D36
  8
DEFPOINTS
 62
     0
 10
180.99999992774161
 20
60.000000000000071
 30
0.0
  0
ENDBLK
  5
D24
  8
0
  0
BLOCK
  8
0
  2
*U31
 70
     1
 10
0.0
 20
0.0
 30
0.0
  3
*U31
  1

  0
TEXT
  5
DDA
  8
0
 62
     2
 10
106.37499999984141
 20
102.0000000000005
 30
0.0
 40
3.5
  1
47
  7
ISO
  0
ENDBLK
  5
DDC
  8
0
  0
BLOCK
  8
0
  2
*U32
 70
     1
 10
0.0
 20
0.0
 30
0.0
  3
*U32
  1

  0
TEXT
  5
DDE
  8
0
 62
     2
 10
132.77499999950211
 20
102.0000000000001
 30
0.0
 40
3.5
  1
6.5
  7
ISO
  0
ENDBLK
  5
DE0
  8
0
  0
BLOCK
  8
0
  2
*X33
 70
     1
 10
0.0
 20
0.0
 30
0.0
  3
*X33
  1

  0
LINE
  5
DE2
  8
0
 62
     0
 10
148.99999992774141
 20
59.790954887131491
 30
0.0
 11
148.83808603072671
 21
59.952868784146212
 31
0.0
  0
LINE
  5
DE3
  8
0
 62
     0
 10
148.99999992774141
 20
58.668422871997869
 30
0.0
 11
147.94993012138929
 21
59.71849267835001
 31
0.0
  0
LINE
  5
DE4
  8
0
 62
     0
 10
148.99999992774141
 20
57.545890856864212
 30
0.0
 11
147.02840957960129
 21
59.51748120500433
 31
0.0
  0
LINE
  5
DE5
  8
0
 62
     0
 10
148.99999992774141
 20
56.423358841730568
 30
0.0
 11
146.07057661512809
 21
59.352782154343828
 31
0.0
  0
LINE
  5
DE6
  8
0
 62
     0
 10
148.99999992774141
 20
55.300826826596918
 30
0.0
 11
145.07276903545329
 21
59.228057718885033
 31
0.0
  0
LINE
  5
DE7
  8
0
 62
     0
 10
148.99999992774141
 20
54.178294811463303
 30
0.0
 11
144.0303604129688
 21
59.147934326235877
 31
0.0
  0
LINE
  5
DE8
  8
0
 62
     0
 10
148.99999992774141
 20
53.055762796329631
 30
0.0
 11
142.93738136331811
 21
59.118381360752977
 31
0.0
  0
LINE
  5
DE9
  8
0
 62
     0
 10
148.99999992774141
 20
51.933230781196002
 30
0.0
 11
141.78591990858709
 21
59.14731080035029
 31
0.0
  0
LINE
  5
DEA
  8
0
 62
     0
 10
148.99999992774141
 20
50.810698766062337
 30
0.0
 11
140.565119071797
 21
59.245579622006723
 31
0.0
  0
LINE
  5
DEB
  8
0
 62
     0
 10
145.76608656588181
 20
52.922080112788286
 30
0.0
 11
139.25938028645029
 21
59.428786392219777
 31
0.0
  0
LINE
  5
DEC
  8
0
 62
     0
 10
148.99999992774141
 20
49.688166750928701
 30
0.0
 11
148.43999006964339
 21
50.248176609026743
 31
0.0
  0
LINE
  5
DED
  8
0
 62
     0
 10
144.29073942839699
 20
53.274895235139503
 30
0.0
 11
138.998496671141
 21
58.567137992395473
 31
0.0
  0
LINE
  5
DEE
  8
0
 62
     0
 10
148.99999992774141
 20
48.565634735795051
 30
0.0
 11
148.92363608600769
 21
48.64199857752876
 31
0.0
  0
LINE
  5
DEF
  8
0
 62
     0
 10
143.22638571834861
 20
53.21671693005419
 30
0.0
 11
138.99999992774141
 21
57.443102720661422
 31
0.0
  0
LINE
  5
DF0
  8
0
 62
     0
 10
142.3507544107525
 20
52.969816222516712
 30
0.0
 11
138.99999992774141
 21
56.320570705527793
 31
0.0
  0
LINE
  5
DF1
  8
0
 62
     0
 10
141.60217573132229
 20
52.595862886813258
 30
0.0
 11
138.99999992774141
 21
55.198038690394164
 31
0.0
  0
LINE
  5
DF2
  8
0
 62
     0
 10
140.95430362485209
 20
52.121202978149761
 30
0.0
 11
138.9999999277413
 21
54.075506675260542
 31
0.0
  0
LINE
  5
DF3
  8
0
 62
     0
 10
140.39481471664041
 20
51.558159871227843
 30
0.0
 11
138.99999992774141
 21
52.952974660126912
 31
0.0
  0
LINE
  5
DF4
  8
0
 62
     0
 10
139.9191616399674
 20
50.911280932767241
 30
0.0
 11
138.99999992774141
 21
51.830442644993262
 31
0.0
  0
LINE
  5
DF5
  8
0
 62
     0
 10
139.52875225442281
 20
50.179158303178191
 30
0.0
 11
138.9999999277413
 21
50.707910629859633
 31
0.0
  0
LINE
  5
DF6
  8
0
 62
     0
 10
139.2314874681702
 20
49.353891074297159
 30
0.0
 11
138.9999999277413
 21
49.585378614725997
 31
0.0
  0
LINE
  5
DF7
  8
0
 62
     0
 10
139.04522034170191
 20
48.417626185631761
 30
0.0
 11
138.9999999277413
 21
48.462846599592382
 31
0.0
  0
LINE
  5
DF8
  8
0
 62
     0
 10
148.99279897801139
 20
47.96491761599821
 30
0.0
 11
148.99999992774141
 21
47.972118565728252
 31
0.0
  0
LINE
  5
DF9
  8
0
 62
     0
 10
148.8651857786154
 20
48.959836431735859
 30
0.0
 11
148.99999992774141
 21
49.094650580861902
 31
0.0
  0
LINE
  5
DFA
  8
0
 62
     0
 10
148.61341571770799
 20
49.830598385962134
 30
0.0
 11
148.99999992774141
 21
50.217182595995538
 31
0.0
  0
LINE
  5
DFB
  8
0
 62
     0
 10
148.26229306069871
 20
50.602007744086507
 30
0.0
 11
148.99999992774141
 21
51.339714611129203
 31
0.0
  0
LINE
  5
DFC
  8
0
 62
     0
 10
147.82338657535109
 20
51.28563327387257
 30
0.0
 11
148.99999992774141
 21
52.462246626262832
 31
0.0
  0
LINE
  5
DFD
  8
0
 62
     0
 10
147.30074304129599
 20
51.885521754951043
 30
0.0
 11
148.99999992774141
 21
53.584778641396468
 31
0.0
  0
LINE
  5
DFE
  8
0
 62
     0
 10
146.69249089580279
 20
52.399801624591547
 30
0.0
 11
148.99999992774141
 21
54.707310656530133
 31
0.0
  0
LINE
  5
DFF
  8
0
 62
     0
 10
145.9901223838564
 20
52.819965127778701
 30
0.0
 11
148.99999992774141
 21
55.829842671663769
 31
0.0
  0
LINE
  5
E00
  8
0
 62
     0
 10
145.1746978766773
 20
53.127072635733327
 30
0.0
 11
148.99999992774141
 21
56.95237468679742
 31
0.0
  0
LINE
  5
E01
  8
0
 62
     0
 10
144.20478292538701
 20
53.279689699576629
 30
0.0
 11
148.99999992774141
 21
58.074906701931049
 31
0.0
  0
LINE
  5
E02
  8
0
 62
     0
 10
138.9999999277413
 20
48.074906701930963
 30
0.0
 11
139.01437504552271
 21
48.089281819712362
 31
0.0
  0
LINE
  5
E03
  8
0
 62
     0
 10
142.9652894400887
 20
53.162728229412032
 30
0.0
 11
148.99999992774141
 21
59.197438717064692
 31
0.0
  0
LINE
  5
E04
  8
0
 62
     0
 10
138.9999999277413
 20
49.197438717064607
 30
0.0
 11
139.2621674097004
 21
49.459606199023732
 31
0.0
  0
LINE
  5
E05
  8
0
 62
     0
 10
138.9999999277413
 20
50.319970732198271
 30
0.0
 11
148.55332920462101
 21
59.87330000907788
 31
0.0
  0
LINE
  5
E06
  8
0
 62
     0
 10
138.9999999277413
 20
51.442502747331922
 30
0.0
 11
147.0863822333215
 21
59.528885052912131
 31
0.0
  0
LINE
  5
E07
  8
0
 62
     0
 10
138.99999992774141
 20
52.565034762465572
 30
0.0
 11
145.74135694742469
 21
59.306391782148928
 31
0.0
  0
LINE
  5
E08
  8
0
 62
     0
 10
138.99999992774141
 20
53.687566777599237
 30
0.0
 11
144.48937491647041
 21
59.176941766328241
 31
0.0
  0
LINE
  5
E09
  8
0
 62
     0
 10
138.99999992774141
 20
54.810098792732909
 30
0.0
 11
143.31215802026259
 21
59.122256885254131
 31
0.0
  0
LINE
  5
E0A
  8
0
 62
     0
 10
138.99999992774141
 20
55.932630807866552
 30
0.0
 11
142.19726507093191
 21
59.129895951057101
 31
0.0
  0
LINE
  5
E0B
  8
0
 62
     0
 10
138.99999992774141
 20
57.055162823000202
 30
0.0
 11
141.13577765864429
 21
59.190940553903062
 31
0.0
  0
LINE
  5
E0C
  8
0
 62
     0
 10
138.99999992774141
 20
58.177694838133853
 30
0.0
 11
140.12105103645561
 21
59.298745946848072
 31
0.0
  0
LINE
  5
E0D
  8
0
 62
     0
 10
138.85117536341849
 20
59.15140228894461
 30
0.0
 11
139.14798551122061
 21
59.448212436746722
 31
0.0
  0
ENDBLK
  5
E0F
  8
0
  0
BLOCK
  8
0
  2
*X34
 70
     1
 10
0.0
 20
0.0
 30
0.0
  3
*X34
  1

  0
LINE
  5
E25
  8
0
 62
     0
 10
148.43122837829671
 20
46.743733652576282
 30
0.0
 11
148.8281033782967
 21
47.431141316830171
 31
0.0
  0
LINE
  5
E26
  8
0
 62
     0
 10
147.2406033782967
 20
44.681510659814592
 30
0.0
 11
147.63747837829669
 21
45.368918324068488
 31
0.0
  0
LINE
  5
E27
  8
0
 62
     0
 10
146.04997837829669
 20
42.619287667052902
 30
0.0
 11
146.44685337829671
 21
43.306695331306798
 31
0.0
  0
LINE
  5
E28
  8
0
 62
     0
 10
148.43122866279279
 20
49.493364145337956
 30
0.0
 11
148.6183066741481
 21
49.817392765984231
 31
0.0
  0
LINE
  5
E29
  8
0
 62
     0
 10
147.24060366279281
 20
47.431141152576267
 30
0.0
 11
147.6374786627928
 21
48.11854881683017
 31
0.0
  0
LINE
  5
E2A
  8
0
 62
     0
 10
146.0499786627928
 20
45.368918159814577
 30
0.0
 11
146.44685366279279
 21
46.05632582406848
 31
0.0
  0
LINE
  5
E2B
  8
0
 62
     0
 10
144.8593536627929
 20
43.306695167052887
 30
0.0
 11
145.25622866279281
 21
43.99410283130679
 31
0.0
  0
LINE
  5
E2C
  8
0
 62
     0
 10
147.24060394728889
 20
50.180771645337977
 30
0.0
 11
147.63747894728891
 21
50.868179309591874
 31
0.0
  0
LINE
  5
E2D
  8
0
 62
     0
 10
146.04997894728891
 20
48.118548652576287
 30
0.0
 11
146.4468539472889
 21
48.805956316830184
 31
0.0
  0
LINE
  5
E2E
  8
0
 62
     0
 10
144.85935394728889
 20
46.05632565981459
 30
0.0
 11
145.25622894728889
 21
46.743733324068486
 31
0.0
  0
LINE
  5
E2F
  8
0
 62
     0
 10
143.66872894728891
 20
43.994102667052907
 30
0.0
 11
144.06560394728891
 21
44.681510331306797
 31
0.0
  0
LINE
  5
E30
  8
0
 62
     0
 10
142.66048067271791
 20
42.247765428852183
 30
0.0
 11
142.87497894728889
 21
42.619287338545107
 31
0.0
  0
LINE
  5
E31
  8
0
 62
     0
 10
146.04997923178499
 20
50.868179145337962
 30
0.0
 11
146.44685423178501
 21
51.555586809591851
 31
0.0
  0
LINE
  5
E32
  8
0
 62
     0
 10
144.85935423178501
 20
48.805956152576258
 30
0.0
 11
145.256229231785
 21
49.493363816830161
 31
0.0
  0
LINE
  5
E33
  8
0
 62
     0
 10
143.66872923178499
 20
46.743733159814568
 30
0.0
 11
144.06560423178499
 21
47.431140824068457
 31
0.0
  0
LINE
  5
E34
  8
0
 62
     0
 10
142.47810423178501
 20
44.681510167052878
 30
0.0
 11
142.87497923178501
 21
45.368917831306781
 31
0.0
  0
LINE
  5
E35
  8
0
 62
     0
 10
141.41983199667209
 20
42.84852888759778
 30
0.0
 11
141.68435423178499
 21
43.306694838545091
 31
0.0
  0
LINE
  5
E36
  8
0
 62
     0
 10
144.85935451628109
 20
51.555586645337961
 30
0.0
 11
145.256229516281
 21
52.24299430959185
 31
0.0
  0
LINE
  5
E37
  8
0
 62
     0
 10
143.6687295162811
 20
49.493363652576271
 30
0.0
 11
144.0656045162811
 21
50.180771316830167
 31
0.0
  0
LINE
  5
E38
  8
0
 62
     0
 10
142.47810451628109
 20
47.431140659814567
 30
0.0
 11
142.87497951628109
 21
48.11854832406847
 31
0.0
  0
LINE
  5
E39
  8
0
 62
     0
 10
141.28747951628111
 20
45.368917667052891
 30
0.0
 11
141.6843545162811
 21
46.056325331306788
 31
0.0
  0
LINE
  5
E3A
  8
0
 62
     0
 10
140.37616464355861
 20
43.79047400580437
 30
0.0
 11
140.49372951628109
 21
43.99410233854509
 31
0.0
  0
LINE
  5
E3B
  8
0
 62
     0
 10
143.66872980077719
 20
52.24299414533796
 30
0.0
 11
144.06560480077721
 21
52.930401809591856
 31
0.0
  0
LINE
  5
E3C
  8
0
 62
     0
 10
142.4781048007772
 20
50.180771152576277
 30
0.0
 11
142.8749798007772
 21
50.868178816830181
 31
0.0
  0
LINE
  5
E3D
  8
0
 62
     0
 10
141.28747980077719
 20
48.11854815981458
 30
0.0
 11
141.68435480077719
 21
48.805955824068477
 31
0.0
  0
LINE
  5
E3E
  8
0
 62
     0
 10
140.09685480077721
 20
46.056325167052897
 30
0.0
 11
140.4937298007772
 21
46.743732831306787
 31
0.0
  0
LINE
  5
E3F
  8
0
 62
     0
 10
142.4781050852732
 20
52.930401645337959
 30
0.0
 11
142.54131339092169
 21
53.039881642181363
 31
0.0
  0
LINE
  5
E40
  8
0
 62
     0
 10
141.2874800852733
 20
50.868178652576283
 30
0.0
 11
141.6843550852733
 21
51.555586316830173
 31
0.0
  0
LINE
  5
E41
  8
0
 62
     0
 10
140.09685508527329
 20
48.805955659814579
 30
0.0
 11
140.49373008527331
 21
49.493363324068483
 31
0.0
  0
LINE
  5
E42
  8
0
 62
     0
 10
139.03797136424791
 20
46.971915255690952
 30
0.0
 11
139.3031050852733
 21
47.431140331306793
 31
0.0
  0
LINE
  5
E43
  8
0
 62
     0
 10
146.44684342093339
 20
51.555556586874637
 30
0.0
 11
146.0499684209334
 21
52.242964251128541
 31
0.0
  0
LINE
  5
E44
  8
0
 62
     0
 10
147.63746842093329
 20
49.49333359411294
 30
0.0
 11
147.24059342093341
 21
50.180741258366837
 31
0.0
  0
LINE
  5
E45
  8
0
 62
     0
 10
148.8280934209333
 20
47.431110601351257
 30
0.0
 11
148.43121842093331
 21
48.118518265605147
 31
0.0
  0
LINE
  5
E46
  8
0
 62
     0
 10
144.06559370542951
 20
52.930372079636328
 30
0.0
 11
143.86242080378631
 21
53.282277868003639
 31
0.0
  0
LINE
  5
E47
  8
0
 62
     0
 10
145.25621870542949
 20
50.868149086874652
 30
0.0
 11
144.8593437054295
 21
51.555556751128542
 31
0.0
  0
LINE
  5
E48
  8
0
 62
     0
 10
146.4468437054295
 20
48.805926094112948
 30
0.0
 11
146.04996870542951
 21
49.493333758366852
 31
0.0
  0
LINE
  5
E49
  8
0
 62
     0
 10
147.63746870542951
 20
46.743703101351272
 30
0.0
 11
147.24059370542949
 21
47.431110765605162
 31
0.0
  0
LINE
  5
E4A
  8
0
 62
     0
 10
148.50899461833211
 20
45.23417594009107
 30
0.0
 11
148.43121870542939
 21
45.368887772843472
 31
0.0
  0
LINE
  5
E4B
  8
0
 62
     0
 10
142.87496898992561
 20
52.242964579636329
 30
0.0
 11
142.47809398992561
 21
52.930372243890218
 31
0.0
  0
LINE
  5
E4C
  8
0
 62
     0
 10
144.06559398992559
 20
50.180741586874639
 30
0.0
 11
143.66871898992559
 21
50.868149251128543
 31
0.0
  0
LINE
  5
E4D
  8
0
 62
     0
 10
145.2562189899256
 20
48.118518594112942
 30
0.0
 11
144.85934398992561
 21
48.805926258366839
 31
0.0
  0
LINE
  5
E4E
  8
0
 62
     0
 10
146.4468439899255
 20
46.056295601351259
 30
0.0
 11
146.04996898992559
 21
46.743703265605163
 31
0.0
  0
LINE
  5
E4F
  8
0
 62
     0
 10
147.63746898992551
 20
43.994072608589562
 30
0.0
 11
147.24059398992549
 21
44.681480272843459
 31
0.0
  0
LINE
  5
E50
  8
0
 62
     0
 10
141.6843442744217
 20
51.55555707963633
 30
0.0
 11
141.28746927442171
 21
52.242964743890226
 31
0.0
  0
LINE
  5
E51
  8
0
 62
     0
 10
142.87496927442169
 20
49.49333408687464
 30
0.0
 11
142.47809427442169
 21
50.180741751128537
 31
0.0
  0
LINE
  5
E52
  8
0
 62
     0
 10
144.06559427442161
 20
47.431111094112943
 30
0.0
 11
143.6687192744217
 21
48.118518758366839
 31
0.0
  0
LINE
  5
E53
  8
0
 62
     0
 10
145.2562192744216
 20
45.36888810135126
 30
0.0
 11
144.8593442744216
 21
46.056295765605157
 31
0.0
  0
LINE
  5
E54
  8
0
 62
     0
 10
146.44684427442161
 20
43.306665108589563
 30
0.0
 11
146.04996927442161
 21
43.99407277284346
 31
0.0
  0
LINE
  5
E55
  8
0
 62
     0
 10
140.4937195589178
 20
50.868149579636331
 30
0.0
 11
140.21983906123739
 21
51.342524516821051
 31
0.0
  0
LINE
  5
E56
  8
0
 62
     0
 10
141.68434455891779
 20
48.805926586874641
 30
0.0
 11
141.28746955891779
 21
49.493334251128537
 31
0.0
  0
LINE
  5
E57
  8
0
 62
     0
 10
142.87496955891771
 20
46.743703594112951
 30
0.0
 11
142.47809455891769
 21
47.43111125836684
 31
0.0
  0
LINE
  5
E58
  8
0
 62
     0
 10
144.0655945589177
 20
44.681480601351261
 30
0.0
 11
143.6687195589177
 21
45.368888265605158
 31
0.0
  0
LINE
  5
E59
  8
0
 62
     0
 10
145.25621955891771
 20
42.619257608589557
 30
0.0
 11
144.85934455891771
 21
43.30666527284346
 31
0.0
  0
LINE
  5
E5A
  8
0
 62
     0
 10
140.4937198434138
 20
48.118519086874628
 30
0.0
 11
140.09684484341389
 21
48.805926751128531
 31
0.0
  0
LINE
  5
E5B
  8
0
 62
     0
 10
141.68434484341381
 20
46.056296094112938
 30
0.0
 11
141.28746984341379
 21
46.743703758366841
 31
0.0
  0
LINE
  5
E5C
  8
0
 62
     0
 10
142.87496984341379
 20
43.994073101351248
 30
0.0
 11
142.4780948434138
 21
44.681480765605151
 31
0.0
  0
LINE
  5
E5D
  8
0
 62
     0
 10
144.0018313472743
 20
42.042291723571438
 30
0.0
 11
143.66871984341381
 21
42.619257772843447
 31
0.0
  0
LINE
  5
E5E
  8
0
 62
     0
 10
139.3030951279099
 20
47.431111586874643
 30
0.0
 11
139.00628919785311
 21
47.945194537720838
 31
0.0
  0
LINE
  5
E5F
  8
0
 62
     0
 10
140.49372012790991
 20
45.36888859411296
 30
0.0
 11
140.09684512790989
 21
46.056296258366856
 31
0.0
  0
LINE
  5
E60
  8
0
 62
     0
 10
141.68434512790989
 20
43.30666560135127
 30
0.0
 11
141.2874701279099
 21
43.994073265605159
 31
0.0
  0
LINE
  5
E61
  8
0
 62
     0
 10
145.25625000000011
 20
42.61926500001497
 30
0.0
 11
146.0500000000001
 21
42.61926500001497
 31
0.0
  0
LINE
  5
E62
  8
0
 62
     0
 10
142.87500000000011
 20
42.61926500001497
 30
0.0
 11
143.6687500000001
 21
42.61926500001497
 31
0.0
  0
LINE
  5
E63
  8
0
 62
     0
 10
147.6375000000001
 20
43.994080000014968
 30
0.0
 11
147.78777218174429
 21
43.994080000014968
 31
0.0
  0
LINE
  5
E64
  8
0
 62
     0
 10
145.25625000000011
 20
43.994080000014968
 30
0.0
 11
146.0500000000001
 21
43.994080000014968
 31
0.0
  0
LINE
  5
E65
  8
0
 62
     0
 10
142.87500000000011
 20
43.994080000014968
 30
0.0
 11
143.6687500000001
 21
43.994080000014968
 31
0.0
  0
LINE
  5
E66
  8
0
 62
     0
 10
140.49375000000009
 20
43.994080000014968
 30
0.0
 11
141.28750000000011
 21
43.994080000014968
 31
0.0
  0
LINE
  5
E67
  8
0
 62
     0
 10
147.6375000000001
 20
45.368895000014973
 30
0.0
 11
148.43125000000009
 21
45.368895000014973
 31
0.0
  0
LINE
  5
E68
  8
0
 62
     0
 10
145.25625000000011
 20
45.368895000014973
 30
0.0
 11
146.0500000000001
 21
45.368895000014973
 31
0.0
  0
LINE
  5
E69
  8
0
 62
     0
 10
142.87500000000011
 20
45.368895000014973
 30
0.0
 11
143.6687500000001
 21
45.368895000014973
 31
0.0
  0
LINE
  5
E6A
  8
0
 62
     0
 10
140.49375000000009
 20
45.368895000014973
 30
0.0
 11
141.28750000000011
 21
45.368895000014973
 31
0.0
  0
LINE
  5
E6B
  8
0
 62
     0
 10
147.6375000000001
 20
46.743710000014971
 30
0.0
 11
148.43125000000009
 21
46.743710000014971
 31
0.0
  0
LINE
  5
E6C
  8
0
 62
     0
 10
145.25625000000011
 20
46.743710000014971
 30
0.0
 11
146.0500000000001
 21
46.743710000014971
 31
0.0
  0
LINE
  5
E6D
  8
0
 62
     0
 10
142.87500000000011
 20
46.743710000014971
 30
0.0
 11
143.6687500000001
 21
46.743710000014971
 31
0.0
  0
LINE
  5
E6E
  8
0
 62
     0
 10
140.49375000000009
 20
46.743710000014971
 30
0.0
 11
141.28750000000011
 21
46.743710000014971
 31
0.0
  0
LINE
  5
E6F
  8
0
 62
     0
 10
147.6375000000001
 20
48.118525000014976
 30
0.0
 11
148.43125000000009
 21
48.118525000014976
 31
0.0
  0
LINE
  5
E70
  8
0
 62
     0
 10
145.25625000000011
 20
48.118525000014976
 30
0.0
 11
146.0500000000001
 21
48.118525000014976
 31
0.0
  0
LINE
  5
E71
  8
0
 62
     0
 10
142.87500000000011
 20
48.118525000014976
 30
0.0
 11
143.6687500000001
 21
48.118525000014976
 31
0.0
  0
LINE
  5
E72
  8
0
 62
     0
 10
140.49375000000009
 20
48.118525000014976
 30
0.0
 11
141.28750000000011
 21
48.118525000014976
 31
0.0
  0
LINE
  5
E73
  8
0
 62
     0
 10
147.6375000000001
 20
49.493340000014967
 30
0.0
 11
148.43125000000009
 21
49.493340000014967
 31
0.0
  0
LINE
  5
E74
  8
0
 62
     0
 10
145.25625000000011
 20
49.493340000014967
 30
0.0
 11
146.0500000000001
 21
49.493340000014967
 31
0.0
  0
LINE
  5
E75
  8
0
 62
     0
 10
142.87500000000011
 20
49.493340000014967
 30
0.0
 11
143.6687500000001
 21
49.493340000014967
 31
0.0
  0
LINE
  5
E76
  8
0
 62
     0
 10
140.49375000000009
 20
49.493340000014967
 30
0.0
 11
141.28750000000011
 21
49.493340000014967
 31
0.0
  0
LINE
  5
E77
  8
0
 62
     0
 10
147.6375000000001
 20
50.868155000014973
 30
0.0
 11
148.10772746506919
 21
50.868155000014973
 31
0.0
  0
LINE
  5
E78
  8
0
 62
     0
 10
145.25625000000011
 20
50.868155000014973
 30
0.0
 11
146.0500000000001
 21
50.868155000014973
 31
0.0
  0
LINE
  5
E79
  8
0
 62
     0
 10
142.87500000000011
 20
50.868155000014973
 30
0.0
 11
143.6687500000001
 21
50.868155000014973
 31
0.0
  0
LINE
  5
E7A
  8
0
 62
     0
 10
140.49375000000009
 20
50.868155000014973
 30
0.0
 11
141.28750000000011
 21
50.868155000014973
 31
0.0
  0
LINE
  5
E7B
  8
0
 62
     0
 10
145.25625000000011
 20
52.242970000014978
 30
0.0
 11
146.0500000000001
 21
52.242970000014978
 31
0.0
  0
LINE
  5
E7C
  8
0
 62
     0
 10
142.87500000000011
 20
52.242970000014978
 30
0.0
 11
143.6687500000001
 21
52.242970000014978
 31
0.0
  0
LINE
  5
E7D
  8
0
 62
     0
 10
141.1007687474002
 20
52.242970000014978
 30
0.0
 11
141.28750000000011
 21
52.242970000014978
 31
0.0
  0
ENDBLK
  5
E7F
  8
0
  0
BLOCK
  8
0
  2
*U35
 70
     1
 10
0.0
 20
0.0
 30
0.0
  3
*U35
  1

  0
TEXT
  5
ECB
  8
0
 62
     2
 10
167.99999999950211
 20
62.900000000005527
 30
0.0
 40
3.5
  1
10
 50
90.0
  7
ISO
  0
ENDBLK
  5
ECD
  8
0
  0
BLOCK
  8
0
  2
*U36
 70
     1
 10
0.0
 20
0.0
 30
0.0
  3
*U36
  1

  0
TEXT
  5
ECF
  8
0
 62
     2
 10
167.99999999950211
 20
-1.4749999999999679
 30
0.0
 40
3.5
  1
117
 50
90.0
  7
ISO
  0
ENDBLK
  5
ED1
  8
0
  0
BLOCK
  8
0
  2
*U37
 70
     1
 10
0.0
 20
0.0
 30
0.0
  3
*U37
  1

  0
TEXT
  5
ED3
  8
0
 62
     2
 10
179.9973484125901
 20
-13.22500000000265
 30
0.0
 40
3.5
  1
min. 130
 50
90.0
  7
ISO
  0
ENDBLK
  5
ED5
  8
0
  0
BLOCK
  8
0
  2
*U38
 70
     1
 10
0.0
 20
0.0
 30
0.0
  3
*U38
  1

  0
TEXT
  5
1057
  8
0
 62
     2
 10
59.174999963870683
 20
-11.46275614065862
 30
0.0
 40
3.5
  1
125
  7
BYGG-027377$0$ISO
  0
ENDBLK
  5
1059
  8
0
  0
BLOCK
  8
0
  2
*U39
 70
     1
 10
0.0
 20
0.0
 30
0.0
  3
*U39
  1

  0
TEXT
  5
105B
  8
0
 62
     2
 10
138.9070189266192
 20
55.525000000000013
 30
0.0
 40
3.5
  1
117
 50
90.0
  7
BYGG-027377$0$ISO
  0
ENDBLK
  5
105D
  8
0
  0
BLOCK
  8
0
  2
*X40
 70
     1
 10
0.0
 20
0.0
 30
0.0
  3
*X40
  1

  0
LINE
  5
105F
  8
0
 62
     0
 10
76.199999999999989
 20
70.599975999985048
 30
0.0
 11
76.199999999999989
 21
74.699456650023421
 31
0.0
  0
LINE
  5
1060
  8
0
 62
     0
 10
74.612499999999983
 20
71.26391552932489
 30
0.0
 11
74.612499999999983
 21
74.034973770722118
 31
0.0
  0
LINE
  5
1061
  8
0
 62
     0
 10
73.024999999999991
 20
71.73370616123222
 30
0.0
 11
73.024999999999991
 21
73.533706161232203
 31
0.0
  0
LINE
  5
1062
  8
0
 62
     0
 10
71.4375
 20
71.73370616123222
 30
0.0
 11
71.4375
 21
73.533706161232345
 31
0.0
  0
LINE
  5
1063
  8
0
 62
     0
 10
69.849999999999994
 20
71.73370616123222
 30
0.0
 11
69.849999999999994
 21
73.88665244376044
 31
0.0
  0
LINE
  5
1064
  8
0
 62
     0
 10
68.262500000000003
 20
106.77485855299869
 30
0.0
 11
68.262500000000003
 21
108.28802382332501
 31
0.0
  0
LINE
  5
1065
  8
0
 62
     0
 10
68.262500000000003
 20
115.27485855300129
 30
0.0
 11
68.262500000000017
 21
116.78144118816149
 31
0.0
  0
LINE
  5
1066
  8
0
 62
     0
 10
68.262500000000003
 20
71.73370616123222
 30
0.0
 11
68.262500000000003
 21
99.788023823318554
 31
0.0
  0
LINE
  5
1067
  8
0
 62
     0
 10
66.674999999999997
 20
98.497179717640634
 30
0.0
 11
66.675000000000011
 21
116.78144118816149
 31
0.0
  0
LINE
  5
1068
  8
0
 62
     0
 10
66.674999999999997
 20
71.73370616123222
 30
0.0
 11
66.674999999999997
 21
73.54944469071458
 31
0.0
  0
LINE
  5
1069
  8
0
 62
     0
 10
65.087499999999991
 20
98.497179717642254
 30
0.0
 11
65.087500000000006
 21
116.78144118816139
 31
0.0
  0
LINE
  5
106A
  8
0
 62
     0
 10
65.087499999999991
 20
71.73370616123222
 30
0.0
 11
65.087499999999991
 21
73.54944469071458
 31
0.0
  0
LINE
  5
106B
  8
0
 62
     0
 10
63.500000000000007
 20
98.497179717641387
 30
0.0
 11
63.500000000000007
 21
99.797179717640546
 31
0.0
  0
LINE
  5
106C
  8
0
 62
     0
 10
63.500000000000007
 20
114.9971797176448
 30
0.0
 11
63.500000000000007
 21
116.78144118816139
 31
0.0
  0
LINE
  5
106D
  8
0
 62
     0
 10
63.500000000000007
 20
71.73370616123222
 30
0.0
 11
63.500000000000007
 21
73.54944469071458
 31
0.0
  0
LINE
  5
106E
  8
0
 62
     0
 10
61.912500000000001
 20
98.49717971764052
 30
0.0
 11
61.912500000000001
 21
99.797179717640546
 31
0.0
  0
LINE
  5
106F
  8
0
 62
     0
 10
61.912500000000001
 20
114.9971797176436
 30
0.0
 11
61.912500000000001
 21
116.78144118816139
 31
0.0
  0
LINE
  5
1070
  8
0
 62
     0
 10
61.912500000000001
 20
71.73370616123222
 30
0.0
 11
61.912500000000001
 21
73.54944469071458
 31
0.0
  0
LINE
  5
1071
  8
0
 62
     0
 10
60.325000000000003
 20
98.497179717639654
 30
0.0
 11
60.325000000000003
 21
99.828804842068848
 31
0.0
  0
LINE
  5
1072
  8
0
 62
     0
 10
60.325000000000003
 20
114.96555459321431
 30
0.0
 11
60.325000000000003
 21
116.78144118816139
 31
0.0
  0
LINE
  5
1073
  8
0
 62
     0
 10
60.325000000000003
 20
71.73370616123222
 30
0.0
 11
60.325000000000003
 21
73.54944469071458
 31
0.0
  0
LINE
  5
1074
  8
0
 62
     0
 10
58.737500000000011
 20
98.497179717638801
 30
0.0
 11
58.737500000000011
 21
116.7814411881613
 31
0.0
  0
LINE
  5
1075
  8
0
 62
     0
 10
58.737500000000011
 20
71.73370616123222
 30
0.0
 11
58.737500000000011
 21
73.54944469071458
 31
0.0
  0
LINE
  5
1076
  8
0
 62
     0
 10
57.149999999999999
 20
106.7814411881581
 30
0.0
 11
57.149999999999999
 21
108.2814411881613
 31
0.0
  0
LINE
  5
1077
  8
0
 62
     0
 10
57.149999999999999
 20
115.2814411881613
 30
0.0
 11
57.149999999999999
 21
116.7814411881613
 31
0.0
  0
LINE
  5
1078
  8
0
 62
     0
 10
57.149999999999999
 20
71.73370616123222
 30
0.0
 11
57.149999999999999
 21
99.781441188156677
 31
0.0
  0
LINE
  5
1079
  8
0
 62
     0
 10
55.562500000000007
 20
105.7893797277396
 30
0.0
 11
55.562500000000007
 21
109.273502648583
 31
0.0
  0
LINE
  5
107A
  8
0
 62
     0
 10
55.562500000000007
 20
114.2893797277396
 30
0.0
 11
55.562500000000007
 21
116.5235026484573
 31
0.0
  0
LINE
  5
107B
  8
0
 62
     0
 10
55.562500000000007
 20
71.73370616123222
 30
0.0
 11
55.562500000000007
 21
100.77350264857979
 31
0.0
  0
LINE
  5
107C
  8
0
 62
     0
 10
53.975000000000001
 20
71.73370616123222
 30
0.0
 11
53.975000000000001
 21
73.533706161232089
 31
0.0
  0
LINE
  5
107D
  8
0
 62
     0
 10
52.387500000000003
 20
71.73370616123222
 30
0.0
 11
52.387500000000003
 21
73.533706161231692
 31
0.0
  0
LINE
  5
107E
  8
0
 62
     0
 10
50.799999999999997
 20
71.502072594400531
 30
0.0
 11
50.799999999999997
 21
73.796816705646393
 31
0.0
  0
LINE
  5
107F
  8
0
 62
     0
 10
49.212499999999999
 20
70.599975999985134
 30
0.0
 11
49.212499999999999
 21
74.69944565000695
 31
0.0
  0
ENDBLK
  5
1081
  8
0
  0
BLOCK
  8
0
  2
*X41
 70
     1
 10
0.0
 20
0.0
 30
0.0
  3
*X41
  1

  0
LINE
  5
1083
  8
0
 62
     0
 10
76.199999999999989
 20
59.299444650023403
 30
0.0
 11
76.199999999999989
 21
63.39945665002346
 31
0.0
  0
LINE
  5
1084
  8
0
 62
     0
 10
74.612499999999983
 20
59.963915566641319
 30
0.0
 11
74.612499999999983
 21
62.734973733405681
 31
0.0
  0
LINE
  5
1085
  8
0
 62
     0
 10
73.024999999999991
 20
60.199444682530469
 30
0.0
 11
73.024999999999991
 21
62.499444682530417
 31
0.0
  0
LINE
  5
1086
  8
0
 62
     0
 10
71.4375
 20
60.199444682530462
 30
0.0
 11
71.4375
 21
62.499444682530417
 31
0.0
  0
LINE
  5
1087
  8
0
 62
     0
 10
69.849999999999994
 20
60.199444682530462
 30
0.0
 11
69.849999999999994
 21
62.499444682530417
 31
0.0
  0
LINE
  5
1088
  8
0
 62
     0
 10
68.262500000000003
 20
60.199444682530448
 30
0.0
 11
68.262500000000003
 21
62.499444682530417
 31
0.0
  0
LINE
  5
1089
  8
0
 62
     0
 10
66.674999999999997
 20
60.199444682530448
 30
0.0
 11
66.674999999999997
 21
62.499444682530417
 31
0.0
  0
LINE
  5
108A
  8
0
 62
     0
 10
65.087499999999991
 20
60.199444682530448
 30
0.0
 11
65.087499999999991
 21
62.499444682530417
 31
0.0
  0
LINE
  5
108B
  8
0
 62
     0
 10
63.500000000000007
 20
60.199444682530441
 30
0.0
 11
63.500000000000007
 21
62.499444682530417
 31
0.0
  0
LINE
  5
108C
  8
0
 62
     0
 10
61.912500000000001
 20
60.199444682530441
 30
0.0
 11
61.912500000000001
 21
62.499444682530417
 31
0.0
  0
LINE
  5
108D
  8
0
 62
     0
 10
60.325000000000003
 20
60.199444682530441
 30
0.0
 11
60.325000000000003
 21
62.499444682530417
 31
0.0
  0
LINE
  5
108E
  8
0
 62
     0
 10
58.737500000000011
 20
60.199444682530441
 30
0.0
 11
58.737500000000011
 21
62.499444682530417
 31
0.0
  0
LINE
  5
108F
  8
0
 62
     0
 10
57.149999999999999
 20
60.199444682530441
 30
0.0
 11
57.149999999999999
 21
62.499444682530417
 31
0.0
  0
LINE
  5
1090
  8
0
 62
     0
 10
55.562500000000007
 20
60.199444682530441
 30
0.0
 11
55.562500000000007
 21
62.499444682530417
 31
0.0
  0
LINE
  5
1091
  8
0
 62
     0
 10
53.975000000000001
 20
60.199444682530441
 30
0.0
 11
53.975000000000001
 21
62.499444682530417
 31
0.0
  0
LINE
  5
1092
  8
0
 62
     0
 10
52.387500000000003
 20
60.199444682530427
 30
0.0
 11
52.387500000000003
 21
62.499444682530417
 31
0.0
  0
LINE
  5
1093
  8
0
 62
     0
 10
50.799999999999997
 20
60.18970205771393
 30
0.0
 11
50.799999999999997
 21
62.509187277926962
 31
0.0
  0
LINE
  5
1094
  8
0
 62
     0
 10
49.212499999999999
 20
59.299444650023482
 30
0.0
 11
49.212499999999999
 21
63.39944565000696
 31
0.0
  0
ENDBLK
  5
1096
  8
0
  0
BLOCK
  8
0
  2
*X42
 70
     1
 10
0.0
 20
0.0
 30
0.0
  3
*X42
  1

  0
LINE
  5
10D2
  8
0
 62
     0
 10
22.99999999983179
 20
9.7760650556289335
 30
0.0
 11
22.249999999819501
 21
9.0260650556166411
 31
0.0
  0
LINE
  5
10D3
  8
0
 62
     0
 10
22.99999999983179
 20
8.6535330404952884
 30
0.0
 11
22.24999999982073
 21
7.903533040484227
 31
0.0
  0
LINE
  5
10D4
  8
0
 62
     0
 10
22.99999999983179
 20
7.5310010253616451
 30
0.0
 11
22.249999999821959
 21
6.7810010253518112
 31
0.0
  0
LINE
  5
10D5
  8
0
 62
     0
 10
22.99999999983179
 20
6.4084690102279911
 30
0.0
 11
22.249999999823189
 21
5.6584690102193926
 31
0.0
  0
LINE
  5
10D6
  8
0
 62
     0
 10
22.99999999983179
 20
5.2859369950943487
 30
0.0
 11
22.249999999824421
 21
4.5359369950869768
 31
0.0
  0
LINE
  5
10D7
  8
0
 62
     0
 10
22.999999999831779
 20
4.1634049799606974
 30
0.0
 11
22.24999999982564
 21
3.4134049799545632
 31
0.0
  0
LINE
  5
10D8
  8
0
 62
     0
 10
22.999999999831779
 20
3.0408729648270501
 30
0.0
 11
22.24999999982688
 21
2.2908729648221451
 31
0.0
  0
LINE
  5
10D9
  8
0
 62
     0
 10
22.999999999831768
 20
1.918340949693403
 30
0.0
 11
22.249999999828098
 21
1.1683409496897299
 31
0.0
  0
LINE
  5
10DA
  8
0
 62
     0
 10
22.999999999831779
 20
0.7958089345597621
 30
0.0
 11
22.249999999829338
 21
0.0458089345573143
 31
0.0
  0
LINE
  5
10DB
  8
0
 62
     0
 10
22.999999999831768
 20
-0.3267230805738848
 30
0.0
 11
22.24999999983055
 21
-1.0767230805751029
 31
0.0
  0
LINE
  5
10DC
  8
0
 62
     0
 10
22.999999999831779
 20
-1.4492550957075281
 30
0.0
 11
22.24999999983179
 21
-2.199255095707513
 31
0.0
  0
LINE
  5
10DD
  8
0
 62
     0
 10
22.999999999831761
 20
-2.5717871108411741
 30
0.0
 11
22.571787110557249
 21
-3.000000000115687
 31
0.0
  0
LINE
  5
10DE
  8
0
 62
     0
 10
22.9999999998318
 20
8.9735038448878406
 30
0.0
 11
22.249999999818751
 21
9.7235038449008933
 31
0.0
  0
LINE
  5
10DF
  8
0
 62
     0
 10
22.99999999983179
 20
7.8509718297541973
 30
0.0
 11
22.24999999981997
 21
8.6009718297660207
 31
0.0
  0
LINE
  5
10E0
  8
0
 62
     0
 10
22.99999999983179
 20
6.7284398146205531
 30
0.0
 11
22.249999999821188
 21
7.4784398146311482
 31
0.0
  0
LINE
  5
10E1
  8
0
 62
     0
 10
22.9999999998318
 20
5.6059077994869142
 30
0.0
 11
22.249999999822439
 21
6.3559077994962747
 31
0.0
  0
LINE
  5
10E2
  8
0
 62
     0
 10
22.99999999983179
 20
4.48337578435327
 30
0.0
 11
22.24999999982365
 21
5.233375784361403
 31
0.0
  0
LINE
  5
10E3
  8
0
 62
     0
 10
22.99999999983179
 20
3.3608437692196271
 30
0.0
 11
22.249999999824901
 21
4.1108437692265234
 31
0.0
  0
LINE
  5
10E4
  8
0
 62
     0
 10
22.999999999831779
 20
2.2383117540859869
 30
0.0
 11
22.249999999826109
 21
2.9883117540916539
 31
0.0
  0
LINE
  5
10E5
  8
0
 62
     0
 10
22.999999999831779
 20
1.1157797389523401
 30
0.0
 11
22.249999999827349
 21
1.8657797389567781
 31
0.0
  0
LINE
  5
10E6
  8
0
 62
     0
 10
22.999999999831779
 20
-0.0067522761812988
 30
0.0
 11
22.249999999828571
 21
0.743247723821913
 31
0.0
  0
LINE
  5
10E7
  8
0
 62
     0
 10
22.999999999831779
 20
-1.1292842913149379
 30
0.0
 11
22.2499999998298
 21
-0.3792842913129633
 31
0.0
  0
LINE
  5
10E8
  8
0
 62
     0
 10
22.999999999831779
 20
-2.251816306448581
 30
0.0
 11
22.249999999831029
 21
-1.5018163064478349
 31
0.0
  0
LINE
  5
10E9
  8
0
 62
     0
 10
22.625651678365191
 20
-3.0000000001156399
 30
0.0
 11
22.249999999832259
 21
-2.6243483215827079
 31
0.0
  0
ENDBLK
  5
10EB
  8
0
  0
BLOCK
  8
0
  2
*X43
 70
     1
 10
0.0
 20
0.0
 30
0.0
  3
*X43
  1

  0
LINE
  5
10ED
  8
0
 62
     0
 10
65.680151519177045
 20
9.7999999998957108
 30
0.0
 11
64.999999999832113
 21
9.1198484805507611
 31
0.0
  0
LINE
  5
10EE
  8
0
 62
     0
 10
65.750000000183562
 20
8.7473164657685647
 30
0.0
 11
64.999999999832113
 21
7.9973164654171169
 31
0.0
  0
LINE
  5
10EF
  8
0
 62
     0
 10
65.750000000182325
 20
7.624784450633685
 30
0.0
 11
64.999999999832113
 21
6.8747844502834718
 31
0.0
  0
LINE
  5
10F0
  8
0
 62
     0
 10
65.750000000181089
 20
6.502252435498808
 30
0.0
 11
64.999999999832113
 21
5.7522524351498294
 31
0.0
  0
LINE
  5
10F1
  8
0
 62
     0
 10
65.750000000179853
 20
5.3797204203639364
 30
0.0
 11
64.999999999832113
 21
4.6297204200161861
 31
0.0
  0
LINE
  5
10F2
  8
0
 62
     0
 10
65.75000000017863
 20
4.2571884052290567
 30
0.0
 11
64.999999999832113
 21
3.5071884048825401
 31
0.0
  0
LINE
  5
10F3
  8
0
 62
     0
 10
65.750000000177408
 20
3.1346563900941882
 30
0.0
 11
64.999999999832113
 21
2.3846563897488959
 31
0.0
  0
LINE
  5
10F4
  8
0
 62
     0
 10
65.750000000176172
 20
2.0121243749593098
 30
0.0
 11
64.999999999832113
 21
1.2621243746152531
 31
0.0
  0
LINE
  5
10F5
  8
0
 62
     0
 10
65.750000000174936
 20
0.8895923598244319
 30
0.0
 11
64.999999999832113
 21
0.139592359481608
 31
0.0
  0
LINE
  5
10F6
  8
0
 62
     0
 10
65.750000000173699
 20
-0.2329396553104397
 30
0.0
 11
64.999999999832113
 21
-0.9829396556520372
 31
0.0
  0
LINE
  5
10F7
  8
0
 62
     0
 10
65.750000000172463
 20
-1.3554716704453169
 30
0.0
 11
64.999999999832113
 21
-2.1054716707856809
 31
0.0
  0
LINE
  5
10F8
  8
0
 62
     0
 10
65.750000000171241
 20
-2.4780036855801941
 30
0.0
 11
65.228003685635954
 21
-3.0000000001154801
 31
0.0
  0
LINE
  5
10F9
  8
0
 62
     0
 10
65.750000000183718
 20
8.8797204196144044
 30
0.0
 11
64.999999999832113
 21
9.6297204199659951
 31
0.0
  0
LINE
  5
10FA
  8
0
 62
     0
 10
65.750000000182453
 20
7.757188404481993
 30
0.0
 11
64.999999999832113
 21
8.5071884048323536
 31
0.0
  0
LINE
  5
10FB
  8
0
 62
     0
 10
65.750000000181245
 20
6.6346563893495762
 30
0.0
 11
64.999999999832113
 21
7.3846563896987059
 31
0.0
  0
LINE
  5
10FC
  8
0
 62
     0
 10
65.750000000179995
 20
5.5121243742171666
 30
0.0
 11
64.999999999832113
 21
6.2621243745650652
 31
0.0
  0
LINE
  5
10FD
  8
0
 62
     0
 10
65.750000000178773
 20
4.3895923590847561
 30
0.0
 11
64.999999999832113
 21
5.139592359431421
 31
0.0
  0
LINE
  5
10FE
  8
0
 62
     0
 10
65.75000000017755
 20
3.2670603439523398
 30
0.0
 11
64.999999999832113
 21
4.0170603442977768
 31
0.0
  0
LINE
  5
10FF
  8
0
 62
     0
 10
65.750000000176314
 20
2.1445283288199279
 30
0.0
 11
64.999999999832113
 21
2.8945283291641308
 31
0.0
  0
LINE
  5
1100
  8
0
 62
     0
 10
65.750000000175064
 20
1.021996313687519
 30
0.0
 11
64.999999999832113
 21
1.771996314030488
 31
0.0
  0
LINE
  5
1101
  8
0
 62
     0
 10
65.750000000173856
 20
-0.1005357014448984
 30
0.0
 11
64.999999999832113
 21
0.6494642988968434
 31
0.0
  0
LINE
  5
1102
  8
0
 62
     0
 10
65.750000000172605
 20
-1.2230677165773081
 30
0.0
 11
64.999999999832113
 21
-0.4730677162368
 31
0.0
  0
LINE
  5
1103
  8
0
 62
     0
 10
65.750000000171383
 20
-2.345599731709723
 30
0.0
 11
64.999999999832113
 21
-1.5955997313704451
 31
0.0
  0
LINE
  5
1104
  8
0
 62
     0
 10
65.281868253443562
 20
-3.00000000011554
 30
0.0
 11
64.999999999832113
 21
-2.7181317465040911
 31
0.0
  0
ENDBLK
  5
1106
  8
0
  0
BLOCK
  8
0
  2
*U44
 70
     1
 10
0.0
 20
0.0
 30
0.0
  3
*U44
  1

  0
TEXT
  5
1173
  8
0
 62
     2
 10
20.874999999845372
 20
-7.3958485393668081
 30
0.0
 40
3.5
  1
47
  7
BYGG-027291$0$ISO
  0
ENDBLK
  5
1175
  8
0
  0
BLOCK
  8
0
  2
*U45
 70
     1
 10
0.0
 20
0.0
 30
0.0
  3
*U45
  1

  0
TEXT
  5
1177
  8
0
 62
     2
 10
56.848944787702273
 20
11.55000000062725
 30
0.0
 40
3.5
  1
28
 50
90.0
  7
BYGG-027291$0$ISO
  0
ENDBLK
  5
1179
  8
0
  0
BLOCK
  8
0
  2
*X46
 70
     1
 10
0.0
 20
0.0
 30
0.0
  3
*X46
  1

  0
LINE
  5
117B
  8
0
 62
     0
 10
38.100000000000001
 20
7.2500120012615614
 30
0.0
 11
38.100000000000001
 21
11.35002133459094
 31
0.0
  0
LINE
  5
117C
  8
0
 62
     0
 10
36.512500000000003
 20
7.9722179862134324
 30
0.0
 11
36.512500000000003
 21
10.62780601630983
 31
0.0
  0
LINE
  5
117D
  8
0
 62
     0
 10
34.924999999999997
 20
8.3500120012634955
 30
0.0
 11
34.924999999999997
 21
10.250012001263469
 31
0.0
  0
LINE
  5
117E
  8
0
 62
     0
 10
33.337499999999999
 20
8.3500120012634955
 30
0.0
 11
33.337499999999999
 21
10.250012001263469
 31
0.0
  0
LINE
  5
117F
  8
0
 62
     0
 10
31.75
 20
8.3500120012634955
 30
0.0
 11
31.75
 21
10.250012001263469
 31
0.0
  0
LINE
  5
1180
  8
0
 62
     0
 10
30.162500000000001
 20
8.3500120012634955
 30
0.0
 11
30.162500000000001
 21
10.250012001263469
 31
0.0
  0
LINE
  5
1181
  8
0
 62
     0
 10
28.574999999999999
 20
8.3500120012634955
 30
0.0
 11
28.574999999999999
 21
10.250012001263469
 31
0.0
  0
LINE
  5
1182
  8
0
 62
     0
 10
26.987500000000001
 20
8.3500120012634955
 30
0.0
 11
26.987500000000001
 21
10.250012001263469
 31
0.0
  0
LINE
  5
1183
  8
0
 62
     0
 10
25.399999999999999
 20
8.3500120012634955
 30
0.0
 11
25.399999999999999
 21
10.250012001263469
 31
0.0
  0
LINE
  5
1184
  8
0
 62
     0
 10
23.8125
 20
8.3500120012634955
 30
0.0
 11
23.8125
 21
10.250012001263469
 31
0.0
  0
LINE
  5
1185
  8
0
 62
     0
 10
22.225000000000001
 20
8.3500120012634955
 30
0.0
 11
22.225000000000001
 21
10.250012001263469
 31
0.0
  0
LINE
  5
1186
  8
0
 62
     0
 10
20.637499999999999
 20
8.3500120012634955
 30
0.0
 11
20.637499999999999
 21
10.250012001263469
 31
0.0
  0
LINE
  5
1187
  8
0
 62
     0
 10
19.050000000000001
 20
8.3500120012634955
 30
0.0
 11
19.050000000000001
 21
10.250012001263469
 31
0.0
  0
LINE
  5
1188
  8
0
 62
     0
 10
17.462499999999999
 20
8.3500120012634955
 30
0.0
 11
17.462499999999999
 21
10.250012001263469
 31
0.0
  0
LINE
  5
1189
  8
0
 62
     0
 10
15.875
 20
8.3500120012634955
 30
0.0
 11
15.875
 21
10.250012001263469
 31
0.0
  0
LINE
  5
118A
  8
0
 62
     0
 10
14.2875
 20
8.3500120012634955
 30
0.0
 11
14.2875
 21
10.250012001263469
 31
0.0
  0
LINE
  5
118B
  8
0
 62
     0
 10
12.699999999999999
 20
8.3500120012634955
 30
0.0
 11
12.699999999999999
 21
10.250012001263469
 31
0.0
  0
LINE
  5
118C
  8
0
 62
     0
 10
11.112500000000001
 20
8.3119842071177121
 30
0.0
 11
11.112500000000001
 21
10.288039795407149
 31
0.0
  0
LINE
  5
118D
  8
0
 62
     0
 10
9.5249999999999986
 20
7.4165183522970084
 30
0.0
 11
9.5249999999999986
 21
11.183505650226451
 31
0.0
  0
ENDBLK
  5
118F
  8
0
  0
BLOCK
  8
0
  2
*U47
 70
     1
 10
0.0
 20
0.0
 30
0.0
  3
*U47
  1

  0
TEXT
  5
1192
  8
0
 62
     2
 10
45.900000000090387
 20
102.0000000000001
 30
0.0
 40
3.5
  1
71.5
  7
ISO
  0
ENDBLK
  5
1194
  8
0
  0
BLOCK
  8
0
  2
*U48
 70
     1
 10
0.0
 20
0.0
 30
0.0
  3
*U48
  1

  0
TEXT
  5
1196
  8
0
 62
     2
 10
73.17499999975108
 20
114.0000000000001
 30
0.0
 40
3.5
  1
125
  7
ISO
  0
ENDBLK
  5
1198
  8
0
  0
BLOCK
  8
0
  2
*U49
 70
     1
 10
0.0
 20
0.0
 30
0.0
  3
*U49
  1

  0
TEXT
  5
119A
  8
0
 62
     2
 10
73.174999963870675
 20
-68.462756140658584
 30
0.0
 40
3.5
  1
125
  7
BYGG-027377$0$ISO
  0
ENDBLK
  5
119C
  8
0
  0
BLOCK
  8
0
  2
*U50
 70
     1
 10
0.0
 20
0.0
 30
0.0
  3
*U50
  1

  0
TEXT
  5
1538
  8
0
 62
     2
 10
106.3749999280588
 20
34.604151459371607
 30
0.0
 40
3.5
  1
47
  7
BYGG-027291$0$ISO
  0
ENDBLK
  5
153A
  8
0
  0
BLOCK
  8
0
  2
*U51
 70
     1
 10
0.0
 20
0.0
 30
0.0
  3
*U51
  1

  0
TEXT
  5
153C
  8
0
 62
     2
 10
142.34894471591571
 20
53.549999999365667
 30
0.0
 40
3.5
  1
28
 50
90.0
  7
BYGG-027291$0$ISO
  0
ENDBLK
  5
153E
  8
0
  0
BLOCK
  8
0
  2
*U52
 70
     1
 10
0.0
 20
0.0
 30
0.0
  3
*U52
  1

  0
TEXT
  5
1540
  8
0
 62
     2
 10
152.90701892661929
 20
-1.474999999999967
 30
0.0
 40
3.5
  1
117
 50
90.0
  7
BYGG-027377$0$ISO
  0
ENDBLK
  5
1542
  8
0
  0
BLOCK
  8
0
  2
*X53
 70
     1
 10
0.0
 20
0.0
 30
0.0
  3
*X53
  1

  0
LINE
  5
1544
  8
0
 62
     0
 10
130.68015144723569
 20
69.79999999989559
 30
0.0
 11
129.9999999278908
 21
69.119848480550644
 31
0.0
  0
LINE
  5
1545
  8
0
 62
     0
 10
130.7499999282422
 20
68.747316465768449
 30
0.0
 11
129.9999999278908
 21
67.997316465417001
 31
0.0
  0
LINE
  5
1546
  8
0
 62
     0
 10
130.74999992824101
 20
67.62478445063357
 30
0.0
 11
129.9999999278908
 21
66.874784450283357
 31
0.0
  0
LINE
  5
1547
  8
0
 62
     0
 10
130.74999992823979
 20
66.502252435498676
 30
0.0
 11
129.9999999278908
 21
65.752252435149714
 31
0.0
  0
LINE
  5
1548
  8
0
 62
     0
 10
130.74999992823851
 20
65.37972042036381
 30
0.0
 11
129.9999999278908
 21
64.629720420016071
 31
0.0
  0
LINE
  5
1549
  8
0
 62
     0
 10
130.74999992823729
 20
64.257188405228931
 30
0.0
 11
129.9999999278908
 21
63.507188404882427
 31
0.0
  0
LINE
  5
154A
  8
0
 62
     0
 10
130.74999992823609
 20
63.134656390094072
 30
0.0
 11
129.9999999278908
 21
62.384656389748777
 31
0.0
  0
LINE
  5
154B
  8
0
 62
     0
 10
130.74999992823481
 20
62.012124374959178
 30
0.0
 11
129.9999999278908
 21
61.262124374615141
 31
0.0
  0
LINE
  5
154C
  8
0
 62
     0
 10
130.74999992823359
 20
60.889592359824313
 30
0.0
 11
129.9999999278908
 21
60.13959235948149
 31
0.0
  0
LINE
  5
154D
  8
0
 62
     0
 10
130.7499999282324
 20
59.76706034468944
 30
0.0
 11
129.9999999278908
 21
59.017060344347847
 31
0.0
  0
LINE
  5
154E
  8
0
 62
     0
 10
130.74999992823109
 20
58.644528329554561
 30
0.0
 11
129.9999999278908
 21
57.894528329214211
 31
0.0
  0
LINE
  5
154F
  8
0
 62
     0
 10
130.7499999282299
 20
57.521996314419681
 30
0.0
 11
130.2280036136946
 21
56.999999999884388
 31
0.0
  0
LINE
  5
1550
  8
0
 62
     0
 10
130.7499999282424
 20
68.879720419614301
 30
0.0
 11
129.9999999278908
 21
69.629720419965878
 31
0.0
  0
LINE
  5
1551
  8
0
 62
     0
 10
130.7499999282411
 20
67.75718840448188
 30
0.0
 11
129.9999999278908
 21
68.507188404832235
 31
0.0
  0
LINE
  5
1552
  8
0
 62
     0
 10
130.7499999282399
 20
66.634656389349459
 30
0.0
 11
129.9999999278908
 21
67.384656389698591
 31
0.0
  0
LINE
  5
1553
  8
0
 62
     0
 10
130.74999992823871
 20
65.512124374217052
 30
0.0
 11
129.9999999278908
 21
66.262124374564934
 31
0.0
  0
LINE
  5
1554
  8
0
 62
     0
 10
130.7499999282374
 20
64.389592359084645
 30
0.0
 11
129.9999999278908
 21
65.139592359431305
 31
0.0
  0
LINE
  5
1555
  8
0
 62
     0
 10
130.74999992823621
 20
63.267060343952217
 30
0.0
 11
129.9999999278908
 21
64.017060344297661
 31
0.0
  0
LINE
  5
1556
  8
0
 62
     0
 10
130.74999992823501
 20
62.144528328819803
 30
0.0
 11
129.9999999278908
 21
62.894528329164011
 31
0.0
  0
LINE
  5
1557
  8
0
 62
     0
 10
130.74999992823371
 20
61.021996313687403
 30
0.0
 11
129.9999999278908
 21
61.771996314030368
 31
0.0
  0
LINE
  5
1558
  8
0
 62
     0
 10
130.74999992823251
 20
59.899464298554982
 30
0.0
 11
129.9999999278908
 21
60.649464298896717
 31
0.0
  0
LINE
  5
1559
  8
0
 62
     0
 10
130.74999992823129
 20
58.77693228342256
 30
0.0
 11
129.9999999278908
 21
59.526932283763081
 31
0.0
  0
LINE
  5
155A
  8
0
 62
     0
 10
130.74999992823001
 20
57.654400268290161
 30
0.0
 11
129.9999999278908
 21
58.404400268629431
 31
0.0
  0
LINE
  5
155B
  8
0
 62
     0
 10
130.2818681815022
 20
56.999999999884352
 30
0.0
 11
129.9999999278908
 21
57.28186825349578
 31
0.0
  0
ENDBLK
  5
155D
  8
0
  0
BLOCK
  8
0
  2
*X54
 70
     1
 10
0.0
 20
0.0
 30
0.0
  3
*X54
  1

  0
LINE
  5
155F
  8
0
 62
     0
 10
87.999999927890471
 20
69.776065055628806
 30
0.0
 11
87.249999927878207
 21
69.026065055616542
 31
0.0
  0
LINE
  5
1560
  8
0
 62
     0
 10
87.999999927890471
 20
68.653533040495176
 30
0.0
 11
87.249999927879415
 21
67.90353304048412
 31
0.0
  0
LINE
  5
1561
  8
0
 62
     0
 10
87.999999927890485
 20
67.531001025361505
 30
0.0
 11
87.249999927880665
 21
66.781001025351699
 31
0.0
  0
LINE
  5
1562
  8
0
 62
     0
 10
87.999999927890471
 20
66.408469010227876
 30
0.0
 11
87.249999927881888
 21
65.658469010219292
 31
0.0
  0
LINE
  5
1563
  8
0
 62
     0
 10
87.999999927890471
 20
65.285936995094232
 30
0.0
 11
87.249999927883124
 21
64.535936995086871
 31
0.0
  0
LINE
  5
1564
  8
0
 62
     0
 10
87.999999927890457
 20
64.163404979960589
 30
0.0
 11
87.249999927884346
 21
63.413404979954457
 31
0.0
  0
LINE
  5
1565
  8
0
 62
     0
 10
87.999999927890471
 20
63.040872964826931
 30
0.0
 11
87.249999927885597
 21
62.290872964822043
 31
0.0
  0
LINE
  5
1566
  8
0
 62
     0
 10
87.999999927890457
 20
61.918340949693302
 30
0.0
 11
87.249999927886805
 21
61.16834094968965
 31
0.0
  0
LINE
  5
1567
  8
0
 62
     0
 10
87.999999927890471
 20
60.795808934559652
 30
0.0
 11
87.249999927888041
 21
60.045808934557208
 31
0.0
  0
LINE
  5
1568
  8
0
 62
     0
 10
87.999999927890457
 20
59.673276919425987
 30
0.0
 11
87.249999927889263
 21
58.923276919424801
 31
0.0
  0
LINE
  5
1569
  8
0
 62
     0
 10
87.999999927890457
 20
58.550744904292351
 30
0.0
 11
87.249999927890485
 21
57.800744904292387
 31
0.0
  0
LINE
  5
156A
  8
0
 62
     0
 10
87.999999927890457
 20
57.428212889158708
 30
0.0
 11
87.571787038615938
 21
56.999999999884203
 31
0.0
  0
LINE
  5
156B
  8
0
 62
     0
 10
87.999999927890485
 20
68.973503844887716
 30
0.0
 11
87.249999927877425
 21
69.723503844900762
 31
0.0
  0
LINE
  5
156C
  8
0
 62
     0
 10
87.999999927890485
 20
67.850971829754073
 30
0.0
 11
87.249999927878676
 21
68.600971829765882
 31
0.0
  0
LINE
  5
156D
  8
0
 62
     0
 10
87.999999927890485
 20
66.72843981462043
 30
0.0
 11
87.249999927879884
 21
67.478439814631017
 31
0.0
  0
LINE
  5
156E
  8
0
 62
     0
 10
87.999999927890485
 20
65.605907799486801
 30
0.0
 11
87.249999927881134
 21
66.355907799496151
 31
0.0
  0
LINE
  5
156F
  8
0
 62
     0
 10
87.999999927890471
 20
64.483375784353157
 30
0.0
 11
87.249999927882357
 21
65.233375784361272
 31
0.0
  0
LINE
  5
1570
  8
0
 62
     0
 10
87.999999927890471
 20
63.360843769219507
 30
0.0
 11
87.249999927883593
 21
64.110843769226392
 31
0.0
  0
LINE
  5
1571
  8
0
 62
     0
 10
87.999999927890457
 20
62.238311754085871
 30
0.0
 11
87.249999927884815
 21
62.988311754091519
 31
0.0
  0
LINE
  5
1572
  8
0
 62
     0
 10
87.999999927890471
 20
61.11577973895222
 30
0.0
 11
87.249999927886051
 21
61.865779738956661
 31
0.0
  0
LINE
  5
1573
  8
0
 62
     0
 10
87.999999927890457
 20
59.993247723818598
 30
0.0
 11
87.249999927887274
 21
60.743247723821781
 31
0.0
  0
LINE
  5
1574
  8
0
 62
     0
 10
87.999999927890457
 20
58.870715708684948
 30
0.0
 11
87.249999927888496
 21
59.620715708686902
 31
0.0
  0
LINE
  5
1575
  8
0
 62
     0
 10
87.999999927890457
 20
57.748183693551312
 30
0.0
 11
87.249999927889732
 21
58.498183693552043
 31
0.0
  0
LINE
  5
1576
  8
0
 62
     0
 10
87.625651606423858
 20
56.999999999884238
 30
0.0
 11
87.249999927890968
 21
57.37565167841715
 31
0.0
  0
ENDBLK
  5
1578
  8
0
  0
BLOCK
  8
0
  2
*X55
 70
     1
 10
0.0
 20
0.0
 30
0.0
  3
*X55
  1

  0
LINE
  5
159E
  8
0
 62
     0
 10
130.68015144723569
 20
69.79999999989559
 30
0.0
 11
129.9999999278908
 21
69.119848480550644
 31
0.0
  0
LINE
  5
159F
  8
0
 62
     0
 10
130.7499999282422
 20
68.747316465768449
 30
0.0
 11
129.9999999278908
 21
67.997316465417001
 31
0.0
  0
LINE
  5
15A0
  8
0
 62
     0
 10
130.74999992824101
 20
67.62478445063357
 30
0.0
 11
129.9999999278908
 21
66.874784450283357
 31
0.0
  0
LINE
  5
15A1
  8
0
 62
     0
 10
130.74999992823979
 20
66.502252435498676
 30
0.0
 11
129.9999999278908
 21
65.752252435149714
 31
0.0
  0
LINE
  5
15A2
  8
0
 62
     0
 10
130.74999992823851
 20
65.37972042036381
 30
0.0
 11
129.9999999278908
 21
64.629720420016071
 31
0.0
  0
LINE
  5
15A3
  8
0
 62
     0
 10
130.74999992823729
 20
64.257188405228931
 30
0.0
 11
129.9999999278908
 21
63.507188404882427
 31
0.0
  0
LINE
  5
15A4
  8
0
 62
     0
 10
130.74999992823609
 20
63.134656390094072
 30
0.0
 11
129.9999999278908
 21
62.384656389748777
 31
0.0
  0
LINE
  5
15A5
  8
0
 62
     0
 10
130.74999992823481
 20
62.012124374959178
 30
0.0
 11
129.9999999278908
 21
61.262124374615141
 31
0.0
  0
LINE
  5
15A6
  8
0
 62
     0
 10
130.74999992823359
 20
60.889592359824313
 30
0.0
 11
129.9999999278908
 21
60.13959235948149
 31
0.0
  0
LINE
  5
15A7
  8
0
 62
     0
 10
130.7499999282324
 20
59.76706034468944
 30
0.0
 11
129.9999999278908
 21
59.017060344347847
 31
0.0
  0
LINE
  5
15A8
  8
0
 62
     0
 10
130.74999992823109
 20
58.644528329554561
 30
0.0
 11
129.9999999278908
 21
57.894528329214211
 31
0.0
  0
LINE
  5
15A9
  8
0
 62
     0
 10
130.7499999282299
 20
57.521996314419681
 30
0.0
 11
130.2280036136946
 21
56.999999999884388
 31
0.0
  0
LINE
  5
15AA
  8
0
 62
     0
 10
130.7499999282424
 20
68.879720419614301
 30
0.0
 11
129.9999999278908
 21
69.629720419965878
 31
0.0
  0
LINE
  5
15AB
  8
0
 62
     0
 10
130.7499999282411
 20
67.75718840448188
 30
0.0
 11
129.9999999278908
 21
68.507188404832235
 31
0.0
  0
LINE
  5
15AC
  8
0
 62
     0
 10
130.7499999282399
 20
66.634656389349459
 30
0.0
 11
129.9999999278908
 21
67.384656389698591
 31
0.0
  0
LINE
  5
15AD
  8
0
 62
     0
 10
130.74999992823871
 20
65.512124374217052
 30
0.0
 11
129.9999999278908
 21
66.262124374564934
 31
0.0
  0
LINE
  5
15AE
  8
0
 62
     0
 10
130.7499999282374
 20
64.389592359084645
 30
0.0
 11
129.9999999278908
 21
65.139592359431305
 31
0.0
  0
LINE
  5
15AF
  8
0
 62
     0
 10
130.74999992823621
 20
63.267060343952217
 30
0.0
 11
129.9999999278908
 21
64.017060344297661
 31
0.0
  0
LINE
  5
15B0
  8
0
 62
     0
 10
130.74999992823501
 20
62.144528328819803
 30
0.0
 11
129.9999999278908
 21
62.894528329164011
 31
0.0
  0
LINE
  5
15B1
  8
0
 62
     0
 10
130.74999992823371
 20
61.021996313687403
 30
0.0
 11
129.9999999278908
 21
61.771996314030368
 31
0.0
  0
LINE
  5
15B2
  8
0
 62
     0
 10
130.74999992823251
 20
59.899464298554982
 30
0.0
 11
129.9999999278908
 21
60.649464298896717
 31
0.0
  0
LINE
  5
15B3
  8
0
 62
     0
 10
130.74999992823129
 20
58.77693228342256
 30
0.0
 11
129.9999999278908
 21
59.526932283763081
 31
0.0
  0
LINE
  5
15B4
  8
0
 62
     0
 10
130.74999992823001
 20
57.654400268290161
 30
0.0
 11
129.9999999278908
 21
58.404400268629431
 31
0.0
  0
LINE
  5
15B5
  8
0
 62
     0
 10
130.2818681815022
 20
56.999999999884352
 30
0.0
 11
129.9999999278908
 21
57.28186825349578
 31
0.0
  0
ENDBLK
  5
15B7
  8
0
  0
BLOCK
  8
0
  2
*X56
 70
     1
 10
0.0
 20
0.0
 30
0.0
  3
*X56
  1

  0
LINE
  5
15B9
  8
0
 62
     0
 10
87.999999927890471
 20
69.776065055628806
 30
0.0
 11
87.249999927878207
 21
69.026065055616542
 31
0.0
  0
LINE
  5
15BA
  8
0
 62
     0
 10
87.999999927890471
 20
68.653533040495176
 30
0.0
 11
87.249999927879415
 21
67.90353304048412
 31
0.0
  0
LINE
  5
15BB
  8
0
 62
     0
 10
87.999999927890485
 20
67.531001025361505
 30
0.0
 11
87.249999927880665
 21
66.781001025351699
 31
0.0
  0
LINE
  5
15BC
  8
0
 62
     0
 10
87.999999927890471
 20
66.408469010227876
 30
0.0
 11
87.249999927881888
 21
65.658469010219292
 31
0.0
  0
LINE
  5
15BD
  8
0
 62
     0
 10
87.999999927890471
 20
65.285936995094232
 30
0.0
 11
87.249999927883124
 21
64.535936995086871
 31
0.0
  0
LINE
  5
15BE
  8
0
 62
     0
 10
87.999999927890457
 20
64.163404979960589
 30
0.0
 11
87.249999927884346
 21
63.413404979954457
 31
0.0
  0
LINE
  5
15BF
  8
0
 62
     0
 10
87.999999927890471
 20
63.040872964826931
 30
0.0
 11
87.249999927885597
 21
62.290872964822043
 31
0.0
  0
LINE
  5
15C0
  8
0
 62
     0
 10
87.999999927890457
 20
61.918340949693302
 30
0.0
 11
87.249999927886805
 21
61.16834094968965
 31
0.0
  0
LINE
  5
15C1
  8
0
 62
     0
 10
87.999999927890471
 20
60.795808934559652
 30
0.0
 11
87.249999927888041
 21
60.045808934557208
 31
0.0
  0
LINE
  5
15C2
  8
0
 62
     0
 10
87.999999927890457
 20
59.673276919425987
 30
0.0
 11
87.249999927889263
 21
58.923276919424801
 31
0.0
  0
LINE
  5
15C3
  8
0
 62
     0
 10
87.999999927890457
 20
58.550744904292351
 30
0.0
 11
87.249999927890485
 21
57.800744904292387
 31
0.0
  0
LINE
  5
15C4
  8
0
 62
     0
 10
87.999999927890457
 20
57.428212889158708
 30
0.0
 11
87.571787038615938
 21
56.999999999884203
 31
0.0
  0
LINE
  5
15C5
  8
0
 62
     0
 10
87.999999927890485
 20
68.973503844887716
 30
0.0
 11
87.249999927877425
 21
69.723503844900762
 31
0.0
  0
LINE
  5
15C6
  8
0
 62
     0
 10
87.999999927890485
 20
67.850971829754073
 30
0.0
 11
87.249999927878676
 21
68.600971829765882
 31
0.0
  0
LINE
  5
15C7
  8
0
 62
     0
 10
87.999999927890485
 20
66.72843981462043
 30
0.0
 11
87.249999927879884
 21
67.478439814631017
 31
0.0
  0
LINE
  5
15C8
  8
0
 62
     0
 10
87.999999927890485
 20
65.605907799486801
 30
0.0
 11
87.249999927881134
 21
66.355907799496151
 31
0.0
  0
LINE
  5
15C9
  8
0
 62
     0
 10
87.999999927890471
 20
64.483375784353157
 30
0.0
 11
87.249999927882357
 21
65.233375784361272
 31
0.0
  0
LINE
  5
15CA
  8
0
 62
     0
 10
87.999999927890471
 20
63.360843769219507
 30
0.0
 11
87.249999927883593
 21
64.110843769226392
 31
0.0
  0
LINE
  5
15CB
  8
0
 62
     0
 10
87.999999927890457
 20
62.238311754085871
 30
0.0
 11
87.249999927884815
 21
62.988311754091519
 31
0.0
  0
LINE
  5
15CC
  8
0
 62
     0
 10
87.999999927890471
 20
61.11577973895222
 30
0.0
 11
87.249999927886051
 21
61.865779738956661
 31
0.0
  0
LINE
  5
15CD
  8
0
 62
     0
 10
87.999999927890457
 20
59.993247723818598
 30
0.0
 11
87.249999927887274
 21
60.743247723821781
 31
0.0
  0
LINE
  5
15CE
  8
0
 62
     0
 10
87.999999927890457
 20
58.870715708684948
 30
0.0
 11
87.249999927888496
 21
59.620715708686902
 31
0.0
  0
LINE
  5
15CF
  8
0
 62
     0
 10
87.999999927890457
 20
57.748183693551312
 30
0.0
 11
87.249999927889732
 21
58.498183693552043
 31
0.0
  0
LINE
  5
15D0
  8
0
 62
     0
 10
87.625651606423858
 20
56.999999999884238
 30
0.0
 11
87.249999927890968
 21
57.37565167841715
 31
0.0
  0
ENDBLK
  5
15D2
  8
0
  0
BLOCK
  8
0
  2
*U57
 70
     1
 10
0.0
 20
0.0
 30
0.0
  3
*U57
  1

  0
TEXT
  5
1755
  8
SAPA_MATT
 62
     2
 10
179.9973484125901
 20
-13.22500000000265
 30
0.0
 40
3.5
  1
min. 130
 50
90.0
  7
ISO
  0
ENDBLK
  5
1757
  8
0
  0
BLOCK
  8
0
  2
*U58
 70
     1
 10
0.0
 20
0.0
 30
0.0
  3
*U58
  1

  0
TEXT
  5
1759
  8
SAPA_MATT
 62
     2
 10
167.99999999950211
 20
-1.4749999999999679
 30
0.0
 40
3.5
  1
117
 50
90.0
  7
ISO
  0
ENDBLK
  5
175B
  8
0
  0
BLOCK
  8
0
  2
*U59
 70
     1
 10
0.0
 20
0.0
 30
0.0
  3
*U59
  1

  0
TEXT
  5
175D
  8
SAPA_MATT
 62
     2
 10
73.17499999975108
 20
114.0000000000001
 30
0.0
 40
3.5
  1
125
  7
ISO
  0
ENDBLK
  5
175F
  8
0
  0
BLOCK
  8
0
  2
*U60
 70
     1
 10
0.0
 20
0.0
 30
0.0
  3
*U60
  1

  0
TEXT
  5
1761
  8
SAPA_MATT
 62
     2
 10
45.900000000090387
 20
102.0000000000001
 30
0.0
 40
3.5
  1
71.5
  7
ISO
  0
ENDBLK
  5
1763
  8
0
  0
ENDSEC
  0
SECTION
  2
ENTITIES
  0
TEXT
  5
70A
  8
SAPA_ARTIKELNR
 10
12.345450637514279
 20
-32.243587403564142
 30
0.0000000048844772
 40
3.5
  1
D8K029
 50
90.0
  7
ISO
  0
TEXT
  5
722
  8
SAPA_ARTIKELNR
 10
83.628268953423628
 20
62.548553556965061
 30
0.0000000048844772
 40
3.5
  1
D8V004
 50
90.0
  7
ISO
  0
POLYLINE
  5
85A
  8
SAPA_BESLAG
 66
     1
 10
0.0
 20
0.0
 30
0.0
 70
     1
  0
VERTEX
  5
D8C
  8
SAPA_BESLAG
 10
120.50000000161209
 20
27.50000000268366
 30
0.0
 42
-0.4142135623733615
  0
VERTEX
  5
D8D
  8
SAPA_BESLAG
 10
120.00000000161209
 20
27.000000002683201
 30
0.0
  0
VERTEX
  5
D8E
  8
SAPA_BESLAG
 10
115.7000000016092
 20
27.000000002683201
 30
0.0
 42
-0.4142135623730951
  0
VERTEX
  5
D8F
  8
SAPA_BESLAG
 10
115.2000000016092
 20
27.500000002683201
 30
0.0
  0
VERTEX
  5
D90
  8
SAPA_BESLAG
 10
115.2000000016092
 20
46.934173753879989
 30
0.0
 42
-0.0655434628193178
  0
VERTEX
  5
D91
  8
SAPA_BESLAG
 10
115.21703708846741
 20
47.063583276432567
 30
0.0
  0
VERTEX
  5
D92
  8
SAPA_BESLAG
 10
115.9045481597676
 20
49.629409525242558
 30
0.0
 42
-0.3394542588589677
  0
VERTEX
  5
D93
  8
SAPA_BESLAG
 10
116.38751107291
 20
50.000000002683649
 30
0.0
  0
VERTEX
  5
D94
  8
SAPA_BESLAG
 10
118.2053092526299
 20
50.000000002683649
 30
0.0
 42
-0.3394542588711624
  0
VERTEX
  5
D95
  8
SAPA_BESLAG
 10
118.68827216577171
 20
49.62940952523077
 30
0.0
  0
VERTEX
  5
D96
  8
SAPA_BESLAG
 10
119.4007005817306
 20
46.970590480043661
 30
0.0
 42
0.3394542588715295
  0
VERTEX
  5
D97
  8
SAPA_BESLAG
 10
119.8836634948789
 20
46.600000002580792
 30
0.0
  0
VERTEX
  5
D98
  8
SAPA_BESLAG
 10
122.1163365090147
 20
46.600000002581247
 30
0.0
 42
0.2360679770209484
  0
VERTEX
  5
D99
  8
SAPA_BESLAG
 10
122.5163365084705
 20
46.800000001847771
 30
0.0
 42
-0.2360679770747178
  0
VERTEX
  5
D9A
  8
SAPA_BESLAG
 10
122.9163365080281
 20
47.000000001122046
 30
0.0
  0
VERTEX
  5
D9B
  8
SAPA_BESLAG
 10
130.00000000316919
 20
46.999999999689607
 30
0.0
 42
-0.4142135623134248
  0
VERTEX
  5
D9C
  8
SAPA_BESLAG
 10
130.5000000030673
 20
46.499999999689607
 30
0.0
  0
VERTEX
  5
D9D
  8
SAPA_BESLAG
 10
130.50000000305269
 20
44.100000002683572
 30
0.0
 42
-0.4142135623730951
  0
VERTEX
  5
D9E
  8
SAPA_BESLAG
 10
130.0000000030528
 20
43.600000002683558
 30
0.0
  0
VERTEX
  5
D9F
  8
SAPA_BESLAG
 10
122.00000000161209
 20
43.600000002684467
 30
0.0
 42
0.4142135623730951
  0
VERTEX
  5
DA0
  8
SAPA_BESLAG
 10
120.50000000161209
 20
42.100000002684467
 30
0.0
  0
VERTEX
  5
DA1
  8
SAPA_BESLAG
 10
120.5000000015976
 20
38.846410164153639
 30
0.0
  0
VERTEX
  5
DA2
  8
SAPA_BESLAG
 10
120.3000000016296
 20
38.500000002685013
 30
0.0
  0
VERTEX
  5
DA3
  8
SAPA_BESLAG
 10
120.50000000161209
 20
38.153589841166387
 30
0.0
  0
VERTEX
  5
DA4
  8
SAPA_BESLAG
 10
120.5000000015976
 20
36.846410164171367
 30
0.0
  0
VERTEX
  5
DA5
  8
SAPA_BESLAG
 10
120.3000000016296
 20
36.500000002683208
 30
0.0
  0
VERTEX
  5
DA6
  8
SAPA_BESLAG
 10
120.50000000161209
 20
36.153589841164568
 30
0.0
  0
SEQEND
  5
DA7
  8
SAPA_BESLAG
  0
POLYLINE
  5
85B
  8
SAPA_BESLAG
 66
     1
 10
0.0
 20
0.0
 30
0.0
 70
     1
  0
VERTEX
  5
DA8
  8
SAPA_BESLAG
 10
97.500000001117385
 20
27.50000000268366
 30
0.0
 42
0.4142135623733615
  0
VERTEX
  5
DA9
  8
SAPA_BESLAG
 10
98.000000001117371
 20
27.000000002683201
 30
0.0
  0
VERTEX
  5
DAA
  8
SAPA_BESLAG
 10
102.3000000011202
 20
27.000000002683201
 30
0.0
 42
0.4142135623730951
  0
VERTEX
  5
DAB
  8
SAPA_BESLAG
 10
102.8000000011203
 20
27.500000002683201
 30
0.0
  0
VERTEX
  5
DAC
  8
SAPA_BESLAG
 10
102.8000000011203
 20
46.934173753879989
 30
0.0
 42
0.0655434628193178
  0
VERTEX
  5
DAD
  8
SAPA_BESLAG
 10
102.7829629142621
 20
47.063583276432567
 30
0.0
  0
VERTEX
  5
DAE
  8
SAPA_BESLAG
 10
102.09545184296189
 20
49.629409525242558
 30
0.0
 42
0.3394542588589676
  0
VERTEX
  5
DAF
  8
SAPA_BESLAG
 10
101.61248892981941
 20
50.000000002683649
 30
0.0
  0
VERTEX
  5
DB0
  8
SAPA_BESLAG
 10
99.794690750099619
 20
50.000000002683649
 30
0.0
 42
0.3394542588711624
  0
VERTEX
  5
DB1
  8
SAPA_BESLAG
 10
99.3117278369578
 20
49.62940952523077
 30
0.0
  0
VERTEX
  5
DB2
  8
SAPA_BESLAG
 10
98.599299420998904
 20
46.970590480043661
 30
0.0
 42
-0.3394542588715294
  0
VERTEX
  5
DB3
  8
SAPA_BESLAG
 10
98.116336507850576
 20
46.600000002580792
 30
0.0
  0
VERTEX
  5
DB4
  8
SAPA_BESLAG
 10
95.883663493714778
 20
46.600000002581247
 30
0.0
 42
-0.2360679770209483
  0
VERTEX
  5
DB5
  8
SAPA_BESLAG
 10
95.483663494258977
 20
46.800000001847749
 30
0.0
 42
0.2360679770747184
  0
VERTEX
  5
DB6
  8
SAPA_BESLAG
 10
95.083663494701398
 20
47.000000001122046
 30
0.0
  0
VERTEX
  5
DB7
  8
SAPA_BESLAG
 10
87.999999999560345
 20
46.999999999689607
 30
0.0
 42
0.4142135623134248
  0
VERTEX
  5
DB8
  8
SAPA_BESLAG
 10
87.499999999662194
 20
46.499999999689607
 30
0.0
  0
VERTEX
  5
DB9
  8
SAPA_BESLAG
 10
87.499999999676731
 20
44.100000002683572
 30
0.0
 42
0.4142135623730951
  0
VERTEX
  5
DBA
  8
SAPA_BESLAG
 10
87.999999999676717
 20
43.600000002683558
 30
0.0
  0
VERTEX
  5
DBB
  8
SAPA_BESLAG
 10
96.000000001117371
 20
43.600000002684467
 30
0.0
 42
-0.4142135623730951
  0
VERTEX
  5
DBC
  8
SAPA_BESLAG
 10
97.500000001117385
 20
42.100000002684467
 30
0.0
  0
VERTEX
  5
DBD
  8
SAPA_BESLAG
 10
97.500000001131923
 20
38.846410164153639
 30
0.0
  0
VERTEX
  5
DBE
  8
SAPA_BESLAG
 10
97.700000001099909
 20
38.500000002685013
 30
0.0
  0
VERTEX
  5
DBF
  8
SAPA_BESLAG
 10
97.500000001117385
 20
38.153589841166387
 30
0.0
  0
VERTEX
  5
DC0
  8
SAPA_BESLAG
 10
97.500000001131923
 20
36.846410164171367
 30
0.0
  0
VERTEX
  5
DC1
  8
SAPA_BESLAG
 10
97.700000001099909
 20
36.500000002683208
 30
0.0
  0
VERTEX
  5
DC2
  8
SAPA_BESLAG
 10
97.500000001117385
 20
36.153589841164568
 30
0.0
  0
SEQEND
  5
DC3
  8
SAPA_BESLAG
  0
POLYLINE
  5
85C
  8
SAPA_BESLAG
 66
     1
 10
0.0
 20
0.0
 30
0.0
  0
VERTEX
  5
DC4
  8
SAPA_BESLAG
 10
102.79999998578251
 20
28.000000002376702
 30
0.0
  0
VERTEX
  5
DC5
  8
SAPA_BESLAG
 10
102.79999998578251
 20
50.350000002367949
 30
0.0
  0
SEQEND
  5
DC6
  8
SAPA_BESLAG
  0
POLYLINE
  5
85D
  8
SAPA_BESLAG
 66
     1
 10
0.0
 20
0.0
 30
0.0
  0
VERTEX
  5
DC7
  8
SAPA_BESLAG
 10
115.1999999857767
 20
50.350000002383489
 30
0.0
  0
VERTEX
  5
DC8
  8
SAPA_BESLAG
 10
115.1999999857767
 20
28.000000002376702
 30
0.0
  0
SEQEND
  5
DC9
  8
SAPA_BESLAG
  0
POLYLINE
  5
85E
  8
SAPA_BESLAG
 66
     1
 10
0.0
 20
0.0
 30
0.0
  0
VERTEX
  5
DCA
  8
SAPA_BESLAG
 10
103.0000000013502
 20
50.350000002368212
 30
0.0
  0
VERTEX
  5
DCB
  8
SAPA_BESLAG
 10
103.0000000013502
 20
22.750000002376709
 30
0.0
  0
VERTEX
  5
DCC
  8
SAPA_BESLAG
 10
103.2500000013502
 20
22.50000000236852
 30
0.0
  0
VERTEX
  5
DCD
  8
SAPA_BESLAG
 10
103.2500000013502
 20
50.35000000236851
 30
0.0
  0
SEQEND
  5
DCE
  8
SAPA_BESLAG
  0
POLYLINE
  5
85F
  8
SAPA_BESLAG
 66
     1
 10
0.0
 20
0.0
 30
0.0
  0
VERTEX
  5
DCF
  8
SAPA_BESLAG
 10
114.7500000013502
 20
50.35000000238292
 30
0.0
  0
VERTEX
  5
DD0
  8
SAPA_BESLAG
 10
114.7500000013502
 20
22.50000000236852
 30
0.0
  0
VERTEX
  5
DD1
  8
SAPA_BESLAG
 10
115.0000000013647
 20
22.750000002376709
 30
0.0
  0
VERTEX
  5
DD2
  8
SAPA_BESLAG
 10
115.00000000135201
 20
50.350000002383261
 30
0.0
  0
SEQEND
  5
DD3
  8
SAPA_BESLAG
  0
POLYLINE
  5
860
  8
SAPA_BESLAG
 66
     1
 10
0.0
 20
0.0
 30
0.0
  0
VERTEX
  5
DD4
  8
SAPA_BESLAG
 10
103.2500000013502
 20
22.50000000236852
 30
0.0
  0
VERTEX
  5
DD5
  8
SAPA_BESLAG
 10
106.7196491511562
 20
22.500000002372872
 30
0.0
 42
-0.4385290096522839
  0
VERTEX
  5
DD6
  8
SAPA_BESLAG
 10
111.2803508515441
 20
22.500000002372872
 30
0.0
  0
VERTEX
  5
DD7
  8
SAPA_BESLAG
 10
114.7500000013502
 20
22.50000000236761
 30
0.0
  0
SEQEND
  5
DD8
  8
SAPA_BESLAG
  0
LINE
  5
861
  8
SAPA_BESLAG
 10
102.79999998578251
 20
50.350000002367949
 30
0.0
 11
115.1999999857767
 21
50.350000002383489
 31
0.0
  0
LINE
  5
9C2
  8
SAPA_ANSLUTNING
 10
4.0000000000002336
 20
60.000000000015881
 30
0.0
 11
-36.491479059085229
 21
60.000000000015881
 31
0.0
  0
LINE
  5
9C3
  8
SAPA_ANSLUTNING
 10
4.0000000000002336
 20
30.99999999999989
 30
0.0
 11
-36.491479059085229
 21
30.99999999999989
 31
0.0
1001
GENIUS_GENREC_14
1002
{
1000
PYDIR
1011
-38.500000036128867
1021
0.0
1031
0.0
1021
30.99999999999989
1031
0.0
1002
}
1002
{
1000
PXDIR
1011
31.999999999992959
1021
0.0
1031
0.0
1021
-70.000000000000085
1031
0.0
1002
}
1002
{
1000
PORI
1011
-33.500000036128867
1021
0.0
1031
0.0
1021
-70.000000000000085
1031
0.0
1002
}
1002
{
1000
PINS
1011
-33.500000036128867
1021
0.0
1031
0.0
1021
-70.000000000000085
1031
0.0
1002
}
1002
{
1000
PINS2
1011
3.9999999999785061
1021
0.0
1031
0.0
1021
30.99999999999989
1031
0.0
1002
}
1002
{
1000
C
1070
     1
1002
}
1001
GENIUS_GENOBJ-N-REC_13
1002
{
1000
OWNER
1000
GEN
1002
}
1001
GENIUS_GENODEF_13
1002
{
1000
HIER
1070
     0
1002
}
1002
{
1000
MANEDIT
1070
     0
1002
}
1002
{
1000
NOSEL
1070
     0
1002
}
1002
{
1000
BEHIND
1070
     0
1002
}
1002
{
1000
OTHER
1070
     0
1002
}
1002
{
1000
REACTOR
1002
}
  0
INSERT
  5
9C4
  8
SAPA_ANSLUTNING
  6
CONTINUOUS
  2
*X33
 10
0.0
 20
0.0
 30
0.0
1001
ACAD
1000
HATCH
1002
{
1070
    19
1000
ANSI37
1040
0.25
1040
0.0
1000
R14_HATCH_DATA
1000
9C4
1011
1.0
1021
0.0
1031
0.0
1021
0.0
1031
0.0
1011
0.0
1021
0.0
1031
0.0
1021
1.0
1031
0.0
1011
0.0
1021
0.0
1031
0.0
1021
0.0
1031
1.0
1040
0.0
1010
0.0
1020
0.0
1030
1.0
1000
ANSI37
1070
     0
1070
     0
1071
        1
1071
        5
1071
        6
1070
     2
1040
137.49999992774141
1040
58.50000000001495
1040
1.4999999999999989
1040
5.49778714378209
1040
6.2831853071795569
1070
     0
1070
     1
1040
138.99999992774141
1040
58.500000000014978
1040
138.9999999277413
1040
47.66334876332445
1070
     3
1040
143.99999992774141
1040
47.663348763324137
1040
0.0
1040
-5.6210574168242138
1040
0.8895123513655372
1040
1.5707963267948959
1040
2.144309431217978
1070
     0
1070
     3
1040
143.99999992774141
1040
47.663348763324137
1040
0.0
1040
-5.6210574168242138
1040
0.8895123513655372
1040
2.144309431217978
1040
4.7123889803846888
1070
     0
1070
     1
1040
148.99999992774141
1040
47.663348763324791
1040
148.99999992774141
1040
60.0
1070
     2
1040
142.9021675165699
1040
80.646721299902396
1040
21.528368738726542
1040
1.2836189008757071
1040
1.773853352005716
1070
     0
1071
        0
1070
     0
1070
     1
1040
0.0
1040
0.25
1070
     0
1070
     2
1040
0.7853981633974483
1040
0.0000000000001634
1040
0.0000000000149782
1040
-0.5612660075668221
1040
0.5612660075668221
1070
     0
1040
2.3561944901923439
1040
0.0000000000001634
1040
0.0000000000149782
1040
-0.5612660075668221
1040
-0.5612660075668221
1070
     0
1040
0.0591690278051155
1071
        1
1040
142.99867634698981
1040
56.420364712940881
1040
0.0
1002
}
  0
LINE
  5
9C5
  8
SAPA_ANSLUTNING
 10
4.0000000000002771
 20
-70.000000000005429
 30
0.0
 11
148.99999992774141
 21
-70.000000000005429
 31
0.0
  0
LINE
  5
9C6
  8
SAPA_ANSLUTNING
 10
4.00000000000027
 20
-111.29283270961361
 30
0.0
 11
4.0000000000002913
 21
60.00000000001603
 31
0.0
  0
POLYLINE
  5
9C7
  8
SAPA_ANSLUTNING
 66
     1
 10
0.0
 20
0.0
 30
0.0
 70
     1
  0
VERTEX
  5
E10
  8
SAPA_ANSLUTNING
 10
69.75
 20
-67.000000000005414
 30
0.0
 42
-0.4142135623730951
  0
VERTEX
  5
E11
  8
SAPA_ANSLUTNING
 10
71.75
 20
-69.000000000005429
 30
0.0
  0
VERTEX
  5
E12
  8
SAPA_ANSLUTNING
 10
71.75
 20
-70.000000000005429
 30
0.0
  0
VERTEX
  5
E13
  8
SAPA_ANSLUTNING
 10
16.750000000000099
 20
-70.000000000005429
 30
0.0
  0
VERTEX
  5
E14
  8
SAPA_ANSLUTNING
 10
16.749999999999989
 20
-10.00000000000543
 30
0.0
  0
VERTEX
  5
E15
  8
SAPA_ANSLUTNING
 10
17.749999999999989
 20
-10.00000000000543
 30
0.0
 42
-0.4142135623730951
  0
VERTEX
  5
E16
  8
SAPA_ANSLUTNING
 10
19.749999999999989
 20
-12.00000000000543
 30
0.0
  0
VERTEX
  5
E17
  8
SAPA_ANSLUTNING
 10
19.75000000000011
 20
-65.000000000005429
 30
0.0
 42
0.4142135623730951
  0
VERTEX
  5
E18
  8
SAPA_ANSLUTNING
 10
21.75000000000011
 20
-67.000000000005414
 30
0.0
  0
SEQEND
  5
E19
  8
SAPA_ANSLUTNING
  0
POLYLINE
  5
9C8
  8
SAPA_ANSLUTNING
 66
     1
 10
0.0
 20
0.0
 30
0.0
 70
     1
1001
GENIUS_GENOREF_13
1005
0
  0
VERTEX
  5
E1A
  8
SAPA_ANSLUTNING
 10
133.24999992774141
 20
-12.00000000000543
 30
0.0
  0
VERTEX
  5
E1B
  8
SAPA_ANSLUTNING
 10
133.24999992774141
 20
-65.000000000005429
 30
0.0
 42
-0.4142135623730951
  0
VERTEX
  5
E1C
  8
SAPA_ANSLUTNING
 10
131.24999992774141
 20
-67.000000000005414
 30
0.0
  0
VERTEX
  5
E1D
  8
SAPA_ANSLUTNING
 10
83.249999927741428
 20
-67.000000000005414
 30
0.0
 42
0.4142135623730951
  0
VERTEX
  5
E1E
  8
SAPA_ANSLUTNING
 10
81.249999927741442
 20
-69.000000000005429
 30
0.0
  0
VERTEX
  5
E1F
  8
SAPA_ANSLUTNING
 10
81.249999927741442
 20
-70.000000000005429
 30
0.0
  0
VERTEX
  5
E20
  8
SAPA_ANSLUTNING
 10
136.24999992774141
 20
-70.000000000005429
 30
0.0
  0
VERTEX
  5
E21
  8
SAPA_ANSLUTNING
 10
136.24999992774141
 20
-10.00000000000543
 30
0.0
  0
VERTEX
  5
E22
  8
SAPA_ANSLUTNING
 10
135.24999992774141
 20
-10.00000000000543
 30
0.0
 42
0.4142135623730951
  0
SEQEND
  5
E23
  8
SAPA_ANSLUTNING
  0
LINE
  5
9C9
  8
SAPA_ANSLUTNING
 10
148.99999992774141
 20
60.0
 30
0.0
 11
194.0032559343997
 21
60.000000000000028
 31
0.0
  0
LINE
  5
9CA
  8
SAPA_ANSLUTNING
 10
194.00325593439959
 20
31.0
 30
0.0
 11
148.9999999277413
 21
31.000000000000028
 31
0.0
  0
LINE
  5
9CB
  8
SAPA_ANSLUTNING
 10
148.99999992774141
 20
-70.000000000005429
 30
0.0
 11
148.99999992774141
 21
60.0
 31
0.0
  0
ARC
  5
9CC
  8
SAPA_ANSLUTNING
 10
142.9021675165699
 20
80.646721299902538
 30
0.0
 40
21.52836873872667
 50
258.3656894549398
 51
286.45405447659971
  0
INSERT
  5
9CD
  8
SAPA_ANSLUTNING
  6
CONTINUOUS
  2
*X34
 10
0.0
 20
0.0
 30
0.0
1001
ACAD
1000
HATCH
1002
{
1070
    19
1000
HEX
1040
0.25
1040
0.0
1000
ASC_BOUNDS
1070
     1
1070
     1
1070
     1
1005
9CE
1000
ASC_SEEDPOINT
1011
144.242109937816
1021
0.0
1031
0.0
1021
47.781686452380853
1031
0.0
1000
R14_HATCH_DATA
1000
9CD
1011
1.0
1021
0.0
1031
0.0
1021
0.0
1031
0.0
1011
0.0
1021
0.0
1031
0.0
1021
1.0
1031
0.0
1011
0.0
1021
0.0
1031
0.0
1021
0.0
1031
1.0
1040
0.0
1010
0.0
1020
0.0
1030
1.0
1000
HEX
1070
     0
1070
     1
1071
        1
1071
        5
1071
        1
1070
     3
1040
143.99999992774141
1040
47.663348763324137
1040
0.0
1040
-5.6210574168242138
1040
0.8895123513655372
1040
0.0
1040
6.2831853071795862
1070
     1
1071
        1
1005
9CE
1070
     0
1070
     1
1040
0.0
1040
0.25
1070
     0
1070
     3
1040
0.0
1040
0.0000000000001634
1040
0.0000000000149782
1040
0.0
1040
1.374814999999999
1070
     2
1040
0.79375
1040
-1.587499999999999
1040
2.0943951023931948
1040
0.0000000000001634
1040
0.0000000000149782
1040
-1.190624715503902
1040
-0.6874074999999996
1070
     2
1040
0.7937499999999989
1040
-1.587499999999997
1040
1.047197551196597
1040
0.7937500000001521
1040
0.0000000000149782
1040
-1.190624715503902
1040
0.6874075000000001
1070
     2
1040
0.79375
1040
-1.587499999999999
1040
0.0591690278051155
1071
        1
1040
144.242109937816
1040
47.781686452380853
1040
0.0
1002
}
  0
POLYLINE
  5
9CE
  8
SAPA_ANSLUTNING
 10
143.99999992774141
 20
42.042291346499923
 30
0.0
 66
     1
 70
     8
  0
VERTEX
  8
SAPA_ANSLUTNING
  5
1767
 10
144.000
 20
42.0423
 30
0.000000
  70
    32
  0
VERTEX
  8
SAPA_ANSLUTNING
  5
1768
 10
144.245
 20
42.0491
 30
0.000000
  70
    32
  0
VERTEX
  8
SAPA_ANSLUTNING
  5
1769
 10
144.490
 20
42.0694
 30
0.000000
  70
    32
  0
VERTEX
  8
SAPA_ANSLUTNING
  5
176A
 10
144.734
 20
42.1031
 30
0.000000
  70
    32
  0
VERTEX
  8
SAPA_ANSLUTNING
  5
176B
 10
144.975
 20
42.1503
 30
0.000000
  70
    32
  0
VERTEX
  8
SAPA_ANSLUTNING
  5
176C
 10
145.215
 20
42.2107
 30
0.000000
  70
    32
  0
VERTEX
  8
SAPA_ANSLUTNING
  5
176D
 10
145.451
 20
42.2843
 30
0.000000
  70
    32
  0
VERTEX
  8
SAPA_ANSLUTNING
  5
176E
 10
145.684
 20
42.3709
 30
0.000000
  70
    32
  0
VERTEX
  8
SAPA_ANSLUTNING
  5
176F
 10
145.913
 20
42.4702
 30
0.000000
  70
    32
  0
VERTEX
  8
SAPA_ANSLUTNING
  5
1770
 10
146.138
 20
42.5820
 30
0.000000
  70
    32
  0
VERTEX
  8
SAPA_ANSLUTNING
  5
1771
 10
146.357
 20
42.7060
 30
0.000000
  70
    32
  0
VERTEX
  8
SAPA_ANSLUTNING
  5
1772
 10
146.571
 20
42.8420
 30
0.000000
  70
    32
  0
VERTEX
  8
SAPA_ANSLUTNING
  5
1773
 10
146.778
 20
42.9896
 30
0.000000
  70
    32
  0
VERTEX
  8
SAPA_ANSLUTNING
  5
1774
 10
146.978
 20
43.1485
 30
0.000000
  70
    32
  0
VERTEX
  8
SAPA_ANSLUTNING
  5
1775
 10
147.172
 20
43.3182
 30
0.000000
  70
    32
  0
VERTEX
  8
SAPA_ANSLUTNING
  5
1776
 10
147.358
 20
43.4984
 30
0.000000
  70
    32
  0
VERTEX
  8
SAPA_ANSLUTNING
  5
1777
 10
147.536
 20
43.6887
 30
0.000000
  70
    32
  0
VERTEX
  8
SAPA_ANSLUTNING
  5
1778
 10
147.705
 20
43.8885
 30
0.000000
  70
    32
  0
VERTEX
  8
SAPA_ANSLUTNING
  5
1779
 10
147.865
 20
44.0974
 30
0.000000
  70
    32
  0
VERTEX
  8
SAPA_ANSLUTNING
  5
177A
 10
148.016
 20
44.3149
 30
0.000000
  70
    32
  0
VERTEX
  8
SAPA_ANSLUTNING
  5
177B
 10
148.157
 20
44.5405
 30
0.000000
  70
    32
  0
VERTEX
  8
SAPA_ANSLUTNING
  5
177C
 10
148.289
 20
44.7735
 30
0.000000
  70
    32
  0
VERTEX
  8
SAPA_ANSLUTNING
  5
177D
 10
148.410
 20
45.0136
 30
0.000000
  70
    32
  0
VERTEX
  8
SAPA_ANSLUTNING
  5
177E
 10
148.520
 20
45.2600
 30
0.000000
  70
    32
  0
VERTEX
  8
SAPA_ANSLUTNING
  5
177F
 10
148.619
 20
45.5123
 30
0.000000
  70
    32
  0
VERTEX
  8
SAPA_ANSLUTNING
  5
1780
 10
148.708
 20
45.7697
 30
0.000000
  70
    32
  0
VERTEX
  8
SAPA_ANSLUTNING
  5
1781
 10
148.785
 20
46.0316
 30
0.000000
  70
    32
  0
VERTEX
  8
SAPA_ANSLUTNING
  5
1782
 10
148.850
 20
46.2975
 30
0.000000
  70
    32
  0
VERTEX
  8
SAPA_ANSLUTNING
  5
1783
 10
148.904
 20
46.5667
 30
0.000000
  70
    32
  0
VERTEX
  8
SAPA_ANSLUTNING
  5
1784
 10
148.946
 20
46.8386
 30
0.000000
  70
    32
  0
VERTEX
  8
SAPA_ANSLUTNING
  5
1785
 10
148.976
 20
47.1124
 30
0.000000
  70
    32
  0
VERTEX
  8
SAPA_ANSLUTNING
  5
1786
 10
148.994
 20
47.3875
 30
0.000000
  70
    32
  0
VERTEX
  8
SAPA_ANSLUTNING
  5
1787
 10
149.000
 20
47.6633
 30
0.000000
  70
    32
  0
VERTEX
  8
SAPA_ANSLUTNING
  5
1788
 10
148.994
 20
47.9392
 30
0.000000
  70
    32
  0
VERTEX
  8
SAPA_ANSLUTNING
  5
1789
 10
148.976
 20
48.2143
 30
0.000000
  70
    32
  0
VERTEX
  8
SAPA_ANSLUTNING
  5
178A
 10
148.946
 20
48.4881
 30
0.000000
  70
    32
  0
VERTEX
  8
SAPA_ANSLUTNING
  5
178B
 10
148.904
 20
48.7600
 30
0.000000
  70
    32
  0
VERTEX
  8
SAPA_ANSLUTNING
  5
178C
 10
148.850
 20
49.0292
 30
0.000000
  70
    32
  0
VERTEX
  8
SAPA_ANSLUTNING
  5
178D
 10
148.785
 20
49.2951
 30
0.000000
  70
    32
  0
VERTEX
  8
SAPA_ANSLUTNING
  5
178E
 10
148.708
 20
49.5570
 30
0.000000
  70
    32
  0
VERTEX
  8
SAPA_ANSLUTNING
  5
178F
 10
148.619
 20
49.8144
 30
0.000000
  70
    32
  0
VERTEX
  8
SAPA_ANSLUTNING
  5
1790
 10
148.520
 20
50.0667
 30
0.000000
  70
    32
  0
VERTEX
  8
SAPA_ANSLUTNING
  5
1791
 10
148.410
 20
50.3131
 30
0.000000
  70
    32
  0
VERTEX
  8
SAPA_ANSLUTNING
  5
1792
 10
148.289
 20
50.5531
 30
0.000000
  70
    32
  0
VERTEX
  8
SAPA_ANSLUTNING
  5
1793
 10
148.157
 20
50.7862
 30
0.000000
  70
    32
  0
VERTEX
  8
SAPA_ANSLUTNING
  5
1794
 10
148.016
 20
51.0118
 30
0.000000
  70
    32
  0
VERTEX
  8
SAPA_ANSLUTNING
  5
1795
 10
147.865
 20
51.2293
 30
0.000000
  70
    32
  0
VERTEX
  8
SAPA_ANSLUTNING
  5
1796
 10
147.705
 20
51.4382
 30
0.000000
  70
    32
  0
VERTEX
  8
SAPA_ANSLUTNING
  5
1797
 10
147.536
 20
51.6380
 30
0.000000
  70
    32
  0
VERTEX
  8
SAPA_ANSLUTNING
  5
1798
 10
147.358
 20
51.8283
 30
0.000000
  70
    32
  0
VERTEX
  8
SAPA_ANSLUTNING
  5
1799
 10
147.172
 20
52.0085
 30
0.000000
  70
    32
  0
VERTEX
  8
SAPA_ANSLUTNING
  5
179A
 10
146.978
 20
52.1782
 30
0.000000
  70
    32
  0
VERTEX
  8
SAPA_ANSLUTNING
  5
179B
 10
146.778
 20
52.3371
 30
0.000000
  70
    32
  0
VERTEX
  8
SAPA_ANSLUTNING
  5
179C
 10
146.571
 20
52.4847
 30
0.000000
  70
    32
  0
VERTEX
  8
SAPA_ANSLUTNING
  5
179D
 10
146.357
 20
52.6207
 30
0.000000
  70
    32
  0
VERTEX
  8
SAPA_ANSLUTNING
  5
179E
 10
146.138
 20
52.7447
 30
0.000000
  70
    32
  0
VERTEX
  8
SAPA_ANSLUTNING
  5
179F
 10
145.913
 20
52.8565
 30
0.000000
  70
    32
  0
VERTEX
  8
SAPA_ANSLUTNING
  5
17A0
 10
145.684
 20
52.9558
 30
0.000000
  70
    32
  0
VERTEX
  8
SAPA_ANSLUTNING
  5
17A1
 10
145.451
 20
53.0424
 30
0.000000
  70
    32
  0
VERTEX
  8
SAPA_ANSLUTNING
  5
17A2
 10
145.215
 20
53.1160
 30
0.000000
  70
    32
  0
VERTEX
  8
SAPA_ANSLUTNING
  5
17A3
 10
144.975
 20
53.1764
 30
0.000000
  70
    32
  0
VERTEX
  8
SAPA_ANSLUTNING
  5
17A4
 10
144.734
 20
53.2236
 30
0.000000
  70
    32
  0
VERTEX
  8
SAPA_ANSLUTNING
  5
17A5
 10
144.490
 20
53.2573
 30
0.000000
  70
    32
  0
VERTEX
  8
SAPA_ANSLUTNING
  5
17A6
 10
144.245
 20
53.2776
 30
0.000000
  70
    32
  0
VERTEX
  8
SAPA_ANSLUTNING
  5
17A7
 10
144.000
 20
53.2844
 30
0.000000
  70
    32
  0
VERTEX
  8
SAPA_ANSLUTNING
  5
17A8
 10
143.755
 20
53.2776
 30
0.000000
  70
    32
  0
VERTEX
  8
SAPA_ANSLUTNING
  5
17A9
 10
143.510
 20
53.2573
 30
0.000000
  70
    32
  0
VERTEX
  8
SAPA_ANSLUTNING
  5
17AA
 10
143.266
 20
53.2236
 30
0.000000
  70
    32
  0
VERTEX
  8
SAPA_ANSLUTNING
  5
17AB
 10
143.025
 20
53.1764
 30
0.000000
  70
    32
  0
VERTEX
  8
SAPA_ANSLUTNING
  5
17AC
 10
142.785
 20
53.1160
 30
0.000000
  70
    32
  0
VERTEX
  8
SAPA_ANSLUTNING
  5
17AD
 10
142.549
 20
53.0424
 30
0.000000
  70
    32
  0
VERTEX
  8
SAPA_ANSLUTNING
  5
17AE
 10
142.316
 20
52.9558
 30
0.000000
  70
    32
  0
VERTEX
  8
SAPA_ANSLUTNING
  5
17AF
 10
142.087
 20
52.8565
 30
0.000000
  70
    32
  0
VERTEX
  8
SAPA_ANSLUTNING
  5
17B0
 10
141.862
 20
52.7447
 30
0.000000
  70
    32
  0
VERTEX
  8
SAPA_ANSLUTNING
  5
17B1
 10
141.643
 20
52.6207
 30
0.000000
  70
    32
  0
VERTEX
  8
SAPA_ANSLUTNING
  5
17B2
 10
141.429
 20
52.4847
 30
0.000000
  70
    32
  0
VERTEX
  8
SAPA_ANSLUTNING
  5
17B3
 10
141.222
 20
52.3371
 30
0.000000
  70
    32
  0
VERTEX
  8
SAPA_ANSLUTNING
  5
17B4
 10
141.022
 20
52.1782
 30
0.000000
  70
    32
  0
VERTEX
  8
SAPA_ANSLUTNING
  5
17B5
 10
140.828
 20
52.0085
 30
0.000000
  70
    32
  0
VERTEX
  8
SAPA_ANSLUTNING
  5
17B6
 10
140.642
 20
51.8283
 30
0.000000
  70
    32
  0
VERTEX
  8
SAPA_ANSLUTNING
  5
17B7
 10
140.464
 20
51.6380
 30
0.000000
  70
    32
  0
VERTEX
  8
SAPA_ANSLUTNING
  5
17B8
 10
140.295
 20
51.4382
 30
0.000000
  70
    32
  0
VERTEX
  8
SAPA_ANSLUTNING
  5
17B9
 10
140.135
 20
51.2293
 30
0.000000
  70
    32
  0
VERTEX
  8
SAPA_ANSLUTNING
  5
17BA
 10
139.984
 20
51.0118
 30
0.000000
  70
    32
  0
VERTEX
  8
SAPA_ANSLUTNING
  5
17BB
 10
139.843
 20
50.7862
 30
0.000000
  70
    32
  0
VERTEX
  8
SAPA_ANSLUTNING
  5
17BC
 10
139.711
 20
50.5531
 30
0.000000
  70
    32
  0
VERTEX
  8
SAPA_ANSLUTNING
  5
17BD
 10
139.590
 20
50.3131
 30
0.000000
  70
    32
  0
VERTEX
  8
SAPA_ANSLUTNING
  5
17BE
 10
139.480
 20
50.0667
 30
0.000000
  70
    32
  0
VERTEX
  8
SAPA_ANSLUTNING
  5
17BF
 10
139.381
 20
49.8144
 30
0.000000
  70
    32
  0
VERTEX
  8
SAPA_ANSLUTNING
  5
17C0
 10
139.292
 20
49.5570
 30
0.000000
  70
    32
  0
VERTEX
  8
SAPA_ANSLUTNING
  5
17C1
 10
139.215
 20
49.2951
 30
0.000000
  70
    32
  0
VERTEX
  8
SAPA_ANSLUTNING
  5
17C2
 10
139.150
 20
49.0292
 30
0.000000
  70
    32
  0
VERTEX
  8
SAPA_ANSLUTNING
  5
17C3
 10
139.096
 20
48.7600
 30
0.000000
  70
    32
  0
VERTEX
  8
SAPA_ANSLUTNING
  5
17C4
 10
139.054
 20
48.4881
 30
0.000000
  70
    32
  0
VERTEX
  8
SAPA_ANSLUTNING
  5
17C5
 10
139.024
 20
48.2143
 30
0.000000
  70
    32
  0
VERTEX
  8
SAPA_ANSLUTNING
  5
17C6
 10
139.006
 20
47.9392
 30
0.000000
  70
    32
  0
VERTEX
  8
SAPA_ANSLUTNING
  5
17C7
 10
139.000
 20
47.6633
 30
0.000000
  70
    32
  0
VERTEX
  8
SAPA_ANSLUTNING
  5
17C8
 10
139.006
 20
47.3875
 30
0.000000
  70
    32
  0
VERTEX
  8
SAPA_ANSLUTNING
  5
17C9
 10
139.024
 20
47.1124
 30
0.000000
  70
    32
  0
VERTEX
  8
SAPA_ANSLUTNING
  5
17CA
 10
139.054
 20
46.8386
 30
0.000000
  70
    32
  0
VERTEX
  8
SAPA_ANSLUTNING
  5
17CB
 10
139.096
 20
46.5667
 30
0.000000
  70
    32
  0
VERTEX
  8
SAPA_ANSLUTNING
  5
17CC
 10
139.150
 20
46.2975
 30
0.000000
  70
    32
  0
VERTEX
  8
SAPA_ANSLUTNING
  5
17CD
 10
139.215
 20
46.0316
 30
0.000000
  70
    32
  0
VERTEX
  8
SAPA_ANSLUTNING
  5
17CE
 10
139.292
 20
45.7697
 30
0.000000
  70
    32
  0
VERTEX
  8
SAPA_ANSLUTNING
  5
17CF
 10
139.381
 20
45.5123
 30
0.000000
  70
    32
  0
VERTEX
  8
SAPA_ANSLUTNING
  5
17D0
 10
139.480
 20
45.2600
 30
0.000000
  70
    32
  0
VERTEX
  8
SAPA_ANSLUTNING
  5
17D1
 10
139.590
 20
45.0136
 30
0.000000
  70
    32
  0
VERTEX
  8
SAPA_ANSLUTNING
  5
17D2
 10
139.711
 20
44.7735
 30
0.000000
  70
    32
  0
VERTEX
  8
SAPA_ANSLUTNING
  5
17D3
 10
139.843
 20
44.5405
 30
0.000000
  70
    32
  0
VERTEX
  8
SAPA_ANSLUTNING
  5
17D4
 10
139.984
 20
44.3149
 30
0.000000
  70
    32
  0
VERTEX
  8
SAPA_ANSLUTNING
  5
17D5
 10
140.135
 20
44.0974
 30
0.000000
  70
    32
  0
VERTEX
  8
SAPA_ANSLUTNING
  5
17D6
 10
140.295
 20
43.8885
 30
0.000000
  70
    32
  0
VERTEX
  8
SAPA_ANSLUTNING
  5
17D7
 10
140.464
 20
43.6887
 30
0.000000
  70
    32
  0
VERTEX
  8
SAPA_ANSLUTNING
  5
17D8
 10
140.642
 20
43.4984
 30
0.000000
  70
    32
  0
VERTEX
  8
SAPA_ANSLUTNING
  5
17D9
 10
140.828
 20
43.3182
 30
0.000000
  70
    32
  0
VERTEX
  8
SAPA_ANSLUTNING
  5
17DA
 10
141.022
 20
43.1485
 30
0.000000
  70
    32
  0
VERTEX
  8
SAPA_ANSLUTNING
  5
17DB
 10
141.222
 20
42.9896
 30
0.000000
  70
    32
  0
VERTEX
  8
SAPA_ANSLUTNING
  5
17DC
 10
141.429
 20
42.8420
 30
0.000000
  70
    32
  0
VERTEX
  8
SAPA_ANSLUTNING
  5
17DD
 10
141.643
 20
42.7060
 30
0.000000
  70
    32
  0
VERTEX
  8
SAPA_ANSLUTNING
  5
17DE
 10
141.862
 20
42.5820
 30
0.000000
  70
    32
  0
VERTEX
  8
SAPA_ANSLUTNING
  5
17DF
 10
142.087
 20
42.4702
 30
0.000000
  70
    32
  0
VERTEX
  8
SAPA_ANSLUTNING
  5
17E0
 10
142.316
 20
42.3709
 30
0.000000
  70
    32
  0
VERTEX
  8
SAPA_ANSLUTNING
  5
17E1
 10
142.549
 20
42.2843
 30
0.000000
  70
    32
  0
VERTEX
  8
SAPA_ANSLUTNING
  5
17E2
 10
142.785
 20
42.2107
 30
0.000000
  70
    32
  0
VERTEX
  8
SAPA_ANSLUTNING
  5
17E3
 10
143.025
 20
42.1503
 30
0.000000
  70
    32
  0
VERTEX
  8
SAPA_ANSLUTNING
  5
17E4
 10
143.266
 20
42.1031
 30
0.000000
  70
    32
  0
VERTEX
  8
SAPA_ANSLUTNING
  5
17E5
 10
143.510
 20
42.0694
 30
0.000000
  70
    32
  0
VERTEX
  8
SAPA_ANSLUTNING
  5
17E6
 10
143.755
 20
42.0491
 30
0.000000
  70
    32
  0
VERTEX
  8
SAPA_ANSLUTNING
  5
17E7
 10
144.000
 20
42.0423
 30
0.000000
  70
    32
  0
SEQEND
  8
SAPA_ANSLUTNING
  5
17E8
  0
POLYLINE
  5
9CF
  8
SAPA_ANSLUTNING
 66
     1
 10
0.0
 20
0.0
 30
0.0
  0
VERTEX
  5
E80
  8
SAPA_ANSLUTNING
 10
140.5010714710823
 20
43.64793040945343
 30
0.0
 42
0.8812634091771057
  0
VERTEX
  5
E81
  8
SAPA_ANSLUTNING
 10
140.99999992774141
 20
39.711162381233272
 30
0.0
  0
VERTEX
  5
E82
  8
SAPA_ANSLUTNING
 10
146.99999992774141
 20
39.711162381233272
 30
0.0
 42
-0.9999999999999998
  0
VERTEX
  5
E83
  8
SAPA_ANSLUTNING
 10
146.99999992774141
 20
35.711162381233272
 30
0.0
  0
VERTEX
  5
E84
  8
SAPA_ANSLUTNING
 10
140.99999992774141
 20
35.711162381233287
 30
0.0
 42
0.9999999999999998
  0
VERTEX
  5
E85
  8
SAPA_ANSLUTNING
 10
140.99999992774141
 20
31.71116238123329
 30
0.0
  0
VERTEX
  5
E86
  8
SAPA_ANSLUTNING
 10
146.99999992774141
 20
31.711162381233269
 30
0.0
 42
-0.9999999999999998
  0
VERTEX
  5
E87
  8
SAPA_ANSLUTNING
 10
146.99999992774141
 20
27.711162381233262
 30
0.0
  0
VERTEX
  5
E88
  8
SAPA_ANSLUTNING
 10
140.99999992774141
 20
27.711162381233301
 30
0.0
 42
0.9999999999999998
  0
VERTEX
  5
E89
  8
SAPA_ANSLUTNING
 10
140.99999992774141
 20
23.71116238123329
 30
0.0
  0
VERTEX
  5
E8A
  8
SAPA_ANSLUTNING
 10
146.99999992774141
 20
23.711162381233269
 30
0.0
 42
-0.9999999999999998
  0
VERTEX
  5
E8B
  8
SAPA_ANSLUTNING
 10
146.99999992774141
 20
19.711162381233262
 30
0.0
  0
VERTEX
  5
E8C
  8
SAPA_ANSLUTNING
 10
140.99999992774141
 20
19.71116238123329
 30
0.0
 42
0.9999999999999998
  0
VERTEX
  5
E8D
  8
SAPA_ANSLUTNING
 10
140.99999992774141
 20
15.71116238123329
 30
0.0
  0
VERTEX
  5
E8E
  8
SAPA_ANSLUTNING
 10
146.99999992774141
 20
15.71116238123326
 30
0.0
 42
-0.9999999999999998
  0
VERTEX
  5
E8F
  8
SAPA_ANSLUTNING
 10
146.99999992774141
 20
11.71116238123326
 30
0.0
  0
VERTEX
  5
E90
  8
SAPA_ANSLUTNING
 10
140.99999992774141
 20
11.71116238123329
 30
0.0
 42
0.9999999999999998
  0
VERTEX
  5
E91
  8
SAPA_ANSLUTNING
 10
140.99999992774141
 20
7.7111623812332928
 30
0.0
  0
VERTEX
  5
E92
  8
SAPA_ANSLUTNING
 10
146.99999992774141
 20
7.7111623812332653
 30
0.0
 42
-0.9999999999999998
  0
VERTEX
  5
E93
  8
SAPA_ANSLUTNING
 10
146.99999992774141
 20
3.7111623812332648
 30
0.0
  0
VERTEX
  5
E94
  8
SAPA_ANSLUTNING
 10
140.99999992774141
 20
3.7111623812332928
 30
0.0
 42
0.9999999999999998
  0
VERTEX
  5
E95
  8
SAPA_ANSLUTNING
 10
140.99999992774141
 20
-0.2888376187667063
 30
0.0
  0
VERTEX
  5
E96
  8
SAPA_ANSLUTNING
 10
146.99999992774141
 20
-0.2888376187667347
 30
0.0
 42
-0.9999999999999998
  0
VERTEX
  5
E97
  8
SAPA_ANSLUTNING
 10
146.99999992774141
 20
-4.2888376187667339
 30
0.0
  0
VERTEX
  5
E98
  8
SAPA_ANSLUTNING
 10
140.99999992774141
 20
-4.2888376187667063
 30
0.0
 42
0.9999999999999998
  0
VERTEX
  5
E99
  8
SAPA_ANSLUTNING
 10
140.99999992774141
 20
-8.2888376187667063
 30
0.0
  0
VERTEX
  5
E9A
  8
SAPA_ANSLUTNING
 10
146.99999992774141
 20
-8.2888376187667347
 30
0.0
 42
-0.9999999999999998
  0
VERTEX
  5
E9B
  8
SAPA_ANSLUTNING
 10
146.99999992774141
 20
-12.288837618766729
 30
0.0
  0
VERTEX
  5
E9C
  8
SAPA_ANSLUTNING
 10
140.99999992774141
 20
-12.28883761876671
 30
0.0
 42
0.9999999999999998
  0
VERTEX
  5
E9D
  8
SAPA_ANSLUTNING
 10
140.99999992774141
 20
-16.288837618766699
 30
0.0
  0
VERTEX
  5
E9E
  8
SAPA_ANSLUTNING
 10
146.99999992774141
 20
-16.288837618766731
 30
0.0
 42
-0.9999999999999998
  0
VERTEX
  5
E9F
  8
SAPA_ANSLUTNING
 10
146.9999999277413
 20
-20.288837618766738
 30
0.0
  0
VERTEX
  5
EA0
  8
SAPA_ANSLUTNING
 10
140.9999999277413
 20
-20.28883761876671
 30
0.0
 42
0.9999999999999998
  0
VERTEX
  5
EA1
  8
SAPA_ANSLUTNING
 10
140.9999999277413
 20
-24.28883761876671
 30
0.0
  0
VERTEX
  5
EA2
  8
SAPA_ANSLUTNING
 10
146.9999999277413
 20
-24.288837618766738
 30
0.0
 42
-0.9999999999999998
  0
VERTEX
  5
EA3
  8
SAPA_ANSLUTNING
 10
146.9999999277413
 20
-28.288837618766738
 30
0.0
  0
VERTEX
  5
EA4
  8
SAPA_ANSLUTNING
 10
140.9999999277413
 20
-28.28883761876671
 30
0.0
 42
0.9999999999999998
  0
VERTEX
  5
EA5
  8
SAPA_ANSLUTNING
 10
140.9999999277413
 20
-32.288837618766713
 30
0.0
  0
VERTEX
  5
EA6
  8
SAPA_ANSLUTNING
 10
146.9999999277413
 20
-32.288837618766728
 30
0.0
 42
-0.9999999999999998
  0
VERTEX
  5
EA7
  8
SAPA_ANSLUTNING
 10
146.9999999277413
 20
-36.288837618766742
 30
0.0
  0
VERTEX
  5
EA8
  8
SAPA_ANSLUTNING
 10
140.9999999277413
 20
-36.288837618766713
 30
0.0
 42
0.9999999999999998
  0
VERTEX
  5
EA9
  8
SAPA_ANSLUTNING
 10
140.9999999277413
 20
-40.288837618766699
 30
0.0
  0
VERTEX
  5
EAA
  8
SAPA_ANSLUTNING
 10
146.9999999277413
 20
-40.288837618766728
 30
0.0
 42
-0.9999999999999998
  0
VERTEX
  5
EAB
  8
SAPA_ANSLUTNING
 10
146.9999999277413
 20
-44.288837618766728
 30
0.0
  0
VERTEX
  5
EAC
  8
SAPA_ANSLUTNING
 10
140.9999999277413
 20
-44.288837618766699
 30
0.0
 42
0.9999999999999998
  0
VERTEX
  5
EAD
  8
SAPA_ANSLUTNING
 10
140.9999999277413
 20
-48.288837618766713
 30
0.0
  0
VERTEX
  5
EAE
  8
SAPA_ANSLUTNING
 10
146.9999999277413
 20
-48.288837618766742
 30
0.0
 42
-0.9999999999999998
  0
VERTEX
  5
EAF
  8
SAPA_ANSLUTNING
 10
146.9999999277413
 20
-52.288837618766728
 30
0.0
  0
VERTEX
  5
EB0
  8
SAPA_ANSLUTNING
 10
140.9999999277413
 20
-52.288837618766699
 30
0.0
 42
0.9999999999999998
  0
VERTEX
  5
EB1
  8
SAPA_ANSLUTNING
 10
140.9999999277413
 20
-56.288837618766713
 30
0.0
  0
VERTEX
  5
EB2
  8
SAPA_ANSLUTNING
 10
146.9999999277413
 20
-56.288837618766728
 30
0.0
 42
-0.9999999999999998
  0
VERTEX
  5
EB3
  8
SAPA_ANSLUTNING
 10
146.9999999277413
 20
-60.288837618766742
 30
0.0
  0
VERTEX
  5
EB4
  8
SAPA_ANSLUTNING
 10
138.24999992774141
 20
-60.288837618766699
 30
0.0
 42
0.9999999999999998
  0
VERTEX
  5
EB5
  8
SAPA_ANSLUTNING
 10
138.24999992774141
 20
-64.288837618766735
 30
0.0
  0
VERTEX
  5
EB6
  8
SAPA_ANSLUTNING
 10
146.9999999277413
 20
-64.288837618766735
 30
0.0
 42
-0.9999999999999998
  0
VERTEX
  5
EB7
  8
SAPA_ANSLUTNING
 10
146.9999999277413
 20
-68.288837618766735
 30
0.0
  0
VERTEX
  5
EB8
  8
SAPA_ANSLUTNING
 10
138.24999992774141
 20
-68.288837618766735
 30
0.0
 42
0.3723754158642647
  0
VERTEX
  5
EB9
  8
SAPA_ANSLUTNING
 10
136.27096662079879
 20
-70.000000000005429
 30
0.0
  0
SEQEND
  5
EBA
  8
SAPA_ANSLUTNING
  0
POLYLINE
  5
9D0
  8
SAPA_ANSLUTNING
 66
     1
 10
0.0
 20
0.0
 30
0.0
  0
VERTEX
  5
EBB
  8
SAPA_ANSLUTNING
 10
21.094751612380829
 20
-66.889616244249538
 30
0.0
 42
0.4609155493572824
  0
VERTEX
  5
EBC
  8
SAPA_ANSLUTNING
 10
31.49999999971476
 20
-58.000000000007297
 30
0.0
  0
VERTEX
  5
EBD
  8
SAPA_ANSLUTNING
 10
31.49999999971476
 20
-8.9999999999901945
 30
0.0
 42
-0.9999999999999998
  0
VERTEX
  5
EBE
  8
SAPA_ANSLUTNING
 10
49.499999999714753
 20
-8.9999999999901945
 30
0.0
  0
VERTEX
  5
EBF
  8
SAPA_ANSLUTNING
 10
49.499999999714753
 20
-58.000000000007297
 30
0.0
 42
0.9999999999999998
  0
VERTEX
  5
EC0
  8
SAPA_ANSLUTNING
 10
67.49999999971476
 20
-58.000000000007297
 30
0.0
  0
VERTEX
  5
EC1
  8
SAPA_ANSLUTNING
 10
67.49999999971476
 20
-5.8005553174544948
 30
0.0
 42
-0.9999999999999998
  0
VERTEX
  5
EC2
  8
SAPA_ANSLUTNING
 10
85.499999999714873
 20
-5.8005553174544948
 30
0.0
  0
VERTEX
  5
EC3
  8
SAPA_ANSLUTNING
 10
85.499999999714873
 20
-58.000000000007297
 30
0.0
 42
0.9999999999999998
  0
VERTEX
  5
EC4
  8
SAPA_ANSLUTNING
 10
103.4999999997148
 20
-58.000000000007297
 30
0.0
  0
VERTEX
  5
EC5
  8
SAPA_ANSLUTNING
 10
103.4999999997148
 20
-8.9999999999901945
 30
0.0
 42
-0.9999999999999998
  0
VERTEX
  5
EC6
  8
SAPA_ANSLUTNING
 10
121.4999999997149
 20
-8.9999999999901945
 30
0.0
  0
VERTEX
  5
EC7
  8
SAPA_ANSLUTNING
 10
121.4999999997149
 20
-58.000000000007297
 30
0.0
 42
0.4609155448655906
  0
VERTEX
  5
EC8
  8
SAPA_ANSLUTNING
 10
131.90524825531671
 20
-66.889616265073442
 30
0.0
 42
0.4609155448655906
  0
SEQEND
  5
EC9
  8
SAPA_ANSLUTNING
  0
POLYLINE
  5
C16
  8
SAPA_PROFIL
 66
     1
 10
0.0
 20
0.0
 30
0.0
 70
     1
  0
VERTEX
  5
136A
  8
SAPA_PROFIL
 10
122.31226184615269
 20
46.999999999999879
 30
0.0
  0
VERTEX
  5
136B
  8
SAPA_PROFIL
 10
120.2141894904324
 20
46.999999999999879
 30
0.0
 42
-0.6681786379192718
  0
VERTEX
  5
136C
  8
SAPA_PROFIL
 10
119.50708270924591
 20
48.707106781186368
 30
0.0
  0
VERTEX
  5
136D
  8
SAPA_PROFIL
 10
120.8121319624148
 20
50.012156034355549
 30
0.0
 42
-0.1989123673797335
  0
VERTEX
  5
136E
  8
SAPA_PROFIL
 10
121.0242639967709
 20
50.100023999999657
 30
0.0
  0
VERTEX
  5
136F
  8
SAPA_PROFIL
 10
121.61076944351809
 20
50.100023999999522
 30
0.0
 42
-0.1316524975873855
  0
VERTEX
  5
1370
  8
SAPA_PROFIL
 10
121.760769443518
 20
50.059831621134869
 30
0.0
  0
VERTEX
  5
1371
  8
SAPA_PROFIL
 10
123.2499999280589
 20
49.200023999999573
 30
0.0
  0
VERTEX
  5
1372
  8
SAPA_PROFIL
 10
123.6999999280588
 20
49.200011999999901
 30
0.0
 42
0.4142135623731054
  0
VERTEX
  5
1373
  8
SAPA_PROFIL
 10
123.9999999280589
 20
49.500011999999913
 30
0.0
  0
VERTEX
  5
1374
  8
SAPA_PROFIL
 10
123.9999999280588
 20
53.100023999999983
 30
0.0
 42
0.4142135623730951
  0
VERTEX
  5
1375
  8
SAPA_PROFIL
 10
123.6999999280588
 20
53.400023999999974
 30
0.0
  0
VERTEX
  5
1376
  8
SAPA_PROFIL
 10
123.2499999280588
 20
53.400023999999867
 30
0.0
  0
VERTEX
  5
1377
  8
SAPA_PROFIL
 10
121.76073979698459
 20
52.540199262430889
 30
0.0
 42
-0.1316363093594254
  0
VERTEX
  5
1378
  8
SAPA_PROFIL
 10
121.61075889193791
 20
52.500006884173928
 30
0.0
  0
VERTEX
  5
1379
  8
SAPA_PROFIL
 10
121.4999999280588
 20
52.499999834383118
 30
0.0
  0
VERTEX
  5
137A
  8
SAPA_PROFIL
 10
121.4999999280588
 20
54.499999999988972
 30
0.0
 42
-0.4142135623730957
  0
VERTEX
  5
137B
  8
SAPA_PROFIL
 10
121.9999999280588
 20
54.999999999988972
 30
0.0
  0
VERTEX
  5
137C
  8
SAPA_PROFIL
 10
127.2499999266845
 20
54.999999999988972
 30
0.0
 42
-0.4142135623730957
  0
VERTEX
  5
137D
  8
SAPA_PROFIL
 10
127.7499999266844
 20
54.499999999988972
 30
0.0
  0
VERTEX
  5
137E
  8
SAPA_PROFIL
 10
127.7499999266844
 20
53.999999999972879
 30
0.0
 42
-0.4142135623730783
  0
VERTEX
  5
137F
  8
SAPA_PROFIL
 10
127.2499999266845
 20
53.499999999972879
 30
0.0
  0
VERTEX
  5
1380
  8
SAPA_PROFIL
 10
126.4499999266891
 20
53.499999999972893
 30
0.0
 42
0.4142135623730946
  0
VERTEX
  5
1381
  8
SAPA_PROFIL
 10
126.2499999266891
 20
53.299999999972897
 30
0.0
  0
VERTEX
  5
1382
  8
SAPA_PROFIL
 10
126.2499999266891
 20
50.499999999978002
 30
0.0
 42
0.414213562373094
  0
VERTEX
  5
1383
  8
SAPA_PROFIL
 10
126.4499999266891
 20
50.29999999997802
 30
0.0
  0
VERTEX
  5
1384
  8
SAPA_PROFIL
 10
130.54999992821871
 20
50.299999999977992
 30
0.0
 42
0.4142135623726658
  0
VERTEX
  5
1385
  8
SAPA_PROFIL
 10
130.7499999282187
 20
50.499999999977717
 30
0.0
  0
VERTEX
  5
1386
  8
SAPA_PROFIL
 10
130.74999992824789
 20
69.7999999999941
 30
0.0
 42
-0.4964147352864319
  0
VERTEX
  5
1387
  8
SAPA_PROFIL
 10
131.0037903365735
 20
69.992630713983445
 30
0.0
 42
-0.3064679542112438
  0
VERTEX
  5
1388
  8
SAPA_PROFIL
 10
131.72890680941919
 20
69.138232780806788
 30
0.0
 42
-0.0272495355296178
  0
VERTEX
  5
1389
  8
SAPA_PROFIL
 10
132.49999992772771
 20
55.000000000011958
 30
0.0
  0
VERTEX
  5
138A
  8
SAPA_PROFIL
 10
132.49999992808071
 20
42.199999998749142
 30
0.0
 42
-0.4142135623890783
  0
VERTEX
  5
138B
  8
SAPA_PROFIL
 10
132.2999999280799
 20
41.999999998737501
 30
0.0
  0
VERTEX
  5
138C
  8
SAPA_PROFIL
 10
131.96546998182009
 20
41.999999998739327
 30
0.0
 42
-0.267949192439649
  0
VERTEX
  5
138D
  8
SAPA_PROFIL
 10
131.79226490106089
 20
42.099999998744288
 30
0.0
  0
VERTEX
  5
138E
  8
SAPA_PROFIL
 10
130.7767948474683
 20
43.858845725138849
 30
0.0
 42
-0.1316524975843789
  0
VERTEX
  5
138F
  8
SAPA_PROFIL
 10
130.74999992822569
 20
43.958845725139213
 30
0.0
  0
VERTEX
  5
1390
  8
SAPA_PROFIL
 10
130.74999992822981
 20
46.799999999999159
 30
0.0
 42
0.4142135623730974
  0
VERTEX
  5
1391
  8
SAPA_PROFIL
 10
130.54999992822911
 20
46.999999999999879
 30
0.0
  0
VERTEX
  5
1392
  8
SAPA_PROFIL
 10
124.2438689690205
 20
46.999999999999879
 30
0.0
 42
-0.2418327667441245
  0
VERTEX
  5
1393
  8
SAPA_PROFIL
 10
123.9999999280691
 20
47.125277674966057
 30
0.0
 42
0.2418327667528755
  0
VERTEX
  5
1394
  8
SAPA_PROFIL
 10
123.756130887108
 20
47.250555349939411
 30
0.0
  0
VERTEX
  5
1395
  8
SAPA_PROFIL
 10
122.799999928069
 20
47.250555349939411
 30
0.0
 42
0.2418327667504218
  0
VERTEX
  5
1396
  8
SAPA_PROFIL
 10
122.55613088710631
 20
47.125277674968473
 30
0.0
 42
-0.2418327667464108
  0
SEQEND
  5
1397
  8
SAPA_PROFIL
  0
POLYLINE
  5
C17
  8
SAPA_PROFIL
 66
     1
 10
0.0
 20
0.0
 30
0.0
 70
     1
  0
VERTEX
  5
1398
  8
SAPA_PROFIL
 10
95.687738009964946
 20
46.999999999999879
 30
0.0
  0
VERTEX
  5
1399
  8
SAPA_PROFIL
 10
97.785810365685208
 20
46.999999999999879
 30
0.0
 42
0.6681786379192718
  0
VERTEX
  5
139A
  8
SAPA_PROFIL
 10
98.492917146871804
 20
48.707106781186368
 30
0.0
  0
VERTEX
  5
139B
  8
SAPA_PROFIL
 10
97.187867893702844
 20
50.012156034355549
 30
0.0
 42
0.1989123673797335
  0
VERTEX
  5
139C
  8
SAPA_PROFIL
 10
96.975735859346756
 20
50.100023999999657
 30
0.0
  0
VERTEX
  5
139D
  8
SAPA_PROFIL
 10
96.389230412599574
 20
50.100023999999522
 30
0.0
 42
0.1316524975873855
  0
VERTEX
  5
139E
  8
SAPA_PROFIL
 10
96.239230412599653
 20
50.059831621134869
 30
0.0
  0
VERTEX
  5
139F
  8
SAPA_PROFIL
 10
94.74999992805877
 20
49.200023999999573
 30
0.0
  0
VERTEX
  5
13A0
  8
SAPA_PROFIL
 10
94.299999928058824
 20
49.200011999999901
 30
0.0
 42
-0.4142135623731054
  0
VERTEX
  5
13A1
  8
SAPA_PROFIL
 10
93.999999928058813
 20
49.500011999999913
 30
0.0
  0
VERTEX
  5
13A2
  8
SAPA_PROFIL
 10
93.999999928058855
 20
53.100023999999983
 30
0.0
 42
-0.4142135623730951
  0
VERTEX
  5
13A3
  8
SAPA_PROFIL
 10
94.299999928058867
 20
53.400023999999974
 30
0.0
  0
VERTEX
  5
13A4
  8
SAPA_PROFIL
 10
94.74999992805887
 20
53.400023999999867
 30
0.0
  0
VERTEX
  5
13A5
  8
SAPA_PROFIL
 10
96.239260059133045
 20
52.540199262430889
 30
0.0
 42
0.1316363093594254
  0
VERTEX
  5
13A6
  8
SAPA_PROFIL
 10
96.389240964179777
 20
52.500006884173928
 30
0.0
  0
VERTEX
  5
13A7
  8
SAPA_PROFIL
 10
96.499999928058841
 20
52.499999834383118
 30
0.0
  0
VERTEX
  5
13A8
  8
SAPA_PROFIL
 10
96.499999928058841
 20
54.499999999988972
 30
0.0
 42
0.4142135623730957
  0
VERTEX
  5
13A9
  8
SAPA_PROFIL
 10
95.999999928058841
 20
54.999999999988972
 30
0.0
  0
VERTEX
  5
13AA
  8
SAPA_PROFIL
 10
90.749999929433201
 20
54.999999999988972
 30
0.0
 42
0.4142135623730957
  0
VERTEX
  5
13AB
  8
SAPA_PROFIL
 10
90.249999929433187
 20
54.499999999988972
 30
0.0
  0
VERTEX
  5
13AC
  8
SAPA_PROFIL
 10
90.249999929433187
 20
53.999999999972879
 30
0.0
 42
0.4142135623730783
  0
VERTEX
  5
13AD
  8
SAPA_PROFIL
 10
90.749999929433201
 20
53.499999999972879
 30
0.0
  0
VERTEX
  5
13AE
  8
SAPA_PROFIL
 10
91.549999929428594
 20
53.499999999972893
 30
0.0
 42
-0.4142135623730946
  0
VERTEX
  5
13AF
  8
SAPA_PROFIL
 10
91.749999929428597
 20
53.299999999972897
 30
0.0
  0
VERTEX
  5
13B0
  8
SAPA_PROFIL
 10
91.749999929428611
 20
50.499999999978002
 30
0.0
 42
-0.414213562373094
  0
VERTEX
  5
13B1
  8
SAPA_PROFIL
 10
91.549999929428594
 20
50.29999999997802
 30
0.0
  0
VERTEX
  5
13B2
  8
SAPA_PROFIL
 10
87.449999927898915
 20
50.299999999977992
 30
0.0
 42
-0.4142135623726658
  0
VERTEX
  5
13B3
  8
SAPA_PROFIL
 10
87.249999927898955
 20
50.499999999977717
 30
0.0
  0
VERTEX
  5
13B4
  8
SAPA_PROFIL
 10
87.24999992786978
 20
69.7999999999941
 30
0.0
 42
0.4964147352864319
  0
VERTEX
  5
13B5
  8
SAPA_PROFIL
 10
86.996209519544152
 20
69.992630713983445
 30
0.0
 42
0.3064679542112438
  0
VERTEX
  5
13B6
  8
SAPA_PROFIL
 10
86.271093046698496
 20
69.138232780806788
 30
0.0
 42
0.0272495355296178
  0
VERTEX
  5
13B7
  8
SAPA_PROFIL
 10
85.499999928389926
 20
55.000000000011958
 30
0.0
  0
VERTEX
  5
13B8
  8
SAPA_PROFIL
 10
85.499999928037013
 20
42.199999998749142
 30
0.0
 42
0.4142135623890783
  0
VERTEX
  5
13B9
  8
SAPA_PROFIL
 10
85.699999928037741
 20
41.999999998737501
 30
0.0
  0
VERTEX
  5
13BA
  8
SAPA_PROFIL
 10
86.034529874297604
 20
41.999999998739327
 30
0.0
 42
0.267949192439649
  0
VERTEX
  5
13BB
  8
SAPA_PROFIL
 10
86.207734955056736
 20
42.099999998744288
 30
0.0
  0
VERTEX
  5
13BC
  8
SAPA_PROFIL
 10
87.223205008649401
 20
43.858845725138849
 30
0.0
 42
0.1316524975843789
  0
VERTEX
  5
13BD
  8
SAPA_PROFIL
 10
87.249999927891963
 20
43.958845725139213
 30
0.0
  0
VERTEX
  5
13BE
  8
SAPA_PROFIL
 10
87.249999927887856
 20
46.799999999999159
 30
0.0
 42
-0.4142135623730974
  0
VERTEX
  5
13BF
  8
SAPA_PROFIL
 10
87.449999927888584
 20
46.999999999999879
 30
0.0
  0
VERTEX
  5
13C0
  8
SAPA_PROFIL
 10
93.756130887097115
 20
46.999999999999879
 30
0.0
 42
0.2418327667441245
  0
VERTEX
  5
13C1
  8
SAPA_PROFIL
 10
93.999999928048595
 20
47.125277674966057
 30
0.0
 42
-0.2418327667528755
  0
VERTEX
  5
13C2
  8
SAPA_PROFIL
 10
94.243868969009654
 20
47.250555349939411
 30
0.0
  0
VERTEX
  5
13C3
  8
SAPA_PROFIL
 10
95.199999928048655
 20
47.250555349939411
 30
0.0
 42
-0.2418327667504218
  0
VERTEX
  5
13C4
  8
SAPA_PROFIL
 10
95.443868969011348
 20
47.125277674968473
 30
0.0
 42
0.2418327667464108
  0
SEQEND
  5
13C5
  8
SAPA_PROFIL
  0
POLYLINE
  5
C18
  8
SAPA_PROFIL
 62
     4
 66
     1
 10
0.0
 20
0.0
 30
0.0
 70
     1
  0
VERTEX
  5
C19
  8
SAPA_PROFIL
 62
     4
 10
96.856217710711334
 20
50.350012000001911
 30
0.0
 42
0.1316524975873979
  0
VERTEX
  5
C1A
  8
SAPA_PROFIL
 62
     4
 10
96.456217710711314
 20
50.242832323029482
 30
0.0
  0
VERTEX
  5
C1B
  8
SAPA_PROFIL
 62
     4
 10
94.736602468437255
 20
49.250012000000041
 30
0.0
  0
VERTEX
  5
C1C
  8
SAPA_PROFIL
 62
     4
 10
94.299999928058824
 20
49.250011999999963
 30
0.0
 42
-0.4142135623730951
  0
VERTEX
  5
C1D
  8
SAPA_PROFIL
 62
     4
 10
94.049999928058824
 20
49.500011999999948
 30
0.0
  0
VERTEX
  5
C1E
  8
SAPA_PROFIL
 62
     4
 10
94.049999928058782
 20
53.100024000000012
 30
0.0
 42
-0.4142135623731053
  0
VERTEX
  5
C1F
  8
SAPA_PROFIL
 62
     4
 10
94.299999928058782
 20
53.350024000000019
 30
0.0
  0
VERTEX
  5
C20
  8
SAPA_PROFIL
 62
     4
 10
94.736601849637239
 20
53.35001235726466
 30
0.0
  0
VERTEX
  5
C21
  8
SAPA_PROFIL
 62
     4
 10
96.456217710704664
 20
52.357191676974388
 30
0.0
 42
0.1316524975874149
  0
VERTEX
  5
C22
  8
SAPA_PROFIL
 62
     4
 10
96.856217710704698
 20
52.250012000001888
 30
0.0
  0
VERTEX
  5
C23
  8
SAPA_PROFIL
 62
     4
 10
121.143782145413
 20
52.250012000001888
 30
0.0
 42
0.1316524975874151
  0
VERTEX
  5
C24
  8
SAPA_PROFIL
 62
     4
 10
121.543782145413
 20
52.357191676974388
 30
0.0
  0
VERTEX
  5
C25
  8
SAPA_PROFIL
 62
     4
 10
123.2633980064804
 20
53.35001235726466
 30
0.0
  0
VERTEX
  5
C26
  8
SAPA_PROFIL
 62
     4
 10
123.6999999280589
 20
53.350024000000019
 30
0.0
 42
-0.4142135623731054
  0
VERTEX
  5
C27
  8
SAPA_PROFIL
 62
     4
 10
123.9499999280589
 20
53.100024000000012
 30
0.0
  0
VERTEX
  5
C28
  8
SAPA_PROFIL
 62
     4
 10
123.9499999280588
 20
49.500011999999948
 30
0.0
 42
-0.4142135623730953
  0
VERTEX
  5
C29
  8
SAPA_PROFIL
 62
     4
 10
123.6999999280588
 20
49.250011999999963
 30
0.0
  0
VERTEX
  5
C2A
  8
SAPA_PROFIL
 62
     4
 10
123.2633973876804
 20
49.250012000000041
 30
0.0
  0
VERTEX
  5
C2B
  8
SAPA_PROFIL
 62
     4
 10
121.5437821454063
 20
50.242832323029482
 30
0.0
 42
0.1316524975873982
  0
VERTEX
  5
C2C
  8
SAPA_PROFIL
 62
     4
 10
121.14378214540631
 20
50.350012000001911
 30
0.0
  0
SEQEND
  5
C2D
  8
SAPA_PROFIL
 62
     4
  0
POLYLINE
  5
C2E
  8
SAPA_PROFIL
 66
     1
 10
0.0
 20
0.0
 30
0.0
 70
     1
  0
VERTEX
  5
13C6
  8
SAPA_PROFIL
 10
135.64523645122861
 20
19.46152494752096
 30
0.0
 42
0.2914734195858593
  0
VERTEX
  5
13C7
  8
SAPA_PROFIL
 10
136.79999992774421
 20
21.274140521607482
 30
0.0
  0
VERTEX
  5
13C8
  8
SAPA_PROFIL
 10
136.79999992774421
 20
40.999999999985441
 30
0.0
 42
0.4142135623731033
  0
VERTEX
  5
13C9
  8
SAPA_PROFIL
 10
136.29999992774421
 20
41.499999999985441
 30
0.0
  0
VERTEX
  5
13CA
  8
SAPA_PROFIL
 10
135.999999927734
 20
41.499999999985441
 30
0.0
 42
0.4142135623731035
  0
VERTEX
  5
13CB
  8
SAPA_PROFIL
 10
135.499999927734
 20
40.999999999985441
 30
0.0
  0
VERTEX
  5
13CC
  8
SAPA_PROFIL
 10
135.499999927734
 20
39.699999999986183
 30
0.0
 42
-0.4142135623731159
  0
VERTEX
  5
13CD
  8
SAPA_PROFIL
 10
135.29999992771511
 20
39.499999999974541
 30
0.0
  0
VERTEX
  5
13CE
  8
SAPA_PROFIL
 10
134.999999927734
 20
39.499999999985448
 30
0.0
 42
-0.4142135623731035
  0
VERTEX
  5
13CF
  8
SAPA_PROFIL
 10
134.499999927734
 20
39.999999999985448
 30
0.0
  0
VERTEX
  5
13D0
  8
SAPA_PROFIL
 10
134.4999999277413
 20
43.749999999985448
 30
0.0
 42
-0.4142135623731035
  0
VERTEX
  5
13D1
  8
SAPA_PROFIL
 10
134.9999999277413
 20
44.249999999985441
 30
0.0
  0
VERTEX
  5
13D2
  8
SAPA_PROFIL
 10
135.29999992774421
 20
44.249999999985441
 30
0.0
 42
-0.4142135623731159
  0
VERTEX
  5
13D3
  8
SAPA_PROFIL
 10
135.49999992775221
 20
44.049999999973807
 30
0.0
  0
VERTEX
  5
13D4
  8
SAPA_PROFIL
 10
135.4999999277413
 20
43.199999999986169
 30
0.0
 42
0.4142135623730951
  0
VERTEX
  5
13D5
  8
SAPA_PROFIL
 10
135.69999992773111
 20
42.999999999985441
 30
0.0
  0
VERTEX
  5
13D6
  8
SAPA_PROFIL
 10
136.69999992773111
 20
42.999999999985441
 30
0.0
 42
0.4142135623731035
  0
VERTEX
  5
13D7
  8
SAPA_PROFIL
 10
137.19999992773111
 20
43.499999999985441
 30
0.0
  0
VERTEX
  5
13D8
  8
SAPA_PROFIL
 10
137.19999992773111
 20
49.499999999985448
 30
0.0
 42
0.4142135623731033
  0
VERTEX
  5
13D9
  8
SAPA_PROFIL
 10
136.69999992773111
 20
49.999999999985448
 30
0.0
  0
VERTEX
  5
13DA
  8
SAPA_PROFIL
 10
135.69999992773111
 20
49.999999999985448
 30
0.0
 42
0.4142135623731054
  0
VERTEX
  5
13DB
  8
SAPA_PROFIL
 10
135.4999999277413
 20
49.799999999973807
 30
0.0
  0
VERTEX
  5
13DC
  8
SAPA_PROFIL
 10
135.499999927734
 20
48.949999999986169
 30
0.0
 42
-0.4142135623731159
  0
VERTEX
  5
13DD
  8
SAPA_PROFIL
 10
135.29999992771511
 20
48.749999999974527
 30
0.0
  0
VERTEX
  5
13DE
  8
SAPA_PROFIL
 10
134.9999999277413
 20
48.75
 30
0.0
 42
-0.4142135623731035
  0
VERTEX
  5
13DF
  8
SAPA_PROFIL
 10
134.4999999277413
 20
49.25
 30
0.0
  0
VERTEX
  5
13E0
  8
SAPA_PROFIL
 10
134.4999999277413
 20
52.25
 30
0.0
 42
-0.4142135623731035
  0
VERTEX
  5
13E1
  8
SAPA_PROFIL
 10
134.9999999277413
 20
52.75
 30
0.0
  0
VERTEX
  5
13E2
  8
SAPA_PROFIL
 10
135.29999992774421
 20
52.75
 30
0.0
 42
-0.4142135623730744
  0
VERTEX
  5
13E3
  8
SAPA_PROFIL
 10
135.4999999277413
 20
52.549999999999272
 30
0.0
  0
VERTEX
  5
13E4
  8
SAPA_PROFIL
 10
135.49999992773041
 20
51.70000000000072
 30
0.0
 42
0.4142135623730534
  0
VERTEX
  5
13E5
  8
SAPA_PROFIL
 10
135.69999992773111
 20
51.5
 30
0.0
  0
VERTEX
  5
13E6
  8
SAPA_PROFIL
 10
136.69999992773111
 20
51.5
 30
0.0
 42
0.4142135623731035
  0
VERTEX
  5
13E7
  8
SAPA_PROFIL
 10
137.19999992773111
 20
52.0
 30
0.0
  0
VERTEX
  5
13E8
  8
SAPA_PROFIL
 10
137.19999992773111
 20
58.0
 30
0.0
 42
0.4142135623730869
  0
VERTEX
  5
13E9
  8
SAPA_PROFIL
 10
136.69999992773111
 20
58.5
 30
0.0
  0
VERTEX
  5
13EA
  8
SAPA_PROFIL
 10
135.69999992773111
 20
58.499999999989079
 30
0.0
 42
0.4142135623730534
  0
VERTEX
  5
13EB
  8
SAPA_PROFIL
 10
135.4999999277413
 20
58.299999999999272
 30
0.0
  0
VERTEX
  5
13EC
  8
SAPA_PROFIL
 10
135.4999999277486
 20
57.45000000000072
 30
0.0
 42
-0.4142135623730744
  0
VERTEX
  5
13ED
  8
SAPA_PROFIL
 10
135.29999992774421
 20
57.25
 30
0.0
  0
VERTEX
  5
13EE
  8
SAPA_PROFIL
 10
134.9999999277413
 20
57.25
 30
0.0
 42
-0.4142135623731035
  0
VERTEX
  5
13EF
  8
SAPA_PROFIL
 10
134.4999999277413
 20
57.75
 30
0.0
  0
VERTEX
  5
13F0
  8
SAPA_PROFIL
 10
134.4999999277413
 20
59.5
 30
0.0
 42
-0.4142135623731035
  0
VERTEX
  5
13F1
  8
SAPA_PROFIL
 10
134.9999999277413
 20
60.0
 30
0.0
  0
VERTEX
  5
13F2
  8
SAPA_PROFIL
 10
137.4999999277413
 20
60.0
 30
0.0
 42
-0.4142135623730951
  0
VERTEX
  5
13F3
  8
SAPA_PROFIL
 10
138.9999999277413
 20
58.5
 30
0.0
  0
VERTEX
  5
13F4
  8
SAPA_PROFIL
 10
138.9999999277413
 20
-55.625
 30
0.0
 42
-0.9999999999999792
  0
VERTEX
  5
13F5
  8
SAPA_PROFIL
 10
136.2499999277413
 20
-55.625
 30
0.0
  0
VERTEX
  5
13F6
  8
SAPA_PROFIL
 10
136.2499999277413
 20
-3.9999999999999849
 30
0.0
 42
0.4142135623730959
  0
VERTEX
  5
13F7
  8
SAPA_PROFIL
 10
132.2499999277413
 20
0.0000000000000142
 30
0.0
  0
VERTEX
  5
13F8
  8
SAPA_PROFIL
 10
90.743868969062234
 20
-0.0000000000109139
 30
0.0
 42
-0.2418327667378102
  0
VERTEX
  5
13F9
  8
SAPA_PROFIL
 10
90.499999928123856
 20
0.1252776749561804
 30
0.0
 42
0.2418327667509117
  0
VERTEX
  5
13FA
  8
SAPA_PROFIL
 10
90.256130887167899
 20
0.2505553499286179
 30
0.0
  0
VERTEX
  5
13FB
  8
SAPA_PROFIL
 10
89.299999928117984
 20
0.2505553499322559
 30
0.0
 42
0.2418327667448982
  0
VERTEX
  5
13FC
  8
SAPA_PROFIL
 10
89.056130887163064
 20
0.12527767496384
 30
0.0
 42
-0.2418327667448982
  0
VERTEX
  5
13FD
  8
SAPA_PROFIL
 10
88.812261846210475
 20
-0.0000000000033538
 30
0.0
  0
VERTEX
  5
13FE
  8
SAPA_PROFIL
 10
86.714189490492487
 20
-0.0000000000033538
 30
0.0
 42
-0.6681786379192726
  0
VERTEX
  5
13FF
  8
SAPA_PROFIL
 10
86.007082709305891
 20
1.707106781183142
 30
0.0
  0
VERTEX
  5
1400
  8
SAPA_PROFIL
 10
87.312131962474865
 20
3.0121560343523011
 30
0.0
 42
-0.1989123673797352
  0
VERTEX
  5
1401
  8
SAPA_PROFIL
 10
87.524263996830925
 20
3.100023999996437
 30
0.0
  0
VERTEX
  5
1402
  8
SAPA_PROFIL
 10
88.110769443578135
 20
3.1000239999962811
 30
0.0
 42
-0.1316524975873824
  0
VERTEX
  5
1403
  8
SAPA_PROFIL
 10
88.260769443578056
 20
3.059831621131635
 30
0.0
  0
VERTEX
  5
1404
  8
SAPA_PROFIL
 10
89.749999928118925
 20
2.2000239999963318
 30
0.0
  0
VERTEX
  5
1405
  8
SAPA_PROFIL
 10
90.199999928118885
 20
2.2000119999966752
 30
0.0
 42
0.4142135623731039
  0
VERTEX
  5
1406
  8
SAPA_PROFIL
 10
90.499999928118896
 20
2.5000119999966719
 30
0.0
  0
VERTEX
  5
1407
  8
SAPA_PROFIL
 10
90.499999928118825
 20
6.1000239999967363
 30
0.0
 42
0.4142135623730826
  0
VERTEX
  5
1408
  8
SAPA_PROFIL
 10
90.199999928118842
 20
6.4000239999967334
 30
0.0
  0
VERTEX
  5
1409
  8
SAPA_PROFIL
 10
89.749999928118839
 20
6.4000239999966331
 30
0.0
  0
VERTEX
  5
140A
  8
SAPA_PROFIL
 10
88.260739797044664
 20
5.5401992624276479
 30
0.0
 42
-0.1316363093594268
  0
VERTEX
  5
140B
  8
SAPA_PROFIL
 10
88.110758891997904
 20
5.5000068841706868
 30
0.0
  0
VERTEX
  5
140C
  8
SAPA_PROFIL
 10
87.999999928115074
 20
5.4999998343798771
 30
0.0
  0
VERTEX
  5
140D
  8
SAPA_PROFIL
 10
87.999999928115074
 20
7.0856406460516146
 30
0.0
 42
-0.2679491924308297
  0
VERTEX
  5
140E
  8
SAPA_PROFIL
 10
88.499999928115074
 20
7.9516660498302372
 30
0.0
  0
VERTEX
  5
140F
  8
SAPA_PROFIL
 10
90.249999928115528
 20
8.9620290209087141
 30
0.0
 42
0.2679491924308301
  0
VERTEX
  5
1410
  8
SAPA_PROFIL
 10
90.499999928115074
 20
9.3950417228006682
 30
0.0
  0
VERTEX
  5
1411
  8
SAPA_PROFIL
 10
90.499999928115074
 20
10.60495827718114
 30
0.0
 42
0.267949192430829
  0
VERTEX
  5
1412
  8
SAPA_PROFIL
 10
90.249999928115059
 20
11.03797097907227
 30
0.0
  0
VERTEX
  5
1413
  8
SAPA_PROFIL
 10
88.499999928115074
 20
12.04833395014793
 30
0.0
 42
-0.2679491924308297
  0
VERTEX
  5
1414
  8
SAPA_PROFIL
 10
87.999999928116949
 20
12.914359353933831
 30
0.0
  0
VERTEX
  5
1415
  8
SAPA_PROFIL
 10
87.999999928114818
 20
14.50000016560193
 30
0.0
  0
VERTEX
  5
1416
  8
SAPA_PROFIL
 10
88.110758891997904
 20
14.499993115811121
 30
0.0
 42
-0.1316363093594264
  0
VERTEX
  5
1417
  8
SAPA_PROFIL
 10
88.260739797044664
 20
14.45980073755416
 30
0.0
  0
VERTEX
  5
1418
  8
SAPA_PROFIL
 10
89.749999928118839
 20
13.599975999985171
 30
0.0
  0
VERTEX
  5
1419
  8
SAPA_PROFIL
 10
90.199999928118842
 20
13.59997599998507
 30
0.0
 42
0.4142135623730951
  0
VERTEX
  5
141A
  8
SAPA_PROFIL
 10
90.499999928118825
 20
13.89997599998507
 30
0.0
  0
VERTEX
  5
141B
  8
SAPA_PROFIL
 10
90.499999928118896
 20
17.499987999985141
 30
0.0
 42
0.4142135623731165
  0
VERTEX
  5
141C
  8
SAPA_PROFIL
 10
90.199999928118885
 20
17.799987999985131
 30
0.0
  0
VERTEX
  5
141D
  8
SAPA_PROFIL
 10
89.749999928118925
 20
17.799975999985481
 30
0.0
  0
VERTEX
  5
141E
  8
SAPA_PROFIL
 10
88.260769443578056
 20
16.940168378850171
 30
0.0
 42
-0.1316524975873824
  0
VERTEX
  5
141F
  8
SAPA_PROFIL
 10
88.110769443578135
 20
16.899975999985529
 30
0.0
  0
VERTEX
  5
1420
  8
SAPA_PROFIL
 10
87.524263996830925
 20
16.89997599998539
 30
0.0
 42
-0.1989123673797351
  0
VERTEX
  5
1421
  8
SAPA_PROFIL
 10
87.312131962474865
 20
16.987843965629509
 30
0.0
  0
VERTEX
  5
1422
  8
SAPA_PROFIL
 10
86.007082709305891
 20
18.292893218798671
 30
0.0
 42
-0.6681786379192719
  0
VERTEX
  5
1423
  8
SAPA_PROFIL
 10
86.714189490492487
 20
19.99999999998516
 30
0.0
  0
VERTEX
  5
1424
  8
SAPA_PROFIL
 10
88.812261846212166
 20
19.99999999998516
 30
0.0
 42
-0.2418327667433408
  0
VERTEX
  5
1425
  8
SAPA_PROFIL
 10
89.056130887163732
 20
19.874722325019398
 30
0.0
 42
0.2418327667449424
  0
VERTEX
  5
1426
  8
SAPA_PROFIL
 10
89.299999928117984
 20
19.749444650053189
 30
0.0
  0
VERTEX
  5
1427
  8
SAPA_PROFIL
 10
90.256130887167899
 20
19.749444650049551
 30
0.0
 42
0.2418327667509086
  0
VERTEX
  5
1428
  8
SAPA_PROFIL
 10
90.499999928115017
 20
19.874722325031971
 30
0.0
 42
-0.2418327667378184
  0
VERTEX
  5
1429
  8
SAPA_PROFIL
 10
90.743868969052286
 20
19.999999999993801
 30
0.0
  0
VERTEX
  5
142A
  8
SAPA_PROFIL
 10
92.556610602811588
 20
20.000000000003642
 30
0.0
 42
-0.1095178116817878
  0
VERTEX
  5
142B
  8
SAPA_PROFIL
 10
93.401847126282576
 20
19.8126155740818
 30
0.0
  0
VERTEX
  5
142C
  8
SAPA_PROFIL
 10
99.031673491414722
 20
17.187384425924389
 30
0.0
 42
0.1095178116855124
  0
VERTEX
  5
142D
  8
SAPA_PROFIL
 10
99.876910014920895
 20
17.0
 30
0.0
  0
VERTEX
  5
142E
  8
SAPA_PROFIL
 10
106.9999999280833
 20
16.999999999985452
 30
0.0
 42
0.414213562373099
  0
VERTEX
  5
142F
  8
SAPA_PROFIL
 10
107.4999999280833
 20
17.500000000003642
 30
0.0
  0
VERTEX
  5
1430
  8
SAPA_PROFIL
 10
107.4999999280833
 20
18.500000000003631
 30
0.0
 42
0.4142135623730951
  0
VERTEX
  5
1431
  8
SAPA_PROFIL
 10
106.9999999280833
 20
19.000000000003642
 30
0.0
  0
VERTEX
  5
1432
  8
SAPA_PROFIL
 10
106.7087120806161
 20
19.000000000003642
 30
0.0
 42
-0.2982166266909471
  0
VERTEX
  5
1433
  8
SAPA_PROFIL
 10
106.25045451112619
 20
19.299999999990739
 30
0.0
 42
-1.5275252316550949
  0
VERTEX
  5
1434
  8
SAPA_PROFIL
 10
111.74954534504521
 20
19.299999999998899
 30
0.0
 42
-0.2982166266892463
  0
VERTEX
  5
1435
  8
SAPA_PROFIL
 10
111.291287775565
 20
19.00000000001296
 30
0.0
  0
VERTEX
  5
1436
  8
SAPA_PROFIL
 10
110.9999999280833
 20
19.000000000003642
 30
0.0
 42
0.4142135623730951
  0
VERTEX
  5
1437
  8
SAPA_PROFIL
 10
110.4999999280833
 20
18.500000000003631
 30
0.0
  0
VERTEX
  5
1438
  8
SAPA_PROFIL
 10
110.4999999280833
 20
17.500000000003642
 30
0.0
 42
0.4142135623730946
  0
VERTEX
  5
1439
  8
SAPA_PROFIL
 10
110.9999999280833
 20
17.000000000003642
 30
0.0
  0
VERTEX
  5
143A
  8
SAPA_PROFIL
 10
129.92308984094299
 20
17.000000000003642
 30
0.0
 42
0.1095178116834561
  0
VERTEX
  5
143B
  8
SAPA_PROFIL
 10
130.7683263644287
 20
17.18738442592506
 30
0.0
  0
SEQEND
  5
143C
  8
SAPA_PROFIL
  0
POLYLINE
  5
C2F
  8
SAPA_PROFIL
 66
     1
 10
0.0
 20
0.0
 30
0.0
 70
     1
  0
VERTEX
  5
143D
  8
SAPA_PROFIL
 10
136.4999999277413
 20
2.7999999999992862
 30
0.0
 42
-0.4142135623730916
  0
VERTEX
  5
143E
  8
SAPA_PROFIL
 10
136.19999992773111
 20
2.5000000000000142
 30
0.0
  0
VERTEX
  5
143F
  8
SAPA_PROFIL
 10
93.299999928115355
 20
2.5000000000036371
 30
0.0
 42
-0.4142135623730959
  0
VERTEX
  5
1440
  8
SAPA_PROFIL
 10
92.999999928116054
 20
2.8000000000029099
 30
0.0
  0
VERTEX
  5
1441
  8
SAPA_PROFIL
 10
92.999999928112402
 20
14.3999999999869
 30
0.0
 42
-0.4142135623730951
  0
VERTEX
  5
1442
  8
SAPA_PROFIL
 10
93.299999928115312
 20
14.69999999998981
 30
0.0
  0
VERTEX
  5
1443
  8
SAPA_PROFIL
 10
136.19999992773111
 20
14.70000000001165
 30
0.0
 42
-0.4142135623730946
  0
VERTEX
  5
1444
  8
SAPA_PROFIL
 10
136.4999999277413
 20
14.400000000019659
 30
0.0
  0
SEQEND
  5
1445
  8
SAPA_PROFIL
  0
POLYLINE
  5
C30
  8
SAPA_PROFIL
 62
     4
 66
     1
 10
0.0
 20
0.0
 30
0.0
 70
     1
  0
VERTEX
  5
C31
  8
SAPA_PROFIL
 62
     4
 10
88.124166846888869
 20
3.1994446825304972
 30
0.0
 42
-0.1316524975873876
  0
VERTEX
  5
C32
  8
SAPA_PROFIL
 62
     4
 10
88.274166846888846
 20
3.1592523036658369
 30
0.0
  0
VERTEX
  5
C33
  8
SAPA_PROFIL
 62
     4
 10
89.763397387734059
 20
2.2994446500235171
 30
0.0
  0
VERTEX
  5
C34
  8
SAPA_PROFIL
 62
     4
 10
90.199999928112504
 20
2.2994446500234309
 30
0.0
 42
0.4142135623730934
  0
VERTEX
  5
C35
  8
SAPA_PROFIL
 62
     4
 10
90.449999928112476
 20
2.5494446500234171
 30
0.0
  0
VERTEX
  5
C36
  8
SAPA_PROFIL
 62
     4
 10
90.449999928112547
 20
6.1494566500234811
 30
0.0
 42
0.4142135623731066
  0
VERTEX
  5
C37
  8
SAPA_PROFIL
 62
     4
 10
90.199999928112533
 20
6.3994566500234953
 30
0.0
  0
VERTEX
  5
C38
  8
SAPA_PROFIL
 62
     4
 10
89.763398006534075
 20
6.3994450072881364
 30
0.0
  0
VERTEX
  5
C39
  8
SAPA_PROFIL
 62
     4
 10
88.274166959496384
 20
5.5396370613951396
 30
0.0
 42
-0.131652497587425
  0
VERTEX
  5
C3A
  8
SAPA_PROFIL
 62
     4
 10
88.124166959496335
 20
5.4994446825304522
 30
0.0
  0
VERTEX
  5
C3B
  8
SAPA_PROFIL
 62
     4
 10
64.875832968245092
 20
5.4994446825304522
 30
0.0
 42
-0.1316524975874248
  0
VERTEX
  5
C3C
  8
SAPA_PROFIL
 62
     4
 10
64.725832968245058
 20
5.5396370613951396
 30
0.0
  0
VERTEX
  5
C3D
  8
SAPA_PROFIL
 62
     4
 10
63.236601921207367
 20
6.3994450072881364
 30
0.0
  0
VERTEX
  5
C3E
  8
SAPA_PROFIL
 62
     4
 10
62.799999999628909
 20
6.3994566500234953
 30
0.0
 42
0.4142135623731049
  0
VERTEX
  5
C3F
  8
SAPA_PROFIL
 62
     4
 10
62.549999999628902
 20
6.1494566500234811
 30
0.0
  0
VERTEX
  5
C40
  8
SAPA_PROFIL
 62
     4
 10
62.549999999628952
 20
2.5494446500234171
 30
0.0
 42
0.4142135623730951
  0
VERTEX
  5
C41
  8
SAPA_PROFIL
 62
     4
 10
62.79999999962893
 20
2.2994446500234309
 30
0.0
  0
VERTEX
  5
C42
  8
SAPA_PROFIL
 62
     4
 10
63.236602540007389
 20
2.2994446500235171
 30
0.0
  0
VERTEX
  5
C43
  8
SAPA_PROFIL
 62
     4
 10
64.72583308085251
 20
3.1592523036657951
 30
0.0
 42
-0.1316524975873866
  0
VERTEX
  5
C44
  8
SAPA_PROFIL
 62
     4
 10
64.875833080852473
 20
3.1994446825304541
 30
0.0
  0
SEQEND
  5
C45
  8
SAPA_PROFIL
 62
     4
  0
POLYLINE
  5
C46
  8
SAPA_PROFIL
 66
     1
 10
0.0
 20
0.0
 30
0.0
 70
     1
  0
VERTEX
  5
1446
  8
SAPA_PROFIL
 10
17.354763476512758
 20
19.46152494752096
 30
0.0
 42
-0.2914734195858593
  0
VERTEX
  5
1447
  8
SAPA_PROFIL
 10
16.199999999997111
 20
21.274140521607482
 30
0.0
  0
VERTEX
  5
1448
  8
SAPA_PROFIL
 10
16.199999999997111
 20
40.999999999985441
 30
0.0
 42
-0.4142135623731033
  0
VERTEX
  5
1449
  8
SAPA_PROFIL
 10
16.6999999999971
 20
41.499999999985441
 30
0.0
  0
VERTEX
  5
144A
  8
SAPA_PROFIL
 10
17.000000000007301
 20
41.499999999985441
 30
0.0
 42
-0.4142135623731035
  0
VERTEX
  5
144B
  8
SAPA_PROFIL
 10
17.500000000007301
 20
40.999999999985441
 30
0.0
  0
VERTEX
  5
144C
  8
SAPA_PROFIL
 10
17.500000000007301
 20
39.699999999986183
 30
0.0
 42
0.4142135623731159
  0
VERTEX
  5
144D
  8
SAPA_PROFIL
 10
17.700000000026211
 20
39.499999999974541
 30
0.0
  0
VERTEX
  5
144E
  8
SAPA_PROFIL
 10
18.000000000007301
 20
39.499999999985448
 30
0.0
 42
0.4142135623731035
  0
VERTEX
  5
144F
  8
SAPA_PROFIL
 10
18.50000000000729
 20
39.999999999985448
 30
0.0
  0
VERTEX
  5
1450
  8
SAPA_PROFIL
 10
18.500000000000028
 20
43.749999999985448
 30
0.0
 42
0.4142135623731035
  0
VERTEX
  5
1451
  8
SAPA_PROFIL
 10
18.000000000000028
 20
44.249999999985441
 30
0.0
  0
VERTEX
  5
1452
  8
SAPA_PROFIL
 10
17.699999999997129
 20
44.249999999985441
 30
0.0
 42
0.4142135623731159
  0
VERTEX
  5
1453
  8
SAPA_PROFIL
 10
17.499999999989111
 20
44.049999999973807
 30
0.0
  0
VERTEX
  5
1454
  8
SAPA_PROFIL
 10
17.500000000000028
 20
43.199999999986169
 30
0.0
 42
-0.4142135623730951
  0
VERTEX
  5
1455
  8
SAPA_PROFIL
 10
17.300000000010211
 20
42.999999999985441
 30
0.0
  0
VERTEX
  5
1456
  8
SAPA_PROFIL
 10
16.300000000010211
 20
42.999999999985441
 30
0.0
 42
-0.4142135623731035
  0
VERTEX
  5
1457
  8
SAPA_PROFIL
 10
15.80000000001022
 20
43.499999999985441
 30
0.0
  0
VERTEX
  5
1458
  8
SAPA_PROFIL
 10
15.80000000001022
 20
49.499999999985448
 30
0.0
 42
-0.4142135623731033
  0
VERTEX
  5
1459
  8
SAPA_PROFIL
 10
16.300000000010211
 20
49.999999999985448
 30
0.0
  0
VERTEX
  5
145A
  8
SAPA_PROFIL
 10
17.300000000010211
 20
49.999999999985448
 30
0.0
 42
-0.4142135623731054
  0
VERTEX
  5
145B
  8
SAPA_PROFIL
 10
17.500000000000028
 20
49.799999999973807
 30
0.0
  0
VERTEX
  5
145C
  8
SAPA_PROFIL
 10
17.500000000007301
 20
48.949999999986169
 30
0.0
 42
0.4142135623731159
  0
VERTEX
  5
145D
  8
SAPA_PROFIL
 10
17.700000000026229
 20
48.749999999974527
 30
0.0
  0
VERTEX
  5
145E
  8
SAPA_PROFIL
 10
18.000000000000028
 20
48.75
 30
0.0
 42
0.4142135623731035
  0
VERTEX
  5
145F
  8
SAPA_PROFIL
 10
18.500000000000028
 20
49.25
 30
0.0
  0
VERTEX
  5
1460
  8
SAPA_PROFIL
 10
18.500000000000028
 20
52.25
 30
0.0
 42
0.4142135623731035
  0
VERTEX
  5
1461
  8
SAPA_PROFIL
 10
18.000000000000028
 20
52.75
 30
0.0
  0
VERTEX
  5
1462
  8
SAPA_PROFIL
 10
17.699999999997129
 20
52.75
 30
0.0
 42
0.4142135623730744
  0
VERTEX
  5
1463
  8
SAPA_PROFIL
 10
17.500000000000028
 20
52.549999999999272
 30
0.0
  0
VERTEX
  5
1464
  8
SAPA_PROFIL
 10
17.500000000010949
 20
51.70000000000072
 30
0.0
 42
-0.4142135623730534
  0
VERTEX
  5
1465
  8
SAPA_PROFIL
 10
17.300000000010211
 20
51.5
 30
0.0
  0
VERTEX
  5
1466
  8
SAPA_PROFIL
 10
16.300000000010211
 20
51.5
 30
0.0
 42
-0.4142135623731035
  0
VERTEX
  5
1467
  8
SAPA_PROFIL
 10
15.80000000001022
 20
52.0
 30
0.0
  0
VERTEX
  5
1468
  8
SAPA_PROFIL
 10
15.80000000001022
 20
58.0
 30
0.0
 42
-0.4142135623730869
  0
VERTEX
  5
1469
  8
SAPA_PROFIL
 10
16.300000000010211
 20
58.5
 30
0.0
  0
VERTEX
  5
146A
  8
SAPA_PROFIL
 10
17.300000000010211
 20
58.499999999989079
 30
0.0
 42
-0.4142135623730534
  0
VERTEX
  5
146B
  8
SAPA_PROFIL
 10
17.500000000000028
 20
58.299999999999272
 30
0.0
  0
VERTEX
  5
146C
  8
SAPA_PROFIL
 10
17.499999999992749
 20
57.45000000000072
 30
0.0
 42
0.4142135623730744
  0
VERTEX
  5
146D
  8
SAPA_PROFIL
 10
17.699999999997129
 20
57.25
 30
0.0
  0
VERTEX
  5
146E
  8
SAPA_PROFIL
 10
18.000000000000028
 20
57.25
 30
0.0
 42
0.4142135623731035
  0
VERTEX
  5
146F
  8
SAPA_PROFIL
 10
18.500000000000028
 20
57.75
 30
0.0
  0
VERTEX
  5
1470
  8
SAPA_PROFIL
 10
18.500000000000028
 20
59.5
 30
0.0
 42
0.4142135623731035
  0
VERTEX
  5
1471
  8
SAPA_PROFIL
 10
18.000000000000028
 20
60.0
 30
0.0
  0
VERTEX
  5
1472
  8
SAPA_PROFIL
 10
15.50000000000003
 20
60.0
 30
0.0
 42
0.4142135623730951
  0
VERTEX
  5
1473
  8
SAPA_PROFIL
 10
14.00000000000003
 20
58.5
 30
0.0
  0
VERTEX
  5
1474
  8
SAPA_PROFIL
 10
14.0
 20
-55.625
 30
0.0
 42
0.9999999999999792
  0
VERTEX
  5
1475
  8
SAPA_PROFIL
 10
16.75
 20
-55.625
 30
0.0
  0
VERTEX
  5
1476
  8
SAPA_PROFIL
 10
16.750000000000028
 20
-3.9999999999999849
 30
0.0
 42
-0.4142135623730959
  0
VERTEX
  5
1477
  8
SAPA_PROFIL
 10
20.750000000000011
 20
0.0000000000000142
 30
0.0
  0
VERTEX
  5
1478
  8
SAPA_PROFIL
 10
62.256130958679108
 20
-0.0000000000109139
 30
0.0
 42
0.2418327667378102
  0
VERTEX
  5
1479
  8
SAPA_PROFIL
 10
62.499999999617501
 20
0.1252776749561804
 30
0.0
 42
-0.2418327667509117
  0
VERTEX
  5
147A
  8
SAPA_PROFIL
 10
62.743869040573458
 20
0.2505553499286179
 30
0.0
  0
VERTEX
  5
147B
  8
SAPA_PROFIL
 10
63.699999999623373
 20
0.2505553499322559
 30
0.0
 42
-0.2418327667448982
  0
VERTEX
  5
147C
  8
SAPA_PROFIL
 10
63.943869040578313
 20
0.12527767496384
 30
0.0
 42
0.2418327667448982
  0
VERTEX
  5
147D
  8
SAPA_PROFIL
 10
64.187738081530881
 20
-0.0000000000033538
 30
0.0
  0
VERTEX
  5
147E
  8
SAPA_PROFIL
 10
66.28581043724887
 20
-0.0000000000033538
 30
0.0
 42
0.6681786379192726
  0
VERTEX
  5
147F
  8
SAPA_PROFIL
 10
66.992917218435466
 20
1.707106781183142
 30
0.0
  0
VERTEX
  5
1480
  8
SAPA_PROFIL
 10
65.687867965266491
 20
3.0121560343523011
 30
0.0
 42
0.1989123673797352
  0
VERTEX
  5
1481
  8
SAPA_PROFIL
 10
65.475735930910403
 20
3.100023999996437
 30
0.0
  0
VERTEX
  5
1482
  8
SAPA_PROFIL
 10
64.889230484163221
 20
3.1000239999962811
 30
0.0
 42
0.1316524975873824
  0
VERTEX
  5
1483
  8
SAPA_PROFIL
 10
64.739230484163301
 20
3.059831621131635
 30
0.0
  0
VERTEX
  5
1484
  8
SAPA_PROFIL
 10
63.24999999962241
 20
2.2000239999963318
 30
0.0
  0
VERTEX
  5
1485
  8
SAPA_PROFIL
 10
62.799999999622472
 20
2.2000119999966752
 30
0.0
 42
-0.4142135623731039
  0
VERTEX
  5
1486
  8
SAPA_PROFIL
 10
62.499999999622467
 20
2.5000119999966719
 30
0.0
  0
VERTEX
  5
1487
  8
SAPA_PROFIL
 10
62.499999999622517
 20
6.1000239999967363
 30
0.0
 42
-0.4142135623730826
  0
VERTEX
  5
1488
  8
SAPA_PROFIL
 10
62.799999999622507
 20
6.4000239999967334
 30
0.0
  0
VERTEX
  5
1489
  8
SAPA_PROFIL
 10
63.24999999962251
 20
6.4000239999966331
 30
0.0
  0
VERTEX
  5
148A
  8
SAPA_PROFIL
 10
64.739260130696692
 20
5.5401992624276479
 30
0.0
 42
0.1316363093594268
  0
VERTEX
  5
148B
  8
SAPA_PROFIL
 10
64.889241035743424
 20
5.5000068841706868
 30
0.0
  0
VERTEX
  5
148C
  8
SAPA_PROFIL
 10
64.999999999626283
 20
5.4999998343798771
 30
0.0
  0
VERTEX
  5
148D
  8
SAPA_PROFIL
 10
64.999999999626283
 20
7.0856406460516146
 30
0.0
 42
0.2679491924308297
  0
VERTEX
  5
148E
  8
SAPA_PROFIL
 10
64.499999999626283
 20
7.9516660498302372
 30
0.0
  0
VERTEX
  5
148F
  8
SAPA_PROFIL
 10
62.749999999625828
 20
8.9620290209087141
 30
0.0
 42
-0.2679491924308301
  0
VERTEX
  5
1490
  8
SAPA_PROFIL
 10
62.49999999962629
 20
9.3950417228006682
 30
0.0
  0
VERTEX
  5
1491
  8
SAPA_PROFIL
 10
62.49999999962629
 20
10.60495827718114
 30
0.0
 42
-0.267949192430829
  0
VERTEX
  5
1492
  8
SAPA_PROFIL
 10
62.749999999626283
 20
11.03797097907227
 30
0.0
  0
VERTEX
  5
1493
  8
SAPA_PROFIL
 10
64.499999999626283
 20
12.04833395014793
 30
0.0
 42
0.2679491924308297
  0
VERTEX
  5
1494
  8
SAPA_PROFIL
 10
64.999999999624393
 20
12.914359353933831
 30
0.0
  0
VERTEX
  5
1495
  8
SAPA_PROFIL
 10
64.999999999626525
 20
14.50000016560193
 30
0.0
  0
VERTEX
  5
1496
  8
SAPA_PROFIL
 10
64.889241035743424
 20
14.499993115811121
 30
0.0
 42
0.1316363093594264
  0
VERTEX
  5
1497
  8
SAPA_PROFIL
 10
64.739260130696692
 20
14.45980073755416
 30
0.0
  0
VERTEX
  5
1498
  8
SAPA_PROFIL
 10
63.24999999962251
 20
13.599975999985171
 30
0.0
  0
VERTEX
  5
1499
  8
SAPA_PROFIL
 10
62.799999999622507
 20
13.59997599998507
 30
0.0
 42
-0.4142135623730951
  0
VERTEX
  5
149A
  8
SAPA_PROFIL
 10
62.499999999622517
 20
13.89997599998507
 30
0.0
  0
VERTEX
  5
149B
  8
SAPA_PROFIL
 10
62.499999999622467
 20
17.499987999985141
 30
0.0
 42
-0.4142135623731165
  0
VERTEX
  5
149C
  8
SAPA_PROFIL
 10
62.799999999622472
 20
17.799987999985131
 30
0.0
  0
VERTEX
  5
149D
  8
SAPA_PROFIL
 10
63.24999999962241
 20
17.799975999985481
 30
0.0
  0
VERTEX
  5
149E
  8
SAPA_PROFIL
 10
64.739230484163301
 20
16.940168378850171
 30
0.0
 42
0.1316524975873824
  0
VERTEX
  5
149F
  8
SAPA_PROFIL
 10
64.889230484163221
 20
16.899975999985529
 30
0.0
  0
VERTEX
  5
14A0
  8
SAPA_PROFIL
 10
65.475735930910403
 20
16.89997599998539
 30
0.0
 42
0.1989123673797351
  0
VERTEX
  5
14A1
  8
SAPA_PROFIL
 10
65.687867965266491
 20
16.987843965629509
 30
0.0
  0
VERTEX
  5
14A2
  8
SAPA_PROFIL
 10
66.992917218435466
 20
18.292893218798671
 30
0.0
 42
0.6681786379192719
  0
VERTEX
  5
14A3
  8
SAPA_PROFIL
 10
66.28581043724887
 20
19.99999999998516
 30
0.0
  0
VERTEX
  5
14A4
  8
SAPA_PROFIL
 10
64.187738081529176
 20
19.99999999998516
 30
0.0
 42
0.2418327667433408
  0
VERTEX
  5
14A5
  8
SAPA_PROFIL
 10
63.943869040577617
 20
19.874722325019398
 30
0.0
 42
-0.2418327667449424
  0
VERTEX
  5
14A6
  8
SAPA_PROFIL
 10
63.699999999623373
 20
19.749444650053189
 30
0.0
  0
VERTEX
  5
14A7
  8
SAPA_PROFIL
 10
62.743869040573458
 20
19.749444650049551
 30
0.0
 42
-0.2418327667509086
  0
VERTEX
  5
14A8
  8
SAPA_PROFIL
 10
62.49999999962634
 20
19.874722325031971
 30
0.0
 42
0.2418327667378184
  0
VERTEX
  5
14A9
  8
SAPA_PROFIL
 10
62.256130958689049
 20
19.999999999993801
 30
0.0
  0
VERTEX
  5
14AA
  8
SAPA_PROFIL
 10
60.443389324929761
 20
20.000000000003642
 30
0.0
 42
0.1095178116817878
  0
VERTEX
  5
14AB
  8
SAPA_PROFIL
 10
59.598152801458781
 20
19.8126155740818
 30
0.0
  0
VERTEX
  5
14AC
  8
SAPA_PROFIL
 10
53.968326436326628
 20
17.187384425924389
 30
0.0
 42
-0.1095178116855124
  0
VERTEX
  5
14AD
  8
SAPA_PROFIL
 10
53.123089912820461
 20
17.0
 30
0.0
  0
VERTEX
  5
14AE
  8
SAPA_PROFIL
 10
45.999999999658051
 20
16.999999999985452
 30
0.0
 42
-0.414213562373099
  0
VERTEX
  5
14AF
  8
SAPA_PROFIL
 10
45.499999999658051
 20
17.500000000003642
 30
0.0
  0
VERTEX
  5
14B0
  8
SAPA_PROFIL
 10
45.499999999658051
 20
18.500000000003631
 30
0.0
 42
-0.4142135623730951
  0
VERTEX
  5
14B1
  8
SAPA_PROFIL
 10
45.999999999658051
 20
19.000000000003642
 30
0.0
  0
VERTEX
  5
14B2
  8
SAPA_PROFIL
 10
46.291287847125233
 20
19.000000000003642
 30
0.0
 42
0.2982166266909471
  0
VERTEX
  5
14B3
  8
SAPA_PROFIL
 10
46.74954541661517
 20
19.299999999990739
 30
0.0
 42
1.5275252316550949
  0
VERTEX
  5
14B4
  8
SAPA_PROFIL
 10
41.250454582696158
 20
19.299999999998899
 30
0.0
 42
0.2982166266892463
  0
VERTEX
  5
14B5
  8
SAPA_PROFIL
 10
41.708712152176332
 20
19.00000000001296
 30
0.0
  0
VERTEX
  5
14B6
  8
SAPA_PROFIL
 10
41.999999999658058
 20
19.000000000003642
 30
0.0
 42
-0.4142135623730951
  0
VERTEX
  5
14B7
  8
SAPA_PROFIL
 10
42.499999999658058
 20
18.500000000003631
 30
0.0
  0
VERTEX
  5
14B8
  8
SAPA_PROFIL
 10
42.499999999658058
 20
17.500000000003642
 30
0.0
 42
-0.4142135623730946
  0
VERTEX
  5
14B9
  8
SAPA_PROFIL
 10
41.999999999658058
 20
17.000000000003642
 30
0.0
  0
VERTEX
  5
14BA
  8
SAPA_PROFIL
 10
23.076910086798321
 20
17.000000000003642
 30
0.0
 42
-0.1095178116834561
  0
VERTEX
  5
14BB
  8
SAPA_PROFIL
 10
22.23167356331259
 20
17.18738442592506
 30
0.0
  0
SEQEND
  5
14BC
  8
SAPA_PROFIL
  0
POLYLINE
  5
C47
  8
SAPA_PROFIL
 66
     1
 10
0.0
 20
0.0
 30
0.0
 70
     1
  0
VERTEX
  5
14BD
  8
SAPA_PROFIL
 10
16.500000000000021
 20
2.7999999999992862
 30
0.0
 42
0.4142135623730916
  0
VERTEX
  5
14BE
  8
SAPA_PROFIL
 10
16.800000000010211
 20
2.5000000000000142
 30
0.0
  0
VERTEX
  5
14BF
  8
SAPA_PROFIL
 10
59.699999999626023
 20
2.5000000000036371
 30
0.0
 42
0.4142135623730959
  0
VERTEX
  5
14C0
  8
SAPA_PROFIL
 10
59.999999999625288
 20
2.8000000000029099
 30
0.0
  0
VERTEX
  5
14C1
  8
SAPA_PROFIL
 10
59.999999999628947
 20
14.3999999999869
 30
0.0
 42
0.4142135623730951
  0
VERTEX
  5
14C2
  8
SAPA_PROFIL
 10
59.699999999626037
 20
14.69999999998981
 30
0.0
  0
VERTEX
  5
14C3
  8
SAPA_PROFIL
 10
16.800000000010211
 20
14.70000000001165
 30
0.0
 42
0.4142135623730946
  0
VERTEX
  5
14C4
  8
SAPA_PROFIL
 10
16.500000000000021
 20
14.400000000019659
 30
0.0
  0
SEQEND
  5
14C5
  8
SAPA_PROFIL
  0
POLYLINE
  5
C48
  8
SAPA_PROFIL
 62
     4
 66
     1
 10
0.0
 20
0.0
 30
-0.2
 70
     1
1001
RC_PROFILE
1002
{
1000
Region
1002
}
  0
VERTEX
  5
14C6
  8
SAPA_PROFIL
 62
     4
 10
73.999999931237681
 20
43.297179717640567
 30
-0.2
  0
VERTEX
  5
14C7
  8
SAPA_PROFIL
 62
     4
 10
73.999999931237681
 20
57.497179717642659
 30
-0.2
 42
-0.4142135623720297
  0
VERTEX
  5
14C8
  8
SAPA_PROFIL
 62
     4
 10
74.499999931235863
 20
57.997179717642659
 30
-0.2
  0
VERTEX
  5
14C9
  8
SAPA_PROFIL
 62
     4
 10
78.499999931857033
 20
57.997179717645622
 30
-0.2
 42
-0.4142135623730951
  0
VERTEX
  5
14CA
  8
SAPA_PROFIL
 62
     4
 10
78.999999931857047
 20
57.497179717645622
 30
-0.2
  0
VERTEX
  5
14CB
  8
SAPA_PROFIL
 62
     4
 10
78.999999931864323
 20
43.297179717641697
 30
-0.2
 42
-0.414213562373761
  0
VERTEX
  5
14CC
  8
SAPA_PROFIL
 62
     4
 10
78.499999931864323
 20
42.797179717640567
 30
-0.2
  0
VERTEX
  5
14CD
  8
SAPA_PROFIL
 62
     4
 10
74.499999931237681
 20
42.797179717640567
 30
-0.2
 42
-0.4142135623730951
  0
SEQEND
  5
14CE
  8
SAPA_PROFIL
 62
     4
  0
POLYLINE
  5
C49
  8
SAPA_PROFIL
 62
     4
 66
     1
 10
0.0
 20
0.0
 30
0.0
1001
GENIUS_GENOBJ-N-FIL_13
1002
{
1000
OWNER
1000
GEN
1002
}
1001
GENIUS_GENODEF_13
1002
{
1000
HIER
1070
     0
1002
}
1002
{
1000
MANEDIT
1070
     0
1002
}
1002
{
1000
NOSEL
1070
     0
1002
}
1002
{
1000
BEHIND
1070
     0
1002
}
1002
{
1000
OTHER
1070
     0
1002
}
1002
{
1000
REACTOR
1002
}
  0
VERTEX
  5
14CF
  8
SAPA_PROFIL
 62
     4
 10
87.42274000125613
 20
16.533706161231521
 30
0.0
 42
0.131652497587489
  0
VERTEX
  5
14D0
  8
SAPA_PROFIL
 62
     4
 10
88.022740001256565
 20
16.69447567669026
 30
0.0
  0
VERTEX
  5
14D1
  8
SAPA_PROFIL
 62
     4
 10
89.763397941900095
 20
17.69944500728813
 30
0.0
  0
VERTEX
  5
14D2
  8
SAPA_PROFIL
 62
     4
 10
90.199999863478567
 20
17.699456650023489
 30
0.0
 42
-0.4142135623731046
  0
VERTEX
  5
14D3
  8
SAPA_PROFIL
 62
     4
 10
90.449999863478567
 20
17.449456650023489
 30
0.0
  0
VERTEX
  5
14D4
  8
SAPA_PROFIL
 62
     4
 10
90.449999863478524
 20
13.849444650023431
 30
0.0
 42
-0.4142135623730957
  0
VERTEX
  5
14D5
  8
SAPA_PROFIL
 62
     4
 10
90.199999863478524
 20
13.599444650023431
 30
0.0
  0
VERTEX
  5
14D6
  8
SAPA_PROFIL
 62
     4
 10
89.763397323100065
 20
13.59944465002353
 30
0.0
  0
VERTEX
  5
14D7
  8
SAPA_PROFIL
 62
     4
 10
88.077259725699193
 20
14.57293664577359
 30
0.0
 42
0.1316524975873848
  0
VERTEX
  5
14D8
  8
SAPA_PROFIL
 62
     4
 10
87.477259725699241
 20
14.73370616123225
 30
0.0
  0
VERTEX
  5
14D9
  8
SAPA_PROFIL
 62
     4
 10
65.522740137408221
 20
14.73370616123225
 30
0.0
 42
0.1316524975873846
  0
VERTEX
  5
14DA
  8
SAPA_PROFIL
 62
     4
 10
64.922740137408269
 20
14.57293664577359
 30
0.0
  0
VERTEX
  5
14DB
  8
SAPA_PROFIL
 62
     4
 10
63.236602540007389
 20
13.59944465002353
 30
0.0
  0
VERTEX
  5
14DC
  8
SAPA_PROFIL
 62
     4
 10
62.79999999962893
 20
13.599444650023431
 30
0.0
 42
-0.4142135623730951
  0
VERTEX
  5
14DD
  8
SAPA_PROFIL
 62
     4
 10
62.549999999628952
 20
13.849444650023431
 30
0.0
  0
VERTEX
  5
14DE
  8
SAPA_PROFIL
 62
     4
 10
62.549999999628902
 20
17.449456650023489
 30
0.0
 42
-0.4142135623731046
  0
VERTEX
  5
14DF
  8
SAPA_PROFIL
 62
     4
 10
62.799999999628909
 20
17.699456650023489
 30
0.0
  0
VERTEX
  5
14E0
  8
SAPA_PROFIL
 62
     4
 10
63.236601921207367
 20
17.69944500728813
 30
0.0
  0
VERTEX
  5
14E1
  8
SAPA_PROFIL
 62
     4
 10
64.977259861850911
 20
16.69447567669026
 30
0.0
 42
0.1316524975874892
  0
VERTEX
  5
14E2
  8
SAPA_PROFIL
 62
     4
 10
65.577259861851331
 20
16.533706161231521
 30
0.0
  0
VERTEX
  5
14E3
  8
SAPA_PROFIL
 62
     4
 10
68.299999999379935
 20
16.5337061612322
 30
0.0
 42
0.414213562374094
  0
VERTEX
  5
14E4
  8
SAPA_PROFIL
 62
     4
 10
69.499999999378844
 20
17.733706161236341
 30
0.0
  0
VERTEX
  5
14E5
  8
SAPA_PROFIL
 62
     4
 10
69.499999999289713
 20
43.531441188158169
 30
0.0
 42
-0.4142135623730951
  0
VERTEX
  5
14E6
  8
SAPA_PROFIL
 62
     4
 10
69.999999999289713
 20
44.031441188158162
 30
0.0
  0
VERTEX
  5
14E7
  8
SAPA_PROFIL
 62
     4
 10
70.199999999289531
 20
44.031441188158396
 30
0.0
 42
-0.4142135623730951
  0
VERTEX
  5
14E8
  8
SAPA_PROFIL
 62
     4
 10
70.499999999289713
 20
43.731441188158207
 30
0.0
  0
VERTEX
  5
14E9
  8
SAPA_PROFIL
 62
     4
 10
70.499999999289713
 20
43.081441188156298
 30
0.0
 42
0.4142135623730951
  0
VERTEX
  5
14EA
  8
SAPA_PROFIL
 62
     4
 10
70.799999999290804
 20
42.781441188156343
 30
0.0
  0
VERTEX
  5
14EB
  8
SAPA_PROFIL
 62
     4
 10
71.699999999286803
 20
42.78144118815726
 30
0.0
 42
0.4142135623730951
  0
VERTEX
  5
14EC
  8
SAPA_PROFIL
 62
     4
 10
72.199999999286803
 20
43.28144118815635
 30
0.0
  0
VERTEX
  5
14ED
  8
SAPA_PROFIL
 62
     4
 10
72.199999999286803
 20
49.281441188158169
 30
0.0
 42
0.4142135623730951
  0
VERTEX
  5
14EE
  8
SAPA_PROFIL
 62
     4
 10
71.699999999286803
 20
49.781441188158169
 30
0.0
  0
VERTEX
  5
14EF
  8
SAPA_PROFIL
 62
     4
 10
70.799999999288076
 20
49.781441188158169
 30
0.0
 42
0.4142135623710974
  0
VERTEX
  5
14F0
  8
SAPA_PROFIL
 62
     4
 10
70.499999999288804
 20
49.481441188160261
 30
0.0
  0
VERTEX
  5
14F1
  8
SAPA_PROFIL
 62
     4
 10
70.499999999284256
 20
48.831441188158351
 30
0.0
 42
-0.4142135623730951
  0
VERTEX
  5
14F2
  8
SAPA_PROFIL
 62
     4
 10
70.199999999282255
 20
48.531441188160223
 30
0.0
  0
VERTEX
  5
14F3
  8
SAPA_PROFIL
 62
     4
 10
69.999999999289713
 20
48.531441188161352
 30
0.0
 42
-0.4142135623730951
  0
VERTEX
  5
14F4
  8
SAPA_PROFIL
 62
     4
 10
69.499999999289713
 20
49.031441188161352
 30
0.0
  0
VERTEX
  5
14F5
  8
SAPA_PROFIL
 62
     4
 10
69.499999999289713
 20
52.031441188161352
 30
0.0
 42
-0.4142135623730951
  0
VERTEX
  5
14F6
  8
SAPA_PROFIL
 62
     4
 10
69.999999999289713
 20
52.531441188161352
 30
0.0
  0
VERTEX
  5
14F7
  8
SAPA_PROFIL
 62
     4
 10
70.199999999289531
 20
52.531441188161352
 30
0.0
 42
-0.4142135623730951
  0
VERTEX
  5
14F8
  8
SAPA_PROFIL
 62
     4
 10
70.499999999289713
 20
52.23144118816117
 30
0.0
  0
VERTEX
  5
14F9
  8
SAPA_PROFIL
 62
     4
 10
70.499999999289713
 20
51.581441188161307
 30
0.0
 42
0.4142135623730951
  0
VERTEX
  5
14FA
  8
SAPA_PROFIL
 62
     4
 10
70.799999999290804
 20
51.281441188161352
 30
0.0
  0
VERTEX
  5
14FB
  8
SAPA_PROFIL
 62
     4
 10
71.699999999286803
 20
51.281441188161352
 30
0.0
 42
0.4142135623730951
  0
VERTEX
  5
14FC
  8
SAPA_PROFIL
 62
     4
 10
72.199999999286803
 20
51.781441188161352
 30
0.0
  0
VERTEX
  5
14FD
  8
SAPA_PROFIL
 62
     4
 10
72.199999999286803
 20
57.781441188161352
 30
0.0
 42
0.4142135623730951
  0
VERTEX
  5
14FE
  8
SAPA_PROFIL
 62
     4
 10
71.699999999286803
 20
58.281441188161352
 30
0.0
  0
VERTEX
  5
14FF
  8
SAPA_PROFIL
 62
     4
 10
70.799999999290804
 20
58.281441188161352
 30
0.0
 42
0.4142135623730951
  0
VERTEX
  5
1500
  8
SAPA_PROFIL
 62
     4
 10
70.499999999289713
 20
57.98144118816117
 30
0.0
  0
VERTEX
  5
1501
  8
SAPA_PROFIL
 62
     4
 10
70.499999999289713
 20
57.331441188161307
 30
0.0
 42
-0.4142135623730949
  0
VERTEX
  5
1502
  8
SAPA_PROFIL
 62
     4
 10
70.199999999289531
 20
57.031441188161352
 30
0.0
  0
VERTEX
  5
1503
  8
SAPA_PROFIL
 62
     4
 10
69.999999999289713
 20
57.031441188161352
 30
0.0
 42
-0.4142135623730951
  0
VERTEX
  5
1504
  8
SAPA_PROFIL
 62
     4
 10
69.499999999289713
 20
57.531441188161352
 30
0.0
  0
VERTEX
  5
1505
  8
SAPA_PROFIL
 62
     4
 10
69.499999999290623
 20
59.281441188161352
 30
0.0
 42
-0.4142135623726955
  0
VERTEX
  5
1506
  8
SAPA_PROFIL
 62
     4
 10
69.999999999624393
 20
59.781441188161352
 30
0.0
  0
VERTEX
  5
1507
  8
SAPA_PROFIL
 62
     4
 10
82.999999999631669
 20
59.78144118816158
 30
0.0
 42
-0.4142135623732284
  0
VERTEX
  5
1508
  8
SAPA_PROFIL
 62
     4
 10
83.499999999908169
 20
59.281441188163171
 30
0.0
  0
VERTEX
  5
1509
  8
SAPA_PROFIL
 62
     4
 10
83.499999999908169
 20
57.531441188163171
 30
0.0
 42
-0.4142135623730951
  0
VERTEX
  5
150A
  8
SAPA_PROFIL
 62
     4
 10
82.999999999908155
 20
57.031441188163171
 30
0.0
  0
VERTEX
  5
150B
  8
SAPA_PROFIL
 62
     4
 10
82.799999999908351
 20
57.031441188163171
 30
0.0
 42
-0.4142135623730951
  0
VERTEX
  5
150C
  8
SAPA_PROFIL
 62
     4
 10
82.499999999908184
 20
57.331441188163353
 30
0.0
  0
VERTEX
  5
150D
  8
SAPA_PROFIL
 62
     4
 10
82.499999999908184
 20
57.98144118816321
 30
0.0
 42
0.4142135623730951
  0
VERTEX
  5
150E
  8
SAPA_PROFIL
 62
     4
 10
82.199999999908897
 20
58.281441188163171
 30
0.0
  0
VERTEX
  5
150F
  8
SAPA_PROFIL
 62
     4
 10
81.29999999991108
 20
58.281441188163171
 30
0.0
 42
0.4142135623730951
  0
VERTEX
  5
1510
  8
SAPA_PROFIL
 62
     4
 10
80.799999999911066
 20
57.781441188163171
 30
0.0
  0
VERTEX
  5
1511
  8
SAPA_PROFIL
 62
     4
 10
80.799999999911066
 20
51.781441188163171
 30
0.0
 42
0.4142135623730951
  0
VERTEX
  5
1512
  8
SAPA_PROFIL
 62
     4
 10
81.29999999991108
 20
51.281441188163171
 30
0.0
  0
VERTEX
  5
1513
  8
SAPA_PROFIL
 62
     4
 10
82.199999999908897
 20
51.281441188163171
 30
0.0
 42
0.4142135623730953
  0
VERTEX
  5
1514
  8
SAPA_PROFIL
 62
     4
 10
82.499999999908184
 20
51.581441188163353
 30
0.0
  0
VERTEX
  5
1515
  8
SAPA_PROFIL
 62
     4
 10
82.499999999908184
 20
52.23144118816321
 30
0.0
 42
-0.4142135623730951
  0
VERTEX
  5
1516
  8
SAPA_PROFIL
 62
     4
 10
82.799999999908351
 20
52.531441188163171
 30
0.0
  0
VERTEX
  5
1517
  8
SAPA_PROFIL
 62
     4
 10
82.999999999908155
 20
52.531441188163171
 30
0.0
 42
-0.4142135623730951
  0
VERTEX
  5
1518
  8
SAPA_PROFIL
 62
     4
 10
83.499999999908169
 20
52.031441188163171
 30
0.0
  0
VERTEX
  5
1519
  8
SAPA_PROFIL
 62
     4
 10
83.499999999908169
 20
49.031441188163171
 30
0.0
 42
-0.4142135623730951
  0
VERTEX
  5
151A
  8
SAPA_PROFIL
 62
     4
 10
82.999999999908155
 20
48.531441188163171
 30
0.0
  0
VERTEX
  5
151B
  8
SAPA_PROFIL
 62
     4
 10
82.799999999915627
 20
48.531441188162027
 30
0.0
 42
-0.414213562372873
  0
VERTEX
  5
151C
  8
SAPA_PROFIL
 62
     4
 10
82.499999999913626
 20
48.83144118816017
 30
0.0
  0
VERTEX
  5
151D
  8
SAPA_PROFIL
 62
     4
 10
82.499999999910884
 20
49.48144118816117
 30
0.0
 42
0.4142135623722071
  0
VERTEX
  5
151E
  8
SAPA_PROFIL
 62
     4
 10
82.199999999909807
 20
49.781441188160223
 30
0.0
  0
VERTEX
  5
151F
  8
SAPA_PROFIL
 62
     4
 10
81.29999999991108
 20
49.781441188160223
 30
0.0
 42
0.4142135623730951
  0
VERTEX
  5
1520
  8
SAPA_PROFIL
 62
     4
 10
80.799999999911066
 20
49.281441188160208
 30
0.0
  0
VERTEX
  5
1521
  8
SAPA_PROFIL
 62
     4
 10
80.799999999918356
 20
43.281441188158162
 30
0.0
 42
0.4142135623730951
  0
VERTEX
  5
1522
  8
SAPA_PROFIL
 62
     4
 10
81.299999999918356
 20
42.781441188158162
 30
0.0
  0
VERTEX
  5
1523
  8
SAPA_PROFIL
 62
     4
 10
82.199999999915264
 20
42.781441188158162
 30
0.0
 42
0.4142135623730951
  0
VERTEX
  5
1524
  8
SAPA_PROFIL
 62
     4
 10
82.499999999915445
 20
43.081441188158337
 30
0.0
  0
VERTEX
  5
1525
  8
SAPA_PROFIL
 62
     4
 10
82.499999999915445
 20
43.731441188160261
 30
0.0
 42
-0.4142135623730951
  0
VERTEX
  5
1526
  8
SAPA_PROFIL
 62
     4
 10
82.799999999915627
 20
44.031441188160223
 30
0.0
  0
VERTEX
  5
1527
  8
SAPA_PROFIL
 62
     4
 10
82.999999999915445
 20
44.031441188160223
 30
0.0
 42
-0.4142135623730951
  0
VERTEX
  5
1528
  8
SAPA_PROFIL
 62
     4
 10
83.499999999915445
 20
43.531441188160208
 30
0.0
  0
VERTEX
  5
1529
  8
SAPA_PROFIL
 62
     4
 10
83.499999999833577
 20
17.733706161236341
 30
0.0
 42
0.414213562374094
  0
VERTEX
  5
152A
  8
SAPA_PROFIL
 62
     4
 10
84.699999999833409
 20
16.533706161232431
 30
0.0
  0
VERTEX
  5
152B
  8
SAPA_PROFIL
 62
     4
 10
87.428481349913483
 20
16.5337061612322
 30
0.0
  0
SEQEND
  5
152C
  8
SAPA_PROFIL
 62
     4
  0
POLYLINE
  5
C4A
  8
SAPA_PROFIL
 62
     4
 66
     1
 10
0.0
 20
0.0
 30
0.0
 70
     1
  0
VERTEX
  5
152D
  8
SAPA_PROFIL
 62
     4
 10
79.799999931868143
 20
41.497179717642673
 30
0.0
  0
VERTEX
  5
152E
  8
SAPA_PROFIL
 62
     4
 10
72.299999931309713
 20
41.497179717638573
 30
0.0
 42
0.4142135623730951
  0
VERTEX
  5
152F
  8
SAPA_PROFIL
 62
     4
 10
71.299999931309713
 20
40.497179717638573
 30
0.0
  0
VERTEX
  5
1530
  8
SAPA_PROFIL
 62
     4
 10
71.299999931294252
 20
17.34944469071479
 30
0.0
 42
0.4142135623730949
  0
VERTEX
  5
1531
  8
SAPA_PROFIL
 62
     4
 10
72.099999931294434
 20
16.549444690714608
 30
0.0
  0
VERTEX
  5
1532
  8
SAPA_PROFIL
 62
     4
 10
80.899999931813028
 20
16.549444690714608
 30
0.0
 42
0.414213562373428
  0
VERTEX
  5
1533
  8
SAPA_PROFIL
 62
     4
 10
81.699999931813196
 20
17.3494446907157
 30
0.0
  0
VERTEX
  5
1534
  8
SAPA_PROFIL
 62
     4
 10
81.699999931789563
 20
40.497179717642659
 30
0.0
 42
0.4142135623724957
  0
VERTEX
  5
1535
  8
SAPA_PROFIL
 62
     4
 10
80.699999931790472
 20
41.497179717640613
 30
0.0
  0
SEQEND
  5
1536
  8
SAPA_PROFIL
 62
     4
  0
LINE
  5
C76
  8
SAPA_GLAS
 10
130.7499999279039
 20
69.799999999895576
 30
0.0
 11
129.99999992789071
 21
69.799999999895576
 31
0.0
  0
LINE
  5
C77
  8
SAPA_GLAS
 10
129.9999999278908
 20
56.99999999988465
 30
0.0
 11
130.74999992788989
 21
56.99999999988384
 31
0.0
  0
LINE
  5
C78
  8
SAPA_GLAS
 10
87.249999927877354
 20
69.799999999895576
 30
0.0
 11
87.999999927890485
 21
69.799999999895576
 31
0.0
  0
LINE
  5
C79
  8
SAPA_GLAS
 10
87.999999927890457
 20
56.99999999988465
 30
0.0
 11
87.249999927891366
 21
56.99999999988384
 31
0.0
  0
INSERT
  5
C7A
  8
SAPA_GLAS
  6
CONTINUOUS
  2
*X55
 10
0.0
 20
0.0
 30
0.0
1001
ACAD
1000
HATCH
1002
{
1070
    19
1000
ANSI37
1040
0.25
1040
1.5707963267948959
1000
R14_HATCH_DATA
1000
C7A
1011
1.0
1021
0.0
1031
0.0
1021
0.0
1031
0.0
1011
0.0
1021
0.0
1031
0.0
1021
1.0
1031
0.0
1011
0.0
1021
0.0
1031
0.0
1021
0.0
1031
1.0
1040
0.0
1010
0.0
1020
0.0
1030
1.0
1000
ANSI37
1070
     0
1070
     0
1071
        1
1071
        7
1070
     0
1070
     1
1071
        4
1040
130.7499999282434
1040
69.79999999989559
1040
129.9999999278908
1040
69.79999999989559
1040
129.9999999278908
1040
56.99999999988465
1040
130.7499999282293
1040
56.999999999883819
1071
        0
1070
     0
1070
     1
1040
1.5707963267948959
1040
0.25
1070
     0
1070
     2
1040
2.3561944901923439
1040
132.4999999278657
1040
46.92414414758538
1040
-0.5612660075668221
1040
-0.5612660075668221
1070
     0
1040
3.926990816987241
1040
132.4999999278657
1040
46.92414414758538
1040
0.5612660075668221
1040
-0.5612660075668221
1070
     0
1040
0.0325758689756538
1071
        1
1040
130.40831851264841
1040
62.239910499685571
1040
0.0
1002
}
  0
INSERT
  5
C7B
  8
SAPA_GLAS
  6
CONTINUOUS
  2
*X56
 10
0.0
 20
0.0
 30
0.0
1001
ACAD
1000
HATCH
1002
{
1070
    19
1000
ANSI37
1040
0.25
1040
1.5707963267948959
1000
R14_HATCH_DATA
1000
C7B
1011
1.0
1021
0.0
1031
0.0
1021
0.0
1031
0.0
1011
0.0
1021
0.0
1031
0.0
1021
1.0
1031
0.0
1011
0.0
1021
0.0
1031
0.0
1021
0.0
1031
1.0
1040
0.0
1010
0.0
1020
0.0
1030
1.0
1000
ANSI37
1070
     0
1070
     0
1071
        1
1071
        7
1070
     0
1070
     1
1071
        4
1040
87.999999927890485
1040
69.799999999895576
1040
87.249999927877354
1040
69.799999999895576
1040
87.249999927891366
1040
56.99999999988384
1040
87.999999927890457
1040
56.99999999988465
1071
        0
1070
     0
1070
     1
1040
1.5707963267948959
1040
0.25
1070
     0
1070
     2
1040
2.3561944901923439
1040
132.4999999278657
1040
46.92414414758538
1040
-0.5612660075668221
1040
-0.5612660075668221
1070
     0
1040
3.926990816987241
1040
132.4999999278657
1040
46.92414414758538
1040
0.5612660075668221
1040
-0.5612660075668221
1070
     0
1040
0.0230646099693014
1071
        1
1040
87.652314285197804
1040
60.868422804598829
1040
0.0
1002
}
  0
POLYLINE
  5
C7C
  8
SAPA_GLAS
 66
     1
 10
0.0
 20
0.0
 30
0.0
  0
VERTEX
  5
15D3
  8
SAPA_GLAS
 10
129.9999999278908
 20
88.999999999884622
 30
0.0
  0
VERTEX
  5
15D4
  8
SAPA_GLAS
 10
129.9999999278908
 20
56.999999999884622
 30
0.0
  0
VERTEX
  5
15D5
  8
SAPA_GLAS
 10
123.9999999278908
 20
56.999999999884622
 30
0.0
  0
VERTEX
  5
15D6
  8
SAPA_GLAS
 10
123.9999999278908
 20
88.999999999884622
 30
0.0
  0
SEQEND
  5
15D7
  8
SAPA_GLAS
  0
POLYLINE
  5
C7D
  8
SAPA_GLAS
 66
     1
 10
0.0
 20
0.0
 30
0.0
  0
VERTEX
  5
15D8
  8
SAPA_GLAS
 10
111.9999999278906
 20
66.99999999988465
 30
0.0
  0
VERTEX
  5
15D9
  8
SAPA_GLAS
 10
123.9999999278906
 20
66.999999999884636
 30
0.0
  0
VERTEX
  5
15DA
  8
SAPA_GLAS
 10
123.9999999278906
 20
56.999999999884622
 30
0.0
  0
VERTEX
  5
15DB
  8
SAPA_GLAS
 10
111.9999999278906
 20
56.99999999988465
 30
0.0
  0
VERTEX
  5
15DC
  8
SAPA_GLAS
 10
111.9999999278906
 20
66.99999999988465
 30
0.0
  0
SEQEND
  5
15DD
  8
SAPA_GLAS
  0
POLYLINE
  5
C7E
  8
SAPA_GLAS
 66
     1
 10
0.0
 20
0.0
 30
0.0
  0
VERTEX
  5
15DE
  8
SAPA_GLAS
 10
111.9999999278906
 20
88.999999999884636
 30
0.0
  0
VERTEX
  5
15DF
  8
SAPA_GLAS
 10
111.9999999278906
 20
56.999999999884629
 30
0.0
  0
VERTEX
  5
15E0
  8
SAPA_GLAS
 10
105.9999999278906
 20
56.999999999884629
 30
0.0
  0
VERTEX
  5
15E1
  8
SAPA_GLAS
 10
105.9999999278906
 20
88.999999999884636
 30
0.0
  0
SEQEND
  5
15E2
  8
SAPA_GLAS
  0
POLYLINE
  5
C7F
  8
SAPA_GLAS
 66
     1
 10
0.0
 20
0.0
 30
0.0
  0
VERTEX
  5
15E3
  8
SAPA_GLAS
 10
93.999999927890485
 20
66.999999999884665
 30
0.0
  0
VERTEX
  5
15E4
  8
SAPA_GLAS
 10
105.9999999278904
 20
66.99999999988465
 30
0.0
  0
VERTEX
  5
15E5
  8
SAPA_GLAS
 10
105.9999999278904
 20
56.999999999884629
 30
0.0
  0
VERTEX
  5
15E6
  8
SAPA_GLAS
 10
93.999999927890457
 20
56.999999999884672
 30
0.0
  0
VERTEX
  5
15E7
  8
SAPA_GLAS
 10
93.999999927890485
 20
66.999999999884665
 30
0.0
  0
SEQEND
  5
15E8
  8
SAPA_GLAS
  0
POLYLINE
  5
C80
  8
SAPA_GLAS
 66
     1
 10
0.0
 20
0.0
 30
0.0
  0
VERTEX
  5
15E9
  8
SAPA_GLAS
 10
87.999999927890485
 20
88.999999999884636
 30
0.0
  0
VERTEX
  5
15EA
  8
SAPA_GLAS
 10
87.999999927890457
 20
56.999999999884672
 30
0.0
  0
VERTEX
  5
15EB
  8
SAPA_GLAS
 10
93.999999927890457
 20
56.999999999884672
 30
0.0
  0
VERTEX
  5
15EC
  8
SAPA_GLAS
 10
93.999999927890485
 20
88.999999999884636
 30
0.0
  0
SEQEND
  5
15ED
  8
SAPA_GLAS
  0
POLYLINE
  5
C81
  8
SAPA_GLAS
 66
     1
 10
0.0
 20
0.0
 30
0.0
 70
     1
  0
VERTEX
  5
15EE
  8
SAPA_GLAS
 10
87.999999927890642
 20
56.99999999988465
 30
0.0
  0
VERTEX
  5
15EF
  8
SAPA_GLAS
 10
129.9999999278906
 20
56.999999999884622
 30
0.0
  0
VERTEX
  5
15F0
  8
SAPA_GLAS
 10
129.9999999278979
 20
54.999999999986493
 30
0.0
  0
VERTEX
  5
15F1
  8
SAPA_GLAS
 10
120.9999999278906
 20
54.999999999986507
 30
0.0
  0
VERTEX
  5
15F2
  8
SAPA_GLAS
 10
120.9999999278906
 20
52.999999999986507
 30
0.0
  0
VERTEX
  5
15F3
  8
SAPA_GLAS
 10
96.999999927890656
 20
52.999999999986507
 30
0.0
  0
VERTEX
  5
15F4
  8
SAPA_GLAS
 10
96.999999927890656
 20
54.999999999986507
 30
0.0
  0
VERTEX
  5
15F5
  8
SAPA_GLAS
 10
87.999999927890642
 20
54.999999999986507
 30
0.0
  0
SEQEND
  5
15F6
  8
SAPA_GLAS
  0
POLYLINE
  5
CA6
  8
SAPA_FOGBAND
 66
     1
 10
0.0
 20
0.0
 30
0.0
 70
     1
  0
VERTEX
  5
1697
  8
SAPA_FOGBAND
 10
16.250000000010221
 20
49.649999999982533
 30
0.0
  0
VERTEX
  5
1698
  8
SAPA_FOGBAND
 10
17.0500000000104
 20
49.649999999982533
 30
0.0
  0
VERTEX
  5
1699
  8
SAPA_FOGBAND
 10
17.0500000000104
 20
43.34999999998545
 30
0.0
  0
VERTEX
  5
169A
  8
SAPA_FOGBAND
 10
16.250000000010221
 20
43.34999999998545
 30
0.0
  0
SEQEND
  5
169B
  8
SAPA_FOGBAND
  0
POLYLINE
  5
CA7
  8
SAPA_FOGBAND
 66
     1
 10
0.0
 20
0.0
 30
0.0
  0
VERTEX
  5
169C
  8
SAPA_FOGBAND
 10
17.0500000000104
 20
44.927310396842941
 30
0.0
  0
VERTEX
  5
169D
  8
SAPA_FOGBAND
 10
20.500000000010221
 20
43.801863799527027
 30
0.0
  0
VERTEX
  5
169E
  8
SAPA_FOGBAND
 10
20.500000000010221
 20
46.240001846075558
 30
0.0
  0
VERTEX
  5
169F
  8
SAPA_FOGBAND
 10
17.0500000000104
 20
46.349999999982529
 30
0.0
  0
SEQEND
  5
16A0
  8
SAPA_FOGBAND
  0
POLYLINE
  5
CA8
  8
SAPA_FOGBAND
 66
     1
 10
0.0
 20
0.0
 30
0.0
  0
VERTEX
  5
16A1
  8
SAPA_FOGBAND
 10
17.0500000000104
 20
46.424999999983257
 30
0.0
  0
VERTEX
  5
16A2
  8
SAPA_FOGBAND
 10
20.500000000010221
 20
46.424999999986539
 30
0.0
  0
VERTEX
  5
16A3
  8
SAPA_FOGBAND
 10
20.500000000010221
 20
46.574999999984719
 30
0.0
  0
VERTEX
  5
16A4
  8
SAPA_FOGBAND
 10
17.0500000000104
 20
46.574999999984719
 30
0.0
  0
SEQEND
  5
16A5
  8
SAPA_FOGBAND
  0
POLYLINE
  5
CA9
  8
SAPA_FOGBAND
 66
     1
 10
0.0
 20
0.0
 30
0.0
  0
VERTEX
  5
16A6
  8
SAPA_FOGBAND
 10
17.0500000000104
 20
46.649999999985447
 30
0.0
  0
VERTEX
  5
16A7
  8
SAPA_FOGBAND
 10
20.500000000010221
 20
46.759997385167694
 30
0.0
  0
VERTEX
  5
16A8
  8
SAPA_FOGBAND
 10
20.500000000010221
 20
49.198090725589857
 30
0.0
  0
VERTEX
  5
16A9
  8
SAPA_FOGBAND
 10
17.0500000000104
 20
48.072689603125028
 30
0.0
  0
SEQEND
  5
16AA
  8
SAPA_FOGBAND
  0
POLYLINE
  5
CAA
  8
SAPA_FOGBAND
 66
     1
 10
0.0
 20
0.0
 30
0.0
 70
     1
  0
VERTEX
  5
16AB
  8
SAPA_FOGBAND
 10
16.250000000010221
 20
58.149999999997092
 30
0.0
  0
VERTEX
  5
16AC
  8
SAPA_FOGBAND
 10
17.0500000000104
 20
58.149999999997092
 30
0.0
  0
VERTEX
  5
16AD
  8
SAPA_FOGBAND
 10
17.0500000000104
 20
51.850000000000001
 30
0.0
  0
VERTEX
  5
16AE
  8
SAPA_FOGBAND
 10
16.250000000010221
 20
51.850000000000001
 30
0.0
  0
SEQEND
  5
16AF
  8
SAPA_FOGBAND
  0
POLYLINE
  5
CAB
  8
SAPA_FOGBAND
 66
     1
 10
0.0
 20
0.0
 30
0.0
  0
VERTEX
  5
16B0
  8
SAPA_FOGBAND
 10
17.0500000000104
 20
53.4273103968575
 30
0.0
  0
VERTEX
  5
16B1
  8
SAPA_FOGBAND
 10
20.500000000010221
 20
52.301863799541579
 30
0.0
  0
VERTEX
  5
16B2
  8
SAPA_FOGBAND
 10
20.500000000010221
 20
54.740001846090109
 30
0.0
  0
VERTEX
  5
16B3
  8
SAPA_FOGBAND
 10
17.0500000000104
 20
54.849999999997081
 30
0.0
  0
SEQEND
  5
16B4
  8
SAPA_FOGBAND
  0
POLYLINE
  5
CAC
  8
SAPA_FOGBAND
 66
     1
 10
0.0
 20
0.0
 30
0.0
  0
VERTEX
  5
16B5
  8
SAPA_FOGBAND
 10
17.0500000000104
 20
54.924999999997823
 30
0.0
  0
VERTEX
  5
16B6
  8
SAPA_FOGBAND
 10
20.500000000010221
 20
54.925000000001091
 30
0.0
  0
VERTEX
  5
16B7
  8
SAPA_FOGBAND
 10
20.500000000010221
 20
55.074999999999278
 30
0.0
  0
VERTEX
  5
16B8
  8
SAPA_FOGBAND
 10
17.0500000000104
 20
55.074999999999271
 30
0.0
  0
SEQEND
  5
16B9
  8
SAPA_FOGBAND
  0
POLYLINE
  5
CAD
  8
SAPA_FOGBAND
 66
     1
 10
0.0
 20
0.0
 30
0.0
  0
VERTEX
  5
16BA
  8
SAPA_FOGBAND
 10
17.0500000000104
 20
55.149999999999999
 30
0.0
  0
VERTEX
  5
16BB
  8
SAPA_FOGBAND
 10
20.500000000010221
 20
55.259997385182238
 30
0.0
  0
VERTEX
  5
16BC
  8
SAPA_FOGBAND
 10
20.500000000010221
 20
57.698090725604409
 30
0.0
  0
VERTEX
  5
16BD
  8
SAPA_FOGBAND
 10
17.0500000000104
 20
56.572689603139587
 30
0.0
  0
SEQEND
  5
16BE
  8
SAPA_FOGBAND
  0
POLYLINE
  5
CAE
  8
SAPA_FOGBAND
 66
     1
 10
0.0
 20
0.0
 30
0.0
 70
     1
  0
VERTEX
  5
16BF
  8
SAPA_FOGBAND
 10
71.749999999672553
 20
49.431441188146799
 30
0.0
  0
VERTEX
  5
16C0
  8
SAPA_FOGBAND
 10
70.949999999672372
 20
49.431441188146799
 30
0.0
  0
VERTEX
  5
16C1
  8
SAPA_FOGBAND
 10
70.949999999672372
 20
43.131441188149708
 30
0.0
  0
VERTEX
  5
16C2
  8
SAPA_FOGBAND
 10
71.749999999672553
 20
43.131441188149708
 30
0.0
  0
SEQEND
  5
16C3
  8
SAPA_FOGBAND
  0
POLYLINE
  5
CAF
  8
SAPA_FOGBAND
 66
     1
 10
0.0
 20
0.0
 30
0.0
  0
VERTEX
  5
16C4
  8
SAPA_FOGBAND
 10
70.949999999672372
 20
44.708751585007207
 30
0.0
  0
VERTEX
  5
16C5
  8
SAPA_FOGBAND
 10
67.499999999672553
 20
43.583304987691292
 30
0.0
  0
VERTEX
  5
16C6
  8
SAPA_FOGBAND
 10
67.499999999672553
 20
46.021443034239823
 30
0.0
  0
VERTEX
  5
16C7
  8
SAPA_FOGBAND
 10
70.949999999672372
 20
46.131441188146802
 30
0.0
  0
SEQEND
  5
16C8
  8
SAPA_FOGBAND
  0
POLYLINE
  5
CB0
  8
SAPA_FOGBAND
 66
     1
 10
0.0
 20
0.0
 30
0.0
  0
VERTEX
  5
16C9
  8
SAPA_FOGBAND
 10
70.949999999672372
 20
46.206441188147529
 30
0.0
  0
VERTEX
  5
16CA
  8
SAPA_FOGBAND
 10
67.499999999672553
 20
46.206441188150798
 30
0.0
  0
VERTEX
  5
16CB
  8
SAPA_FOGBAND
 10
67.499999999672553
 20
46.356441188148992
 30
0.0
  0
VERTEX
  5
16CC
  8
SAPA_FOGBAND
 10
70.949999999672372
 20
46.356441188148978
 30
0.0
  0
SEQEND
  5
16CD
  8
SAPA_FOGBAND
  0
POLYLINE
  5
CB1
  8
SAPA_FOGBAND
 66
     1
 10
0.0
 20
0.0
 30
0.0
  0
VERTEX
  5
16CE
  8
SAPA_FOGBAND
 10
70.949999999672372
 20
46.431441188149712
 30
0.0
  0
VERTEX
  5
16CF
  8
SAPA_FOGBAND
 10
67.499999999672553
 20
46.541438573331952
 30
0.0
  0
VERTEX
  5
16D0
  8
SAPA_FOGBAND
 10
67.499999999672553
 20
48.979531913754123
 30
0.0
  0
VERTEX
  5
16D1
  8
SAPA_FOGBAND
 10
70.949999999672372
 20
47.8541307912893
 30
0.0
  0
SEQEND
  5
16D2
  8
SAPA_FOGBAND
  0
POLYLINE
  5
CB2
  8
SAPA_FOGBAND
 66
     1
 10
0.0
 20
0.0
 30
0.0
 70
     1
  0
VERTEX
  5
16D3
  8
SAPA_FOGBAND
 10
71.749999999672553
 20
57.931441188161351
 30
0.0
  0
VERTEX
  5
16D4
  8
SAPA_FOGBAND
 10
70.949999999672372
 20
57.931441188161351
 30
0.0
  0
VERTEX
  5
16D5
  8
SAPA_FOGBAND
 10
70.949999999672372
 20
51.63144118816426
 30
0.0
  0
VERTEX
  5
16D6
  8
SAPA_FOGBAND
 10
71.749999999672553
 20
51.63144118816426
 30
0.0
  0
SEQEND
  5
16D7
  8
SAPA_FOGBAND
  0
POLYLINE
  5
CB3
  8
SAPA_FOGBAND
 66
     1
 10
0.0
 20
0.0
 30
0.0
  0
VERTEX
  5
16D8
  8
SAPA_FOGBAND
 10
70.949999999672372
 20
53.208751585021759
 30
0.0
  0
VERTEX
  5
16D9
  8
SAPA_FOGBAND
 10
67.499999999672553
 20
52.083304987705837
 30
0.0
  0
VERTEX
  5
16DA
  8
SAPA_FOGBAND
 10
67.499999999672553
 20
54.521443034254382
 30
0.0
  0
VERTEX
  5
16DB
  8
SAPA_FOGBAND
 10
70.949999999672372
 20
54.631441188161347
 30
0.0
  0
SEQEND
  5
16DC
  8
SAPA_FOGBAND
  0
POLYLINE
  5
CB4
  8
SAPA_FOGBAND
 66
     1
 10
0.0
 20
0.0
 30
0.0
  0
VERTEX
  5
16DD
  8
SAPA_FOGBAND
 10
70.949999999672372
 20
54.706441188162081
 30
0.0
  0
VERTEX
  5
16DE
  8
SAPA_FOGBAND
 10
67.499999999672553
 20
54.706441188165357
 30
0.0
  0
VERTEX
  5
16DF
  8
SAPA_FOGBAND
 10
67.499999999672553
 20
54.856441188163537
 30
0.0
  0
VERTEX
  5
16E0
  8
SAPA_FOGBAND
 10
70.949999999672372
 20
54.856441188163529
 30
0.0
  0
SEQEND
  5
16E1
  8
SAPA_FOGBAND
  0
POLYLINE
  5
CB5
  8
SAPA_FOGBAND
 66
     1
 10
0.0
 20
0.0
 30
0.0
  0
VERTEX
  5
16E2
  8
SAPA_FOGBAND
 10
70.949999999672372
 20
54.931441188164257
 30
0.0
  0
VERTEX
  5
16E3
  8
SAPA_FOGBAND
 10
67.499999999672553
 20
55.041438573346511
 30
0.0
  0
VERTEX
  5
16E4
  8
SAPA_FOGBAND
 10
67.499999999672553
 20
57.479531913768668
 30
0.0
  0
VERTEX
  5
16E5
  8
SAPA_FOGBAND
 10
70.949999999672372
 20
56.354130791303852
 30
0.0
  0
SEQEND
  5
16E6
  8
SAPA_FOGBAND
  0
POLYLINE
  5
CB6
  8
SAPA_FOGBAND
 66
     1
 10
0.0
 20
0.0
 30
0.0
 70
     1
  0
VERTEX
  5
16E7
  8
SAPA_FOGBAND
 10
136.7499999277311
 20
49.649999999982533
 30
0.0
  0
VERTEX
  5
16E8
  8
SAPA_FOGBAND
 10
135.94999992773089
 20
49.649999999982533
 30
0.0
  0
VERTEX
  5
16E9
  8
SAPA_FOGBAND
 10
135.94999992773089
 20
43.34999999998545
 30
0.0
  0
VERTEX
  5
16EA
  8
SAPA_FOGBAND
 10
136.7499999277311
 20
43.34999999998545
 30
0.0
  0
SEQEND
  5
16EB
  8
SAPA_FOGBAND
  0
POLYLINE
  5
CB7
  8
SAPA_FOGBAND
 66
     1
 10
0.0
 20
0.0
 30
0.0
  0
VERTEX
  5
16EC
  8
SAPA_FOGBAND
 10
135.94999992773089
 20
44.927310396842941
 30
0.0
  0
VERTEX
  5
16ED
  8
SAPA_FOGBAND
 10
132.4999999277311
 20
43.801863799527027
 30
0.0
  0
VERTEX
  5
16EE
  8
SAPA_FOGBAND
 10
132.4999999277311
 20
46.240001846075558
 30
0.0
  0
VERTEX
  5
16EF
  8
SAPA_FOGBAND
 10
135.94999992773089
 20
46.349999999982529
 30
0.0
  0
SEQEND
  5
16F0
  8
SAPA_FOGBAND
  0
POLYLINE
  5
CB8
  8
SAPA_FOGBAND
 66
     1
 10
0.0
 20
0.0
 30
0.0
  0
VERTEX
  5
16F1
  8
SAPA_FOGBAND
 10
135.94999992773089
 20
46.424999999983257
 30
0.0
  0
VERTEX
  5
16F2
  8
SAPA_FOGBAND
 10
132.4999999277311
 20
46.424999999986539
 30
0.0
  0
VERTEX
  5
16F3
  8
SAPA_FOGBAND
 10
132.4999999277311
 20
46.574999999984719
 30
0.0
  0
VERTEX
  5
16F4
  8
SAPA_FOGBAND
 10
135.94999992773089
 20
46.574999999984719
 30
0.0
  0
SEQEND
  5
16F5
  8
SAPA_FOGBAND
  0
POLYLINE
  5
CB9
  8
SAPA_FOGBAND
 66
     1
 10
0.0
 20
0.0
 30
0.0
  0
VERTEX
  5
16F6
  8
SAPA_FOGBAND
 10
135.94999992773089
 20
46.649999999985447
 30
0.0
  0
VERTEX
  5
16F7
  8
SAPA_FOGBAND
 10
132.4999999277311
 20
46.759997385167694
 30
0.0
  0
VERTEX
  5
16F8
  8
SAPA_FOGBAND
 10
132.4999999277311
 20
49.198090725589857
 30
0.0
  0
VERTEX
  5
16F9
  8
SAPA_FOGBAND
 10
135.94999992773089
 20
48.072689603125028
 30
0.0
  0
SEQEND
  5
16FA
  8
SAPA_FOGBAND
  0
POLYLINE
  5
CBA
  8
SAPA_FOGBAND
 66
     1
 10
0.0
 20
0.0
 30
0.0
 70
     1
  0
VERTEX
  5
16FB
  8
SAPA_FOGBAND
 10
136.7499999277311
 20
58.149999999997092
 30
0.0
  0
VERTEX
  5
16FC
  8
SAPA_FOGBAND
 10
135.94999992773089
 20
58.149999999997092
 30
0.0
  0
VERTEX
  5
16FD
  8
SAPA_FOGBAND
 10
135.94999992773089
 20
51.850000000000001
 30
0.0
  0
VERTEX
  5
16FE
  8
SAPA_FOGBAND
 10
136.7499999277311
 20
51.850000000000001
 30
0.0
  0
SEQEND
  5
16FF
  8
SAPA_FOGBAND
  0
POLYLINE
  5
CBB
  8
SAPA_FOGBAND
 66
     1
 10
0.0
 20
0.0
 30
0.0
  0
VERTEX
  5
1700
  8
SAPA_FOGBAND
 10
135.94999992773089
 20
53.4273103968575
 30
0.0
  0
VERTEX
  5
1701
  8
SAPA_FOGBAND
 10
132.4999999277311
 20
52.301863799541579
 30
0.0
  0
VERTEX
  5
1702
  8
SAPA_FOGBAND
 10
132.4999999277311
 20
54.740001846090109
 30
0.0
  0
VERTEX
  5
1703
  8
SAPA_FOGBAND
 10
135.94999992773089
 20
54.849999999997081
 30
0.0
  0
SEQEND
  5
1704
  8
SAPA_FOGBAND
  0
POLYLINE
  5
CBC
  8
SAPA_FOGBAND
 66
     1
 10
0.0
 20
0.0
 30
0.0
  0
VERTEX
  5
1705
  8
SAPA_FOGBAND
 10
135.94999992773089
 20
54.924999999997823
 30
0.0
  0
VERTEX
  5
1706
  8
SAPA_FOGBAND
 10
132.4999999277311
 20
54.925000000001091
 30
0.0
  0
VERTEX
  5
1707
  8
SAPA_FOGBAND
 10
132.4999999277311
 20
55.074999999999278
 30
0.0
  0
VERTEX
  5
1708
  8
SAPA_FOGBAND
 10
135.94999992773089
 20
55.074999999999271
 30
0.0
  0
SEQEND
  5
1709
  8
SAPA_FOGBAND
  0
POLYLINE
  5
CBD
  8
SAPA_FOGBAND
 66
     1
 10
0.0
 20
0.0
 30
0.0
  0
VERTEX
  5
170A
  8
SAPA_FOGBAND
 10
135.94999992773089
 20
55.149999999999999
 30
0.0
  0
VERTEX
  5
170B
  8
SAPA_FOGBAND
 10
132.4999999277311
 20
55.259997385182238
 30
0.0
  0
VERTEX
  5
170C
  8
SAPA_FOGBAND
 10
132.4999999277311
 20
57.698090725604409
 30
0.0
  0
VERTEX
  5
170D
  8
SAPA_FOGBAND
 10
135.94999992773089
 20
56.572689603139587
 30
0.0
  0
SEQEND
  5
170E
  8
SAPA_FOGBAND
  0
POLYLINE
  5
CBE
  8
SAPA_FOGBAND
 66
     1
 10
0.0
 20
0.0
 30
0.0
 70
     1
  0
VERTEX
  5
170F
  8
SAPA_FOGBAND
 10
81.249999999907985
 20
49.431441188146799
 30
0.0
  0
VERTEX
  5
1710
  8
SAPA_FOGBAND
 10
82.049999999908167
 20
49.431441188146799
 30
0.0
  0
VERTEX
  5
1711
  8
SAPA_FOGBAND
 10
82.049999999908167
 20
43.131441188149708
 30
0.0
  0
VERTEX
  5
1712
  8
SAPA_FOGBAND
 10
81.249999999907985
 20
43.131441188149708
 30
0.0
  0
SEQEND
  5
1713
  8
SAPA_FOGBAND
  0
POLYLINE
  5
CBF
  8
SAPA_FOGBAND
 66
     1
 10
0.0
 20
0.0
 30
0.0
  0
VERTEX
  5
1714
  8
SAPA_FOGBAND
 10
82.049999999908167
 20
44.708751585007207
 30
0.0
  0
VERTEX
  5
1715
  8
SAPA_FOGBAND
 10
85.499999999907985
 20
43.583304987691292
 30
0.0
  0
VERTEX
  5
1716
  8
SAPA_FOGBAND
 10
85.499999999907985
 20
46.021443034239823
 30
0.0
  0
VERTEX
  5
1717
  8
SAPA_FOGBAND
 10
82.049999999908167
 20
46.131441188146802
 30
0.0
  0
SEQEND
  5
1718
  8
SAPA_FOGBAND
  0
POLYLINE
  5
CC0
  8
SAPA_FOGBAND
 66
     1
 10
0.0
 20
0.0
 30
0.0
  0
VERTEX
  5
1719
  8
SAPA_FOGBAND
 10
82.049999999908167
 20
46.206441188147529
 30
0.0
  0
VERTEX
  5
171A
  8
SAPA_FOGBAND
 10
85.499999999907985
 20
46.206441188150798
 30
0.0
  0
VERTEX
  5
171B
  8
SAPA_FOGBAND
 10
85.499999999907985
 20
46.356441188148992
 30
0.0
  0
VERTEX
  5
171C
  8
SAPA_FOGBAND
 10
82.049999999908167
 20
46.356441188148978
 30
0.0
  0
SEQEND
  5
171D
  8
SAPA_FOGBAND
  0
POLYLINE
  5
CC1
  8
SAPA_FOGBAND
 66
     1
 10
0.0
 20
0.0
 30
0.0
  0
VERTEX
  5
171E
  8
SAPA_FOGBAND
 10
82.049999999908167
 20
46.431441188149712
 30
0.0
  0
VERTEX
  5
171F
  8
SAPA_FOGBAND
 10
85.499999999907985
 20
46.541438573331952
 30
0.0
  0
VERTEX
  5
1720
  8
SAPA_FOGBAND
 10
85.499999999907985
 20
48.979531913754123
 30
0.0
  0
VERTEX
  5
1721
  8
SAPA_FOGBAND
 10
82.049999999908167
 20
47.8541307912893
 30
0.0
  0
SEQEND
  5
1722
  8
SAPA_FOGBAND
  0
POLYLINE
  5
CC2
  8
SAPA_FOGBAND
 66
     1
 10
0.0
 20
0.0
 30
0.0
 70
     1
  0
VERTEX
  5
1723
  8
SAPA_FOGBAND
 10
81.249999999907985
 20
57.931441188161351
 30
0.0
  0
VERTEX
  5
1724
  8
SAPA_FOGBAND
 10
82.049999999908167
 20
57.931441188161351
 30
0.0
  0
VERTEX
  5
1725
  8
SAPA_FOGBAND
 10
82.049999999908167
 20
51.63144118816426
 30
0.0
  0
VERTEX
  5
1726
  8
SAPA_FOGBAND
 10
81.249999999907985
 20
51.63144118816426
 30
0.0
  0
SEQEND
  5
1727
  8
SAPA_FOGBAND
  0
POLYLINE
  5
CC3
  8
SAPA_FOGBAND
 66
     1
 10
0.0
 20
0.0
 30
0.0
  0
VERTEX
  5
1728
  8
SAPA_FOGBAND
 10
82.049999999908167
 20
53.208751585021759
 30
0.0
  0
VERTEX
  5
1729
  8
SAPA_FOGBAND
 10
85.499999999907985
 20
52.083304987705837
 30
0.0
  0
VERTEX
  5
172A
  8
SAPA_FOGBAND
 10
85.499999999907985
 20
54.521443034254382
 30
0.0
  0
VERTEX
  5
172B
  8
SAPA_FOGBAND
 10
82.049999999908167
 20
54.631441188161347
 30
0.0
  0
SEQEND
  5
172C
  8
SAPA_FOGBAND
  0
POLYLINE
  5
CC4
  8
SAPA_FOGBAND
 66
     1
 10
0.0
 20
0.0
 30
0.0
  0
VERTEX
  5
172D
  8
SAPA_FOGBAND
 10
82.049999999908167
 20
54.706441188162081
 30
0.0
  0
VERTEX
  5
172E
  8
SAPA_FOGBAND
 10
85.499999999907985
 20
54.706441188165357
 30
0.0
  0
VERTEX
  5
172F
  8
SAPA_FOGBAND
 10
85.499999999907985
 20
54.856441188163537
 30
0.0
  0
VERTEX
  5
1730
  8
SAPA_FOGBAND
 10
82.049999999908167
 20
54.856441188163529
 30
0.0
  0
SEQEND
  5
1731
  8
SAPA_FOGBAND
  0
POLYLINE
  5
CC5
  8
SAPA_FOGBAND
 66
     1
 10
0.0
 20
0.0
 30
0.0
  0
VERTEX
  5
1732
  8
SAPA_FOGBAND
 10
82.049999999908167
 20
54.931441188164257
 30
0.0
  0
VERTEX
  5
1733
  8
SAPA_FOGBAND
 10
85.499999999907985
 20
55.041438573346511
 30
0.0
  0
VERTEX
  5
1734
  8
SAPA_FOGBAND
 10
85.499999999907985
 20
57.479531913768668
 30
0.0
  0
VERTEX
  5
1735
  8
SAPA_FOGBAND
 10
82.049999999908167
 20
56.354130791303852
 30
0.0
  0
SEQEND
  5
1736
  8
SAPA_FOGBAND
  0
DIMENSION
  5
CD1
  8
SAPA_MATT
  2
*D30
 10
180.99999992774161
 20
60.000000000000071
 30
0.0
 11
178.2486741701658
 21
-5.000000000002653
 31
0.0
 70
     0
  1
min. 130
 13
148.99999992774141
 23
-70.000000000005429
 33
0.0
 14
168.99999999950211
 24
60.000000000000071
 34
0.0
 50
90.0
1001
ACAD
1000
DSTYLE
1002
{
1070
    40
1040
1.0
1002
}
  0
DIMENSION
  5
CD2
  8
SAPA_MATT
  2
*D29
 10
168.99999999950211
 20
70.000000000011028
 30
0.0
 11
166.24999999950211
 21
65.000000000005528
 31
0.0
 70
     0
 13
137.49999999950211
 23
60.0
 33
0.0
 14
130.94999992824791
 24
70.000000000011042
 34
0.0
 50
90.0
1001
ACAD
1000
DSTYLE
1002
{
1070
   287
1070
     4
1070
    40
1040
1.0
1070
   279
1070
     1
1002
}
  0
DIMENSION
  5
CD3
  8
SAPA_MATT
  2
*D28
 10
168.99999999950211
 20
60.0
 30
0.0
 11
166.24999999950211
 21
1.500000000000032
 31
0.0
 70
     0
 13
137.62499999950211
 23
-56.999999999999972
 33
0.0
 14
137.49999999950211
 24
60.0
 34
0.0
 50
90.0
1001
ACAD
1000
DSTYLE
1002
{
1070
    40
1040
1.0
1002
}
  0
DIMENSION
  5
CD4
  8
SAPA_MATT
  2
*D27
 10
138.99999999950211
 20
113.0000000000001
 30
0.0
 11
76.499999999751068
 21
115.7500000000001
 31
0.0
 70
     0
 13
14.00000000000003
 23
58.5
 33
0.0
 14
138.99999999950211
 24
60.0
 34
0.0
1001
ACAD
1000
DSTYLE
1002
{
1070
    40
1040
1.0
1002
}
  0
DIMENSION
  5
CD5
  8
SAPA_MATT
  2
*D26
 10
138.99999999950211
 20
101.0000000000001
 30
0.0
 11
135.74999999950211
 21
101.0000000000001
 31
0.0
 70
   128
 13
132.49999999950211
 23
55.000000000018979
 33
0.0
 14
138.99999999950211
 24
58.5
 34
0.0
1001
ACAD
1000
DSTYLE
1002
{
1070
   287
1070
     4
1070
    40
1040
1.0
1070
   279
1070
     1
1002
}
  0
DIMENSION
  5
CD6
  8
SAPA_MATT
  2
*D25
 10
132.49999999950211
 20
101.0000000000005
 30
0.0
 11
108.99999999984141
 21
103.7500000000005
 31
0.0
 70
     0
 13
85.500000000180634
 23
55.000000000019853
 33
0.0
 14
132.49999999950211
 24
55.000000000019853
 34
0.0
1001
ACAD
1000
DSTYLE
1002
{
1070
   287
1070
     4
1070
    40
1040
1.0
1070
   279
1070
     1
1002
}
  0
DIMENSION
  5
CD7
  8
SAPA_MATT
  2
*D24
 10
85.500000000180634
 20
101.0000000000001
 30
0.0
 11
49.750000000090388
 21
101.0000000000001
 31
0.0
 70
   128
 13
14.00000000000003
 23
58.5
 33
0.0
 14
85.500000000180634
 24
55.000000000019853
 34
0.0
1001
ACAD
1000
DSTYLE
1002
{
1070
    40
1040
1.0
1002
}
  0
VIEWPORT
  5
C4
 67
     1
  8
0
 10
160.5543545598442
 20
116.00969601843509
 30
0.0
 40
404.96977709277462
 41
256.8421457311839
 68
     1
 69
     1
1001
ACAD
1000
MVIEW
1002
{
1070
    16
1010
0.0
1020
0.0
1030
0.0
1010
0.0
1020
0.0
1030
1.0
1040
0.0
1040
256.8421457311839
1040
99.206250190734863
1040
130.70624923706049
1040
50.0
1040
0.0
1040
0.0
1070
     0
1070
     0
1070
     1
1070
     1
1070
     0
1070
     0
1070
     0
1070
     0
1040
0.0
1040
0.0
1040
0.0
1040
10.0
1040
10.0
1040
10.0
1040
10.0
1070
     0
1002
{
1002
}
1002
}
  0
ENDSEC
  0
EOF
