  0
SECTION
  2
HEADER
  9
$ACADVER
  1
AC1009
  9
$INSBASE
 10
0.0
 20
0.0
 30
0.0
  9
$EXTMIN
 10
-119.49147905908519
 20
-111.2928327096284
 30
-0.2
  9
$EXTMAX
 10
194.0032559343997
 20
119.2500000000001
 30
0.0000000048844772
  9
$LIMMIN
 10
0.0
 20
0.0
  9
$LIMMAX
 10
790.0
 20
790.0
  9
$ORTHOMODE
 70
     1
  9
$REGENMODE
 70
     1
  9
$FILLMODE
 70
     1
  9
$QTEXTMODE
 70
     0
  9
$MIRRTEXT
 70
     1
  9
$DRAGMODE
 70
     2
  9
$LTSCALE
 40
4.0
  9
$OSMODE
 70
    37
  9
$ATTMODE
 70
     1
  9
$TEXTSIZE
 40
3.5
  9
$TRACEWID
 40
0.05
  9
$TEXTSTYLE
  7
ISO
  9
$CLAYER
  8
0
  9
$CELTYPE
  6
BYLAYER
  9
$CECOLOR
 62
   256
  9
$DIMSCALE
 40
0.0
  9
$DIMASZ
 40
3.0
  9
$DIMEXO
 40
1.5
  9
$DIMDLI
 40
10.0
  9
$DIMRND
 40
0.0
  9
$DIMDLE
 40
0.0
  9
$DIMEXE
 40
1.5
  9
$DIMTP
 40
0.0
  9
$DIMTM
 40
0.0
  9
$DIMTXT
 40
3.5
  9
$DIMCEN
 40
-5.0
  9
$DIMTSZ
 40
0.0
  9
$DIMTOL
 70
     0
  9
$DIMLIM
 70
     0
  9
$DIMTIH
 70
     0
  9
$DIMTOH
 70
     0
  9
$DIMSE1
 70
     0
  9
$DIMSE2
 70
     0
  9
$DIMTAD
 70
     1
  9
$DIMZIN
 70
     8
  9
$DIMBLK
  1

  9
$DIMASO
 70
     1
  9
$DIMSHO
 70
     1
  9
$DIMPOST
  1

  9
$DIMAPOST
  1

  9
$DIMALT
 70
     0
  9
$DIMALTD
 70
     0
  9
$DIMALTF
 40
25.399999999999999
  9
$DIMLFAC
 40
-1.0
  9
$DIMTOFL
 70
     1
  9
$DIMTVP
 40
0.0
  9
$DIMTIX
 70
     0
  9
$DIMSOXD
 70
     0
  9
$DIMSAH
 70
     0
  9
$DIMBLK1
  1

  9
$DIMBLK2
  1

  9
$DIMSTYLE
  2
MASKIN
  9
$DIMCLRD
 70
   256
  9
$DIMCLRE
 70
   256
  9
$DIMCLRT
 70
     2
  9
$DIMTFAC
 40
1.0
  9
$DIMGAP
 40
1.0
  9
$LUNITS
 70
     2
  9
$LUPREC
 70
     8
  9
$SKETCHINC
 40
0.1
  9
$FILLETRAD
 40
0.0
  9
$AUNITS
 70
     0
  9
$AUPREC
 70
     8
  9
$MENU
  1
ACAD
  9
$ELEVATION
 40
0.0
  9
$PELEVATION
 40
0.0
  9
$THICKNESS
 40
0.0
  9
$LIMCHECK
 70
     0
  9
$BLIPMODE
 70
     0
  9
$CHAMFERA
 40
0.0
  9
$CHAMFERB
 40
0.0
  9
$SKPOLY
 70
     0
  9
$TDCREATE
 40
2455734.560015128
  9
$TDUPDATE
 40
2455782.4944093628
  9
$TDINDWG
 40
4.2099126851999999
  9
$TDUSRTIMER
 40
4.2099124999999997
  9
$USRTIMER
 70
     1
  9
$ANGBASE
 50
0.0
  9
$ANGDIR
 70
     0
  9
$PDMODE
 70
     0
  9
$PDSIZE
 40
0.0
  9
$PLINEWID
 40
0.0
  9
$COORDS
 70
     1
  9
$SPLFRAME
 70
     0
  9
$SPLINETYPE
 70
     6
  9
$SPLINESEGS
 70
     8
  9
$ATTDIA
 70
     0
  9
$ATTREQ
 70
     1
  9
$HANDLING
 70
     1
  9
$HANDSEED
  5
1C32
  9
$SURFTAB1
 70
     6
  9
$SURFTAB2
 70
     6
  9
$SURFTYPE
 70
     6
  9
$SURFU
 70
     6
  9
$SURFV
 70
     6
  9
$UCSNAME
  2

  9
$UCSORG
 10
0.0
 20
0.0
 30
0.0
  9
$UCSXDIR
 10
1.0
 20
0.0
 30
0.0
  9
$UCSYDIR
 10
0.0
 20
1.0
 30
0.0
  9
$PUCSNAME
  2

  9
$PUCSORG
 10
0.0
 20
0.0
 30
0.0
  9
$PUCSXDIR
 10
1.0
 20
0.0
 30
0.0
  9
$PUCSYDIR
 10
0.0
 20
1.0
 30
0.0
  9
$USERI1
 70
     0
  9
$USERI2
 70
     0
  9
$USERI3
 70
     0
  9
$USERI4
 70
     0
  9
$USERI5
 70
     0
  9
$USERR1
 40
0.0
  9
$USERR2
 40
0.0
  9
$USERR3
 40
0.0
  9
$USERR4
 40
0.0
  9
$USERR5
 40
0.0
  9
$WORLDVIEW
 70
     1
  9
$SHADEDGE
 70
     3
  9
$SHADEDIF
 70
    70
  9
$TILEMODE
 70
     1
  9
$MAXACTVP
 70
    16
  9
$PLIMCHECK
 70
     0
  9
$PEXTMIN
 10
1.0000000000000000E+020
 20
1.0000000000000000E+020
 30
1.0000000000000000E+020
  9
$PEXTMAX
 10
-1.0000000000000000E+020
 20
-1.0000000000000000E+020
 30
-1.0000000000000000E+020
  9
$PLIMMIN
 10
-5.069427490234375
 20
-5.8737497329711914
  9
$PLIMMAX
 10
291.89889526367187
 20
204.0995779037475
  9
$UNITMODE
 70
     0
  9
$VISRETAIN
 70
     1
  9
$PLINEGEN
 70
     0
  9
$PSLTSCALE
 70
     1
  0
ENDSEC
  0
SECTION
  2
TABLES
  0
TABLE
  2
VPORT
 70
     1
  0
VPORT
  2
*ACTIVE
 70
     0
 10
0.0
 20
0.0
 11
1.0
 21
1.0
 12
43.330210248464077
 22
3.9621011841069271
 13
0.0
 23
0.0
 14
1.0
 24
1.0
 15
0.0
 25
0.0
 16
0.0
 26
0.0
 36
1.0
 17
0.0
 27
0.0
 37
0.0
 40
232.36555112933561
 41
2.362397820163487
 42
50.0
 43
0.0
 44
0.0
 50
0.0
 51
0.0
 71
     0
 72
   100
 73
     1
 74
     1
 75
     0
 76
     0
 77
     0
 78
     0
  0
ENDTAB
  0
TABLE
  2
LTYPE
 70
     4
  0
LTYPE
  2
CONTINUOUS
 70
     0
  3
Solid line
 72
    65
 73
     0
 40
0.0
  0
LTYPE
  2
BYGG-027377$0$NEWDOT
 70
     0
  3
____ . ____ . ____ . ____ . ____ . ____ . ____
 72
    65
 73
     4
 40
2.0
 49
1.0
 49
-0.5
 49
0.0
 49
-0.5
  0
LTYPE
  2
BYGG-027050$0$NEWDOT
 70
     0
  3
____ . ____ . ____ . ____ . ____ . ____ . ____
 72
    65
 73
     4
 40
2.0
 49
1.0
 49
-0.5
 49
0.0
 49
-0.5
  0
LTYPE
  2
BYGG-027291$0$NEWDOT
 70
     0
  3
____ . ____ . ____ . ____ . ____ . ____ . ____
 72
    65
 73
     4
 40
2.0
 49
1.0
 49
-0.5
 49
0.0
 49
-0.5
  0
ENDTAB
  0
TABLE
  2
LAYER
 70
    38
  0
LAYER
  2
0
 70
     0
 62
     7
  6
CONTINUOUS
  0
LAYER
  2
DEFPOINTS
 70
     0
 62
     7
  6
CONTINUOUS
  0
LAYER
  2
SAPA_ARTIKELNR
 70
     0
 62
     4
  6
CONTINUOUS
  0
LAYER
  2
SAPA_BESLAG
 70
     0
 62
     1
  6
CONTINUOUS
  0
LAYER
  2
SAPA_ANSLUTNING
 70
     0
 62
     6
  6
CONTINUOUS
  0
LAYER
  2
SAPA_MATT
 70
     0
 62
     1
  6
CONTINUOUS
  0
LAYER
  2
SAPA_GLAS
 70
     0
 62
     4
  6
CONTINUOUS
  0
LAYER
  2
SAPA_FOGBAND
 70
     0
 62
     2
  6
CONTINUOUS
  0
LAYER
  2
SAPA_PROFIL
 70
     0
 62
     7
  6
CONTINUOUS
  0
ENDTAB
  0
TABLE
  2
STYLE
 70
    20
  0
STYLE
  2
STANDARD
 70
     0
 40
0.0
 41
1.0
 50
0.0
 71
     0
 42
0.2
  3
txt
  4

  0
STYLE
  2
ISO
 70
     0
 40
0.0
 41
1.0
 50
0.0
 71
     0
 42
3.5
  3
txt
  4

  0
STYLE
  2
BYGG-027459$0$STANDARD
 70
     0
 40
0.0
 41
1.0
 50
0.0
 71
     0
 42
0.2
  3
txt
  4

  0
STYLE
  2
BYGG-027459$0$ISO
 70
     0
 40
0.0
 41
1.0
 50
0.0
 71
     0
 42
3.5
  3
txt
  4

  0
STYLE
  2
BYGG-027377$0$STANDARD
 70
     0
 40
0.0
 41
1.0
 50
0.0
 71
     0
 42
0.2
  3
txt
  4

  0
STYLE
  2
BYGG-027377$0$ISO
 70
     0
 40
0.0
 41
1.0
 50
0.0
 71
     0
 42
3.5
  3
txt
  4

  0
STYLE
  2
BYGG-027392$0$STANDARD
 70
     0
 40
0.0
 41
1.0
 50
0.0
 71
     0
 42
0.2
  3
txt
  4

  0
STYLE
  2
BYGG-027392$0$ISO
 70
     0
 40
0.0
 41
1.0
 50
0.0
 71
     0
 42
3.5
  3
txt
  4

  0
STYLE
  2
BYGG-027052$0$STANDARD
 70
     0
 40
0.0
 41
1.0
 50
0.0
 71
     0
 42
0.2
  3
txt
  4

  0
STYLE
  2
BYGG-027052$0$ISO
 70
     0
 40
0.0
 41
1.0
 50
0.0
 71
     0
 42
3.5
  3
txt
  4

  0
STYLE
  2
BYGG-027050$0$STANDARD
 70
     0
 40
0.0
 41
1.0
 50
0.0
 71
     0
 42
0.2
  3
txt
  4

  0
STYLE
  2
BYGG-027050$0$ISO
 70
     0
 40
0.0
 41
1.0
 50
0.0
 71
     0
 42
3.5
  3
txt
  4

  0
STYLE
  2
BYGG-027471$0$STANDARD
 70
     0
 40
0.0
 41
1.0
 50
0.0
 71
     0
 42
0.2
  3
txt
  4

  0
STYLE
  2
BYGG-027471$0$ISO
 70
     0
 40
0.0
 41
1.0
 50
0.0
 71
     0
 42
3.5
  3
txt
  4

  0
STYLE
  2
BYGG-027470$0$STANDARD
 70
     0
 40
0.0
 41
1.0
 50
0.0
 71
     0
 42
0.2
  3
txt
  4

  0
STYLE
  2
BYGG-027470$0$ISO
 70
     0
 40
0.0
 41
1.0
 50
0.0
 71
     0
 42
3.5
  3
txt
  4

  0
STYLE
  2
BYGG-027413$0$STANDARD
 70
     0
 40
0.0
 41
1.0
 50
0.0
 71
     0
 42
0.2
  3
txt
  4

  0
STYLE
  2
BYGG-027413$0$ISO
 70
     0
 40
0.0
 41
1.0
 50
0.0
 71
     0
 42
3.5
  3
txt
  4

  0
STYLE
  2
BYGG-027291$0$STANDARD
 70
     0
 40
0.0
 41
1.0
 50
0.0
 71
     0
 42
0.2
  3
txt
  4

  0
STYLE
  2
BYGG-027291$0$ISO
 70
     0
 40
0.0
 41
1.0
 50
0.0
 71
     0
 42
3.5
  3
txt
  4

  0
ENDTAB
  0
TABLE
  2
VIEW
 70
     0
  0
ENDTAB
  0
TABLE
  2
UCS
 70
     0
  0
ENDTAB
  0
TABLE
  2
APPID
 70
    28
  0
APPID
  2
ACAD
 70
     0
  0
APPID
  2
ACAD_DSTYLE_DIMTEXT_FILL
 70
     0
  0
APPID
  2
ACAD_DSTYLE_DIMEXT_LENGTH
 70
     0
  0
APPID
  2
ACAD_DSTYLE_DIMEXT_ENABLED
 70
     0
  0
APPID
  2
ACAD_DSTYLE_DIM_LINETYPE
 70
     0
  0
APPID
  2
ACAD_DSTYLE_DIM_EXT1_LINETYPE
 70
     0
  0
APPID
  2
ACAD_DSTYLE_DIM_EXT2_LINETYPE
 70
     0
  0
APPID
  2
ACAD_DSTYLE_DIMJOGGED_JOGA
 70
     0
  0
APPID
  2
ACAD_DSTYLE_DIMARC_LENGTH_
 70
     0
  0
APPID
  2
ACAD_PSEXT
 70
     0
  0
APPID
  2
ACAD_MLEADERVER
 70
     0
  0
APPID
  2
GENIUS_GENODEF_13
 70
     0
  0
APPID
  2
RC_PROFILE
 70
     0
  0
APPID
  2
ACAECLAYERSTANDARD
 70
     0
  0
APPID
  2
GENIUS_GENOBJ-N-FIL_13
 70
     0
  0
APPID
  2
ACADANNOTATIVE
 70
     0
  0
APPID
  2
ACAD_EXEMPT_FROM_CAD_STANDARDS
 70
     0
  0
APPID
  2
AEC_XDATA_BOUND_SPACE
 70
     0
  0
APPID
  2
ACAD_DSTYLE_DIMJAG
 70
     0
  0
APPID
  2
ACAD_DSTYLE_DIMTALN
 70
     0
  0
APPID
  2
GENIUS_GENREC_14
 70
     0
  0
APPID
  2
GENIUS_GENOBJ-N-REC_13
 70
     0
  0
APPID
  2
GENIUS_GENOREF_13
 70
     0
  0
APPID
  2
GENIUS_GENBH_13
 70
     0
  0
APPID
  2
ACDBDYNAMICBLOCKTRUENAME
 70
     0
  0
APPID
  2
ACDBBLOCKREPETAG
 70
     0
  0
APPID
  2
ACDBDYNAMICBLOCKGUID
 70
     0
  0
APPID
  2
ACDBBLOCKREPBTAG
 70
     0
  0
ENDTAB
  0
TABLE
  2
DIMSTYLE
 70
    10
  0
DIMSTYLE
  2
MASKIN
 70
     0
  3

  4

  5

  6

  7

 40
0.0
 41
3.0
 42
1.5
 43
10.0
 44
1.5
 45
0.0
 46
0.0
 47
0.0
 48
0.0
140
3.5
141
-5.0
142
0.0
143
25.399999999999999
144
-1.0
145
0.0
146
1.0
147
1.0
 71
     0
 72
     0
 73
     0
 74
     0
 75
     0
 76
     0
 77
     1
 78
     8
170
     0
171
     0
172
     1
173
     0
174
     0
175
     0
176
   256
177
   256
178
     2
  0
DIMSTYLE
  2
BYGG-027459$0$MASKIN
 70
     0
  3

  4

  5

  6

  7

 40
0.0
 41
3.0
 42
1.5
 43
10.0
 44
1.5
 45
0.0
 46
0.0
 47
0.0
 48
0.0
140
3.0
141
-5.0
142
0.0
143
25.399999999999999
144
-1.0
145
0.0
146
1.0
147
1.0
 71
     0
 72
     0
 73
     0
 74
     0
 75
     0
 76
     0
 77
     1
 78
     8
170
     0
171
     0
172
     1
173
     0
174
     0
175
     0
176
   256
177
   256
178
     2
  0
DIMSTYLE
  2
BYGG-027377$0$MASKIN
 70
     0
  3

  4

  5

  6

  7

 40
0.0
 41
3.0
 42
1.5
 43
10.0
 44
1.5
 45
0.0
 46
0.0
 47
0.0
 48
0.0
140
3.0
141
-5.0
142
0.0
143
25.399999999999999
144
-1.0
145
0.0
146
1.0
147
1.0
 71
     0
 72
     0
 73
     0
 74
     0
 75
     0
 76
     0
 77
     1
 78
     8
170
     0
171
     0
172
     1
173
     0
174
     0
175
     0
176
   256
177
   256
178
     2
  0
DIMSTYLE
  2
BYGG-027392$0$MASKIN
 70
     0
  3

  4

  5

  6

  7

 40
0.0
 41
3.0
 42
1.5
 43
10.0
 44
1.5
 45
0.0
 46
0.0
 47
0.0
 48
0.0
140
3.0
141
-5.0
142
0.0
143
25.399999999999999
144
-1.0
145
0.0
146
1.0
147
1.0
 71
     0
 72
     0
 73
     0
 74
     0
 75
     0
 76
     0
 77
     1
 78
     8
170
     0
171
     0
172
     1
173
     0
174
     0
175
     0
176
   256
177
   256
178
     2
  0
DIMSTYLE
  2
BYGG-027052$0$MASKIN
 70
     0
  3

  4

  5

  6

  7

 40
0.0
 41
3.0
 42
1.5
 43
10.0
 44
1.5
 45
0.0
 46
0.0
 47
0.0
 48
0.0
140
3.0
141
-5.0
142
0.0
143
25.399999999999999
144
-1.0
145
0.0
146
1.0
147
1.0
 71
     0
 72
     0
 73
     0
 74
     0
 75
     0
 76
     0
 77
     1
 78
     8
170
     0
171
     0
172
     1
173
     0
174
     0
175
     0
176
   256
177
   256
178
     2
  0
DIMSTYLE
  2
BYGG-027050$0$MASKIN
 70
     0
  3

  4

  5

  6

  7

 40
0.0
 41
3.0
 42
1.5
 43
10.0
 44
1.5
 45
0.0
 46
0.0
 47
0.0
 48
0.0
140
3.0
141
-5.0
142
0.0
143
25.399999999999999
144
-1.0
145
0.0
146
1.0
147
1.0
 71
     0
 72
     0
 73
     0
 74
     0
 75
     0
 76
     0
 77
     1
 78
     8
170
     0
171
     0
172
     1
173
     0
174
     0
175
     0
176
   256
177
   256
178
     2
  0
DIMSTYLE
  2
BYGG-027471$0$MASKIN
 70
     0
  3

  4

  5

  6

  7

 40
0.0
 41
3.0
 42
1.5
 43
10.0
 44
1.5
 45
0.0
 46
0.0
 47
0.0
 48
0.0
140
3.0
141
-5.0
142
0.0
143
25.399999999999999
144
-1.0
145
0.0
146
1.0
147
1.0
 71
     0
 72
     0
 73
     0
 74
     0
 75
     0
 76
     0
 77
     1
 78
     8
170
     0
171
     0
172
     1
173
     0
174
     0
175
     0
176
   256
177
   256
178
     2
  0
DIMSTYLE
  2
BYGG-027470$0$MASKIN
 70
     0
  3

  4

  5

  6

  7

 40
0.0
 41
3.0
 42
1.5
 43
10.0
 44
1.5
 45
0.0
 46
0.0
 47
0.0
 48
0.0
140
3.0
141
-5.0
142
0.0
143
25.399999999999999
144
-1.0
145
0.0
146
1.0
147
1.0
 71
     0
 72
     0
 73
     0
 74
     0
 75
     0
 76
     0
 77
     1
 78
     8
170
     0
171
     0
172
     1
173
     0
174
     0
175
     0
176
   256
177
   256
178
     2
  0
DIMSTYLE
  2
BYGG-027413$0$MASKIN
 70
     0
  3

  4

  5

  6

  7

 40
0.0
 41
3.0
 42
1.5
 43
10.0
 44
1.5
 45
0.0
 46
0.0
 47
0.0
 48
0.0
140
3.0
141
-5.0
142
0.0
143
25.399999999999999
144
-1.0
145
0.0
146
1.0
147
1.0
 71
     0
 72
     0
 73
     0
 74
     0
 75
     0
 76
     0
 77
     1
 78
     8
170
     0
171
     0
172
     1
173
     0
174
     0
175
     0
176
   256
177
   256
178
     2
  0
DIMSTYLE
  2
BYGG-027291$0$MASKIN
 70
     0
  3

  4

  5

  6

  7

 40
0.0
 41
3.0
 42
1.5
 43
10.0
 44
1.5
 45
0.0
 46
0.0
 47
0.0
 48
0.0
140
3.0
141
-5.0
142
0.0
143
25.399999999999999
144
-1.0
145
0.0
146
1.0
147
1.0
 71
     0
 72
     0
 73
     0
 74
     0
 75
     0
 76
     0
 77
     1
 78
     8
170
     0
171
     0
172
     1
173
     0
174
     0
175
     0
176
   256
177
   256
178
     2
  0
ENDTAB
  0
ENDSEC
  0
SECTION
  2
BLOCKS
  0
BLOCK
  8
0
  2
$MODEL_SPACE
 70
     0
 10
0.0
 20
0.0
 30
0.0
  3
$MODEL_SPACE
  1

  0
ENDBLK
  5
37
  8
0
  0
BLOCK
 67
     1
  8
0
  2
$PAPER_SPACE
 70
     0
 10
0.0
 20
0.0
 30
0.0
  3
$PAPER_SPACE
  1

  0
ENDBLK
  5
35
 67
     1
  8
0
  0
BLOCK
  8
0
  2
*D37
 70
     1
 10
0.0
 20
0.0
 30
0.0
  3
*D37
  1

  0
LINE
  5
10A8
  8
SAPA_MATT
 10
13.87500000000003
 20
-56.999999999999972
 30
0.0
 11
-95.500000000000014
 21
-56.999999999999943
 31
0.0
  0
LINE
  5
10A9
  8
SAPA_MATT
 10
-73.499999999998096
 20
60.00000000000103
 30
0.0
 11
-95.5
 21
60.00000000000103
 31
0.0
  0
LINE
  5
10AA
  8
SAPA_MATT
 10
-94.000000000000028
 20
-53.99999999999995
 30
0.0
 11
-94.0
 21
57.00000000000103
 31
0.0
  0
SOLID
  5
10AB
  8
SAPA_MATT
 10
-94.500000000000014
 20
-53.99999999999995
 30
0.0
 11
-93.500000000000028
 21
-53.99999999999995
 31
0.0
 12
-94.000000000000028
 22
-56.999999999999943
 32
0.0
 13
-94.000000000000028
 23
-56.999999999999943
 33
0.0
  0
SOLID
  5
10AC
  8
SAPA_MATT
 10
-94.500000000000014
 20
57.00000000000103
 30
0.0
 11
-93.499999999999986
 21
57.00000000000103
 31
0.0
 12
-94.0
 22
60.00000000000103
 32
0.0
 13
-94.0
 23
60.00000000000103
 33
0.0
  0
INSERT
  5
10AD
  8
0
  2
*U84
 10
0.0
 20
0.0
 30
0.0
  0
POINT
  5
10AE
  8
DEFPOINTS
 62
     0
 10
15.37500000000003
 20
-56.999999999999972
 30
0.0
  0
POINT
  5
10AF
  8
DEFPOINTS
 62
     0
 10
-71.999999999998096
 20
60.00000000000103
 30
0.0
  0
POINT
  5
10B0
  8
DEFPOINTS
 62
     0
 10
-94.0
 20
60.00000000000103
 30
0.0
  0
ENDBLK
  5
1007
  8
0
  0
BLOCK
  8
0
  2
*D38
 70
     1
 10
0.0
 20
0.0
 30
0.0
  3
*D38
  1

  0
LINE
  5
1B90
  8
SAPA_MATT
 10
-73.499999999998096
 20
60.00000000000103
 30
0.0
 11
-95.5
 21
60.00000000000103
 31
0.0
  0
LINE
  5
1B91
  8
SAPA_MATT
 10
20.54999999981133
 20
70.000000000011042
 30
0.0
 11
-95.5
 21
70.00000000001107
 31
0.0
  0
LINE
  5
1B92
  8
SAPA_MATT
 10
-94.0
 20
63.00000000000103
 30
0.0
 11
-94.0
 21
67.00000000001107
 31
0.0
  0
SOLID
  5
1B93
  8
SAPA_MATT
 10
-94.500000000000014
 20
63.00000000000103
 30
0.0
 11
-93.499999999999986
 21
63.00000000000103
 31
0.0
 12
-94.0
 22
60.00000000000103
 32
0.0
 13
-94.0
 23
60.00000000000103
 33
0.0
  0
SOLID
  5
1B94
  8
SAPA_MATT
 10
-94.500000000000014
 20
67.00000000001107
 30
0.0
 11
-93.499999999999986
 21
67.00000000001107
 31
0.0
 12
-94.0
 22
70.00000000001107
 32
0.0
 13
-94.0
 23
70.00000000001107
 33
0.0
  0
TEXT
  8
SAPA_MATT
  40
3.5
  5
1BAD
  62
2
  72
0
  71
0
 10
-103.750
 20
58.8050
 30
0.000000
  1
10
  7
ISO
  0
POINT
  5
1B96
  8
DEFPOINTS
 62
     0
 10
-71.999999999998096
 20
60.00000000000103
 30
0.0
  0
POINT
  5
1B97
  8
DEFPOINTS
 62
     0
 10
22.04999999981133
 20
70.000000000011042
 30
0.0
  0
POINT
  5
1B98
  8
DEFPOINTS
 62
     0
 10
-94.0
 20
70.00000000001107
 30
0.0
  0
ENDBLK
  5
1013
  8
0
  0
BLOCK
  8
0
  2
*D39
 70
     1
 10
0.0
 20
0.0
 30
0.0
  3
*D39
  1

  0
LINE
  5
1094
  8
SAPA_MATT
 10
14.00000000000003
 20
60.0
 30
0.0
 11
14.00000000000003
 21
102.5000000000001
 31
0.0
  0
LINE
  5
1095
  8
SAPA_MATT
 10
20.500000000180631
 20
56.500000000019412
 30
0.0
 11
20.500000000180631
 21
102.5000000000001
 31
0.0
  0
LINE
  5
1096
  8
SAPA_MATT
 10
11.00000000000003
 20
101.0000000000001
 30
0.0
 11
8.0000000000000302
 21
101.0000000000001
 31
0.0
  0
LINE
  5
1097
  8
SAPA_MATT
 10
23.500000000180631
 20
101.0000000000001
 30
0.0
 11
26.500000000180631
 21
101.0000000000001
 31
0.0
  0
LINE
  5
1098
  8
SAPA_MATT
 10
14.00000000000003
 20
101.0000000000001
 30
0.0
 11
20.500000000180631
 21
101.0000000000001
 31
0.0
  0
SOLID
  5
1099
  8
SAPA_MATT
 10
11.00000000000003
 20
101.5000000000001
 30
0.0
 11
11.00000000000003
 21
100.5000000000001
 31
0.0
 12
14.00000000000003
 22
101.0000000000001
 32
0.0
 13
14.00000000000003
 23
101.0000000000001
 33
0.0
  0
SOLID
  5
109A
  8
SAPA_MATT
 10
23.500000000180631
 20
101.5000000000001
 30
0.0
 11
23.500000000180631
 21
100.5000000000001
 31
0.0
 12
20.500000000180631
 22
101.0000000000001
 32
0.0
 13
20.500000000180631
 23
101.0000000000001
 33
0.0
  0
INSERT
  5
109B
  8
0
  2
*U83
 10
0.0
 20
0.0
 30
0.0
  0
POINT
  5
109C
  8
DEFPOINTS
 62
     0
 10
14.00000000000003
 20
58.5
 30
0.0
  0
POINT
  5
109D
  8
DEFPOINTS
 62
     0
 10
20.500000000180631
 20
55.000000000019412
 30
0.0
  0
POINT
  5
109E
  8
DEFPOINTS
 62
     0
 10
20.500000000180631
 20
101.0000000000001
 30
0.0
  0
ENDBLK
  5
101F
  8
0
  0
BLOCK
  8
0
  2
*D40
 70
     1
 10
0.0
 20
0.0
 30
0.0
  3
*D40
  1

  0
LINE
  5
1B87
  8
SAPA_MATT
 10
20.500000000180631
 20
56.500000000019412
 30
0.0
 11
20.500000000180631
 21
102.5000000000001
 31
0.0
  0
LINE
  5
1B88
  8
SAPA_MATT
 10
67.499999999502137
 20
56.500000000019412
 30
0.0
 11
67.499999999502137
 21
102.5000000000001
 31
0.0
  0
LINE
  5
1B89
  8
SAPA_MATT
 10
23.500000000180631
 20
101.0000000000001
 30
0.0
 11
64.499999999502137
 21
101.0000000000001
 31
0.0
  0
SOLID
  5
1B8A
  8
SAPA_MATT
 10
23.500000000180631
 20
101.5000000000001
 30
0.0
 11
23.500000000180631
 21
100.5000000000001
 31
0.0
 12
20.500000000180631
 22
101.0000000000001
 32
0.0
 13
20.500000000180631
 23
101.0000000000001
 33
0.0
  0
SOLID
  5
1B8B
  8
SAPA_MATT
 10
64.499999999502137
 20
101.5000000000001
 30
0.0
 11
64.499999999502137
 21
100.5000000000001
 31
0.0
 12
67.499999999502137
 22
101.0000000000001
 32
0.0
 13
67.499999999502137
 23
101.0000000000001
 33
0.0
  0
TEXT
  8
SAPA_MATT
  40
3.5
  5
1BAE
  62
2
  72
0
  71
0
 10
37.0000
 20
97.5550
 30
0.000000
  1
47
  7
ISO
  0
POINT
  5
1B8D
  8
DEFPOINTS
 62
     0
 10
20.500000000180631
 20
55.000000000019412
 30
0.0
  0
POINT
  5
1B8E
  8
DEFPOINTS
 62
     0
 10
67.499999999502137
 20
55.000000000019412
 30
0.0
  0
POINT
  5
1B8F
  8
DEFPOINTS
 62
     0
 10
67.499999999502137
 20
101.0000000000001
 30
0.0
  0
ENDBLK
  5
102D
  8
0
  0
BLOCK
  8
0
  2
*D41
 70
     1
 10
0.0
 20
0.0
 30
0.0
  3
*D41
  1

  0
LINE
  5
1B7E
  8
SAPA_MATT
 10
67.499999999502137
 20
56.500000000019412
 30
0.0
 11
67.499999999502137
 21
102.5000000000001
 31
0.0
  0
LINE
  5
1B7F
  8
SAPA_MATT
 10
138.99999999950211
 20
60.0
 30
0.0
 11
138.99999999950211
 21
102.5000000000001
 31
0.0
  0
LINE
  5
1B80
  8
SAPA_MATT
 10
70.499999999502137
 20
101.0000000000001
 30
0.0
 11
135.99999999950211
 21
101.0000000000001
 31
0.0
  0
SOLID
  5
1B81
  8
SAPA_MATT
 10
70.499999999502137
 20
101.5000000000001
 30
0.0
 11
70.499999999502137
 21
100.5000000000001
 31
0.0
 12
67.499999999502137
 22
101.0000000000001
 32
0.0
 13
67.499999999502137
 23
101.0000000000001
 33
0.0
  0
SOLID
  5
1B82
  8
SAPA_MATT
 10
135.99999999950211
 20
101.5000000000001
 30
0.0
 11
135.99999999950211
 21
100.5000000000001
 31
0.0
 12
138.99999999950211
 22
101.0000000000001
 32
0.0
 13
138.99999999950211
 23
101.0000000000001
 33
0.0
  0
TEXT
  8
SAPA_MATT
  40
3.5
  5
1BAF
  62
2
  72
0
  71
0
 10
96.2500
 20
97.5550
 30
0.000000
  1
71.5
  7
ISO
  0
POINT
  5
1B84
  8
DEFPOINTS
 62
     0
 10
67.499999999502137
 20
55.000000000019412
 30
0.0
  0
POINT
  5
1B85
  8
DEFPOINTS
 62
     0
 10
138.99999999950211
 20
58.5
 30
0.0
  0
POINT
  5
1B86
  8
DEFPOINTS
 62
     0
 10
138.99999999950211
 20
101.0000000000001
 30
0.0
  0
ENDBLK
  5
1039
  8
0
  0
BLOCK
  8
0
  2
*D42
 70
     1
 10
0.0
 20
0.0
 30
0.0
  3
*D42
  1

  0
LINE
  5
1079
  8
SAPA_MATT
 10
14.00000000000003
 20
60.0
 30
0.0
 11
14.00000000000003
 21
114.5000000000001
 31
0.0
  0
LINE
  5
107A
  8
SAPA_MATT
 10
138.99999999950211
 20
61.5
 30
0.0
 11
138.99999999950211
 21
114.5000000000001
 31
0.0
  0
LINE
  5
107B
  8
SAPA_MATT
 10
17.000000000000028
 20
113.0000000000001
 30
0.0
 11
135.99999999950211
 21
113.0000000000001
 31
0.0
  0
SOLID
  5
107C
  8
SAPA_MATT
 10
17.000000000000028
 20
113.5000000000001
 30
0.0
 11
17.000000000000028
 21
112.5000000000001
 31
0.0
 12
14.00000000000003
 22
113.0000000000001
 32
0.0
 13
14.00000000000003
 23
113.0000000000001
 33
0.0
  0
SOLID
  5
107D
  8
SAPA_MATT
 10
135.99999999950211
 20
113.5000000000001
 30
0.0
 11
135.99999999950211
 21
112.5000000000001
 31
0.0
 12
138.99999999950211
 22
113.0000000000001
 32
0.0
 13
138.99999999950211
 23
113.0000000000001
 33
0.0
  0
INSERT
  5
107E
  8
0
  2
*U82
 10
0.0
 20
0.0
 30
0.0
  0
POINT
  5
107F
  8
DEFPOINTS
 62
     0
 10
14.00000000000003
 20
58.5
 30
0.0
  0
POINT
  5
1080
  8
DEFPOINTS
 62
     0
 10
138.99999999950211
 20
60.0
 30
0.0
  0
POINT
  5
1081
  8
DEFPOINTS
 62
     0
 10
138.99999999950211
 20
113.0000000000001
 30
0.0
  0
ENDBLK
  5
1045
  8
0
  0
BLOCK
  8
0
  2
*D43
 70
     1
 10
0.0
 20
0.0
 30
0.0
  3
*D43
  1

  0
LINE
  5
1070
  8
SAPA_MATT
 10
-73.999999999999886
 20
59.500000000001229
 30
0.0
 11
-73.999999999999886
 21
102.5000000000001
 31
0.0
  0
LINE
  5
1071
  8
SAPA_MATT
 10
14.00000000000011
 20
59.999999999999432
 30
0.0
 11
14.000000000000121
 21
102.5000000000001
 31
0.0
  0
LINE
  5
1072
  8
SAPA_MATT
 10
-70.999999999999886
 20
101.0000000000001
 30
0.0
 11
11.00000000000011
 21
101.0000000000001
 31
0.0
  0
SOLID
  5
1073
  8
SAPA_MATT
 10
-70.999999999999886
 20
101.5000000000001
 30
0.0
 11
-70.999999999999886
 21
100.5000000000001
 31
0.0
 12
-73.999999999999886
 22
101.0000000000001
 32
0.0
 13
-73.999999999999886
 23
101.0000000000001
 33
0.0
  0
SOLID
  5
1074
  8
SAPA_MATT
 10
11.00000000000011
 20
101.5000000000001
 30
0.0
 11
11.00000000000011
 21
100.5000000000001
 31
0.0
 12
14.00000000000011
 22
101.0000000000001
 32
0.0
 13
14.00000000000011
 23
101.0000000000001
 33
0.0
  0
INSERT
  5
1075
  8
0
  2
*U81
 10
0.0
 20
0.0
 30
0.0
  0
POINT
  5
1076
  8
DEFPOINTS
 62
     0
 10
-73.999999999999886
 20
58.000000000001243
 30
0.0
  0
POINT
  5
1077
  8
DEFPOINTS
 62
     0
 10
14.00000000000011
 20
58.499999999999417
 30
0.0
  0
POINT
  5
1078
  8
DEFPOINTS
 62
     0
 10
14.00000000000011
 20
101.0000000000001
 30
0.0
  0
ENDBLK
  5
1051
  8
0
  0
BLOCK
  8
0
  2
*D44
 70
     1
 10
0.0
 20
0.0
 30
0.0
  3
*D44
  1

  0
LINE
  5
1067
  8
SAPA_MATT
 10
-80.499999999999744
 20
-70.000000000020322
 30
0.0
 11
-107.4999999999999
 21
-70.000000000020307
 31
0.0
  0
LINE
  5
1068
  8
SAPA_MATT
 10
-97.49999999999801
 20
60.00000000000103
 30
0.0
 11
-107.4999999999999
 21
60.00000000000103
 31
0.0
  0
LINE
  5
1069
  8
SAPA_MATT
 10
-105.9999999999999
 20
-67.000000000020307
 30
0.0
 11
-105.9999999999999
 21
57.000000000001023
 31
0.0
  0
SOLID
  5
106A
  8
SAPA_MATT
 10
-106.4999999999999
 20
-67.000000000020307
 30
0.0
 11
-105.4999999999999
 21
-67.000000000020307
 31
0.0
 12
-105.9999999999999
 22
-70.000000000020307
 32
0.0
 13
-105.9999999999999
 23
-70.000000000020307
 33
0.0
  0
SOLID
  5
106B
  8
SAPA_MATT
 10
-106.4999999999999
 20
57.000000000001023
 30
0.0
 11
-105.4999999999999
 21
57.000000000001023
 31
0.0
 12
-105.9999999999999
 22
60.00000000000103
 32
0.0
 13
-105.9999999999999
 23
60.00000000000103
 33
0.0
  0
INSERT
  5
106C
  8
0
  2
*U80
 10
0.0
 20
0.0
 30
0.0
  0
POINT
  5
106D
  8
DEFPOINTS
 62
     0
 10
-78.999999999999744
 20
-70.000000000020322
 30
0.0
  0
POINT
  5
106E
  8
DEFPOINTS
 62
     0
 10
-95.999999999997996
 20
60.00000000000103
 30
0.0
  0
POINT
  5
106F
  8
DEFPOINTS
 62
     0
 10
-105.9999999999999
 20
60.00000000000103
 30
0.0
  0
ENDBLK
  5
105D
  8
0
  0
BLOCK
  8
0
  2
*U45
 70
     1
 10
0.0
 20
0.0
 30
0.0
  3
*U45
  1

  0
TEXT
  5
112D
  8
0
 62
     2
 10
41.374999999841393
 20
102.0000000000001
 30
0.0
 40
3.5
  1
47
  7
ISO
  0
ENDBLK
  5
112F
  8
0
  0
BLOCK
  8
0
  2
*U46
 70
     1
 10
0.0
 20
0.0
 30
0.0
  3
*U46
  1

  0
TEXT
  5
1131
  8
0
 62
     2
 10
99.399999999502128
 20
102.0000000000001
 30
0.0
 40
3.5
  1
71.5
  7
ISO
  0
ENDBLK
  5
1133
  8
0
  0
BLOCK
  8
0
  2
*U47
 70
     1
 10
0.0
 20
0.0
 30
0.0
  3
*U47
  1

  0
TEXT
  5
1135
  8
0
 62
     2
 10
-95.000000000000014
 20
62.900000000006031
 30
0.0
 40
3.5
  1
10
 50
90.0
  7
ISO
  0
ENDBLK
  5
1137
  8
0
  0
BLOCK
  8
0
  2
*X48
 70
     1
 10
0.0
 20
0.0
 30
0.0
  3
*X48
  1

  0
LINE
  5
1139
  8
0
 62
     0
 10
148.99999992774141
 20
59.790954887116641
 30
0.0
 11
148.83808603072671
 21
59.952868784131347
 31
0.0
  0
LINE
  5
113A
  8
0
 62
     0
 10
148.9999999277413
 20
58.668422871982997
 30
0.0
 11
147.94993012138929
 21
59.718492678335139
 31
0.0
  0
LINE
  5
113B
  8
0
 62
     0
 10
148.99999992774141
 20
57.54589085684934
 30
0.0
 11
147.02840957960129
 21
59.517481204989458
 31
0.0
  0
LINE
  5
113C
  8
0
 62
     0
 10
148.99999992774141
 20
56.423358841715718
 30
0.0
 11
146.07057661512809
 21
59.35278215432897
 31
0.0
  0
LINE
  5
113D
  8
0
 62
     0
 10
148.99999992774141
 20
55.300826826582067
 30
0.0
 11
145.07276903545329
 21
59.228057718870161
 31
0.0
  0
LINE
  5
113E
  8
0
 62
     0
 10
148.9999999277413
 20
54.178294811448431
 30
0.0
 11
144.0303604129688
 21
59.147934326221012
 31
0.0
  0
LINE
  5
113F
  8
0
 62
     0
 10
148.9999999277413
 20
53.055762796314788
 30
0.0
 11
142.93738136331811
 21
59.11838136073812
 31
0.0
  0
LINE
  5
1140
  8
0
 62
     0
 10
148.99999992774141
 20
51.933230781181138
 30
0.0
 11
141.78591990858709
 21
59.147310800335433
 31
0.0
  0
LINE
  5
1141
  8
0
 62
     0
 10
148.99999992774141
 20
50.810698766047487
 30
0.0
 11
140.565119071797
 21
59.245579621991851
 31
0.0
  0
LINE
  5
1142
  8
0
 62
     0
 10
145.76608656588181
 20
52.922080112773422
 30
0.0
 11
139.25938028645029
 21
59.428786392204913
 31
0.0
  0
LINE
  5
1143
  8
0
 62
     0
 10
148.9999999277413
 20
49.688166750913851
 30
0.0
 11
148.43999006964339
 21
50.248176609011878
 31
0.0
  0
LINE
  5
1144
  8
0
 62
     0
 10
144.29073942839699
 20
53.274895235124632
 30
0.0
 11
138.998496671141
 21
58.567137992380609
 31
0.0
  0
LINE
  5
1145
  8
0
 62
     0
 10
148.99999992774141
 20
48.565634735780201
 30
0.0
 11
148.92363608600769
 21
48.641998577513903
 31
0.0
  0
LINE
  5
1146
  8
0
 62
     0
 10
143.22638571834861
 20
53.216716930039318
 30
0.0
 11
138.99999992774141
 21
57.44310272064655
 31
0.0
  0
LINE
  5
1147
  8
0
 62
     0
 10
142.35075441075239
 20
52.969816222501841
 30
0.0
 11
138.99999992774141
 21
56.320570705512928
 31
0.0
  0
LINE
  5
1148
  8
0
 62
     0
 10
141.60217573132229
 20
52.595862886798393
 30
0.0
 11
138.99999992774141
 21
55.198038690379299
 31
0.0
  0
LINE
  5
1149
  8
0
 62
     0
 10
140.95430362485209
 20
52.121202978134889
 30
0.0
 11
138.9999999277413
 21
54.07550667524567
 31
0.0
  0
LINE
  5
114A
  8
0
 62
     0
 10
140.39481471664041
 20
51.558159871212979
 30
0.0
 11
138.99999992774141
 21
52.952974660112041
 31
0.0
  0
LINE
  5
114B
  8
0
 62
     0
 10
139.9191616399674
 20
50.911280932752369
 30
0.0
 11
138.9999999277413
 21
51.830442644978397
 31
0.0
  0
LINE
  5
114C
  8
0
 62
     0
 10
139.52875225442281
 20
50.179158303163327
 30
0.0
 11
138.9999999277413
 21
50.707910629844768
 31
0.0
  0
LINE
  5
114D
  8
0
 62
     0
 10
139.2314874681702
 20
49.353891074282288
 30
0.0
 11
138.9999999277413
 21
49.585378614711139
 31
0.0
  0
LINE
  5
114E
  8
0
 62
     0
 10
139.04522034170191
 20
48.417626185616903
 30
0.0
 11
138.9999999277413
 21
48.462846599577517
 31
0.0
  0
LINE
  5
114F
  8
0
 62
     0
 10
148.99279897801131
 20
47.964917615983353
 30
0.0
 11
148.99999992774141
 21
47.972118565713387
 31
0.0
  0
LINE
  5
1150
  8
0
 62
     0
 10
148.8651857786154
 20
48.959836431720987
 30
0.0
 11
148.9999999277413
 21
49.094650580847023
 31
0.0
  0
LINE
  5
1151
  8
0
 62
     0
 10
148.61341571770799
 20
49.830598385947262
 30
0.0
 11
148.99999992774141
 21
50.217182595980667
 31
0.0
  0
LINE
  5
1152
  8
0
 62
     0
 10
148.26229306069871
 20
50.602007744071642
 30
0.0
 11
148.9999999277413
 21
51.339714611114317
 31
0.0
  0
LINE
  5
1153
  8
0
 62
     0
 10
147.82338657535109
 20
51.285633273857698
 30
0.0
 11
148.99999992774141
 21
52.462246626247968
 31
0.0
  0
LINE
  5
1154
  8
0
 62
     0
 10
147.3007430412959
 20
51.885521754936178
 30
0.0
 11
148.9999999277413
 21
53.584778641381597
 31
0.0
  0
LINE
  5
1155
  8
0
 62
     0
 10
146.69249089580279
 20
52.399801624576689
 30
0.0
 11
148.9999999277413
 21
54.70731065651524
 31
0.0
  0
LINE
  5
1156
  8
0
 62
     0
 10
145.99012238385629
 20
52.819965127763837
 30
0.0
 11
148.9999999277413
 21
55.829842671648883
 31
0.0
  0
LINE
  5
1157
  8
0
 62
     0
 10
145.1746978766773
 20
53.12707263571847
 30
0.0
 11
148.99999992774141
 21
56.952374686782541
 31
0.0
  0
LINE
  5
1158
  8
0
 62
     0
 10
144.20478292538701
 20
53.279689699561771
 30
0.0
 11
148.9999999277413
 21
58.074906701916177
 31
0.0
  0
LINE
  5
1159
  8
0
 62
     0
 10
138.9999999277413
 20
48.074906701916063
 30
0.0
 11
139.01437504552271
 21
48.08928181969749
 31
0.0
  0
LINE
  5
115A
  8
0
 62
     0
 10
142.9652894400887
 20
53.16272822939716
 30
0.0
 11
148.99999992774141
 21
59.197438717049828
 31
0.0
  0
LINE
  5
115B
  8
0
 62
     0
 10
138.9999999277413
 20
49.197438717049742
 30
0.0
 11
139.2621674097004
 21
49.459606199008867
 31
0.0
  0
LINE
  5
115C
  8
0
 62
     0
 10
138.9999999277413
 20
50.319970732183378
 30
0.0
 11
148.55332920462089
 21
59.873300009063009
 31
0.0
  0
LINE
  5
115D
  8
0
 62
     0
 10
138.9999999277413
 20
51.442502747317043
 30
0.0
 11
147.0863822333215
 21
59.528885052897259
 31
0.0
  0
LINE
  5
115E
  8
0
 62
     0
 10
138.9999999277413
 20
52.565034762450694
 30
0.0
 11
145.74135694742469
 21
59.306391782134071
 31
0.0
  0
LINE
  5
115F
  8
0
 62
     0
 10
138.9999999277413
 20
53.687566777584337
 30
0.0
 11
144.48937491647041
 21
59.176941766313377
 31
0.0
  0
LINE
  5
1160
  8
0
 62
     0
 10
138.99999992774141
 20
54.810098792718023
 30
0.0
 11
143.31215802026259
 21
59.122256885239267
 31
0.0
  0
LINE
  5
1161
  8
0
 62
     0
 10
138.99999992774141
 20
55.932630807851687
 30
0.0
 11
142.19726507093191
 21
59.129895951042243
 31
0.0
  0
LINE
  5
1162
  8
0
 62
     0
 10
138.99999992774141
 20
57.055162822985316
 30
0.0
 11
141.13577765864429
 21
59.190940553888197
 31
0.0
  0
LINE
  5
1163
  8
0
 62
     0
 10
138.99999992774141
 20
58.177694838119002
 30
0.0
 11
140.12105103645561
 21
59.298745946833208
 31
0.0
  0
LINE
  5
1164
  8
0
 62
     0
 10
138.85117536341849
 20
59.151402288929752
 30
0.0
 11
139.14798551122061
 21
59.448212436731851
 31
0.0
  0
ENDBLK
  5
1166
  8
0
  0
BLOCK
  8
0
  2
*X49
 70
     1
 10
0.0
 20
0.0
 30
0.0
  3
*X49
  1

  0
LINE
  5
117C
  8
0
 62
     0
 10
148.43122837829671
 20
46.743733652561403
 30
0.0
 11
148.8281033782967
 21
47.431141316815292
 31
0.0
  0
LINE
  5
117D
  8
0
 62
     0
 10
147.2406033782967
 20
44.681510659799713
 30
0.0
 11
147.63747837829669
 21
45.36891832405361
 31
0.0
  0
LINE
  5
117E
  8
0
 62
     0
 10
146.04997837829669
 20
42.619287667038023
 30
0.0
 11
146.44685337829671
 21
43.306695331291913
 31
0.0
  0
LINE
  5
117F
  8
0
 62
     0
 10
148.43122866279279
 20
49.493364145323099
 30
0.0
 11
148.6183066741481
 21
49.817392765969359
 31
0.0
  0
LINE
  5
1180
  8
0
 62
     0
 10
147.24060366279281
 20
47.431141152561402
 30
0.0
 11
147.6374786627928
 21
48.118548816815299
 31
0.0
  0
LINE
  5
1181
  8
0
 62
     0
 10
146.0499786627928
 20
45.368918159799719
 30
0.0
 11
146.44685366279279
 21
46.056325824053623
 31
0.0
  0
LINE
  5
1182
  8
0
 62
     0
 10
144.8593536627929
 20
43.306695167038022
 30
0.0
 11
145.25622866279281
 21
43.994102831291919
 31
0.0
  0
LINE
  5
1183
  8
0
 62
     0
 10
147.24060394728889
 20
50.180771645323091
 30
0.0
 11
147.63747894728891
 21
50.868179309576988
 31
0.0
  0
LINE
  5
1184
  8
0
 62
     0
 10
146.04997894728891
 20
48.118548652561401
 30
0.0
 11
146.4468539472889
 21
48.805956316815291
 31
0.0
  0
LINE
  5
1185
  8
0
 62
     0
 10
144.85935394728889
 20
46.056325659799711
 30
0.0
 11
145.25622894728889
 21
46.743733324053608
 31
0.0
  0
LINE
  5
1186
  8
0
 62
     0
 10
143.66872894728891
 20
43.994102667038021
 30
0.0
 11
144.06560394728891
 21
44.681510331291911
 31
0.0
  0
LINE
  5
1187
  8
0
 62
     0
 10
142.66048067271791
 20
42.247765428837319
 30
0.0
 11
142.87497894728889
 21
42.619287338530221
 31
0.0
  0
LINE
  5
1188
  8
0
 62
     0
 10
146.04997923178499
 20
50.86817914532309
 30
0.0
 11
146.44685423178501
 21
51.555586809576987
 31
0.0
  0
LINE
  5
1189
  8
0
 62
     0
 10
144.85935423178501
 20
48.8059561525614
 30
0.0
 11
145.256229231785
 21
49.49336381681529
 31
0.0
  0
LINE
  5
118A
  8
0
 62
     0
 10
143.66872923178499
 20
46.74373315979971
 30
0.0
 11
144.06560423178499
 21
47.431140824053607
 31
0.0
  0
LINE
  5
118B
  8
0
 62
     0
 10
142.47810423178501
 20
44.68151016703802
 30
0.0
 11
142.87497923178501
 21
45.36891783129191
 31
0.0
  0
LINE
  5
118C
  8
0
 62
     0
 10
141.41983199667209
 20
42.848528887582923
 30
0.0
 11
141.68435423178499
 21
43.30669483853022
 31
0.0
  0
LINE
  5
118D
  8
0
 62
     0
 10
144.85935451628109
 20
51.555586645323103
 30
0.0
 11
145.256229516281
 21
52.242994309576993
 31
0.0
  0
LINE
  5
118E
  8
0
 62
     0
 10
143.6687295162811
 20
49.493363652561399
 30
0.0
 11
144.0656045162811
 21
50.180771316815303
 31
0.0
  0
LINE
  5
118F
  8
0
 62
     0
 10
142.47810451628109
 20
47.431140659799709
 30
0.0
 11
142.87497951628109
 21
48.118548324053613
 31
0.0
  0
LINE
  5
1190
  8
0
 62
     0
 10
141.28747951628111
 20
45.368917667038019
 30
0.0
 11
141.6843545162811
 21
46.056325331291923
 31
0.0
  0
LINE
  5
1191
  8
0
 62
     0
 10
140.37616464355861
 20
43.790474005789498
 30
0.0
 11
140.49372951628109
 21
43.994102338530233
 31
0.0
  0
LINE
  5
1192
  8
0
 62
     0
 10
143.66872980077719
 20
52.242994145323102
 30
0.0
 11
144.06560480077721
 21
52.930401809576992
 31
0.0
  0
LINE
  5
1193
  8
0
 62
     0
 10
142.4781048007772
 20
50.180771152561412
 30
0.0
 11
142.8749798007772
 21
50.868178816815309
 31
0.0
  0
LINE
  5
1194
  8
0
 62
     0
 10
141.28747980077719
 20
48.118548159799722
 30
0.0
 11
141.68435480077719
 21
48.805955824053619
 31
0.0
  0
LINE
  5
1195
  8
0
 62
     0
 10
140.09685480077721
 20
46.056325167038032
 30
0.0
 11
140.4937298007772
 21
46.743732831291929
 31
0.0
  0
LINE
  5
1196
  8
0
 62
     0
 10
142.4781050852732
 20
52.930401645323101
 30
0.0
 11
142.54131339092169
 21
53.039881642166499
 31
0.0
  0
LINE
  5
1197
  8
0
 62
     0
 10
141.2874800852733
 20
50.868178652561411
 30
0.0
 11
141.6843550852733
 21
51.555586316815308
 31
0.0
  0
LINE
  5
1198
  8
0
 62
     0
 10
140.09685508527329
 20
48.805955659799722
 30
0.0
 11
140.49373008527331
 21
49.493363324053618
 31
0.0
  0
LINE
  5
1199
  8
0
 62
     0
 10
139.03797136424791
 20
46.97191525567608
 30
0.0
 11
139.3031050852733
 21
47.431140331291921
 31
0.0
  0
LINE
  5
119A
  8
0
 62
     0
 10
146.44684342093331
 20
51.555556586859751
 30
0.0
 11
146.04996842093331
 21
52.242964251113648
 31
0.0
  0
LINE
  5
119B
  8
0
 62
     0
 10
147.63746842093329
 20
49.493333594098061
 30
0.0
 11
147.24059342093329
 21
50.180741258351951
 31
0.0
  0
LINE
  5
119C
  8
0
 62
     0
 10
148.8280934209333
 20
47.431110601336371
 30
0.0
 11
148.43121842093331
 21
48.118518265590268
 31
0.0
  0
LINE
  5
119D
  8
0
 62
     0
 10
144.06559370542951
 20
52.930372079621442
 30
0.0
 11
143.86242080378619
 21
53.282277867988768
 31
0.0
  0
LINE
  5
119E
  8
0
 62
     0
 10
145.25621870542949
 20
50.868149086859752
 30
0.0
 11
144.8593437054295
 21
51.555556751113649
 31
0.0
  0
LINE
  5
119F
  8
0
 62
     0
 10
146.4468437054295
 20
48.805926094098062
 30
0.0
 11
146.04996870542939
 21
49.493333758351959
 31
0.0
  0
LINE
  5
11A0
  8
0
 62
     0
 10
147.6374687054294
 20
46.743703101336372
 30
0.0
 11
147.2405937054294
 21
47.431110765590269
 31
0.0
  0
LINE
  5
11A1
  8
0
 62
     0
 10
148.508994618332
 20
45.234175940076213
 30
0.0
 11
148.43121870542939
 21
45.368887772828572
 31
0.0
  0
LINE
  5
11A2
  8
0
 62
     0
 10
142.87496898992561
 20
52.242964579621443
 30
0.0
 11
142.47809398992561
 21
52.93037224387534
 31
0.0
  0
LINE
  5
11A3
  8
0
 62
     0
 10
144.06559398992559
 20
50.180741586859753
 30
0.0
 11
143.66871898992559
 21
50.86814925111365
 31
0.0
  0
LINE
  5
11A4
  8
0
 62
     0
 10
145.25621898992549
 20
48.118518594098063
 30
0.0
 11
144.85934398992549
 21
48.80592625835196
 31
0.0
  0
LINE
  5
11A5
  8
0
 62
     0
 10
146.4468439899255
 20
46.056295601336373
 30
0.0
 11
146.0499689899255
 21
46.74370326559027
 31
0.0
  0
LINE
  5
11A6
  8
0
 62
     0
 10
147.63746898992551
 20
43.994072608574683
 30
0.0
 11
147.24059398992549
 21
44.681480272828573
 31
0.0
  0
LINE
  5
11A7
  8
0
 62
     0
 10
141.6843442744217
 20
51.555557079621437
 30
0.0
 11
141.28746927442171
 21
52.242964743875341
 31
0.0
  0
LINE
  5
11A8
  8
0
 62
     0
 10
142.87496927442169
 20
49.493334086859747
 30
0.0
 11
142.47809427442169
 21
50.180741751113651
 31
0.0
  0
LINE
  5
11A9
  8
0
 62
     0
 10
144.06559427442161
 20
47.431111094098057
 30
0.0
 11
143.6687192744217
 21
48.118518758351961
 31
0.0
  0
LINE
  5
11AA
  8
0
 62
     0
 10
145.2562192744216
 20
45.368888101336367
 30
0.0
 11
144.8593442744216
 21
46.056295765590271
 31
0.0
  0
LINE
  5
11AB
  8
0
 62
     0
 10
146.44684427442161
 20
43.306665108574677
 30
0.0
 11
146.04996927442161
 21
43.994072772828581
 31
0.0
  0
LINE
  5
11AC
  8
0
 62
     0
 10
140.4937195589178
 20
50.868149579621438
 30
0.0
 11
140.21983906123739
 21
51.342524516806172
 31
0.0
  0
LINE
  5
11AD
  8
0
 62
     0
 10
141.68434455891779
 20
48.805926586859762
 30
0.0
 11
141.28746955891779
 21
49.493334251113652
 31
0.0
  0
LINE
  5
11AE
  8
0
 62
     0
 10
142.87496955891771
 20
46.743703594098058
 30
0.0
 11
142.47809455891769
 21
47.431111258351962
 31
0.0
  0
LINE
  5
11AF
  8
0
 62
     0
 10
144.0655945589177
 20
44.681480601336368
 30
0.0
 11
143.6687195589177
 21
45.368888265590272
 31
0.0
  0
LINE
  5
11B0
  8
0
 62
     0
 10
145.25621955891771
 20
42.619257608574678
 30
0.0
 11
144.85934455891771
 21
43.306665272828582
 31
0.0
  0
LINE
  5
11B1
  8
0
 62
     0
 10
140.4937198434138
 20
48.118519086859749
 30
0.0
 11
140.09684484341389
 21
48.805926751113653
 31
0.0
  0
LINE
  5
11B2
  8
0
 62
     0
 10
141.68434484341381
 20
46.056296094098052
 30
0.0
 11
141.28746984341379
 21
46.743703758351948
 31
0.0
  0
LINE
  5
11B3
  8
0
 62
     0
 10
142.87496984341379
 20
43.994073101336369
 30
0.0
 11
142.4780948434138
 21
44.681480765590258
 31
0.0
  0
LINE
  5
11B4
  8
0
 62
     0
 10
144.0018313472743
 20
42.042291723556581
 30
0.0
 11
143.66871984341381
 21
42.619257772828568
 31
0.0
  0
LINE
  5
11B5
  8
0
 62
     0
 10
139.30309512791001
 20
47.431111586859757
 30
0.0
 11
139.00628919785311
 21
47.945194537705973
 31
0.0
  0
LINE
  5
11B6
  8
0
 62
     0
 10
140.49372012790991
 20
45.368888594098067
 30
0.0
 11
140.09684512791
 21
46.056296258351971
 31
0.0
  0
LINE
  5
11B7
  8
0
 62
     0
 10
141.68434512790989
 20
43.306665601336377
 30
0.0
 11
141.2874701279099
 21
43.994073265590274
 31
0.0
  0
LINE
  5
11B8
  8
0
 62
     0
 10
145.25625000000011
 20
42.619265000000112
 30
0.0
 11
146.0500000000001
 21
42.619265000000112
 31
0.0
  0
LINE
  5
11B9
  8
0
 62
     0
 10
142.87500000000011
 20
42.619265000000112
 30
0.0
 11
143.6687500000001
 21
42.619265000000112
 31
0.0
  0
LINE
  5
11BA
  8
0
 62
     0
 10
147.6375000000001
 20
43.994080000000103
 30
0.0
 11
147.78777218174429
 21
43.994080000000103
 31
0.0
  0
LINE
  5
11BB
  8
0
 62
     0
 10
145.25625000000011
 20
43.994080000000103
 30
0.0
 11
146.0500000000001
 21
43.994080000000103
 31
0.0
  0
LINE
  5
11BC
  8
0
 62
     0
 10
142.87500000000011
 20
43.994080000000103
 30
0.0
 11
143.6687500000001
 21
43.994080000000103
 31
0.0
  0
LINE
  5
11BD
  8
0
 62
     0
 10
140.49375000000009
 20
43.994080000000103
 30
0.0
 11
141.28750000000011
 21
43.994080000000103
 31
0.0
  0
LINE
  5
11BE
  8
0
 62
     0
 10
147.6375000000001
 20
45.368895000000101
 30
0.0
 11
148.43125000000009
 21
45.368895000000101
 31
0.0
  0
LINE
  5
11BF
  8
0
 62
     0
 10
145.25625000000011
 20
45.368895000000101
 30
0.0
 11
146.0500000000001
 21
45.368895000000101
 31
0.0
  0
LINE
  5
11C0
  8
0
 62
     0
 10
142.87500000000011
 20
45.368895000000101
 30
0.0
 11
143.6687500000001
 21
45.368895000000101
 31
0.0
  0
LINE
  5
11C1
  8
0
 62
     0
 10
140.49375000000009
 20
45.368895000000101
 30
0.0
 11
141.28750000000011
 21
45.368895000000101
 31
0.0
  0
LINE
  5
11C2
  8
0
 62
     0
 10
147.6375000000001
 20
46.7437100000001
 30
0.0
 11
148.43125000000009
 21
46.7437100000001
 31
0.0
  0
LINE
  5
11C3
  8
0
 62
     0
 10
145.25625000000011
 20
46.7437100000001
 30
0.0
 11
146.0500000000001
 21
46.7437100000001
 31
0.0
  0
LINE
  5
11C4
  8
0
 62
     0
 10
142.87500000000011
 20
46.7437100000001
 30
0.0
 11
143.6687500000001
 21
46.7437100000001
 31
0.0
  0
LINE
  5
11C5
  8
0
 62
     0
 10
140.49375000000009
 20
46.7437100000001
 30
0.0
 11
141.28750000000011
 21
46.7437100000001
 31
0.0
  0
LINE
  5
11C6
  8
0
 62
     0
 10
147.6375000000001
 20
48.118525000000112
 30
0.0
 11
148.43125000000009
 21
48.118525000000112
 31
0.0
  0
LINE
  5
11C7
  8
0
 62
     0
 10
145.25625000000011
 20
48.118525000000112
 30
0.0
 11
146.0500000000001
 21
48.118525000000112
 31
0.0
  0
LINE
  5
11C8
  8
0
 62
     0
 10
142.87500000000011
 20
48.118525000000112
 30
0.0
 11
143.6687500000001
 21
48.118525000000112
 31
0.0
  0
LINE
  5
11C9
  8
0
 62
     0
 10
140.49375000000009
 20
48.118525000000112
 30
0.0
 11
141.28750000000011
 21
48.118525000000112
 31
0.0
  0
LINE
  5
11CA
  8
0
 62
     0
 10
147.6375000000001
 20
49.49334000000011
 30
0.0
 11
148.43125000000009
 21
49.49334000000011
 31
0.0
  0
LINE
  5
11CB
  8
0
 62
     0
 10
145.25625000000011
 20
49.49334000000011
 30
0.0
 11
146.0500000000001
 21
49.49334000000011
 31
0.0
  0
LINE
  5
11CC
  8
0
 62
     0
 10
142.87500000000011
 20
49.49334000000011
 30
0.0
 11
143.6687500000001
 21
49.49334000000011
 31
0.0
  0
LINE
  5
11CD
  8
0
 62
     0
 10
140.49375000000009
 20
49.49334000000011
 30
0.0
 11
141.28750000000011
 21
49.49334000000011
 31
0.0
  0
LINE
  5
11CE
  8
0
 62
     0
 10
147.6375000000001
 20
50.868155000000101
 30
0.0
 11
148.10772746506919
 21
50.868155000000101
 31
0.0
  0
LINE
  5
11CF
  8
0
 62
     0
 10
145.25625000000011
 20
50.868155000000101
 30
0.0
 11
146.0500000000001
 21
50.868155000000101
 31
0.0
  0
LINE
  5
11D0
  8
0
 62
     0
 10
142.87500000000011
 20
50.868155000000101
 30
0.0
 11
143.6687500000001
 21
50.868155000000101
 31
0.0
  0
LINE
  5
11D1
  8
0
 62
     0
 10
140.49375000000009
 20
50.868155000000101
 30
0.0
 11
141.28750000000011
 21
50.868155000000101
 31
0.0
  0
LINE
  5
11D2
  8
0
 62
     0
 10
145.25625000000011
 20
52.242970000000113
 30
0.0
 11
146.0500000000001
 21
52.242970000000113
 31
0.0
  0
LINE
  5
11D3
  8
0
 62
     0
 10
142.87500000000011
 20
52.242970000000113
 30
0.0
 11
143.6687500000001
 21
52.242970000000113
 31
0.0
  0
LINE
  5
11D4
  8
0
 62
     0
 10
141.1007687474002
 20
52.242970000000113
 30
0.0
 11
141.28750000000011
 21
52.242970000000113
 31
0.0
  0
ENDBLK
  5
11D6
  8
0
  0
BLOCK
  8
0
  2
*U50
 70
     1
 10
0.0
 20
0.0
 30
0.0
  3
*U50
  1

  0
TEXT
  5
1222
  8
0
 62
     2
 10
-107.0026515151514
 20
-13.225000000009659
 30
0.0
 40
3.5
  1
min. 130
 50
90.0
  7
ISO
  0
ENDBLK
  5
1224
  8
0
  0
BLOCK
  8
0
  2
*U51
 70
     1
 10
0.0
 20
0.0
 30
0.0
  3
*U51
  1

  0
TEXT
  5
13A6
  8
0
 62
     2
 10
59.174999963870683
 20
-11.46275614065862
 30
0.0
 40
3.5
  1
125
  7
BYGG-027377$0$ISO
  0
ENDBLK
  5
13A8
  8
0
  0
BLOCK
  8
0
  2
*U52
 70
     1
 10
0.0
 20
0.0
 30
0.0
  3
*U52
  1

  0
TEXT
  5
13AA
  8
0
 62
     2
 10
138.9070189266192
 20
55.525000000000013
 30
0.0
 40
3.5
  1
117
 50
90.0
  7
BYGG-027377$0$ISO
  0
ENDBLK
  5
13AC
  8
0
  0
BLOCK
  8
0
  2
*X53
 70
     1
 10
0.0
 20
0.0
 30
0.0
  3
*X53
  1

  0
LINE
  5
13AE
  8
0
 62
     0
 10
76.199999999999989
 20
70.599975999985048
 30
0.0
 11
76.199999999999989
 21
74.699456650023421
 31
0.0
  0
LINE
  5
13AF
  8
0
 62
     0
 10
74.612499999999983
 20
71.26391552932489
 30
0.0
 11
74.612499999999983
 21
74.034973770722118
 31
0.0
  0
LINE
  5
13B0
  8
0
 62
     0
 10
73.024999999999991
 20
71.73370616123222
 30
0.0
 11
73.024999999999991
 21
73.533706161232203
 31
0.0
  0
LINE
  5
13B1
  8
0
 62
     0
 10
71.4375
 20
71.73370616123222
 30
0.0
 11
71.4375
 21
73.533706161232345
 31
0.0
  0
LINE
  5
13B2
  8
0
 62
     0
 10
69.849999999999994
 20
71.73370616123222
 30
0.0
 11
69.849999999999994
 21
73.88665244376044
 31
0.0
  0
LINE
  5
13B3
  8
0
 62
     0
 10
68.262500000000003
 20
106.77485855299869
 30
0.0
 11
68.262500000000003
 21
108.28802382332501
 31
0.0
  0
LINE
  5
13B4
  8
0
 62
     0
 10
68.262500000000003
 20
115.27485855300129
 30
0.0
 11
68.262500000000017
 21
116.78144118816149
 31
0.0
  0
LINE
  5
13B5
  8
0
 62
     0
 10
68.262500000000003
 20
71.73370616123222
 30
0.0
 11
68.262500000000003
 21
99.788023823318554
 31
0.0
  0
LINE
  5
13B6
  8
0
 62
     0
 10
66.674999999999997
 20
98.497179717640634
 30
0.0
 11
66.675000000000011
 21
116.78144118816149
 31
0.0
  0
LINE
  5
13B7
  8
0
 62
     0
 10
66.674999999999997
 20
71.73370616123222
 30
0.0
 11
66.674999999999997
 21
73.54944469071458
 31
0.0
  0
LINE
  5
13B8
  8
0
 62
     0
 10
65.087499999999991
 20
98.497179717642254
 30
0.0
 11
65.087500000000006
 21
116.78144118816139
 31
0.0
  0
LINE
  5
13B9
  8
0
 62
     0
 10
65.087499999999991
 20
71.73370616123222
 30
0.0
 11
65.087499999999991
 21
73.54944469071458
 31
0.0
  0
LINE
  5
13BA
  8
0
 62
     0
 10
63.500000000000007
 20
98.497179717641387
 30
0.0
 11
63.500000000000007
 21
99.797179717640546
 31
0.0
  0
LINE
  5
13BB
  8
0
 62
     0
 10
63.500000000000007
 20
114.9971797176448
 30
0.0
 11
63.500000000000007
 21
116.78144118816139
 31
0.0
  0
LINE
  5
13BC
  8
0
 62
     0
 10
63.500000000000007
 20
71.73370616123222
 30
0.0
 11
63.500000000000007
 21
73.54944469071458
 31
0.0
  0
LINE
  5
13BD
  8
0
 62
     0
 10
61.912500000000001
 20
98.49717971764052
 30
0.0
 11
61.912500000000001
 21
99.797179717640546
 31
0.0
  0
LINE
  5
13BE
  8
0
 62
     0
 10
61.912500000000001
 20
114.9971797176436
 30
0.0
 11
61.912500000000001
 21
116.78144118816139
 31
0.0
  0
LINE
  5
13BF
  8
0
 62
     0
 10
61.912500000000001
 20
71.73370616123222
 30
0.0
 11
61.912500000000001
 21
73.54944469071458
 31
0.0
  0
LINE
  5
13C0
  8
0
 62
     0
 10
60.325000000000003
 20
98.497179717639654
 30
0.0
 11
60.325000000000003
 21
99.828804842068848
 31
0.0
  0
LINE
  5
13C1
  8
0
 62
     0
 10
60.325000000000003
 20
114.96555459321431
 30
0.0
 11
60.325000000000003
 21
116.78144118816139
 31
0.0
  0
LINE
  5
13C2
  8
0
 62
     0
 10
60.325000000000003
 20
71.73370616123222
 30
0.0
 11
60.325000000000003
 21
73.54944469071458
 31
0.0
  0
LINE
  5
13C3
  8
0
 62
     0
 10
58.737500000000011
 20
98.497179717638801
 30
0.0
 11
58.737500000000011
 21
116.7814411881613
 31
0.0
  0
LINE
  5
13C4
  8
0
 62
     0
 10
58.737500000000011
 20
71.73370616123222
 30
0.0
 11
58.737500000000011
 21
73.54944469071458
 31
0.0
  0
LINE
  5
13C5
  8
0
 62
     0
 10
57.149999999999999
 20
106.7814411881581
 30
0.0
 11
57.149999999999999
 21
108.2814411881613
 31
0.0
  0
LINE
  5
13C6
  8
0
 62
     0
 10
57.149999999999999
 20
115.2814411881613
 30
0.0
 11
57.149999999999999
 21
116.7814411881613
 31
0.0
  0
LINE
  5
13C7
  8
0
 62
     0
 10
57.149999999999999
 20
71.73370616123222
 30
0.0
 11
57.149999999999999
 21
99.781441188156677
 31
0.0
  0
LINE
  5
13C8
  8
0
 62
     0
 10
55.562500000000007
 20
105.7893797277396
 30
0.0
 11
55.562500000000007
 21
109.273502648583
 31
0.0
  0
LINE
  5
13C9
  8
0
 62
     0
 10
55.562500000000007
 20
114.2893797277396
 30
0.0
 11
55.562500000000007
 21
116.5235026484573
 31
0.0
  0
LINE
  5
13CA
  8
0
 62
     0
 10
55.562500000000007
 20
71.73370616123222
 30
0.0
 11
55.562500000000007
 21
100.77350264857979
 31
0.0
  0
LINE
  5
13CB
  8
0
 62
     0
 10
53.975000000000001
 20
71.73370616123222
 30
0.0
 11
53.975000000000001
 21
73.533706161232089
 31
0.0
  0
LINE
  5
13CC
  8
0
 62
     0
 10
52.387500000000003
 20
71.73370616123222
 30
0.0
 11
52.387500000000003
 21
73.533706161231692
 31
0.0
  0
LINE
  5
13CD
  8
0
 62
     0
 10
50.799999999999997
 20
71.502072594400531
 30
0.0
 11
50.799999999999997
 21
73.796816705646393
 31
0.0
  0
LINE
  5
13CE
  8
0
 62
     0
 10
49.212499999999999
 20
70.599975999985134
 30
0.0
 11
49.212499999999999
 21
74.69944565000695
 31
0.0
  0
ENDBLK
  5
13D0
  8
0
  0
BLOCK
  8
0
  2
*X54
 70
     1
 10
0.0
 20
0.0
 30
0.0
  3
*X54
  1

  0
LINE
  5
13D2
  8
0
 62
     0
 10
76.199999999999989
 20
59.299444650023403
 30
0.0
 11
76.199999999999989
 21
63.39945665002346
 31
0.0
  0
LINE
  5
13D3
  8
0
 62
     0
 10
74.612499999999983
 20
59.963915566641319
 30
0.0
 11
74.612499999999983
 21
62.734973733405681
 31
0.0
  0
LINE
  5
13D4
  8
0
 62
     0
 10
73.024999999999991
 20
60.199444682530469
 30
0.0
 11
73.024999999999991
 21
62.499444682530417
 31
0.0
  0
LINE
  5
13D5
  8
0
 62
     0
 10
71.4375
 20
60.199444682530462
 30
0.0
 11
71.4375
 21
62.499444682530417
 31
0.0
  0
LINE
  5
13D6
  8
0
 62
     0
 10
69.849999999999994
 20
60.199444682530462
 30
0.0
 11
69.849999999999994
 21
62.499444682530417
 31
0.0
  0
LINE
  5
13D7
  8
0
 62
     0
 10
68.262500000000003
 20
60.199444682530448
 30
0.0
 11
68.262500000000003
 21
62.499444682530417
 31
0.0
  0
LINE
  5
13D8
  8
0
 62
     0
 10
66.674999999999997
 20
60.199444682530448
 30
0.0
 11
66.674999999999997
 21
62.499444682530417
 31
0.0
  0
LINE
  5
13D9
  8
0
 62
     0
 10
65.087499999999991
 20
60.199444682530448
 30
0.0
 11
65.087499999999991
 21
62.499444682530417
 31
0.0
  0
LINE
  5
13DA
  8
0
 62
     0
 10
63.500000000000007
 20
60.199444682530441
 30
0.0
 11
63.500000000000007
 21
62.499444682530417
 31
0.0
  0
LINE
  5
13DB
  8
0
 62
     0
 10
61.912500000000001
 20
60.199444682530441
 30
0.0
 11
61.912500000000001
 21
62.499444682530417
 31
0.0
  0
LINE
  5
13DC
  8
0
 62
     0
 10
60.325000000000003
 20
60.199444682530441
 30
0.0
 11
60.325000000000003
 21
62.499444682530417
 31
0.0
  0
LINE
  5
13DD
  8
0
 62
     0
 10
58.737500000000011
 20
60.199444682530441
 30
0.0
 11
58.737500000000011
 21
62.499444682530417
 31
0.0
  0
LINE
  5
13DE
  8
0
 62
     0
 10
57.149999999999999
 20
60.199444682530441
 30
0.0
 11
57.149999999999999
 21
62.499444682530417
 31
0.0
  0
LINE
  5
13DF
  8
0
 62
     0
 10
55.562500000000007
 20
60.199444682530441
 30
0.0
 11
55.562500000000007
 21
62.499444682530417
 31
0.0
  0
LINE
  5
13E0
  8
0
 62
     0
 10
53.975000000000001
 20
60.199444682530441
 30
0.0
 11
53.975000000000001
 21
62.499444682530417
 31
0.0
  0
LINE
  5
13E1
  8
0
 62
     0
 10
52.387500000000003
 20
60.199444682530427
 30
0.0
 11
52.387500000000003
 21
62.499444682530417
 31
0.0
  0
LINE
  5
13E2
  8
0
 62
     0
 10
50.799999999999997
 20
60.18970205771393
 30
0.0
 11
50.799999999999997
 21
62.509187277926962
 31
0.0
  0
LINE
  5
13E3
  8
0
 62
     0
 10
49.212499999999999
 20
59.299444650023482
 30
0.0
 11
49.212499999999999
 21
63.39944565000696
 31
0.0
  0
ENDBLK
  5
13E5
  8
0
  0
BLOCK
  8
0
  2
*U55
 70
     1
 10
0.0
 20
0.0
 30
0.0
  3
*U55
  1

  0
TEXT
  5
142C
  8
0
 62
     2
 10
41.549999999999997
 20
-11.884580595029099
 30
0.0
 40
3.5
  1
88
  7
BYGG-027050$0$ISO
  0
ENDBLK
  5
142E
  8
0
  0
BLOCK
  8
0
  2
*U56
 70
     1
 10
0.0
 20
0.0
 30
0.0
  3
*U56
  1

  0
TEXT
  5
1430
  8
0
 62
     2
 10
101.19279663991669
 20
27.550000000002019
 30
0.0
 40
3.5
  1
60
 50
90.0
  7
BYGG-027050$0$ISO
  0
ENDBLK
  5
1432
  8
0
  0
BLOCK
  8
0
  2
*U57
 70
     1
 10
0.0
 20
0.0
 30
0.0
  3
*U57
  1

  0
TEXT
  5
1454
  8
0
 62
     2
 10
-5.9215024024452729
 20
13.649999999996981
 30
0.0
 40
3.0
  1
34.8
 50
90.0
  7
BYGG-027470$0$ISO
  0
ENDBLK
  5
1456
  8
0
  0
BLOCK
  8
0
  2
*U58
 70
     1
 10
0.0
 20
0.0
 30
0.0
  3
*U58
  1

  0
TEXT
  5
1458
  8
0
 62
     2
 10
5.7000000000036382
 20
-7.2519065737358392
 30
0.0
 40
3.0
  1
15
  7
BYGG-027470$0$ISO
  0
ENDBLK
  5
145A
  8
0
  0
BLOCK
  8
0
  2
*X59
 70
     1
 10
0.0
 20
0.0
 30
0.0
  3
*X59
  1

  0
LINE
  5
1481
  8
0
 62
     0
 10
22.99999999983179
 20
9.7760650556289335
 30
0.0
 11
22.249999999819501
 21
9.0260650556166411
 31
0.0
  0
LINE
  5
1482
  8
0
 62
     0
 10
22.99999999983179
 20
8.6535330404952884
 30
0.0
 11
22.24999999982073
 21
7.903533040484227
 31
0.0
  0
LINE
  5
1483
  8
0
 62
     0
 10
22.99999999983179
 20
7.5310010253616451
 30
0.0
 11
22.249999999821959
 21
6.7810010253518112
 31
0.0
  0
LINE
  5
1484
  8
0
 62
     0
 10
22.99999999983179
 20
6.4084690102279911
 30
0.0
 11
22.249999999823189
 21
5.6584690102193926
 31
0.0
  0
LINE
  5
1485
  8
0
 62
     0
 10
22.99999999983179
 20
5.2859369950943487
 30
0.0
 11
22.249999999824421
 21
4.5359369950869768
 31
0.0
  0
LINE
  5
1486
  8
0
 62
     0
 10
22.999999999831779
 20
4.1634049799606974
 30
0.0
 11
22.24999999982564
 21
3.4134049799545632
 31
0.0
  0
LINE
  5
1487
  8
0
 62
     0
 10
22.999999999831779
 20
3.0408729648270501
 30
0.0
 11
22.24999999982688
 21
2.2908729648221451
 31
0.0
  0
LINE
  5
1488
  8
0
 62
     0
 10
22.999999999831768
 20
1.918340949693403
 30
0.0
 11
22.249999999828098
 21
1.1683409496897299
 31
0.0
  0
LINE
  5
1489
  8
0
 62
     0
 10
22.999999999831779
 20
0.7958089345597621
 30
0.0
 11
22.249999999829338
 21
0.0458089345573143
 31
0.0
  0
LINE
  5
148A
  8
0
 62
     0
 10
22.999999999831768
 20
-0.3267230805738848
 30
0.0
 11
22.24999999983055
 21
-1.0767230805751029
 31
0.0
  0
LINE
  5
148B
  8
0
 62
     0
 10
22.999999999831779
 20
-1.4492550957075281
 30
0.0
 11
22.24999999983179
 21
-2.199255095707513
 31
0.0
  0
LINE
  5
148C
  8
0
 62
     0
 10
22.999999999831761
 20
-2.5717871108411741
 30
0.0
 11
22.571787110557249
 21
-3.000000000115687
 31
0.0
  0
LINE
  5
148D
  8
0
 62
     0
 10
22.9999999998318
 20
8.9735038448878406
 30
0.0
 11
22.249999999818751
 21
9.7235038449008933
 31
0.0
  0
LINE
  5
148E
  8
0
 62
     0
 10
22.99999999983179
 20
7.8509718297541973
 30
0.0
 11
22.24999999981997
 21
8.6009718297660207
 31
0.0
  0
LINE
  5
148F
  8
0
 62
     0
 10
22.99999999983179
 20
6.7284398146205531
 30
0.0
 11
22.249999999821188
 21
7.4784398146311482
 31
0.0
  0
LINE
  5
1490
  8
0
 62
     0
 10
22.9999999998318
 20
5.6059077994869142
 30
0.0
 11
22.249999999822439
 21
6.3559077994962747
 31
0.0
  0
LINE
  5
1491
  8
0
 62
     0
 10
22.99999999983179
 20
4.48337578435327
 30
0.0
 11
22.24999999982365
 21
5.233375784361403
 31
0.0
  0
LINE
  5
1492
  8
0
 62
     0
 10
22.99999999983179
 20
3.3608437692196271
 30
0.0
 11
22.249999999824901
 21
4.1108437692265234
 31
0.0
  0
LINE
  5
1493
  8
0
 62
     0
 10
22.999999999831779
 20
2.2383117540859869
 30
0.0
 11
22.249999999826109
 21
2.9883117540916539
 31
0.0
  0
LINE
  5
1494
  8
0
 62
     0
 10
22.999999999831779
 20
1.1157797389523401
 30
0.0
 11
22.249999999827349
 21
1.8657797389567781
 31
0.0
  0
LINE
  5
1495
  8
0
 62
     0
 10
22.999999999831779
 20
-0.0067522761812988
 30
0.0
 11
22.249999999828571
 21
0.743247723821913
 31
0.0
  0
LINE
  5
1496
  8
0
 62
     0
 10
22.999999999831779
 20
-1.1292842913149379
 30
0.0
 11
22.2499999998298
 21
-0.3792842913129633
 31
0.0
  0
LINE
  5
1497
  8
0
 62
     0
 10
22.999999999831779
 20
-2.251816306448581
 30
0.0
 11
22.249999999831029
 21
-1.5018163064478349
 31
0.0
  0
LINE
  5
1498
  8
0
 62
     0
 10
22.625651678365191
 20
-3.0000000001156399
 30
0.0
 11
22.249999999832259
 21
-2.6243483215827079
 31
0.0
  0
ENDBLK
  5
149A
  8
0
  0
BLOCK
  8
0
  2
*X60
 70
     1
 10
0.0
 20
0.0
 30
0.0
  3
*X60
  1

  0
LINE
  5
149C
  8
0
 62
     0
 10
65.680151519177045
 20
9.7999999998957108
 30
0.0
 11
64.999999999832113
 21
9.1198484805507611
 31
0.0
  0
LINE
  5
149D
  8
0
 62
     0
 10
65.750000000183562
 20
8.7473164657685647
 30
0.0
 11
64.999999999832113
 21
7.9973164654171169
 31
0.0
  0
LINE
  5
149E
  8
0
 62
     0
 10
65.750000000182325
 20
7.624784450633685
 30
0.0
 11
64.999999999832113
 21
6.8747844502834718
 31
0.0
  0
LINE
  5
149F
  8
0
 62
     0
 10
65.750000000181089
 20
6.502252435498808
 30
0.0
 11
64.999999999832113
 21
5.7522524351498294
 31
0.0
  0
LINE
  5
14A0
  8
0
 62
     0
 10
65.750000000179853
 20
5.3797204203639364
 30
0.0
 11
64.999999999832113
 21
4.6297204200161861
 31
0.0
  0
LINE
  5
14A1
  8
0
 62
     0
 10
65.75000000017863
 20
4.2571884052290567
 30
0.0
 11
64.999999999832113
 21
3.5071884048825401
 31
0.0
  0
LINE
  5
14A2
  8
0
 62
     0
 10
65.750000000177408
 20
3.1346563900941882
 30
0.0
 11
64.999999999832113
 21
2.3846563897488959
 31
0.0
  0
LINE
  5
14A3
  8
0
 62
     0
 10
65.750000000176172
 20
2.0121243749593098
 30
0.0
 11
64.999999999832113
 21
1.2621243746152531
 31
0.0
  0
LINE
  5
14A4
  8
0
 62
     0
 10
65.750000000174936
 20
0.8895923598244319
 30
0.0
 11
64.999999999832113
 21
0.139592359481608
 31
0.0
  0
LINE
  5
14A5
  8
0
 62
     0
 10
65.750000000173699
 20
-0.2329396553104397
 30
0.0
 11
64.999999999832113
 21
-0.9829396556520372
 31
0.0
  0
LINE
  5
14A6
  8
0
 62
     0
 10
65.750000000172463
 20
-1.3554716704453169
 30
0.0
 11
64.999999999832113
 21
-2.1054716707856809
 31
0.0
  0
LINE
  5
14A7
  8
0
 62
     0
 10
65.750000000171241
 20
-2.4780036855801941
 30
0.0
 11
65.228003685635954
 21
-3.0000000001154801
 31
0.0
  0
LINE
  5
14A8
  8
0
 62
     0
 10
65.750000000183718
 20
8.8797204196144044
 30
0.0
 11
64.999999999832113
 21
9.6297204199659951
 31
0.0
  0
LINE
  5
14A9
  8
0
 62
     0
 10
65.750000000182453
 20
7.757188404481993
 30
0.0
 11
64.999999999832113
 21
8.5071884048323536
 31
0.0
  0
LINE
  5
14AA
  8
0
 62
     0
 10
65.750000000181245
 20
6.6346563893495762
 30
0.0
 11
64.999999999832113
 21
7.3846563896987059
 31
0.0
  0
LINE
  5
14AB
  8
0
 62
     0
 10
65.750000000179995
 20
5.5121243742171666
 30
0.0
 11
64.999999999832113
 21
6.2621243745650652
 31
0.0
  0
LINE
  5
14AC
  8
0
 62
     0
 10
65.750000000178773
 20
4.3895923590847561
 30
0.0
 11
64.999999999832113
 21
5.139592359431421
 31
0.0
  0
LINE
  5
14AD
  8
0
 62
     0
 10
65.75000000017755
 20
3.2670603439523398
 30
0.0
 11
64.999999999832113
 21
4.0170603442977768
 31
0.0
  0
LINE
  5
14AE
  8
0
 62
     0
 10
65.750000000176314
 20
2.1445283288199279
 30
0.0
 11
64.999999999832113
 21
2.8945283291641308
 31
0.0
  0
LINE
  5
14AF
  8
0
 62
     0
 10
65.750000000175064
 20
1.021996313687519
 30
0.0
 11
64.999999999832113
 21
1.771996314030488
 31
0.0
  0
LINE
  5
14B0
  8
0
 62
     0
 10
65.750000000173856
 20
-0.1005357014448984
 30
0.0
 11
64.999999999832113
 21
0.6494642988968434
 31
0.0
  0
LINE
  5
14B1
  8
0
 62
     0
 10
65.750000000172605
 20
-1.2230677165773081
 30
0.0
 11
64.999999999832113
 21
-0.4730677162368
 31
0.0
  0
LINE
  5
14B2
  8
0
 62
     0
 10
65.750000000171383
 20
-2.345599731709723
 30
0.0
 11
64.999999999832113
 21
-1.5955997313704451
 31
0.0
  0
LINE
  5
14B3
  8
0
 62
     0
 10
65.281868253443562
 20
-3.00000000011554
 30
0.0
 11
64.999999999832113
 21
-2.7181317465040911
 31
0.0
  0
ENDBLK
  5
14B5
  8
0
  0
BLOCK
  8
0
  2
*U61
 70
     1
 10
0.0
 20
0.0
 30
0.0
  3
*U61
  1

  0
TEXT
  5
1522
  8
0
 62
     2
 10
20.874999999845372
 20
-7.3958485393668081
 30
0.0
 40
3.5
  1
47
  7
BYGG-027291$0$ISO
  0
ENDBLK
  5
1524
  8
0
  0
BLOCK
  8
0
  2
*U62
 70
     1
 10
0.0
 20
0.0
 30
0.0
  3
*U62
  1

  0
TEXT
  5
1526
  8
0
 62
     2
 10
56.848944787702273
 20
11.55000000062725
 30
0.0
 40
3.5
  1
28
 50
90.0
  7
BYGG-027291$0$ISO
  0
ENDBLK
  5
1528
  8
0
  0
BLOCK
  8
0
  2
*X63
 70
     1
 10
0.0
 20
0.0
 30
0.0
  3
*X63
  1

  0
LINE
  5
152A
  8
0
 62
     0
 10
38.100000000000001
 20
7.2500120012615614
 30
0.0
 11
38.100000000000001
 21
11.35002133459094
 31
0.0
  0
LINE
  5
152B
  8
0
 62
     0
 10
36.512500000000003
 20
7.9722179862134324
 30
0.0
 11
36.512500000000003
 21
10.62780601630983
 31
0.0
  0
LINE
  5
152C
  8
0
 62
     0
 10
34.924999999999997
 20
8.3500120012634955
 30
0.0
 11
34.924999999999997
 21
10.250012001263469
 31
0.0
  0
LINE
  5
152D
  8
0
 62
     0
 10
33.337499999999999
 20
8.3500120012634955
 30
0.0
 11
33.337499999999999
 21
10.250012001263469
 31
0.0
  0
LINE
  5
152E
  8
0
 62
     0
 10
31.75
 20
8.3500120012634955
 30
0.0
 11
31.75
 21
10.250012001263469
 31
0.0
  0
LINE
  5
152F
  8
0
 62
     0
 10
30.162500000000001
 20
8.3500120012634955
 30
0.0
 11
30.162500000000001
 21
10.250012001263469
 31
0.0
  0
LINE
  5
1530
  8
0
 62
     0
 10
28.574999999999999
 20
8.3500120012634955
 30
0.0
 11
28.574999999999999
 21
10.250012001263469
 31
0.0
  0
LINE
  5
1531
  8
0
 62
     0
 10
26.987500000000001
 20
8.3500120012634955
 30
0.0
 11
26.987500000000001
 21
10.250012001263469
 31
0.0
  0
LINE
  5
1532
  8
0
 62
     0
 10
25.399999999999999
 20
8.3500120012634955
 30
0.0
 11
25.399999999999999
 21
10.250012001263469
 31
0.0
  0
LINE
  5
1533
  8
0
 62
     0
 10
23.8125
 20
8.3500120012634955
 30
0.0
 11
23.8125
 21
10.250012001263469
 31
0.0
  0
LINE
  5
1534
  8
0
 62
     0
 10
22.225000000000001
 20
8.3500120012634955
 30
0.0
 11
22.225000000000001
 21
10.250012001263469
 31
0.0
  0
LINE
  5
1535
  8
0
 62
     0
 10
20.637499999999999
 20
8.3500120012634955
 30
0.0
 11
20.637499999999999
 21
10.250012001263469
 31
0.0
  0
LINE
  5
1536
  8
0
 62
     0
 10
19.050000000000001
 20
8.3500120012634955
 30
0.0
 11
19.050000000000001
 21
10.250012001263469
 31
0.0
  0
LINE
  5
1537
  8
0
 62
     0
 10
17.462499999999999
 20
8.3500120012634955
 30
0.0
 11
17.462499999999999
 21
10.250012001263469
 31
0.0
  0
LINE
  5
1538
  8
0
 62
     0
 10
15.875
 20
8.3500120012634955
 30
0.0
 11
15.875
 21
10.250012001263469
 31
0.0
  0
LINE
  5
1539
  8
0
 62
     0
 10
14.2875
 20
8.3500120012634955
 30
0.0
 11
14.2875
 21
10.250012001263469
 31
0.0
  0
LINE
  5
153A
  8
0
 62
     0
 10
12.699999999999999
 20
8.3500120012634955
 30
0.0
 11
12.699999999999999
 21
10.250012001263469
 31
0.0
  0
LINE
  5
153B
  8
0
 62
     0
 10
11.112500000000001
 20
8.3119842071177121
 30
0.0
 11
11.112500000000001
 21
10.288039795407149
 31
0.0
  0
LINE
  5
153C
  8
0
 62
     0
 10
9.5249999999999986
 20
7.4165183522970084
 30
0.0
 11
9.5249999999999986
 21
11.183505650226451
 31
0.0
  0
ENDBLK
  5
153E
  8
0
  0
BLOCK
  8
0
  2
*U64
 70
     1
 10
0.0
 20
0.0
 30
0.0
  3
*U64
  1

  0
TEXT
  5
1541
  8
0
 62
     2
 10
-32.449999999999889
 20
102.0000000000001
 30
0.0
 40
3.5
  1
88
  7
ISO
  0
ENDBLK
  5
1543
  8
0
  0
BLOCK
  8
0
  2
*U65
 70
     1
 10
0.0
 20
0.0
 30
0.0
  3
*U65
  1

  0
TEXT
  5
1545
  8
0
 62
     2
 10
14.27500000009033
 20
102.0000000000001
 30
0.0
 40
3.5
  1
6.5
  7
ISO
  0
ENDBLK
  5
1547
  8
0
  0
BLOCK
  8
0
  2
*U66
 70
     1
 10
0.0
 20
0.0
 30
0.0
  3
*U66
  1

  0
TEXT
  5
1549
  8
0
 62
     2
 10
73.17499999975108
 20
114.0000000000001
 30
0.0
 40
3.5
  1
125
  7
ISO
  0
ENDBLK
  5
154B
  8
0
  0
BLOCK
  8
0
  2
*U67
 70
     1
 10
0.0
 20
0.0
 30
0.0
  3
*U67
  1

  0
TEXT
  5
154D
  8
0
 62
     2
 10
-95.000000000000014
 20
-1.4749999999994721
 30
0.0
 40
3.5
  1
117
 50
90.0
  7
ISO
  0
ENDBLK
  5
154F
  8
0
  0
BLOCK
  8
0
  2
*U68
 70
     1
 10
0.0
 20
0.0
 30
0.0
  3
*U68
  1

  0
TEXT
  5
1551
  8
0
 62
     2
 10
73.174999963870675
 20
-68.462756140658584
 30
0.0
 40
3.5
  1
125
  7
BYGG-027377$0$ISO
  0
ENDBLK
  5
1553
  8
0
  0
BLOCK
  8
0
  2
*U69
 70
     1
 10
0.0
 20
0.0
 30
0.0
  3
*U69
  1

  0
TEXT
  5
196F
  8
0
 62
     2
 10
41.375000000000398
 20
34.604151459371721
 30
0.0
 40
3.5
  1
47
  7
BYGG-027291$0$ISO
  0
ENDBLK
  5
1971
  8
0
  0
BLOCK
  8
0
  2
*U70
 70
     1
 10
0.0
 20
0.0
 30
0.0
  3
*U70
  1

  0
TEXT
  5
1973
  8
0
 62
     2
 10
77.348944787857292
 20
53.549999999365767
 30
0.0
 40
3.5
  1
28
 50
90.0
  7
BYGG-027291$0$ISO
  0
ENDBLK
  5
1975
  8
0
  0
BLOCK
  8
0
  2
*U71
 70
     1
 10
0.0
 20
0.0
 30
0.0
  3
*U71
  1

  0
TEXT
  5
1977
  8
0
 62
     2
 10
-6.9215024024523242
 20
35.850000000000477
 30
0.0
 40
3.0
  1
34.8
 50
90.0
  7
BYGG-027470$0$ISO
  0
ENDBLK
  5
1979
  8
0
  0
BLOCK
  8
0
  2
*U72
 70
     1
 10
0.0
 20
0.0
 30
0.0
  3
*U72
  1

  0
TEXT
  5
197B
  8
0
 62
     2
 10
4.6999999999965931
 20
14.948093426267651
 30
0.0
 40
3.0
  1
15
  7
BYGG-027470$0$ISO
  0
ENDBLK
  5
197D
  8
0
  0
BLOCK
  8
0
  2
*U73
 70
     1
 10
0.0
 20
0.0
 30
0.0
  3
*U73
  1

  0
TEXT
  5
197F
  8
0
 62
     2
 10
-32.449999999999889
 20
-11.884580595028069
 30
0.0
 40
3.5
  1
88
  7
BYGG-027050$0$ISO
  0
ENDBLK
  5
1981
  8
0
  0
BLOCK
  8
0
  2
*U74
 70
     1
 10
0.0
 20
0.0
 30
0.0
  3
*U74
  1

  0
TEXT
  5
1983
  8
0
 62
     2
 10
27.192796639916871
 20
27.550000000003031
 30
0.0
 40
3.5
  1
60
 50
90.0
  7
BYGG-027050$0$ISO
  0
ENDBLK
  5
1985
  8
0
  0
BLOCK
  8
0
  2
*U75
 70
     1
 10
0.0
 20
0.0
 30
0.0
  3
*U75
  1

  0
TEXT
  5
1987
  8
0
 62
     2
 10
152.90701892661929
 20
-1.474999999999967
 30
0.0
 40
3.5
  1
117
 50
90.0
  7
BYGG-027377$0$ISO
  0
ENDBLK
  5
1989
  8
0
  0
BLOCK
  8
0
  2
*X76
 70
     1
 10
0.0
 20
0.0
 30
0.0
  3
*X76
  1

  0
LINE
  5
198B
  8
0
 62
     0
 10
65.680151519177286
 20
69.799999999895704
 30
0.0
 11
64.99999999983234
 21
69.119848480550758
 31
0.0
  0
LINE
  5
198C
  8
0
 62
     0
 10
65.750000000183789
 20
68.747316465768563
 30
0.0
 11
64.99999999983234
 21
67.997316465417114
 31
0.0
  0
LINE
  5
198D
  8
0
 62
     0
 10
65.750000000182553
 20
67.624784450633683
 30
0.0
 11
64.99999999983234
 21
66.874784450283471
 31
0.0
  0
LINE
  5
198E
  8
0
 62
     0
 10
65.750000000181316
 20
66.502252435498804
 30
0.0
 11
64.99999999983234
 21
65.752252435149813
 31
0.0
  0
LINE
  5
198F
  8
0
 62
     0
 10
65.750000000180066
 20
65.379720420363924
 30
0.0
 11
64.99999999983234
 21
64.629720420016184
 31
0.0
  0
LINE
  5
1990
  8
0
 62
     0
 10
65.750000000178858
 20
64.257188405229059
 30
0.0
 11
64.99999999983234
 21
63.507188404882527
 31
0.0
  0
LINE
  5
1991
  8
0
 62
     0
 10
65.750000000177636
 20
63.134656390094179
 30
0.0
 11
64.99999999983234
 21
62.384656389748891
 31
0.0
  0
LINE
  5
1992
  8
0
 62
     0
 10
65.750000000176399
 20
62.012124374959299
 30
0.0
 11
64.99999999983234
 21
61.262124374615247
 31
0.0
  0
LINE
  5
1993
  8
0
 62
     0
 10
65.750000000175163
 20
60.889592359824427
 30
0.0
 11
64.99999999983234
 21
60.139592359481597
 31
0.0
  0
LINE
  5
1994
  8
0
 62
     0
 10
65.750000000173941
 20
59.767060344689561
 30
0.0
 11
64.99999999983234
 21
59.017060344347961
 31
0.0
  0
LINE
  5
1995
  8
0
 62
     0
 10
65.750000000172705
 20
58.644528329554682
 30
0.0
 11
64.99999999983234
 21
57.894528329214317
 31
0.0
  0
LINE
  5
1996
  8
0
 62
     0
 10
65.750000000171468
 20
57.521996314419802
 30
0.0
 11
65.228003685636182
 21
56.999999999884523
 31
0.0
  0
LINE
  5
1997
  8
0
 62
     0
 10
65.750000000183945
 20
68.879720419614401
 30
0.0
 11
64.99999999983234
 21
69.629720419965992
 31
0.0
  0
LINE
  5
1998
  8
0
 62
     0
 10
65.750000000182695
 20
67.757188404481994
 30
0.0
 11
64.99999999983234
 21
68.507188404832362
 31
0.0
  0
LINE
  5
1999
  8
0
 62
     0
 10
65.750000000181473
 20
66.634656389349573
 30
0.0
 11
64.999999999832326
 21
67.384656389698705
 31
0.0
  0
LINE
  5
199A
  8
0
 62
     0
 10
65.750000000180236
 20
65.512124374217166
 30
0.0
 11
64.99999999983234
 21
66.262124374565076
 31
0.0
  0
LINE
  5
199B
  8
0
 62
     0
 10
65.750000000179
 20
64.389592359084759
 30
0.0
 11
64.999999999832326
 21
65.139592359431418
 31
0.0
  0
LINE
  5
199C
  8
0
 62
     0
 10
65.750000000177764
 20
63.26706034395233
 30
0.0
 11
64.99999999983234
 21
64.017060344297775
 31
0.0
  0
LINE
  5
199D
  8
0
 62
     0
 10
65.750000000176513
 20
62.144528328819924
 30
0.0
 11
64.999999999832326
 21
62.894528329164132
 31
0.0
  0
LINE
  5
199E
  8
0
 62
     0
 10
65.750000000175305
 20
61.021996313687517
 30
0.0
 11
64.99999999983234
 21
61.771996314030481
 31
0.0
  0
LINE
  5
199F
  8
0
 62
     0
 10
65.750000000174083
 20
59.899464298555102
 30
0.0
 11
64.99999999983234
 21
60.649464298896831
 31
0.0
  0
LINE
  5
19A0
  8
0
 62
     0
 10
65.750000000172847
 20
58.776932283422681
 30
0.0
 11
64.99999999983234
 21
59.526932283763188
 31
0.0
  0
LINE
  5
19A1
  8
0
 62
     0
 10
65.750000000171624
 20
57.65440026829026
 30
0.0
 11
64.99999999983234
 21
58.404400268629551
 31
0.0
  0
LINE
  5
19A2
  8
0
 62
     0
 10
65.281868253443804
 20
56.999999999884437
 30
0.0
 11
64.99999999983234
 21
57.281868253495908
 31
0.0
  0
ENDBLK
  5
19A4
  8
0
  0
BLOCK
  8
0
  2
*X77
 70
     1
 10
0.0
 20
0.0
 30
0.0
  3
*X77
  1

  0
LINE
  5
19A6
  8
0
 62
     0
 10
22.999999999832031
 20
69.776065055628948
 30
0.0
 11
22.249999999819739
 21
69.026065055616655
 31
0.0
  0
LINE
  5
19A7
  8
0
 62
     0
 10
22.999999999832031
 20
68.65353304049529
 30
0.0
 11
22.249999999820961
 21
67.903533040484234
 31
0.0
  0
LINE
  5
19A8
  8
0
 62
     0
 10
22.999999999832021
 20
67.531001025361633
 30
0.0
 11
22.24999999982219
 21
66.781001025351799
 31
0.0
  0
LINE
  5
19A9
  8
0
 62
     0
 10
22.99999999983201
 20
66.408469010228004
 30
0.0
 11
22.249999999823419
 21
65.658469010219392
 31
0.0
  0
LINE
  5
19AA
  8
0
 62
     0
 10
22.999999999832021
 20
65.285936995094346
 30
0.0
 11
22.249999999824649
 21
64.535936995086971
 31
0.0
  0
LINE
  5
19AB
  8
0
 62
     0
 10
22.99999999983201
 20
64.163404979960703
 30
0.0
 11
22.249999999825871
 21
63.413404979954571
 31
0.0
  0
LINE
  5
19AC
  8
0
 62
     0
 10
22.99999999983201
 20
63.040872964827052
 30
0.0
 11
22.249999999827111
 21
62.29087296482215
 31
0.0
  0
LINE
  5
19AD
  8
0
 62
     0
 10
22.99999999983201
 20
61.918340949693409
 30
0.0
 11
22.249999999828319
 21
61.168340949689728
 31
0.0
  0
LINE
  5
19AE
  8
0
 62
     0
 10
22.99999999983201
 20
60.795808934559751
 30
0.0
 11
22.249999999829559
 21
60.045808934557307
 31
0.0
  0
LINE
  5
19AF
  8
0
 62
     0
 10
22.999999999831999
 20
59.673276919426101
 30
0.0
 11
22.249999999830781
 21
58.923276919424893
 31
0.0
  0
LINE
  5
19B0
  8
0
 62
     0
 10
22.99999999983201
 20
58.550744904292472
 30
0.0
 11
22.249999999832021
 21
57.800744904292493
 31
0.0
  0
LINE
  5
19B1
  8
0
 62
     0
 10
22.999999999831989
 20
57.428212889158829
 30
0.0
 11
22.571787110557491
 21
56.999999999884309
 31
0.0
  0
LINE
  5
19B2
  8
0
 62
     0
 10
22.999999999832031
 20
68.97350384488783
 30
0.0
 11
22.249999999818971
 21
69.723503844900904
 31
0.0
  0
LINE
  5
19B3
  8
0
 62
     0
 10
22.999999999832021
 20
67.850971829754201
 30
0.0
 11
22.249999999820201
 21
68.600971829766024
 31
0.0
  0
LINE
  5
19B4
  8
0
 62
     0
 10
22.999999999832021
 20
66.728439814620543
 30
0.0
 11
22.249999999821419
 21
67.478439814631145
 31
0.0
  0
LINE
  5
19B5
  8
0
 62
     0
 10
22.999999999832031
 20
65.605907799486914
 30
0.0
 11
22.249999999822659
 21
66.355907799496279
 31
0.0
  0
LINE
  5
19B6
  8
0
 62
     0
 10
22.99999999983201
 20
64.483375784353271
 30
0.0
 11
22.249999999823881
 21
65.233375784361399
 31
0.0
  0
LINE
  5
19B7
  8
0
 62
     0
 10
22.99999999983201
 20
63.360843769219628
 30
0.0
 11
22.249999999825121
 21
64.110843769226534
 31
0.0
  0
LINE
  5
19B8
  8
0
 62
     0
 10
22.99999999983201
 20
62.238311754085977
 30
0.0
 11
22.249999999826329
 21
62.988311754091661
 31
0.0
  0
LINE
  5
19B9
  8
0
 62
     0
 10
22.99999999983201
 20
61.115779738952348
 30
0.0
 11
22.249999999827569
 21
61.865779738956789
 31
0.0
  0
LINE
  5
19BA
  8
0
 62
     0
 10
22.999999999831999
 20
59.993247723818712
 30
0.0
 11
22.249999999828798
 21
60.743247723821902
 31
0.0
  0
LINE
  5
19BB
  8
0
 62
     0
 10
22.99999999983201
 20
58.870715708685047
 30
0.0
 11
22.249999999830031
 21
59.62071570868703
 31
0.0
  0
LINE
  5
19BC
  8
0
 62
     0
 10
22.999999999831989
 20
57.748183693551418
 30
0.0
 11
22.24999999983126
 21
58.498183693552157
 31
0.0
  0
LINE
  5
19BD
  8
0
 62
     0
 10
22.625651678365418
 20
56.999999999884352
 30
0.0
 11
22.24999999983249
 21
57.375651678417277
 31
0.0
  0
ENDBLK
  5
19BF
  8
0
  0
BLOCK
  8
0
  2
*X78
 70
     1
 10
0.0
 20
0.0
 30
0.0
  3
*X78
  1

  0
LINE
  5
19E5
  8
0
 62
     0
 10
65.680151519177286
 20
69.799999999895704
 30
0.0
 11
64.99999999983234
 21
69.119848480550758
 31
0.0
  0
LINE
  5
19E6
  8
0
 62
     0
 10
65.750000000183789
 20
68.747316465768563
 30
0.0
 11
64.99999999983234
 21
67.997316465417114
 31
0.0
  0
LINE
  5
19E7
  8
0
 62
     0
 10
65.750000000182553
 20
67.624784450633683
 30
0.0
 11
64.99999999983234
 21
66.874784450283471
 31
0.0
  0
LINE
  5
19E8
  8
0
 62
     0
 10
65.750000000181316
 20
66.502252435498804
 30
0.0
 11
64.99999999983234
 21
65.752252435149813
 31
0.0
  0
LINE
  5
19E9
  8
0
 62
     0
 10
65.750000000180066
 20
65.379720420363924
 30
0.0
 11
64.99999999983234
 21
64.629720420016184
 31
0.0
  0
LINE
  5
19EA
  8
0
 62
     0
 10
65.750000000178858
 20
64.257188405229059
 30
0.0
 11
64.99999999983234
 21
63.507188404882527
 31
0.0
  0
LINE
  5
19EB
  8
0
 62
     0
 10
65.750000000177636
 20
63.134656390094179
 30
0.0
 11
64.99999999983234
 21
62.384656389748891
 31
0.0
  0
LINE
  5
19EC
  8
0
 62
     0
 10
65.750000000176399
 20
62.012124374959299
 30
0.0
 11
64.99999999983234
 21
61.262124374615247
 31
0.0
  0
LINE
  5
19ED
  8
0
 62
     0
 10
65.750000000175163
 20
60.889592359824427
 30
0.0
 11
64.99999999983234
 21
60.139592359481597
 31
0.0
  0
LINE
  5
19EE
  8
0
 62
     0
 10
65.750000000173941
 20
59.767060344689561
 30
0.0
 11
64.99999999983234
 21
59.017060344347961
 31
0.0
  0
LINE
  5
19EF
  8
0
 62
     0
 10
65.750000000172705
 20
58.644528329554682
 30
0.0
 11
64.99999999983234
 21
57.894528329214317
 31
0.0
  0
LINE
  5
19F0
  8
0
 62
     0
 10
65.750000000171468
 20
57.521996314419802
 30
0.0
 11
65.228003685636182
 21
56.999999999884523
 31
0.0
  0
LINE
  5
19F1
  8
0
 62
     0
 10
65.750000000183945
 20
68.879720419614401
 30
0.0
 11
64.99999999983234
 21
69.629720419965992
 31
0.0
  0
LINE
  5
19F2
  8
0
 62
     0
 10
65.750000000182695
 20
67.757188404481994
 30
0.0
 11
64.99999999983234
 21
68.507188404832362
 31
0.0
  0
LINE
  5
19F3
  8
0
 62
     0
 10
65.750000000181473
 20
66.634656389349573
 30
0.0
 11
64.999999999832326
 21
67.384656389698705
 31
0.0
  0
LINE
  5
19F4
  8
0
 62
     0
 10
65.750000000180236
 20
65.512124374217166
 30
0.0
 11
64.99999999983234
 21
66.262124374565076
 31
0.0
  0
LINE
  5
19F5
  8
0
 62
     0
 10
65.750000000179
 20
64.389592359084759
 30
0.0
 11
64.999999999832326
 21
65.139592359431418
 31
0.0
  0
LINE
  5
19F6
  8
0
 62
     0
 10
65.750000000177764
 20
63.26706034395233
 30
0.0
 11
64.99999999983234
 21
64.017060344297775
 31
0.0
  0
LINE
  5
19F7
  8
0
 62
     0
 10
65.750000000176513
 20
62.144528328819924
 30
0.0
 11
64.999999999832326
 21
62.894528329164132
 31
0.0
  0
LINE
  5
19F8
  8
0
 62
     0
 10
65.750000000175305
 20
61.021996313687517
 30
0.0
 11
64.99999999983234
 21
61.771996314030481
 31
0.0
  0
LINE
  5
19F9
  8
0
 62
     0
 10
65.750000000174083
 20
59.899464298555102
 30
0.0
 11
64.99999999983234
 21
60.649464298896831
 31
0.0
  0
LINE
  5
19FA
  8
0
 62
     0
 10
65.750000000172847
 20
58.776932283422681
 30
0.0
 11
64.99999999983234
 21
59.526932283763188
 31
0.0
  0
LINE
  5
19FB
  8
0
 62
     0
 10
65.750000000171624
 20
57.65440026829026
 30
0.0
 11
64.99999999983234
 21
58.404400268629551
 31
0.0
  0
LINE
  5
19FC
  8
0
 62
     0
 10
65.281868253443804
 20
56.999999999884437
 30
0.0
 11
64.99999999983234
 21
57.281868253495908
 31
0.0
  0
ENDBLK
  5
19FE
  8
0
  0
BLOCK
  8
0
  2
*X79
 70
     1
 10
0.0
 20
0.0
 30
0.0
  3
*X79
  1

  0
LINE
  5
1A00
  8
0
 62
     0
 10
22.999999999832031
 20
69.776065055628948
 30
0.0
 11
22.249999999819739
 21
69.026065055616655
 31
0.0
  0
LINE
  5
1A01
  8
0
 62
     0
 10
22.999999999832031
 20
68.65353304049529
 30
0.0
 11
22.249999999820961
 21
67.903533040484234
 31
0.0
  0
LINE
  5
1A02
  8
0
 62
     0
 10
22.999999999832021
 20
67.531001025361633
 30
0.0
 11
22.24999999982219
 21
66.781001025351799
 31
0.0
  0
LINE
  5
1A03
  8
0
 62
     0
 10
22.99999999983201
 20
66.408469010228004
 30
0.0
 11
22.249999999823419
 21
65.658469010219392
 31
0.0
  0
LINE
  5
1A04
  8
0
 62
     0
 10
22.999999999832021
 20
65.285936995094346
 30
0.0
 11
22.249999999824649
 21
64.535936995086971
 31
0.0
  0
LINE
  5
1A05
  8
0
 62
     0
 10
22.99999999983201
 20
64.163404979960703
 30
0.0
 11
22.249999999825871
 21
63.413404979954571
 31
0.0
  0
LINE
  5
1A06
  8
0
 62
     0
 10
22.99999999983201
 20
63.040872964827052
 30
0.0
 11
22.249999999827111
 21
62.29087296482215
 31
0.0
  0
LINE
  5
1A07
  8
0
 62
     0
 10
22.99999999983201
 20
61.918340949693409
 30
0.0
 11
22.249999999828319
 21
61.168340949689728
 31
0.0
  0
LINE
  5
1A08
  8
0
 62
     0
 10
22.99999999983201
 20
60.795808934559751
 30
0.0
 11
22.249999999829559
 21
60.045808934557307
 31
0.0
  0
LINE
  5
1A09
  8
0
 62
     0
 10
22.999999999831999
 20
59.673276919426101
 30
0.0
 11
22.249999999830781
 21
58.923276919424893
 31
0.0
  0
LINE
  5
1A0A
  8
0
 62
     0
 10
22.99999999983201
 20
58.550744904292472
 30
0.0
 11
22.249999999832021
 21
57.800744904292493
 31
0.0
  0
LINE
  5
1A0B
  8
0
 62
     0
 10
22.999999999831989
 20
57.428212889158829
 30
0.0
 11
22.571787110557491
 21
56.999999999884309
 31
0.0
  0
LINE
  5
1A0C
  8
0
 62
     0
 10
22.999999999832031
 20
68.97350384488783
 30
0.0
 11
22.249999999818971
 21
69.723503844900904
 31
0.0
  0
LINE
  5
1A0D
  8
0
 62
     0
 10
22.999999999832021
 20
67.850971829754201
 30
0.0
 11
22.249999999820201
 21
68.600971829766024
 31
0.0
  0
LINE
  5
1A0E
  8
0
 62
     0
 10
22.999999999832021
 20
66.728439814620543
 30
0.0
 11
22.249999999821419
 21
67.478439814631145
 31
0.0
  0
LINE
  5
1A0F
  8
0
 62
     0
 10
22.999999999832031
 20
65.605907799486914
 30
0.0
 11
22.249999999822659
 21
66.355907799496279
 31
0.0
  0
LINE
  5
1A10
  8
0
 62
     0
 10
22.99999999983201
 20
64.483375784353271
 30
0.0
 11
22.249999999823881
 21
65.233375784361399
 31
0.0
  0
LINE
  5
1A11
  8
0
 62
     0
 10
22.99999999983201
 20
63.360843769219628
 30
0.0
 11
22.249999999825121
 21
64.110843769226534
 31
0.0
  0
LINE
  5
1A12
  8
0
 62
     0
 10
22.99999999983201
 20
62.238311754085977
 30
0.0
 11
22.249999999826329
 21
62.988311754091661
 31
0.0
  0
LINE
  5
1A13
  8
0
 62
     0
 10
22.99999999983201
 20
61.115779738952348
 30
0.0
 11
22.249999999827569
 21
61.865779738956789
 31
0.0
  0
LINE
  5
1A14
  8
0
 62
     0
 10
22.999999999831999
 20
59.993247723818712
 30
0.0
 11
22.249999999828798
 21
60.743247723821902
 31
0.0
  0
LINE
  5
1A15
  8
0
 62
     0
 10
22.99999999983201
 20
58.870715708685047
 30
0.0
 11
22.249999999830031
 21
59.62071570868703
 31
0.0
  0
LINE
  5
1A16
  8
0
 62
     0
 10
22.999999999831989
 20
57.748183693551418
 30
0.0
 11
22.24999999983126
 21
58.498183693552157
 31
0.0
  0
LINE
  5
1A17
  8
0
 62
     0
 10
22.625651678365418
 20
56.999999999884352
 30
0.0
 11
22.24999999983249
 21
57.375651678417277
 31
0.0
  0
ENDBLK
  5
1A19
  8
0
  0
BLOCK
  8
0
  2
*U80
 70
     1
 10
0.0
 20
0.0
 30
0.0
  3
*U80
  1

  0
TEXT
  5
1B9A
  8
SAPA_MATT
 62
     2
 10
-107.0026515151514
 20
-13.225000000009659
 30
0.0
 40
3.5
  1
min. 130
 50
90.0
  7
ISO
  0
ENDBLK
  5
1B9C
  8
0
  0
BLOCK
  8
0
  2
*U81
 70
     1
 10
0.0
 20
0.0
 30
0.0
  3
*U81
  1

  0
TEXT
  5
1B9E
  8
SAPA_MATT
 62
     2
 10
-32.449999999999889
 20
102.0000000000001
 30
0.0
 40
3.5
  1
88
  7
ISO
  0
ENDBLK
  5
1BA0
  8
0
  0
BLOCK
  8
0
  2
*U82
 70
     1
 10
0.0
 20
0.0
 30
0.0
  3
*U82
  1

  0
TEXT
  5
1BA2
  8
SAPA_MATT
 62
     2
 10
73.17499999975108
 20
114.0000000000001
 30
0.0
 40
3.5
  1
125
  7
ISO
  0
ENDBLK
  5
1BA4
  8
0
  0
BLOCK
  8
0
  2
*U83
 70
     1
 10
0.0
 20
0.0
 30
0.0
  3
*U83
  1

  0
TEXT
  5
1BA6
  8
SAPA_MATT
 62
     2
 10
14.27500000009033
 20
102.0000000000001
 30
0.0
 40
3.5
  1
6.5
  7
ISO
  0
ENDBLK
  5
1BA8
  8
0
  0
BLOCK
  8
0
  2
*U84
 70
     1
 10
0.0
 20
0.0
 30
0.0
  3
*U84
  1

  0
TEXT
  5
1BAA
  8
SAPA_MATT
 62
     2
 10
-95.000000000000014
 20
-1.4749999999994721
 30
0.0
 40
3.5
  1
117
 50
90.0
  7
ISO
  0
ENDBLK
  5
1BAC
  8
0
  0
ENDSEC
  0
SECTION
  2
ENTITIES
  0
TEXT
  5
70A
  8
SAPA_ARTIKELNR
 10
12.345450637514279
 20
-32.243587403564142
 30
0.0000000048844772
 40
3.5
  1
D8K029
 50
90.0
  7
ISO
  0
TEXT
  5
722
  8
SAPA_ARTIKELNR
 10
72.573246425930947
 20
62.351080117576281
 30
0.0000000048844772
 40
3.5
  1
D8V004
 50
90.0
  7
ISO
  0
POLYLINE
  5
85A
  8
SAPA_BESLAG
 66
     1
 10
0.0
 20
0.0
 30
0.0
 70
     1
  0
VERTEX
  5
10D2
  8
SAPA_BESLAG
 10
55.500000001612129
 20
27.50000000268366
 30
0.0
 42
-0.4142135623733615
  0
VERTEX
  5
10D3
  8
SAPA_BESLAG
 10
55.000000001612129
 20
27.000000002683201
 30
0.0
  0
VERTEX
  5
10D4
  8
SAPA_BESLAG
 10
50.700000001609233
 20
27.000000002683201
 30
0.0
 42
-0.4142135623730951
  0
VERTEX
  5
10D5
  8
SAPA_BESLAG
 10
50.200000001609233
 20
27.500000002683201
 30
0.0
  0
VERTEX
  5
10D6
  8
SAPA_BESLAG
 10
50.200000001609233
 20
46.934173753879989
 30
0.0
 42
-0.0655434628193178
  0
VERTEX
  5
10D7
  8
SAPA_BESLAG
 10
50.2170370884674
 20
47.063583276432567
 30
0.0
  0
VERTEX
  5
10D8
  8
SAPA_BESLAG
 10
50.904548159767572
 20
49.629409525242558
 30
0.0
 42
-0.3394542588589677
  0
VERTEX
  5
10D9
  8
SAPA_BESLAG
 10
51.387511072910058
 20
50.000000002683649
 30
0.0
  0
VERTEX
  5
10DA
  8
SAPA_BESLAG
 10
53.205309252629888
 20
50.000000002683649
 30
0.0
 42
-0.3394542588711624
  0
VERTEX
  5
10DB
  8
SAPA_BESLAG
 10
53.6882721657717
 20
49.62940952523077
 30
0.0
  0
VERTEX
  5
10DC
  8
SAPA_BESLAG
 10
54.400700581730611
 20
46.970590480043661
 30
0.0
 42
0.3394542588715295
  0
VERTEX
  5
10DD
  8
SAPA_BESLAG
 10
54.883663494878931
 20
46.600000002580792
 30
0.0
  0
VERTEX
  5
10DE
  8
SAPA_BESLAG
 10
57.116336509014722
 20
46.600000002581247
 30
0.0
 42
0.2360679770209484
  0
VERTEX
  5
10DF
  8
SAPA_BESLAG
 10
57.516336508470523
 20
46.800000001847771
 30
0.0
 42
-0.2360679770747178
  0
VERTEX
  5
10E0
  8
SAPA_BESLAG
 10
57.91633650802811
 20
47.000000001122046
 30
0.0
  0
VERTEX
  5
10E1
  8
SAPA_BESLAG
 10
65.000000003169191
 20
46.999999999689607
 30
0.0
 42
-0.4142135623134248
  0
VERTEX
  5
10E2
  8
SAPA_BESLAG
 10
65.500000003067328
 20
46.499999999689607
 30
0.0
  0
VERTEX
  5
10E3
  8
SAPA_BESLAG
 10
65.500000003052776
 20
44.100000002683572
 30
0.0
 42
-0.4142135623730951
  0
VERTEX
  5
10E4
  8
SAPA_BESLAG
 10
65.000000003052776
 20
43.600000002683558
 30
0.0
  0
VERTEX
  5
10E5
  8
SAPA_BESLAG
 10
57.000000001612129
 20
43.600000002684467
 30
0.0
 42
0.4142135623730951
  0
VERTEX
  5
10E6
  8
SAPA_BESLAG
 10
55.500000001612129
 20
42.100000002684467
 30
0.0
  0
VERTEX
  5
10E7
  8
SAPA_BESLAG
 10
55.500000001597591
 20
38.846410164153639
 30
0.0
  0
VERTEX
  5
10E8
  8
SAPA_BESLAG
 10
55.300000001629591
 20
38.500000002685013
 30
0.0
  0
VERTEX
  5
10E9
  8
SAPA_BESLAG
 10
55.500000001612129
 20
38.153589841166387
 30
0.0
  0
VERTEX
  5
10EA
  8
SAPA_BESLAG
 10
55.500000001597591
 20
36.846410164171367
 30
0.0
  0
VERTEX
  5
10EB
  8
SAPA_BESLAG
 10
55.300000001629591
 20
36.500000002683208
 30
0.0
  0
VERTEX
  5
10EC
  8
SAPA_BESLAG
 10
55.500000001612129
 20
36.153589841164568
 30
0.0
  0
SEQEND
  5
10ED
  8
SAPA_BESLAG
  0
POLYLINE
  5
85B
  8
SAPA_BESLAG
 66
     1
 10
0.0
 20
0.0
 30
0.0
 70
     1
  0
VERTEX
  5
10EE
  8
SAPA_BESLAG
 10
32.500000001117371
 20
27.50000000268366
 30
0.0
 42
0.4142135623733615
  0
VERTEX
  5
10EF
  8
SAPA_BESLAG
 10
33.000000001117371
 20
27.000000002683201
 30
0.0
  0
VERTEX
  5
10F0
  8
SAPA_BESLAG
 10
37.300000001120281
 20
27.000000002683201
 30
0.0
 42
0.4142135623730951
  0
VERTEX
  5
10F1
  8
SAPA_BESLAG
 10
37.800000001120281
 20
27.500000002683201
 30
0.0
  0
VERTEX
  5
10F2
  8
SAPA_BESLAG
 10
37.800000001120281
 20
46.934173753879989
 30
0.0
 42
0.0655434628193178
  0
VERTEX
  5
10F3
  8
SAPA_BESLAG
 10
37.7829629142621
 20
47.063583276432567
 30
0.0
  0
VERTEX
  5
10F4
  8
SAPA_BESLAG
 10
37.095451842961943
 20
49.629409525242558
 30
0.0
 42
0.3394542588589676
  0
VERTEX
  5
10F5
  8
SAPA_BESLAG
 10
36.612488929819449
 20
50.000000002683649
 30
0.0
  0
VERTEX
  5
10F6
  8
SAPA_BESLAG
 10
34.794690750099619
 20
50.000000002683649
 30
0.0
 42
0.3394542588711624
  0
VERTEX
  5
10F7
  8
SAPA_BESLAG
 10
34.3117278369578
 20
49.62940952523077
 30
0.0
  0
VERTEX
  5
10F8
  8
SAPA_BESLAG
 10
33.599299420998911
 20
46.970590480043661
 30
0.0
 42
-0.3394542588715294
  0
VERTEX
  5
10F9
  8
SAPA_BESLAG
 10
33.116336507850583
 20
46.600000002580792
 30
0.0
  0
VERTEX
  5
10FA
  8
SAPA_BESLAG
 10
30.883663493714781
 20
46.600000002581247
 30
0.0
 42
-0.2360679770209483
  0
VERTEX
  5
10FB
  8
SAPA_BESLAG
 10
30.48366349425898
 20
46.800000001847749
 30
0.0
 42
0.2360679770747184
  0
VERTEX
  5
10FC
  8
SAPA_BESLAG
 10
30.083663494701401
 20
47.000000001122046
 30
0.0
  0
VERTEX
  5
10FD
  8
SAPA_BESLAG
 10
22.99999999956033
 20
46.999999999689607
 30
0.0
 42
0.4142135623134248
  0
VERTEX
  5
10FE
  8
SAPA_BESLAG
 10
22.49999999966218
 20
46.499999999689607
 30
0.0
  0
VERTEX
  5
10FF
  8
SAPA_BESLAG
 10
22.499999999676731
 20
44.100000002683572
 30
0.0
 42
0.4142135623730951
  0
VERTEX
  5
1100
  8
SAPA_BESLAG
 10
22.999999999676731
 20
43.600000002683558
 30
0.0
  0
VERTEX
  5
1101
  8
SAPA_BESLAG
 10
31.000000001117371
 20
43.600000002684467
 30
0.0
 42
-0.4142135623730951
  0
VERTEX
  5
1102
  8
SAPA_BESLAG
 10
32.500000001117371
 20
42.100000002684467
 30
0.0
  0
VERTEX
  5
1103
  8
SAPA_BESLAG
 10
32.50000000113193
 20
38.846410164153639
 30
0.0
  0
VERTEX
  5
1104
  8
SAPA_BESLAG
 10
32.700000001099909
 20
38.500000002685013
 30
0.0
  0
VERTEX
  5
1105
  8
SAPA_BESLAG
 10
32.500000001117371
 20
38.153589841166387
 30
0.0
  0
VERTEX
  5
1106
  8
SAPA_BESLAG
 10
32.50000000113193
 20
36.846410164171367
 30
0.0
  0
VERTEX
  5
1107
  8
SAPA_BESLAG
 10
32.700000001099909
 20
36.500000002683208
 30
0.0
  0
VERTEX
  5
1108
  8
SAPA_BESLAG
 10
32.500000001117371
 20
36.153589841164568
 30
0.0
  0
SEQEND
  5
1109
  8
SAPA_BESLAG
  0
POLYLINE
  5
85C
  8
SAPA_BESLAG
 66
     1
 10
0.0
 20
0.0
 30
0.0
  0
VERTEX
  5
110A
  8
SAPA_BESLAG
 10
37.79999998578257
 20
28.000000002376702
 30
0.0
  0
VERTEX
  5
110B
  8
SAPA_BESLAG
 10
37.79999998578257
 20
50.350000002367949
 30
0.0
  0
SEQEND
  5
110C
  8
SAPA_BESLAG
  0
POLYLINE
  5
85D
  8
SAPA_BESLAG
 66
     1
 10
0.0
 20
0.0
 30
0.0
  0
VERTEX
  5
110D
  8
SAPA_BESLAG
 10
50.199999985776742
 20
50.350000002383489
 30
0.0
  0
VERTEX
  5
110E
  8
SAPA_BESLAG
 10
50.199999985776742
 20
28.000000002376702
 30
0.0
  0
SEQEND
  5
110F
  8
SAPA_BESLAG
  0
POLYLINE
  5
85E
  8
SAPA_BESLAG
 66
     1
 10
0.0
 20
0.0
 30
0.0
  0
VERTEX
  5
1110
  8
SAPA_BESLAG
 10
38.000000001350202
 20
50.350000002368212
 30
0.0
  0
VERTEX
  5
1111
  8
SAPA_BESLAG
 10
38.000000001350202
 20
22.750000002376709
 30
0.0
  0
VERTEX
  5
1112
  8
SAPA_BESLAG
 10
38.250000001350202
 20
22.50000000236852
 30
0.0
  0
VERTEX
  5
1113
  8
SAPA_BESLAG
 10
38.250000001350202
 20
50.35000000236851
 30
0.0
  0
SEQEND
  5
1114
  8
SAPA_BESLAG
  0
POLYLINE
  5
85F
  8
SAPA_BESLAG
 66
     1
 10
0.0
 20
0.0
 30
0.0
  0
VERTEX
  5
1115
  8
SAPA_BESLAG
 10
49.750000001350202
 20
50.35000000238292
 30
0.0
  0
VERTEX
  5
1116
  8
SAPA_BESLAG
 10
49.750000001350202
 20
22.50000000236852
 30
0.0
  0
VERTEX
  5
1117
  8
SAPA_BESLAG
 10
50.000000001364747
 20
22.750000002376709
 30
0.0
  0
VERTEX
  5
1118
  8
SAPA_BESLAG
 10
50.000000001352007
 20
50.350000002383261
 30
0.0
  0
SEQEND
  5
1119
  8
SAPA_BESLAG
  0
POLYLINE
  5
860
  8
SAPA_BESLAG
 66
     1
 10
0.0
 20
0.0
 30
0.0
  0
VERTEX
  5
111A
  8
SAPA_BESLAG
 10
38.250000001350202
 20
22.50000000236852
 30
0.0
  0
VERTEX
  5
111B
  8
SAPA_BESLAG
 10
41.719649151156247
 20
22.500000002372872
 30
0.0
 42
-0.4385290096522839
  0
VERTEX
  5
111C
  8
SAPA_BESLAG
 10
46.280350851544142
 20
22.500000002372872
 30
0.0
  0
VERTEX
  5
111D
  8
SAPA_BESLAG
 10
49.750000001350202
 20
22.50000000236761
 30
0.0
  0
SEQEND
  5
111E
  8
SAPA_BESLAG
  0
LINE
  5
861
  8
SAPA_BESLAG
 10
37.79999998578257
 20
50.350000002367949
 30
0.0
 11
50.199999985776742
 21
50.350000002383489
 31
0.0
  0
TEXT
  5
8F1
  8
SAPA_ARTIKELNR
 10
-44.589521848821633
 20
4.9093443358980551
 30
0.0000000048844772
 40
3.5
  1
D8A002
  7
ISO
  0
LINE
  5
927
  8
SAPA_BESLAG
 10
-58.500009079563831
 20
58.500003643478379
 30
0.0
 11
-58.500009079563831
 21
60.000003643478379
 31
0.0
  0
LINE
  5
928
  8
SAPA_BESLAG
 10
-16.500009079563831
 20
58.500003643478777
 30
0.0
 11
-16.500009079563831
 21
60.000003643478777
 31
0.0
  0
POLYLINE
  5
929
  8
SAPA_BESLAG
 66
     1
 10
0.0
 20
0.0
 30
0.0
 70
     1
  0
VERTEX
  5
111F
  8
SAPA_BESLAG
 10
-7.5000090795420098
 20
3.0000036434872319
 30
0.0
  0
VERTEX
  5
1120
  8
SAPA_BESLAG
 10
-7.5000090795490451
 20
58.00000364346041
 30
0.0
 42
0.4142135623729689
  0
VERTEX
  5
1121
  8
SAPA_BESLAG
 10
-8.0000090795488958
 20
58.500003643460353
 30
0.0
  0
VERTEX
  5
1122
  8
SAPA_BESLAG
 10
-67.000009079563753
 20
58.500003643478223
 30
0.0
 42
0.4142135623731455
  0
VERTEX
  5
1123
  8
SAPA_BESLAG
 10
-67.500009079563895
 20
58.000003643478287
 30
0.0
  0
VERTEX
  5
1124
  8
SAPA_BESLAG
 10
-67.500009079571115
 20
3.0000036434893
 30
0.0
  0
VERTEX
  5
1125
  8
SAPA_BESLAG
 10
-69.000009079556563
 20
3.0000036434893
 30
0.0
  0
VERTEX
  5
1126
  8
SAPA_BESLAG
 10
-69.000009079563853
 20
58.500003643478379
 30
0.0
 42
-0.4142135623730951
  0
VERTEX
  5
1127
  8
SAPA_BESLAG
 10
-67.500009079563853
 20
60.000003643478379
 30
0.0
  0
VERTEX
  5
1128
  8
SAPA_BESLAG
 10
-7.5000090795492191
 20
60.000003643475978
 30
0.0
 42
-0.4142135623730951
  0
VERTEX
  5
1129
  8
SAPA_BESLAG
 10
-6.0000090795492786
 20
58.500003643476312
 30
0.0
  0
VERTEX
  5
112A
  8
SAPA_BESLAG
 10
-6.0000090795367882
 20
3.0000036434873318
 30
0.0
  0
SEQEND
  5
112B
  8
SAPA_BESLAG
  0
LINE
  5
92A
  8
SAPA_BESLAG
 10
-7.5000090795472332
 20
44.000003643476568
 30
0.0
 11
-67.500009079568827
 21
44.00000364347656
 31
0.0
  0
LINE
  5
C3E
  8
SAPA_ANSLUTNING
 10
-78.999999999999801
 20
60.00000000000103
 30
0.0
 11
-119.49147905908519
 21
60.00000000000103
 31
0.0
  0
LINE
  5
C3F
  8
SAPA_ANSLUTNING
 10
-78.999999999999801
 20
30.999999999985022
 30
0.0
 11
-119.49147905908519
 21
30.999999999985022
 31
0.0
1001
GENIUS_GENREC_14
1002
{
1000
PYDIR
1011
-121.5000000361289
1021
-9.6416282655539417E+061
1031
-0.0
1021
30.999999999985022
1031
0.0
1002
}
1002
{
1000
PXDIR
1011
-56.00000000000707
1021
-9.6416282655539417E+061
1031
-0.0
1021
-70.000000000014978
1031
0.0
1002
}
1002
{
1000
PORI
1011
-111.5000000361289
1021
-9.6416282655539417E+061
1031
-0.0
1021
-70.000000000014978
1031
0.0
1002
}
1002
{
1000
PINS
1011
-111.5000000361289
1021
-9.6416282655539417E+061
1031
-0.0
1021
-70.000000000014978
1031
0.0
1002
}
1002
{
1000
PINS2
1011
8.9999999999784919
1021
-9.6416282655539417E+061
1031
-0.0
1021
30.999999999985022
1031
0.0
1002
}
1002
{
1000
C
1070
     1
1002
}
1001
GENIUS_GENOBJ-N-REC_13
1002
{
1000
OWNER
1000
GEN
1002
}
1001
GENIUS_GENODEF_13
1002
{
1000
HIER
1070
     0
1002
}
1002
{
1000
MANEDIT
1070
     0
1002
}
1002
{
1000
NOSEL
1070
     0
1002
}
1002
{
1000
BEHIND
1070
     0
1002
}
1002
{
1000
OTHER
1070
     0
1002
}
1002
{
1000
REACTOR
1002
}
  0
INSERT
  5
C40
  8
SAPA_ANSLUTNING
  6
CONTINUOUS
  2
*X48
 10
0.0
 20
0.0
 30
0.0
1001
ACAD
1000
HATCH
1002
{
1070
    19
1000
ANSI37
1040
0.25
1040
0.0
1000
R14_HATCH_DATA
1000
C40
1011
1.0
1021
-9.6416282655539417E+061
1031
-0.0
1021
0.0
1031
0.0
1011
0.0
1021
-9.6416282655539417E+061
1031
-0.0
1021
1.0
1031
0.0
1011
0.0
1021
-9.6416282655539417E+061
1031
-0.0
1021
0.0
1031
1.0
1040
0.0
1010
0.0
1020
0.0
1030
1.0
1000
ANSI37
1070
     0
1070
     0
1071
        1
1071
        5
1071
        6
1070
     2
1040
137.49999992774141
1040
58.500000000000078
1040
1.4999999999999989
1040
5.49778714378209
1040
6.2831853071795569
1070
     0
1070
     1
1040
138.99999992774141
1040
58.500000000000121
1040
138.9999999277413
1040
47.663348763309578
1070
     3
1040
143.99999992774141
1040
47.663348763309273
1040
0.0
1040
-5.6210574168242138
1040
0.8895123513655372
1040
1.5707963267948959
1040
2.144309431217978
1070
     0
1070
     3
1040
143.99999992774141
1040
47.663348763309273
1040
0.0
1040
-5.6210574168242138
1040
0.8895123513655372
1040
2.144309431217978
1040
4.7123889803846888
1070
     0
1070
     1
1040
148.99999992774141
1040
47.663348763309934
1040
148.99999992774141
1040
59.999999999985143
1070
     2
1040
142.90216751656979
1040
80.646721299887531
1040
21.528368738726542
1040
1.2836189008757071
1040
1.773853352005716
1070
     0
1071
        0
1070
     0
1070
     1
1040
0.0
1040
0.25
1070
     0
1070
     2
1040
0.7853981633974483
1040
0.0000000000001492
1040
0.0000000000001137
1040
-0.5612660075668221
1040
0.5612660075668221
1070
     0
1040
2.3561944901923439
1040
0.0000000000001492
1040
0.0000000000001137
1040
-0.5612660075668221
1040
-0.5612660075668221
1070
     0
1040
0.0591690278051155
1071
        1
1040
142.9986763469897
1040
56.420364712926023
1040
0.0
1002
}
  0
LINE
  5
C41
  8
SAPA_ANSLUTNING
 10
-78.999999999999744
 20
-70.000000000020322
 30
0.0
 11
148.99999992774141
 21
-70.000000000020322
 31
0.0
  0
LINE
  5
C42
  8
SAPA_ANSLUTNING
 10
-78.999999999999744
 20
-70.000000000020322
 30
0.0
 11
-78.999999999999744
 21
60.000000000001172
 31
0.0
  0
POLYLINE
  5
C43
  8
SAPA_ANSLUTNING
 66
     1
 10
0.0
 20
0.0
 30
0.0
 70
     1
  0
VERTEX
  5
1167
  8
SAPA_ANSLUTNING
 10
69.749999999999972
 20
-67.000000000020322
 30
0.0
 42
-0.4142135623730951
  0
VERTEX
  5
1168
  8
SAPA_ANSLUTNING
 10
71.749999999999972
 20
-69.000000000020322
 30
0.0
  0
VERTEX
  5
1169
  8
SAPA_ANSLUTNING
 10
71.749999999999972
 20
-70.000000000020322
 30
0.0
  0
VERTEX
  5
116A
  8
SAPA_ANSLUTNING
 10
16.750000000000089
 20
-70.000000000020322
 30
0.0
  0
VERTEX
  5
116B
  8
SAPA_ANSLUTNING
 10
16.749999999999979
 20
-10.00000000002029
 30
0.0
  0
VERTEX
  5
116C
  8
SAPA_ANSLUTNING
 10
17.749999999999979
 20
-10.00000000002029
 30
0.0
 42
-0.4142135623730951
  0
VERTEX
  5
116D
  8
SAPA_ANSLUTNING
 10
19.749999999999979
 20
-12.00000000002029
 30
0.0
  0
VERTEX
  5
116E
  8
SAPA_ANSLUTNING
 10
19.750000000000089
 20
-65.000000000020322
 30
0.0
 42
0.4142135623730951
  0
VERTEX
  5
116F
  8
SAPA_ANSLUTNING
 10
21.750000000000089
 20
-67.000000000020322
 30
0.0
  0
SEQEND
  5
1170
  8
SAPA_ANSLUTNING
  0
POLYLINE
  5
C44
  8
SAPA_ANSLUTNING
 66
     1
 10
0.0
 20
0.0
 30
0.0
 70
     1
1001
GENIUS_GENOREF_13
1005
0
  0
VERTEX
  5
1171
  8
SAPA_ANSLUTNING
 10
133.24999992774141
 20
-12.00000000002029
 30
0.0
  0
VERTEX
  5
1172
  8
SAPA_ANSLUTNING
 10
133.24999992774141
 20
-65.000000000020322
 30
0.0
 42
-0.4142135623730951
  0
VERTEX
  5
1173
  8
SAPA_ANSLUTNING
 10
131.24999992774141
 20
-67.000000000020322
 30
0.0
  0
VERTEX
  5
1174
  8
SAPA_ANSLUTNING
 10
83.249999927741413
 20
-67.000000000020322
 30
0.0
 42
0.4142135623730951
  0
VERTEX
  5
1175
  8
SAPA_ANSLUTNING
 10
81.249999927741399
 20
-69.000000000020322
 30
0.0
  0
VERTEX
  5
1176
  8
SAPA_ANSLUTNING
 10
81.249999927741399
 20
-70.000000000020322
 30
0.0
  0
VERTEX
  5
1177
  8
SAPA_ANSLUTNING
 10
136.24999992774141
 20
-70.000000000020322
 30
0.0
  0
VERTEX
  5
1178
  8
SAPA_ANSLUTNING
 10
136.24999992774141
 20
-10.00000000002029
 30
0.0
  0
VERTEX
  5
1179
  8
SAPA_ANSLUTNING
 10
135.24999992774141
 20
-10.00000000002029
 30
0.0
 42
0.4142135623730951
  0
SEQEND
  5
117A
  8
SAPA_ANSLUTNING
  0
LINE
  5
C45
  8
SAPA_ANSLUTNING
 10
148.99999992774141
 20
59.999999999985143
 30
0.0
 11
194.0032559343997
 21
59.999999999985157
 31
0.0
  0
LINE
  5
C46
  8
SAPA_ANSLUTNING
 10
194.0032559343995
 20
30.999999999985139
 30
0.0
 11
148.9999999277413
 21
30.99999999998516
 31
0.0
  0
LINE
  5
C47
  8
SAPA_ANSLUTNING
 10
148.99999992774141
 20
-70.000000000020322
 30
0.0
 11
148.99999992774141
 21
59.999999999985143
 31
0.0
  0
ARC
  5
C48
  8
SAPA_ANSLUTNING
 10
142.90216751656979
 20
80.646721299887673
 30
0.0
 40
21.52836873872667
 50
258.3656894549398
 51
286.45405447659971
  0
INSERT
  5
C49
  8
SAPA_ANSLUTNING
  6
CONTINUOUS
  2
*X49
 10
0.0
 20
0.0
 30
0.0
1001
ACAD
1000
HATCH
1002
{
1070
    19
1000
HEX
1040
0.25
1040
0.0
1000
ASC_BOUNDS
1070
     1
1070
     1
1070
     1
1005
C4A
1000
ASC_SEEDPOINT
1011
144.242109937816
1021
-9.6416282655539417E+061
1031
-0.0
1021
47.781686452365989
1031
0.0
1000
R14_HATCH_DATA
1000
C49
1011
1.0
1021
-9.6416282655539417E+061
1031
-0.0
1021
0.0
1031
0.0
1011
0.0
1021
-9.6416282655539417E+061
1031
-0.0
1021
1.0
1031
0.0
1011
0.0
1021
-9.6416282655539417E+061
1031
-0.0
1021
0.0
1031
1.0
1040
0.0
1010
0.0
1020
0.0
1030
1.0
1000
HEX
1070
     0
1070
     1
1071
        1
1071
        5
1071
        1
1070
     3
1040
143.99999992774141
1040
47.663348763309273
1040
0.0
1040
-5.6210574168242138
1040
0.8895123513655372
1040
0.0
1040
6.2831853071795862
1070
     1
1071
        1
1005
C4A
1070
     0
1070
     1
1040
0.0
1040
0.25
1070
     0
1070
     3
1040
0.0
1040
0.0000000000001492
1040
0.0000000000001137
1040
0.0
1040
1.374814999999999
1070
     2
1040
0.79375
1040
-1.587499999999999
1040
2.0943951023931948
1040
0.0000000000001492
1040
0.0000000000001137
1040
-1.190624715503902
1040
-0.6874074999999996
1070
     2
1040
0.7937499999999992
1040
-1.5874999999999979
1040
1.047197551196597
1040
0.7937500000001379
1040
0.0000000000001137
1040
-1.190624715503902
1040
0.6874075000000001
1070
     2
1040
0.79375
1040
-1.587499999999999
1040
0.0591690278051155
1071
        1
1040
144.242109937816
1040
47.781686452365989
1040
0.0
1002
}
  0
POLYLINE
  5
C4A
  8
SAPA_ANSLUTNING
 10
143.99999992774141
 20
42.042291346485058
 30
0.0
 66
     1
 70
     8
  0
VERTEX
  8
SAPA_ANSLUTNING
  5
1BB0
 10
144.000
 20
42.0423
 30
0.000000
  70
    32
  0
VERTEX
  8
SAPA_ANSLUTNING
  5
1BB1
 10
144.245
 20
42.0491
 30
0.000000
  70
    32
  0
VERTEX
  8
SAPA_ANSLUTNING
  5
1BB2
 10
144.490
 20
42.0694
 30
0.000000
  70
    32
  0
VERTEX
  8
SAPA_ANSLUTNING
  5
1BB3
 10
144.734
 20
42.1031
 30
0.000000
  70
    32
  0
VERTEX
  8
SAPA_ANSLUTNING
  5
1BB4
 10
144.975
 20
42.1503
 30
0.000000
  70
    32
  0
VERTEX
  8
SAPA_ANSLUTNING
  5
1BB5
 10
145.215
 20
42.2107
 30
0.000000
  70
    32
  0
VERTEX
  8
SAPA_ANSLUTNING
  5
1BB6
 10
145.451
 20
42.2843
 30
0.000000
  70
    32
  0
VERTEX
  8
SAPA_ANSLUTNING
  5
1BB7
 10
145.684
 20
42.3709
 30
0.000000
  70
    32
  0
VERTEX
  8
SAPA_ANSLUTNING
  5
1BB8
 10
145.913
 20
42.4702
 30
0.000000
  70
    32
  0
VERTEX
  8
SAPA_ANSLUTNING
  5
1BB9
 10
146.138
 20
42.5820
 30
0.000000
  70
    32
  0
VERTEX
  8
SAPA_ANSLUTNING
  5
1BBA
 10
146.357
 20
42.7060
 30
0.000000
  70
    32
  0
VERTEX
  8
SAPA_ANSLUTNING
  5
1BBB
 10
146.571
 20
42.8420
 30
0.000000
  70
    32
  0
VERTEX
  8
SAPA_ANSLUTNING
  5
1BBC
 10
146.778
 20
42.9896
 30
0.000000
  70
    32
  0
VERTEX
  8
SAPA_ANSLUTNING
  5
1BBD
 10
146.978
 20
43.1485
 30
0.000000
  70
    32
  0
VERTEX
  8
SAPA_ANSLUTNING
  5
1BBE
 10
147.172
 20
43.3182
 30
0.000000
  70
    32
  0
VERTEX
  8
SAPA_ANSLUTNING
  5
1BBF
 10
147.358
 20
43.4984
 30
0.000000
  70
    32
  0
VERTEX
  8
SAPA_ANSLUTNING
  5
1BC0
 10
147.536
 20
43.6887
 30
0.000000
  70
    32
  0
VERTEX
  8
SAPA_ANSLUTNING
  5
1BC1
 10
147.705
 20
43.8885
 30
0.000000
  70
    32
  0
VERTEX
  8
SAPA_ANSLUTNING
  5
1BC2
 10
147.865
 20
44.0974
 30
0.000000
  70
    32
  0
VERTEX
  8
SAPA_ANSLUTNING
  5
1BC3
 10
148.016
 20
44.3149
 30
0.000000
  70
    32
  0
VERTEX
  8
SAPA_ANSLUTNING
  5
1BC4
 10
148.157
 20
44.5405
 30
0.000000
  70
    32
  0
VERTEX
  8
SAPA_ANSLUTNING
  5
1BC5
 10
148.289
 20
44.7735
 30
0.000000
  70
    32
  0
VERTEX
  8
SAPA_ANSLUTNING
  5
1BC6
 10
148.410
 20
45.0136
 30
0.000000
  70
    32
  0
VERTEX
  8
SAPA_ANSLUTNING
  5
1BC7
 10
148.520
 20
45.2600
 30
0.000000
  70
    32
  0
VERTEX
  8
SAPA_ANSLUTNING
  5
1BC8
 10
148.619
 20
45.5123
 30
0.000000
  70
    32
  0
VERTEX
  8
SAPA_ANSLUTNING
  5
1BC9
 10
148.708
 20
45.7697
 30
0.000000
  70
    32
  0
VERTEX
  8
SAPA_ANSLUTNING
  5
1BCA
 10
148.785
 20
46.0316
 30
0.000000
  70
    32
  0
VERTEX
  8
SAPA_ANSLUTNING
  5
1BCB
 10
148.850
 20
46.2975
 30
0.000000
  70
    32
  0
VERTEX
  8
SAPA_ANSLUTNING
  5
1BCC
 10
148.904
 20
46.5667
 30
0.000000
  70
    32
  0
VERTEX
  8
SAPA_ANSLUTNING
  5
1BCD
 10
148.946
 20
46.8386
 30
0.000000
  70
    32
  0
VERTEX
  8
SAPA_ANSLUTNING
  5
1BCE
 10
148.976
 20
47.1124
 30
0.000000
  70
    32
  0
VERTEX
  8
SAPA_ANSLUTNING
  5
1BCF
 10
148.994
 20
47.3875
 30
0.000000
  70
    32
  0
VERTEX
  8
SAPA_ANSLUTNING
  5
1BD0
 10
149.000
 20
47.6633
 30
0.000000
  70
    32
  0
VERTEX
  8
SAPA_ANSLUTNING
  5
1BD1
 10
148.994
 20
47.9392
 30
0.000000
  70
    32
  0
VERTEX
  8
SAPA_ANSLUTNING
  5
1BD2
 10
148.976
 20
48.2143
 30
0.000000
  70
    32
  0
VERTEX
  8
SAPA_ANSLUTNING
  5
1BD3
 10
148.946
 20
48.4881
 30
0.000000
  70
    32
  0
VERTEX
  8
SAPA_ANSLUTNING
  5
1BD4
 10
148.904
 20
48.7600
 30
0.000000
  70
    32
  0
VERTEX
  8
SAPA_ANSLUTNING
  5
1BD5
 10
148.850
 20
49.0292
 30
0.000000
  70
    32
  0
VERTEX
  8
SAPA_ANSLUTNING
  5
1BD6
 10
148.785
 20
49.2951
 30
0.000000
  70
    32
  0
VERTEX
  8
SAPA_ANSLUTNING
  5
1BD7
 10
148.708
 20
49.5570
 30
0.000000
  70
    32
  0
VERTEX
  8
SAPA_ANSLUTNING
  5
1BD8
 10
148.619
 20
49.8144
 30
0.000000
  70
    32
  0
VERTEX
  8
SAPA_ANSLUTNING
  5
1BD9
 10
148.520
 20
50.0667
 30
0.000000
  70
    32
  0
VERTEX
  8
SAPA_ANSLUTNING
  5
1BDA
 10
148.410
 20
50.3131
 30
0.000000
  70
    32
  0
VERTEX
  8
SAPA_ANSLUTNING
  5
1BDB
 10
148.289
 20
50.5531
 30
0.000000
  70
    32
  0
VERTEX
  8
SAPA_ANSLUTNING
  5
1BDC
 10
148.157
 20
50.7862
 30
0.000000
  70
    32
  0
VERTEX
  8
SAPA_ANSLUTNING
  5
1BDD
 10
148.016
 20
51.0118
 30
0.000000
  70
    32
  0
VERTEX
  8
SAPA_ANSLUTNING
  5
1BDE
 10
147.865
 20
51.2293
 30
0.000000
  70
    32
  0
VERTEX
  8
SAPA_ANSLUTNING
  5
1BDF
 10
147.705
 20
51.4382
 30
0.000000
  70
    32
  0
VERTEX
  8
SAPA_ANSLUTNING
  5
1BE0
 10
147.536
 20
51.6380
 30
0.000000
  70
    32
  0
VERTEX
  8
SAPA_ANSLUTNING
  5
1BE1
 10
147.358
 20
51.8283
 30
0.000000
  70
    32
  0
VERTEX
  8
SAPA_ANSLUTNING
  5
1BE2
 10
147.172
 20
52.0085
 30
0.000000
  70
    32
  0
VERTEX
  8
SAPA_ANSLUTNING
  5
1BE3
 10
146.978
 20
52.1782
 30
0.000000
  70
    32
  0
VERTEX
  8
SAPA_ANSLUTNING
  5
1BE4
 10
146.778
 20
52.3371
 30
0.000000
  70
    32
  0
VERTEX
  8
SAPA_ANSLUTNING
  5
1BE5
 10
146.571
 20
52.4847
 30
0.000000
  70
    32
  0
VERTEX
  8
SAPA_ANSLUTNING
  5
1BE6
 10
146.357
 20
52.6207
 30
0.000000
  70
    32
  0
VERTEX
  8
SAPA_ANSLUTNING
  5
1BE7
 10
146.138
 20
52.7447
 30
0.000000
  70
    32
  0
VERTEX
  8
SAPA_ANSLUTNING
  5
1BE8
 10
145.913
 20
52.8565
 30
0.000000
  70
    32
  0
VERTEX
  8
SAPA_ANSLUTNING
  5
1BE9
 10
145.684
 20
52.9558
 30
0.000000
  70
    32
  0
VERTEX
  8
SAPA_ANSLUTNING
  5
1BEA
 10
145.451
 20
53.0424
 30
0.000000
  70
    32
  0
VERTEX
  8
SAPA_ANSLUTNING
  5
1BEB
 10
145.215
 20
53.1160
 30
0.000000
  70
    32
  0
VERTEX
  8
SAPA_ANSLUTNING
  5
1BEC
 10
144.975
 20
53.1764
 30
0.000000
  70
    32
  0
VERTEX
  8
SAPA_ANSLUTNING
  5
1BED
 10
144.734
 20
53.2236
 30
0.000000
  70
    32
  0
VERTEX
  8
SAPA_ANSLUTNING
  5
1BEE
 10
144.490
 20
53.2573
 30
0.000000
  70
    32
  0
VERTEX
  8
SAPA_ANSLUTNING
  5
1BEF
 10
144.245
 20
53.2776
 30
0.000000
  70
    32
  0
VERTEX
  8
SAPA_ANSLUTNING
  5
1BF0
 10
144.000
 20
53.2844
 30
0.000000
  70
    32
  0
VERTEX
  8
SAPA_ANSLUTNING
  5
1BF1
 10
143.755
 20
53.2776
 30
0.000000
  70
    32
  0
VERTEX
  8
SAPA_ANSLUTNING
  5
1BF2
 10
143.510
 20
53.2573
 30
0.000000
  70
    32
  0
VERTEX
  8
SAPA_ANSLUTNING
  5
1BF3
 10
143.266
 20
53.2236
 30
0.000000
  70
    32
  0
VERTEX
  8
SAPA_ANSLUTNING
  5
1BF4
 10
143.025
 20
53.1764
 30
0.000000
  70
    32
  0
VERTEX
  8
SAPA_ANSLUTNING
  5
1BF5
 10
142.785
 20
53.1160
 30
0.000000
  70
    32
  0
VERTEX
  8
SAPA_ANSLUTNING
  5
1BF6
 10
142.549
 20
53.0424
 30
0.000000
  70
    32
  0
VERTEX
  8
SAPA_ANSLUTNING
  5
1BF7
 10
142.316
 20
52.9558
 30
0.000000
  70
    32
  0
VERTEX
  8
SAPA_ANSLUTNING
  5
1BF8
 10
142.087
 20
52.8565
 30
0.000000
  70
    32
  0
VERTEX
  8
SAPA_ANSLUTNING
  5
1BF9
 10
141.862
 20
52.7447
 30
0.000000
  70
    32
  0
VERTEX
  8
SAPA_ANSLUTNING
  5
1BFA
 10
141.643
 20
52.6207
 30
0.000000
  70
    32
  0
VERTEX
  8
SAPA_ANSLUTNING
  5
1BFB
 10
141.429
 20
52.4847
 30
0.000000
  70
    32
  0
VERTEX
  8
SAPA_ANSLUTNING
  5
1BFC
 10
141.222
 20
52.3371
 30
0.000000
  70
    32
  0
VERTEX
  8
SAPA_ANSLUTNING
  5
1BFD
 10
141.022
 20
52.1782
 30
0.000000
  70
    32
  0
VERTEX
  8
SAPA_ANSLUTNING
  5
1BFE
 10
140.828
 20
52.0085
 30
0.000000
  70
    32
  0
VERTEX
  8
SAPA_ANSLUTNING
  5
1BFF
 10
140.642
 20
51.8283
 30
0.000000
  70
    32
  0
VERTEX
  8
SAPA_ANSLUTNING
  5
1C00
 10
140.464
 20
51.6380
 30
0.000000
  70
    32
  0
VERTEX
  8
SAPA_ANSLUTNING
  5
1C01
 10
140.295
 20
51.4382
 30
0.000000
  70
    32
  0
VERTEX
  8
SAPA_ANSLUTNING
  5
1C02
 10
140.135
 20
51.2293
 30
0.000000
  70
    32
  0
VERTEX
  8
SAPA_ANSLUTNING
  5
1C03
 10
139.984
 20
51.0118
 30
0.000000
  70
    32
  0
VERTEX
  8
SAPA_ANSLUTNING
  5
1C04
 10
139.843
 20
50.7862
 30
0.000000
  70
    32
  0
VERTEX
  8
SAPA_ANSLUTNING
  5
1C05
 10
139.711
 20
50.5531
 30
0.000000
  70
    32
  0
VERTEX
  8
SAPA_ANSLUTNING
  5
1C06
 10
139.590
 20
50.3131
 30
0.000000
  70
    32
  0
VERTEX
  8
SAPA_ANSLUTNING
  5
1C07
 10
139.480
 20
50.0667
 30
0.000000
  70
    32
  0
VERTEX
  8
SAPA_ANSLUTNING
  5
1C08
 10
139.381
 20
49.8144
 30
0.000000
  70
    32
  0
VERTEX
  8
SAPA_ANSLUTNING
  5
1C09
 10
139.292
 20
49.5570
 30
0.000000
  70
    32
  0
VERTEX
  8
SAPA_ANSLUTNING
  5
1C0A
 10
139.215
 20
49.2951
 30
0.000000
  70
    32
  0
VERTEX
  8
SAPA_ANSLUTNING
  5
1C0B
 10
139.150
 20
49.0292
 30
0.000000
  70
    32
  0
VERTEX
  8
SAPA_ANSLUTNING
  5
1C0C
 10
139.096
 20
48.7600
 30
0.000000
  70
    32
  0
VERTEX
  8
SAPA_ANSLUTNING
  5
1C0D
 10
139.054
 20
48.4881
 30
0.000000
  70
    32
  0
VERTEX
  8
SAPA_ANSLUTNING
  5
1C0E
 10
139.024
 20
48.2143
 30
0.000000
  70
    32
  0
VERTEX
  8
SAPA_ANSLUTNING
  5
1C0F
 10
139.006
 20
47.9392
 30
0.000000
  70
    32
  0
VERTEX
  8
SAPA_ANSLUTNING
  5
1C10
 10
139.000
 20
47.6633
 30
0.000000
  70
    32
  0
VERTEX
  8
SAPA_ANSLUTNING
  5
1C11
 10
139.006
 20
47.3875
 30
0.000000
  70
    32
  0
VERTEX
  8
SAPA_ANSLUTNING
  5
1C12
 10
139.024
 20
47.1124
 30
0.000000
  70
    32
  0
VERTEX
  8
SAPA_ANSLUTNING
  5
1C13
 10
139.054
 20
46.8386
 30
0.000000
  70
    32
  0
VERTEX
  8
SAPA_ANSLUTNING
  5
1C14
 10
139.096
 20
46.5667
 30
0.000000
  70
    32
  0
VERTEX
  8
SAPA_ANSLUTNING
  5
1C15
 10
139.150
 20
46.2975
 30
0.000000
  70
    32
  0
VERTEX
  8
SAPA_ANSLUTNING
  5
1C16
 10
139.215
 20
46.0316
 30
0.000000
  70
    32
  0
VERTEX
  8
SAPA_ANSLUTNING
  5
1C17
 10
139.292
 20
45.7697
 30
0.000000
  70
    32
  0
VERTEX
  8
SAPA_ANSLUTNING
  5
1C18
 10
139.381
 20
45.5123
 30
0.000000
  70
    32
  0
VERTEX
  8
SAPA_ANSLUTNING
  5
1C19
 10
139.480
 20
45.2600
 30
0.000000
  70
    32
  0
VERTEX
  8
SAPA_ANSLUTNING
  5
1C1A
 10
139.590
 20
45.0136
 30
0.000000
  70
    32
  0
VERTEX
  8
SAPA_ANSLUTNING
  5
1C1B
 10
139.711
 20
44.7735
 30
0.000000
  70
    32
  0
VERTEX
  8
SAPA_ANSLUTNING
  5
1C1C
 10
139.843
 20
44.5405
 30
0.000000
  70
    32
  0
VERTEX
  8
SAPA_ANSLUTNING
  5
1C1D
 10
139.984
 20
44.3149
 30
0.000000
  70
    32
  0
VERTEX
  8
SAPA_ANSLUTNING
  5
1C1E
 10
140.135
 20
44.0974
 30
0.000000
  70
    32
  0
VERTEX
  8
SAPA_ANSLUTNING
  5
1C1F
 10
140.295
 20
43.8885
 30
0.000000
  70
    32
  0
VERTEX
  8
SAPA_ANSLUTNING
  5
1C20
 10
140.464
 20
43.6887
 30
0.000000
  70
    32
  0
VERTEX
  8
SAPA_ANSLUTNING
  5
1C21
 10
140.642
 20
43.4984
 30
0.000000
  70
    32
  0
VERTEX
  8
SAPA_ANSLUTNING
  5
1C22
 10
140.828
 20
43.3182
 30
0.000000
  70
    32
  0
VERTEX
  8
SAPA_ANSLUTNING
  5
1C23
 10
141.022
 20
43.1485
 30
0.000000
  70
    32
  0
VERTEX
  8
SAPA_ANSLUTNING
  5
1C24
 10
141.222
 20
42.9896
 30
0.000000
  70
    32
  0
VERTEX
  8
SAPA_ANSLUTNING
  5
1C25
 10
141.429
 20
42.8420
 30
0.000000
  70
    32
  0
VERTEX
  8
SAPA_ANSLUTNING
  5
1C26
 10
141.643
 20
42.7060
 30
0.000000
  70
    32
  0
VERTEX
  8
SAPA_ANSLUTNING
  5
1C27
 10
141.862
 20
42.5820
 30
0.000000
  70
    32
  0
VERTEX
  8
SAPA_ANSLUTNING
  5
1C28
 10
142.087
 20
42.4702
 30
0.000000
  70
    32
  0
VERTEX
  8
SAPA_ANSLUTNING
  5
1C29
 10
142.316
 20
42.3709
 30
0.000000
  70
    32
  0
VERTEX
  8
SAPA_ANSLUTNING
  5
1C2A
 10
142.549
 20
42.2843
 30
0.000000
  70
    32
  0
VERTEX
  8
SAPA_ANSLUTNING
  5
1C2B
 10
142.785
 20
42.2107
 30
0.000000
  70
    32
  0
VERTEX
  8
SAPA_ANSLUTNING
  5
1C2C
 10
143.025
 20
42.1503
 30
0.000000
  70
    32
  0
VERTEX
  8
SAPA_ANSLUTNING
  5
1C2D
 10
143.266
 20
42.1031
 30
0.000000
  70
    32
  0
VERTEX
  8
SAPA_ANSLUTNING
  5
1C2E
 10
143.510
 20
42.0694
 30
0.000000
  70
    32
  0
VERTEX
  8
SAPA_ANSLUTNING
  5
1C2F
 10
143.755
 20
42.0491
 30
0.000000
  70
    32
  0
VERTEX
  8
SAPA_ANSLUTNING
  5
1C30
 10
144.000
 20
42.0423
 30
0.000000
  70
    32
  0
SEQEND
  8
SAPA_ANSLUTNING
  5
1C31
  0
LINE
  5
C4B
  8
SAPA_ANSLUTNING
 10
-15.999999999999851
 20
-70.000000000020322
 30
0.0
 11
-15.999999999999901
 21
-111.2928327096284
 31
0.0
  0
POLYLINE
  5
C4C
  8
SAPA_ANSLUTNING
 66
     1
 10
0.0
 20
0.0
 30
0.0
  0
VERTEX
  5
11D7
  8
SAPA_ANSLUTNING
 10
140.5010714710823
 20
43.647930409438572
 30
0.0
 42
0.8812634091771057
  0
VERTEX
  5
11D8
  8
SAPA_ANSLUTNING
 10
140.99999992774141
 20
39.711162381218401
 30
0.0
  0
VERTEX
  5
11D9
  8
SAPA_ANSLUTNING
 10
146.99999992774141
 20
39.711162381218401
 30
0.0
 42
-0.9999999999999998
  0
VERTEX
  5
11DA
  8
SAPA_ANSLUTNING
 10
146.99999992774141
 20
35.711162381218401
 30
0.0
  0
VERTEX
  5
11DB
  8
SAPA_ANSLUTNING
 10
140.99999992774141
 20
35.711162381218429
 30
0.0
 42
0.9999999999999998
  0
VERTEX
  5
11DC
  8
SAPA_ANSLUTNING
 10
140.99999992774141
 20
31.711162381218429
 30
0.0
  0
VERTEX
  5
11DD
  8
SAPA_ANSLUTNING
 10
146.99999992774141
 20
31.711162381218401
 30
0.0
 42
-0.9999999999999998
  0
VERTEX
  5
11DE
  8
SAPA_ANSLUTNING
 10
146.99999992774141
 20
27.711162381218401
 30
0.0
  0
VERTEX
  5
11DF
  8
SAPA_ANSLUTNING
 10
140.99999992774141
 20
27.711162381218429
 30
0.0
 42
0.9999999999999998
  0
VERTEX
  5
11E0
  8
SAPA_ANSLUTNING
 10
140.99999992774141
 20
23.711162381218429
 30
0.0
  0
VERTEX
  5
11E1
  8
SAPA_ANSLUTNING
 10
146.99999992774141
 20
23.711162381218401
 30
0.0
 42
-0.9999999999999998
  0
VERTEX
  5
11E2
  8
SAPA_ANSLUTNING
 10
146.99999992774141
 20
19.711162381218401
 30
0.0
  0
VERTEX
  5
11E3
  8
SAPA_ANSLUTNING
 10
140.99999992774141
 20
19.711162381218429
 30
0.0
 42
0.9999999999999998
  0
VERTEX
  5
11E4
  8
SAPA_ANSLUTNING
 10
140.99999992774141
 20
15.711162381218429
 30
0.0
  0
VERTEX
  5
11E5
  8
SAPA_ANSLUTNING
 10
146.99999992774141
 20
15.711162381218401
 30
0.0
 42
-0.9999999999999998
  0
VERTEX
  5
11E6
  8
SAPA_ANSLUTNING
 10
146.99999992774141
 20
11.711162381218401
 30
0.0
  0
VERTEX
  5
11E7
  8
SAPA_ANSLUTNING
 10
140.99999992774141
 20
11.711162381218429
 30
0.0
 42
0.9999999999999998
  0
VERTEX
  5
11E8
  8
SAPA_ANSLUTNING
 10
140.99999992774141
 20
7.7111623812184291
 30
0.0
  0
VERTEX
  5
11E9
  8
SAPA_ANSLUTNING
 10
146.99999992774141
 20
7.7111623812183998
 30
0.0
 42
-0.9999999999999998
  0
VERTEX
  5
11EA
  8
SAPA_ANSLUTNING
 10
146.99999992774141
 20
3.7111623812183998
 30
0.0
  0
VERTEX
  5
11EB
  8
SAPA_ANSLUTNING
 10
140.99999992774141
 20
3.7111623812184291
 30
0.0
 42
0.9999999999999998
  0
VERTEX
  5
11EC
  8
SAPA_ANSLUTNING
 10
140.99999992774141
 20
-0.2888376187815709
 30
0.0
  0
VERTEX
  5
11ED
  8
SAPA_ANSLUTNING
 10
146.99999992774141
 20
-0.2888376187815993
 30
0.0
 42
-0.9999999999999998
  0
VERTEX
  5
11EE
  8
SAPA_ANSLUTNING
 10
146.99999992774141
 20
-4.2888376187815993
 30
0.0
  0
VERTEX
  5
11EF
  8
SAPA_ANSLUTNING
 10
140.99999992774141
 20
-4.28883761878157
 30
0.0
 42
0.9999999999999998
  0
VERTEX
  5
11F0
  8
SAPA_ANSLUTNING
 10
140.99999992774141
 20
-8.2888376187815709
 30
0.0
  0
VERTEX
  5
11F1
  8
SAPA_ANSLUTNING
 10
146.99999992774141
 20
-8.2888376187815993
 30
0.0
 42
-0.9999999999999998
  0
VERTEX
  5
11F2
  8
SAPA_ANSLUTNING
 10
146.99999992774141
 20
-12.288837618781599
 30
0.0
  0
VERTEX
  5
11F3
  8
SAPA_ANSLUTNING
 10
140.99999992774141
 20
-12.288837618781571
 30
0.0
 42
0.9999999999999998
  0
VERTEX
  5
11F4
  8
SAPA_ANSLUTNING
 10
140.99999992774141
 20
-16.288837618781571
 30
0.0
  0
VERTEX
  5
11F5
  8
SAPA_ANSLUTNING
 10
146.99999992774141
 20
-16.288837618781599
 30
0.0
 42
-0.9999999999999998
  0
VERTEX
  5
11F6
  8
SAPA_ANSLUTNING
 10
146.9999999277413
 20
-20.288837618781599
 30
0.0
  0
VERTEX
  5
11F7
  8
SAPA_ANSLUTNING
 10
140.9999999277413
 20
-20.288837618781571
 30
0.0
 42
0.9999999999999998
  0
VERTEX
  5
11F8
  8
SAPA_ANSLUTNING
 10
140.9999999277413
 20
-24.288837618781571
 30
0.0
  0
VERTEX
  5
11F9
  8
SAPA_ANSLUTNING
 10
146.9999999277413
 20
-24.288837618781599
 30
0.0
 42
-0.9999999999999998
  0
VERTEX
  5
11FA
  8
SAPA_ANSLUTNING
 10
146.9999999277413
 20
-28.288837618781599
 30
0.0
  0
VERTEX
  5
11FB
  8
SAPA_ANSLUTNING
 10
140.9999999277413
 20
-28.288837618781571
 30
0.0
 42
0.9999999999999998
  0
VERTEX
  5
11FC
  8
SAPA_ANSLUTNING
 10
140.9999999277413
 20
-32.288837618781571
 30
0.0
  0
VERTEX
  5
11FD
  8
SAPA_ANSLUTNING
 10
146.9999999277413
 20
-32.288837618781599
 30
0.0
 42
-0.9999999999999998
  0
VERTEX
  5
11FE
  8
SAPA_ANSLUTNING
 10
146.9999999277413
 20
-36.288837618781599
 30
0.0
  0
VERTEX
  5
11FF
  8
SAPA_ANSLUTNING
 10
140.9999999277413
 20
-36.288837618781571
 30
0.0
 42
0.9999999999999998
  0
VERTEX
  5
1200
  8
SAPA_ANSLUTNING
 10
140.9999999277413
 20
-40.288837618781571
 30
0.0
  0
VERTEX
  5
1201
  8
SAPA_ANSLUTNING
 10
146.9999999277413
 20
-40.288837618781599
 30
0.0
 42
-0.9999999999999998
  0
VERTEX
  5
1202
  8
SAPA_ANSLUTNING
 10
146.9999999277413
 20
-44.288837618781599
 30
0.0
  0
VERTEX
  5
1203
  8
SAPA_ANSLUTNING
 10
140.9999999277413
 20
-44.288837618781557
 30
0.0
 42
0.9999999999999998
  0
VERTEX
  5
1204
  8
SAPA_ANSLUTNING
 10
140.9999999277413
 20
-48.288837618781571
 30
0.0
  0
VERTEX
  5
1205
  8
SAPA_ANSLUTNING
 10
146.9999999277413
 20
-48.288837618781592
 30
0.0
 42
-0.9999999999999998
  0
VERTEX
  5
1206
  8
SAPA_ANSLUTNING
 10
146.9999999277413
 20
-52.288837618781599
 30
0.0
  0
VERTEX
  5
1207
  8
SAPA_ANSLUTNING
 10
140.9999999277413
 20
-52.288837618781571
 30
0.0
 42
0.9999999999999998
  0
VERTEX
  5
1208
  8
SAPA_ANSLUTNING
 10
140.9999999277413
 20
-56.288837618781571
 30
0.0
  0
VERTEX
  5
1209
  8
SAPA_ANSLUTNING
 10
146.9999999277413
 20
-56.288837618781599
 30
0.0
 42
-0.9999999999999998
  0
VERTEX
  5
120A
  8
SAPA_ANSLUTNING
 10
146.9999999277413
 20
-60.288837618781599
 30
0.0
  0
VERTEX
  5
120B
  8
SAPA_ANSLUTNING
 10
138.24999992774141
 20
-60.288837618781571
 30
0.0
 42
0.9999999999999998
  0
VERTEX
  5
120C
  8
SAPA_ANSLUTNING
 10
138.24999992774141
 20
-64.288837618781599
 30
0.0
  0
VERTEX
  5
120D
  8
SAPA_ANSLUTNING
 10
146.9999999277413
 20
-64.288837618781599
 30
0.0
 42
-0.9999999999999998
  0
VERTEX
  5
120E
  8
SAPA_ANSLUTNING
 10
146.9999999277413
 20
-68.288837618781571
 30
0.0
  0
VERTEX
  5
120F
  8
SAPA_ANSLUTNING
 10
138.24999992774141
 20
-68.288837618781571
 30
0.0
 42
0.3723754158642647
  0
VERTEX
  5
1210
  8
SAPA_ANSLUTNING
 10
136.27096662079879
 20
-70.000000000020322
 30
0.0
  0
SEQEND
  5
1211
  8
SAPA_ANSLUTNING
  0
POLYLINE
  5
C4D
  8
SAPA_ANSLUTNING
 66
     1
 10
0.0
 20
0.0
 30
0.0
  0
VERTEX
  5
1212
  8
SAPA_ANSLUTNING
 10
21.094751612380811
 20
-66.889616244264374
 30
0.0
 42
0.4609155493572824
  0
VERTEX
  5
1213
  8
SAPA_ANSLUTNING
 10
31.499999999714738
 20
-58.000000000022169
 30
0.0
  0
VERTEX
  5
1214
  8
SAPA_ANSLUTNING
 10
31.499999999714738
 20
-9.0000000000050591
 30
0.0
 42
-0.9999999999999998
  0
VERTEX
  5
1215
  8
SAPA_ANSLUTNING
 10
49.499999999714738
 20
-9.0000000000050591
 30
0.0
  0
VERTEX
  5
1216
  8
SAPA_ANSLUTNING
 10
49.499999999714738
 20
-58.000000000022169
 30
0.0
 42
0.9999999999999998
  0
VERTEX
  5
1217
  8
SAPA_ANSLUTNING
 10
67.499999999714731
 20
-58.000000000022169
 30
0.0
  0
VERTEX
  5
1218
  8
SAPA_ANSLUTNING
 10
67.499999999714731
 20
-5.8005553174693603
 30
0.0
 42
-0.9999999999999998
  0
VERTEX
  5
1219
  8
SAPA_ANSLUTNING
 10
85.499999999714845
 20
-5.8005553174693603
 30
0.0
  0
VERTEX
  5
121A
  8
SAPA_ANSLUTNING
 10
85.499999999714845
 20
-58.000000000022169
 30
0.0
 42
0.9999999999999998
  0
VERTEX
  5
121B
  8
SAPA_ANSLUTNING
 10
103.4999999997148
 20
-58.000000000022169
 30
0.0
  0
VERTEX
  5
121C
  8
SAPA_ANSLUTNING
 10
103.4999999997148
 20
-9.0000000000050591
 30
0.0
 42
-0.9999999999999998
  0
VERTEX
  5
121D
  8
SAPA_ANSLUTNING
 10
121.4999999997148
 20
-9.0000000000050591
 30
0.0
  0
VERTEX
  5
121E
  8
SAPA_ANSLUTNING
 10
121.4999999997148
 20
-58.000000000022169
 30
0.0
 42
0.4609155448655906
  0
VERTEX
  5
121F
  8
SAPA_ANSLUTNING
 10
131.90524825531659
 20
-66.889616265088264
 30
0.0
 42
0.4609155448655906
  0
SEQEND
  5
1220
  8
SAPA_ANSLUTNING
  0
POLYLINE
  5
F1B
  8
SAPA_PROFIL
 66
     1
 10
0.0
 20
0.0
 30
0.0
 70
     1
  0
VERTEX
  5
1761
  8
SAPA_PROFIL
 10
57.312261918094293
 20
47.0
 30
0.0
  0
VERTEX
  5
1762
  8
SAPA_PROFIL
 10
55.214189562374017
 20
47.0
 30
0.0
 42
-0.6681786379192718
  0
VERTEX
  5
1763
  8
SAPA_PROFIL
 10
54.507082781187421
 20
48.707106781186489
 30
0.0
  0
VERTEX
  5
1764
  8
SAPA_PROFIL
 10
55.812132034356381
 20
50.012156034355662
 30
0.0
 42
-0.1989123673797335
  0
VERTEX
  5
1765
  8
SAPA_PROFIL
 10
56.024264068712462
 20
50.100023999999777
 30
0.0
  0
VERTEX
  5
1766
  8
SAPA_PROFIL
 10
56.610769515459658
 20
50.100023999999628
 30
0.0
 42
-0.1316524975873855
  0
VERTEX
  5
1767
  8
SAPA_PROFIL
 10
56.760769515459579
 20
50.05983162113499
 30
0.0
  0
VERTEX
  5
1768
  8
SAPA_PROFIL
 10
58.250000000000462
 20
49.200023999999686
 30
0.0
  0
VERTEX
  5
1769
  8
SAPA_PROFIL
 10
58.700000000000401
 20
49.200012000000022
 30
0.0
 42
0.4142135623731054
  0
VERTEX
  5
176A
  8
SAPA_PROFIL
 10
59.000000000000419
 20
49.500012000000019
 30
0.0
  0
VERTEX
  5
176B
  8
SAPA_PROFIL
 10
59.000000000000362
 20
53.10002400000009
 30
0.0
 42
0.4142135623730951
  0
VERTEX
  5
176C
  8
SAPA_PROFIL
 10
58.700000000000358
 20
53.400024000000087
 30
0.0
  0
VERTEX
  5
176D
  8
SAPA_PROFIL
 10
58.250000000000362
 20
53.400023999999988
 30
0.0
  0
VERTEX
  5
176E
  8
SAPA_PROFIL
 10
56.760739868926187
 20
52.54019926243101
 30
0.0
 42
-0.1316363093594254
  0
VERTEX
  5
176F
  8
SAPA_PROFIL
 10
56.610758963879448
 20
52.500006884174041
 30
0.0
  0
VERTEX
  5
1770
  8
SAPA_PROFIL
 10
56.500000000000391
 20
52.499999834383239
 30
0.0
  0
VERTEX
  5
1771
  8
SAPA_PROFIL
 10
56.500000000000391
 20
54.499999999989079
 30
0.0
 42
-0.4142135623730957
  0
VERTEX
  5
1772
  8
SAPA_PROFIL
 10
57.000000000000391
 20
54.999999999989093
 30
0.0
  0
VERTEX
  5
1773
  8
SAPA_PROFIL
 10
62.249999998626031
 20
54.999999999989093
 30
0.0
 42
-0.4142135623730957
  0
VERTEX
  5
1774
  8
SAPA_PROFIL
 10
62.749999998626031
 20
54.499999999989079
 30
0.0
  0
VERTEX
  5
1775
  8
SAPA_PROFIL
 10
62.749999998626031
 20
53.999999999972999
 30
0.0
 42
-0.4142135623730783
  0
VERTEX
  5
1776
  8
SAPA_PROFIL
 10
62.249999998626031
 20
53.499999999972999
 30
0.0
  0
VERTEX
  5
1777
  8
SAPA_PROFIL
 10
61.449999998630616
 20
53.499999999973006
 30
0.0
 42
0.4142135623730946
  0
VERTEX
  5
1778
  8
SAPA_PROFIL
 10
61.249999998630642
 20
53.299999999973011
 30
0.0
  0
VERTEX
  5
1779
  8
SAPA_PROFIL
 10
61.249999998630621
 20
50.499999999978122
 30
0.0
 42
0.414213562373094
  0
VERTEX
  5
177A
  8
SAPA_PROFIL
 10
61.449999998630616
 20
50.29999999997812
 30
0.0
  0
VERTEX
  5
177B
  8
SAPA_PROFIL
 10
65.55000000016031
 20
50.299999999978098
 30
0.0
 42
0.4142135623726658
  0
VERTEX
  5
177C
  8
SAPA_PROFIL
 10
65.750000000160298
 20
50.499999999977831
 30
0.0
  0
VERTEX
  5
177D
  8
SAPA_PROFIL
 10
65.750000000189445
 20
69.799999999994213
 30
0.0
 42
-0.4964147352864319
  0
VERTEX
  5
177E
  8
SAPA_PROFIL
 10
66.003790408515073
 20
69.992630713983573
 30
0.0
 42
-0.3064679542112438
  0
VERTEX
  5
177F
  8
SAPA_PROFIL
 10
66.728906881360729
 20
69.138232780806902
 30
0.0
 42
-0.0272495355296178
  0
VERTEX
  5
1780
  8
SAPA_PROFIL
 10
67.499999999669313
 20
55.000000000012072
 30
0.0
  0
VERTEX
  5
1781
  8
SAPA_PROFIL
 10
67.500000000022226
 20
42.199999998749263
 30
0.0
 42
-0.4142135623890783
  0
VERTEX
  5
1782
  8
SAPA_PROFIL
 10
67.300000000021484
 20
41.999999998737621
 30
0.0
  0
VERTEX
  5
1783
  8
SAPA_PROFIL
 10
66.965470053761635
 20
41.99999999873944
 30
0.0
 42
-0.267949192439649
  0
VERTEX
  5
1784
  8
SAPA_PROFIL
 10
66.792264973002503
 20
42.099999998744401
 30
0.0
  0
VERTEX
  5
1785
  8
SAPA_PROFIL
 10
65.776794919409824
 20
43.858845725138963
 30
0.0
 42
-0.1316524975843789
  0
VERTEX
  5
1786
  8
SAPA_PROFIL
 10
65.750000000167262
 20
43.958845725139319
 30
0.0
  0
VERTEX
  5
1787
  8
SAPA_PROFIL
 10
65.750000000171383
 20
46.799999999999272
 30
0.0
 42
0.4142135623730974
  0
VERTEX
  5
1788
  8
SAPA_PROFIL
 10
65.550000000170655
 20
47.0
 30
0.0
  0
VERTEX
  5
1789
  8
SAPA_PROFIL
 10
59.243869040962117
 20
47.0
 30
0.0
 42
-0.2418327667441245
  0
VERTEX
  5
178A
  8
SAPA_PROFIL
 10
59.000000000010637
 20
47.125277674966171
 30
0.0
 42
0.2418327667528755
  0
VERTEX
  5
178B
  8
SAPA_PROFIL
 10
58.756130959049578
 20
47.250555349939532
 30
0.0
  0
VERTEX
  5
178C
  8
SAPA_PROFIL
 10
57.800000000010577
 20
47.250555349939532
 30
0.0
 42
0.2418327667504218
  0
VERTEX
  5
178D
  8
SAPA_PROFIL
 10
57.55613095904787
 20
47.125277674968579
 30
0.0
 42
-0.2418327667464108
  0
SEQEND
  5
178E
  8
SAPA_PROFIL
  0
POLYLINE
  5
F1C
  8
SAPA_PROFIL
 66
     1
 10
0.0
 20
0.0
 30
0.0
 70
     1
  0
VERTEX
  5
178F
  8
SAPA_PROFIL
 10
30.687738081906492
 20
47.0
 30
0.0
  0
VERTEX
  5
1790
  8
SAPA_PROFIL
 10
32.785810437626772
 20
47.0
 30
0.0
 42
0.6681786379192718
  0
VERTEX
  5
1791
  8
SAPA_PROFIL
 10
33.492917218813361
 20
48.707106781186489
 30
0.0
  0
VERTEX
  5
1792
  8
SAPA_PROFIL
 10
32.187867965644386
 20
50.012156034355662
 30
0.0
 42
0.1989123673797335
  0
VERTEX
  5
1793
  8
SAPA_PROFIL
 10
31.97573593128832
 20
50.100023999999777
 30
0.0
  0
VERTEX
  5
1794
  8
SAPA_PROFIL
 10
31.38923048454112
 20
50.100023999999628
 30
0.0
 42
0.1316524975873855
  0
VERTEX
  5
1795
  8
SAPA_PROFIL
 10
31.239230484541199
 20
50.05983162113499
 30
0.0
  0
VERTEX
  5
1796
  8
SAPA_PROFIL
 10
29.750000000000309
 20
49.200023999999686
 30
0.0
  0
VERTEX
  5
1797
  8
SAPA_PROFIL
 10
29.30000000000037
 20
49.200012000000022
 30
0.0
 42
-0.4142135623731054
  0
VERTEX
  5
1798
  8
SAPA_PROFIL
 10
29.000000000000369
 20
49.500012000000019
 30
0.0
  0
VERTEX
  5
1799
  8
SAPA_PROFIL
 10
29.000000000000419
 20
53.10002400000009
 30
0.0
 42
-0.4142135623730951
  0
VERTEX
  5
179A
  8
SAPA_PROFIL
 10
29.30000000000042
 20
53.400024000000087
 30
0.0
  0
VERTEX
  5
179B
  8
SAPA_PROFIL
 10
29.750000000000419
 20
53.400023999999988
 30
0.0
  0
VERTEX
  5
179C
  8
SAPA_PROFIL
 10
31.239260131074591
 20
52.54019926243101
 30
0.0
 42
0.1316363093594254
  0
VERTEX
  5
179D
  8
SAPA_PROFIL
 10
31.38924103612133
 20
52.500006884174041
 30
0.0
  0
VERTEX
  5
179E
  8
SAPA_PROFIL
 10
31.500000000000391
 20
52.499999834383239
 30
0.0
  0
VERTEX
  5
179F
  8
SAPA_PROFIL
 10
31.500000000000391
 20
54.499999999989079
 30
0.0
 42
0.4142135623730957
  0
VERTEX
  5
17A0
  8
SAPA_PROFIL
 10
31.000000000000391
 20
54.999999999989093
 30
0.0
  0
VERTEX
  5
17A1
  8
SAPA_PROFIL
 10
25.750000001374751
 20
54.999999999989093
 30
0.0
 42
0.4142135623730957
  0
VERTEX
  5
17A2
  8
SAPA_PROFIL
 10
25.250000001374751
 20
54.499999999989079
 30
0.0
  0
VERTEX
  5
17A3
  8
SAPA_PROFIL
 10
25.250000001374751
 20
53.999999999972999
 30
0.0
 42
0.4142135623730783
  0
VERTEX
  5
17A4
  8
SAPA_PROFIL
 10
25.750000001374751
 20
53.499999999972999
 30
0.0
  0
VERTEX
  5
17A5
  8
SAPA_PROFIL
 10
26.550000001370162
 20
53.499999999973006
 30
0.0
 42
-0.4142135623730946
  0
VERTEX
  5
17A6
  8
SAPA_PROFIL
 10
26.75000000137015
 20
53.299999999973011
 30
0.0
  0
VERTEX
  5
17A7
  8
SAPA_PROFIL
 10
26.750000001370161
 20
50.499999999978122
 30
0.0
 42
-0.414213562373094
  0
VERTEX
  5
17A8
  8
SAPA_PROFIL
 10
26.550000001370162
 20
50.29999999997812
 30
0.0
  0
VERTEX
  5
17A9
  8
SAPA_PROFIL
 10
22.449999999840479
 20
50.299999999978098
 30
0.0
 42
-0.4142135623726658
  0
VERTEX
  5
17AA
  8
SAPA_PROFIL
 10
22.24999999984049
 20
50.499999999977831
 30
0.0
  0
VERTEX
  5
17AB
  8
SAPA_PROFIL
 10
22.24999999981133
 20
69.799999999994213
 30
0.0
 42
0.4964147352864319
  0
VERTEX
  5
17AC
  8
SAPA_PROFIL
 10
21.996209591485709
 20
69.992630713983573
 30
0.0
 42
0.3064679542112438
  0
VERTEX
  5
17AD
  8
SAPA_PROFIL
 10
21.271093118640049
 20
69.138232780806902
 30
0.0
 42
0.0272495355296178
  0
VERTEX
  5
17AE
  8
SAPA_PROFIL
 10
20.500000000331472
 20
55.000000000012072
 30
0.0
  0
VERTEX
  5
17AF
  8
SAPA_PROFIL
 10
20.499999999978559
 20
42.199999998749263
 30
0.0
 42
0.4142135623890783
  0
VERTEX
  5
17B0
  8
SAPA_PROFIL
 10
20.699999999979291
 20
41.999999998737621
 30
0.0
  0
VERTEX
  5
17B1
  8
SAPA_PROFIL
 10
21.03452994623915
 20
41.99999999873944
 30
0.0
 42
0.267949192439649
  0
VERTEX
  5
17B2
  8
SAPA_PROFIL
 10
21.207735026998279
 20
42.099999998744401
 30
0.0
  0
VERTEX
  5
17B3
  8
SAPA_PROFIL
 10
22.223205080590951
 20
43.858845725138963
 30
0.0
 42
0.1316524975843789
  0
VERTEX
  5
17B4
  8
SAPA_PROFIL
 10
22.24999999983352
 20
43.958845725139319
 30
0.0
  0
VERTEX
  5
17B5
  8
SAPA_PROFIL
 10
22.249999999829409
 20
46.799999999999272
 30
0.0
 42
-0.4142135623730974
  0
VERTEX
  5
17B6
  8
SAPA_PROFIL
 10
22.44999999983013
 20
47.0
 30
0.0
  0
VERTEX
  5
17B7
  8
SAPA_PROFIL
 10
28.756130959038671
 20
47.0
 30
0.0
 42
0.2418327667441245
  0
VERTEX
  5
17B8
  8
SAPA_PROFIL
 10
28.999999999990141
 20
47.125277674966171
 30
0.0
 42
-0.2418327667528755
  0
VERTEX
  5
17B9
  8
SAPA_PROFIL
 10
29.243869040951211
 20
47.250555349939532
 30
0.0
  0
VERTEX
  5
17BA
  8
SAPA_PROFIL
 10
30.199999999990212
 20
47.250555349939532
 30
0.0
 42
-0.2418327667504218
  0
VERTEX
  5
17BB
  8
SAPA_PROFIL
 10
30.443869040952912
 20
47.125277674968579
 30
0.0
 42
0.2418327667464108
  0
SEQEND
  5
17BC
  8
SAPA_PROFIL
  0
POLYLINE
  5
F1D
  8
SAPA_PROFIL
 62
     4
 66
     1
 10
0.0
 20
0.0
 30
0.0
 70
     1
  0
VERTEX
  5
F1E
  8
SAPA_PROFIL
 62
     4
 10
31.85621778265288
 20
50.350012000002017
 30
0.0
 42
0.1316524975873979
  0
VERTEX
  5
F1F
  8
SAPA_PROFIL
 62
     4
 10
31.456217782652871
 20
50.242832323029589
 30
0.0
  0
VERTEX
  5
F20
  8
SAPA_PROFIL
 62
     4
 10
29.736602540378829
 20
49.250012000000162
 30
0.0
  0
VERTEX
  5
F21
  8
SAPA_PROFIL
 62
     4
 10
29.30000000000037
 20
49.250012000000069
 30
0.0
 42
-0.4142135623730951
  0
VERTEX
  5
F22
  8
SAPA_PROFIL
 62
     4
 10
29.050000000000392
 20
49.500012000000062
 30
0.0
  0
VERTEX
  5
F23
  8
SAPA_PROFIL
 62
     4
 10
29.050000000000342
 20
53.100024000000118
 30
0.0
 42
-0.4142135623731053
  0
VERTEX
  5
F24
  8
SAPA_PROFIL
 62
     4
 10
29.300000000000342
 20
53.350024000000133
 30
0.0
  0
VERTEX
  5
F25
  8
SAPA_PROFIL
 62
     4
 10
29.736601921578799
 20
53.350012357264767
 30
0.0
  0
VERTEX
  5
F26
  8
SAPA_PROFIL
 62
     4
 10
31.456217782646199
 20
52.357191676974502
 30
0.0
 42
0.1316524975874149
  0
VERTEX
  5
F27
  8
SAPA_PROFIL
 62
     4
 10
31.856217782646251
 20
52.250012000002002
 30
0.0
  0
VERTEX
  5
F28
  8
SAPA_PROFIL
 62
     4
 10
56.143782217354541
 20
52.250012000002002
 30
0.0
 42
0.1316524975874151
  0
VERTEX
  5
F29
  8
SAPA_PROFIL
 62
     4
 10
56.54378221735459
 20
52.357191676974502
 30
0.0
  0
VERTEX
  5
F2A
  8
SAPA_PROFIL
 62
     4
 10
58.263398078421979
 20
53.350012357264767
 30
0.0
  0
VERTEX
  5
F2B
  8
SAPA_PROFIL
 62
     4
 10
58.700000000000443
 20
53.350024000000133
 30
0.0
 42
-0.4142135623731054
  0
VERTEX
  5
F2C
  8
SAPA_PROFIL
 62
     4
 10
58.95000000000045
 20
53.100024000000118
 30
0.0
  0
VERTEX
  5
F2D
  8
SAPA_PROFIL
 62
     4
 10
58.950000000000387
 20
49.500012000000062
 30
0.0
 42
-0.4142135623730953
  0
VERTEX
  5
F2E
  8
SAPA_PROFIL
 62
     4
 10
58.700000000000401
 20
49.250012000000069
 30
0.0
  0
VERTEX
  5
F2F
  8
SAPA_PROFIL
 62
     4
 10
58.263397459621949
 20
49.250012000000162
 30
0.0
  0
VERTEX
  5
F30
  8
SAPA_PROFIL
 62
     4
 10
56.543782217347911
 20
50.242832323029589
 30
0.0
 42
0.1316524975873982
  0
VERTEX
  5
F31
  8
SAPA_PROFIL
 62
     4
 10
56.143782217347891
 20
50.350012000002017
 30
0.0
  0
SEQEND
  5
F32
  8
SAPA_PROFIL
 62
     4
  0
POLYLINE
  5
F33
  8
SAPA_PROFIL
 66
     1
 10
0.0
 20
0.0
 30
0.0
 70
     1
  0
VERTEX
  5
17BD
  8
SAPA_PROFIL
 10
-0.5000000000070415
 20
22.200000000003019
 30
0.0
 42
-0.4142135623730951
  0
VERTEX
  5
17BE
  8
SAPA_PROFIL
 10
-1.000000000007041
 20
22.700000000003019
 30
0.0
  0
VERTEX
  5
17BF
  8
SAPA_PROFIL
 10
-1.0000000000070499
 20
23.700000000006661
 30
0.0
 42
-0.4142135623720291
  0
VERTEX
  5
17C0
  8
SAPA_PROFIL
 10
-0.5000000000070415
 20
24.200000000006661
 30
0.0
  0
VERTEX
  5
17C1
  8
SAPA_PROFIL
 10
11.500000000000229
 20
24.200000000013929
 30
0.0
 42
0.4142135623730951
  0
VERTEX
  5
17C2
  8
SAPA_PROFIL
 10
12.000000000000229
 20
24.700000000013929
 30
0.0
  0
VERTEX
  5
17C3
  8
SAPA_PROFIL
 10
11.99999999999295
 20
30.853589838489391
 30
0.0
  0
VERTEX
  5
17C4
  8
SAPA_PROFIL
 10
12.19999999999731
 20
31.200000000003019
 30
0.0
  0
VERTEX
  5
17C5
  8
SAPA_PROFIL
 10
11.99999999998567
 20
31.55627758058337
 30
0.0
  0
VERTEX
  5
17C6
  8
SAPA_PROFIL
 10
11.99999999999295
 20
37.95735931289029
 30
0.0
 42
0.1989123673783206
  0
VERTEX
  5
17C7
  8
SAPA_PROFIL
 10
11.70710678118507
 20
38.664466094075138
 30
0.0
  0
VERTEX
  5
17C8
  8
SAPA_PROFIL
 10
9.6786796564180264
 20
40.692893218861101
 30
0.0
 42
-0.1989123673783208
  0
VERTEX
  5
17C9
  8
SAPA_PROFIL
 10
8.7999999999885858
 20
42.814213562413471
 30
0.0
  0
VERTEX
  5
17CA
  8
SAPA_PROFIL
 10
8.7999999999958618
 20
56.799999999997929
 30
0.0
 42
-0.414213562373095
  0
VERTEX
  5
17CB
  8
SAPA_PROFIL
 10
9.0000000000002274
 20
56.999999999997932
 30
0.0
  0
VERTEX
  5
17CC
  8
SAPA_PROFIL
 10
9.3398526890089215
 20
57.000000000002302
 30
0.0
 42
-0.3394542588645143
  0
VERTEX
  5
17CD
  8
SAPA_PROFIL
 10
10.305778515299041
 20
56.258819045100871
 30
0.0
  0
VERTEX
  5
17CE
  8
SAPA_PROFIL
 10
11.28296291312313
 20
52.611917223991007
 30
0.0
 42
-0.0655434628306237
  0
VERTEX
  5
17CF
  8
SAPA_PROFIL
 10
11.29999999998131
 20
52.48250770141069
 30
0.0
  0
VERTEX
  5
17D0
  8
SAPA_PROFIL
 10
11.299999999988581
 20
52.407106781162398
 30
0.0
 42
-0.1989123673734313
  0
VERTEX
  5
17D1
  8
SAPA_PROFIL
 10
11.15355339058004
 20
52.053553390581847
 30
0.0
  0
VERTEX
  5
17D2
  8
SAPA_PROFIL
 10
10.646446609418719
 20
51.546446609429523
 30
0.0
 42
0.198912367380327
  0
VERTEX
  5
17D3
  8
SAPA_PROFIL
 10
10.5000000000075
 20
51.192893218833461
 30
0.0
  0
VERTEX
  5
17D4
  8
SAPA_PROFIL
 10
10.49999999998567
 20
43.114213562412729
 30
0.0
 42
0.1989123673792659
  0
VERTEX
  5
17D5
  8
SAPA_PROFIL
 10
10.79289321879549
 20
42.40710678122619
 30
0.0
  0
VERTEX
  5
17D6
  8
SAPA_PROFIL
 10
13.121320343562051
 20
40.078679656430282
 30
0.0
 42
-0.1989123673796578
  0
VERTEX
  5
17D7
  8
SAPA_PROFIL
 10
14.000000000000229
 20
37.957359312875738
 30
0.0
  0
VERTEX
  5
17D8
  8
SAPA_PROFIL
 10
14.000000000000229
 20
23.200000000006661
 30
0.0
 42
-0.4142135623730951
  0
VERTEX
  5
17D9
  8
SAPA_PROFIL
 10
13.000000000000229
 20
22.200000000006661
 30
0.0
  0
SEQEND
  5
17DA
  8
SAPA_PROFIL
  0
POLYLINE
  5
F34
  8
SAPA_PROFIL
 66
     1
 10
0.0
 20
0.0
 30
0.0
 70
     1
  0
VERTEX
  5
17DB
  8
SAPA_PROFIL
 10
-69.000000000007162
 20
57.499999999999389
 30
0.0
  0
VERTEX
  5
17DC
  8
SAPA_PROFIL
 10
-68.999999999999886
 20
59.499999999995786
 30
0.0
 42
0.4142135623730951
  0
VERTEX
  5
17DD
  8
SAPA_PROFIL
 10
-69.499999999999901
 20
59.999999999992127
 30
0.0
  0
VERTEX
  5
17DE
  8
SAPA_PROFIL
 10
-71.999999999999901
 20
60.000000000003027
 30
0.0
 42
0.4142135623730951
  0
VERTEX
  5
17DF
  8
SAPA_PROFIL
 10
-73.999999999999886
 20
57.999999999999417
 30
0.0
  0
VERTEX
  5
17E0
  8
SAPA_PROFIL
 10
-73.999999999999886
 20
4.0000000000030482
 30
0.0
 42
0.4142135623730951
  0
VERTEX
  5
17E1
  8
SAPA_PROFIL
 10
-70.000000000007162
 20
-0.0000000000005898
 30
0.0
  0
VERTEX
  5
17E2
  8
SAPA_PROFIL
 10
-5.0000000000071623
 20
0.000000000003034
 30
0.0
 42
0.4142135623730951
  0
VERTEX
  5
17E3
  8
SAPA_PROFIL
 10
-1.000000000007162
 20
3.9999999999994098
 30
0.0
  0
VERTEX
  5
17E4
  8
SAPA_PROFIL
 10
-0.9999999999998863
 20
55.000000000003027
 30
0.0
 42
-0.4142135623730951
  0
VERTEX
  5
17E5
  8
SAPA_PROFIL
 10
1.000000000000113
 20
56.999999999999389
 30
0.0
  0
VERTEX
  5
17E6
  8
SAPA_PROFIL
 10
9.5000000000001137
 20
57.000000000003027
 30
0.0
 42
-0.4142135623730951
  0
VERTEX
  5
17E7
  8
SAPA_PROFIL
 10
11.50000000000011
 20
54.999999999999389
 30
0.0
  0
VERTEX
  5
17E8
  8
SAPA_PROFIL
 10
11.50000000000739
 20
52.20710678119881
 30
0.0
 42
-0.1989123673802842
  0
VERTEX
  5
17E9
  8
SAPA_PROFIL
 10
11.35355339059617
 20
51.853553390602727
 30
0.0
  0
VERTEX
  5
17EA
  8
SAPA_PROFIL
 10
11.112372435730091
 20
51.61237243574768
 30
0.0
 42
0.2679491924377356
  0
VERTEX
  5
17EB
  8
SAPA_PROFIL
 10
10.724143868050421
 20
50.163483696287322
 30
0.0
  0
VERTEX
  5
17EC
  8
SAPA_PROFIL
 10
11.43185165258569
 20
47.522282287465302
 30
0.0
 42
-0.065543462814752
  0
VERTEX
  5
17ED
  8
SAPA_PROFIL
 10
11.50000000000739
 20
47.004644197264
 30
0.0
  0
VERTEX
  5
17EE
  8
SAPA_PROFIL
 10
11.50000000001466
 20
43.000000000010303
 30
0.0
 42
0.4142135623698985
  0
VERTEX
  5
17EF
  8
SAPA_PROFIL
 10
12.50000000000739
 20
42.000000000013941
 30
0.0
  0
VERTEX
  5
17F0
  8
SAPA_PROFIL
 10
12.99999999998556
 20
42.000000000010317
 30
0.0
 42
0.4142135623773572
  0
VERTEX
  5
17F1
  8
SAPA_PROFIL
 10
14.00000000000011
 20
43.000000000010303
 30
0.0
  0
VERTEX
  5
17F2
  8
SAPA_PROFIL
 10
14.00000000000011
 20
58.499999999999417
 30
0.0
 42
0.4142135623730951
  0
VERTEX
  5
17F3
  8
SAPA_PROFIL
 10
12.50000000000011
 20
60.000000000003027
 30
0.0
  0
VERTEX
  5
17F4
  8
SAPA_PROFIL
 10
-2.4999999999998859
 20
59.999999999999389
 30
0.0
 42
0.4142135623730951
  0
VERTEX
  5
17F5
  8
SAPA_PROFIL
 10
-3.9999999999998859
 20
58.500000000003027
 30
0.0
  0
VERTEX
  5
17F6
  8
SAPA_PROFIL
 10
-4.0000000000071623
 20
4.9999999999994102
 30
0.0
 42
-0.4142135623730951
  0
VERTEX
  5
17F7
  8
SAPA_PROFIL
 10
-6.0000000000071623
 20
3.000000000003034
 30
0.0
  0
VERTEX
  5
17F8
  8
SAPA_PROFIL
 10
-68.999999999999886
 20
3.0000000000066862
 30
0.0
 42
-0.4142135623730951
  0
VERTEX
  5
17F9
  8
SAPA_PROFIL
 10
-70.999999999999901
 20
5.0000000000103242
 30
0.0
  0
VERTEX
  5
17FA
  8
SAPA_PROFIL
 10
-70.999999999999901
 20
57.000000000003027
 30
0.0
  0
VERTEX
  5
17FB
  8
SAPA_PROFIL
 10
-69.500000000007162
 20
57.000000000003027
 30
0.0
 42
0.4142135623730951
  0
SEQEND
  5
17FC
  8
SAPA_PROFIL
  0
POLYLINE
  5
F35
  8
SAPA_PROFIL
 66
     1
 10
0.0
 20
0.0
 30
0.0
 70
     1
  0
VERTEX
  5
17FD
  8
SAPA_PROFIL
 10
135.64523645122861
 20
19.46152494752096
 30
0.0
 42
0.2914734195858593
  0
VERTEX
  5
17FE
  8
SAPA_PROFIL
 10
136.79999992774421
 20
21.274140521607482
 30
0.0
  0
VERTEX
  5
17FF
  8
SAPA_PROFIL
 10
136.79999992774421
 20
40.999999999985441
 30
0.0
 42
0.4142135623731033
  0
VERTEX
  5
1800
  8
SAPA_PROFIL
 10
136.29999992774421
 20
41.499999999985441
 30
0.0
  0
VERTEX
  5
1801
  8
SAPA_PROFIL
 10
135.999999927734
 20
41.499999999985441
 30
0.0
 42
0.4142135623731035
  0
VERTEX
  5
1802
  8
SAPA_PROFIL
 10
135.499999927734
 20
40.999999999985441
 30
0.0
  0
VERTEX
  5
1803
  8
SAPA_PROFIL
 10
135.499999927734
 20
39.699999999986183
 30
0.0
 42
-0.4142135623731159
  0
VERTEX
  5
1804
  8
SAPA_PROFIL
 10
135.29999992771511
 20
39.499999999974541
 30
0.0
  0
VERTEX
  5
1805
  8
SAPA_PROFIL
 10
134.999999927734
 20
39.499999999985448
 30
0.0
 42
-0.4142135623731035
  0
VERTEX
  5
1806
  8
SAPA_PROFIL
 10
134.499999927734
 20
39.999999999985448
 30
0.0
  0
VERTEX
  5
1807
  8
SAPA_PROFIL
 10
134.4999999277413
 20
43.749999999985448
 30
0.0
 42
-0.4142135623731035
  0
VERTEX
  5
1808
  8
SAPA_PROFIL
 10
134.9999999277413
 20
44.249999999985441
 30
0.0
  0
VERTEX
  5
1809
  8
SAPA_PROFIL
 10
135.29999992774421
 20
44.249999999985441
 30
0.0
 42
-0.4142135623731159
  0
VERTEX
  5
180A
  8
SAPA_PROFIL
 10
135.49999992775221
 20
44.049999999973807
 30
0.0
  0
VERTEX
  5
180B
  8
SAPA_PROFIL
 10
135.4999999277413
 20
43.199999999986169
 30
0.0
 42
0.4142135623730951
  0
VERTEX
  5
180C
  8
SAPA_PROFIL
 10
135.69999992773111
 20
42.999999999985441
 30
0.0
  0
VERTEX
  5
180D
  8
SAPA_PROFIL
 10
136.69999992773111
 20
42.999999999985441
 30
0.0
 42
0.4142135623731035
  0
VERTEX
  5
180E
  8
SAPA_PROFIL
 10
137.19999992773111
 20
43.499999999985441
 30
0.0
  0
VERTEX
  5
180F
  8
SAPA_PROFIL
 10
137.19999992773111
 20
49.499999999985448
 30
0.0
 42
0.4142135623731033
  0
VERTEX
  5
1810
  8
SAPA_PROFIL
 10
136.69999992773111
 20
49.999999999985448
 30
0.0
  0
VERTEX
  5
1811
  8
SAPA_PROFIL
 10
135.69999992773111
 20
49.999999999985448
 30
0.0
 42
0.4142135623731054
  0
VERTEX
  5
1812
  8
SAPA_PROFIL
 10
135.4999999277413
 20
49.799999999973807
 30
0.0
  0
VERTEX
  5
1813
  8
SAPA_PROFIL
 10
135.499999927734
 20
48.949999999986169
 30
0.0
 42
-0.4142135623731159
  0
VERTEX
  5
1814
  8
SAPA_PROFIL
 10
135.29999992771511
 20
48.749999999974527
 30
0.0
  0
VERTEX
  5
1815
  8
SAPA_PROFIL
 10
134.9999999277413
 20
48.75
 30
0.0
 42
-0.4142135623731035
  0
VERTEX
  5
1816
  8
SAPA_PROFIL
 10
134.4999999277413
 20
49.25
 30
0.0
  0
VERTEX
  5
1817
  8
SAPA_PROFIL
 10
134.4999999277413
 20
52.25
 30
0.0
 42
-0.4142135623731035
  0
VERTEX
  5
1818
  8
SAPA_PROFIL
 10
134.9999999277413
 20
52.75
 30
0.0
  0
VERTEX
  5
1819
  8
SAPA_PROFIL
 10
135.29999992774421
 20
52.75
 30
0.0
 42
-0.4142135623730744
  0
VERTEX
  5
181A
  8
SAPA_PROFIL
 10
135.4999999277413
 20
52.549999999999272
 30
0.0
  0
VERTEX
  5
181B
  8
SAPA_PROFIL
 10
135.49999992773041
 20
51.70000000000072
 30
0.0
 42
0.4142135623730534
  0
VERTEX
  5
181C
  8
SAPA_PROFIL
 10
135.69999992773111
 20
51.5
 30
0.0
  0
VERTEX
  5
181D
  8
SAPA_PROFIL
 10
136.69999992773111
 20
51.5
 30
0.0
 42
0.4142135623731035
  0
VERTEX
  5
181E
  8
SAPA_PROFIL
 10
137.19999992773111
 20
52.0
 30
0.0
  0
VERTEX
  5
181F
  8
SAPA_PROFIL
 10
137.19999992773111
 20
58.0
 30
0.0
 42
0.4142135623730869
  0
VERTEX
  5
1820
  8
SAPA_PROFIL
 10
136.69999992773111
 20
58.5
 30
0.0
  0
VERTEX
  5
1821
  8
SAPA_PROFIL
 10
135.69999992773111
 20
58.499999999989079
 30
0.0
 42
0.4142135623730534
  0
VERTEX
  5
1822
  8
SAPA_PROFIL
 10
135.4999999277413
 20
58.299999999999272
 30
0.0
  0
VERTEX
  5
1823
  8
SAPA_PROFIL
 10
135.4999999277486
 20
57.45000000000072
 30
0.0
 42
-0.4142135623730744
  0
VERTEX
  5
1824
  8
SAPA_PROFIL
 10
135.29999992774421
 20
57.25
 30
0.0
  0
VERTEX
  5
1825
  8
SAPA_PROFIL
 10
134.9999999277413
 20
57.25
 30
0.0
 42
-0.4142135623731035
  0
VERTEX
  5
1826
  8
SAPA_PROFIL
 10
134.4999999277413
 20
57.75
 30
0.0
  0
VERTEX
  5
1827
  8
SAPA_PROFIL
 10
134.4999999277413
 20
59.5
 30
0.0
 42
-0.4142135623731035
  0
VERTEX
  5
1828
  8
SAPA_PROFIL
 10
134.9999999277413
 20
60.0
 30
0.0
  0
VERTEX
  5
1829
  8
SAPA_PROFIL
 10
137.4999999277413
 20
60.0
 30
0.0
 42
-0.4142135623730951
  0
VERTEX
  5
182A
  8
SAPA_PROFIL
 10
138.9999999277413
 20
58.5
 30
0.0
  0
VERTEX
  5
182B
  8
SAPA_PROFIL
 10
138.9999999277413
 20
-55.625
 30
0.0
 42
-0.9999999999999792
  0
VERTEX
  5
182C
  8
SAPA_PROFIL
 10
136.2499999277413
 20
-55.625
 30
0.0
  0
VERTEX
  5
182D
  8
SAPA_PROFIL
 10
136.2499999277413
 20
-3.9999999999999849
 30
0.0
 42
0.4142135623730959
  0
VERTEX
  5
182E
  8
SAPA_PROFIL
 10
132.2499999277413
 20
0.0000000000000142
 30
0.0
  0
VERTEX
  5
182F
  8
SAPA_PROFIL
 10
90.743868969062234
 20
-0.0000000000109139
 30
0.0
 42
-0.2418327667378102
  0
VERTEX
  5
1830
  8
SAPA_PROFIL
 10
90.499999928123856
 20
0.1252776749561804
 30
0.0
 42
0.2418327667509117
  0
VERTEX
  5
1831
  8
SAPA_PROFIL
 10
90.256130887167899
 20
0.2505553499286179
 30
0.0
  0
VERTEX
  5
1832
  8
SAPA_PROFIL
 10
89.299999928117984
 20
0.2505553499322559
 30
0.0
 42
0.2418327667448982
  0
VERTEX
  5
1833
  8
SAPA_PROFIL
 10
89.056130887163064
 20
0.12527767496384
 30
0.0
 42
-0.2418327667448982
  0
VERTEX
  5
1834
  8
SAPA_PROFIL
 10
88.812261846210475
 20
-0.0000000000033538
 30
0.0
  0
VERTEX
  5
1835
  8
SAPA_PROFIL
 10
86.714189490492487
 20
-0.0000000000033538
 30
0.0
 42
-0.6681786379192726
  0
VERTEX
  5
1836
  8
SAPA_PROFIL
 10
86.007082709305891
 20
1.707106781183142
 30
0.0
  0
VERTEX
  5
1837
  8
SAPA_PROFIL
 10
87.312131962474865
 20
3.0121560343523011
 30
0.0
 42
-0.1989123673797352
  0
VERTEX
  5
1838
  8
SAPA_PROFIL
 10
87.524263996830925
 20
3.100023999996437
 30
0.0
  0
VERTEX
  5
1839
  8
SAPA_PROFIL
 10
88.110769443578135
 20
3.1000239999962811
 30
0.0
 42
-0.1316524975873824
  0
VERTEX
  5
183A
  8
SAPA_PROFIL
 10
88.260769443578056
 20
3.059831621131635
 30
0.0
  0
VERTEX
  5
183B
  8
SAPA_PROFIL
 10
89.749999928118925
 20
2.2000239999963318
 30
0.0
  0
VERTEX
  5
183C
  8
SAPA_PROFIL
 10
90.199999928118885
 20
2.2000119999966752
 30
0.0
 42
0.4142135623731039
  0
VERTEX
  5
183D
  8
SAPA_PROFIL
 10
90.499999928118896
 20
2.5000119999966719
 30
0.0
  0
VERTEX
  5
183E
  8
SAPA_PROFIL
 10
90.499999928118825
 20
6.1000239999967363
 30
0.0
 42
0.4142135623730826
  0
VERTEX
  5
183F
  8
SAPA_PROFIL
 10
90.199999928118842
 20
6.4000239999967334
 30
0.0
  0
VERTEX
  5
1840
  8
SAPA_PROFIL
 10
89.749999928118839
 20
6.4000239999966331
 30
0.0
  0
VERTEX
  5
1841
  8
SAPA_PROFIL
 10
88.260739797044664
 20
5.5401992624276479
 30
0.0
 42
-0.1316363093594268
  0
VERTEX
  5
1842
  8
SAPA_PROFIL
 10
88.110758891997904
 20
5.5000068841706868
 30
0.0
  0
VERTEX
  5
1843
  8
SAPA_PROFIL
 10
87.999999928115074
 20
5.4999998343798771
 30
0.0
  0
VERTEX
  5
1844
  8
SAPA_PROFIL
 10
87.999999928115074
 20
7.0856406460516146
 30
0.0
 42
-0.2679491924308297
  0
VERTEX
  5
1845
  8
SAPA_PROFIL
 10
88.499999928115074
 20
7.9516660498302372
 30
0.0
  0
VERTEX
  5
1846
  8
SAPA_PROFIL
 10
90.249999928115528
 20
8.9620290209087141
 30
0.0
 42
0.2679491924308301
  0
VERTEX
  5
1847
  8
SAPA_PROFIL
 10
90.499999928115074
 20
9.3950417228006682
 30
0.0
  0
VERTEX
  5
1848
  8
SAPA_PROFIL
 10
90.499999928115074
 20
10.60495827718114
 30
0.0
 42
0.267949192430829
  0
VERTEX
  5
1849
  8
SAPA_PROFIL
 10
90.249999928115059
 20
11.03797097907227
 30
0.0
  0
VERTEX
  5
184A
  8
SAPA_PROFIL
 10
88.499999928115074
 20
12.04833395014793
 30
0.0
 42
-0.2679491924308297
  0
VERTEX
  5
184B
  8
SAPA_PROFIL
 10
87.999999928116949
 20
12.914359353933831
 30
0.0
  0
VERTEX
  5
184C
  8
SAPA_PROFIL
 10
87.999999928114818
 20
14.50000016560193
 30
0.0
  0
VERTEX
  5
184D
  8
SAPA_PROFIL
 10
88.110758891997904
 20
14.499993115811121
 30
0.0
 42
-0.1316363093594264
  0
VERTEX
  5
184E
  8
SAPA_PROFIL
 10
88.260739797044664
 20
14.45980073755416
 30
0.0
  0
VERTEX
  5
184F
  8
SAPA_PROFIL
 10
89.749999928118839
 20
13.599975999985171
 30
0.0
  0
VERTEX
  5
1850
  8
SAPA_PROFIL
 10
90.199999928118842
 20
13.59997599998507
 30
0.0
 42
0.4142135623730951
  0
VERTEX
  5
1851
  8
SAPA_PROFIL
 10
90.499999928118825
 20
13.89997599998507
 30
0.0
  0
VERTEX
  5
1852
  8
SAPA_PROFIL
 10
90.499999928118896
 20
17.499987999985141
 30
0.0
 42
0.4142135623731165
  0
VERTEX
  5
1853
  8
SAPA_PROFIL
 10
90.199999928118885
 20
17.799987999985131
 30
0.0
  0
VERTEX
  5
1854
  8
SAPA_PROFIL
 10
89.749999928118925
 20
17.799975999985481
 30
0.0
  0
VERTEX
  5
1855
  8
SAPA_PROFIL
 10
88.260769443578056
 20
16.940168378850171
 30
0.0
 42
-0.1316524975873824
  0
VERTEX
  5
1856
  8
SAPA_PROFIL
 10
88.110769443578135
 20
16.899975999985529
 30
0.0
  0
VERTEX
  5
1857
  8
SAPA_PROFIL
 10
87.524263996830925
 20
16.89997599998539
 30
0.0
 42
-0.1989123673797351
  0
VERTEX
  5
1858
  8
SAPA_PROFIL
 10
87.312131962474865
 20
16.987843965629509
 30
0.0
  0
VERTEX
  5
1859
  8
SAPA_PROFIL
 10
86.007082709305891
 20
18.292893218798671
 30
0.0
 42
-0.6681786379192719
  0
VERTEX
  5
185A
  8
SAPA_PROFIL
 10
86.714189490492487
 20
19.99999999998516
 30
0.0
  0
VERTEX
  5
185B
  8
SAPA_PROFIL
 10
88.812261846212166
 20
19.99999999998516
 30
0.0
 42
-0.2418327667433408
  0
VERTEX
  5
185C
  8
SAPA_PROFIL
 10
89.056130887163732
 20
19.874722325019398
 30
0.0
 42
0.2418327667449424
  0
VERTEX
  5
185D
  8
SAPA_PROFIL
 10
89.299999928117984
 20
19.749444650053189
 30
0.0
  0
VERTEX
  5
185E
  8
SAPA_PROFIL
 10
90.256130887167899
 20
19.749444650049551
 30
0.0
 42
0.2418327667509086
  0
VERTEX
  5
185F
  8
SAPA_PROFIL
 10
90.499999928115017
 20
19.874722325031971
 30
0.0
 42
-0.2418327667378184
  0
VERTEX
  5
1860
  8
SAPA_PROFIL
 10
90.743868969052286
 20
19.999999999993801
 30
0.0
  0
VERTEX
  5
1861
  8
SAPA_PROFIL
 10
92.556610602811588
 20
20.000000000003642
 30
0.0
 42
-0.1095178116817878
  0
VERTEX
  5
1862
  8
SAPA_PROFIL
 10
93.401847126282576
 20
19.8126155740818
 30
0.0
  0
VERTEX
  5
1863
  8
SAPA_PROFIL
 10
99.031673491414722
 20
17.187384425924389
 30
0.0
 42
0.1095178116855124
  0
VERTEX
  5
1864
  8
SAPA_PROFIL
 10
99.876910014920895
 20
17.0
 30
0.0
  0
VERTEX
  5
1865
  8
SAPA_PROFIL
 10
106.9999999280833
 20
16.999999999985452
 30
0.0
 42
0.414213562373099
  0
VERTEX
  5
1866
  8
SAPA_PROFIL
 10
107.4999999280833
 20
17.500000000003642
 30
0.0
  0
VERTEX
  5
1867
  8
SAPA_PROFIL
 10
107.4999999280833
 20
18.500000000003631
 30
0.0
 42
0.4142135623730951
  0
VERTEX
  5
1868
  8
SAPA_PROFIL
 10
106.9999999280833
 20
19.000000000003642
 30
0.0
  0
VERTEX
  5
1869
  8
SAPA_PROFIL
 10
106.7087120806161
 20
19.000000000003642
 30
0.0
 42
-0.2982166266909471
  0
VERTEX
  5
186A
  8
SAPA_PROFIL
 10
106.25045451112619
 20
19.299999999990739
 30
0.0
 42
-1.5275252316550949
  0
VERTEX
  5
186B
  8
SAPA_PROFIL
 10
111.74954534504521
 20
19.299999999998899
 30
0.0
 42
-0.2982166266892463
  0
VERTEX
  5
186C
  8
SAPA_PROFIL
 10
111.291287775565
 20
19.00000000001296
 30
0.0
  0
VERTEX
  5
186D
  8
SAPA_PROFIL
 10
110.9999999280833
 20
19.000000000003642
 30
0.0
 42
0.4142135623730951
  0
VERTEX
  5
186E
  8
SAPA_PROFIL
 10
110.4999999280833
 20
18.500000000003631
 30
0.0
  0
VERTEX
  5
186F
  8
SAPA_PROFIL
 10
110.4999999280833
 20
17.500000000003642
 30
0.0
 42
0.4142135623730946
  0
VERTEX
  5
1870
  8
SAPA_PROFIL
 10
110.9999999280833
 20
17.000000000003642
 30
0.0
  0
VERTEX
  5
1871
  8
SAPA_PROFIL
 10
129.92308984094299
 20
17.000000000003642
 30
0.0
 42
0.1095178116834561
  0
VERTEX
  5
1872
  8
SAPA_PROFIL
 10
130.7683263644287
 20
17.18738442592506
 30
0.0
  0
SEQEND
  5
1873
  8
SAPA_PROFIL
  0
POLYLINE
  5
F36
  8
SAPA_PROFIL
 66
     1
 10
0.0
 20
0.0
 30
0.0
 70
     1
  0
VERTEX
  5
1874
  8
SAPA_PROFIL
 10
136.4999999277413
 20
2.7999999999992862
 30
0.0
 42
-0.4142135623730916
  0
VERTEX
  5
1875
  8
SAPA_PROFIL
 10
136.19999992773111
 20
2.5000000000000142
 30
0.0
  0
VERTEX
  5
1876
  8
SAPA_PROFIL
 10
93.299999928115355
 20
2.5000000000036371
 30
0.0
 42
-0.4142135623730959
  0
VERTEX
  5
1877
  8
SAPA_PROFIL
 10
92.999999928116054
 20
2.8000000000029099
 30
0.0
  0
VERTEX
  5
1878
  8
SAPA_PROFIL
 10
92.999999928112402
 20
14.3999999999869
 30
0.0
 42
-0.4142135623730951
  0
VERTEX
  5
1879
  8
SAPA_PROFIL
 10
93.299999928115312
 20
14.69999999998981
 30
0.0
  0
VERTEX
  5
187A
  8
SAPA_PROFIL
 10
136.19999992773111
 20
14.70000000001165
 30
0.0
 42
-0.4142135623730946
  0
VERTEX
  5
187B
  8
SAPA_PROFIL
 10
136.4999999277413
 20
14.400000000019659
 30
0.0
  0
SEQEND
  5
187C
  8
SAPA_PROFIL
  0
POLYLINE
  5
F37
  8
SAPA_PROFIL
 62
     4
 66
     1
 10
0.0
 20
0.0
 30
0.0
 70
     1
  0
VERTEX
  5
F38
  8
SAPA_PROFIL
 62
     4
 10
88.124166846888869
 20
3.1994446825304972
 30
0.0
 42
-0.1316524975873876
  0
VERTEX
  5
F39
  8
SAPA_PROFIL
 62
     4
 10
88.274166846888846
 20
3.1592523036658369
 30
0.0
  0
VERTEX
  5
F3A
  8
SAPA_PROFIL
 62
     4
 10
89.763397387734059
 20
2.2994446500235171
 30
0.0
  0
VERTEX
  5
F3B
  8
SAPA_PROFIL
 62
     4
 10
90.199999928112504
 20
2.2994446500234309
 30
0.0
 42
0.4142135623730934
  0
VERTEX
  5
F3C
  8
SAPA_PROFIL
 62
     4
 10
90.449999928112476
 20
2.5494446500234171
 30
0.0
  0
VERTEX
  5
F3D
  8
SAPA_PROFIL
 62
     4
 10
90.449999928112547
 20
6.1494566500234811
 30
0.0
 42
0.4142135623731066
  0
VERTEX
  5
F3E
  8
SAPA_PROFIL
 62
     4
 10
90.199999928112533
 20
6.3994566500234953
 30
0.0
  0
VERTEX
  5
F3F
  8
SAPA_PROFIL
 62
     4
 10
89.763398006534075
 20
6.3994450072881364
 30
0.0
  0
VERTEX
  5
F40
  8
SAPA_PROFIL
 62
     4
 10
88.274166959496384
 20
5.5396370613951396
 30
0.0
 42
-0.131652497587425
  0
VERTEX
  5
F41
  8
SAPA_PROFIL
 62
     4
 10
88.124166959496335
 20
5.4994446825304522
 30
0.0
  0
VERTEX
  5
F42
  8
SAPA_PROFIL
 62
     4
 10
64.875832968245092
 20
5.4994446825304522
 30
0.0
 42
-0.1316524975874248
  0
VERTEX
  5
F43
  8
SAPA_PROFIL
 62
     4
 10
64.725832968245058
 20
5.5396370613951396
 30
0.0
  0
VERTEX
  5
F44
  8
SAPA_PROFIL
 62
     4
 10
63.236601921207367
 20
6.3994450072881364
 30
0.0
  0
VERTEX
  5
F45
  8
SAPA_PROFIL
 62
     4
 10
62.799999999628909
 20
6.3994566500234953
 30
0.0
 42
0.4142135623731049
  0
VERTEX
  5
F46
  8
SAPA_PROFIL
 62
     4
 10
62.549999999628902
 20
6.1494566500234811
 30
0.0
  0
VERTEX
  5
F47
  8
SAPA_PROFIL
 62
     4
 10
62.549999999628952
 20
2.5494446500234171
 30
0.0
 42
0.4142135623730951
  0
VERTEX
  5
F48
  8
SAPA_PROFIL
 62
     4
 10
62.79999999962893
 20
2.2994446500234309
 30
0.0
  0
VERTEX
  5
F49
  8
SAPA_PROFIL
 62
     4
 10
63.236602540007389
 20
2.2994446500235171
 30
0.0
  0
VERTEX
  5
F4A
  8
SAPA_PROFIL
 62
     4
 10
64.72583308085251
 20
3.1592523036657951
 30
0.0
 42
-0.1316524975873866
  0
VERTEX
  5
F4B
  8
SAPA_PROFIL
 62
     4
 10
64.875833080852473
 20
3.1994446825304541
 30
0.0
  0
SEQEND
  5
F4C
  8
SAPA_PROFIL
 62
     4
  0
POLYLINE
  5
F4D
  8
SAPA_PROFIL
 66
     1
 10
0.0
 20
0.0
 30
0.0
 70
     1
  0
VERTEX
  5
187D
  8
SAPA_PROFIL
 10
17.354763476512758
 20
19.46152494752096
 30
0.0
 42
-0.2914734195858593
  0
VERTEX
  5
187E
  8
SAPA_PROFIL
 10
16.199999999997111
 20
21.274140521607482
 30
0.0
  0
VERTEX
  5
187F
  8
SAPA_PROFIL
 10
16.199999999997111
 20
40.999999999985441
 30
0.0
 42
-0.4142135623731033
  0
VERTEX
  5
1880
  8
SAPA_PROFIL
 10
16.6999999999971
 20
41.499999999985441
 30
0.0
  0
VERTEX
  5
1881
  8
SAPA_PROFIL
 10
17.000000000007301
 20
41.499999999985441
 30
0.0
 42
-0.4142135623731035
  0
VERTEX
  5
1882
  8
SAPA_PROFIL
 10
17.500000000007301
 20
40.999999999985441
 30
0.0
  0
VERTEX
  5
1883
  8
SAPA_PROFIL
 10
17.500000000007301
 20
39.699999999986183
 30
0.0
 42
0.4142135623731159
  0
VERTEX
  5
1884
  8
SAPA_PROFIL
 10
17.700000000026211
 20
39.499999999974541
 30
0.0
  0
VERTEX
  5
1885
  8
SAPA_PROFIL
 10
18.000000000007301
 20
39.499999999985448
 30
0.0
 42
0.4142135623731035
  0
VERTEX
  5
1886
  8
SAPA_PROFIL
 10
18.50000000000729
 20
39.999999999985448
 30
0.0
  0
VERTEX
  5
1887
  8
SAPA_PROFIL
 10
18.500000000000028
 20
43.749999999985448
 30
0.0
 42
0.4142135623731035
  0
VERTEX
  5
1888
  8
SAPA_PROFIL
 10
18.000000000000028
 20
44.249999999985441
 30
0.0
  0
VERTEX
  5
1889
  8
SAPA_PROFIL
 10
17.699999999997129
 20
44.249999999985441
 30
0.0
 42
0.4142135623731159
  0
VERTEX
  5
188A
  8
SAPA_PROFIL
 10
17.499999999989111
 20
44.049999999973807
 30
0.0
  0
VERTEX
  5
188B
  8
SAPA_PROFIL
 10
17.500000000000028
 20
43.199999999986169
 30
0.0
 42
-0.4142135623730951
  0
VERTEX
  5
188C
  8
SAPA_PROFIL
 10
17.300000000010211
 20
42.999999999985441
 30
0.0
  0
VERTEX
  5
188D
  8
SAPA_PROFIL
 10
16.300000000010211
 20
42.999999999985441
 30
0.0
 42
-0.4142135623731035
  0
VERTEX
  5
188E
  8
SAPA_PROFIL
 10
15.80000000001022
 20
43.499999999985441
 30
0.0
  0
VERTEX
  5
188F
  8
SAPA_PROFIL
 10
15.80000000001022
 20
49.499999999985448
 30
0.0
 42
-0.4142135623731033
  0
VERTEX
  5
1890
  8
SAPA_PROFIL
 10
16.300000000010211
 20
49.999999999985448
 30
0.0
  0
VERTEX
  5
1891
  8
SAPA_PROFIL
 10
17.300000000010211
 20
49.999999999985448
 30
0.0
 42
-0.4142135623731054
  0
VERTEX
  5
1892
  8
SAPA_PROFIL
 10
17.500000000000028
 20
49.799999999973807
 30
0.0
  0
VERTEX
  5
1893
  8
SAPA_PROFIL
 10
17.500000000007301
 20
48.949999999986169
 30
0.0
 42
0.4142135623731159
  0
VERTEX
  5
1894
  8
SAPA_PROFIL
 10
17.700000000026229
 20
48.749999999974527
 30
0.0
  0
VERTEX
  5
1895
  8
SAPA_PROFIL
 10
18.000000000000028
 20
48.75
 30
0.0
 42
0.4142135623731035
  0
VERTEX
  5
1896
  8
SAPA_PROFIL
 10
18.500000000000028
 20
49.25
 30
0.0
  0
VERTEX
  5
1897
  8
SAPA_PROFIL
 10
18.500000000000028
 20
52.25
 30
0.0
 42
0.4142135623731035
  0
VERTEX
  5
1898
  8
SAPA_PROFIL
 10
18.000000000000028
 20
52.75
 30
0.0
  0
VERTEX
  5
1899
  8
SAPA_PROFIL
 10
17.699999999997129
 20
52.75
 30
0.0
 42
0.4142135623730744
  0
VERTEX
  5
189A
  8
SAPA_PROFIL
 10
17.500000000000028
 20
52.549999999999272
 30
0.0
  0
VERTEX
  5
189B
  8
SAPA_PROFIL
 10
17.500000000010949
 20
51.70000000000072
 30
0.0
 42
-0.4142135623730534
  0
VERTEX
  5
189C
  8
SAPA_PROFIL
 10
17.300000000010211
 20
51.5
 30
0.0
  0
VERTEX
  5
189D
  8
SAPA_PROFIL
 10
16.300000000010211
 20
51.5
 30
0.0
 42
-0.4142135623731035
  0
VERTEX
  5
189E
  8
SAPA_PROFIL
 10
15.80000000001022
 20
52.0
 30
0.0
  0
VERTEX
  5
189F
  8
SAPA_PROFIL
 10
15.80000000001022
 20
58.0
 30
0.0
 42
-0.4142135623730869
  0
VERTEX
  5
18A0
  8
SAPA_PROFIL
 10
16.300000000010211
 20
58.5
 30
0.0
  0
VERTEX
  5
18A1
  8
SAPA_PROFIL
 10
17.300000000010211
 20
58.499999999989079
 30
0.0
 42
-0.4142135623730534
  0
VERTEX
  5
18A2
  8
SAPA_PROFIL
 10
17.500000000000028
 20
58.299999999999272
 30
0.0
  0
VERTEX
  5
18A3
  8
SAPA_PROFIL
 10
17.499999999992749
 20
57.45000000000072
 30
0.0
 42
0.4142135623730744
  0
VERTEX
  5
18A4
  8
SAPA_PROFIL
 10
17.699999999997129
 20
57.25
 30
0.0
  0
VERTEX
  5
18A5
  8
SAPA_PROFIL
 10
18.000000000000028
 20
57.25
 30
0.0
 42
0.4142135623731035
  0
VERTEX
  5
18A6
  8
SAPA_PROFIL
 10
18.500000000000028
 20
57.75
 30
0.0
  0
VERTEX
  5
18A7
  8
SAPA_PROFIL
 10
18.500000000000028
 20
59.5
 30
0.0
 42
0.4142135623731035
  0
VERTEX
  5
18A8
  8
SAPA_PROFIL
 10
18.000000000000028
 20
60.0
 30
0.0
  0
VERTEX
  5
18A9
  8
SAPA_PROFIL
 10
15.50000000000003
 20
60.0
 30
0.0
 42
0.4142135623730951
  0
VERTEX
  5
18AA
  8
SAPA_PROFIL
 10
14.00000000000003
 20
58.5
 30
0.0
  0
VERTEX
  5
18AB
  8
SAPA_PROFIL
 10
14.0
 20
-55.625
 30
0.0
 42
0.9999999999999792
  0
VERTEX
  5
18AC
  8
SAPA_PROFIL
 10
16.75
 20
-55.625
 30
0.0
  0
VERTEX
  5
18AD
  8
SAPA_PROFIL
 10
16.750000000000028
 20
-3.9999999999999849
 30
0.0
 42
-0.4142135623730959
  0
VERTEX
  5
18AE
  8
SAPA_PROFIL
 10
20.750000000000011
 20
0.0000000000000142
 30
0.0
  0
VERTEX
  5
18AF
  8
SAPA_PROFIL
 10
62.256130958679108
 20
-0.0000000000109139
 30
0.0
 42
0.2418327667378102
  0
VERTEX
  5
18B0
  8
SAPA_PROFIL
 10
62.499999999617501
 20
0.1252776749561804
 30
0.0
 42
-0.2418327667509117
  0
VERTEX
  5
18B1
  8
SAPA_PROFIL
 10
62.743869040573458
 20
0.2505553499286179
 30
0.0
  0
VERTEX
  5
18B2
  8
SAPA_PROFIL
 10
63.699999999623373
 20
0.2505553499322559
 30
0.0
 42
-0.2418327667448982
  0
VERTEX
  5
18B3
  8
SAPA_PROFIL
 10
63.943869040578313
 20
0.12527767496384
 30
0.0
 42
0.2418327667448982
  0
VERTEX
  5
18B4
  8
SAPA_PROFIL
 10
64.187738081530881
 20
-0.0000000000033538
 30
0.0
  0
VERTEX
  5
18B5
  8
SAPA_PROFIL
 10
66.28581043724887
 20
-0.0000000000033538
 30
0.0
 42
0.6681786379192726
  0
VERTEX
  5
18B6
  8
SAPA_PROFIL
 10
66.992917218435466
 20
1.707106781183142
 30
0.0
  0
VERTEX
  5
18B7
  8
SAPA_PROFIL
 10
65.687867965266491
 20
3.0121560343523011
 30
0.0
 42
0.1989123673797352
  0
VERTEX
  5
18B8
  8
SAPA_PROFIL
 10
65.475735930910403
 20
3.100023999996437
 30
0.0
  0
VERTEX
  5
18B9
  8
SAPA_PROFIL
 10
64.889230484163221
 20
3.1000239999962811
 30
0.0
 42
0.1316524975873824
  0
VERTEX
  5
18BA
  8
SAPA_PROFIL
 10
64.739230484163301
 20
3.059831621131635
 30
0.0
  0
VERTEX
  5
18BB
  8
SAPA_PROFIL
 10
63.24999999962241
 20
2.2000239999963318
 30
0.0
  0
VERTEX
  5
18BC
  8
SAPA_PROFIL
 10
62.799999999622472
 20
2.2000119999966752
 30
0.0
 42
-0.4142135623731039
  0
VERTEX
  5
18BD
  8
SAPA_PROFIL
 10
62.499999999622467
 20
2.5000119999966719
 30
0.0
  0
VERTEX
  5
18BE
  8
SAPA_PROFIL
 10
62.499999999622517
 20
6.1000239999967363
 30
0.0
 42
-0.4142135623730826
  0
VERTEX
  5
18BF
  8
SAPA_PROFIL
 10
62.799999999622507
 20
6.4000239999967334
 30
0.0
  0
VERTEX
  5
18C0
  8
SAPA_PROFIL
 10
63.24999999962251
 20
6.4000239999966331
 30
0.0
  0
VERTEX
  5
18C1
  8
SAPA_PROFIL
 10
64.739260130696692
 20
5.5401992624276479
 30
0.0
 42
0.1316363093594268
  0
VERTEX
  5
18C2
  8
SAPA_PROFIL
 10
64.889241035743424
 20
5.5000068841706868
 30
0.0
  0
VERTEX
  5
18C3
  8
SAPA_PROFIL
 10
64.999999999626283
 20
5.4999998343798771
 30
0.0
  0
VERTEX
  5
18C4
  8
SAPA_PROFIL
 10
64.999999999626283
 20
7.0856406460516146
 30
0.0
 42
0.2679491924308297
  0
VERTEX
  5
18C5
  8
SAPA_PROFIL
 10
64.499999999626283
 20
7.9516660498302372
 30
0.0
  0
VERTEX
  5
18C6
  8
SAPA_PROFIL
 10
62.749999999625828
 20
8.9620290209087141
 30
0.0
 42
-0.2679491924308301
  0
VERTEX
  5
18C7
  8
SAPA_PROFIL
 10
62.49999999962629
 20
9.3950417228006682
 30
0.0
  0
VERTEX
  5
18C8
  8
SAPA_PROFIL
 10
62.49999999962629
 20
10.60495827718114
 30
0.0
 42
-0.267949192430829
  0
VERTEX
  5
18C9
  8
SAPA_PROFIL
 10
62.749999999626283
 20
11.03797097907227
 30
0.0
  0
VERTEX
  5
18CA
  8
SAPA_PROFIL
 10
64.499999999626283
 20
12.04833395014793
 30
0.0
 42
0.2679491924308297
  0
VERTEX
  5
18CB
  8
SAPA_PROFIL
 10
64.999999999624393
 20
12.914359353933831
 30
0.0
  0
VERTEX
  5
18CC
  8
SAPA_PROFIL
 10
64.999999999626525
 20
14.50000016560193
 30
0.0
  0
VERTEX
  5
18CD
  8
SAPA_PROFIL
 10
64.889241035743424
 20
14.499993115811121
 30
0.0
 42
0.1316363093594264
  0
VERTEX
  5
18CE
  8
SAPA_PROFIL
 10
64.739260130696692
 20
14.45980073755416
 30
0.0
  0
VERTEX
  5
18CF
  8
SAPA_PROFIL
 10
63.24999999962251
 20
13.599975999985171
 30
0.0
  0
VERTEX
  5
18D0
  8
SAPA_PROFIL
 10
62.799999999622507
 20
13.59997599998507
 30
0.0
 42
-0.4142135623730951
  0
VERTEX
  5
18D1
  8
SAPA_PROFIL
 10
62.499999999622517
 20
13.89997599998507
 30
0.0
  0
VERTEX
  5
18D2
  8
SAPA_PROFIL
 10
62.499999999622467
 20
17.499987999985141
 30
0.0
 42
-0.4142135623731165
  0
VERTEX
  5
18D3
  8
SAPA_PROFIL
 10
62.799999999622472
 20
17.799987999985131
 30
0.0
  0
VERTEX
  5
18D4
  8
SAPA_PROFIL
 10
63.24999999962241
 20
17.799975999985481
 30
0.0
  0
VERTEX
  5
18D5
  8
SAPA_PROFIL
 10
64.739230484163301
 20
16.940168378850171
 30
0.0
 42
0.1316524975873824
  0
VERTEX
  5
18D6
  8
SAPA_PROFIL
 10
64.889230484163221
 20
16.899975999985529
 30
0.0
  0
VERTEX
  5
18D7
  8
SAPA_PROFIL
 10
65.475735930910403
 20
16.89997599998539
 30
0.0
 42
0.1989123673797351
  0
VERTEX
  5
18D8
  8
SAPA_PROFIL
 10
65.687867965266491
 20
16.987843965629509
 30
0.0
  0
VERTEX
  5
18D9
  8
SAPA_PROFIL
 10
66.992917218435466
 20
18.292893218798671
 30
0.0
 42
0.6681786379192719
  0
VERTEX
  5
18DA
  8
SAPA_PROFIL
 10
66.28581043724887
 20
19.99999999998516
 30
0.0
  0
VERTEX
  5
18DB
  8
SAPA_PROFIL
 10
64.187738081529176
 20
19.99999999998516
 30
0.0
 42
0.2418327667433408
  0
VERTEX
  5
18DC
  8
SAPA_PROFIL
 10
63.943869040577617
 20
19.874722325019398
 30
0.0
 42
-0.2418327667449424
  0
VERTEX
  5
18DD
  8
SAPA_PROFIL
 10
63.699999999623373
 20
19.749444650053189
 30
0.0
  0
VERTEX
  5
18DE
  8
SAPA_PROFIL
 10
62.743869040573458
 20
19.749444650049551
 30
0.0
 42
-0.2418327667509086
  0
VERTEX
  5
18DF
  8
SAPA_PROFIL
 10
62.49999999962634
 20
19.874722325031971
 30
0.0
 42
0.2418327667378184
  0
VERTEX
  5
18E0
  8
SAPA_PROFIL
 10
62.256130958689049
 20
19.999999999993801
 30
0.0
  0
VERTEX
  5
18E1
  8
SAPA_PROFIL
 10
60.443389324929761
 20
20.000000000003642
 30
0.0
 42
0.1095178116817878
  0
VERTEX
  5
18E2
  8
SAPA_PROFIL
 10
59.598152801458781
 20
19.8126155740818
 30
0.0
  0
VERTEX
  5
18E3
  8
SAPA_PROFIL
 10
53.968326436326628
 20
17.187384425924389
 30
0.0
 42
-0.1095178116855124
  0
VERTEX
  5
18E4
  8
SAPA_PROFIL
 10
53.123089912820461
 20
17.0
 30
0.0
  0
VERTEX
  5
18E5
  8
SAPA_PROFIL
 10
45.999999999658051
 20
16.999999999985452
 30
0.0
 42
-0.414213562373099
  0
VERTEX
  5
18E6
  8
SAPA_PROFIL
 10
45.499999999658051
 20
17.500000000003642
 30
0.0
  0
VERTEX
  5
18E7
  8
SAPA_PROFIL
 10
45.499999999658051
 20
18.500000000003631
 30
0.0
 42
-0.4142135623730951
  0
VERTEX
  5
18E8
  8
SAPA_PROFIL
 10
45.999999999658051
 20
19.000000000003642
 30
0.0
  0
VERTEX
  5
18E9
  8
SAPA_PROFIL
 10
46.291287847125233
 20
19.000000000003642
 30
0.0
 42
0.2982166266909471
  0
VERTEX
  5
18EA
  8
SAPA_PROFIL
 10
46.74954541661517
 20
19.299999999990739
 30
0.0
 42
1.5275252316550949
  0
VERTEX
  5
18EB
  8
SAPA_PROFIL
 10
41.250454582696158
 20
19.299999999998899
 30
0.0
 42
0.2982166266892463
  0
VERTEX
  5
18EC
  8
SAPA_PROFIL
 10
41.708712152176332
 20
19.00000000001296
 30
0.0
  0
VERTEX
  5
18ED
  8
SAPA_PROFIL
 10
41.999999999658058
 20
19.000000000003642
 30
0.0
 42
-0.4142135623730951
  0
VERTEX
  5
18EE
  8
SAPA_PROFIL
 10
42.499999999658058
 20
18.500000000003631
 30
0.0
  0
VERTEX
  5
18EF
  8
SAPA_PROFIL
 10
42.499999999658058
 20
17.500000000003642
 30
0.0
 42
-0.4142135623730946
  0
VERTEX
  5
18F0
  8
SAPA_PROFIL
 10
41.999999999658058
 20
17.000000000003642
 30
0.0
  0
VERTEX
  5
18F1
  8
SAPA_PROFIL
 10
23.076910086798321
 20
17.000000000003642
 30
0.0
 42
-0.1095178116834561
  0
VERTEX
  5
18F2
  8
SAPA_PROFIL
 10
22.23167356331259
 20
17.18738442592506
 30
0.0
  0
SEQEND
  5
18F3
  8
SAPA_PROFIL
  0
POLYLINE
  5
F4E
  8
SAPA_PROFIL
 66
     1
 10
0.0
 20
0.0
 30
0.0
 70
     1
  0
VERTEX
  5
18F4
  8
SAPA_PROFIL
 10
16.500000000000021
 20
2.7999999999992862
 30
0.0
 42
0.4142135623730916
  0
VERTEX
  5
18F5
  8
SAPA_PROFIL
 10
16.800000000010211
 20
2.5000000000000142
 30
0.0
  0
VERTEX
  5
18F6
  8
SAPA_PROFIL
 10
59.699999999626023
 20
2.5000000000036371
 30
0.0
 42
0.4142135623730959
  0
VERTEX
  5
18F7
  8
SAPA_PROFIL
 10
59.999999999625288
 20
2.8000000000029099
 30
0.0
  0
VERTEX
  5
18F8
  8
SAPA_PROFIL
 10
59.999999999628947
 20
14.3999999999869
 30
0.0
 42
0.4142135623730951
  0
VERTEX
  5
18F9
  8
SAPA_PROFIL
 10
59.699999999626037
 20
14.69999999998981
 30
0.0
  0
VERTEX
  5
18FA
  8
SAPA_PROFIL
 10
16.800000000010211
 20
14.70000000001165
 30
0.0
 42
0.4142135623730946
  0
VERTEX
  5
18FB
  8
SAPA_PROFIL
 10
16.500000000000021
 20
14.400000000019659
 30
0.0
  0
SEQEND
  5
18FC
  8
SAPA_PROFIL
  0
POLYLINE
  5
F4F
  8
SAPA_PROFIL
 62
     4
 66
     1
 10
0.0
 20
0.0
 30
-0.2
 70
     1
1001
RC_PROFILE
1002
{
1000
Region
1002
}
  0
VERTEX
  5
18FD
  8
SAPA_PROFIL
 62
     4
 10
73.999999931237681
 20
43.297179717640567
 30
-0.2
  0
VERTEX
  5
18FE
  8
SAPA_PROFIL
 62
     4
 10
73.999999931237681
 20
57.497179717642659
 30
-0.2
 42
-0.4142135623720297
  0
VERTEX
  5
18FF
  8
SAPA_PROFIL
 62
     4
 10
74.499999931235863
 20
57.997179717642659
 30
-0.2
  0
VERTEX
  5
1900
  8
SAPA_PROFIL
 62
     4
 10
78.499999931857033
 20
57.997179717645622
 30
-0.2
 42
-0.4142135623730951
  0
VERTEX
  5
1901
  8
SAPA_PROFIL
 62
     4
 10
78.999999931857047
 20
57.497179717645622
 30
-0.2
  0
VERTEX
  5
1902
  8
SAPA_PROFIL
 62
     4
 10
78.999999931864323
 20
43.297179717641697
 30
-0.2
 42
-0.414213562373761
  0
VERTEX
  5
1903
  8
SAPA_PROFIL
 62
     4
 10
78.499999931864323
 20
42.797179717640567
 30
-0.2
  0
VERTEX
  5
1904
  8
SAPA_PROFIL
 62
     4
 10
74.499999931237681
 20
42.797179717640567
 30
-0.2
 42
-0.4142135623730951
  0
SEQEND
  5
1905
  8
SAPA_PROFIL
 62
     4
  0
POLYLINE
  5
F50
  8
SAPA_PROFIL
 62
     4
 66
     1
 10
0.0
 20
0.0
 30
0.0
1001
GENIUS_GENOBJ-N-FIL_13
1002
{
1000
OWNER
1000
GEN
1002
}
1001
GENIUS_GENODEF_13
1002
{
1000
HIER
1070
     0
1002
}
1002
{
1000
MANEDIT
1070
     0
1002
}
1002
{
1000
NOSEL
1070
     0
1002
}
1002
{
1000
BEHIND
1070
     0
1002
}
1002
{
1000
OTHER
1070
     0
1002
}
1002
{
1000
REACTOR
1002
}
  0
VERTEX
  5
1906
  8
SAPA_PROFIL
 62
     4
 10
87.42274000125613
 20
16.533706161231521
 30
0.0
 42
0.131652497587489
  0
VERTEX
  5
1907
  8
SAPA_PROFIL
 62
     4
 10
88.022740001256565
 20
16.69447567669026
 30
0.0
  0
VERTEX
  5
1908
  8
SAPA_PROFIL
 62
     4
 10
89.763397941900095
 20
17.69944500728813
 30
0.0
  0
VERTEX
  5
1909
  8
SAPA_PROFIL
 62
     4
 10
90.199999863478567
 20
17.699456650023489
 30
0.0
 42
-0.4142135623731046
  0
VERTEX
  5
190A
  8
SAPA_PROFIL
 62
     4
 10
90.449999863478567
 20
17.449456650023489
 30
0.0
  0
VERTEX
  5
190B
  8
SAPA_PROFIL
 62
     4
 10
90.449999863478524
 20
13.849444650023431
 30
0.0
 42
-0.4142135623730957
  0
VERTEX
  5
190C
  8
SAPA_PROFIL
 62
     4
 10
90.199999863478524
 20
13.599444650023431
 30
0.0
  0
VERTEX
  5
190D
  8
SAPA_PROFIL
 62
     4
 10
89.763397323100065
 20
13.59944465002353
 30
0.0
  0
VERTEX
  5
190E
  8
SAPA_PROFIL
 62
     4
 10
88.077259725699193
 20
14.57293664577359
 30
0.0
 42
0.1316524975873848
  0
VERTEX
  5
190F
  8
SAPA_PROFIL
 62
     4
 10
87.477259725699241
 20
14.73370616123225
 30
0.0
  0
VERTEX
  5
1910
  8
SAPA_PROFIL
 62
     4
 10
65.522740137408221
 20
14.73370616123225
 30
0.0
 42
0.1316524975873846
  0
VERTEX
  5
1911
  8
SAPA_PROFIL
 62
     4
 10
64.922740137408269
 20
14.57293664577359
 30
0.0
  0
VERTEX
  5
1912
  8
SAPA_PROFIL
 62
     4
 10
63.236602540007389
 20
13.59944465002353
 30
0.0
  0
VERTEX
  5
1913
  8
SAPA_PROFIL
 62
     4
 10
62.79999999962893
 20
13.599444650023431
 30
0.0
 42
-0.4142135623730951
  0
VERTEX
  5
1914
  8
SAPA_PROFIL
 62
     4
 10
62.549999999628952
 20
13.849444650023431
 30
0.0
  0
VERTEX
  5
1915
  8
SAPA_PROFIL
 62
     4
 10
62.549999999628902
 20
17.449456650023489
 30
0.0
 42
-0.4142135623731046
  0
VERTEX
  5
1916
  8
SAPA_PROFIL
 62
     4
 10
62.799999999628909
 20
17.699456650023489
 30
0.0
  0
VERTEX
  5
1917
  8
SAPA_PROFIL
 62
     4
 10
63.236601921207367
 20
17.69944500728813
 30
0.0
  0
VERTEX
  5
1918
  8
SAPA_PROFIL
 62
     4
 10
64.977259861850911
 20
16.69447567669026
 30
0.0
 42
0.1316524975874892
  0
VERTEX
  5
1919
  8
SAPA_PROFIL
 62
     4
 10
65.577259861851331
 20
16.533706161231521
 30
0.0
  0
VERTEX
  5
191A
  8
SAPA_PROFIL
 62
     4
 10
68.299999999379935
 20
16.5337061612322
 30
0.0
 42
0.414213562374094
  0
VERTEX
  5
191B
  8
SAPA_PROFIL
 62
     4
 10
69.499999999378844
 20
17.733706161236341
 30
0.0
  0
VERTEX
  5
191C
  8
SAPA_PROFIL
 62
     4
 10
69.499999999289713
 20
43.531441188158169
 30
0.0
 42
-0.4142135623730951
  0
VERTEX
  5
191D
  8
SAPA_PROFIL
 62
     4
 10
69.999999999289713
 20
44.031441188158162
 30
0.0
  0
VERTEX
  5
191E
  8
SAPA_PROFIL
 62
     4
 10
70.199999999289531
 20
44.031441188158396
 30
0.0
 42
-0.4142135623730951
  0
VERTEX
  5
191F
  8
SAPA_PROFIL
 62
     4
 10
70.499999999289713
 20
43.731441188158207
 30
0.0
  0
VERTEX
  5
1920
  8
SAPA_PROFIL
 62
     4
 10
70.499999999289713
 20
43.081441188156298
 30
0.0
 42
0.4142135623730951
  0
VERTEX
  5
1921
  8
SAPA_PROFIL
 62
     4
 10
70.799999999290804
 20
42.781441188156343
 30
0.0
  0
VERTEX
  5
1922
  8
SAPA_PROFIL
 62
     4
 10
71.699999999286803
 20
42.78144118815726
 30
0.0
 42
0.4142135623730951
  0
VERTEX
  5
1923
  8
SAPA_PROFIL
 62
     4
 10
72.199999999286803
 20
43.28144118815635
 30
0.0
  0
VERTEX
  5
1924
  8
SAPA_PROFIL
 62
     4
 10
72.199999999286803
 20
49.281441188158169
 30
0.0
 42
0.4142135623730951
  0
VERTEX
  5
1925
  8
SAPA_PROFIL
 62
     4
 10
71.699999999286803
 20
49.781441188158169
 30
0.0
  0
VERTEX
  5
1926
  8
SAPA_PROFIL
 62
     4
 10
70.799999999288076
 20
49.781441188158169
 30
0.0
 42
0.4142135623710974
  0
VERTEX
  5
1927
  8
SAPA_PROFIL
 62
     4
 10
70.499999999288804
 20
49.481441188160261
 30
0.0
  0
VERTEX
  5
1928
  8
SAPA_PROFIL
 62
     4
 10
70.499999999284256
 20
48.831441188158351
 30
0.0
 42
-0.4142135623730951
  0
VERTEX
  5
1929
  8
SAPA_PROFIL
 62
     4
 10
70.199999999282255
 20
48.531441188160223
 30
0.0
  0
VERTEX
  5
192A
  8
SAPA_PROFIL
 62
     4
 10
69.999999999289713
 20
48.531441188161352
 30
0.0
 42
-0.4142135623730951
  0
VERTEX
  5
192B
  8
SAPA_PROFIL
 62
     4
 10
69.499999999289713
 20
49.031441188161352
 30
0.0
  0
VERTEX
  5
192C
  8
SAPA_PROFIL
 62
     4
 10
69.499999999289713
 20
52.031441188161352
 30
0.0
 42
-0.4142135623730951
  0
VERTEX
  5
192D
  8
SAPA_PROFIL
 62
     4
 10
69.999999999289713
 20
52.531441188161352
 30
0.0
  0
VERTEX
  5
192E
  8
SAPA_PROFIL
 62
     4
 10
70.199999999289531
 20
52.531441188161352
 30
0.0
 42
-0.4142135623730951
  0
VERTEX
  5
192F
  8
SAPA_PROFIL
 62
     4
 10
70.499999999289713
 20
52.23144118816117
 30
0.0
  0
VERTEX
  5
1930
  8
SAPA_PROFIL
 62
     4
 10
70.499999999289713
 20
51.581441188161307
 30
0.0
 42
0.4142135623730951
  0
VERTEX
  5
1931
  8
SAPA_PROFIL
 62
     4
 10
70.799999999290804
 20
51.281441188161352
 30
0.0
  0
VERTEX
  5
1932
  8
SAPA_PROFIL
 62
     4
 10
71.699999999286803
 20
51.281441188161352
 30
0.0
 42
0.4142135623730951
  0
VERTEX
  5
1933
  8
SAPA_PROFIL
 62
     4
 10
72.199999999286803
 20
51.781441188161352
 30
0.0
  0
VERTEX
  5
1934
  8
SAPA_PROFIL
 62
     4
 10
72.199999999286803
 20
57.781441188161352
 30
0.0
 42
0.4142135623730951
  0
VERTEX
  5
1935
  8
SAPA_PROFIL
 62
     4
 10
71.699999999286803
 20
58.281441188161352
 30
0.0
  0
VERTEX
  5
1936
  8
SAPA_PROFIL
 62
     4
 10
70.799999999290804
 20
58.281441188161352
 30
0.0
 42
0.4142135623730951
  0
VERTEX
  5
1937
  8
SAPA_PROFIL
 62
     4
 10
70.499999999289713
 20
57.98144118816117
 30
0.0
  0
VERTEX
  5
1938
  8
SAPA_PROFIL
 62
     4
 10
70.499999999289713
 20
57.331441188161307
 30
0.0
 42
-0.4142135623730949
  0
VERTEX
  5
1939
  8
SAPA_PROFIL
 62
     4
 10
70.199999999289531
 20
57.031441188161352
 30
0.0
  0
VERTEX
  5
193A
  8
SAPA_PROFIL
 62
     4
 10
69.999999999289713
 20
57.031441188161352
 30
0.0
 42
-0.4142135623730951
  0
VERTEX
  5
193B
  8
SAPA_PROFIL
 62
     4
 10
69.499999999289713
 20
57.531441188161352
 30
0.0
  0
VERTEX
  5
193C
  8
SAPA_PROFIL
 62
     4
 10
69.499999999290623
 20
59.281441188161352
 30
0.0
 42
-0.4142135623726955
  0
VERTEX
  5
193D
  8
SAPA_PROFIL
 62
     4
 10
69.999999999624393
 20
59.781441188161352
 30
0.0
  0
VERTEX
  5
193E
  8
SAPA_PROFIL
 62
     4
 10
82.999999999631669
 20
59.78144118816158
 30
0.0
 42
-0.4142135623732284
  0
VERTEX
  5
193F
  8
SAPA_PROFIL
 62
     4
 10
83.499999999908169
 20
59.281441188163171
 30
0.0
  0
VERTEX
  5
1940
  8
SAPA_PROFIL
 62
     4
 10
83.499999999908169
 20
57.531441188163171
 30
0.0
 42
-0.4142135623730951
  0
VERTEX
  5
1941
  8
SAPA_PROFIL
 62
     4
 10
82.999999999908155
 20
57.031441188163171
 30
0.0
  0
VERTEX
  5
1942
  8
SAPA_PROFIL
 62
     4
 10
82.799999999908351
 20
57.031441188163171
 30
0.0
 42
-0.4142135623730951
  0
VERTEX
  5
1943
  8
SAPA_PROFIL
 62
     4
 10
82.499999999908184
 20
57.331441188163353
 30
0.0
  0
VERTEX
  5
1944
  8
SAPA_PROFIL
 62
     4
 10
82.499999999908184
 20
57.98144118816321
 30
0.0
 42
0.4142135623730951
  0
VERTEX
  5
1945
  8
SAPA_PROFIL
 62
     4
 10
82.199999999908897
 20
58.281441188163171
 30
0.0
  0
VERTEX
  5
1946
  8
SAPA_PROFIL
 62
     4
 10
81.29999999991108
 20
58.281441188163171
 30
0.0
 42
0.4142135623730951
  0
VERTEX
  5
1947
  8
SAPA_PROFIL
 62
     4
 10
80.799999999911066
 20
57.781441188163171
 30
0.0
  0
VERTEX
  5
1948
  8
SAPA_PROFIL
 62
     4
 10
80.799999999911066
 20
51.781441188163171
 30
0.0
 42
0.4142135623730951
  0
VERTEX
  5
1949
  8
SAPA_PROFIL
 62
     4
 10
81.29999999991108
 20
51.281441188163171
 30
0.0
  0
VERTEX
  5
194A
  8
SAPA_PROFIL
 62
     4
 10
82.199999999908897
 20
51.281441188163171
 30
0.0
 42
0.4142135623730953
  0
VERTEX
  5
194B
  8
SAPA_PROFIL
 62
     4
 10
82.499999999908184
 20
51.581441188163353
 30
0.0
  0
VERTEX
  5
194C
  8
SAPA_PROFIL
 62
     4
 10
82.499999999908184
 20
52.23144118816321
 30
0.0
 42
-0.4142135623730951
  0
VERTEX
  5
194D
  8
SAPA_PROFIL
 62
     4
 10
82.799999999908351
 20
52.531441188163171
 30
0.0
  0
VERTEX
  5
194E
  8
SAPA_PROFIL
 62
     4
 10
82.999999999908155
 20
52.531441188163171
 30
0.0
 42
-0.4142135623730951
  0
VERTEX
  5
194F
  8
SAPA_PROFIL
 62
     4
 10
83.499999999908169
 20
52.031441188163171
 30
0.0
  0
VERTEX
  5
1950
  8
SAPA_PROFIL
 62
     4
 10
83.499999999908169
 20
49.031441188163171
 30
0.0
 42
-0.4142135623730951
  0
VERTEX
  5
1951
  8
SAPA_PROFIL
 62
     4
 10
82.999999999908155
 20
48.531441188163171
 30
0.0
  0
VERTEX
  5
1952
  8
SAPA_PROFIL
 62
     4
 10
82.799999999915627
 20
48.531441188162027
 30
0.0
 42
-0.414213562372873
  0
VERTEX
  5
1953
  8
SAPA_PROFIL
 62
     4
 10
82.499999999913626
 20
48.83144118816017
 30
0.0
  0
VERTEX
  5
1954
  8
SAPA_PROFIL
 62
     4
 10
82.499999999910884
 20
49.48144118816117
 30
0.0
 42
0.4142135623722071
  0
VERTEX
  5
1955
  8
SAPA_PROFIL
 62
     4
 10
82.199999999909807
 20
49.781441188160223
 30
0.0
  0
VERTEX
  5
1956
  8
SAPA_PROFIL
 62
     4
 10
81.29999999991108
 20
49.781441188160223
 30
0.0
 42
0.4142135623730951
  0
VERTEX
  5
1957
  8
SAPA_PROFIL
 62
     4
 10
80.799999999911066
 20
49.281441188160208
 30
0.0
  0
VERTEX
  5
1958
  8
SAPA_PROFIL
 62
     4
 10
80.799999999918356
 20
43.281441188158162
 30
0.0
 42
0.4142135623730951
  0
VERTEX
  5
1959
  8
SAPA_PROFIL
 62
     4
 10
81.299999999918356
 20
42.781441188158162
 30
0.0
  0
VERTEX
  5
195A
  8
SAPA_PROFIL
 62
     4
 10
82.199999999915264
 20
42.781441188158162
 30
0.0
 42
0.4142135623730951
  0
VERTEX
  5
195B
  8
SAPA_PROFIL
 62
     4
 10
82.499999999915445
 20
43.081441188158337
 30
0.0
  0
VERTEX
  5
195C
  8
SAPA_PROFIL
 62
     4
 10
82.499999999915445
 20
43.731441188160261
 30
0.0
 42
-0.4142135623730951
  0
VERTEX
  5
195D
  8
SAPA_PROFIL
 62
     4
 10
82.799999999915627
 20
44.031441188160223
 30
0.0
  0
VERTEX
  5
195E
  8
SAPA_PROFIL
 62
     4
 10
82.999999999915445
 20
44.031441188160223
 30
0.0
 42
-0.4142135623730951
  0
VERTEX
  5
195F
  8
SAPA_PROFIL
 62
     4
 10
83.499999999915445
 20
43.531441188160208
 30
0.0
  0
VERTEX
  5
1960
  8
SAPA_PROFIL
 62
     4
 10
83.499999999833577
 20
17.733706161236341
 30
0.0
 42
0.414213562374094
  0
VERTEX
  5
1961
  8
SAPA_PROFIL
 62
     4
 10
84.699999999833409
 20
16.533706161232431
 30
0.0
  0
VERTEX
  5
1962
  8
SAPA_PROFIL
 62
     4
 10
87.428481349913483
 20
16.5337061612322
 30
0.0
  0
SEQEND
  5
1963
  8
SAPA_PROFIL
 62
     4
  0
POLYLINE
  5
F51
  8
SAPA_PROFIL
 62
     4
 66
     1
 10
0.0
 20
0.0
 30
0.0
 70
     1
  0
VERTEX
  5
1964
  8
SAPA_PROFIL
 62
     4
 10
79.799999931868143
 20
41.497179717642673
 30
0.0
  0
VERTEX
  5
1965
  8
SAPA_PROFIL
 62
     4
 10
72.299999931309713
 20
41.497179717638573
 30
0.0
 42
0.4142135623730951
  0
VERTEX
  5
1966
  8
SAPA_PROFIL
 62
     4
 10
71.299999931309713
 20
40.497179717638573
 30
0.0
  0
VERTEX
  5
1967
  8
SAPA_PROFIL
 62
     4
 10
71.299999931294252
 20
17.34944469071479
 30
0.0
 42
0.4142135623730949
  0
VERTEX
  5
1968
  8
SAPA_PROFIL
 62
     4
 10
72.099999931294434
 20
16.549444690714608
 30
0.0
  0
VERTEX
  5
1969
  8
SAPA_PROFIL
 62
     4
 10
80.899999931813028
 20
16.549444690714608
 30
0.0
 42
0.414213562373428
  0
VERTEX
  5
196A
  8
SAPA_PROFIL
 62
     4
 10
81.699999931813196
 20
17.3494446907157
 30
0.0
  0
VERTEX
  5
196B
  8
SAPA_PROFIL
 62
     4
 10
81.699999931789563
 20
40.497179717642659
 30
0.0
 42
0.4142135623724957
  0
VERTEX
  5
196C
  8
SAPA_PROFIL
 62
     4
 10
80.699999931790472
 20
41.497179717640613
 30
0.0
  0
SEQEND
  5
196D
  8
SAPA_PROFIL
 62
     4
  0
LINE
  5
FA1
  8
SAPA_GLAS
 10
65.749999999845471
 20
69.799999999895689
 30
0.0
 11
64.999999999832312
 21
69.799999999895689
 31
0.0
  0
LINE
  5
FA2
  8
SAPA_GLAS
 10
64.99999999983234
 20
56.999999999884757
 30
0.0
 11
65.749999999831459
 21
56.999999999883961
 31
0.0
  0
LINE
  5
FA3
  8
SAPA_GLAS
 10
22.249999999818879
 20
69.799999999895689
 30
0.0
 11
22.999999999832031
 21
69.799999999895689
 31
0.0
  0
LINE
  5
FA4
  8
SAPA_GLAS
 10
22.99999999983201
 20
56.999999999884757
 30
0.0
 11
22.249999999832902
 21
56.999999999883961
 31
0.0
  0
INSERT
  5
FA5
  8
SAPA_GLAS
  6
CONTINUOUS
  2
*X78
 10
0.0
 20
0.0
 30
0.0
1001
ACAD
1000
HATCH
1002
{
1070
    19
1000
ANSI37
1040
0.25
1040
1.5707963267948959
1000
R14_HATCH_DATA
1000
FA5
1011
1.0
1021
-9.6416282655539417E+061
1031
-0.0
1021
0.0
1031
0.0
1011
0.0
1021
-9.6416282655539417E+061
1031
-0.0
1021
1.0
1031
0.0
1011
0.0
1021
-9.6416282655539417E+061
1031
-0.0
1021
0.0
1031
1.0
1040
0.0
1010
0.0
1020
0.0
1030
1.0
1000
ANSI37
1070
     0
1070
     0
1071
        1
1071
        7
1070
     0
1070
     1
1071
        4
1040
65.75000000018494
1040
69.799999999895704
1040
64.99999999983234
1040
69.799999999895704
1040
64.99999999983234
1040
56.999999999884757
1040
65.7500000001709
1040
56.99999999988394
1071
        0
1070
     0
1070
     1
1040
1.5707963267948959
1040
0.25
1070
     0
1070
     2
1040
2.3561944901923439
1040
67.499999999807244
1040
46.924144147585487
1040
-0.5612660075668221
1040
-0.5612660075668221
1070
     0
1040
3.926990816987241
1040
67.499999999807244
1040
46.924144147585487
1040
0.5612660075668221
1040
-0.5612660075668221
1070
     0
1040
0.0325758689756538
1071
        1
1040
65.408318584590006
1040
62.239910499685671
1040
0.0
1002
}
  0
INSERT
  5
FA6
  8
SAPA_GLAS
  6
CONTINUOUS
  2
*X79
 10
0.0
 20
0.0
 30
0.0
1001
ACAD
1000
HATCH
1002
{
1070
    19
1000
ANSI37
1040
0.25
1040
1.5707963267948959
1000
R14_HATCH_DATA
1000
FA6
1011
1.0
1021
-9.6416282655539417E+061
1031
-0.0
1021
0.0
1031
0.0
1011
0.0
1021
-9.6416282655539417E+061
1031
-0.0
1021
1.0
1031
0.0
1011
0.0
1021
-9.6416282655539417E+061
1031
-0.0
1021
0.0
1031
1.0
1040
0.0
1010
0.0
1020
0.0
1030
1.0
1000
ANSI37
1070
     0
1070
     0
1071
        1
1071
        7
1070
     0
1070
     1
1071
        4
1040
22.999999999832031
1040
69.799999999895689
1040
22.24999999981889
1040
69.799999999895689
1040
22.249999999832902
1040
56.999999999883961
1040
22.99999999983201
1040
56.999999999884757
1071
        0
1070
     0
1070
     1
1040
1.5707963267948959
1040
0.25
1070
     0
1070
     2
1040
2.3561944901923439
1040
67.499999999807244
1040
46.924144147585487
1040
-0.5612660075668221
1040
-0.5612660075668221
1070
     0
1040
3.926990816987241
1040
67.499999999807244
1040
46.924144147585487
1040
0.5612660075668221
1040
-0.5612660075668221
1070
     0
1040
0.0230646099693014
1071
        1
1040
22.65231435713936
1040
60.86842280459895
1040
0.0
1002
}
  0
POLYLINE
  5
FA7
  8
SAPA_GLAS
 66
     1
 10
0.0
 20
0.0
 30
0.0
  0
VERTEX
  5
1A1A
  8
SAPA_GLAS
 10
64.99999999983234
 20
88.999999999884736
 30
0.0
  0
VERTEX
  5
1A1B
  8
SAPA_GLAS
 10
64.99999999983234
 20
56.999999999884743
 30
0.0
  0
VERTEX
  5
1A1C
  8
SAPA_GLAS
 10
58.99999999983234
 20
56.999999999884743
 30
0.0
  0
VERTEX
  5
1A1D
  8
SAPA_GLAS
 10
58.99999999983234
 20
88.999999999884736
 30
0.0
  0
SEQEND
  5
1A1E
  8
SAPA_GLAS
  0
POLYLINE
  5
FA8
  8
SAPA_GLAS
 66
     1
 10
0.0
 20
0.0
 30
0.0
  0
VERTEX
  5
1A1F
  8
SAPA_GLAS
 10
46.999999999832177
 20
66.999999999884764
 30
0.0
  0
VERTEX
  5
1A20
  8
SAPA_GLAS
 10
58.99999999983217
 20
66.99999999988475
 30
0.0
  0
VERTEX
  5
1A21
  8
SAPA_GLAS
 10
58.99999999983217
 20
56.999999999884743
 30
0.0
  0
VERTEX
  5
1A22
  8
SAPA_GLAS
 10
46.99999999983217
 20
56.999999999884757
 30
0.0
  0
VERTEX
  5
1A23
  8
SAPA_GLAS
 10
46.999999999832177
 20
66.999999999884764
 30
0.0
  0
SEQEND
  5
1A24
  8
SAPA_GLAS
  0
POLYLINE
  5
FA9
  8
SAPA_GLAS
 66
     1
 10
0.0
 20
0.0
 30
0.0
  0
VERTEX
  5
1A25
  8
SAPA_GLAS
 10
46.999999999832177
 20
88.99999999988475
 30
0.0
  0
VERTEX
  5
1A26
  8
SAPA_GLAS
 10
46.999999999832177
 20
56.99999999988475
 30
0.0
  0
VERTEX
  5
1A27
  8
SAPA_GLAS
 10
40.99999999983217
 20
56.99999999988475
 30
0.0
  0
VERTEX
  5
1A28
  8
SAPA_GLAS
 10
40.99999999983217
 20
88.99999999988475
 30
0.0
  0
SEQEND
  5
1A29
  8
SAPA_GLAS
  0
POLYLINE
  5
FAA
  8
SAPA_GLAS
 66
     1
 10
0.0
 20
0.0
 30
0.0
  0
VERTEX
  5
1A2A
  8
SAPA_GLAS
 10
28.999999999832021
 20
66.999999999884764
 30
0.0
  0
VERTEX
  5
1A2B
  8
SAPA_GLAS
 10
40.999999999832013
 20
66.999999999884764
 30
0.0
  0
VERTEX
  5
1A2C
  8
SAPA_GLAS
 10
40.999999999832013
 20
56.99999999988475
 30
0.0
  0
VERTEX
  5
1A2D
  8
SAPA_GLAS
 10
28.99999999983201
 20
56.999999999884771
 30
0.0
  0
VERTEX
  5
1A2E
  8
SAPA_GLAS
 10
28.999999999832021
 20
66.999999999884764
 30
0.0
  0
SEQEND
  5
1A2F
  8
SAPA_GLAS
  0
POLYLINE
  5
FAB
  8
SAPA_GLAS
 66
     1
 10
0.0
 20
0.0
 30
0.0
  0
VERTEX
  5
1A30
  8
SAPA_GLAS
 10
22.999999999832031
 20
88.999999999884764
 30
0.0
  0
VERTEX
  5
1A31
  8
SAPA_GLAS
 10
22.99999999983201
 20
56.999999999884771
 30
0.0
  0
VERTEX
  5
1A32
  8
SAPA_GLAS
 10
28.99999999983201
 20
56.999999999884771
 30
0.0
  0
VERTEX
  5
1A33
  8
SAPA_GLAS
 10
28.999999999832031
 20
88.999999999884764
 30
0.0
  0
SEQEND
  5
1A34
  8
SAPA_GLAS
  0
POLYLINE
  5
FAC
  8
SAPA_GLAS
 66
     1
 10
0.0
 20
0.0
 30
0.0
 70
     1
  0
VERTEX
  5
1A35
  8
SAPA_GLAS
 10
22.99999999983218
 20
56.999999999884757
 30
0.0
  0
VERTEX
  5
1A36
  8
SAPA_GLAS
 10
64.999999999832156
 20
56.999999999884743
 30
0.0
  0
VERTEX
  5
1A37
  8
SAPA_GLAS
 10
64.999999999839446
 20
54.999999999986599
 30
0.0
  0
VERTEX
  5
1A38
  8
SAPA_GLAS
 10
55.999999999832177
 20
54.999999999986628
 30
0.0
  0
VERTEX
  5
1A39
  8
SAPA_GLAS
 10
55.999999999832177
 20
52.999999999986628
 30
0.0
  0
VERTEX
  5
1A3A
  8
SAPA_GLAS
 10
31.99999999983218
 20
52.999999999986628
 30
0.0
  0
VERTEX
  5
1A3B
  8
SAPA_GLAS
 10
31.99999999983218
 20
54.999999999986628
 30
0.0
  0
VERTEX
  5
1A3C
  8
SAPA_GLAS
 10
22.99999999983218
 20
54.999999999986628
 30
0.0
  0
SEQEND
  5
1A3D
  8
SAPA_GLAS
  0
POLYLINE
  5
FD1
  8
SAPA_FOGBAND
 66
     1
 10
0.0
 20
0.0
 30
0.0
 70
     1
  0
VERTEX
  5
1ADE
  8
SAPA_FOGBAND
 10
16.250000000010221
 20
49.649999999982533
 30
0.0
  0
VERTEX
  5
1ADF
  8
SAPA_FOGBAND
 10
17.0500000000104
 20
49.649999999982533
 30
0.0
  0
VERTEX
  5
1AE0
  8
SAPA_FOGBAND
 10
17.0500000000104
 20
43.34999999998545
 30
0.0
  0
VERTEX
  5
1AE1
  8
SAPA_FOGBAND
 10
16.250000000010221
 20
43.34999999998545
 30
0.0
  0
SEQEND
  5
1AE2
  8
SAPA_FOGBAND
  0
POLYLINE
  5
FD2
  8
SAPA_FOGBAND
 66
     1
 10
0.0
 20
0.0
 30
0.0
  0
VERTEX
  5
1AE3
  8
SAPA_FOGBAND
 10
17.0500000000104
 20
44.927310396842941
 30
0.0
  0
VERTEX
  5
1AE4
  8
SAPA_FOGBAND
 10
20.500000000010221
 20
43.801863799527027
 30
0.0
  0
VERTEX
  5
1AE5
  8
SAPA_FOGBAND
 10
20.500000000010221
 20
46.240001846075558
 30
0.0
  0
VERTEX
  5
1AE6
  8
SAPA_FOGBAND
 10
17.0500000000104
 20
46.349999999982529
 30
0.0
  0
SEQEND
  5
1AE7
  8
SAPA_FOGBAND
  0
POLYLINE
  5
FD3
  8
SAPA_FOGBAND
 66
     1
 10
0.0
 20
0.0
 30
0.0
  0
VERTEX
  5
1AE8
  8
SAPA_FOGBAND
 10
17.0500000000104
 20
46.424999999983257
 30
0.0
  0
VERTEX
  5
1AE9
  8
SAPA_FOGBAND
 10
20.500000000010221
 20
46.424999999986539
 30
0.0
  0
VERTEX
  5
1AEA
  8
SAPA_FOGBAND
 10
20.500000000010221
 20
46.574999999984719
 30
0.0
  0
VERTEX
  5
1AEB
  8
SAPA_FOGBAND
 10
17.0500000000104
 20
46.574999999984719
 30
0.0
  0
SEQEND
  5
1AEC
  8
SAPA_FOGBAND
  0
POLYLINE
  5
FD4
  8
SAPA_FOGBAND
 66
     1
 10
0.0
 20
0.0
 30
0.0
  0
VERTEX
  5
1AED
  8
SAPA_FOGBAND
 10
17.0500000000104
 20
46.649999999985447
 30
0.0
  0
VERTEX
  5
1AEE
  8
SAPA_FOGBAND
 10
20.500000000010221
 20
46.759997385167694
 30
0.0
  0
VERTEX
  5
1AEF
  8
SAPA_FOGBAND
 10
20.500000000010221
 20
49.198090725589857
 30
0.0
  0
VERTEX
  5
1AF0
  8
SAPA_FOGBAND
 10
17.0500000000104
 20
48.072689603125028
 30
0.0
  0
SEQEND
  5
1AF1
  8
SAPA_FOGBAND
  0
POLYLINE
  5
FD5
  8
SAPA_FOGBAND
 66
     1
 10
0.0
 20
0.0
 30
0.0
 70
     1
  0
VERTEX
  5
1AF2
  8
SAPA_FOGBAND
 10
16.250000000010221
 20
58.149999999997092
 30
0.0
  0
VERTEX
  5
1AF3
  8
SAPA_FOGBAND
 10
17.0500000000104
 20
58.149999999997092
 30
0.0
  0
VERTEX
  5
1AF4
  8
SAPA_FOGBAND
 10
17.0500000000104
 20
51.850000000000001
 30
0.0
  0
VERTEX
  5
1AF5
  8
SAPA_FOGBAND
 10
16.250000000010221
 20
51.850000000000001
 30
0.0
  0
SEQEND
  5
1AF6
  8
SAPA_FOGBAND
  0
POLYLINE
  5
FD6
  8
SAPA_FOGBAND
 66
     1
 10
0.0
 20
0.0
 30
0.0
  0
VERTEX
  5
1AF7
  8
SAPA_FOGBAND
 10
17.0500000000104
 20
53.4273103968575
 30
0.0
  0
VERTEX
  5
1AF8
  8
SAPA_FOGBAND
 10
20.500000000010221
 20
52.301863799541579
 30
0.0
  0
VERTEX
  5
1AF9
  8
SAPA_FOGBAND
 10
20.500000000010221
 20
54.740001846090109
 30
0.0
  0
VERTEX
  5
1AFA
  8
SAPA_FOGBAND
 10
17.0500000000104
 20
54.849999999997081
 30
0.0
  0
SEQEND
  5
1AFB
  8
SAPA_FOGBAND
  0
POLYLINE
  5
FD7
  8
SAPA_FOGBAND
 66
     1
 10
0.0
 20
0.0
 30
0.0
  0
VERTEX
  5
1AFC
  8
SAPA_FOGBAND
 10
17.0500000000104
 20
54.924999999997823
 30
0.0
  0
VERTEX
  5
1AFD
  8
SAPA_FOGBAND
 10
20.500000000010221
 20
54.925000000001091
 30
0.0
  0
VERTEX
  5
1AFE
  8
SAPA_FOGBAND
 10
20.500000000010221
 20
55.074999999999278
 30
0.0
  0
VERTEX
  5
1AFF
  8
SAPA_FOGBAND
 10
17.0500000000104
 20
55.074999999999271
 30
0.0
  0
SEQEND
  5
1B00
  8
SAPA_FOGBAND
  0
POLYLINE
  5
FD8
  8
SAPA_FOGBAND
 66
     1
 10
0.0
 20
0.0
 30
0.0
  0
VERTEX
  5
1B01
  8
SAPA_FOGBAND
 10
17.0500000000104
 20
55.149999999999999
 30
0.0
  0
VERTEX
  5
1B02
  8
SAPA_FOGBAND
 10
20.500000000010221
 20
55.259997385182238
 30
0.0
  0
VERTEX
  5
1B03
  8
SAPA_FOGBAND
 10
20.500000000010221
 20
57.698090725604409
 30
0.0
  0
VERTEX
  5
1B04
  8
SAPA_FOGBAND
 10
17.0500000000104
 20
56.572689603139587
 30
0.0
  0
SEQEND
  5
1B05
  8
SAPA_FOGBAND
  0
POLYLINE
  5
FD9
  8
SAPA_FOGBAND
 66
     1
 10
0.0
 20
0.0
 30
0.0
 70
     1
  0
VERTEX
  5
1B06
  8
SAPA_FOGBAND
 10
71.749999999672553
 20
49.431441188146799
 30
0.0
  0
VERTEX
  5
1B07
  8
SAPA_FOGBAND
 10
70.949999999672372
 20
49.431441188146799
 30
0.0
  0
VERTEX
  5
1B08
  8
SAPA_FOGBAND
 10
70.949999999672372
 20
43.131441188149708
 30
0.0
  0
VERTEX
  5
1B09
  8
SAPA_FOGBAND
 10
71.749999999672553
 20
43.131441188149708
 30
0.0
  0
SEQEND
  5
1B0A
  8
SAPA_FOGBAND
  0
POLYLINE
  5
FDA
  8
SAPA_FOGBAND
 66
     1
 10
0.0
 20
0.0
 30
0.0
  0
VERTEX
  5
1B0B
  8
SAPA_FOGBAND
 10
70.949999999672372
 20
44.708751585007207
 30
0.0
  0
VERTEX
  5
1B0C
  8
SAPA_FOGBAND
 10
67.499999999672553
 20
43.583304987691292
 30
0.0
  0
VERTEX
  5
1B0D
  8
SAPA_FOGBAND
 10
67.499999999672553
 20
46.021443034239823
 30
0.0
  0
VERTEX
  5
1B0E
  8
SAPA_FOGBAND
 10
70.949999999672372
 20
46.131441188146802
 30
0.0
  0
SEQEND
  5
1B0F
  8
SAPA_FOGBAND
  0
POLYLINE
  5
FDB
  8
SAPA_FOGBAND
 66
     1
 10
0.0
 20
0.0
 30
0.0
  0
VERTEX
  5
1B10
  8
SAPA_FOGBAND
 10
70.949999999672372
 20
46.206441188147529
 30
0.0
  0
VERTEX
  5
1B11
  8
SAPA_FOGBAND
 10
67.499999999672553
 20
46.206441188150798
 30
0.0
  0
VERTEX
  5
1B12
  8
SAPA_FOGBAND
 10
67.499999999672553
 20
46.356441188148992
 30
0.0
  0
VERTEX
  5
1B13
  8
SAPA_FOGBAND
 10
70.949999999672372
 20
46.356441188148978
 30
0.0
  0
SEQEND
  5
1B14
  8
SAPA_FOGBAND
  0
POLYLINE
  5
FDC
  8
SAPA_FOGBAND
 66
     1
 10
0.0
 20
0.0
 30
0.0
  0
VERTEX
  5
1B15
  8
SAPA_FOGBAND
 10
70.949999999672372
 20
46.431441188149712
 30
0.0
  0
VERTEX
  5
1B16
  8
SAPA_FOGBAND
 10
67.499999999672553
 20
46.541438573331952
 30
0.0
  0
VERTEX
  5
1B17
  8
SAPA_FOGBAND
 10
67.499999999672553
 20
48.979531913754123
 30
0.0
  0
VERTEX
  5
1B18
  8
SAPA_FOGBAND
 10
70.949999999672372
 20
47.8541307912893
 30
0.0
  0
SEQEND
  5
1B19
  8
SAPA_FOGBAND
  0
POLYLINE
  5
FDD
  8
SAPA_FOGBAND
 66
     1
 10
0.0
 20
0.0
 30
0.0
 70
     1
  0
VERTEX
  5
1B1A
  8
SAPA_FOGBAND
 10
71.749999999672553
 20
57.931441188161351
 30
0.0
  0
VERTEX
  5
1B1B
  8
SAPA_FOGBAND
 10
70.949999999672372
 20
57.931441188161351
 30
0.0
  0
VERTEX
  5
1B1C
  8
SAPA_FOGBAND
 10
70.949999999672372
 20
51.63144118816426
 30
0.0
  0
VERTEX
  5
1B1D
  8
SAPA_FOGBAND
 10
71.749999999672553
 20
51.63144118816426
 30
0.0
  0
SEQEND
  5
1B1E
  8
SAPA_FOGBAND
  0
POLYLINE
  5
FDE
  8
SAPA_FOGBAND
 66
     1
 10
0.0
 20
0.0
 30
0.0
  0
VERTEX
  5
1B1F
  8
SAPA_FOGBAND
 10
70.949999999672372
 20
53.208751585021759
 30
0.0
  0
VERTEX
  5
1B20
  8
SAPA_FOGBAND
 10
67.499999999672553
 20
52.083304987705837
 30
0.0
  0
VERTEX
  5
1B21
  8
SAPA_FOGBAND
 10
67.499999999672553
 20
54.521443034254382
 30
0.0
  0
VERTEX
  5
1B22
  8
SAPA_FOGBAND
 10
70.949999999672372
 20
54.631441188161347
 30
0.0
  0
SEQEND
  5
1B23
  8
SAPA_FOGBAND
  0
POLYLINE
  5
FDF
  8
SAPA_FOGBAND
 66
     1
 10
0.0
 20
0.0
 30
0.0
  0
VERTEX
  5
1B24
  8
SAPA_FOGBAND
 10
70.949999999672372
 20
54.706441188162081
 30
0.0
  0
VERTEX
  5
1B25
  8
SAPA_FOGBAND
 10
67.499999999672553
 20
54.706441188165357
 30
0.0
  0
VERTEX
  5
1B26
  8
SAPA_FOGBAND
 10
67.499999999672553
 20
54.856441188163537
 30
0.0
  0
VERTEX
  5
1B27
  8
SAPA_FOGBAND
 10
70.949999999672372
 20
54.856441188163529
 30
0.0
  0
SEQEND
  5
1B28
  8
SAPA_FOGBAND
  0
POLYLINE
  5
FE0
  8
SAPA_FOGBAND
 66
     1
 10
0.0
 20
0.0
 30
0.0
  0
VERTEX
  5
1B29
  8
SAPA_FOGBAND
 10
70.949999999672372
 20
54.931441188164257
 30
0.0
  0
VERTEX
  5
1B2A
  8
SAPA_FOGBAND
 10
67.499999999672553
 20
55.041438573346511
 30
0.0
  0
VERTEX
  5
1B2B
  8
SAPA_FOGBAND
 10
67.499999999672553
 20
57.479531913768668
 30
0.0
  0
VERTEX
  5
1B2C
  8
SAPA_FOGBAND
 10
70.949999999672372
 20
56.354130791303852
 30
0.0
  0
SEQEND
  5
1B2D
  8
SAPA_FOGBAND
  0
POLYLINE
  5
FE1
  8
SAPA_FOGBAND
 66
     1
 10
0.0
 20
0.0
 30
0.0
 70
     1
  0
VERTEX
  5
1B2E
  8
SAPA_FOGBAND
 10
136.7499999277311
 20
49.649999999982533
 30
0.0
  0
VERTEX
  5
1B2F
  8
SAPA_FOGBAND
 10
135.94999992773089
 20
49.649999999982533
 30
0.0
  0
VERTEX
  5
1B30
  8
SAPA_FOGBAND
 10
135.94999992773089
 20
43.34999999998545
 30
0.0
  0
VERTEX
  5
1B31
  8
SAPA_FOGBAND
 10
136.7499999277311
 20
43.34999999998545
 30
0.0
  0
SEQEND
  5
1B32
  8
SAPA_FOGBAND
  0
POLYLINE
  5
FE2
  8
SAPA_FOGBAND
 66
     1
 10
0.0
 20
0.0
 30
0.0
  0
VERTEX
  5
1B33
  8
SAPA_FOGBAND
 10
135.94999992773089
 20
44.927310396842941
 30
0.0
  0
VERTEX
  5
1B34
  8
SAPA_FOGBAND
 10
132.4999999277311
 20
43.801863799527027
 30
0.0
  0
VERTEX
  5
1B35
  8
SAPA_FOGBAND
 10
132.4999999277311
 20
46.240001846075558
 30
0.0
  0
VERTEX
  5
1B36
  8
SAPA_FOGBAND
 10
135.94999992773089
 20
46.349999999982529
 30
0.0
  0
SEQEND
  5
1B37
  8
SAPA_FOGBAND
  0
POLYLINE
  5
FE3
  8
SAPA_FOGBAND
 66
     1
 10
0.0
 20
0.0
 30
0.0
  0
VERTEX
  5
1B38
  8
SAPA_FOGBAND
 10
135.94999992773089
 20
46.424999999983257
 30
0.0
  0
VERTEX
  5
1B39
  8
SAPA_FOGBAND
 10
132.4999999277311
 20
46.424999999986539
 30
0.0
  0
VERTEX
  5
1B3A
  8
SAPA_FOGBAND
 10
132.4999999277311
 20
46.574999999984719
 30
0.0
  0
VERTEX
  5
1B3B
  8
SAPA_FOGBAND
 10
135.94999992773089
 20
46.574999999984719
 30
0.0
  0
SEQEND
  5
1B3C
  8
SAPA_FOGBAND
  0
POLYLINE
  5
FE4
  8
SAPA_FOGBAND
 66
     1
 10
0.0
 20
0.0
 30
0.0
  0
VERTEX
  5
1B3D
  8
SAPA_FOGBAND
 10
135.94999992773089
 20
46.649999999985447
 30
0.0
  0
VERTEX
  5
1B3E
  8
SAPA_FOGBAND
 10
132.4999999277311
 20
46.759997385167694
 30
0.0
  0
VERTEX
  5
1B3F
  8
SAPA_FOGBAND
 10
132.4999999277311
 20
49.198090725589857
 30
0.0
  0
VERTEX
  5
1B40
  8
SAPA_FOGBAND
 10
135.94999992773089
 20
48.072689603125028
 30
0.0
  0
SEQEND
  5
1B41
  8
SAPA_FOGBAND
  0
POLYLINE
  5
FE5
  8
SAPA_FOGBAND
 66
     1
 10
0.0
 20
0.0
 30
0.0
 70
     1
  0
VERTEX
  5
1B42
  8
SAPA_FOGBAND
 10
136.7499999277311
 20
58.149999999997092
 30
0.0
  0
VERTEX
  5
1B43
  8
SAPA_FOGBAND
 10
135.94999992773089
 20
58.149999999997092
 30
0.0
  0
VERTEX
  5
1B44
  8
SAPA_FOGBAND
 10
135.94999992773089
 20
51.850000000000001
 30
0.0
  0
VERTEX
  5
1B45
  8
SAPA_FOGBAND
 10
136.7499999277311
 20
51.850000000000001
 30
0.0
  0
SEQEND
  5
1B46
  8
SAPA_FOGBAND
  0
POLYLINE
  5
FE6
  8
SAPA_FOGBAND
 66
     1
 10
0.0
 20
0.0
 30
0.0
  0
VERTEX
  5
1B47
  8
SAPA_FOGBAND
 10
135.94999992773089
 20
53.4273103968575
 30
0.0
  0
VERTEX
  5
1B48
  8
SAPA_FOGBAND
 10
132.4999999277311
 20
52.301863799541579
 30
0.0
  0
VERTEX
  5
1B49
  8
SAPA_FOGBAND
 10
132.4999999277311
 20
54.740001846090109
 30
0.0
  0
VERTEX
  5
1B4A
  8
SAPA_FOGBAND
 10
135.94999992773089
 20
54.849999999997081
 30
0.0
  0
SEQEND
  5
1B4B
  8
SAPA_FOGBAND
  0
POLYLINE
  5
FE7
  8
SAPA_FOGBAND
 66
     1
 10
0.0
 20
0.0
 30
0.0
  0
VERTEX
  5
1B4C
  8
SAPA_FOGBAND
 10
135.94999992773089
 20
54.924999999997823
 30
0.0
  0
VERTEX
  5
1B4D
  8
SAPA_FOGBAND
 10
132.4999999277311
 20
54.925000000001091
 30
0.0
  0
VERTEX
  5
1B4E
  8
SAPA_FOGBAND
 10
132.4999999277311
 20
55.074999999999278
 30
0.0
  0
VERTEX
  5
1B4F
  8
SAPA_FOGBAND
 10
135.94999992773089
 20
55.074999999999271
 30
0.0
  0
SEQEND
  5
1B50
  8
SAPA_FOGBAND
  0
POLYLINE
  5
FE8
  8
SAPA_FOGBAND
 66
     1
 10
0.0
 20
0.0
 30
0.0
  0
VERTEX
  5
1B51
  8
SAPA_FOGBAND
 10
135.94999992773089
 20
55.149999999999999
 30
0.0
  0
VERTEX
  5
1B52
  8
SAPA_FOGBAND
 10
132.4999999277311
 20
55.259997385182238
 30
0.0
  0
VERTEX
  5
1B53
  8
SAPA_FOGBAND
 10
132.4999999277311
 20
57.698090725604409
 30
0.0
  0
VERTEX
  5
1B54
  8
SAPA_FOGBAND
 10
135.94999992773089
 20
56.572689603139587
 30
0.0
  0
SEQEND
  5
1B55
  8
SAPA_FOGBAND
  0
POLYLINE
  5
FE9
  8
SAPA_FOGBAND
 66
     1
 10
0.0
 20
0.0
 30
0.0
 70
     1
  0
VERTEX
  5
1B56
  8
SAPA_FOGBAND
 10
81.249999999907985
 20
49.431441188146799
 30
0.0
  0
VERTEX
  5
1B57
  8
SAPA_FOGBAND
 10
82.049999999908167
 20
49.431441188146799
 30
0.0
  0
VERTEX
  5
1B58
  8
SAPA_FOGBAND
 10
82.049999999908167
 20
43.131441188149708
 30
0.0
  0
VERTEX
  5
1B59
  8
SAPA_FOGBAND
 10
81.249999999907985
 20
43.131441188149708
 30
0.0
  0
SEQEND
  5
1B5A
  8
SAPA_FOGBAND
  0
POLYLINE
  5
FEA
  8
SAPA_FOGBAND
 66
     1
 10
0.0
 20
0.0
 30
0.0
  0
VERTEX
  5
1B5B
  8
SAPA_FOGBAND
 10
82.049999999908167
 20
44.708751585007207
 30
0.0
  0
VERTEX
  5
1B5C
  8
SAPA_FOGBAND
 10
85.499999999907985
 20
43.583304987691292
 30
0.0
  0
VERTEX
  5
1B5D
  8
SAPA_FOGBAND
 10
85.499999999907985
 20
46.021443034239823
 30
0.0
  0
VERTEX
  5
1B5E
  8
SAPA_FOGBAND
 10
82.049999999908167
 20
46.131441188146802
 30
0.0
  0
SEQEND
  5
1B5F
  8
SAPA_FOGBAND
  0
POLYLINE
  5
FEB
  8
SAPA_FOGBAND
 66
     1
 10
0.0
 20
0.0
 30
0.0
  0
VERTEX
  5
1B60
  8
SAPA_FOGBAND
 10
82.049999999908167
 20
46.206441188147529
 30
0.0
  0
VERTEX
  5
1B61
  8
SAPA_FOGBAND
 10
85.499999999907985
 20
46.206441188150798
 30
0.0
  0
VERTEX
  5
1B62
  8
SAPA_FOGBAND
 10
85.499999999907985
 20
46.356441188148992
 30
0.0
  0
VERTEX
  5
1B63
  8
SAPA_FOGBAND
 10
82.049999999908167
 20
46.356441188148978
 30
0.0
  0
SEQEND
  5
1B64
  8
SAPA_FOGBAND
  0
POLYLINE
  5
FEC
  8
SAPA_FOGBAND
 66
     1
 10
0.0
 20
0.0
 30
0.0
  0
VERTEX
  5
1B65
  8
SAPA_FOGBAND
 10
82.049999999908167
 20
46.431441188149712
 30
0.0
  0
VERTEX
  5
1B66
  8
SAPA_FOGBAND
 10
85.499999999907985
 20
46.541438573331952
 30
0.0
  0
VERTEX
  5
1B67
  8
SAPA_FOGBAND
 10
85.499999999907985
 20
48.979531913754123
 30
0.0
  0
VERTEX
  5
1B68
  8
SAPA_FOGBAND
 10
82.049999999908167
 20
47.8541307912893
 30
0.0
  0
SEQEND
  5
1B69
  8
SAPA_FOGBAND
  0
POLYLINE
  5
FED
  8
SAPA_FOGBAND
 66
     1
 10
0.0
 20
0.0
 30
0.0
 70
     1
  0
VERTEX
  5
1B6A
  8
SAPA_FOGBAND
 10
81.249999999907985
 20
57.931441188161351
 30
0.0
  0
VERTEX
  5
1B6B
  8
SAPA_FOGBAND
 10
82.049999999908167
 20
57.931441188161351
 30
0.0
  0
VERTEX
  5
1B6C
  8
SAPA_FOGBAND
 10
82.049999999908167
 20
51.63144118816426
 30
0.0
  0
VERTEX
  5
1B6D
  8
SAPA_FOGBAND
 10
81.249999999907985
 20
51.63144118816426
 30
0.0
  0
SEQEND
  5
1B6E
  8
SAPA_FOGBAND
  0
POLYLINE
  5
FEE
  8
SAPA_FOGBAND
 66
     1
 10
0.0
 20
0.0
 30
0.0
  0
VERTEX
  5
1B6F
  8
SAPA_FOGBAND
 10
82.049999999908167
 20
53.208751585021759
 30
0.0
  0
VERTEX
  5
1B70
  8
SAPA_FOGBAND
 10
85.499999999907985
 20
52.083304987705837
 30
0.0
  0
VERTEX
  5
1B71
  8
SAPA_FOGBAND
 10
85.499999999907985
 20
54.521443034254382
 30
0.0
  0
VERTEX
  5
1B72
  8
SAPA_FOGBAND
 10
82.049999999908167
 20
54.631441188161347
 30
0.0
  0
SEQEND
  5
1B73
  8
SAPA_FOGBAND
  0
POLYLINE
  5
FEF
  8
SAPA_FOGBAND
 66
     1
 10
0.0
 20
0.0
 30
0.0
  0
VERTEX
  5
1B74
  8
SAPA_FOGBAND
 10
82.049999999908167
 20
54.706441188162081
 30
0.0
  0
VERTEX
  5
1B75
  8
SAPA_FOGBAND
 10
85.499999999907985
 20
54.706441188165357
 30
0.0
  0
VERTEX
  5
1B76
  8
SAPA_FOGBAND
 10
85.499999999907985
 20
54.856441188163537
 30
0.0
  0
VERTEX
  5
1B77
  8
SAPA_FOGBAND
 10
82.049999999908167
 20
54.856441188163529
 30
0.0
  0
SEQEND
  5
1B78
  8
SAPA_FOGBAND
  0
POLYLINE
  5
FF0
  8
SAPA_FOGBAND
 66
     1
 10
0.0
 20
0.0
 30
0.0
  0
VERTEX
  5
1B79
  8
SAPA_FOGBAND
 10
82.049999999908167
 20
54.931441188164257
 30
0.0
  0
VERTEX
  5
1B7A
  8
SAPA_FOGBAND
 10
85.499999999907985
 20
55.041438573346511
 30
0.0
  0
VERTEX
  5
1B7B
  8
SAPA_FOGBAND
 10
85.499999999907985
 20
57.479531913768668
 30
0.0
  0
VERTEX
  5
1B7C
  8
SAPA_FOGBAND
 10
82.049999999908167
 20
56.354130791303852
 30
0.0
  0
SEQEND
  5
1B7D
  8
SAPA_FOGBAND
  0
DIMENSION
  5
FFD
  8
SAPA_MATT
  2
*D44
 10
-105.9999999999999
 20
60.00000000000103
 30
0.0
 11
-108.7513257575757
 21
-5.0000000000096598
 31
0.0
 70
     0
  1
min. 130
 13
-78.999999999999744
 23
-70.000000000020322
 33
0.0
 14
-95.999999999997996
 24
60.00000000000103
 34
0.0
 50
90.0
1001
ACAD
1000
DSTYLE
1002
{
1070
    40
1040
1.0
1002
}
  0
DIMENSION
  5
FFE
  8
SAPA_MATT
  2
*D43
 10
14.00000000000011
 20
101.0000000000001
 30
0.0
 11
-29.99999999999989
 21
103.7500000000001
 31
0.0
 70
     0
 13
-73.999999999999886
 23
58.000000000001243
 33
0.0
 14
14.00000000000011
 24
58.499999999999417
 34
0.0
1001
ACAD
1000
DSTYLE
1002
{
1070
    40
1040
1.0
1002
}
  0
DIMENSION
  5
FFF
  8
SAPA_MATT
  2
*D42
 10
138.99999999950211
 20
113.0000000000001
 30
0.0
 11
76.499999999751068
 21
115.7500000000001
 31
0.0
 70
     0
 13
14.00000000000003
 23
58.5
 33
0.0
 14
138.99999999950211
 24
60.0
 34
0.0
1001
ACAD
1000
DSTYLE
1002
{
1070
    40
1040
1.0
1002
}
  0
DIMENSION
  5
1000
  8
SAPA_MATT
  2
*D41
 10
138.99999999950211
 20
101.0000000000001
 30
0.0
 11
103.24999999950209
 21
103.7500000000001
 31
0.0
 70
     0
 13
67.499999999502137
 23
55.000000000019412
 33
0.0
 14
138.99999999950211
 24
58.5
 34
0.0
1001
ACAD
1000
DSTYLE
1002
{
1070
   287
1070
     4
1070
    40
1040
1.0
1070
   279
1070
     1
1002
}
  0
DIMENSION
  5
1001
  8
SAPA_MATT
  2
*D40
 10
67.499999999502137
 20
101.0000000000001
 30
0.0
 11
43.999999999841378
 21
103.7500000000001
 31
0.0
 70
     0
 13
20.500000000180631
 23
55.000000000019412
 33
0.0
 14
67.499999999502137
 24
55.000000000019412
 34
0.0
1001
ACAD
1000
DSTYLE
1002
{
1070
   287
1070
     4
1070
    40
1040
1.0
1070
   279
1070
     1
1002
}
  0
DIMENSION
  5
1002
  8
SAPA_MATT
  2
*D39
 10
20.500000000180631
 20
101.0000000000001
 30
0.0
 11
17.250000000090331
 21
101.0000000000001
 31
0.0
 70
   128
 13
14.00000000000003
 23
58.5
 33
0.0
 14
20.500000000180631
 24
55.000000000019412
 34
0.0
1001
ACAD
1000
DSTYLE
1002
{
1070
    40
1040
1.0
1002
}
  0
DIMENSION
  5
1003
  8
SAPA_MATT
  2
*D38
 10
-94.0
 20
70.00000000001107
 30
0.0
 11
-96.750000000000014
 21
65.000000000006025
 31
0.0
 70
     0
 13
-71.999999999998096
 23
60.00000000000103
 33
0.0
 14
22.04999999981133
 24
70.000000000011042
 34
0.0
 50
90.0
1001
ACAD
1000
DSTYLE
1002
{
1070
   287
1070
     4
1070
    40
1040
1.0
1070
   279
1070
     1
1002
}
  0
DIMENSION
  5
1004
  8
SAPA_MATT
  2
*D37
 10
-94.0
 20
60.00000000000103
 30
0.0
 11
-96.750000000000014
 21
1.500000000000528
 31
0.0
 70
     0
 13
15.37500000000003
 23
-56.999999999999972
 33
0.0
 14
-71.999999999998096
 24
60.00000000000103
 34
0.0
 50
90.0
1001
ACAD
1000
DSTYLE
1002
{
1070
    40
1040
1.0
1002
}
  0
VIEWPORT
  5
C4
 67
     1
  8
0
 10
160.5543545598442
 20
116.00969601843509
 30
0.0
 40
404.96977709277462
 41
256.8421457311839
 68
     1
 69
     1
1001
ACAD
1000
MVIEW
1002
{
1070
    16
1010
0.0
1020
0.0
1030
0.0
1010
0.0
1020
0.0
1030
1.0
1040
0.0
1040
256.8421457311839
1040
99.206250190734863
1040
130.70624923706049
1040
50.0
1040
0.0
1040
0.0
1070
     0
1070
     0
1070
     1
1070
     1
1070
     0
1070
     0
1070
     0
1070
     0
1040
0.0
1040
0.0
1040
0.0
1040
10.0
1040
10.0
1040
10.0
1040
10.0
1070
     0
1002
{
1002
}
1002
}
  0
ENDSEC
  0
EOF
