  0
SECTION
  2
HEADER
  9
$ACADVER
  1
AC1009
  9
$INSBASE
 10
0.0
 20
0.0
 30
0.0
  9
$EXTMIN
 10
-36.491479059085279
 20
-111.29283270962939
 30
-0.2
  9
$EXTMAX
 10
194.00325593439959
 20
119.2500000000001
 30
0.0000000048844772
  9
$LIMMIN
 10
0.0
 20
0.0
  9
$LIMMAX
 10
790.0
 20
790.0
  9
$ORTHOMODE
 70
     1
  9
$REGENMODE
 70
     1
  9
$FILLMODE
 70
     1
  9
$QTEXTMODE
 70
     0
  9
$MIRRTEXT
 70
     1
  9
$DRAGMODE
 70
     2
  9
$LTSCALE
 40
4.0
  9
$OSMODE
 70
    37
  9
$ATTMODE
 70
     1
  9
$TEXTSIZE
 40
3.5
  9
$TRACEWID
 40
0.05
  9
$TEXTSTYLE
  7
ISO
  9
$CLAYER
  8
0
  9
$CELTYPE
  6
BYLAYER
  9
$CECOLOR
 62
   256
  9
$DIMSCALE
 40
0.0
  9
$DIMASZ
 40
3.0
  9
$DIMEXO
 40
1.5
  9
$DIMDLI
 40
10.0
  9
$DIMRND
 40
0.0
  9
$DIMDLE
 40
0.0
  9
$DIMEXE
 40
1.5
  9
$DIMTP
 40
0.0
  9
$DIMTM
 40
0.0
  9
$DIMTXT
 40
3.5
  9
$DIMCEN
 40
-5.0
  9
$DIMTSZ
 40
0.0
  9
$DIMTOL
 70
     0
  9
$DIMLIM
 70
     0
  9
$DIMTIH
 70
     0
  9
$DIMTOH
 70
     0
  9
$DIMSE1
 70
     0
  9
$DIMSE2
 70
     0
  9
$DIMTAD
 70
     1
  9
$DIMZIN
 70
     8
  9
$DIMBLK
  1

  9
$DIMASO
 70
     1
  9
$DIMSHO
 70
     1
  9
$DIMPOST
  1

  9
$DIMAPOST
  1

  9
$DIMALT
 70
     0
  9
$DIMALTD
 70
     0
  9
$DIMALTF
 40
25.399999999999999
  9
$DIMLFAC
 40
-1.0
  9
$DIMTOFL
 70
     1
  9
$DIMTVP
 40
0.0
  9
$DIMTIX
 70
     0
  9
$DIMSOXD
 70
     0
  9
$DIMSAH
 70
     0
  9
$DIMBLK1
  1

  9
$DIMBLK2
  1

  9
$DIMSTYLE
  2
MASKIN
  9
$DIMCLRD
 70
   256
  9
$DIMCLRE
 70
   256
  9
$DIMCLRT
 70
     2
  9
$DIMTFAC
 40
1.0
  9
$DIMGAP
 40
1.0
  9
$LUNITS
 70
     2
  9
$LUPREC
 70
     8
  9
$SKETCHINC
 40
0.1
  9
$FILLETRAD
 40
0.0
  9
$AUNITS
 70
     0
  9
$AUPREC
 70
     8
  9
$MENU
  1
ACAD
  9
$ELEVATION
 40
0.0
  9
$PELEVATION
 40
0.0
  9
$THICKNESS
 40
0.0
  9
$LIMCHECK
 70
     0
  9
$BLIPMODE
 70
     0
  9
$CHAMFERA
 40
0.0
  9
$CHAMFERB
 40
0.0
  9
$SKPOLY
 70
     0
  9
$TDCREATE
 40
2455734.560015128
  9
$TDUPDATE
 40
2455782.4940842008
  9
$TDINDWG
 40
1.0974034491
  9
$TDUSRTIMER
 40
1.0974032639
  9
$USRTIMER
 70
     1
  9
$ANGBASE
 50
0.0
  9
$ANGDIR
 70
     0
  9
$PDMODE
 70
     0
  9
$PDSIZE
 40
0.0
  9
$PLINEWID
 40
0.0
  9
$COORDS
 70
     1
  9
$SPLFRAME
 70
     0
  9
$SPLINETYPE
 70
     6
  9
$SPLINESEGS
 70
     8
  9
$ATTDIA
 70
     0
  9
$ATTREQ
 70
     1
  9
$HANDLING
 70
     1
  9
$HANDSEED
  5
1754
  9
$SURFTAB1
 70
     6
  9
$SURFTAB2
 70
     6
  9
$SURFTYPE
 70
     6
  9
$SURFU
 70
     6
  9
$SURFV
 70
     6
  9
$UCSNAME
  2

  9
$UCSORG
 10
0.0
 20
0.0
 30
0.0
  9
$UCSXDIR
 10
1.0
 20
0.0
 30
0.0
  9
$UCSYDIR
 10
0.0
 20
1.0
 30
0.0
  9
$PUCSNAME
  2

  9
$PUCSORG
 10
0.0
 20
0.0
 30
0.0
  9
$PUCSXDIR
 10
1.0
 20
0.0
 30
0.0
  9
$PUCSYDIR
 10
0.0
 20
1.0
 30
0.0
  9
$USERI1
 70
     0
  9
$USERI2
 70
     0
  9
$USERI3
 70
     0
  9
$USERI4
 70
     0
  9
$USERI5
 70
     0
  9
$USERR1
 40
0.0
  9
$USERR2
 40
0.0
  9
$USERR3
 40
0.0
  9
$USERR4
 40
0.0
  9
$USERR5
 40
0.0
  9
$WORLDVIEW
 70
     1
  9
$SHADEDGE
 70
     3
  9
$SHADEDIF
 70
    70
  9
$TILEMODE
 70
     1
  9
$MAXACTVP
 70
    16
  9
$PLIMCHECK
 70
     0
  9
$PEXTMIN
 10
1.0000000000000000E+020
 20
1.0000000000000000E+020
 30
1.0000000000000000E+020
  9
$PEXTMAX
 10
-1.0000000000000000E+020
 20
-1.0000000000000000E+020
 30
-1.0000000000000000E+020
  9
$PLIMMIN
 10
-5.069427490234375
 20
-5.8737497329711914
  9
$PLIMMAX
 10
291.89889526367187
 20
204.0995779037475
  9
$UNITMODE
 70
     0
  9
$VISRETAIN
 70
     1
  9
$PLINEGEN
 70
     0
  9
$PSLTSCALE
 70
     1
  0
ENDSEC
  0
SECTION
  2
TABLES
  0
TABLE
  2
VPORT
 70
     1
  0
VPORT
  2
*ACTIVE
 70
     0
 10
0.0
 20
0.0
 11
1.0
 21
1.0
 12
84.867386732786784
 22
3.964707227695953
 13
0.0
 23
0.0
 14
1.0
 24
1.0
 15
0.0
 25
0.0
 16
0.0
 26
0.0
 36
1.0
 17
0.0
 27
0.0
 37
0.0
 40
232.32505346338419
 41
2.362397820163487
 42
50.0
 43
0.0
 44
0.0
 50
0.0
 51
0.0
 71
     0
 72
   100
 73
     1
 74
     1
 75
     0
 76
     0
 77
     0
 78
     0
  0
ENDTAB
  0
TABLE
  2
LTYPE
 70
     3
  0
LTYPE
  2
CONTINUOUS
 70
     0
  3
Solid line
 72
    65
 73
     0
 40
0.0
  0
LTYPE
  2
BYGG-027377$0$NEWDOT
 70
     0
  3
____ . ____ . ____ . ____ . ____ . ____ . ____
 72
    65
 73
     4
 40
2.0
 49
1.0
 49
-0.5
 49
0.0
 49
-0.5
  0
LTYPE
  2
BYGG-027291$0$NEWDOT
 70
     0
  3
____ . ____ . ____ . ____ . ____ . ____ . ____
 72
    65
 73
     4
 40
2.0
 49
1.0
 49
-0.5
 49
0.0
 49
-0.5
  0
ENDTAB
  0
TABLE
  2
LAYER
 70
    31
  0
LAYER
  2
0
 70
     0
 62
     7
  6
CONTINUOUS
  0
LAYER
  2
DEFPOINTS
 70
     0
 62
     7
  6
CONTINUOUS
  0
LAYER
  2
SAPA_ARTIKELNR
 70
     0
 62
     4
  6
CONTINUOUS
  0
LAYER
  2
SAPA_BESLAG
 70
     0
 62
     1
  6
CONTINUOUS
  0
LAYER
  2
SAPA_ANSLUTNING
 70
     0
 62
     6
  6
CONTINUOUS
  0
LAYER
  2
SAPA_MATT
 70
     0
 62
     1
  6
CONTINUOUS
  0
LAYER
  2
SAPA_GLAS
 70
     0
 62
     4
  6
CONTINUOUS
  0
LAYER
  2
SAPA_FOGBAND
 70
     0
 62
     2
  6
CONTINUOUS
  0
LAYER
  2
SAPA_PROFIL
 70
     0
 62
     7
  6
CONTINUOUS
  0
ENDTAB
  0
TABLE
  2
STYLE
 70
    12
  0
STYLE
  2
STANDARD
 70
     0
 40
0.0
 41
1.0
 50
0.0
 71
     0
 42
0.2
  3
txt
  4

  0
STYLE
  2
ISO
 70
     0
 40
0.0
 41
1.0
 50
0.0
 71
     0
 42
3.5
  3
txt
  4

  0
STYLE
  2
BYGG-027459$0$STANDARD
 70
     0
 40
0.0
 41
1.0
 50
0.0
 71
     0
 42
0.2
  3
txt
  4

  0
STYLE
  2
BYGG-027459$0$ISO
 70
     0
 40
0.0
 41
1.0
 50
0.0
 71
     0
 42
3.5
  3
txt
  4

  0
STYLE
  2
BYGG-027377$0$STANDARD
 70
     0
 40
0.0
 41
1.0
 50
0.0
 71
     0
 42
0.2
  3
txt
  4

  0
STYLE
  2
BYGG-027377$0$ISO
 70
     0
 40
0.0
 41
1.0
 50
0.0
 71
     0
 42
3.5
  3
txt
  4

  0
STYLE
  2
BYGG-027392$0$STANDARD
 70
     0
 40
0.0
 41
1.0
 50
0.0
 71
     0
 42
0.2
  3
txt
  4

  0
STYLE
  2
BYGG-027392$0$ISO
 70
     0
 40
0.0
 41
1.0
 50
0.0
 71
     0
 42
3.5
  3
txt
  4

  0
STYLE
  2
BYGG-027413$0$STANDARD
 70
     0
 40
0.0
 41
1.0
 50
0.0
 71
     0
 42
0.2
  3
txt
  4

  0
STYLE
  2
BYGG-027413$0$ISO
 70
     0
 40
0.0
 41
1.0
 50
0.0
 71
     0
 42
3.5
  3
txt
  4

  0
STYLE
  2
BYGG-027291$0$STANDARD
 70
     0
 40
0.0
 41
1.0
 50
0.0
 71
     0
 42
0.2
  3
txt
  4

  0
STYLE
  2
BYGG-027291$0$ISO
 70
     0
 40
0.0
 41
1.0
 50
0.0
 71
     0
 42
3.5
  3
txt
  4

  0
ENDTAB
  0
TABLE
  2
VIEW
 70
     0
  0
ENDTAB
  0
TABLE
  2
UCS
 70
     0
  0
ENDTAB
  0
TABLE
  2
APPID
 70
    27
  0
APPID
  2
ACAD
 70
     0
  0
APPID
  2
ACAD_DSTYLE_DIMTEXT_FILL
 70
     0
  0
APPID
  2
ACAD_DSTYLE_DIMEXT_LENGTH
 70
     0
  0
APPID
  2
ACAD_DSTYLE_DIMEXT_ENABLED
 70
     0
  0
APPID
  2
ACAD_DSTYLE_DIM_LINETYPE
 70
     0
  0
APPID
  2
ACAD_DSTYLE_DIM_EXT1_LINETYPE
 70
     0
  0
APPID
  2
ACAD_DSTYLE_DIM_EXT2_LINETYPE
 70
     0
  0
APPID
  2
ACAD_DSTYLE_DIMJOGGED_JOGA
 70
     0
  0
APPID
  2
ACAD_DSTYLE_DIMARC_LENGTH_
 70
     0
  0
APPID
  2
ACAD_PSEXT
 70
     0
  0
APPID
  2
ACAD_MLEADERVER
 70
     0
  0
APPID
  2
GENIUS_GENODEF_13
 70
     0
  0
APPID
  2
RC_PROFILE
 70
     0
  0
APPID
  2
ACAECLAYERSTANDARD
 70
     0
  0
APPID
  2
GENIUS_GENOBJ-N-FIL_13
 70
     0
  0
APPID
  2
ACADANNOTATIVE
 70
     0
  0
APPID
  2
ACAD_EXEMPT_FROM_CAD_STANDARDS
 70
     0
  0
APPID
  2
AEC_XDATA_BOUND_SPACE
 70
     0
  0
APPID
  2
ACAD_DSTYLE_DIMJAG
 70
     0
  0
APPID
  2
ACAD_DSTYLE_DIMTALN
 70
     0
  0
APPID
  2
GENIUS_GENREC_14
 70
     0
  0
APPID
  2
GENIUS_GENOBJ-N-REC_13
 70
     0
  0
APPID
  2
ACDBDYNAMICBLOCKTRUENAME
 70
     0
  0
APPID
  2
ACDBBLOCKREPETAG
 70
     0
  0
APPID
  2
ACDBDYNAMICBLOCKGUID
 70
     0
  0
APPID
  2
ACDBBLOCKREPBTAG
 70
     0
  0
APPID
  2
GENIUS_GENOREF_13
 70
     0
  0
ENDTAB
  0
TABLE
  2
DIMSTYLE
 70
     6
  0
DIMSTYLE
  2
MASKIN
 70
     0
  3

  4

  5

  6

  7

 40
0.0
 41
3.0
 42
1.5
 43
10.0
 44
1.5
 45
0.0
 46
0.0
 47
0.0
 48
0.0
140
3.5
141
-5.0
142
0.0
143
25.399999999999999
144
-1.0
145
0.0
146
1.0
147
1.0
 71
     0
 72
     0
 73
     0
 74
     0
 75
     0
 76
     0
 77
     1
 78
     8
170
     0
171
     0
172
     1
173
     0
174
     0
175
     0
176
   256
177
   256
178
     2
  0
DIMSTYLE
  2
BYGG-027459$0$MASKIN
 70
     0
  3

  4

  5

  6

  7

 40
0.0
 41
3.0
 42
1.5
 43
10.0
 44
1.5
 45
0.0
 46
0.0
 47
0.0
 48
0.0
140
3.0
141
-5.0
142
0.0
143
25.399999999999999
144
-1.0
145
0.0
146
1.0
147
1.0
 71
     0
 72
     0
 73
     0
 74
     0
 75
     0
 76
     0
 77
     1
 78
     8
170
     0
171
     0
172
     1
173
     0
174
     0
175
     0
176
   256
177
   256
178
     2
  0
DIMSTYLE
  2
BYGG-027377$0$MASKIN
 70
     0
  3

  4

  5

  6

  7

 40
0.0
 41
3.0
 42
1.5
 43
10.0
 44
1.5
 45
0.0
 46
0.0
 47
0.0
 48
0.0
140
3.0
141
-5.0
142
0.0
143
25.399999999999999
144
-1.0
145
0.0
146
1.0
147
1.0
 71
     0
 72
     0
 73
     0
 74
     0
 75
     0
 76
     0
 77
     1
 78
     8
170
     0
171
     0
172
     1
173
     0
174
     0
175
     0
176
   256
177
   256
178
     2
  0
DIMSTYLE
  2
BYGG-027392$0$MASKIN
 70
     0
  3

  4

  5

  6

  7

 40
0.0
 41
3.0
 42
1.5
 43
10.0
 44
1.5
 45
0.0
 46
0.0
 47
0.0
 48
0.0
140
3.0
141
-5.0
142
0.0
143
25.399999999999999
144
-1.0
145
0.0
146
1.0
147
1.0
 71
     0
 72
     0
 73
     0
 74
     0
 75
     0
 76
     0
 77
     1
 78
     8
170
     0
171
     0
172
     1
173
     0
174
     0
175
     0
176
   256
177
   256
178
     2
  0
DIMSTYLE
  2
BYGG-027413$0$MASKIN
 70
     0
  3

  4

  5

  6

  7

 40
0.0
 41
3.0
 42
1.5
 43
10.0
 44
1.5
 45
0.0
 46
0.0
 47
0.0
 48
0.0
140
3.0
141
-5.0
142
0.0
143
25.399999999999999
144
-1.0
145
0.0
146
1.0
147
1.0
 71
     0
 72
     0
 73
     0
 74
     0
 75
     0
 76
     0
 77
     1
 78
     8
170
     0
171
     0
172
     1
173
     0
174
     0
175
     0
176
   256
177
   256
178
     2
  0
DIMSTYLE
  2
BYGG-027291$0$MASKIN
 70
     0
  3

  4

  5

  6

  7

 40
0.0
 41
3.0
 42
1.5
 43
10.0
 44
1.5
 45
0.0
 46
0.0
 47
0.0
 48
0.0
140
3.0
141
-5.0
142
0.0
143
25.399999999999999
144
-1.0
145
0.0
146
1.0
147
1.0
 71
     0
 72
     0
 73
     0
 74
     0
 75
     0
 76
     0
 77
     1
 78
     8
170
     0
171
     0
172
     1
173
     0
174
     0
175
     0
176
   256
177
   256
178
     2
  0
ENDTAB
  0
ENDSEC
  0
SECTION
  2
BLOCKS
  0
BLOCK
  8
0
  2
$MODEL_SPACE
 70
     0
 10
0.0
 20
0.0
 30
0.0
  3
$MODEL_SPACE
  1

  0
ENDBLK
  5
37
  8
0
  0
BLOCK
 67
     1
  8
0
  2
$PAPER_SPACE
 70
     0
 10
0.0
 20
0.0
 30
0.0
  3
$PAPER_SPACE
  1

  0
ENDBLK
  5
35
 67
     1
  8
0
  0
BLOCK
  8
0
  2
*D24
 70
     1
 10
0.0
 20
0.0
 30
0.0
  3
*D24
  1

  0
LINE
  5
CD3
  8
SAPA_MATT
 10
13.87500000000003
 20
-56.999999999999972
 30
0.0
 11
-12.50000000000002
 21
-56.999999999999972
 31
0.0
  0
LINE
  5
CD4
  8
SAPA_MATT
 10
14.00000000000003
 20
60.0
 30
0.0
 11
-12.5
 21
60.0
 31
0.0
  0
LINE
  5
CD5
  8
SAPA_MATT
 10
-11.00000000000002
 20
-53.999999999999972
 30
0.0
 11
-11.0
 21
57.0
 31
0.0
  0
SOLID
  5
CD6
  8
SAPA_MATT
 10
-11.50000000000002
 20
-53.999999999999972
 30
0.0
 11
-10.50000000000002
 21
-53.999999999999972
 31
0.0
 12
-11.00000000000002
 22
-56.999999999999972
 32
0.0
 13
-11.00000000000002
 23
-56.999999999999972
 33
0.0
  0
SOLID
  5
CD7
  8
SAPA_MATT
 10
-11.5
 20
57.0
 30
0.0
 11
-10.5
 21
57.0
 31
0.0
 12
-10.999999999999989
 22
60.0
 32
0.0
 13
-10.999999999999989
 23
60.0
 33
0.0
  0
INSERT
  5
CD8
  8
0
  2
*U60
 10
0.0
 20
0.0
 30
0.0
  0
POINT
  5
CD9
  8
DEFPOINTS
 62
     0
 10
15.37500000000003
 20
-56.999999999999972
 30
0.0
  0
POINT
  5
CDA
  8
DEFPOINTS
 62
     0
 10
15.50000000000003
 20
60.0
 30
0.0
  0
POINT
  5
CDB
  8
DEFPOINTS
 62
     0
 10
-10.999999999999989
 20
60.0
 30
0.0
  0
ENDBLK
  5
C47
  8
0
  0
BLOCK
  8
0
  2
*D25
 70
     1
 10
0.0
 20
0.0
 30
0.0
  3
*D25
  1

  0
LINE
  5
16B6
  8
SAPA_MATT
 10
14.00000000000003
 20
60.0
 30
0.0
 11
-12.5
 21
60.0
 31
0.0
  0
LINE
  5
16B7
  8
SAPA_MATT
 10
20.54999999981111
 20
70.000000000011042
 30
0.0
 11
-12.5
 21
70.000000000011042
 31
0.0
  0
LINE
  5
16B8
  8
SAPA_MATT
 10
-11.0
 20
63.0
 30
0.0
 11
-11.0
 21
67.000000000011042
 31
0.0
  0
SOLID
  5
16B9
  8
SAPA_MATT
 10
-11.5
 20
63.0
 30
0.0
 11
-10.5
 21
63.0
 31
0.0
 12
-11.0
 22
60.0
 32
0.0
 13
-11.0
 23
60.0
 33
0.0
  0
SOLID
  5
16BA
  8
SAPA_MATT
 10
-11.5
 20
67.000000000011042
 30
0.0
 11
-10.5
 21
67.000000000011042
 31
0.0
 12
-11.0
 22
70.000000000011042
 32
0.0
 13
-11.0
 23
70.000000000011042
 33
0.0
  0
TEXT
  8
SAPA_MATT
  40
3.5
  5
16CF
  62
2
  72
0
  71
0
 10
-20.7500
 20
58.8050
 30
0.000000
  1
10
  7
ISO
  0
POINT
  5
16BC
  8
DEFPOINTS
 62
     0
 10
15.50000000000003
 20
60.0
 30
0.0
  0
POINT
  5
16BD
  8
DEFPOINTS
 62
     0
 10
22.04999999981111
 20
70.000000000011042
 30
0.0
  0
POINT
  5
16BE
  8
DEFPOINTS
 62
     0
 10
-11.0
 20
70.000000000011042
 30
0.0
  0
ENDBLK
  5
C53
  8
0
  0
BLOCK
  8
0
  2
*D26
 70
     1
 10
0.0
 20
0.0
 30
0.0
  3
*D26
  1

  0
LINE
  5
CBF
  8
SAPA_MATT
 10
14.00000000000003
 20
60.0
 30
0.0
 11
14.00000000000003
 21
102.5000000000001
 31
0.0
  0
LINE
  5
CC0
  8
SAPA_MATT
 10
20.500000000180631
 20
56.500000000019412
 30
0.0
 11
20.500000000180631
 21
102.5000000000001
 31
0.0
  0
LINE
  5
CC1
  8
SAPA_MATT
 10
11.00000000000003
 20
101.0000000000001
 30
0.0
 11
8.0000000000000302
 21
101.0000000000001
 31
0.0
  0
LINE
  5
CC2
  8
SAPA_MATT
 10
23.500000000180631
 20
101.0000000000001
 30
0.0
 11
26.500000000180631
 21
101.0000000000001
 31
0.0
  0
LINE
  5
CC3
  8
SAPA_MATT
 10
14.00000000000003
 20
101.0000000000001
 30
0.0
 11
20.500000000180631
 21
101.0000000000001
 31
0.0
  0
SOLID
  5
CC4
  8
SAPA_MATT
 10
11.00000000000003
 20
101.5000000000001
 30
0.0
 11
11.00000000000003
 21
100.5000000000001
 31
0.0
 12
14.00000000000003
 22
101.0000000000001
 32
0.0
 13
14.00000000000003
 23
101.0000000000001
 33
0.0
  0
SOLID
  5
CC5
  8
SAPA_MATT
 10
23.500000000180631
 20
101.5000000000001
 30
0.0
 11
23.500000000180631
 21
100.5000000000001
 31
0.0
 12
20.500000000180631
 22
101.0000000000001
 32
0.0
 13
20.500000000180631
 23
101.0000000000001
 33
0.0
  0
INSERT
  5
CC6
  8
0
  2
*U59
 10
0.0
 20
0.0
 30
0.0
  0
POINT
  5
CC7
  8
DEFPOINTS
 62
     0
 10
14.00000000000003
 20
58.5
 30
0.0
  0
POINT
  5
CC8
  8
DEFPOINTS
 62
     0
 10
20.500000000180631
 20
55.000000000019412
 30
0.0
  0
POINT
  5
CC9
  8
DEFPOINTS
 62
     0
 10
20.500000000180631
 20
101.0000000000001
 30
0.0
  0
ENDBLK
  5
C5F
  8
0
  0
BLOCK
  8
0
  2
*D27
 70
     1
 10
0.0
 20
0.0
 30
0.0
  3
*D27
  1

  0
LINE
  5
16AD
  8
SAPA_MATT
 10
20.500000000180631
 20
56.500000000019412
 30
0.0
 11
20.500000000180631
 21
102.5000000000001
 31
0.0
  0
LINE
  5
16AE
  8
SAPA_MATT
 10
67.499999999502137
 20
56.500000000019412
 30
0.0
 11
67.499999999502137
 21
102.5000000000001
 31
0.0
  0
LINE
  5
16AF
  8
SAPA_MATT
 10
23.500000000180631
 20
101.0000000000001
 30
0.0
 11
64.499999999502137
 21
101.0000000000001
 31
0.0
  0
SOLID
  5
16B0
  8
SAPA_MATT
 10
23.500000000180631
 20
101.5000000000001
 30
0.0
 11
23.500000000180631
 21
100.5000000000001
 31
0.0
 12
20.500000000180631
 22
101.0000000000001
 32
0.0
 13
20.500000000180631
 23
101.0000000000001
 33
0.0
  0
SOLID
  5
16B1
  8
SAPA_MATT
 10
64.499999999502137
 20
101.5000000000001
 30
0.0
 11
64.499999999502137
 21
100.5000000000001
 31
0.0
 12
67.499999999502137
 22
101.0000000000001
 32
0.0
 13
67.499999999502137
 23
101.0000000000001
 33
0.0
  0
TEXT
  8
SAPA_MATT
  40
3.5
  5
16D0
  62
2
  72
0
  71
0
 10
37.0000
 20
97.5550
 30
0.000000
  1
47
  7
ISO
  0
POINT
  5
16B3
  8
DEFPOINTS
 62
     0
 10
20.500000000180631
 20
55.000000000019412
 30
0.0
  0
POINT
  5
16B4
  8
DEFPOINTS
 62
     0
 10
67.499999999502137
 20
55.000000000019412
 30
0.0
  0
POINT
  5
16B5
  8
DEFPOINTS
 62
     0
 10
67.499999999502137
 20
101.0000000000001
 30
0.0
  0
ENDBLK
  5
C6D
  8
0
  0
BLOCK
  8
0
  2
*D28
 70
     1
 10
0.0
 20
0.0
 30
0.0
  3
*D28
  1

  0
LINE
  5
16A4
  8
SAPA_MATT
 10
67.499999999502137
 20
56.500000000019412
 30
0.0
 11
67.499999999502137
 21
102.5000000000001
 31
0.0
  0
LINE
  5
16A5
  8
SAPA_MATT
 10
138.99999999950211
 20
60.0
 30
0.0
 11
138.99999999950211
 21
102.5000000000001
 31
0.0
  0
LINE
  5
16A6
  8
SAPA_MATT
 10
70.499999999502137
 20
101.0000000000001
 30
0.0
 11
135.99999999950211
 21
101.0000000000001
 31
0.0
  0
SOLID
  5
16A7
  8
SAPA_MATT
 10
70.499999999502137
 20
101.5000000000001
 30
0.0
 11
70.499999999502137
 21
100.5000000000001
 31
0.0
 12
67.499999999502137
 22
101.0000000000001
 32
0.0
 13
67.499999999502137
 23
101.0000000000001
 33
0.0
  0
SOLID
  5
16A8
  8
SAPA_MATT
 10
135.99999999950211
 20
101.5000000000001
 30
0.0
 11
135.99999999950211
 21
100.5000000000001
 31
0.0
 12
138.99999999950211
 22
101.0000000000001
 32
0.0
 13
138.99999999950211
 23
101.0000000000001
 33
0.0
  0
TEXT
  8
SAPA_MATT
  40
3.5
  5
16D1
  62
2
  72
0
  71
0
 10
96.2500
 20
97.5550
 30
0.000000
  1
71.5
  7
ISO
  0
POINT
  5
16AA
  8
DEFPOINTS
 62
     0
 10
67.499999999502137
 20
55.000000000019412
 30
0.0
  0
POINT
  5
16AB
  8
DEFPOINTS
 62
     0
 10
138.99999999950211
 20
58.5
 30
0.0
  0
POINT
  5
16AC
  8
DEFPOINTS
 62
     0
 10
138.99999999950211
 20
101.0000000000001
 30
0.0
  0
ENDBLK
  5
C79
  8
0
  0
BLOCK
  8
0
  2
*D29
 70
     1
 10
0.0
 20
0.0
 30
0.0
  3
*D29
  1

  0
LINE
  5
CA4
  8
SAPA_MATT
 10
14.00000000000003
 20
60.0
 30
0.0
 11
14.00000000000003
 21
114.5000000000001
 31
0.0
  0
LINE
  5
CA5
  8
SAPA_MATT
 10
138.99999999950211
 20
61.5
 30
0.0
 11
138.99999999950211
 21
114.5000000000001
 31
0.0
  0
LINE
  5
CA6
  8
SAPA_MATT
 10
17.000000000000028
 20
113.0000000000001
 30
0.0
 11
135.99999999950211
 21
113.0000000000001
 31
0.0
  0
SOLID
  5
CA7
  8
SAPA_MATT
 10
17.000000000000028
 20
113.5000000000001
 30
0.0
 11
17.000000000000028
 21
112.5000000000001
 31
0.0
 12
14.00000000000003
 22
113.0000000000001
 32
0.0
 13
14.00000000000003
 23
113.0000000000001
 33
0.0
  0
SOLID
  5
CA8
  8
SAPA_MATT
 10
135.99999999950211
 20
113.5000000000001
 30
0.0
 11
135.99999999950211
 21
112.5000000000001
 31
0.0
 12
138.99999999950211
 22
113.0000000000001
 32
0.0
 13
138.99999999950211
 23
113.0000000000001
 33
0.0
  0
INSERT
  5
CA9
  8
0
  2
*U58
 10
0.0
 20
0.0
 30
0.0
  0
POINT
  5
CAA
  8
DEFPOINTS
 62
     0
 10
14.00000000000003
 20
58.5
 30
0.0
  0
POINT
  5
CAB
  8
DEFPOINTS
 62
     0
 10
138.99999999950211
 20
60.0
 30
0.0
  0
POINT
  5
CAC
  8
DEFPOINTS
 62
     0
 10
138.99999999950211
 20
113.0000000000001
 30
0.0
  0
ENDBLK
  5
C85
  8
0
  0
BLOCK
  8
0
  2
*D30
 70
     1
 10
0.0
 20
0.0
 30
0.0
  3
*D30
  1

  0
LINE
  5
C9B
  8
SAPA_MATT
 10
2.500000000000242
 20
-70.000000000021316
 30
0.0
 11
-24.499999999999961
 21
-70.000000000021316
 31
0.0
  0
LINE
  5
C9C
  8
SAPA_MATT
 10
-14.499999999998019
 20
60.0
 30
0.0
 11
-24.499999999999929
 21
60.0
 31
0.0
  0
LINE
  5
C9D
  8
SAPA_MATT
 10
-22.999999999999961
 20
-67.000000000021316
 30
0.0
 11
-22.999999999999929
 21
57.000000000000007
 31
0.0
  0
SOLID
  5
C9E
  8
SAPA_MATT
 10
-23.499999999999961
 20
-67.000000000021316
 30
0.0
 11
-22.499999999999961
 21
-67.000000000021316
 31
0.0
 12
-22.999999999999961
 22
-70.000000000021316
 32
0.0
 13
-22.999999999999961
 23
-70.000000000021316
 33
0.0
  0
SOLID
  5
C9F
  8
SAPA_MATT
 10
-23.499999999999929
 20
57.000000000000007
 30
0.0
 11
-22.499999999999929
 21
57.000000000000007
 31
0.0
 12
-22.999999999999929
 22
60.0
 32
0.0
 13
-22.999999999999929
 23
60.0
 33
0.0
  0
INSERT
  5
CA0
  8
0
  2
*U57
 10
0.0
 20
0.0
 30
0.0
  0
POINT
  5
CA1
  8
DEFPOINTS
 62
     0
 10
4.0000000000002407
 20
-70.000000000021316
 30
0.0
  0
POINT
  5
CA2
  8
DEFPOINTS
 62
     0
 10
-12.999999999998019
 20
60.0
 30
0.0
  0
POINT
  5
CA3
  8
DEFPOINTS
 62
     0
 10
-22.999999999999929
 20
60.0
 30
0.0
  0
ENDBLK
  5
C91
  8
0
  0
BLOCK
  8
0
  2
*U31
 70
     1
 10
0.0
 20
0.0
 30
0.0
  3
*U31
  1

  0
TEXT
  5
D47
  8
0
 62
     2
 10
41.374999999841393
 20
102.0000000000001
 30
0.0
 40
3.5
  1
47
  7
ISO
  0
ENDBLK
  5
D49
  8
0
  0
BLOCK
  8
0
  2
*U32
 70
     1
 10
0.0
 20
0.0
 30
0.0
  3
*U32
  1

  0
TEXT
  5
D4B
  8
0
 62
     2
 10
99.399999999502128
 20
102.0000000000001
 30
0.0
 40
3.5
  1
71.5
  7
ISO
  0
ENDBLK
  5
D4D
  8
0
  0
BLOCK
  8
0
  2
*X33
 70
     1
 10
0.0
 20
0.0
 30
0.0
  3
*X33
  1

  0
LINE
  5
D4F
  8
0
 62
     0
 10
148.9999999277413
 20
59.79095488711561
 30
0.0
 11
148.83808603072671
 21
59.952868784130331
 31
0.0
  0
LINE
  5
D50
  8
0
 62
     0
 10
148.9999999277413
 20
58.668422871981981
 30
0.0
 11
147.9499301213892
 21
59.718492678334123
 31
0.0
  0
LINE
  5
D51
  8
0
 62
     0
 10
148.9999999277413
 20
57.545890856848331
 30
0.0
 11
147.02840957960129
 21
59.517481204988442
 31
0.0
  0
LINE
  5
D52
  8
0
 62
     0
 10
148.9999999277413
 20
56.423358841714688
 30
0.0
 11
146.07057661512809
 21
59.352782154327961
 31
0.0
  0
LINE
  5
D53
  8
0
 62
     0
 10
148.9999999277413
 20
55.300826826581051
 30
0.0
 11
145.07276903545329
 21
59.228057718869159
 31
0.0
  0
LINE
  5
D54
  8
0
 62
     0
 10
148.9999999277413
 20
54.178294811447401
 30
0.0
 11
144.03036041296869
 21
59.147934326220003
 31
0.0
  0
LINE
  5
D55
  8
0
 62
     0
 10
148.9999999277413
 20
53.055762796313758
 30
0.0
 11
142.937381363318
 21
59.118381360737096
 31
0.0
  0
LINE
  5
D56
  8
0
 62
     0
 10
148.9999999277413
 20
51.933230781180107
 30
0.0
 11
141.78591990858709
 21
59.147310800334417
 31
0.0
  0
LINE
  5
D57
  8
0
 62
     0
 10
148.9999999277413
 20
50.810698766046457
 30
0.0
 11
140.565119071797
 21
59.245579621990842
 31
0.0
  0
LINE
  5
D58
  8
0
 62
     0
 10
145.76608656588181
 20
52.922080112772399
 30
0.0
 11
139.25938028645029
 21
59.428786392203897
 31
0.0
  0
LINE
  5
D59
  8
0
 62
     0
 10
148.9999999277413
 20
49.688166750912821
 30
0.0
 11
148.4399900696433
 21
50.248176609010862
 31
0.0
  0
LINE
  5
D5A
  8
0
 62
     0
 10
144.2907394283969
 20
53.274895235123608
 30
0.0
 11
138.99849667114091
 21
58.567137992379621
 31
0.0
  0
LINE
  5
D5B
  8
0
 62
     0
 10
148.9999999277413
 20
48.56563473577917
 30
0.0
 11
148.92363608600769
 21
48.641998577512872
 31
0.0
  0
LINE
  5
D5C
  8
0
 62
     0
 10
143.22638571834861
 20
53.216716930038302
 30
0.0
 11
138.99999992774141
 21
57.443102720645548
 31
0.0
  0
LINE
  5
D5D
  8
0
 62
     0
 10
142.35075441075239
 20
52.969816222500818
 30
0.0
 11
138.9999999277413
 21
56.320570705511912
 31
0.0
  0
LINE
  5
D5E
  8
0
 62
     0
 10
141.60217573132229
 20
52.59586288679737
 30
0.0
 11
138.99999992774141
 21
55.198038690378269
 31
0.0
  0
LINE
  5
D5F
  8
0
 62
     0
 10
140.95430362485209
 20
52.121202978133873
 30
0.0
 11
138.9999999277413
 21
54.075506675244647
 31
0.0
  0
LINE
  5
D60
  8
0
 62
     0
 10
140.39481471664041
 20
51.558159871211963
 30
0.0
 11
138.9999999277413
 21
52.952974660111032
 31
0.0
  0
LINE
  5
D61
  8
0
 62
     0
 10
139.91916163996731
 20
50.911280932751353
 30
0.0
 11
138.9999999277413
 21
51.830442644977381
 31
0.0
  0
LINE
  5
D62
  8
0
 62
     0
 10
139.5287522544227
 20
50.179158303162303
 30
0.0
 11
138.9999999277413
 21
50.707910629843738
 31
0.0
  0
LINE
  5
D63
  8
0
 62
     0
 10
139.23148746817009
 20
49.353891074281272
 30
0.0
 11
138.9999999277413
 21
49.585378614710109
 31
0.0
  0
LINE
  5
D64
  8
0
 62
     0
 10
139.04522034170191
 20
48.41762618561588
 30
0.0
 11
138.9999999277413
 21
48.462846599576501
 31
0.0
  0
LINE
  5
D65
  8
0
 62
     0
 10
148.99279897801131
 20
47.964917615982337
 30
0.0
 11
148.9999999277413
 21
47.972118565712371
 31
0.0
  0
LINE
  5
D66
  8
0
 62
     0
 10
148.86518577861531
 20
48.959836431720021
 30
0.0
 11
148.9999999277413
 21
49.094650580846007
 31
0.0
  0
LINE
  5
D67
  8
0
 62
     0
 10
148.61341571770791
 20
49.83059838594626
 30
0.0
 11
148.9999999277413
 21
50.217182595979672
 31
0.0
  0
LINE
  5
D68
  8
0
 62
     0
 10
148.26229306069871
 20
50.602007744070633
 30
0.0
 11
148.9999999277413
 21
51.339714611113308
 31
0.0
  0
LINE
  5
D69
  8
0
 62
     0
 10
147.82338657535109
 20
51.285633273856703
 30
0.0
 11
148.9999999277413
 21
52.462246626246959
 31
0.0
  0
LINE
  5
D6A
  8
0
 62
     0
 10
147.3007430412959
 20
51.885521754935169
 30
0.0
 11
148.9999999277413
 21
53.584778641380588
 31
0.0
  0
LINE
  5
D6B
  8
0
 62
     0
 10
146.69249089580279
 20
52.399801624575652
 30
0.0
 11
148.9999999277413
 21
54.707310656514231
 31
0.0
  0
LINE
  5
D6C
  8
0
 62
     0
 10
145.99012238385629
 20
52.819965127762828
 30
0.0
 11
148.9999999277413
 21
55.829842671647889
 31
0.0
  0
LINE
  5
D6D
  8
0
 62
     0
 10
145.1746978766773
 20
53.127072635717461
 30
0.0
 11
148.9999999277413
 21
56.952374686781532
 31
0.0
  0
LINE
  5
D6E
  8
0
 62
     0
 10
144.20478292538689
 20
53.279689699560763
 30
0.0
 11
148.9999999277413
 21
58.074906701915182
 31
0.0
  0
LINE
  5
D6F
  8
0
 62
     0
 10
138.9999999277413
 20
48.074906701915083
 30
0.0
 11
139.0143750455226
 21
48.089281819696481
 31
0.0
  0
LINE
  5
D70
  8
0
 62
     0
 10
142.96528944008861
 20
53.16272822939613
 30
0.0
 11
148.9999999277413
 21
59.197438717048819
 31
0.0
  0
LINE
  5
D71
  8
0
 62
     0
 10
138.9999999277413
 20
49.19743871704874
 30
0.0
 11
139.2621674097004
 21
49.459606199007872
 31
0.0
  0
LINE
  5
D72
  8
0
 62
     0
 10
138.9999999277413
 20
50.319970732182391
 30
0.0
 11
148.55332920462089
 21
59.873300009061971
 31
0.0
  0
LINE
  5
D73
  8
0
 62
     0
 10
138.9999999277413
 20
51.442502747316041
 30
0.0
 11
147.0863822333215
 21
59.528885052896243
 31
0.0
  0
LINE
  5
D74
  8
0
 62
     0
 10
138.9999999277413
 20
52.565034762449692
 30
0.0
 11
145.74135694742461
 21
59.306391782133041
 31
0.0
  0
LINE
  5
D75
  8
0
 62
     0
 10
138.9999999277413
 20
53.687566777583342
 30
0.0
 11
144.4893749164703
 21
59.176941766312368
 31
0.0
  0
LINE
  5
D76
  8
0
 62
     0
 10
138.9999999277413
 20
54.810098792717007
 30
0.0
 11
143.31215802026259
 21
59.122256885238251
 31
0.0
  0
LINE
  5
D77
  8
0
 62
     0
 10
138.9999999277413
 20
55.932630807850671
 30
0.0
 11
142.19726507093191
 21
59.12989595104122
 31
0.0
  0
LINE
  5
D78
  8
0
 62
     0
 10
138.9999999277413
 20
57.055162822984308
 30
0.0
 11
141.1357776586442
 21
59.190940553887167
 31
0.0
  0
LINE
  5
D79
  8
0
 62
     0
 10
138.99999992774141
 20
58.177694838117979
 30
0.0
 11
140.1210510364555
 21
59.298745946832192
 31
0.0
  0
LINE
  5
D7A
  8
0
 62
     0
 10
138.85117536341849
 20
59.151402288928743
 30
0.0
 11
139.14798551122061
 21
59.448212436730849
 31
0.0
  0
ENDBLK
  5
D7C
  8
0
  0
BLOCK
  8
0
  2
*X34
 70
     1
 10
0.0
 20
0.0
 30
0.0
  3
*X34
  1

  0
LINE
  5
D92
  8
0
 62
     0
 10
148.43122837829671
 20
46.743733652560408
 30
0.0
 11
148.8281033782967
 21
47.431141316814312
 31
0.0
  0
LINE
  5
D93
  8
0
 62
     0
 10
147.2406033782967
 20
44.681510659798718
 30
0.0
 11
147.63747837829669
 21
45.368918324052622
 31
0.0
  0
LINE
  5
D94
  8
0
 62
     0
 10
146.04997837829669
 20
42.619287667037028
 30
0.0
 11
146.44685337829671
 21
43.306695331290932
 31
0.0
  0
LINE
  5
D95
  8
0
 62
     0
 10
148.43122866279271
 20
49.493364145322097
 30
0.0
 11
148.61830667414799
 21
49.817392765968357
 31
0.0
  0
LINE
  5
D96
  8
0
 62
     0
 10
147.24060366279281
 20
47.431141152560407
 30
0.0
 11
147.63747866279269
 21
48.118548816814311
 31
0.0
  0
LINE
  5
D97
  8
0
 62
     0
 10
146.0499786627928
 20
45.368918159798717
 30
0.0
 11
146.44685366279279
 21
46.056325824052621
 31
0.0
  0
LINE
  5
D98
  8
0
 62
     0
 10
144.85935366279281
 20
43.306695167037027
 30
0.0
 11
145.25622866279281
 21
43.994102831290931
 31
0.0
  0
LINE
  5
D99
  8
0
 62
     0
 10
147.2406039472888
 20
50.180771645322089
 30
0.0
 11
147.6374789472888
 21
50.868179309575979
 31
0.0
  0
LINE
  5
D9A
  8
0
 62
     0
 10
146.04997894728879
 20
48.118548652560399
 30
0.0
 11
146.44685394728879
 21
48.805956316814303
 31
0.0
  0
LINE
  5
D9B
  8
0
 62
     0
 10
144.85935394728881
 20
46.056325659798702
 30
0.0
 11
145.2562289472888
 21
46.743733324052599
 31
0.0
  0
LINE
  5
D9C
  8
0
 62
     0
 10
143.66872894728891
 20
43.994102667037019
 30
0.0
 11
144.06560394728891
 21
44.681510331290923
 31
0.0
  0
LINE
  5
D9D
  8
0
 62
     0
 10
142.6604806727178
 20
42.247765428836303
 30
0.0
 11
142.87497894728889
 21
42.619287338529219
 31
0.0
  0
LINE
  5
D9E
  8
0
 62
     0
 10
146.0499792317849
 20
50.868179145322088
 30
0.0
 11
146.4468542317849
 21
51.555586809575992
 31
0.0
  0
LINE
  5
D9F
  8
0
 62
     0
 10
144.85935423178489
 20
48.805956152560412
 30
0.0
 11
145.256229231785
 21
49.493363816814302
 31
0.0
  0
LINE
  5
DA0
  8
0
 62
     0
 10
143.66872923178499
 20
46.743733159798708
 30
0.0
 11
144.06560423178499
 21
47.431140824052612
 31
0.0
  0
LINE
  5
DA1
  8
0
 62
     0
 10
142.47810423178501
 20
44.681510167037032
 30
0.0
 11
142.87497923178501
 21
45.368917831290922
 31
0.0
  0
LINE
  5
DA2
  8
0
 62
     0
 10
141.419831996672
 20
42.848528887581899
 30
0.0
 11
141.68435423178499
 21
43.306694838529232
 31
0.0
  0
LINE
  5
DA3
  8
0
 62
     0
 10
144.859354516281
 20
51.555586645322101
 30
0.0
 11
145.256229516281
 21
52.242994309575998
 31
0.0
  0
LINE
  5
DA4
  8
0
 62
     0
 10
143.66872951628099
 20
49.493363652560411
 30
0.0
 11
144.06560451628101
 21
50.180771316814301
 31
0.0
  0
LINE
  5
DA5
  8
0
 62
     0
 10
142.47810451628109
 20
47.431140659798722
 30
0.0
 11
142.87497951628109
 21
48.118548324052618
 31
0.0
  0
LINE
  5
DA6
  8
0
 62
     0
 10
141.28747951628111
 20
45.368917667037017
 30
0.0
 11
141.6843545162811
 21
46.056325331290921
 31
0.0
  0
LINE
  5
DA7
  8
0
 62
     0
 10
140.37616464355861
 20
43.790474005788482
 30
0.0
 11
140.49372951628109
 21
43.994102338529238
 31
0.0
  0
LINE
  5
DA8
  8
0
 62
     0
 10
143.6687298007771
 20
52.242994145322108
 30
0.0
 11
144.06560480077709
 21
52.930401809575997
 31
0.0
  0
LINE
  5
DA9
  8
0
 62
     0
 10
142.4781048007772
 20
50.180771152560411
 30
0.0
 11
142.87497980077711
 21
50.868178816814307
 31
0.0
  0
LINE
  5
DAA
  8
0
 62
     0
 10
141.28747980077719
 20
48.118548159798728
 30
0.0
 11
141.68435480077719
 21
48.805955824052631
 31
0.0
  0
LINE
  5
DAB
  8
0
 62
     0
 10
140.09685480077721
 20
46.056325167037031
 30
0.0
 11
140.4937298007772
 21
46.743732831290927
 31
0.0
  0
LINE
  5
DAC
  8
0
 62
     0
 10
142.4781050852732
 20
52.9304016453221
 30
0.0
 11
142.54131339092169
 21
53.039881642165483
 31
0.0
  0
LINE
  5
DAD
  8
0
 62
     0
 10
141.2874800852733
 20
50.868178652560402
 30
0.0
 11
141.6843550852733
 21
51.555586316814299
 31
0.0
  0
LINE
  5
DAE
  8
0
 62
     0
 10
140.09685508527329
 20
48.80595565979872
 30
0.0
 11
140.49373008527331
 21
49.493363324052623
 31
0.0
  0
LINE
  5
DAF
  8
0
 62
     0
 10
139.03797136424791
 20
46.971915255675057
 30
0.0
 11
139.3031050852733
 21
47.431140331290919
 31
0.0
  0
LINE
  5
DB0
  8
0
 62
     0
 10
146.44684342093331
 20
51.555556586858764
 30
0.0
 11
146.04996842093331
 21
52.24296425111266
 31
0.0
  0
LINE
  5
DB1
  8
0
 62
     0
 10
147.63746842093329
 20
49.493333594097059
 30
0.0
 11
147.24059342093329
 21
50.180741258350963
 31
0.0
  0
LINE
  5
DB2
  8
0
 62
     0
 10
148.8280934209333
 20
47.431110601335376
 30
0.0
 11
148.43121842093331
 21
48.118518265589273
 31
0.0
  0
LINE
  5
DB3
  8
0
 62
     0
 10
144.06559370542951
 20
52.930372079620433
 30
0.0
 11
143.86242080378619
 21
53.282277867987737
 31
0.0
  0
LINE
  5
DB4
  8
0
 62
     0
 10
145.2562187054294
 20
50.868149086858729
 30
0.0
 11
144.85934370542941
 21
51.555556751112633
 31
0.0
  0
LINE
  5
DB5
  8
0
 62
     0
 10
146.44684370542939
 20
48.805926094097039
 30
0.0
 11
146.04996870542939
 21
49.493333758350943
 31
0.0
  0
LINE
  5
DB6
  8
0
 62
     0
 10
147.6374687054294
 20
46.743703101335349
 30
0.0
 11
147.2405937054294
 21
47.431110765589253
 31
0.0
  0
LINE
  5
DB7
  8
0
 62
     0
 10
148.508994618332
 20
45.234175940075183
 30
0.0
 11
148.43121870542939
 21
45.368887772827563
 31
0.0
  0
LINE
  5
DB8
  8
0
 62
     0
 10
142.87496898992549
 20
52.242964579620441
 30
0.0
 11
142.47809398992561
 21
52.930372243874331
 31
0.0
  0
LINE
  5
DB9
  8
0
 62
     0
 10
144.0655939899255
 20
50.180741586858751
 30
0.0
 11
143.66871898992551
 21
50.868149251112648
 31
0.0
  0
LINE
  5
DBA
  8
0
 62
     0
 10
145.25621898992549
 20
48.118518594097061
 30
0.0
 11
144.85934398992549
 21
48.805926258350951
 31
0.0
  0
LINE
  5
DBB
  8
0
 62
     0
 10
146.4468439899255
 20
46.056295601335371
 30
0.0
 11
146.0499689899255
 21
46.743703265589268
 31
0.0
  0
LINE
  5
DBC
  8
0
 62
     0
 10
147.63746898992551
 20
43.994072608573681
 30
0.0
 11
147.24059398992549
 21
44.681480272827571
 31
0.0
  0
LINE
  5
DBD
  8
0
 62
     0
 10
141.68434427442159
 20
51.555557079620421
 30
0.0
 11
141.28746927442171
 21
52.242964743874317
 31
0.0
  0
LINE
  5
DBE
  8
0
 62
     0
 10
142.8749692744216
 20
49.493334086858731
 30
0.0
 11
142.47809427442161
 21
50.18074175111262
 31
0.0
  0
LINE
  5
DBF
  8
0
 62
     0
 10
144.06559427442161
 20
47.431111094097041
 30
0.0
 11
143.66871927442159
 21
48.118518758350938
 31
0.0
  0
LINE
  5
DC0
  8
0
 62
     0
 10
145.2562192744216
 20
45.368888101335351
 30
0.0
 11
144.8593442744216
 21
46.05629576558924
 31
0.0
  0
LINE
  5
DC1
  8
0
 62
     0
 10
146.44684427442161
 20
43.306665108573661
 30
0.0
 11
146.04996927442161
 21
43.99407277282755
 31
0.0
  0
LINE
  5
DC2
  8
0
 62
     0
 10
140.4937195589178
 20
50.868149579620443
 30
0.0
 11
140.21983906123731
 21
51.34252451680517
 31
0.0
  0
LINE
  5
DC3
  8
0
 62
     0
 10
141.6843445589177
 20
48.805926586858753
 30
0.0
 11
141.28746955891771
 21
49.49333425111265
 31
0.0
  0
LINE
  5
DC4
  8
0
 62
     0
 10
142.87496955891771
 20
46.743703594097063
 30
0.0
 11
142.47809455891769
 21
47.431111258350953
 31
0.0
  0
LINE
  5
DC5
  8
0
 62
     0
 10
144.0655945589177
 20
44.681480601335373
 30
0.0
 11
143.6687195589177
 21
45.36888826558927
 31
0.0
  0
LINE
  5
DC6
  8
0
 62
     0
 10
145.25621955891771
 20
42.619257608573683
 30
0.0
 11
144.85934455891771
 21
43.306665272827573
 31
0.0
  0
LINE
  5
DC7
  8
0
 62
     0
 10
140.4937198434138
 20
48.11851908685874
 30
0.0
 11
140.09684484341381
 21
48.805926751112636
 31
0.0
  0
LINE
  5
DC8
  8
0
 62
     0
 10
141.68434484341381
 20
46.056296094097057
 30
0.0
 11
141.28746984341379
 21
46.743703758350946
 31
0.0
  0
LINE
  5
DC9
  8
0
 62
     0
 10
142.87496984341379
 20
43.99407310133536
 30
0.0
 11
142.4780948434138
 21
44.681480765589257
 31
0.0
  0
LINE
  5
DCA
  8
0
 62
     0
 10
144.0018313472743
 20
42.042291723555557
 30
0.0
 11
143.66871984341381
 21
42.619257772827567
 31
0.0
  0
LINE
  5
DCB
  8
0
 62
     0
 10
139.3030951279099
 20
47.431111586858748
 30
0.0
 11
139.00628919785299
 21
47.945194537704957
 31
0.0
  0
LINE
  5
DCC
  8
0
 62
     0
 10
140.49372012790991
 20
45.368888594097058
 30
0.0
 11
140.09684512790989
 21
46.056296258350962
 31
0.0
  0
LINE
  5
DCD
  8
0
 62
     0
 10
141.68434512790989
 20
43.306665601335368
 30
0.0
 11
141.2874701279099
 21
43.994073265589272
 31
0.0
  0
LINE
  5
DCE
  8
0
 62
     0
 10
145.25625000000011
 20
42.619264999999103
 30
0.0
 11
146.0500000000001
 21
42.619264999999103
 31
0.0
  0
LINE
  5
DCF
  8
0
 62
     0
 10
142.87500000000011
 20
42.619264999999103
 30
0.0
 11
143.6687500000001
 21
42.619264999999103
 31
0.0
  0
LINE
  5
DD0
  8
0
 62
     0
 10
147.63749999999999
 20
43.994079999999101
 30
0.0
 11
147.78777218174429
 21
43.994079999999101
 31
0.0
  0
LINE
  5
DD1
  8
0
 62
     0
 10
145.25625000000011
 20
43.994079999999101
 30
0.0
 11
146.0500000000001
 21
43.994079999999101
 31
0.0
  0
LINE
  5
DD2
  8
0
 62
     0
 10
142.87500000000011
 20
43.994079999999101
 30
0.0
 11
143.6687500000001
 21
43.994079999999101
 31
0.0
  0
LINE
  5
DD3
  8
0
 62
     0
 10
140.49375000000009
 20
43.994079999999101
 30
0.0
 11
141.28749999999999
 21
43.994079999999101
 31
0.0
  0
LINE
  5
DD4
  8
0
 62
     0
 10
147.63749999999999
 20
45.3688949999991
 30
0.0
 11
148.43125000000001
 21
45.3688949999991
 31
0.0
  0
LINE
  5
DD5
  8
0
 62
     0
 10
145.25625000000011
 20
45.3688949999991
 30
0.0
 11
146.0500000000001
 21
45.3688949999991
 31
0.0
  0
LINE
  5
DD6
  8
0
 62
     0
 10
142.87500000000011
 20
45.3688949999991
 30
0.0
 11
143.6687500000001
 21
45.3688949999991
 31
0.0
  0
LINE
  5
DD7
  8
0
 62
     0
 10
140.49375000000009
 20
45.3688949999991
 30
0.0
 11
141.28749999999999
 21
45.3688949999991
 31
0.0
  0
LINE
  5
DD8
  8
0
 62
     0
 10
147.63749999999999
 20
46.743709999999098
 30
0.0
 11
148.43125000000001
 21
46.743709999999098
 31
0.0
  0
LINE
  5
DD9
  8
0
 62
     0
 10
145.25625000000011
 20
46.743709999999098
 30
0.0
 11
146.0500000000001
 21
46.743709999999098
 31
0.0
  0
LINE
  5
DDA
  8
0
 62
     0
 10
142.87500000000011
 20
46.743709999999098
 30
0.0
 11
143.6687500000001
 21
46.743709999999098
 31
0.0
  0
LINE
  5
DDB
  8
0
 62
     0
 10
140.49375000000009
 20
46.743709999999098
 30
0.0
 11
141.28749999999999
 21
46.743709999999098
 31
0.0
  0
LINE
  5
DDC
  8
0
 62
     0
 10
147.63749999999999
 20
48.118524999999103
 30
0.0
 11
148.43125000000001
 21
48.118524999999103
 31
0.0
  0
LINE
  5
DDD
  8
0
 62
     0
 10
145.25625000000011
 20
48.118524999999103
 30
0.0
 11
146.0500000000001
 21
48.118524999999103
 31
0.0
  0
LINE
  5
DDE
  8
0
 62
     0
 10
142.87500000000011
 20
48.118524999999103
 30
0.0
 11
143.6687500000001
 21
48.118524999999103
 31
0.0
  0
LINE
  5
DDF
  8
0
 62
     0
 10
140.49375000000009
 20
48.118524999999103
 30
0.0
 11
141.28749999999999
 21
48.118524999999103
 31
0.0
  0
LINE
  5
DE0
  8
0
 62
     0
 10
147.63749999999999
 20
49.493339999999101
 30
0.0
 11
148.43125000000001
 21
49.493339999999101
 31
0.0
  0
LINE
  5
DE1
  8
0
 62
     0
 10
145.25625000000011
 20
49.493339999999101
 30
0.0
 11
146.0500000000001
 21
49.493339999999101
 31
0.0
  0
LINE
  5
DE2
  8
0
 62
     0
 10
142.87500000000011
 20
49.493339999999101
 30
0.0
 11
143.6687500000001
 21
49.493339999999101
 31
0.0
  0
LINE
  5
DE3
  8
0
 62
     0
 10
140.49375000000009
 20
49.493339999999101
 30
0.0
 11
141.28749999999999
 21
49.493339999999101
 31
0.0
  0
LINE
  5
DE4
  8
0
 62
     0
 10
147.63749999999999
 20
50.868154999999099
 30
0.0
 11
148.1077274650691
 21
50.868154999999099
 31
0.0
  0
LINE
  5
DE5
  8
0
 62
     0
 10
145.25625000000011
 20
50.868154999999099
 30
0.0
 11
146.0500000000001
 21
50.868154999999099
 31
0.0
  0
LINE
  5
DE6
  8
0
 62
     0
 10
142.87500000000011
 20
50.868154999999099
 30
0.0
 11
143.6687500000001
 21
50.868154999999099
 31
0.0
  0
LINE
  5
DE7
  8
0
 62
     0
 10
140.49375000000009
 20
50.868154999999099
 30
0.0
 11
141.28749999999999
 21
50.868154999999099
 31
0.0
  0
LINE
  5
DE8
  8
0
 62
     0
 10
145.25625000000011
 20
52.242969999999112
 30
0.0
 11
146.0500000000001
 21
52.242969999999112
 31
0.0
  0
LINE
  5
DE9
  8
0
 62
     0
 10
142.87500000000011
 20
52.242969999999112
 30
0.0
 11
143.6687500000001
 21
52.242969999999112
 31
0.0
  0
LINE
  5
DEA
  8
0
 62
     0
 10
141.1007687474002
 20
52.242969999999112
 30
0.0
 11
141.28749999999999
 21
52.242969999999112
 31
0.0
  0
ENDBLK
  5
DEC
  8
0
  0
BLOCK
  8
0
  2
*U35
 70
     1
 10
0.0
 20
0.0
 30
0.0
  3
*U35
  1

  0
TEXT
  5
E38
  8
0
 62
     2
 10
-24.002651515151459
 20
-13.225000000010651
 30
0.0
 40
3.5
  1
min. 130
 50
90.0
  7
ISO
  0
ENDBLK
  5
E3A
  8
0
  0
BLOCK
  8
0
  2
*U36
 70
     1
 10
0.0
 20
0.0
 30
0.0
  3
*U36
  1

  0
TEXT
  5
FBC
  8
0
 62
     2
 10
59.174999963870683
 20
-11.46275614065862
 30
0.0
 40
3.5
  1
125
  7
BYGG-027377$0$ISO
  0
ENDBLK
  5
FBE
  8
0
  0
BLOCK
  8
0
  2
*U37
 70
     1
 10
0.0
 20
0.0
 30
0.0
  3
*U37
  1

  0
TEXT
  5
FC0
  8
0
 62
     2
 10
138.9070189266192
 20
55.525000000000013
 30
0.0
 40
3.5
  1
117
 50
90.0
  7
BYGG-027377$0$ISO
  0
ENDBLK
  5
FC2
  8
0
  0
BLOCK
  8
0
  2
*X38
 70
     1
 10
0.0
 20
0.0
 30
0.0
  3
*X38
  1

  0
LINE
  5
FC4
  8
0
 62
     0
 10
76.199999999999989
 20
70.599975999985048
 30
0.0
 11
76.199999999999989
 21
74.699456650023421
 31
0.0
  0
LINE
  5
FC5
  8
0
 62
     0
 10
74.612499999999983
 20
71.26391552932489
 30
0.0
 11
74.612499999999983
 21
74.034973770722118
 31
0.0
  0
LINE
  5
FC6
  8
0
 62
     0
 10
73.024999999999991
 20
71.73370616123222
 30
0.0
 11
73.024999999999991
 21
73.533706161232203
 31
0.0
  0
LINE
  5
FC7
  8
0
 62
     0
 10
71.4375
 20
71.73370616123222
 30
0.0
 11
71.4375
 21
73.533706161232345
 31
0.0
  0
LINE
  5
FC8
  8
0
 62
     0
 10
69.849999999999994
 20
71.73370616123222
 30
0.0
 11
69.849999999999994
 21
73.88665244376044
 31
0.0
  0
LINE
  5
FC9
  8
0
 62
     0
 10
68.262500000000003
 20
106.77485855299869
 30
0.0
 11
68.262500000000003
 21
108.28802382332501
 31
0.0
  0
LINE
  5
FCA
  8
0
 62
     0
 10
68.262500000000003
 20
115.27485855300129
 30
0.0
 11
68.262500000000017
 21
116.78144118816149
 31
0.0
  0
LINE
  5
FCB
  8
0
 62
     0
 10
68.262500000000003
 20
71.73370616123222
 30
0.0
 11
68.262500000000003
 21
99.788023823318554
 31
0.0
  0
LINE
  5
FCC
  8
0
 62
     0
 10
66.674999999999997
 20
98.497179717640634
 30
0.0
 11
66.675000000000011
 21
116.78144118816149
 31
0.0
  0
LINE
  5
FCD
  8
0
 62
     0
 10
66.674999999999997
 20
71.73370616123222
 30
0.0
 11
66.674999999999997
 21
73.54944469071458
 31
0.0
  0
LINE
  5
FCE
  8
0
 62
     0
 10
65.087499999999991
 20
98.497179717642254
 30
0.0
 11
65.087500000000006
 21
116.78144118816139
 31
0.0
  0
LINE
  5
FCF
  8
0
 62
     0
 10
65.087499999999991
 20
71.73370616123222
 30
0.0
 11
65.087499999999991
 21
73.54944469071458
 31
0.0
  0
LINE
  5
FD0
  8
0
 62
     0
 10
63.500000000000007
 20
98.497179717641387
 30
0.0
 11
63.500000000000007
 21
99.797179717640546
 31
0.0
  0
LINE
  5
FD1
  8
0
 62
     0
 10
63.500000000000007
 20
114.9971797176448
 30
0.0
 11
63.500000000000007
 21
116.78144118816139
 31
0.0
  0
LINE
  5
FD2
  8
0
 62
     0
 10
63.500000000000007
 20
71.73370616123222
 30
0.0
 11
63.500000000000007
 21
73.54944469071458
 31
0.0
  0
LINE
  5
FD3
  8
0
 62
     0
 10
61.912500000000001
 20
98.49717971764052
 30
0.0
 11
61.912500000000001
 21
99.797179717640546
 31
0.0
  0
LINE
  5
FD4
  8
0
 62
     0
 10
61.912500000000001
 20
114.9971797176436
 30
0.0
 11
61.912500000000001
 21
116.78144118816139
 31
0.0
  0
LINE
  5
FD5
  8
0
 62
     0
 10
61.912500000000001
 20
71.73370616123222
 30
0.0
 11
61.912500000000001
 21
73.54944469071458
 31
0.0
  0
LINE
  5
FD6
  8
0
 62
     0
 10
60.325000000000003
 20
98.497179717639654
 30
0.0
 11
60.325000000000003
 21
99.828804842068848
 31
0.0
  0
LINE
  5
FD7
  8
0
 62
     0
 10
60.325000000000003
 20
114.96555459321431
 30
0.0
 11
60.325000000000003
 21
116.78144118816139
 31
0.0
  0
LINE
  5
FD8
  8
0
 62
     0
 10
60.325000000000003
 20
71.73370616123222
 30
0.0
 11
60.325000000000003
 21
73.54944469071458
 31
0.0
  0
LINE
  5
FD9
  8
0
 62
     0
 10
58.737500000000011
 20
98.497179717638801
 30
0.0
 11
58.737500000000011
 21
116.7814411881613
 31
0.0
  0
LINE
  5
FDA
  8
0
 62
     0
 10
58.737500000000011
 20
71.73370616123222
 30
0.0
 11
58.737500000000011
 21
73.54944469071458
 31
0.0
  0
LINE
  5
FDB
  8
0
 62
     0
 10
57.149999999999999
 20
106.7814411881581
 30
0.0
 11
57.149999999999999
 21
108.2814411881613
 31
0.0
  0
LINE
  5
FDC
  8
0
 62
     0
 10
57.149999999999999
 20
115.2814411881613
 30
0.0
 11
57.149999999999999
 21
116.7814411881613
 31
0.0
  0
LINE
  5
FDD
  8
0
 62
     0
 10
57.149999999999999
 20
71.73370616123222
 30
0.0
 11
57.149999999999999
 21
99.781441188156677
 31
0.0
  0
LINE
  5
FDE
  8
0
 62
     0
 10
55.562500000000007
 20
105.7893797277396
 30
0.0
 11
55.562500000000007
 21
109.273502648583
 31
0.0
  0
LINE
  5
FDF
  8
0
 62
     0
 10
55.562500000000007
 20
114.2893797277396
 30
0.0
 11
55.562500000000007
 21
116.5235026484573
 31
0.0
  0
LINE
  5
FE0
  8
0
 62
     0
 10
55.562500000000007
 20
71.73370616123222
 30
0.0
 11
55.562500000000007
 21
100.77350264857979
 31
0.0
  0
LINE
  5
FE1
  8
0
 62
     0
 10
53.975000000000001
 20
71.73370616123222
 30
0.0
 11
53.975000000000001
 21
73.533706161232089
 31
0.0
  0
LINE
  5
FE2
  8
0
 62
     0
 10
52.387500000000003
 20
71.73370616123222
 30
0.0
 11
52.387500000000003
 21
73.533706161231692
 31
0.0
  0
LINE
  5
FE3
  8
0
 62
     0
 10
50.799999999999997
 20
71.502072594400531
 30
0.0
 11
50.799999999999997
 21
73.796816705646393
 31
0.0
  0
LINE
  5
FE4
  8
0
 62
     0
 10
49.212499999999999
 20
70.599975999985134
 30
0.0
 11
49.212499999999999
 21
74.69944565000695
 31
0.0
  0
ENDBLK
  5
FE6
  8
0
  0
BLOCK
  8
0
  2
*X39
 70
     1
 10
0.0
 20
0.0
 30
0.0
  3
*X39
  1

  0
LINE
  5
FE8
  8
0
 62
     0
 10
76.199999999999989
 20
59.299444650023403
 30
0.0
 11
76.199999999999989
 21
63.39945665002346
 31
0.0
  0
LINE
  5
FE9
  8
0
 62
     0
 10
74.612499999999983
 20
59.963915566641319
 30
0.0
 11
74.612499999999983
 21
62.734973733405681
 31
0.0
  0
LINE
  5
FEA
  8
0
 62
     0
 10
73.024999999999991
 20
60.199444682530469
 30
0.0
 11
73.024999999999991
 21
62.499444682530417
 31
0.0
  0
LINE
  5
FEB
  8
0
 62
     0
 10
71.4375
 20
60.199444682530462
 30
0.0
 11
71.4375
 21
62.499444682530417
 31
0.0
  0
LINE
  5
FEC
  8
0
 62
     0
 10
69.849999999999994
 20
60.199444682530462
 30
0.0
 11
69.849999999999994
 21
62.499444682530417
 31
0.0
  0
LINE
  5
FED
  8
0
 62
     0
 10
68.262500000000003
 20
60.199444682530448
 30
0.0
 11
68.262500000000003
 21
62.499444682530417
 31
0.0
  0
LINE
  5
FEE
  8
0
 62
     0
 10
66.674999999999997
 20
60.199444682530448
 30
0.0
 11
66.674999999999997
 21
62.499444682530417
 31
0.0
  0
LINE
  5
FEF
  8
0
 62
     0
 10
65.087499999999991
 20
60.199444682530448
 30
0.0
 11
65.087499999999991
 21
62.499444682530417
 31
0.0
  0
LINE
  5
FF0
  8
0
 62
     0
 10
63.500000000000007
 20
60.199444682530441
 30
0.0
 11
63.500000000000007
 21
62.499444682530417
 31
0.0
  0
LINE
  5
FF1
  8
0
 62
     0
 10
61.912500000000001
 20
60.199444682530441
 30
0.0
 11
61.912500000000001
 21
62.499444682530417
 31
0.0
  0
LINE
  5
FF2
  8
0
 62
     0
 10
60.325000000000003
 20
60.199444682530441
 30
0.0
 11
60.325000000000003
 21
62.499444682530417
 31
0.0
  0
LINE
  5
FF3
  8
0
 62
     0
 10
58.737500000000011
 20
60.199444682530441
 30
0.0
 11
58.737500000000011
 21
62.499444682530417
 31
0.0
  0
LINE
  5
FF4
  8
0
 62
     0
 10
57.149999999999999
 20
60.199444682530441
 30
0.0
 11
57.149999999999999
 21
62.499444682530417
 31
0.0
  0
LINE
  5
FF5
  8
0
 62
     0
 10
55.562500000000007
 20
60.199444682530441
 30
0.0
 11
55.562500000000007
 21
62.499444682530417
 31
0.0
  0
LINE
  5
FF6
  8
0
 62
     0
 10
53.975000000000001
 20
60.199444682530441
 30
0.0
 11
53.975000000000001
 21
62.499444682530417
 31
0.0
  0
LINE
  5
FF7
  8
0
 62
     0
 10
52.387500000000003
 20
60.199444682530427
 30
0.0
 11
52.387500000000003
 21
62.499444682530417
 31
0.0
  0
LINE
  5
FF8
  8
0
 62
     0
 10
50.799999999999997
 20
60.18970205771393
 30
0.0
 11
50.799999999999997
 21
62.509187277926962
 31
0.0
  0
LINE
  5
FF9
  8
0
 62
     0
 10
49.212499999999999
 20
59.299444650023482
 30
0.0
 11
49.212499999999999
 21
63.39944565000696
 31
0.0
  0
ENDBLK
  5
FFB
  8
0
  0
BLOCK
  8
0
  2
*X40
 70
     1
 10
0.0
 20
0.0
 30
0.0
  3
*X40
  1

  0
LINE
  5
1037
  8
0
 62
     0
 10
22.99999999983179
 20
9.7760650556289335
 30
0.0
 11
22.249999999819501
 21
9.0260650556166411
 31
0.0
  0
LINE
  5
1038
  8
0
 62
     0
 10
22.99999999983179
 20
8.6535330404952884
 30
0.0
 11
22.24999999982073
 21
7.903533040484227
 31
0.0
  0
LINE
  5
1039
  8
0
 62
     0
 10
22.99999999983179
 20
7.5310010253616451
 30
0.0
 11
22.249999999821959
 21
6.7810010253518112
 31
0.0
  0
LINE
  5
103A
  8
0
 62
     0
 10
22.99999999983179
 20
6.4084690102279911
 30
0.0
 11
22.249999999823189
 21
5.6584690102193926
 31
0.0
  0
LINE
  5
103B
  8
0
 62
     0
 10
22.99999999983179
 20
5.2859369950943487
 30
0.0
 11
22.249999999824421
 21
4.5359369950869768
 31
0.0
  0
LINE
  5
103C
  8
0
 62
     0
 10
22.999999999831779
 20
4.1634049799606974
 30
0.0
 11
22.24999999982564
 21
3.4134049799545632
 31
0.0
  0
LINE
  5
103D
  8
0
 62
     0
 10
22.999999999831779
 20
3.0408729648270501
 30
0.0
 11
22.24999999982688
 21
2.2908729648221451
 31
0.0
  0
LINE
  5
103E
  8
0
 62
     0
 10
22.999999999831768
 20
1.918340949693403
 30
0.0
 11
22.249999999828098
 21
1.1683409496897299
 31
0.0
  0
LINE
  5
103F
  8
0
 62
     0
 10
22.999999999831779
 20
0.7958089345597621
 30
0.0
 11
22.249999999829338
 21
0.0458089345573143
 31
0.0
  0
LINE
  5
1040
  8
0
 62
     0
 10
22.999999999831768
 20
-0.3267230805738848
 30
0.0
 11
22.24999999983055
 21
-1.0767230805751029
 31
0.0
  0
LINE
  5
1041
  8
0
 62
     0
 10
22.999999999831779
 20
-1.4492550957075281
 30
0.0
 11
22.24999999983179
 21
-2.199255095707513
 31
0.0
  0
LINE
  5
1042
  8
0
 62
     0
 10
22.999999999831761
 20
-2.5717871108411741
 30
0.0
 11
22.571787110557249
 21
-3.000000000115687
 31
0.0
  0
LINE
  5
1043
  8
0
 62
     0
 10
22.9999999998318
 20
8.9735038448878406
 30
0.0
 11
22.249999999818751
 21
9.7235038449008933
 31
0.0
  0
LINE
  5
1044
  8
0
 62
     0
 10
22.99999999983179
 20
7.8509718297541973
 30
0.0
 11
22.24999999981997
 21
8.6009718297660207
 31
0.0
  0
LINE
  5
1045
  8
0
 62
     0
 10
22.99999999983179
 20
6.7284398146205531
 30
0.0
 11
22.249999999821188
 21
7.4784398146311482
 31
0.0
  0
LINE
  5
1046
  8
0
 62
     0
 10
22.9999999998318
 20
5.6059077994869142
 30
0.0
 11
22.249999999822439
 21
6.3559077994962747
 31
0.0
  0
LINE
  5
1047
  8
0
 62
     0
 10
22.99999999983179
 20
4.48337578435327
 30
0.0
 11
22.24999999982365
 21
5.233375784361403
 31
0.0
  0
LINE
  5
1048
  8
0
 62
     0
 10
22.99999999983179
 20
3.3608437692196271
 30
0.0
 11
22.249999999824901
 21
4.1108437692265234
 31
0.0
  0
LINE
  5
1049
  8
0
 62
     0
 10
22.999999999831779
 20
2.2383117540859869
 30
0.0
 11
22.249999999826109
 21
2.9883117540916539
 31
0.0
  0
LINE
  5
104A
  8
0
 62
     0
 10
22.999999999831779
 20
1.1157797389523401
 30
0.0
 11
22.249999999827349
 21
1.8657797389567781
 31
0.0
  0
LINE
  5
104B
  8
0
 62
     0
 10
22.999999999831779
 20
-0.0067522761812988
 30
0.0
 11
22.249999999828571
 21
0.743247723821913
 31
0.0
  0
LINE
  5
104C
  8
0
 62
     0
 10
22.999999999831779
 20
-1.1292842913149379
 30
0.0
 11
22.2499999998298
 21
-0.3792842913129633
 31
0.0
  0
LINE
  5
104D
  8
0
 62
     0
 10
22.999999999831779
 20
-2.251816306448581
 30
0.0
 11
22.249999999831029
 21
-1.5018163064478349
 31
0.0
  0
LINE
  5
104E
  8
0
 62
     0
 10
22.625651678365191
 20
-3.0000000001156399
 30
0.0
 11
22.249999999832259
 21
-2.6243483215827079
 31
0.0
  0
ENDBLK
  5
1050
  8
0
  0
BLOCK
  8
0
  2
*X41
 70
     1
 10
0.0
 20
0.0
 30
0.0
  3
*X41
  1

  0
LINE
  5
1052
  8
0
 62
     0
 10
65.680151519177045
 20
9.7999999998957108
 30
0.0
 11
64.999999999832113
 21
9.1198484805507611
 31
0.0
  0
LINE
  5
1053
  8
0
 62
     0
 10
65.750000000183562
 20
8.7473164657685647
 30
0.0
 11
64.999999999832113
 21
7.9973164654171169
 31
0.0
  0
LINE
  5
1054
  8
0
 62
     0
 10
65.750000000182325
 20
7.624784450633685
 30
0.0
 11
64.999999999832113
 21
6.8747844502834718
 31
0.0
  0
LINE
  5
1055
  8
0
 62
     0
 10
65.750000000181089
 20
6.502252435498808
 30
0.0
 11
64.999999999832113
 21
5.7522524351498294
 31
0.0
  0
LINE
  5
1056
  8
0
 62
     0
 10
65.750000000179853
 20
5.3797204203639364
 30
0.0
 11
64.999999999832113
 21
4.6297204200161861
 31
0.0
  0
LINE
  5
1057
  8
0
 62
     0
 10
65.75000000017863
 20
4.2571884052290567
 30
0.0
 11
64.999999999832113
 21
3.5071884048825401
 31
0.0
  0
LINE
  5
1058
  8
0
 62
     0
 10
65.750000000177408
 20
3.1346563900941882
 30
0.0
 11
64.999999999832113
 21
2.3846563897488959
 31
0.0
  0
LINE
  5
1059
  8
0
 62
     0
 10
65.750000000176172
 20
2.0121243749593098
 30
0.0
 11
64.999999999832113
 21
1.2621243746152531
 31
0.0
  0
LINE
  5
105A
  8
0
 62
     0
 10
65.750000000174936
 20
0.8895923598244319
 30
0.0
 11
64.999999999832113
 21
0.139592359481608
 31
0.0
  0
LINE
  5
105B
  8
0
 62
     0
 10
65.750000000173699
 20
-0.2329396553104397
 30
0.0
 11
64.999999999832113
 21
-0.9829396556520372
 31
0.0
  0
LINE
  5
105C
  8
0
 62
     0
 10
65.750000000172463
 20
-1.3554716704453169
 30
0.0
 11
64.999999999832113
 21
-2.1054716707856809
 31
0.0
  0
LINE
  5
105D
  8
0
 62
     0
 10
65.750000000171241
 20
-2.4780036855801941
 30
0.0
 11
65.228003685635954
 21
-3.0000000001154801
 31
0.0
  0
LINE
  5
105E
  8
0
 62
     0
 10
65.750000000183718
 20
8.8797204196144044
 30
0.0
 11
64.999999999832113
 21
9.6297204199659951
 31
0.0
  0
LINE
  5
105F
  8
0
 62
     0
 10
65.750000000182453
 20
7.757188404481993
 30
0.0
 11
64.999999999832113
 21
8.5071884048323536
 31
0.0
  0
LINE
  5
1060
  8
0
 62
     0
 10
65.750000000181245
 20
6.6346563893495762
 30
0.0
 11
64.999999999832113
 21
7.3846563896987059
 31
0.0
  0
LINE
  5
1061
  8
0
 62
     0
 10
65.750000000179995
 20
5.5121243742171666
 30
0.0
 11
64.999999999832113
 21
6.2621243745650652
 31
0.0
  0
LINE
  5
1062
  8
0
 62
     0
 10
65.750000000178773
 20
4.3895923590847561
 30
0.0
 11
64.999999999832113
 21
5.139592359431421
 31
0.0
  0
LINE
  5
1063
  8
0
 62
     0
 10
65.75000000017755
 20
3.2670603439523398
 30
0.0
 11
64.999999999832113
 21
4.0170603442977768
 31
0.0
  0
LINE
  5
1064
  8
0
 62
     0
 10
65.750000000176314
 20
2.1445283288199279
 30
0.0
 11
64.999999999832113
 21
2.8945283291641308
 31
0.0
  0
LINE
  5
1065
  8
0
 62
     0
 10
65.750000000175064
 20
1.021996313687519
 30
0.0
 11
64.999999999832113
 21
1.771996314030488
 31
0.0
  0
LINE
  5
1066
  8
0
 62
     0
 10
65.750000000173856
 20
-0.1005357014448984
 30
0.0
 11
64.999999999832113
 21
0.6494642988968434
 31
0.0
  0
LINE
  5
1067
  8
0
 62
     0
 10
65.750000000172605
 20
-1.2230677165773081
 30
0.0
 11
64.999999999832113
 21
-0.4730677162368
 31
0.0
  0
LINE
  5
1068
  8
0
 62
     0
 10
65.750000000171383
 20
-2.345599731709723
 30
0.0
 11
64.999999999832113
 21
-1.5955997313704451
 31
0.0
  0
LINE
  5
1069
  8
0
 62
     0
 10
65.281868253443562
 20
-3.00000000011554
 30
0.0
 11
64.999999999832113
 21
-2.7181317465040911
 31
0.0
  0
ENDBLK
  5
106B
  8
0
  0
BLOCK
  8
0
  2
*U42
 70
     1
 10
0.0
 20
0.0
 30
0.0
  3
*U42
  1

  0
TEXT
  5
10D8
  8
0
 62
     2
 10
20.874999999845372
 20
-7.3958485393668081
 30
0.0
 40
3.5
  1
47
  7
BYGG-027291$0$ISO
  0
ENDBLK
  5
10DA
  8
0
  0
BLOCK
  8
0
  2
*U43
 70
     1
 10
0.0
 20
0.0
 30
0.0
  3
*U43
  1

  0
TEXT
  5
10DC
  8
0
 62
     2
 10
56.848944787702273
 20
11.55000000062725
 30
0.0
 40
3.5
  1
28
 50
90.0
  7
BYGG-027291$0$ISO
  0
ENDBLK
  5
10DE
  8
0
  0
BLOCK
  8
0
  2
*X44
 70
     1
 10
0.0
 20
0.0
 30
0.0
  3
*X44
  1

  0
LINE
  5
10E0
  8
0
 62
     0
 10
38.100000000000001
 20
7.2500120012615614
 30
0.0
 11
38.100000000000001
 21
11.35002133459094
 31
0.0
  0
LINE
  5
10E1
  8
0
 62
     0
 10
36.512500000000003
 20
7.9722179862134324
 30
0.0
 11
36.512500000000003
 21
10.62780601630983
 31
0.0
  0
LINE
  5
10E2
  8
0
 62
     0
 10
34.924999999999997
 20
8.3500120012634955
 30
0.0
 11
34.924999999999997
 21
10.250012001263469
 31
0.0
  0
LINE
  5
10E3
  8
0
 62
     0
 10
33.337499999999999
 20
8.3500120012634955
 30
0.0
 11
33.337499999999999
 21
10.250012001263469
 31
0.0
  0
LINE
  5
10E4
  8
0
 62
     0
 10
31.75
 20
8.3500120012634955
 30
0.0
 11
31.75
 21
10.250012001263469
 31
0.0
  0
LINE
  5
10E5
  8
0
 62
     0
 10
30.162500000000001
 20
8.3500120012634955
 30
0.0
 11
30.162500000000001
 21
10.250012001263469
 31
0.0
  0
LINE
  5
10E6
  8
0
 62
     0
 10
28.574999999999999
 20
8.3500120012634955
 30
0.0
 11
28.574999999999999
 21
10.250012001263469
 31
0.0
  0
LINE
  5
10E7
  8
0
 62
     0
 10
26.987500000000001
 20
8.3500120012634955
 30
0.0
 11
26.987500000000001
 21
10.250012001263469
 31
0.0
  0
LINE
  5
10E8
  8
0
 62
     0
 10
25.399999999999999
 20
8.3500120012634955
 30
0.0
 11
25.399999999999999
 21
10.250012001263469
 31
0.0
  0
LINE
  5
10E9
  8
0
 62
     0
 10
23.8125
 20
8.3500120012634955
 30
0.0
 11
23.8125
 21
10.250012001263469
 31
0.0
  0
LINE
  5
10EA
  8
0
 62
     0
 10
22.225000000000001
 20
8.3500120012634955
 30
0.0
 11
22.225000000000001
 21
10.250012001263469
 31
0.0
  0
LINE
  5
10EB
  8
0
 62
     0
 10
20.637499999999999
 20
8.3500120012634955
 30
0.0
 11
20.637499999999999
 21
10.250012001263469
 31
0.0
  0
LINE
  5
10EC
  8
0
 62
     0
 10
19.050000000000001
 20
8.3500120012634955
 30
0.0
 11
19.050000000000001
 21
10.250012001263469
 31
0.0
  0
LINE
  5
10ED
  8
0
 62
     0
 10
17.462499999999999
 20
8.3500120012634955
 30
0.0
 11
17.462499999999999
 21
10.250012001263469
 31
0.0
  0
LINE
  5
10EE
  8
0
 62
     0
 10
15.875
 20
8.3500120012634955
 30
0.0
 11
15.875
 21
10.250012001263469
 31
0.0
  0
LINE
  5
10EF
  8
0
 62
     0
 10
14.2875
 20
8.3500120012634955
 30
0.0
 11
14.2875
 21
10.250012001263469
 31
0.0
  0
LINE
  5
10F0
  8
0
 62
     0
 10
12.699999999999999
 20
8.3500120012634955
 30
0.0
 11
12.699999999999999
 21
10.250012001263469
 31
0.0
  0
LINE
  5
10F1
  8
0
 62
     0
 10
11.112500000000001
 20
8.3119842071177121
 30
0.0
 11
11.112500000000001
 21
10.288039795407149
 31
0.0
  0
LINE
  5
10F2
  8
0
 62
     0
 10
9.5249999999999986
 20
7.4165183522970084
 30
0.0
 11
9.5249999999999986
 21
11.183505650226451
 31
0.0
  0
ENDBLK
  5
10F4
  8
0
  0
BLOCK
  8
0
  2
*U45
 70
     1
 10
0.0
 20
0.0
 30
0.0
  3
*U45
  1

  0
TEXT
  5
10F7
  8
0
 62
     2
 10
-12.000000000000011
 20
-1.474999999999985
 30
0.0
 40
3.5
  1
117
 50
90.0
  7
ISO
  0
ENDBLK
  5
10F9
  8
0
  0
BLOCK
  8
0
  2
*U46
 70
     1
 10
0.0
 20
0.0
 30
0.0
  3
*U46
  1

  0
TEXT
  5
10FB
  8
0
 62
     2
 10
-12.000000000000011
 20
62.900000000005512
 30
0.0
 40
3.5
  1
10
 50
90.0
  7
ISO
  0
ENDBLK
  5
10FD
  8
0
  0
BLOCK
  8
0
  2
*U47
 70
     1
 10
0.0
 20
0.0
 30
0.0
  3
*U47
  1

  0
TEXT
  5
10FF
  8
0
 62
     2
 10
14.27500000009033
 20
102.0000000000001
 30
0.0
 40
3.5
  1
6.5
  7
ISO
  0
ENDBLK
  5
1101
  8
0
  0
BLOCK
  8
0
  2
*U48
 70
     1
 10
0.0
 20
0.0
 30
0.0
  3
*U48
  1

  0
TEXT
  5
1103
  8
0
 62
     2
 10
73.17499999975108
 20
114.0000000000001
 30
0.0
 40
3.5
  1
125
  7
ISO
  0
ENDBLK
  5
1105
  8
0
  0
BLOCK
  8
0
  2
*U49
 70
     1
 10
0.0
 20
0.0
 30
0.0
  3
*U49
  1

  0
TEXT
  5
1107
  8
0
 62
     2
 10
73.174999963870675
 20
-68.462756140658584
 30
0.0
 40
3.5
  1
125
  7
BYGG-027377$0$ISO
  0
ENDBLK
  5
1109
  8
0
  0
BLOCK
  8
0
  2
*U50
 70
     1
 10
0.0
 20
0.0
 30
0.0
  3
*U50
  1

  0
TEXT
  5
14A5
  8
0
 62
     2
 10
41.375000000000171
 20
34.604151459371842
 30
0.0
 40
3.5
  1
47
  7
BYGG-027291$0$ISO
  0
ENDBLK
  5
14A7
  8
0
  0
BLOCK
  8
0
  2
*U51
 70
     1
 10
0.0
 20
0.0
 30
0.0
  3
*U51
  1

  0
TEXT
  5
14A9
  8
0
 62
     2
 10
77.348944787857064
 20
53.549999999365902
 30
0.0
 40
3.5
  1
28
 50
90.0
  7
BYGG-027291$0$ISO
  0
ENDBLK
  5
14AB
  8
0
  0
BLOCK
  8
0
  2
*U52
 70
     1
 10
0.0
 20
0.0
 30
0.0
  3
*U52
  1

  0
TEXT
  5
14AD
  8
0
 62
     2
 10
152.90701892661929
 20
-1.474999999999967
 30
0.0
 40
3.5
  1
117
 50
90.0
  7
BYGG-027377$0$ISO
  0
ENDBLK
  5
14AF
  8
0
  0
BLOCK
  8
0
  2
*X53
 70
     1
 10
0.0
 20
0.0
 30
0.0
  3
*X53
  1

  0
LINE
  5
14B1
  8
0
 62
     0
 10
65.680151519177045
 20
69.799999999895832
 30
0.0
 11
64.999999999832113
 21
69.119848480550885
 31
0.0
  0
LINE
  5
14B2
  8
0
 62
     0
 10
65.750000000183562
 20
68.747316465768691
 30
0.0
 11
64.999999999832113
 21
67.997316465417242
 31
0.0
  0
LINE
  5
14B3
  8
0
 62
     0
 10
65.750000000182325
 20
67.624784450633811
 30
0.0
 11
64.999999999832113
 21
66.874784450283599
 31
0.0
  0
LINE
  5
14B4
  8
0
 62
     0
 10
65.750000000181089
 20
66.502252435498932
 30
0.0
 11
64.999999999832113
 21
65.752252435149956
 31
0.0
  0
LINE
  5
14B5
  8
0
 62
     0
 10
65.750000000179853
 20
65.379720420364066
 30
0.0
 11
64.999999999832113
 21
64.629720420016312
 31
0.0
  0
LINE
  5
14B6
  8
0
 62
     0
 10
65.75000000017863
 20
64.257188405229172
 30
0.0
 11
64.999999999832113
 21
63.507188404882662
 31
0.0
  0
LINE
  5
14B7
  8
0
 62
     0
 10
65.750000000177408
 20
63.134656390094307
 30
0.0
 11
64.999999999832113
 21
62.384656389749019
 31
0.0
  0
LINE
  5
14B8
  8
0
 62
     0
 10
65.750000000176172
 20
62.012124374959427
 30
0.0
 11
64.999999999832113
 21
61.262124374615368
 31
0.0
  0
LINE
  5
14B9
  8
0
 62
     0
 10
65.750000000174936
 20
60.889592359824547
 30
0.0
 11
64.999999999832113
 21
60.139592359481732
 31
0.0
  0
LINE
  5
14BA
  8
0
 62
     0
 10
65.750000000173699
 20
59.767060344689682
 30
0.0
 11
64.999999999832113
 21
59.017060344348089
 31
0.0
  0
LINE
  5
14BB
  8
0
 62
     0
 10
65.750000000172463
 20
58.644528329554809
 30
0.0
 11
64.999999999832113
 21
57.894528329214438
 31
0.0
  0
LINE
  5
14BC
  8
0
 62
     0
 10
65.750000000171241
 20
57.521996314419923
 30
0.0
 11
65.228003685635954
 21
56.999999999884643
 31
0.0
  0
LINE
  5
14BD
  8
0
 62
     0
 10
65.750000000183718
 20
68.879720419614529
 30
0.0
 11
64.999999999832113
 21
69.629720419966134
 31
0.0
  0
LINE
  5
14BE
  8
0
 62
     0
 10
65.750000000182453
 20
67.757188404482122
 30
0.0
 11
64.999999999832113
 21
68.507188404832476
 31
0.0
  0
LINE
  5
14BF
  8
0
 62
     0
 10
65.750000000181245
 20
66.634656389349701
 30
0.0
 11
64.999999999832085
 21
67.384656389698847
 31
0.0
  0
LINE
  5
14C0
  8
0
 62
     0
 10
65.750000000179995
 20
65.512124374217294
 30
0.0
 11
64.999999999832113
 21
66.262124374565204
 31
0.0
  0
LINE
  5
14C1
  8
0
 62
     0
 10
65.750000000178773
 20
64.389592359084887
 30
0.0
 11
64.999999999832085
 21
65.13959235943156
 31
0.0
  0
LINE
  5
14C2
  8
0
 62
     0
 10
65.75000000017755
 20
63.267060343952473
 30
0.0
 11
64.999999999832113
 21
64.017060344297903
 31
0.0
  0
LINE
  5
14C3
  8
0
 62
     0
 10
65.7500000001763
 20
62.144528328820051
 30
0.0
 11
64.999999999832085
 21
62.89452832916426
 31
0.0
  0
LINE
  5
14C4
  8
0
 62
     0
 10
65.750000000175064
 20
61.021996313687652
 30
0.0
 11
64.999999999832113
 21
61.771996314030623
 31
0.0
  0
LINE
  5
14C5
  8
0
 62
     0
 10
65.750000000173856
 20
59.899464298555223
 30
0.0
 11
64.999999999832113
 21
60.649464298896973
 31
0.0
  0
LINE
  5
14C6
  8
0
 62
     0
 10
65.750000000172605
 20
58.776932283422802
 30
0.0
 11
64.999999999832113
 21
59.526932283763323
 31
0.0
  0
LINE
  5
14C7
  8
0
 62
     0
 10
65.750000000171397
 20
57.654400268290402
 30
0.0
 11
64.999999999832113
 21
58.404400268629672
 31
0.0
  0
LINE
  5
14C8
  8
0
 62
     0
 10
65.281868253443577
 20
56.999999999884572
 30
0.0
 11
64.999999999832113
 21
57.281868253496029
 31
0.0
  0
ENDBLK
  5
14CA
  8
0
  0
BLOCK
  8
0
  2
*X54
 70
     1
 10
0.0
 20
0.0
 30
0.0
  3
*X54
  1

  0
LINE
  5
14CC
  8
0
 62
     0
 10
22.9999999998318
 20
69.776065055629061
 30
0.0
 11
22.249999999819501
 21
69.026065055616755
 31
0.0
  0
LINE
  5
14CD
  8
0
 62
     0
 10
22.99999999983179
 20
68.653533040495404
 30
0.0
 11
22.24999999982073
 21
67.903533040484334
 31
0.0
  0
LINE
  5
14CE
  8
0
 62
     0
 10
22.99999999983179
 20
67.531001025361775
 30
0.0
 11
22.249999999821959
 21
66.781001025351941
 31
0.0
  0
LINE
  5
14CF
  8
0
 62
     0
 10
22.99999999983179
 20
66.408469010228103
 30
0.0
 11
22.249999999823181
 21
65.65846901021952
 31
0.0
  0
LINE
  5
14D0
  8
0
 62
     0
 10
22.99999999983179
 20
65.285936995094474
 30
0.0
 11
22.249999999824428
 21
64.535936995087098
 31
0.0
  0
LINE
  5
14D1
  8
0
 62
     0
 10
22.999999999831779
 20
64.163404979960831
 30
0.0
 11
22.24999999982564
 21
63.413404979954691
 31
0.0
  0
LINE
  5
14D2
  8
0
 62
     0
 10
22.999999999831779
 20
63.040872964827173
 30
0.0
 11
22.24999999982688
 21
62.29087296482227
 31
0.0
  0
LINE
  5
14D3
  8
0
 62
     0
 10
22.999999999831779
 20
61.918340949693523
 30
0.0
 11
22.249999999828098
 21
61.168340949689849
 31
0.0
  0
LINE
  5
14D4
  8
0
 62
     0
 10
22.999999999831779
 20
60.795808934559894
 30
0.0
 11
22.249999999829338
 21
60.045808934557442
 31
0.0
  0
LINE
  5
14D5
  8
0
 62
     0
 10
22.999999999831768
 20
59.67327691942625
 30
0.0
 11
22.24999999983055
 21
58.923276919425042
 31
0.0
  0
LINE
  5
14D6
  8
0
 62
     0
 10
22.999999999831779
 20
58.550744904292593
 30
0.0
 11
22.24999999983179
 21
57.8007449042926
 31
0.0
  0
LINE
  5
14D7
  8
0
 62
     0
 10
22.999999999831761
 20
57.428212889158942
 30
0.0
 11
22.571787110557249
 21
56.99999999988443
 31
0.0
  0
LINE
  5
14D8
  8
0
 62
     0
 10
22.99999999983179
 20
68.973503844887972
 30
0.0
 11
22.249999999818741
 21
69.723503844901018
 31
0.0
  0
LINE
  5
14D9
  8
0
 62
     0
 10
22.99999999983179
 20
67.850971829754329
 30
0.0
 11
22.24999999981997
 21
68.600971829766124
 31
0.0
  0
LINE
  5
14DA
  8
0
 62
     0
 10
22.999999999831779
 20
66.728439814620685
 30
0.0
 11
22.249999999821188
 21
67.478439814631287
 31
0.0
  0
LINE
  5
14DB
  8
0
 62
     0
 10
22.99999999983179
 20
65.605907799487042
 30
0.0
 11
22.249999999822428
 21
66.355907799496407
 31
0.0
  0
LINE
  5
14DC
  8
0
 62
     0
 10
22.999999999831779
 20
64.483375784353399
 30
0.0
 11
22.24999999982365
 21
65.233375784361513
 31
0.0
  0
LINE
  5
14DD
  8
0
 62
     0
 10
22.99999999983179
 20
63.360843769219763
 30
0.0
 11
22.24999999982489
 21
64.110843769226648
 31
0.0
  0
LINE
  5
14DE
  8
0
 62
     0
 10
22.999999999831779
 20
62.238311754086119
 30
0.0
 11
22.249999999826109
 21
62.988311754091789
 31
0.0
  0
LINE
  5
14DF
  8
0
 62
     0
 10
22.999999999831768
 20
61.115779738952483
 30
0.0
 11
22.249999999827342
 21
61.86577973895691
 31
0.0
  0
LINE
  5
14E0
  8
0
 62
     0
 10
22.999999999831779
 20
59.993247723818833
 30
0.0
 11
22.24999999982856
 21
60.743247723822051
 31
0.0
  0
LINE
  5
14E1
  8
0
 62
     0
 10
22.999999999831779
 20
58.870715708685182
 30
0.0
 11
22.249999999829789
 21
59.620715708687172
 31
0.0
  0
LINE
  5
14E2
  8
0
 62
     0
 10
22.999999999831768
 20
57.74818369355156
 30
0.0
 11
22.249999999831019
 21
58.498183693552292
 31
0.0
  0
LINE
  5
14E3
  8
0
 62
     0
 10
22.625651678365191
 20
56.99999999988448
 30
0.0
 11
22.249999999832252
 21
57.375651678417427
 31
0.0
  0
ENDBLK
  5
14E5
  8
0
  0
BLOCK
  8
0
  2
*X55
 70
     1
 10
0.0
 20
0.0
 30
0.0
  3
*X55
  1

  0
LINE
  5
150B
  8
0
 62
     0
 10
65.680151519177045
 20
69.799999999895832
 30
0.0
 11
64.999999999832113
 21
69.119848480550885
 31
0.0
  0
LINE
  5
150C
  8
0
 62
     0
 10
65.750000000183562
 20
68.747316465768691
 30
0.0
 11
64.999999999832113
 21
67.997316465417242
 31
0.0
  0
LINE
  5
150D
  8
0
 62
     0
 10
65.750000000182325
 20
67.624784450633811
 30
0.0
 11
64.999999999832113
 21
66.874784450283599
 31
0.0
  0
LINE
  5
150E
  8
0
 62
     0
 10
65.750000000181089
 20
66.502252435498932
 30
0.0
 11
64.999999999832113
 21
65.752252435149956
 31
0.0
  0
LINE
  5
150F
  8
0
 62
     0
 10
65.750000000179853
 20
65.379720420364066
 30
0.0
 11
64.999999999832113
 21
64.629720420016312
 31
0.0
  0
LINE
  5
1510
  8
0
 62
     0
 10
65.75000000017863
 20
64.257188405229172
 30
0.0
 11
64.999999999832113
 21
63.507188404882662
 31
0.0
  0
LINE
  5
1511
  8
0
 62
     0
 10
65.750000000177408
 20
63.134656390094307
 30
0.0
 11
64.999999999832113
 21
62.384656389749019
 31
0.0
  0
LINE
  5
1512
  8
0
 62
     0
 10
65.750000000176172
 20
62.012124374959427
 30
0.0
 11
64.999999999832113
 21
61.262124374615368
 31
0.0
  0
LINE
  5
1513
  8
0
 62
     0
 10
65.750000000174936
 20
60.889592359824547
 30
0.0
 11
64.999999999832113
 21
60.139592359481732
 31
0.0
  0
LINE
  5
1514
  8
0
 62
     0
 10
65.750000000173699
 20
59.767060344689682
 30
0.0
 11
64.999999999832113
 21
59.017060344348089
 31
0.0
  0
LINE
  5
1515
  8
0
 62
     0
 10
65.750000000172463
 20
58.644528329554809
 30
0.0
 11
64.999999999832113
 21
57.894528329214438
 31
0.0
  0
LINE
  5
1516
  8
0
 62
     0
 10
65.750000000171241
 20
57.521996314419923
 30
0.0
 11
65.228003685635954
 21
56.999999999884643
 31
0.0
  0
LINE
  5
1517
  8
0
 62
     0
 10
65.750000000183718
 20
68.879720419614529
 30
0.0
 11
64.999999999832113
 21
69.629720419966134
 31
0.0
  0
LINE
  5
1518
  8
0
 62
     0
 10
65.750000000182453
 20
67.757188404482122
 30
0.0
 11
64.999999999832113
 21
68.507188404832476
 31
0.0
  0
LINE
  5
1519
  8
0
 62
     0
 10
65.750000000181245
 20
66.634656389349701
 30
0.0
 11
64.999999999832085
 21
67.384656389698847
 31
0.0
  0
LINE
  5
151A
  8
0
 62
     0
 10
65.750000000179995
 20
65.512124374217294
 30
0.0
 11
64.999999999832113
 21
66.262124374565204
 31
0.0
  0
LINE
  5
151B
  8
0
 62
     0
 10
65.750000000178773
 20
64.389592359084887
 30
0.0
 11
64.999999999832085
 21
65.13959235943156
 31
0.0
  0
LINE
  5
151C
  8
0
 62
     0
 10
65.75000000017755
 20
63.267060343952473
 30
0.0
 11
64.999999999832113
 21
64.017060344297903
 31
0.0
  0
LINE
  5
151D
  8
0
 62
     0
 10
65.7500000001763
 20
62.144528328820051
 30
0.0
 11
64.999999999832085
 21
62.89452832916426
 31
0.0
  0
LINE
  5
151E
  8
0
 62
     0
 10
65.750000000175064
 20
61.021996313687652
 30
0.0
 11
64.999999999832113
 21
61.771996314030623
 31
0.0
  0
LINE
  5
151F
  8
0
 62
     0
 10
65.750000000173856
 20
59.899464298555223
 30
0.0
 11
64.999999999832113
 21
60.649464298896973
 31
0.0
  0
LINE
  5
1520
  8
0
 62
     0
 10
65.750000000172605
 20
58.776932283422802
 30
0.0
 11
64.999999999832113
 21
59.526932283763323
 31
0.0
  0
LINE
  5
1521
  8
0
 62
     0
 10
65.750000000171397
 20
57.654400268290402
 30
0.0
 11
64.999999999832113
 21
58.404400268629672
 31
0.0
  0
LINE
  5
1522
  8
0
 62
     0
 10
65.281868253443577
 20
56.999999999884572
 30
0.0
 11
64.999999999832113
 21
57.281868253496029
 31
0.0
  0
ENDBLK
  5
1524
  8
0
  0
BLOCK
  8
0
  2
*X56
 70
     1
 10
0.0
 20
0.0
 30
0.0
  3
*X56
  1

  0
LINE
  5
1526
  8
0
 62
     0
 10
22.9999999998318
 20
69.776065055629061
 30
0.0
 11
22.249999999819501
 21
69.026065055616755
 31
0.0
  0
LINE
  5
1527
  8
0
 62
     0
 10
22.99999999983179
 20
68.653533040495404
 30
0.0
 11
22.24999999982073
 21
67.903533040484334
 31
0.0
  0
LINE
  5
1528
  8
0
 62
     0
 10
22.99999999983179
 20
67.531001025361775
 30
0.0
 11
22.249999999821959
 21
66.781001025351941
 31
0.0
  0
LINE
  5
1529
  8
0
 62
     0
 10
22.99999999983179
 20
66.408469010228103
 30
0.0
 11
22.249999999823181
 21
65.65846901021952
 31
0.0
  0
LINE
  5
152A
  8
0
 62
     0
 10
22.99999999983179
 20
65.285936995094474
 30
0.0
 11
22.249999999824428
 21
64.535936995087098
 31
0.0
  0
LINE
  5
152B
  8
0
 62
     0
 10
22.999999999831779
 20
64.163404979960831
 30
0.0
 11
22.24999999982564
 21
63.413404979954691
 31
0.0
  0
LINE
  5
152C
  8
0
 62
     0
 10
22.999999999831779
 20
63.040872964827173
 30
0.0
 11
22.24999999982688
 21
62.29087296482227
 31
0.0
  0
LINE
  5
152D
  8
0
 62
     0
 10
22.999999999831779
 20
61.918340949693523
 30
0.0
 11
22.249999999828098
 21
61.168340949689849
 31
0.0
  0
LINE
  5
152E
  8
0
 62
     0
 10
22.999999999831779
 20
60.795808934559894
 30
0.0
 11
22.249999999829338
 21
60.045808934557442
 31
0.0
  0
LINE
  5
152F
  8
0
 62
     0
 10
22.999999999831768
 20
59.67327691942625
 30
0.0
 11
22.24999999983055
 21
58.923276919425042
 31
0.0
  0
LINE
  5
1530
  8
0
 62
     0
 10
22.999999999831779
 20
58.550744904292593
 30
0.0
 11
22.24999999983179
 21
57.8007449042926
 31
0.0
  0
LINE
  5
1531
  8
0
 62
     0
 10
22.999999999831761
 20
57.428212889158942
 30
0.0
 11
22.571787110557249
 21
56.99999999988443
 31
0.0
  0
LINE
  5
1532
  8
0
 62
     0
 10
22.99999999983179
 20
68.973503844887972
 30
0.0
 11
22.249999999818741
 21
69.723503844901018
 31
0.0
  0
LINE
  5
1533
  8
0
 62
     0
 10
22.99999999983179
 20
67.850971829754329
 30
0.0
 11
22.24999999981997
 21
68.600971829766124
 31
0.0
  0
LINE
  5
1534
  8
0
 62
     0
 10
22.999999999831779
 20
66.728439814620685
 30
0.0
 11
22.249999999821188
 21
67.478439814631287
 31
0.0
  0
LINE
  5
1535
  8
0
 62
     0
 10
22.99999999983179
 20
65.605907799487042
 30
0.0
 11
22.249999999822428
 21
66.355907799496407
 31
0.0
  0
LINE
  5
1536
  8
0
 62
     0
 10
22.999999999831779
 20
64.483375784353399
 30
0.0
 11
22.24999999982365
 21
65.233375784361513
 31
0.0
  0
LINE
  5
1537
  8
0
 62
     0
 10
22.99999999983179
 20
63.360843769219763
 30
0.0
 11
22.24999999982489
 21
64.110843769226648
 31
0.0
  0
LINE
  5
1538
  8
0
 62
     0
 10
22.999999999831779
 20
62.238311754086119
 30
0.0
 11
22.249999999826109
 21
62.988311754091789
 31
0.0
  0
LINE
  5
1539
  8
0
 62
     0
 10
22.999999999831768
 20
61.115779738952483
 30
0.0
 11
22.249999999827342
 21
61.86577973895691
 31
0.0
  0
LINE
  5
153A
  8
0
 62
     0
 10
22.999999999831779
 20
59.993247723818833
 30
0.0
 11
22.24999999982856
 21
60.743247723822051
 31
0.0
  0
LINE
  5
153B
  8
0
 62
     0
 10
22.999999999831779
 20
58.870715708685182
 30
0.0
 11
22.249999999829789
 21
59.620715708687172
 31
0.0
  0
LINE
  5
153C
  8
0
 62
     0
 10
22.999999999831768
 20
57.74818369355156
 30
0.0
 11
22.249999999831019
 21
58.498183693552292
 31
0.0
  0
LINE
  5
153D
  8
0
 62
     0
 10
22.625651678365191
 20
56.99999999988448
 30
0.0
 11
22.249999999832252
 21
57.375651678417427
 31
0.0
  0
ENDBLK
  5
153F
  8
0
  0
BLOCK
  8
0
  2
*U57
 70
     1
 10
0.0
 20
0.0
 30
0.0
  3
*U57
  1

  0
TEXT
  5
16C0
  8
SAPA_MATT
 62
     2
 10
-24.002651515151459
 20
-13.225000000010651
 30
0.0
 40
3.5
  1
min. 130
 50
90.0
  7
ISO
  0
ENDBLK
  5
16C2
  8
0
  0
BLOCK
  8
0
  2
*U58
 70
     1
 10
0.0
 20
0.0
 30
0.0
  3
*U58
  1

  0
TEXT
  5
16C4
  8
SAPA_MATT
 62
     2
 10
73.17499999975108
 20
114.0000000000001
 30
0.0
 40
3.5
  1
125
  7
ISO
  0
ENDBLK
  5
16C6
  8
0
  0
BLOCK
  8
0
  2
*U59
 70
     1
 10
0.0
 20
0.0
 30
0.0
  3
*U59
  1

  0
TEXT
  5
16C8
  8
SAPA_MATT
 62
     2
 10
14.27500000009033
 20
102.0000000000001
 30
0.0
 40
3.5
  1
6.5
  7
ISO
  0
ENDBLK
  5
16CA
  8
0
  0
BLOCK
  8
0
  2
*U60
 70
     1
 10
0.0
 20
0.0
 30
0.0
  3
*U60
  1

  0
TEXT
  5
16CC
  8
SAPA_MATT
 62
     2
 10
-12.000000000000011
 20
-1.474999999999985
 30
0.0
 40
3.5
  1
117
 50
90.0
  7
ISO
  0
ENDBLK
  5
16CE
  8
0
  0
ENDSEC
  0
SECTION
  2
ENTITIES
  0
TEXT
  5
70A
  8
SAPA_ARTIKELNR
 10
12.345450637514279
 20
-32.243587403564142
 30
0.0000000048844772
 40
3.5
  1
D8K029
 50
90.0
  7
ISO
  0
TEXT
  5
722
  8
SAPA_ARTIKELNR
 10
72.575133405226154
 20
63.43651889495797
 30
0.0000000048844772
 40
3.5
  1
D8V004
 50
90.0
  7
ISO
  0
POLYLINE
  5
85A
  8
SAPA_BESLAG
 66
     1
 10
0.0
 20
0.0
 30
0.0
 70
     1
  0
VERTEX
  5
CF9
  8
SAPA_BESLAG
 10
55.500000001612129
 20
27.50000000268366
 30
0.0
 42
-0.4142135623733615
  0
VERTEX
  5
CFA
  8
SAPA_BESLAG
 10
55.000000001612129
 20
27.000000002683201
 30
0.0
  0
VERTEX
  5
CFB
  8
SAPA_BESLAG
 10
50.700000001609233
 20
27.000000002683201
 30
0.0
 42
-0.4142135623730951
  0
VERTEX
  5
CFC
  8
SAPA_BESLAG
 10
50.200000001609233
 20
27.500000002683201
 30
0.0
  0
VERTEX
  5
CFD
  8
SAPA_BESLAG
 10
50.200000001609233
 20
46.934173753879989
 30
0.0
 42
-0.0655434628193178
  0
VERTEX
  5
CFE
  8
SAPA_BESLAG
 10
50.2170370884674
 20
47.063583276432567
 30
0.0
  0
VERTEX
  5
CFF
  8
SAPA_BESLAG
 10
50.904548159767572
 20
49.629409525242558
 30
0.0
 42
-0.3394542588589677
  0
VERTEX
  5
D00
  8
SAPA_BESLAG
 10
51.387511072910058
 20
50.000000002683649
 30
0.0
  0
VERTEX
  5
D01
  8
SAPA_BESLAG
 10
53.205309252629888
 20
50.000000002683649
 30
0.0
 42
-0.3394542588711624
  0
VERTEX
  5
D02
  8
SAPA_BESLAG
 10
53.6882721657717
 20
49.62940952523077
 30
0.0
  0
VERTEX
  5
D03
  8
SAPA_BESLAG
 10
54.400700581730611
 20
46.970590480043661
 30
0.0
 42
0.3394542588715295
  0
VERTEX
  5
D04
  8
SAPA_BESLAG
 10
54.883663494878931
 20
46.600000002580792
 30
0.0
  0
VERTEX
  5
D05
  8
SAPA_BESLAG
 10
57.116336509014722
 20
46.600000002581247
 30
0.0
 42
0.2360679770209484
  0
VERTEX
  5
D06
  8
SAPA_BESLAG
 10
57.516336508470523
 20
46.800000001847771
 30
0.0
 42
-0.2360679770747178
  0
VERTEX
  5
D07
  8
SAPA_BESLAG
 10
57.91633650802811
 20
47.000000001122046
 30
0.0
  0
VERTEX
  5
D08
  8
SAPA_BESLAG
 10
65.000000003169191
 20
46.999999999689607
 30
0.0
 42
-0.4142135623134248
  0
VERTEX
  5
D09
  8
SAPA_BESLAG
 10
65.500000003067328
 20
46.499999999689607
 30
0.0
  0
VERTEX
  5
D0A
  8
SAPA_BESLAG
 10
65.500000003052776
 20
44.100000002683572
 30
0.0
 42
-0.4142135623730951
  0
VERTEX
  5
D0B
  8
SAPA_BESLAG
 10
65.000000003052776
 20
43.600000002683558
 30
0.0
  0
VERTEX
  5
D0C
  8
SAPA_BESLAG
 10
57.000000001612129
 20
43.600000002684467
 30
0.0
 42
0.4142135623730951
  0
VERTEX
  5
D0D
  8
SAPA_BESLAG
 10
55.500000001612129
 20
42.100000002684467
 30
0.0
  0
VERTEX
  5
D0E
  8
SAPA_BESLAG
 10
55.500000001597591
 20
38.846410164153639
 30
0.0
  0
VERTEX
  5
D0F
  8
SAPA_BESLAG
 10
55.300000001629591
 20
38.500000002685013
 30
0.0
  0
VERTEX
  5
D10
  8
SAPA_BESLAG
 10
55.500000001612129
 20
38.153589841166387
 30
0.0
  0
VERTEX
  5
D11
  8
SAPA_BESLAG
 10
55.500000001597591
 20
36.846410164171367
 30
0.0
  0
VERTEX
  5
D12
  8
SAPA_BESLAG
 10
55.300000001629591
 20
36.500000002683208
 30
0.0
  0
VERTEX
  5
D13
  8
SAPA_BESLAG
 10
55.500000001612129
 20
36.153589841164568
 30
0.0
  0
SEQEND
  5
D14
  8
SAPA_BESLAG
  0
POLYLINE
  5
85B
  8
SAPA_BESLAG
 66
     1
 10
0.0
 20
0.0
 30
0.0
 70
     1
  0
VERTEX
  5
D15
  8
SAPA_BESLAG
 10
32.500000001117371
 20
27.50000000268366
 30
0.0
 42
0.4142135623733615
  0
VERTEX
  5
D16
  8
SAPA_BESLAG
 10
33.000000001117371
 20
27.000000002683201
 30
0.0
  0
VERTEX
  5
D17
  8
SAPA_BESLAG
 10
37.300000001120281
 20
27.000000002683201
 30
0.0
 42
0.4142135623730951
  0
VERTEX
  5
D18
  8
SAPA_BESLAG
 10
37.800000001120281
 20
27.500000002683201
 30
0.0
  0
VERTEX
  5
D19
  8
SAPA_BESLAG
 10
37.800000001120281
 20
46.934173753879989
 30
0.0
 42
0.0655434628193178
  0
VERTEX
  5
D1A
  8
SAPA_BESLAG
 10
37.7829629142621
 20
47.063583276432567
 30
0.0
  0
VERTEX
  5
D1B
  8
SAPA_BESLAG
 10
37.095451842961943
 20
49.629409525242558
 30
0.0
 42
0.3394542588589676
  0
VERTEX
  5
D1C
  8
SAPA_BESLAG
 10
36.612488929819449
 20
50.000000002683649
 30
0.0
  0
VERTEX
  5
D1D
  8
SAPA_BESLAG
 10
34.794690750099619
 20
50.000000002683649
 30
0.0
 42
0.3394542588711624
  0
VERTEX
  5
D1E
  8
SAPA_BESLAG
 10
34.3117278369578
 20
49.62940952523077
 30
0.0
  0
VERTEX
  5
D1F
  8
SAPA_BESLAG
 10
33.599299420998911
 20
46.970590480043661
 30
0.0
 42
-0.3394542588715294
  0
VERTEX
  5
D20
  8
SAPA_BESLAG
 10
33.116336507850583
 20
46.600000002580792
 30
0.0
  0
VERTEX
  5
D21
  8
SAPA_BESLAG
 10
30.883663493714781
 20
46.600000002581247
 30
0.0
 42
-0.2360679770209483
  0
VERTEX
  5
D22
  8
SAPA_BESLAG
 10
30.48366349425898
 20
46.800000001847749
 30
0.0
 42
0.2360679770747184
  0
VERTEX
  5
D23
  8
SAPA_BESLAG
 10
30.083663494701401
 20
47.000000001122046
 30
0.0
  0
VERTEX
  5
D24
  8
SAPA_BESLAG
 10
22.99999999956033
 20
46.999999999689607
 30
0.0
 42
0.4142135623134248
  0
VERTEX
  5
D25
  8
SAPA_BESLAG
 10
22.49999999966218
 20
46.499999999689607
 30
0.0
  0
VERTEX
  5
D26
  8
SAPA_BESLAG
 10
22.499999999676731
 20
44.100000002683572
 30
0.0
 42
0.4142135623730951
  0
VERTEX
  5
D27
  8
SAPA_BESLAG
 10
22.999999999676731
 20
43.600000002683558
 30
0.0
  0
VERTEX
  5
D28
  8
SAPA_BESLAG
 10
31.000000001117371
 20
43.600000002684467
 30
0.0
 42
-0.4142135623730951
  0
VERTEX
  5
D29
  8
SAPA_BESLAG
 10
32.500000001117371
 20
42.100000002684467
 30
0.0
  0
VERTEX
  5
D2A
  8
SAPA_BESLAG
 10
32.50000000113193
 20
38.846410164153639
 30
0.0
  0
VERTEX
  5
D2B
  8
SAPA_BESLAG
 10
32.700000001099909
 20
38.500000002685013
 30
0.0
  0
VERTEX
  5
D2C
  8
SAPA_BESLAG
 10
32.500000001117371
 20
38.153589841166387
 30
0.0
  0
VERTEX
  5
D2D
  8
SAPA_BESLAG
 10
32.50000000113193
 20
36.846410164171367
 30
0.0
  0
VERTEX
  5
D2E
  8
SAPA_BESLAG
 10
32.700000001099909
 20
36.500000002683208
 30
0.0
  0
VERTEX
  5
D2F
  8
SAPA_BESLAG
 10
32.500000001117371
 20
36.153589841164568
 30
0.0
  0
SEQEND
  5
D30
  8
SAPA_BESLAG
  0
POLYLINE
  5
85C
  8
SAPA_BESLAG
 66
     1
 10
0.0
 20
0.0
 30
0.0
  0
VERTEX
  5
D31
  8
SAPA_BESLAG
 10
37.79999998578257
 20
28.000000002376702
 30
0.0
  0
VERTEX
  5
D32
  8
SAPA_BESLAG
 10
37.79999998578257
 20
50.350000002367949
 30
0.0
  0
SEQEND
  5
D33
  8
SAPA_BESLAG
  0
POLYLINE
  5
85D
  8
SAPA_BESLAG
 66
     1
 10
0.0
 20
0.0
 30
0.0
  0
VERTEX
  5
D34
  8
SAPA_BESLAG
 10
50.199999985776742
 20
50.350000002383489
 30
0.0
  0
VERTEX
  5
D35
  8
SAPA_BESLAG
 10
50.199999985776742
 20
28.000000002376702
 30
0.0
  0
SEQEND
  5
D36
  8
SAPA_BESLAG
  0
POLYLINE
  5
85E
  8
SAPA_BESLAG
 66
     1
 10
0.0
 20
0.0
 30
0.0
  0
VERTEX
  5
D37
  8
SAPA_BESLAG
 10
38.000000001350202
 20
50.350000002368212
 30
0.0
  0
VERTEX
  5
D38
  8
SAPA_BESLAG
 10
38.000000001350202
 20
22.750000002376709
 30
0.0
  0
VERTEX
  5
D39
  8
SAPA_BESLAG
 10
38.250000001350202
 20
22.50000000236852
 30
0.0
  0
VERTEX
  5
D3A
  8
SAPA_BESLAG
 10
38.250000001350202
 20
50.35000000236851
 30
0.0
  0
SEQEND
  5
D3B
  8
SAPA_BESLAG
  0
POLYLINE
  5
85F
  8
SAPA_BESLAG
 66
     1
 10
0.0
 20
0.0
 30
0.0
  0
VERTEX
  5
D3C
  8
SAPA_BESLAG
 10
49.750000001350202
 20
50.35000000238292
 30
0.0
  0
VERTEX
  5
D3D
  8
SAPA_BESLAG
 10
49.750000001350202
 20
22.50000000236852
 30
0.0
  0
VERTEX
  5
D3E
  8
SAPA_BESLAG
 10
50.000000001364747
 20
22.750000002376709
 30
0.0
  0
VERTEX
  5
D3F
  8
SAPA_BESLAG
 10
50.000000001352007
 20
50.350000002383261
 30
0.0
  0
SEQEND
  5
D40
  8
SAPA_BESLAG
  0
POLYLINE
  5
860
  8
SAPA_BESLAG
 66
     1
 10
0.0
 20
0.0
 30
0.0
  0
VERTEX
  5
D41
  8
SAPA_BESLAG
 10
38.250000001350202
 20
22.50000000236852
 30
0.0
  0
VERTEX
  5
D42
  8
SAPA_BESLAG
 10
41.719649151156247
 20
22.500000002372872
 30
0.0
 42
-0.4385290096522839
  0
VERTEX
  5
D43
  8
SAPA_BESLAG
 10
46.280350851544142
 20
22.500000002372872
 30
0.0
  0
VERTEX
  5
D44
  8
SAPA_BESLAG
 10
49.750000001350202
 20
22.50000000236761
 30
0.0
  0
SEQEND
  5
D45
  8
SAPA_BESLAG
  0
LINE
  5
861
  8
SAPA_BESLAG
 10
37.79999998578257
 20
50.350000002367949
 30
0.0
 11
50.199999985776742
 21
50.350000002383489
 31
0.0
  0
LINE
  5
929
  8
SAPA_ANSLUTNING
 10
4.0000000000001839
 20
60.0
 30
0.0
 11
-36.491479059085279
 21
60.0
 31
0.0
  0
LINE
  5
92A
  8
SAPA_ANSLUTNING
 10
4.0000000000001839
 20
30.999999999983999
 30
0.0
 11
-36.491479059085279
 21
30.999999999983999
 31
0.0
1001
GENIUS_GENREC_14
1002
{
1000
PYDIR
1011
-38.500000036128931
1021
0.0
1031
0.0
1021
30.999999999983999
1031
0.0
1002
}
1002
{
1000
PXDIR
1011
31.999999999992909
1021
0.0
1031
0.0
1021
-70.000000000016001
1031
0.0
1002
}
1002
{
1000
PORI
1011
-28.500000036128931
1021
0.0
1031
0.0
1021
-70.000000000016001
1031
0.0
1002
}
1002
{
1000
PINS
1011
-28.500000036128931
1021
0.0
1031
0.0
1021
-70.000000000016001
1031
0.0
1002
}
1002
{
1000
PINS2
1011
3.9999999999784519
1021
0.0
1031
0.0
1021
30.999999999983999
1031
0.0
1002
}
1002
{
1000
C
1070
     1
1002
}
1001
GENIUS_GENOBJ-N-REC_13
1002
{
1000
OWNER
1000
GEN
1002
}
1001
GENIUS_GENODEF_13
1002
{
1000
HIER
1070
     0
1002
}
1002
{
1000
MANEDIT
1070
     0
1002
}
1002
{
1000
NOSEL
1070
     0
1002
}
1002
{
1000
BEHIND
1070
     0
1002
}
1002
{
1000
OTHER
1070
     0
1002
}
1002
{
1000
REACTOR
1002
}
  0
INSERT
  5
92B
  8
SAPA_ANSLUTNING
  6
CONTINUOUS
  2
*X33
 10
0.0
 20
0.0
 30
0.0
1001
ACAD
1000
HATCH
1002
{
1070
    19
1000
ANSI37
1040
0.25
1040
0.0
1000
R14_HATCH_DATA
1000
92B
1011
1.0
1021
0.0
1031
0.0
1021
0.0
1031
0.0
1011
0.0
1021
0.0
1031
0.0
1021
1.0
1031
0.0
1011
0.0
1021
0.0
1031
0.0
1021
0.0
1031
1.0
1040
0.0
1010
0.0
1020
0.0
1030
1.0
1000
ANSI37
1070
     0
1070
     0
1071
        1
1071
        5
1071
        6
1070
     2
1040
137.49999992774141
1040
58.499999999999062
1040
1.4999999999999989
1040
5.49778714378209
1040
6.2831853071795569
1070
     0
1070
     1
1040
138.99999992774141
1040
58.499999999999091
1040
138.9999999277413
1040
47.663348763308562
1070
     3
1040
143.99999992774141
1040
47.66334876330825
1040
0.0
1040
-5.6210574168242138
1040
0.8895123513655372
1040
1.5707963267948959
1040
2.144309431217978
1070
     0
1070
     3
1040
143.99999992774141
1040
47.66334876330825
1040
0.0
1040
-5.6210574168242138
1040
0.8895123513655372
1040
2.144309431217978
1040
4.7123889803846888
1070
     0
1070
     1
1040
148.9999999277413
1040
47.663348763308903
1040
148.9999999277413
1040
59.999999999984112
1070
     2
1040
142.90216751656979
1040
80.646721299886494
1040
21.528368738726542
1040
1.2836189008757071
1040
1.773853352005716
1070
     0
1071
        0
1070
     0
1070
     1
1040
0.0
1040
0.25
1070
     0
1070
     2
1040
0.7853981633974483
1040
0.0000000000001101
1040
-0.0000000000008953
1040
-0.5612660075668221
1040
0.5612660075668221
1070
     0
1040
2.3561944901923439
1040
0.0000000000001101
1040
-0.0000000000008953
1040
-0.5612660075668221
1040
-0.5612660075668221
1070
     0
1040
0.0591690278051155
1071
        1
1040
142.9986763469897
1040
56.420364712924993
1040
0.0
1002
}
  0
LINE
  5
92C
  8
SAPA_ANSLUTNING
 10
4.0000000000002274
 20
-70.000000000021316
 30
0.0
 11
148.9999999277413
 21
-70.000000000021316
 31
0.0
  0
LINE
  5
92D
  8
SAPA_ANSLUTNING
 10
4.0000000000002203
 20
-111.29283270962939
 30
0.0
 11
4.0000000000002407
 21
60.000000000000142
 31
0.0
  0
POLYLINE
  5
92E
  8
SAPA_ANSLUTNING
 66
     1
 10
0.0
 20
0.0
 30
0.0
 70
     1
  0
VERTEX
  5
D7D
  8
SAPA_ANSLUTNING
 10
69.749999999999943
 20
-67.000000000021316
 30
0.0
 42
-0.4142135623730951
  0
VERTEX
  5
D7E
  8
SAPA_ANSLUTNING
 10
71.749999999999943
 20
-69.000000000021316
 30
0.0
  0
VERTEX
  5
D7F
  8
SAPA_ANSLUTNING
 10
71.749999999999943
 20
-70.000000000021316
 30
0.0
  0
VERTEX
  5
D80
  8
SAPA_ANSLUTNING
 10
16.75000000000005
 20
-70.000000000021316
 30
0.0
  0
VERTEX
  5
D81
  8
SAPA_ANSLUTNING
 10
16.74999999999994
 20
-10.00000000002133
 30
0.0
  0
VERTEX
  5
D82
  8
SAPA_ANSLUTNING
 10
17.74999999999994
 20
-10.00000000002133
 30
0.0
 42
-0.4142135623730951
  0
VERTEX
  5
D83
  8
SAPA_ANSLUTNING
 10
19.74999999999994
 20
-12.00000000002133
 30
0.0
  0
VERTEX
  5
D84
  8
SAPA_ANSLUTNING
 10
19.75000000000005
 20
-65.000000000021316
 30
0.0
 42
0.4142135623730951
  0
VERTEX
  5
D85
  8
SAPA_ANSLUTNING
 10
21.75000000000006
 20
-67.000000000021316
 30
0.0
  0
SEQEND
  5
D86
  8
SAPA_ANSLUTNING
  0
POLYLINE
  5
92F
  8
SAPA_ANSLUTNING
 66
     1
 10
0.0
 20
0.0
 30
0.0
 70
     1
1001
GENIUS_GENOREF_13
1005
0
  0
VERTEX
  5
D87
  8
SAPA_ANSLUTNING
 10
133.24999992774141
 20
-12.00000000002133
 30
0.0
  0
VERTEX
  5
D88
  8
SAPA_ANSLUTNING
 10
133.24999992774141
 20
-65.000000000021316
 30
0.0
 42
-0.4142135623730951
  0
VERTEX
  5
D89
  8
SAPA_ANSLUTNING
 10
131.24999992774141
 20
-67.000000000021316
 30
0.0
  0
VERTEX
  5
D8A
  8
SAPA_ANSLUTNING
 10
83.249999927741385
 20
-67.000000000021316
 30
0.0
 42
0.4142135623730951
  0
VERTEX
  5
D8B
  8
SAPA_ANSLUTNING
 10
81.249999927741385
 20
-69.000000000021316
 30
0.0
  0
VERTEX
  5
D8C
  8
SAPA_ANSLUTNING
 10
81.249999927741385
 20
-70.000000000021316
 30
0.0
  0
VERTEX
  5
D8D
  8
SAPA_ANSLUTNING
 10
136.24999992774141
 20
-70.000000000021316
 30
0.0
  0
VERTEX
  5
D8E
  8
SAPA_ANSLUTNING
 10
136.24999992774141
 20
-10.00000000002133
 30
0.0
  0
VERTEX
  5
D8F
  8
SAPA_ANSLUTNING
 10
135.24999992774141
 20
-10.00000000002133
 30
0.0
 42
0.4142135623730951
  0
SEQEND
  5
D90
  8
SAPA_ANSLUTNING
  0
LINE
  5
930
  8
SAPA_ANSLUTNING
 10
148.9999999277413
 20
59.999999999984112
 30
0.0
 11
194.00325593439959
 21
59.999999999984141
 31
0.0
  0
LINE
  5
931
  8
SAPA_ANSLUTNING
 10
194.0032559343995
 20
30.999999999984119
 30
0.0
 11
148.99999992774119
 21
30.999999999984141
 31
0.0
  0
LINE
  5
932
  8
SAPA_ANSLUTNING
 10
148.9999999277413
 20
-70.000000000021316
 30
0.0
 11
148.9999999277413
 21
59.999999999984112
 31
0.0
  0
ARC
  5
933
  8
SAPA_ANSLUTNING
 10
142.90216751656979
 20
80.64672129988665
 30
0.0
 40
21.52836873872667
 50
258.3656894549402
 51
286.45405447660011
  0
INSERT
  5
934
  8
SAPA_ANSLUTNING
  6
CONTINUOUS
  2
*X34
 10
0.0
 20
0.0
 30
0.0
1001
ACAD
1000
HATCH
1002
{
1070
    19
1000
HEX
1040
0.25
1040
0.0
1000
ASC_BOUNDS
1070
     1
1070
     1
1070
     1
1005
935
1000
ASC_SEEDPOINT
1011
144.242109937816
1021
0.0
1031
0.0
1021
47.781686452364973
1031
0.0
1000
R14_HATCH_DATA
1000
934
1011
1.0
1021
0.0
1031
0.0
1021
0.0
1031
0.0
1011
0.0
1021
0.0
1031
0.0
1021
1.0
1031
0.0
1011
0.0
1021
0.0
1031
0.0
1021
0.0
1031
1.0
1040
0.0
1010
0.0
1020
0.0
1030
1.0
1000
HEX
1070
     0
1070
     1
1071
        1
1071
        5
1071
        1
1070
     3
1040
143.99999992774141
1040
47.66334876330825
1040
0.0
1040
-5.6210574168242138
1040
0.8895123513655372
1040
0.0
1040
6.2831853071795862
1070
     1
1071
        1
1005
935
1070
     0
1070
     1
1040
0.0
1040
0.25
1070
     0
1070
     3
1040
0.0
1040
0.0000000000001101
1040
-0.0000000000008953
1040
0.0
1040
1.374814999999999
1070
     2
1040
0.79375
1040
-1.587499999999999
1040
2.0943951023931948
1040
0.0000000000001101
1040
-0.0000000000008953
1040
-1.190624715503902
1040
-0.6874074999999996
1070
     2
1040
0.7937499999999992
1040
-1.5874999999999979
1040
1.047197551196597
1040
0.7937500000000988
1040
-0.0000000000008953
1040
-1.190624715503902
1040
0.6874075000000001
1070
     2
1040
0.79375
1040
-1.587499999999999
1040
0.0591690278051155
1071
        1
1040
144.242109937816
1040
47.781686452364973
1040
0.0
1002
}
  0
POLYLINE
  5
935
  8
SAPA_ANSLUTNING
 10
143.99999992774141
 20
42.042291346484035
 30
0.0
 66
     1
 70
     8
  0
VERTEX
  8
SAPA_ANSLUTNING
  5
16D2
 10
144.000
 20
42.0423
 30
0.000000
  70
    32
  0
VERTEX
  8
SAPA_ANSLUTNING
  5
16D3
 10
144.245
 20
42.0491
 30
0.000000
  70
    32
  0
VERTEX
  8
SAPA_ANSLUTNING
  5
16D4
 10
144.490
 20
42.0694
 30
0.000000
  70
    32
  0
VERTEX
  8
SAPA_ANSLUTNING
  5
16D5
 10
144.734
 20
42.1031
 30
0.000000
  70
    32
  0
VERTEX
  8
SAPA_ANSLUTNING
  5
16D6
 10
144.975
 20
42.1503
 30
0.000000
  70
    32
  0
VERTEX
  8
SAPA_ANSLUTNING
  5
16D7
 10
145.215
 20
42.2107
 30
0.000000
  70
    32
  0
VERTEX
  8
SAPA_ANSLUTNING
  5
16D8
 10
145.451
 20
42.2843
 30
0.000000
  70
    32
  0
VERTEX
  8
SAPA_ANSLUTNING
  5
16D9
 10
145.684
 20
42.3709
 30
0.000000
  70
    32
  0
VERTEX
  8
SAPA_ANSLUTNING
  5
16DA
 10
145.913
 20
42.4702
 30
0.000000
  70
    32
  0
VERTEX
  8
SAPA_ANSLUTNING
  5
16DB
 10
146.138
 20
42.5820
 30
0.000000
  70
    32
  0
VERTEX
  8
SAPA_ANSLUTNING
  5
16DC
 10
146.357
 20
42.7060
 30
0.000000
  70
    32
  0
VERTEX
  8
SAPA_ANSLUTNING
  5
16DD
 10
146.571
 20
42.8420
 30
0.000000
  70
    32
  0
VERTEX
  8
SAPA_ANSLUTNING
  5
16DE
 10
146.778
 20
42.9896
 30
0.000000
  70
    32
  0
VERTEX
  8
SAPA_ANSLUTNING
  5
16DF
 10
146.978
 20
43.1485
 30
0.000000
  70
    32
  0
VERTEX
  8
SAPA_ANSLUTNING
  5
16E0
 10
147.172
 20
43.3182
 30
0.000000
  70
    32
  0
VERTEX
  8
SAPA_ANSLUTNING
  5
16E1
 10
147.358
 20
43.4984
 30
0.000000
  70
    32
  0
VERTEX
  8
SAPA_ANSLUTNING
  5
16E2
 10
147.536
 20
43.6887
 30
0.000000
  70
    32
  0
VERTEX
  8
SAPA_ANSLUTNING
  5
16E3
 10
147.705
 20
43.8885
 30
0.000000
  70
    32
  0
VERTEX
  8
SAPA_ANSLUTNING
  5
16E4
 10
147.865
 20
44.0974
 30
0.000000
  70
    32
  0
VERTEX
  8
SAPA_ANSLUTNING
  5
16E5
 10
148.016
 20
44.3149
 30
0.000000
  70
    32
  0
VERTEX
  8
SAPA_ANSLUTNING
  5
16E6
 10
148.157
 20
44.5405
 30
0.000000
  70
    32
  0
VERTEX
  8
SAPA_ANSLUTNING
  5
16E7
 10
148.289
 20
44.7735
 30
0.000000
  70
    32
  0
VERTEX
  8
SAPA_ANSLUTNING
  5
16E8
 10
148.410
 20
45.0136
 30
0.000000
  70
    32
  0
VERTEX
  8
SAPA_ANSLUTNING
  5
16E9
 10
148.520
 20
45.2600
 30
0.000000
  70
    32
  0
VERTEX
  8
SAPA_ANSLUTNING
  5
16EA
 10
148.619
 20
45.5123
 30
0.000000
  70
    32
  0
VERTEX
  8
SAPA_ANSLUTNING
  5
16EB
 10
148.708
 20
45.7697
 30
0.000000
  70
    32
  0
VERTEX
  8
SAPA_ANSLUTNING
  5
16EC
 10
148.785
 20
46.0316
 30
0.000000
  70
    32
  0
VERTEX
  8
SAPA_ANSLUTNING
  5
16ED
 10
148.850
 20
46.2975
 30
0.000000
  70
    32
  0
VERTEX
  8
SAPA_ANSLUTNING
  5
16EE
 10
148.904
 20
46.5667
 30
0.000000
  70
    32
  0
VERTEX
  8
SAPA_ANSLUTNING
  5
16EF
 10
148.946
 20
46.8386
 30
0.000000
  70
    32
  0
VERTEX
  8
SAPA_ANSLUTNING
  5
16F0
 10
148.976
 20
47.1124
 30
0.000000
  70
    32
  0
VERTEX
  8
SAPA_ANSLUTNING
  5
16F1
 10
148.994
 20
47.3875
 30
0.000000
  70
    32
  0
VERTEX
  8
SAPA_ANSLUTNING
  5
16F2
 10
149.000
 20
47.6633
 30
0.000000
  70
    32
  0
VERTEX
  8
SAPA_ANSLUTNING
  5
16F3
 10
148.994
 20
47.9392
 30
0.000000
  70
    32
  0
VERTEX
  8
SAPA_ANSLUTNING
  5
16F4
 10
148.976
 20
48.2143
 30
0.000000
  70
    32
  0
VERTEX
  8
SAPA_ANSLUTNING
  5
16F5
 10
148.946
 20
48.4881
 30
0.000000
  70
    32
  0
VERTEX
  8
SAPA_ANSLUTNING
  5
16F6
 10
148.904
 20
48.7600
 30
0.000000
  70
    32
  0
VERTEX
  8
SAPA_ANSLUTNING
  5
16F7
 10
148.850
 20
49.0292
 30
0.000000
  70
    32
  0
VERTEX
  8
SAPA_ANSLUTNING
  5
16F8
 10
148.785
 20
49.2951
 30
0.000000
  70
    32
  0
VERTEX
  8
SAPA_ANSLUTNING
  5
16F9
 10
148.708
 20
49.5570
 30
0.000000
  70
    32
  0
VERTEX
  8
SAPA_ANSLUTNING
  5
16FA
 10
148.619
 20
49.8144
 30
0.000000
  70
    32
  0
VERTEX
  8
SAPA_ANSLUTNING
  5
16FB
 10
148.520
 20
50.0667
 30
0.000000
  70
    32
  0
VERTEX
  8
SAPA_ANSLUTNING
  5
16FC
 10
148.410
 20
50.3131
 30
0.000000
  70
    32
  0
VERTEX
  8
SAPA_ANSLUTNING
  5
16FD
 10
148.289
 20
50.5531
 30
0.000000
  70
    32
  0
VERTEX
  8
SAPA_ANSLUTNING
  5
16FE
 10
148.157
 20
50.7862
 30
0.000000
  70
    32
  0
VERTEX
  8
SAPA_ANSLUTNING
  5
16FF
 10
148.016
 20
51.0118
 30
0.000000
  70
    32
  0
VERTEX
  8
SAPA_ANSLUTNING
  5
1700
 10
147.865
 20
51.2293
 30
0.000000
  70
    32
  0
VERTEX
  8
SAPA_ANSLUTNING
  5
1701
 10
147.705
 20
51.4382
 30
0.000000
  70
    32
  0
VERTEX
  8
SAPA_ANSLUTNING
  5
1702
 10
147.536
 20
51.6380
 30
0.000000
  70
    32
  0
VERTEX
  8
SAPA_ANSLUTNING
  5
1703
 10
147.358
 20
51.8283
 30
0.000000
  70
    32
  0
VERTEX
  8
SAPA_ANSLUTNING
  5
1704
 10
147.172
 20
52.0085
 30
0.000000
  70
    32
  0
VERTEX
  8
SAPA_ANSLUTNING
  5
1705
 10
146.978
 20
52.1782
 30
0.000000
  70
    32
  0
VERTEX
  8
SAPA_ANSLUTNING
  5
1706
 10
146.778
 20
52.3371
 30
0.000000
  70
    32
  0
VERTEX
  8
SAPA_ANSLUTNING
  5
1707
 10
146.571
 20
52.4847
 30
0.000000
  70
    32
  0
VERTEX
  8
SAPA_ANSLUTNING
  5
1708
 10
146.357
 20
52.6207
 30
0.000000
  70
    32
  0
VERTEX
  8
SAPA_ANSLUTNING
  5
1709
 10
146.138
 20
52.7447
 30
0.000000
  70
    32
  0
VERTEX
  8
SAPA_ANSLUTNING
  5
170A
 10
145.913
 20
52.8565
 30
0.000000
  70
    32
  0
VERTEX
  8
SAPA_ANSLUTNING
  5
170B
 10
145.684
 20
52.9558
 30
0.000000
  70
    32
  0
VERTEX
  8
SAPA_ANSLUTNING
  5
170C
 10
145.451
 20
53.0424
 30
0.000000
  70
    32
  0
VERTEX
  8
SAPA_ANSLUTNING
  5
170D
 10
145.215
 20
53.1160
 30
0.000000
  70
    32
  0
VERTEX
  8
SAPA_ANSLUTNING
  5
170E
 10
144.975
 20
53.1764
 30
0.000000
  70
    32
  0
VERTEX
  8
SAPA_ANSLUTNING
  5
170F
 10
144.734
 20
53.2236
 30
0.000000
  70
    32
  0
VERTEX
  8
SAPA_ANSLUTNING
  5
1710
 10
144.490
 20
53.2573
 30
0.000000
  70
    32
  0
VERTEX
  8
SAPA_ANSLUTNING
  5
1711
 10
144.245
 20
53.2776
 30
0.000000
  70
    32
  0
VERTEX
  8
SAPA_ANSLUTNING
  5
1712
 10
144.000
 20
53.2844
 30
0.000000
  70
    32
  0
VERTEX
  8
SAPA_ANSLUTNING
  5
1713
 10
143.755
 20
53.2776
 30
0.000000
  70
    32
  0
VERTEX
  8
SAPA_ANSLUTNING
  5
1714
 10
143.510
 20
53.2573
 30
0.000000
  70
    32
  0
VERTEX
  8
SAPA_ANSLUTNING
  5
1715
 10
143.266
 20
53.2236
 30
0.000000
  70
    32
  0
VERTEX
  8
SAPA_ANSLUTNING
  5
1716
 10
143.025
 20
53.1764
 30
0.000000
  70
    32
  0
VERTEX
  8
SAPA_ANSLUTNING
  5
1717
 10
142.785
 20
53.1160
 30
0.000000
  70
    32
  0
VERTEX
  8
SAPA_ANSLUTNING
  5
1718
 10
142.549
 20
53.0424
 30
0.000000
  70
    32
  0
VERTEX
  8
SAPA_ANSLUTNING
  5
1719
 10
142.316
 20
52.9558
 30
0.000000
  70
    32
  0
VERTEX
  8
SAPA_ANSLUTNING
  5
171A
 10
142.087
 20
52.8565
 30
0.000000
  70
    32
  0
VERTEX
  8
SAPA_ANSLUTNING
  5
171B
 10
141.862
 20
52.7447
 30
0.000000
  70
    32
  0
VERTEX
  8
SAPA_ANSLUTNING
  5
171C
 10
141.643
 20
52.6207
 30
0.000000
  70
    32
  0
VERTEX
  8
SAPA_ANSLUTNING
  5
171D
 10
141.429
 20
52.4847
 30
0.000000
  70
    32
  0
VERTEX
  8
SAPA_ANSLUTNING
  5
171E
 10
141.222
 20
52.3371
 30
0.000000
  70
    32
  0
VERTEX
  8
SAPA_ANSLUTNING
  5
171F
 10
141.022
 20
52.1782
 30
0.000000
  70
    32
  0
VERTEX
  8
SAPA_ANSLUTNING
  5
1720
 10
140.828
 20
52.0085
 30
0.000000
  70
    32
  0
VERTEX
  8
SAPA_ANSLUTNING
  5
1721
 10
140.642
 20
51.8283
 30
0.000000
  70
    32
  0
VERTEX
  8
SAPA_ANSLUTNING
  5
1722
 10
140.464
 20
51.6380
 30
0.000000
  70
    32
  0
VERTEX
  8
SAPA_ANSLUTNING
  5
1723
 10
140.295
 20
51.4382
 30
0.000000
  70
    32
  0
VERTEX
  8
SAPA_ANSLUTNING
  5
1724
 10
140.135
 20
51.2293
 30
0.000000
  70
    32
  0
VERTEX
  8
SAPA_ANSLUTNING
  5
1725
 10
139.984
 20
51.0118
 30
0.000000
  70
    32
  0
VERTEX
  8
SAPA_ANSLUTNING
  5
1726
 10
139.843
 20
50.7862
 30
0.000000
  70
    32
  0
VERTEX
  8
SAPA_ANSLUTNING
  5
1727
 10
139.711
 20
50.5531
 30
0.000000
  70
    32
  0
VERTEX
  8
SAPA_ANSLUTNING
  5
1728
 10
139.590
 20
50.3131
 30
0.000000
  70
    32
  0
VERTEX
  8
SAPA_ANSLUTNING
  5
1729
 10
139.480
 20
50.0667
 30
0.000000
  70
    32
  0
VERTEX
  8
SAPA_ANSLUTNING
  5
172A
 10
139.381
 20
49.8144
 30
0.000000
  70
    32
  0
VERTEX
  8
SAPA_ANSLUTNING
  5
172B
 10
139.292
 20
49.5570
 30
0.000000
  70
    32
  0
VERTEX
  8
SAPA_ANSLUTNING
  5
172C
 10
139.215
 20
49.2951
 30
0.000000
  70
    32
  0
VERTEX
  8
SAPA_ANSLUTNING
  5
172D
 10
139.150
 20
49.0292
 30
0.000000
  70
    32
  0
VERTEX
  8
SAPA_ANSLUTNING
  5
172E
 10
139.096
 20
48.7600
 30
0.000000
  70
    32
  0
VERTEX
  8
SAPA_ANSLUTNING
  5
172F
 10
139.054
 20
48.4881
 30
0.000000
  70
    32
  0
VERTEX
  8
SAPA_ANSLUTNING
  5
1730
 10
139.024
 20
48.2143
 30
0.000000
  70
    32
  0
VERTEX
  8
SAPA_ANSLUTNING
  5
1731
 10
139.006
 20
47.9392
 30
0.000000
  70
    32
  0
VERTEX
  8
SAPA_ANSLUTNING
  5
1732
 10
139.000
 20
47.6633
 30
0.000000
  70
    32
  0
VERTEX
  8
SAPA_ANSLUTNING
  5
1733
 10
139.006
 20
47.3875
 30
0.000000
  70
    32
  0
VERTEX
  8
SAPA_ANSLUTNING
  5
1734
 10
139.024
 20
47.1124
 30
0.000000
  70
    32
  0
VERTEX
  8
SAPA_ANSLUTNING
  5
1735
 10
139.054
 20
46.8386
 30
0.000000
  70
    32
  0
VERTEX
  8
SAPA_ANSLUTNING
  5
1736
 10
139.096
 20
46.5667
 30
0.000000
  70
    32
  0
VERTEX
  8
SAPA_ANSLUTNING
  5
1737
 10
139.150
 20
46.2975
 30
0.000000
  70
    32
  0
VERTEX
  8
SAPA_ANSLUTNING
  5
1738
 10
139.215
 20
46.0316
 30
0.000000
  70
    32
  0
VERTEX
  8
SAPA_ANSLUTNING
  5
1739
 10
139.292
 20
45.7697
 30
0.000000
  70
    32
  0
VERTEX
  8
SAPA_ANSLUTNING
  5
173A
 10
139.381
 20
45.5123
 30
0.000000
  70
    32
  0
VERTEX
  8
SAPA_ANSLUTNING
  5
173B
 10
139.480
 20
45.2600
 30
0.000000
  70
    32
  0
VERTEX
  8
SAPA_ANSLUTNING
  5
173C
 10
139.590
 20
45.0136
 30
0.000000
  70
    32
  0
VERTEX
  8
SAPA_ANSLUTNING
  5
173D
 10
139.711
 20
44.7735
 30
0.000000
  70
    32
  0
VERTEX
  8
SAPA_ANSLUTNING
  5
173E
 10
139.843
 20
44.5405
 30
0.000000
  70
    32
  0
VERTEX
  8
SAPA_ANSLUTNING
  5
173F
 10
139.984
 20
44.3149
 30
0.000000
  70
    32
  0
VERTEX
  8
SAPA_ANSLUTNING
  5
1740
 10
140.135
 20
44.0974
 30
0.000000
  70
    32
  0
VERTEX
  8
SAPA_ANSLUTNING
  5
1741
 10
140.295
 20
43.8885
 30
0.000000
  70
    32
  0
VERTEX
  8
SAPA_ANSLUTNING
  5
1742
 10
140.464
 20
43.6887
 30
0.000000
  70
    32
  0
VERTEX
  8
SAPA_ANSLUTNING
  5
1743
 10
140.642
 20
43.4984
 30
0.000000
  70
    32
  0
VERTEX
  8
SAPA_ANSLUTNING
  5
1744
 10
140.828
 20
43.3182
 30
0.000000
  70
    32
  0
VERTEX
  8
SAPA_ANSLUTNING
  5
1745
 10
141.022
 20
43.1485
 30
0.000000
  70
    32
  0
VERTEX
  8
SAPA_ANSLUTNING
  5
1746
 10
141.222
 20
42.9896
 30
0.000000
  70
    32
  0
VERTEX
  8
SAPA_ANSLUTNING
  5
1747
 10
141.429
 20
42.8420
 30
0.000000
  70
    32
  0
VERTEX
  8
SAPA_ANSLUTNING
  5
1748
 10
141.643
 20
42.7060
 30
0.000000
  70
    32
  0
VERTEX
  8
SAPA_ANSLUTNING
  5
1749
 10
141.862
 20
42.5820
 30
0.000000
  70
    32
  0
VERTEX
  8
SAPA_ANSLUTNING
  5
174A
 10
142.087
 20
42.4702
 30
0.000000
  70
    32
  0
VERTEX
  8
SAPA_ANSLUTNING
  5
174B
 10
142.316
 20
42.3709
 30
0.000000
  70
    32
  0
VERTEX
  8
SAPA_ANSLUTNING
  5
174C
 10
142.549
 20
42.2843
 30
0.000000
  70
    32
  0
VERTEX
  8
SAPA_ANSLUTNING
  5
174D
 10
142.785
 20
42.2107
 30
0.000000
  70
    32
  0
VERTEX
  8
SAPA_ANSLUTNING
  5
174E
 10
143.025
 20
42.1503
 30
0.000000
  70
    32
  0
VERTEX
  8
SAPA_ANSLUTNING
  5
174F
 10
143.266
 20
42.1031
 30
0.000000
  70
    32
  0
VERTEX
  8
SAPA_ANSLUTNING
  5
1750
 10
143.510
 20
42.0694
 30
0.000000
  70
    32
  0
VERTEX
  8
SAPA_ANSLUTNING
  5
1751
 10
143.755
 20
42.0491
 30
0.000000
  70
    32
  0
VERTEX
  8
SAPA_ANSLUTNING
  5
1752
 10
144.000
 20
42.0423
 30
0.000000
  70
    32
  0
SEQEND
  8
SAPA_ANSLUTNING
  5
1753
  0
POLYLINE
  5
937
  8
SAPA_ANSLUTNING
 66
     1
 10
0.0
 20
0.0
 30
0.0
  0
VERTEX
  5
DED
  8
SAPA_ANSLUTNING
 10
140.5010714710823
 20
43.647930409437542
 30
0.0
 42
0.8812634091771057
  0
VERTEX
  5
DEE
  8
SAPA_ANSLUTNING
 10
140.99999992774141
 20
39.711162381217378
 30
0.0
  0
VERTEX
  5
DEF
  8
SAPA_ANSLUTNING
 10
146.99999992774141
 20
39.711162381217378
 30
0.0
 42
-0.9999999999999998
  0
VERTEX
  5
DF0
  8
SAPA_ANSLUTNING
 10
146.99999992774141
 20
35.711162381217378
 30
0.0
  0
VERTEX
  5
DF1
  8
SAPA_ANSLUTNING
 10
140.99999992774141
 20
35.711162381217413
 30
0.0
 42
0.9999999999999998
  0
VERTEX
  5
DF2
  8
SAPA_ANSLUTNING
 10
140.99999992774141
 20
31.711162381217409
 30
0.0
  0
VERTEX
  5
DF3
  8
SAPA_ANSLUTNING
 10
146.99999992774141
 20
31.711162381217381
 30
0.0
 42
-0.9999999999999998
  0
VERTEX
  5
DF4
  8
SAPA_ANSLUTNING
 10
146.99999992774141
 20
27.711162381217381
 30
0.0
  0
VERTEX
  5
DF5
  8
SAPA_ANSLUTNING
 10
140.99999992774141
 20
27.711162381217409
 30
0.0
 42
0.9999999999999998
  0
VERTEX
  5
DF6
  8
SAPA_ANSLUTNING
 10
140.99999992774141
 20
23.711162381217409
 30
0.0
  0
VERTEX
  5
DF7
  8
SAPA_ANSLUTNING
 10
146.99999992774141
 20
23.711162381217381
 30
0.0
 42
-0.9999999999999998
  0
VERTEX
  5
DF8
  8
SAPA_ANSLUTNING
 10
146.99999992774141
 20
19.71116238121737
 30
0.0
  0
VERTEX
  5
DF9
  8
SAPA_ANSLUTNING
 10
140.99999992774141
 20
19.711162381217399
 30
0.0
 42
0.9999999999999998
  0
VERTEX
  5
DFA
  8
SAPA_ANSLUTNING
 10
140.99999992774141
 20
15.711162381217401
 30
0.0
  0
VERTEX
  5
DFB
  8
SAPA_ANSLUTNING
 10
146.99999992774141
 20
15.71116238121739
 30
0.0
 42
-0.9999999999999998
  0
VERTEX
  5
DFC
  8
SAPA_ANSLUTNING
 10
146.99999992774141
 20
11.71116238121739
 30
0.0
  0
VERTEX
  5
DFD
  8
SAPA_ANSLUTNING
 10
140.99999992774141
 20
11.711162381217401
 30
0.0
 42
0.9999999999999998
  0
VERTEX
  5
DFE
  8
SAPA_ANSLUTNING
 10
140.99999992774141
 20
7.711162381217405
 30
0.0
  0
VERTEX
  5
DFF
  8
SAPA_ANSLUTNING
 10
146.99999992774141
 20
7.7111623812173908
 30
0.0
 42
-0.9999999999999998
  0
VERTEX
  5
E00
  8
SAPA_ANSLUTNING
 10
146.99999992774141
 20
3.7111623812173908
 30
0.0
  0
VERTEX
  5
E01
  8
SAPA_ANSLUTNING
 10
140.99999992774141
 20
3.711162381217405
 30
0.0
 42
0.9999999999999998
  0
VERTEX
  5
E02
  8
SAPA_ANSLUTNING
 10
140.99999992774141
 20
-0.288837618782594
 30
0.0
  0
VERTEX
  5
E03
  8
SAPA_ANSLUTNING
 10
146.99999992774141
 20
-0.2888376187826083
 30
0.0
 42
-0.9999999999999998
  0
VERTEX
  5
E04
  8
SAPA_ANSLUTNING
 10
146.99999992774141
 20
-4.2888376187826083
 30
0.0
  0
VERTEX
  5
E05
  8
SAPA_ANSLUTNING
 10
140.99999992774141
 20
-4.2888376187825941
 30
0.0
 42
0.9999999999999998
  0
VERTEX
  5
E06
  8
SAPA_ANSLUTNING
 10
140.99999992774141
 20
-8.2888376187825941
 30
0.0
  0
VERTEX
  5
E07
  8
SAPA_ANSLUTNING
 10
146.99999992774141
 20
-8.2888376187826083
 30
0.0
 42
-0.9999999999999998
  0
VERTEX
  5
E08
  8
SAPA_ANSLUTNING
 10
146.99999992774141
 20
-12.28883761878261
 30
0.0
  0
VERTEX
  5
E09
  8
SAPA_ANSLUTNING
 10
140.99999992774141
 20
-12.288837618782591
 30
0.0
 42
0.9999999999999998
  0
VERTEX
  5
E0A
  8
SAPA_ANSLUTNING
 10
140.99999992774141
 20
-16.288837618782591
 30
0.0
  0
VERTEX
  5
E0B
  8
SAPA_ANSLUTNING
 10
146.99999992774141
 20
-16.288837618782619
 30
0.0
 42
-0.9999999999999998
  0
VERTEX
  5
E0C
  8
SAPA_ANSLUTNING
 10
146.99999992774119
 20
-20.288837618782619
 30
0.0
  0
VERTEX
  5
E0D
  8
SAPA_ANSLUTNING
 10
140.99999992774119
 20
-20.288837618782601
 30
0.0
 42
0.9999999999999998
  0
VERTEX
  5
E0E
  8
SAPA_ANSLUTNING
 10
140.99999992774119
 20
-24.288837618782591
 30
0.0
  0
VERTEX
  5
E0F
  8
SAPA_ANSLUTNING
 10
146.99999992774119
 20
-24.28883761878263
 30
0.0
 42
-0.9999999999999998
  0
VERTEX
  5
E10
  8
SAPA_ANSLUTNING
 10
146.99999992774119
 20
-28.288837618782619
 30
0.0
  0
VERTEX
  5
E11
  8
SAPA_ANSLUTNING
 10
140.99999992774119
 20
-28.288837618782591
 30
0.0
 42
0.9999999999999998
  0
VERTEX
  5
E12
  8
SAPA_ANSLUTNING
 10
140.99999992774119
 20
-32.288837618782601
 30
0.0
  0
VERTEX
  5
E13
  8
SAPA_ANSLUTNING
 10
146.99999992774119
 20
-32.288837618782622
 30
0.0
 42
-0.9999999999999998
  0
VERTEX
  5
E14
  8
SAPA_ANSLUTNING
 10
146.99999992774119
 20
-36.288837618782622
 30
0.0
  0
VERTEX
  5
E15
  8
SAPA_ANSLUTNING
 10
140.99999992774119
 20
-36.288837618782601
 30
0.0
 42
0.9999999999999998
  0
VERTEX
  5
E16
  8
SAPA_ANSLUTNING
 10
140.99999992774119
 20
-40.288837618782587
 30
0.0
  0
VERTEX
  5
E17
  8
SAPA_ANSLUTNING
 10
146.99999992774119
 20
-40.288837618782622
 30
0.0
 42
-0.9999999999999998
  0
VERTEX
  5
E18
  8
SAPA_ANSLUTNING
 10
146.99999992774119
 20
-44.288837618782622
 30
0.0
  0
VERTEX
  5
E19
  8
SAPA_ANSLUTNING
 10
140.99999992774119
 20
-44.288837618782587
 30
0.0
 42
0.9999999999999998
  0
VERTEX
  5
E1A
  8
SAPA_ANSLUTNING
 10
140.99999992774119
 20
-48.288837618782587
 30
0.0
  0
VERTEX
  5
E1B
  8
SAPA_ANSLUTNING
 10
146.99999992774119
 20
-48.288837618782622
 30
0.0
 42
-0.9999999999999998
  0
VERTEX
  5
E1C
  8
SAPA_ANSLUTNING
 10
146.99999992774119
 20
-52.288837618782622
 30
0.0
  0
VERTEX
  5
E1D
  8
SAPA_ANSLUTNING
 10
140.99999992774119
 20
-52.288837618782587
 30
0.0
 42
0.9999999999999998
  0
VERTEX
  5
E1E
  8
SAPA_ANSLUTNING
 10
140.99999992774119
 20
-56.288837618782601
 30
0.0
  0
VERTEX
  5
E1F
  8
SAPA_ANSLUTNING
 10
146.99999992774119
 20
-56.288837618782622
 30
0.0
 42
-0.9999999999999998
  0
VERTEX
  5
E20
  8
SAPA_ANSLUTNING
 10
146.99999992774119
 20
-60.288837618782622
 30
0.0
  0
VERTEX
  5
E21
  8
SAPA_ANSLUTNING
 10
138.24999992774141
 20
-60.288837618782587
 30
0.0
 42
0.9999999999999998
  0
VERTEX
  5
E22
  8
SAPA_ANSLUTNING
 10
138.24999992774141
 20
-64.288837618782622
 30
0.0
  0
VERTEX
  5
E23
  8
SAPA_ANSLUTNING
 10
146.99999992774119
 20
-64.288837618782622
 30
0.0
 42
-0.9999999999999998
  0
VERTEX
  5
E24
  8
SAPA_ANSLUTNING
 10
146.99999992774119
 20
-68.288837618782622
 30
0.0
  0
VERTEX
  5
E25
  8
SAPA_ANSLUTNING
 10
138.24999992774141
 20
-68.288837618782622
 30
0.0
 42
0.3723754158642647
  0
VERTEX
  5
E26
  8
SAPA_ANSLUTNING
 10
136.27096662079879
 20
-70.000000000021316
 30
0.0
  0
SEQEND
  5
E27
  8
SAPA_ANSLUTNING
  0
POLYLINE
  5
938
  8
SAPA_ANSLUTNING
 66
     1
 10
0.0
 20
0.0
 30
0.0
  0
VERTEX
  5
E28
  8
SAPA_ANSLUTNING
 10
21.094751612380769
 20
-66.889616244265426
 30
0.0
 42
0.4609155493572824
  0
VERTEX
  5
E29
  8
SAPA_ANSLUTNING
 10
31.499999999714699
 20
-58.000000000023192
 30
0.0
  0
VERTEX
  5
E2A
  8
SAPA_ANSLUTNING
 10
31.499999999714699
 20
-9.0000000000060965
 30
0.0
 42
-0.9999999999999998
  0
VERTEX
  5
E2B
  8
SAPA_ANSLUTNING
 10
49.499999999714703
 20
-9.0000000000060965
 30
0.0
  0
VERTEX
  5
E2C
  8
SAPA_ANSLUTNING
 10
49.499999999714703
 20
-58.000000000023192
 30
0.0
 42
0.9999999999999998
  0
VERTEX
  5
E2D
  8
SAPA_ANSLUTNING
 10
67.499999999714703
 20
-58.000000000023192
 30
0.0
  0
VERTEX
  5
E2E
  8
SAPA_ANSLUTNING
 10
67.499999999714703
 20
-5.8005553174703834
 30
0.0
 42
-0.9999999999999998
  0
VERTEX
  5
E2F
  8
SAPA_ANSLUTNING
 10
85.499999999714817
 20
-5.8005553174703834
 30
0.0
  0
VERTEX
  5
E30
  8
SAPA_ANSLUTNING
 10
85.499999999714817
 20
-58.000000000023192
 30
0.0
 42
0.9999999999999998
  0
VERTEX
  5
E31
  8
SAPA_ANSLUTNING
 10
103.4999999997148
 20
-58.000000000023192
 30
0.0
  0
VERTEX
  5
E32
  8
SAPA_ANSLUTNING
 10
103.4999999997148
 20
-9.0000000000060965
 30
0.0
 42
-0.9999999999999998
  0
VERTEX
  5
E33
  8
SAPA_ANSLUTNING
 10
121.4999999997148
 20
-9.0000000000060965
 30
0.0
  0
VERTEX
  5
E34
  8
SAPA_ANSLUTNING
 10
121.4999999997148
 20
-58.000000000023192
 30
0.0
 42
0.4609155448655906
  0
VERTEX
  5
E35
  8
SAPA_ANSLUTNING
 10
131.90524825531659
 20
-66.88961626508933
 30
0.0
 42
0.4609155448655906
  0
SEQEND
  5
E36
  8
SAPA_ANSLUTNING
  0
POLYLINE
  5
B83
  8
SAPA_PROFIL
 66
     1
 10
0.0
 20
0.0
 30
0.0
 70
     1
  0
VERTEX
  5
12D7
  8
SAPA_PROFIL
 10
57.312261918094059
 20
47.000000000000121
 30
0.0
  0
VERTEX
  5
12D8
  8
SAPA_PROFIL
 10
55.214189562373789
 20
47.000000000000121
 30
0.0
 42
-0.6681786379192718
  0
VERTEX
  5
12D9
  8
SAPA_PROFIL
 10
54.507082781187187
 20
48.70710678118661
 30
0.0
  0
VERTEX
  5
12DA
  8
SAPA_PROFIL
 10
55.812132034356161
 20
50.01215603435579
 30
0.0
 42
-0.1989123673797335
  0
VERTEX
  5
12DB
  8
SAPA_PROFIL
 10
56.024264068712242
 20
50.100023999999898
 30
0.0
  0
VERTEX
  5
12DC
  8
SAPA_PROFIL
 10
56.610769515459431
 20
50.100023999999763
 30
0.0
 42
-0.1316524975873855
  0
VERTEX
  5
12DD
  8
SAPA_PROFIL
 10
56.760769515459351
 20
50.05983162113511
 30
0.0
  0
VERTEX
  5
12DE
  8
SAPA_PROFIL
 10
58.250000000000242
 20
49.2000239999998
 30
0.0
  0
VERTEX
  5
12DF
  8
SAPA_PROFIL
 10
58.70000000000018
 20
49.200012000000143
 30
0.0
 42
0.4142135623731054
  0
VERTEX
  5
12E0
  8
SAPA_PROFIL
 10
59.000000000000192
 20
49.500012000000147
 30
0.0
  0
VERTEX
  5
12E1
  8
SAPA_PROFIL
 10
59.000000000000128
 20
53.100024000000211
 30
0.0
 42
0.4142135623730951
  0
VERTEX
  5
12E2
  8
SAPA_PROFIL
 10
58.700000000000138
 20
53.400024000000201
 30
0.0
  0
VERTEX
  5
12E3
  8
SAPA_PROFIL
 10
58.250000000000128
 20
53.400024000000109
 30
0.0
  0
VERTEX
  5
12E4
  8
SAPA_PROFIL
 10
56.76073986892596
 20
52.54019926243113
 30
0.0
 42
-0.1316363093594254
  0
VERTEX
  5
12E5
  8
SAPA_PROFIL
 10
56.610758963879221
 20
52.500006884174162
 30
0.0
  0
VERTEX
  5
12E6
  8
SAPA_PROFIL
 10
56.500000000000163
 20
52.499999834383352
 30
0.0
  0
VERTEX
  5
12E7
  8
SAPA_PROFIL
 10
56.500000000000163
 20
54.499999999989207
 30
0.0
 42
-0.4142135623730957
  0
VERTEX
  5
12E8
  8
SAPA_PROFIL
 10
57.000000000000171
 20
54.9999999999892
 30
0.0
  0
VERTEX
  5
12E9
  8
SAPA_PROFIL
 10
62.249999998625803
 20
54.9999999999892
 30
0.0
 42
-0.4142135623730957
  0
VERTEX
  5
12EA
  8
SAPA_PROFIL
 10
62.749999998625803
 20
54.499999999989207
 30
0.0
  0
VERTEX
  5
12EB
  8
SAPA_PROFIL
 10
62.749999998625803
 20
53.99999999997312
 30
0.0
 42
-0.4142135623730783
  0
VERTEX
  5
12EC
  8
SAPA_PROFIL
 10
62.249999998625803
 20
53.49999999997312
 30
0.0
  0
VERTEX
  5
12ED
  8
SAPA_PROFIL
 10
61.449999998630389
 20
53.49999999997312
 30
0.0
 42
0.4142135623730946
  0
VERTEX
  5
12EE
  8
SAPA_PROFIL
 10
61.249999998630408
 20
53.299999999973132
 30
0.0
  0
VERTEX
  5
12EF
  8
SAPA_PROFIL
 10
61.249999998630393
 20
50.499999999978229
 30
0.0
 42
0.414213562373094
  0
VERTEX
  5
12F0
  8
SAPA_PROFIL
 10
61.449999998630389
 20
50.299999999978247
 30
0.0
  0
VERTEX
  5
12F1
  8
SAPA_PROFIL
 10
65.550000000160082
 20
50.299999999978233
 30
0.0
 42
0.4142135623726658
  0
VERTEX
  5
12F2
  8
SAPA_PROFIL
 10
65.750000000160071
 20
50.499999999977952
 30
0.0
  0
VERTEX
  5
12F3
  8
SAPA_PROFIL
 10
65.750000000189232
 20
69.799999999994327
 30
0.0
 42
-0.4964147352864319
  0
VERTEX
  5
12F4
  8
SAPA_PROFIL
 10
66.003790408514845
 20
69.992630713983701
 30
0.0
 42
-0.3064679542112438
  0
VERTEX
  5
12F5
  8
SAPA_PROFIL
 10
66.728906881360501
 20
69.138232780807016
 30
0.0
 42
-0.0272495355296178
  0
VERTEX
  5
12F6
  8
SAPA_PROFIL
 10
67.499999999669086
 20
55.000000000012193
 30
0.0
  0
VERTEX
  5
12F7
  8
SAPA_PROFIL
 10
67.500000000021998
 20
42.199999998749377
 30
0.0
 42
-0.4142135623890783
  0
VERTEX
  5
12F8
  8
SAPA_PROFIL
 10
67.300000000021271
 20
41.999999998737742
 30
0.0
  0
VERTEX
  5
12F9
  8
SAPA_PROFIL
 10
66.965470053761408
 20
41.999999998739561
 30
0.0
 42
-0.267949192439649
  0
VERTEX
  5
12FA
  8
SAPA_PROFIL
 10
66.792264973002275
 20
42.099999998744529
 30
0.0
  0
VERTEX
  5
12FB
  8
SAPA_PROFIL
 10
65.77679491940961
 20
43.858845725139084
 30
0.0
 42
-0.1316524975843789
  0
VERTEX
  5
12FC
  8
SAPA_PROFIL
 10
65.750000000167034
 20
43.958845725139447
 30
0.0
  0
VERTEX
  5
12FD
  8
SAPA_PROFIL
 10
65.750000000171156
 20
46.799999999999393
 30
0.0
 42
0.4142135623730974
  0
VERTEX
  5
12FE
  8
SAPA_PROFIL
 10
65.550000000170414
 20
47.000000000000121
 30
0.0
  0
VERTEX
  5
12FF
  8
SAPA_PROFIL
 10
59.24386904096189
 20
47.000000000000121
 30
0.0
 42
-0.2418327667441245
  0
VERTEX
  5
1300
  8
SAPA_PROFIL
 10
59.000000000010409
 20
47.125277674966298
 30
0.0
 42
0.2418327667528755
  0
VERTEX
  5
1301
  8
SAPA_PROFIL
 10
58.756130959049351
 20
47.250555349939653
 30
0.0
  0
VERTEX
  5
1302
  8
SAPA_PROFIL
 10
57.800000000010343
 20
47.250555349939653
 30
0.0
 42
0.2418327667504218
  0
VERTEX
  5
1303
  8
SAPA_PROFIL
 10
57.556130959047643
 20
47.125277674968707
 30
0.0
 42
-0.2418327667464108
  0
SEQEND
  5
1304
  8
SAPA_PROFIL
  0
POLYLINE
  5
B84
  8
SAPA_PROFIL
 66
     1
 10
0.0
 20
0.0
 30
0.0
 70
     1
  0
VERTEX
  5
1305
  8
SAPA_PROFIL
 10
30.687738081906272
 20
47.000000000000121
 30
0.0
  0
VERTEX
  5
1306
  8
SAPA_PROFIL
 10
32.785810437626537
 20
47.000000000000121
 30
0.0
 42
0.6681786379192718
  0
VERTEX
  5
1307
  8
SAPA_PROFIL
 10
33.492917218813133
 20
48.70710678118661
 30
0.0
  0
VERTEX
  5
1308
  8
SAPA_PROFIL
 10
32.187867965644159
 20
50.01215603435579
 30
0.0
 42
0.1989123673797335
  0
VERTEX
  5
1309
  8
SAPA_PROFIL
 10
31.975735931288082
 20
50.100023999999898
 30
0.0
  0
VERTEX
  5
130A
  8
SAPA_PROFIL
 10
31.389230484540889
 20
50.100023999999763
 30
0.0
 42
0.1316524975873855
  0
VERTEX
  5
130B
  8
SAPA_PROFIL
 10
31.239230484540968
 20
50.05983162113511
 30
0.0
  0
VERTEX
  5
130C
  8
SAPA_PROFIL
 10
29.750000000000089
 20
49.2000239999998
 30
0.0
  0
VERTEX
  5
130D
  8
SAPA_PROFIL
 10
29.300000000000139
 20
49.200012000000143
 30
0.0
 42
-0.4142135623731054
  0
VERTEX
  5
130E
  8
SAPA_PROFIL
 10
29.000000000000139
 20
49.500012000000147
 30
0.0
  0
VERTEX
  5
130F
  8
SAPA_PROFIL
 10
29.000000000000188
 20
53.100024000000211
 30
0.0
 42
-0.4142135623730951
  0
VERTEX
  5
1310
  8
SAPA_PROFIL
 10
29.300000000000189
 20
53.400024000000201
 30
0.0
  0
VERTEX
  5
1311
  8
SAPA_PROFIL
 10
29.750000000000188
 20
53.400024000000109
 30
0.0
  0
VERTEX
  5
1312
  8
SAPA_PROFIL
 10
31.23926013107436
 20
52.54019926243113
 30
0.0
 42
0.1316363093594254
  0
VERTEX
  5
1313
  8
SAPA_PROFIL
 10
31.38924103612111
 20
52.500006884174162
 30
0.0
  0
VERTEX
  5
1314
  8
SAPA_PROFIL
 10
31.50000000000016
 20
52.499999834383352
 30
0.0
  0
VERTEX
  5
1315
  8
SAPA_PROFIL
 10
31.50000000000016
 20
54.499999999989207
 30
0.0
 42
0.4142135623730957
  0
VERTEX
  5
1316
  8
SAPA_PROFIL
 10
31.00000000000016
 20
54.9999999999892
 30
0.0
  0
VERTEX
  5
1317
  8
SAPA_PROFIL
 10
25.75000000137452
 20
54.9999999999892
 30
0.0
 42
0.4142135623730957
  0
VERTEX
  5
1318
  8
SAPA_PROFIL
 10
25.250000001374531
 20
54.499999999989207
 30
0.0
  0
VERTEX
  5
1319
  8
SAPA_PROFIL
 10
25.250000001374531
 20
53.99999999997312
 30
0.0
 42
0.4142135623730783
  0
VERTEX
  5
131A
  8
SAPA_PROFIL
 10
25.75000000137452
 20
53.49999999997312
 30
0.0
  0
VERTEX
  5
131B
  8
SAPA_PROFIL
 10
26.550000001369931
 20
53.49999999997312
 30
0.0
 42
-0.4142135623730946
  0
VERTEX
  5
131C
  8
SAPA_PROFIL
 10
26.750000001369919
 20
53.299999999973132
 30
0.0
  0
VERTEX
  5
131D
  8
SAPA_PROFIL
 10
26.75000000136993
 20
50.499999999978229
 30
0.0
 42
-0.414213562373094
  0
VERTEX
  5
131E
  8
SAPA_PROFIL
 10
26.550000001369931
 20
50.299999999978247
 30
0.0
  0
VERTEX
  5
131F
  8
SAPA_PROFIL
 10
22.449999999840252
 20
50.299999999978233
 30
0.0
 42
-0.4142135623726658
  0
VERTEX
  5
1320
  8
SAPA_PROFIL
 10
22.249999999840259
 20
50.499999999977952
 30
0.0
  0
VERTEX
  5
1321
  8
SAPA_PROFIL
 10
22.249999999811099
 20
69.799999999994327
 30
0.0
 42
0.4964147352864319
  0
VERTEX
  5
1322
  8
SAPA_PROFIL
 10
21.996209591485481
 20
69.992630713983701
 30
0.0
 42
0.3064679542112438
  0
VERTEX
  5
1323
  8
SAPA_PROFIL
 10
21.271093118639818
 20
69.138232780807016
 30
0.0
 42
0.0272495355296178
  0
VERTEX
  5
1324
  8
SAPA_PROFIL
 10
20.500000000331251
 20
55.000000000012193
 30
0.0
  0
VERTEX
  5
1325
  8
SAPA_PROFIL
 10
20.499999999978328
 20
42.199999998749377
 30
0.0
 42
0.4142135623890783
  0
VERTEX
  5
1326
  8
SAPA_PROFIL
 10
20.69999999997906
 20
41.999999998737742
 30
0.0
  0
VERTEX
  5
1327
  8
SAPA_PROFIL
 10
21.03452994623893
 20
41.999999998739561
 30
0.0
 42
0.267949192439649
  0
VERTEX
  5
1328
  8
SAPA_PROFIL
 10
21.207735026998051
 20
42.099999998744529
 30
0.0
  0
VERTEX
  5
1329
  8
SAPA_PROFIL
 10
22.22320508059072
 20
43.858845725139084
 30
0.0
 42
0.1316524975843789
  0
VERTEX
  5
132A
  8
SAPA_PROFIL
 10
22.249999999833289
 20
43.958845725139447
 30
0.0
  0
VERTEX
  5
132B
  8
SAPA_PROFIL
 10
22.249999999829178
 20
46.799999999999393
 30
0.0
 42
-0.4142135623730974
  0
VERTEX
  5
132C
  8
SAPA_PROFIL
 10
22.44999999982991
 20
47.000000000000121
 30
0.0
  0
VERTEX
  5
132D
  8
SAPA_PROFIL
 10
28.75613095903844
 20
47.000000000000121
 30
0.0
 42
0.2418327667441245
  0
VERTEX
  5
132E
  8
SAPA_PROFIL
 10
28.99999999998991
 20
47.125277674966298
 30
0.0
 42
-0.2418327667528755
  0
VERTEX
  5
132F
  8
SAPA_PROFIL
 10
29.243869040950969
 20
47.250555349939653
 30
0.0
  0
VERTEX
  5
1330
  8
SAPA_PROFIL
 10
30.199999999989981
 20
47.250555349939653
 30
0.0
 42
-0.2418327667504218
  0
VERTEX
  5
1331
  8
SAPA_PROFIL
 10
30.443869040952691
 20
47.125277674968707
 30
0.0
 42
0.2418327667464108
  0
SEQEND
  5
1332
  8
SAPA_PROFIL
  0
POLYLINE
  5
B85
  8
SAPA_PROFIL
 62
     4
 66
     1
 10
0.0
 20
0.0
 30
0.0
 70
     1
  0
VERTEX
  5
B86
  8
SAPA_PROFIL
 62
     4
 10
31.85621778265266
 20
50.350012000002138
 30
0.0
 42
0.1316524975873979
  0
VERTEX
  5
B87
  8
SAPA_PROFIL
 62
     4
 10
31.45621778265264
 20
50.24283232302971
 30
0.0
  0
VERTEX
  5
B88
  8
SAPA_PROFIL
 62
     4
 10
29.736602540378598
 20
49.250012000000282
 30
0.0
  0
VERTEX
  5
B89
  8
SAPA_PROFIL
 62
     4
 10
29.30000000000015
 20
49.25001200000019
 30
0.0
 42
-0.4142135623730951
  0
VERTEX
  5
B8A
  8
SAPA_PROFIL
 62
     4
 10
29.050000000000161
 20
49.500012000000183
 30
0.0
  0
VERTEX
  5
B8B
  8
SAPA_PROFIL
 62
     4
 10
29.050000000000111
 20
53.100024000000239
 30
0.0
 42
-0.4142135623731053
  0
VERTEX
  5
B8C
  8
SAPA_PROFIL
 62
     4
 10
29.300000000000111
 20
53.350024000000253
 30
0.0
  0
VERTEX
  5
B8D
  8
SAPA_PROFIL
 62
     4
 10
29.736601921578579
 20
53.350012357264887
 30
0.0
  0
VERTEX
  5
B8E
  8
SAPA_PROFIL
 62
     4
 10
31.456217782645972
 20
52.357191676974622
 30
0.0
 42
0.1316524975874149
  0
VERTEX
  5
B8F
  8
SAPA_PROFIL
 62
     4
 10
31.85621778264602
 20
52.250012000002123
 30
0.0
  0
VERTEX
  5
B90
  8
SAPA_PROFIL
 62
     4
 10
56.143782217354321
 20
52.250012000002123
 30
0.0
 42
0.1316524975874151
  0
VERTEX
  5
B91
  8
SAPA_PROFIL
 62
     4
 10
56.543782217354362
 20
52.357191676974622
 30
0.0
  0
VERTEX
  5
B92
  8
SAPA_PROFIL
 62
     4
 10
58.263398078421751
 20
53.350012357264887
 30
0.0
  0
VERTEX
  5
B93
  8
SAPA_PROFIL
 62
     4
 10
58.700000000000223
 20
53.350024000000253
 30
0.0
 42
-0.4142135623731054
  0
VERTEX
  5
B94
  8
SAPA_PROFIL
 62
     4
 10
58.950000000000223
 20
53.100024000000239
 30
0.0
  0
VERTEX
  5
B95
  8
SAPA_PROFIL
 62
     4
 10
58.950000000000173
 20
49.500012000000183
 30
0.0
 42
-0.4142135623730953
  0
VERTEX
  5
B96
  8
SAPA_PROFIL
 62
     4
 10
58.70000000000018
 20
49.25001200000019
 30
0.0
  0
VERTEX
  5
B97
  8
SAPA_PROFIL
 62
     4
 10
58.263397459621721
 20
49.250012000000282
 30
0.0
  0
VERTEX
  5
B98
  8
SAPA_PROFIL
 62
     4
 10
56.54378221734769
 20
50.24283232302971
 30
0.0
 42
0.1316524975873982
  0
VERTEX
  5
B99
  8
SAPA_PROFIL
 62
     4
 10
56.14378221734767
 20
50.350012000002138
 30
0.0
  0
SEQEND
  5
B9A
  8
SAPA_PROFIL
 62
     4
  0
POLYLINE
  5
B9B
  8
SAPA_PROFIL
 66
     1
 10
0.0
 20
0.0
 30
0.0
 70
     1
  0
VERTEX
  5
1333
  8
SAPA_PROFIL
 10
135.64523645122861
 20
19.46152494752096
 30
0.0
 42
0.2914734195858593
  0
VERTEX
  5
1334
  8
SAPA_PROFIL
 10
136.79999992774421
 20
21.274140521607482
 30
0.0
  0
VERTEX
  5
1335
  8
SAPA_PROFIL
 10
136.79999992774421
 20
40.999999999985441
 30
0.0
 42
0.4142135623731033
  0
VERTEX
  5
1336
  8
SAPA_PROFIL
 10
136.29999992774421
 20
41.499999999985441
 30
0.0
  0
VERTEX
  5
1337
  8
SAPA_PROFIL
 10
135.999999927734
 20
41.499999999985441
 30
0.0
 42
0.4142135623731035
  0
VERTEX
  5
1338
  8
SAPA_PROFIL
 10
135.499999927734
 20
40.999999999985441
 30
0.0
  0
VERTEX
  5
1339
  8
SAPA_PROFIL
 10
135.499999927734
 20
39.699999999986183
 30
0.0
 42
-0.4142135623731159
  0
VERTEX
  5
133A
  8
SAPA_PROFIL
 10
135.29999992771511
 20
39.499999999974541
 30
0.0
  0
VERTEX
  5
133B
  8
SAPA_PROFIL
 10
134.999999927734
 20
39.499999999985448
 30
0.0
 42
-0.4142135623731035
  0
VERTEX
  5
133C
  8
SAPA_PROFIL
 10
134.499999927734
 20
39.999999999985448
 30
0.0
  0
VERTEX
  5
133D
  8
SAPA_PROFIL
 10
134.4999999277413
 20
43.749999999985448
 30
0.0
 42
-0.4142135623731035
  0
VERTEX
  5
133E
  8
SAPA_PROFIL
 10
134.9999999277413
 20
44.249999999985441
 30
0.0
  0
VERTEX
  5
133F
  8
SAPA_PROFIL
 10
135.29999992774421
 20
44.249999999985441
 30
0.0
 42
-0.4142135623731159
  0
VERTEX
  5
1340
  8
SAPA_PROFIL
 10
135.49999992775221
 20
44.049999999973807
 30
0.0
  0
VERTEX
  5
1341
  8
SAPA_PROFIL
 10
135.4999999277413
 20
43.199999999986169
 30
0.0
 42
0.4142135623730951
  0
VERTEX
  5
1342
  8
SAPA_PROFIL
 10
135.69999992773111
 20
42.999999999985441
 30
0.0
  0
VERTEX
  5
1343
  8
SAPA_PROFIL
 10
136.69999992773111
 20
42.999999999985441
 30
0.0
 42
0.4142135623731035
  0
VERTEX
  5
1344
  8
SAPA_PROFIL
 10
137.19999992773111
 20
43.499999999985441
 30
0.0
  0
VERTEX
  5
1345
  8
SAPA_PROFIL
 10
137.19999992773111
 20
49.499999999985448
 30
0.0
 42
0.4142135623731033
  0
VERTEX
  5
1346
  8
SAPA_PROFIL
 10
136.69999992773111
 20
49.999999999985448
 30
0.0
  0
VERTEX
  5
1347
  8
SAPA_PROFIL
 10
135.69999992773111
 20
49.999999999985448
 30
0.0
 42
0.4142135623731054
  0
VERTEX
  5
1348
  8
SAPA_PROFIL
 10
135.4999999277413
 20
49.799999999973807
 30
0.0
  0
VERTEX
  5
1349
  8
SAPA_PROFIL
 10
135.499999927734
 20
48.949999999986169
 30
0.0
 42
-0.4142135623731159
  0
VERTEX
  5
134A
  8
SAPA_PROFIL
 10
135.29999992771511
 20
48.749999999974527
 30
0.0
  0
VERTEX
  5
134B
  8
SAPA_PROFIL
 10
134.9999999277413
 20
48.75
 30
0.0
 42
-0.4142135623731035
  0
VERTEX
  5
134C
  8
SAPA_PROFIL
 10
134.4999999277413
 20
49.25
 30
0.0
  0
VERTEX
  5
134D
  8
SAPA_PROFIL
 10
134.4999999277413
 20
52.25
 30
0.0
 42
-0.4142135623731035
  0
VERTEX
  5
134E
  8
SAPA_PROFIL
 10
134.9999999277413
 20
52.75
 30
0.0
  0
VERTEX
  5
134F
  8
SAPA_PROFIL
 10
135.29999992774421
 20
52.75
 30
0.0
 42
-0.4142135623730744
  0
VERTEX
  5
1350
  8
SAPA_PROFIL
 10
135.4999999277413
 20
52.549999999999272
 30
0.0
  0
VERTEX
  5
1351
  8
SAPA_PROFIL
 10
135.49999992773041
 20
51.70000000000072
 30
0.0
 42
0.4142135623730534
  0
VERTEX
  5
1352
  8
SAPA_PROFIL
 10
135.69999992773111
 20
51.5
 30
0.0
  0
VERTEX
  5
1353
  8
SAPA_PROFIL
 10
136.69999992773111
 20
51.5
 30
0.0
 42
0.4142135623731035
  0
VERTEX
  5
1354
  8
SAPA_PROFIL
 10
137.19999992773111
 20
52.0
 30
0.0
  0
VERTEX
  5
1355
  8
SAPA_PROFIL
 10
137.19999992773111
 20
58.0
 30
0.0
 42
0.4142135623730869
  0
VERTEX
  5
1356
  8
SAPA_PROFIL
 10
136.69999992773111
 20
58.5
 30
0.0
  0
VERTEX
  5
1357
  8
SAPA_PROFIL
 10
135.69999992773111
 20
58.499999999989079
 30
0.0
 42
0.4142135623730534
  0
VERTEX
  5
1358
  8
SAPA_PROFIL
 10
135.4999999277413
 20
58.299999999999272
 30
0.0
  0
VERTEX
  5
1359
  8
SAPA_PROFIL
 10
135.4999999277486
 20
57.45000000000072
 30
0.0
 42
-0.4142135623730744
  0
VERTEX
  5
135A
  8
SAPA_PROFIL
 10
135.29999992774421
 20
57.25
 30
0.0
  0
VERTEX
  5
135B
  8
SAPA_PROFIL
 10
134.9999999277413
 20
57.25
 30
0.0
 42
-0.4142135623731035
  0
VERTEX
  5
135C
  8
SAPA_PROFIL
 10
134.4999999277413
 20
57.75
 30
0.0
  0
VERTEX
  5
135D
  8
SAPA_PROFIL
 10
134.4999999277413
 20
59.5
 30
0.0
 42
-0.4142135623731035
  0
VERTEX
  5
135E
  8
SAPA_PROFIL
 10
134.9999999277413
 20
60.0
 30
0.0
  0
VERTEX
  5
135F
  8
SAPA_PROFIL
 10
137.4999999277413
 20
60.0
 30
0.0
 42
-0.4142135623730951
  0
VERTEX
  5
1360
  8
SAPA_PROFIL
 10
138.9999999277413
 20
58.5
 30
0.0
  0
VERTEX
  5
1361
  8
SAPA_PROFIL
 10
138.9999999277413
 20
-55.625
 30
0.0
 42
-0.9999999999999792
  0
VERTEX
  5
1362
  8
SAPA_PROFIL
 10
136.2499999277413
 20
-55.625
 30
0.0
  0
VERTEX
  5
1363
  8
SAPA_PROFIL
 10
136.2499999277413
 20
-3.9999999999999849
 30
0.0
 42
0.4142135623730959
  0
VERTEX
  5
1364
  8
SAPA_PROFIL
 10
132.2499999277413
 20
0.0000000000000142
 30
0.0
  0
VERTEX
  5
1365
  8
SAPA_PROFIL
 10
90.743868969062234
 20
-0.0000000000109139
 30
0.0
 42
-0.2418327667378102
  0
VERTEX
  5
1366
  8
SAPA_PROFIL
 10
90.499999928123856
 20
0.1252776749561804
 30
0.0
 42
0.2418327667509117
  0
VERTEX
  5
1367
  8
SAPA_PROFIL
 10
90.256130887167899
 20
0.2505553499286179
 30
0.0
  0
VERTEX
  5
1368
  8
SAPA_PROFIL
 10
89.299999928117984
 20
0.2505553499322559
 30
0.0
 42
0.2418327667448982
  0
VERTEX
  5
1369
  8
SAPA_PROFIL
 10
89.056130887163064
 20
0.12527767496384
 30
0.0
 42
-0.2418327667448982
  0
VERTEX
  5
136A
  8
SAPA_PROFIL
 10
88.812261846210475
 20
-0.0000000000033538
 30
0.0
  0
VERTEX
  5
136B
  8
SAPA_PROFIL
 10
86.714189490492487
 20
-0.0000000000033538
 30
0.0
 42
-0.6681786379192726
  0
VERTEX
  5
136C
  8
SAPA_PROFIL
 10
86.007082709305891
 20
1.707106781183142
 30
0.0
  0
VERTEX
  5
136D
  8
SAPA_PROFIL
 10
87.312131962474865
 20
3.0121560343523011
 30
0.0
 42
-0.1989123673797352
  0
VERTEX
  5
136E
  8
SAPA_PROFIL
 10
87.524263996830925
 20
3.100023999996437
 30
0.0
  0
VERTEX
  5
136F
  8
SAPA_PROFIL
 10
88.110769443578135
 20
3.1000239999962811
 30
0.0
 42
-0.1316524975873824
  0
VERTEX
  5
1370
  8
SAPA_PROFIL
 10
88.260769443578056
 20
3.059831621131635
 30
0.0
  0
VERTEX
  5
1371
  8
SAPA_PROFIL
 10
89.749999928118925
 20
2.2000239999963318
 30
0.0
  0
VERTEX
  5
1372
  8
SAPA_PROFIL
 10
90.199999928118885
 20
2.2000119999966752
 30
0.0
 42
0.4142135623731039
  0
VERTEX
  5
1373
  8
SAPA_PROFIL
 10
90.499999928118896
 20
2.5000119999966719
 30
0.0
  0
VERTEX
  5
1374
  8
SAPA_PROFIL
 10
90.499999928118825
 20
6.1000239999967363
 30
0.0
 42
0.4142135623730826
  0
VERTEX
  5
1375
  8
SAPA_PROFIL
 10
90.199999928118842
 20
6.4000239999967334
 30
0.0
  0
VERTEX
  5
1376
  8
SAPA_PROFIL
 10
89.749999928118839
 20
6.4000239999966331
 30
0.0
  0
VERTEX
  5
1377
  8
SAPA_PROFIL
 10
88.260739797044664
 20
5.5401992624276479
 30
0.0
 42
-0.1316363093594268
  0
VERTEX
  5
1378
  8
SAPA_PROFIL
 10
88.110758891997904
 20
5.5000068841706868
 30
0.0
  0
VERTEX
  5
1379
  8
SAPA_PROFIL
 10
87.999999928115074
 20
5.4999998343798771
 30
0.0
  0
VERTEX
  5
137A
  8
SAPA_PROFIL
 10
87.999999928115074
 20
7.0856406460516146
 30
0.0
 42
-0.2679491924308297
  0
VERTEX
  5
137B
  8
SAPA_PROFIL
 10
88.499999928115074
 20
7.9516660498302372
 30
0.0
  0
VERTEX
  5
137C
  8
SAPA_PROFIL
 10
90.249999928115528
 20
8.9620290209087141
 30
0.0
 42
0.2679491924308301
  0
VERTEX
  5
137D
  8
SAPA_PROFIL
 10
90.499999928115074
 20
9.3950417228006682
 30
0.0
  0
VERTEX
  5
137E
  8
SAPA_PROFIL
 10
90.499999928115074
 20
10.60495827718114
 30
0.0
 42
0.267949192430829
  0
VERTEX
  5
137F
  8
SAPA_PROFIL
 10
90.249999928115059
 20
11.03797097907227
 30
0.0
  0
VERTEX
  5
1380
  8
SAPA_PROFIL
 10
88.499999928115074
 20
12.04833395014793
 30
0.0
 42
-0.2679491924308297
  0
VERTEX
  5
1381
  8
SAPA_PROFIL
 10
87.999999928116949
 20
12.914359353933831
 30
0.0
  0
VERTEX
  5
1382
  8
SAPA_PROFIL
 10
87.999999928114818
 20
14.50000016560193
 30
0.0
  0
VERTEX
  5
1383
  8
SAPA_PROFIL
 10
88.110758891997904
 20
14.499993115811121
 30
0.0
 42
-0.1316363093594264
  0
VERTEX
  5
1384
  8
SAPA_PROFIL
 10
88.260739797044664
 20
14.45980073755416
 30
0.0
  0
VERTEX
  5
1385
  8
SAPA_PROFIL
 10
89.749999928118839
 20
13.599975999985171
 30
0.0
  0
VERTEX
  5
1386
  8
SAPA_PROFIL
 10
90.199999928118842
 20
13.59997599998507
 30
0.0
 42
0.4142135623730951
  0
VERTEX
  5
1387
  8
SAPA_PROFIL
 10
90.499999928118825
 20
13.89997599998507
 30
0.0
  0
VERTEX
  5
1388
  8
SAPA_PROFIL
 10
90.499999928118896
 20
17.499987999985141
 30
0.0
 42
0.4142135623731165
  0
VERTEX
  5
1389
  8
SAPA_PROFIL
 10
90.199999928118885
 20
17.799987999985131
 30
0.0
  0
VERTEX
  5
138A
  8
SAPA_PROFIL
 10
89.749999928118925
 20
17.799975999985481
 30
0.0
  0
VERTEX
  5
138B
  8
SAPA_PROFIL
 10
88.260769443578056
 20
16.940168378850171
 30
0.0
 42
-0.1316524975873824
  0
VERTEX
  5
138C
  8
SAPA_PROFIL
 10
88.110769443578135
 20
16.899975999985529
 30
0.0
  0
VERTEX
  5
138D
  8
SAPA_PROFIL
 10
87.524263996830925
 20
16.89997599998539
 30
0.0
 42
-0.1989123673797351
  0
VERTEX
  5
138E
  8
SAPA_PROFIL
 10
87.312131962474865
 20
16.987843965629509
 30
0.0
  0
VERTEX
  5
138F
  8
SAPA_PROFIL
 10
86.007082709305891
 20
18.292893218798671
 30
0.0
 42
-0.6681786379192719
  0
VERTEX
  5
1390
  8
SAPA_PROFIL
 10
86.714189490492487
 20
19.99999999998516
 30
0.0
  0
VERTEX
  5
1391
  8
SAPA_PROFIL
 10
88.812261846212166
 20
19.99999999998516
 30
0.0
 42
-0.2418327667433408
  0
VERTEX
  5
1392
  8
SAPA_PROFIL
 10
89.056130887163732
 20
19.874722325019398
 30
0.0
 42
0.2418327667449424
  0
VERTEX
  5
1393
  8
SAPA_PROFIL
 10
89.299999928117984
 20
19.749444650053189
 30
0.0
  0
VERTEX
  5
1394
  8
SAPA_PROFIL
 10
90.256130887167899
 20
19.749444650049551
 30
0.0
 42
0.2418327667509086
  0
VERTEX
  5
1395
  8
SAPA_PROFIL
 10
90.499999928115017
 20
19.874722325031971
 30
0.0
 42
-0.2418327667378184
  0
VERTEX
  5
1396
  8
SAPA_PROFIL
 10
90.743868969052286
 20
19.999999999993801
 30
0.0
  0
VERTEX
  5
1397
  8
SAPA_PROFIL
 10
92.556610602811588
 20
20.000000000003642
 30
0.0
 42
-0.1095178116817878
  0
VERTEX
  5
1398
  8
SAPA_PROFIL
 10
93.401847126282576
 20
19.8126155740818
 30
0.0
  0
VERTEX
  5
1399
  8
SAPA_PROFIL
 10
99.031673491414722
 20
17.187384425924389
 30
0.0
 42
0.1095178116855124
  0
VERTEX
  5
139A
  8
SAPA_PROFIL
 10
99.876910014920895
 20
17.0
 30
0.0
  0
VERTEX
  5
139B
  8
SAPA_PROFIL
 10
106.9999999280833
 20
16.999999999985452
 30
0.0
 42
0.414213562373099
  0
VERTEX
  5
139C
  8
SAPA_PROFIL
 10
107.4999999280833
 20
17.500000000003642
 30
0.0
  0
VERTEX
  5
139D
  8
SAPA_PROFIL
 10
107.4999999280833
 20
18.500000000003631
 30
0.0
 42
0.4142135623730951
  0
VERTEX
  5
139E
  8
SAPA_PROFIL
 10
106.9999999280833
 20
19.000000000003642
 30
0.0
  0
VERTEX
  5
139F
  8
SAPA_PROFIL
 10
106.7087120806161
 20
19.000000000003642
 30
0.0
 42
-0.2982166266909471
  0
VERTEX
  5
13A0
  8
SAPA_PROFIL
 10
106.25045451112619
 20
19.299999999990739
 30
0.0
 42
-1.5275252316550949
  0
VERTEX
  5
13A1
  8
SAPA_PROFIL
 10
111.74954534504521
 20
19.299999999998899
 30
0.0
 42
-0.2982166266892463
  0
VERTEX
  5
13A2
  8
SAPA_PROFIL
 10
111.291287775565
 20
19.00000000001296
 30
0.0
  0
VERTEX
  5
13A3
  8
SAPA_PROFIL
 10
110.9999999280833
 20
19.000000000003642
 30
0.0
 42
0.4142135623730951
  0
VERTEX
  5
13A4
  8
SAPA_PROFIL
 10
110.4999999280833
 20
18.500000000003631
 30
0.0
  0
VERTEX
  5
13A5
  8
SAPA_PROFIL
 10
110.4999999280833
 20
17.500000000003642
 30
0.0
 42
0.4142135623730946
  0
VERTEX
  5
13A6
  8
SAPA_PROFIL
 10
110.9999999280833
 20
17.000000000003642
 30
0.0
  0
VERTEX
  5
13A7
  8
SAPA_PROFIL
 10
129.92308984094299
 20
17.000000000003642
 30
0.0
 42
0.1095178116834561
  0
VERTEX
  5
13A8
  8
SAPA_PROFIL
 10
130.7683263644287
 20
17.18738442592506
 30
0.0
  0
SEQEND
  5
13A9
  8
SAPA_PROFIL
  0
POLYLINE
  5
B9C
  8
SAPA_PROFIL
 66
     1
 10
0.0
 20
0.0
 30
0.0
 70
     1
  0
VERTEX
  5
13AA
  8
SAPA_PROFIL
 10
136.4999999277413
 20
2.7999999999992862
 30
0.0
 42
-0.4142135623730916
  0
VERTEX
  5
13AB
  8
SAPA_PROFIL
 10
136.19999992773111
 20
2.5000000000000142
 30
0.0
  0
VERTEX
  5
13AC
  8
SAPA_PROFIL
 10
93.299999928115355
 20
2.5000000000036371
 30
0.0
 42
-0.4142135623730959
  0
VERTEX
  5
13AD
  8
SAPA_PROFIL
 10
92.999999928116054
 20
2.8000000000029099
 30
0.0
  0
VERTEX
  5
13AE
  8
SAPA_PROFIL
 10
92.999999928112402
 20
14.3999999999869
 30
0.0
 42
-0.4142135623730951
  0
VERTEX
  5
13AF
  8
SAPA_PROFIL
 10
93.299999928115312
 20
14.69999999998981
 30
0.0
  0
VERTEX
  5
13B0
  8
SAPA_PROFIL
 10
136.19999992773111
 20
14.70000000001165
 30
0.0
 42
-0.4142135623730946
  0
VERTEX
  5
13B1
  8
SAPA_PROFIL
 10
136.4999999277413
 20
14.400000000019659
 30
0.0
  0
SEQEND
  5
13B2
  8
SAPA_PROFIL
  0
POLYLINE
  5
B9D
  8
SAPA_PROFIL
 62
     4
 66
     1
 10
0.0
 20
0.0
 30
0.0
 70
     1
  0
VERTEX
  5
B9E
  8
SAPA_PROFIL
 62
     4
 10
88.124166846888869
 20
3.1994446825304972
 30
0.0
 42
-0.1316524975873876
  0
VERTEX
  5
B9F
  8
SAPA_PROFIL
 62
     4
 10
88.274166846888846
 20
3.1592523036658369
 30
0.0
  0
VERTEX
  5
BA0
  8
SAPA_PROFIL
 62
     4
 10
89.763397387734059
 20
2.2994446500235171
 30
0.0
  0
VERTEX
  5
BA1
  8
SAPA_PROFIL
 62
     4
 10
90.199999928112504
 20
2.2994446500234309
 30
0.0
 42
0.4142135623730934
  0
VERTEX
  5
BA2
  8
SAPA_PROFIL
 62
     4
 10
90.449999928112476
 20
2.5494446500234171
 30
0.0
  0
VERTEX
  5
BA3
  8
SAPA_PROFIL
 62
     4
 10
90.449999928112547
 20
6.1494566500234811
 30
0.0
 42
0.4142135623731066
  0
VERTEX
  5
BA4
  8
SAPA_PROFIL
 62
     4
 10
90.199999928112533
 20
6.3994566500234953
 30
0.0
  0
VERTEX
  5
BA5
  8
SAPA_PROFIL
 62
     4
 10
89.763398006534075
 20
6.3994450072881364
 30
0.0
  0
VERTEX
  5
BA6
  8
SAPA_PROFIL
 62
     4
 10
88.274166959496384
 20
5.5396370613951396
 30
0.0
 42
-0.131652497587425
  0
VERTEX
  5
BA7
  8
SAPA_PROFIL
 62
     4
 10
88.124166959496335
 20
5.4994446825304522
 30
0.0
  0
VERTEX
  5
BA8
  8
SAPA_PROFIL
 62
     4
 10
64.875832968245092
 20
5.4994446825304522
 30
0.0
 42
-0.1316524975874248
  0
VERTEX
  5
BA9
  8
SAPA_PROFIL
 62
     4
 10
64.725832968245058
 20
5.5396370613951396
 30
0.0
  0
VERTEX
  5
BAA
  8
SAPA_PROFIL
 62
     4
 10
63.236601921207367
 20
6.3994450072881364
 30
0.0
  0
VERTEX
  5
BAB
  8
SAPA_PROFIL
 62
     4
 10
62.799999999628909
 20
6.3994566500234953
 30
0.0
 42
0.4142135623731049
  0
VERTEX
  5
BAC
  8
SAPA_PROFIL
 62
     4
 10
62.549999999628902
 20
6.1494566500234811
 30
0.0
  0
VERTEX
  5
BAD
  8
SAPA_PROFIL
 62
     4
 10
62.549999999628952
 20
2.5494446500234171
 30
0.0
 42
0.4142135623730951
  0
VERTEX
  5
BAE
  8
SAPA_PROFIL
 62
     4
 10
62.79999999962893
 20
2.2994446500234309
 30
0.0
  0
VERTEX
  5
BAF
  8
SAPA_PROFIL
 62
     4
 10
63.236602540007389
 20
2.2994446500235171
 30
0.0
  0
VERTEX
  5
BB0
  8
SAPA_PROFIL
 62
     4
 10
64.72583308085251
 20
3.1592523036657951
 30
0.0
 42
-0.1316524975873866
  0
VERTEX
  5
BB1
  8
SAPA_PROFIL
 62
     4
 10
64.875833080852473
 20
3.1994446825304541
 30
0.0
  0
SEQEND
  5
BB2
  8
SAPA_PROFIL
 62
     4
  0
POLYLINE
  5
BB3
  8
SAPA_PROFIL
 66
     1
 10
0.0
 20
0.0
 30
0.0
 70
     1
  0
VERTEX
  5
13B3
  8
SAPA_PROFIL
 10
17.354763476512758
 20
19.46152494752096
 30
0.0
 42
-0.2914734195858593
  0
VERTEX
  5
13B4
  8
SAPA_PROFIL
 10
16.199999999997111
 20
21.274140521607482
 30
0.0
  0
VERTEX
  5
13B5
  8
SAPA_PROFIL
 10
16.199999999997111
 20
40.999999999985441
 30
0.0
 42
-0.4142135623731033
  0
VERTEX
  5
13B6
  8
SAPA_PROFIL
 10
16.6999999999971
 20
41.499999999985441
 30
0.0
  0
VERTEX
  5
13B7
  8
SAPA_PROFIL
 10
17.000000000007301
 20
41.499999999985441
 30
0.0
 42
-0.4142135623731035
  0
VERTEX
  5
13B8
  8
SAPA_PROFIL
 10
17.500000000007301
 20
40.999999999985441
 30
0.0
  0
VERTEX
  5
13B9
  8
SAPA_PROFIL
 10
17.500000000007301
 20
39.699999999986183
 30
0.0
 42
0.4142135623731159
  0
VERTEX
  5
13BA
  8
SAPA_PROFIL
 10
17.700000000026211
 20
39.499999999974541
 30
0.0
  0
VERTEX
  5
13BB
  8
SAPA_PROFIL
 10
18.000000000007301
 20
39.499999999985448
 30
0.0
 42
0.4142135623731035
  0
VERTEX
  5
13BC
  8
SAPA_PROFIL
 10
18.50000000000729
 20
39.999999999985448
 30
0.0
  0
VERTEX
  5
13BD
  8
SAPA_PROFIL
 10
18.500000000000028
 20
43.749999999985448
 30
0.0
 42
0.4142135623731035
  0
VERTEX
  5
13BE
  8
SAPA_PROFIL
 10
18.000000000000028
 20
44.249999999985441
 30
0.0
  0
VERTEX
  5
13BF
  8
SAPA_PROFIL
 10
17.699999999997129
 20
44.249999999985441
 30
0.0
 42
0.4142135623731159
  0
VERTEX
  5
13C0
  8
SAPA_PROFIL
 10
17.499999999989111
 20
44.049999999973807
 30
0.0
  0
VERTEX
  5
13C1
  8
SAPA_PROFIL
 10
17.500000000000028
 20
43.199999999986169
 30
0.0
 42
-0.4142135623730951
  0
VERTEX
  5
13C2
  8
SAPA_PROFIL
 10
17.300000000010211
 20
42.999999999985441
 30
0.0
  0
VERTEX
  5
13C3
  8
SAPA_PROFIL
 10
16.300000000010211
 20
42.999999999985441
 30
0.0
 42
-0.4142135623731035
  0
VERTEX
  5
13C4
  8
SAPA_PROFIL
 10
15.80000000001022
 20
43.499999999985441
 30
0.0
  0
VERTEX
  5
13C5
  8
SAPA_PROFIL
 10
15.80000000001022
 20
49.499999999985448
 30
0.0
 42
-0.4142135623731033
  0
VERTEX
  5
13C6
  8
SAPA_PROFIL
 10
16.300000000010211
 20
49.999999999985448
 30
0.0
  0
VERTEX
  5
13C7
  8
SAPA_PROFIL
 10
17.300000000010211
 20
49.999999999985448
 30
0.0
 42
-0.4142135623731054
  0
VERTEX
  5
13C8
  8
SAPA_PROFIL
 10
17.500000000000028
 20
49.799999999973807
 30
0.0
  0
VERTEX
  5
13C9
  8
SAPA_PROFIL
 10
17.500000000007301
 20
48.949999999986169
 30
0.0
 42
0.4142135623731159
  0
VERTEX
  5
13CA
  8
SAPA_PROFIL
 10
17.700000000026229
 20
48.749999999974527
 30
0.0
  0
VERTEX
  5
13CB
  8
SAPA_PROFIL
 10
18.000000000000028
 20
48.75
 30
0.0
 42
0.4142135623731035
  0
VERTEX
  5
13CC
  8
SAPA_PROFIL
 10
18.500000000000028
 20
49.25
 30
0.0
  0
VERTEX
  5
13CD
  8
SAPA_PROFIL
 10
18.500000000000028
 20
52.25
 30
0.0
 42
0.4142135623731035
  0
VERTEX
  5
13CE
  8
SAPA_PROFIL
 10
18.000000000000028
 20
52.75
 30
0.0
  0
VERTEX
  5
13CF
  8
SAPA_PROFIL
 10
17.699999999997129
 20
52.75
 30
0.0
 42
0.4142135623730744
  0
VERTEX
  5
13D0
  8
SAPA_PROFIL
 10
17.500000000000028
 20
52.549999999999272
 30
0.0
  0
VERTEX
  5
13D1
  8
SAPA_PROFIL
 10
17.500000000010949
 20
51.70000000000072
 30
0.0
 42
-0.4142135623730534
  0
VERTEX
  5
13D2
  8
SAPA_PROFIL
 10
17.300000000010211
 20
51.5
 30
0.0
  0
VERTEX
  5
13D3
  8
SAPA_PROFIL
 10
16.300000000010211
 20
51.5
 30
0.0
 42
-0.4142135623731035
  0
VERTEX
  5
13D4
  8
SAPA_PROFIL
 10
15.80000000001022
 20
52.0
 30
0.0
  0
VERTEX
  5
13D5
  8
SAPA_PROFIL
 10
15.80000000001022
 20
58.0
 30
0.0
 42
-0.4142135623730869
  0
VERTEX
  5
13D6
  8
SAPA_PROFIL
 10
16.300000000010211
 20
58.5
 30
0.0
  0
VERTEX
  5
13D7
  8
SAPA_PROFIL
 10
17.300000000010211
 20
58.499999999989079
 30
0.0
 42
-0.4142135623730534
  0
VERTEX
  5
13D8
  8
SAPA_PROFIL
 10
17.500000000000028
 20
58.299999999999272
 30
0.0
  0
VERTEX
  5
13D9
  8
SAPA_PROFIL
 10
17.499999999992749
 20
57.45000000000072
 30
0.0
 42
0.4142135623730744
  0
VERTEX
  5
13DA
  8
SAPA_PROFIL
 10
17.699999999997129
 20
57.25
 30
0.0
  0
VERTEX
  5
13DB
  8
SAPA_PROFIL
 10
18.000000000000028
 20
57.25
 30
0.0
 42
0.4142135623731035
  0
VERTEX
  5
13DC
  8
SAPA_PROFIL
 10
18.500000000000028
 20
57.75
 30
0.0
  0
VERTEX
  5
13DD
  8
SAPA_PROFIL
 10
18.500000000000028
 20
59.5
 30
0.0
 42
0.4142135623731035
  0
VERTEX
  5
13DE
  8
SAPA_PROFIL
 10
18.000000000000028
 20
60.0
 30
0.0
  0
VERTEX
  5
13DF
  8
SAPA_PROFIL
 10
15.50000000000003
 20
60.0
 30
0.0
 42
0.4142135623730951
  0
VERTEX
  5
13E0
  8
SAPA_PROFIL
 10
14.00000000000003
 20
58.5
 30
0.0
  0
VERTEX
  5
13E1
  8
SAPA_PROFIL
 10
14.0
 20
-55.625
 30
0.0
 42
0.9999999999999792
  0
VERTEX
  5
13E2
  8
SAPA_PROFIL
 10
16.75
 20
-55.625
 30
0.0
  0
VERTEX
  5
13E3
  8
SAPA_PROFIL
 10
16.750000000000028
 20
-3.9999999999999849
 30
0.0
 42
-0.4142135623730959
  0
VERTEX
  5
13E4
  8
SAPA_PROFIL
 10
20.750000000000011
 20
0.0000000000000142
 30
0.0
  0
VERTEX
  5
13E5
  8
SAPA_PROFIL
 10
62.256130958679108
 20
-0.0000000000109139
 30
0.0
 42
0.2418327667378102
  0
VERTEX
  5
13E6
  8
SAPA_PROFIL
 10
62.499999999617501
 20
0.1252776749561804
 30
0.0
 42
-0.2418327667509117
  0
VERTEX
  5
13E7
  8
SAPA_PROFIL
 10
62.743869040573458
 20
0.2505553499286179
 30
0.0
  0
VERTEX
  5
13E8
  8
SAPA_PROFIL
 10
63.699999999623373
 20
0.2505553499322559
 30
0.0
 42
-0.2418327667448982
  0
VERTEX
  5
13E9
  8
SAPA_PROFIL
 10
63.943869040578313
 20
0.12527767496384
 30
0.0
 42
0.2418327667448982
  0
VERTEX
  5
13EA
  8
SAPA_PROFIL
 10
64.187738081530881
 20
-0.0000000000033538
 30
0.0
  0
VERTEX
  5
13EB
  8
SAPA_PROFIL
 10
66.28581043724887
 20
-0.0000000000033538
 30
0.0
 42
0.6681786379192726
  0
VERTEX
  5
13EC
  8
SAPA_PROFIL
 10
66.992917218435466
 20
1.707106781183142
 30
0.0
  0
VERTEX
  5
13ED
  8
SAPA_PROFIL
 10
65.687867965266491
 20
3.0121560343523011
 30
0.0
 42
0.1989123673797352
  0
VERTEX
  5
13EE
  8
SAPA_PROFIL
 10
65.475735930910403
 20
3.100023999996437
 30
0.0
  0
VERTEX
  5
13EF
  8
SAPA_PROFIL
 10
64.889230484163221
 20
3.1000239999962811
 30
0.0
 42
0.1316524975873824
  0
VERTEX
  5
13F0
  8
SAPA_PROFIL
 10
64.739230484163301
 20
3.059831621131635
 30
0.0
  0
VERTEX
  5
13F1
  8
SAPA_PROFIL
 10
63.24999999962241
 20
2.2000239999963318
 30
0.0
  0
VERTEX
  5
13F2
  8
SAPA_PROFIL
 10
62.799999999622472
 20
2.2000119999966752
 30
0.0
 42
-0.4142135623731039
  0
VERTEX
  5
13F3
  8
SAPA_PROFIL
 10
62.499999999622467
 20
2.5000119999966719
 30
0.0
  0
VERTEX
  5
13F4
  8
SAPA_PROFIL
 10
62.499999999622517
 20
6.1000239999967363
 30
0.0
 42
-0.4142135623730826
  0
VERTEX
  5
13F5
  8
SAPA_PROFIL
 10
62.799999999622507
 20
6.4000239999967334
 30
0.0
  0
VERTEX
  5
13F6
  8
SAPA_PROFIL
 10
63.24999999962251
 20
6.4000239999966331
 30
0.0
  0
VERTEX
  5
13F7
  8
SAPA_PROFIL
 10
64.739260130696692
 20
5.5401992624276479
 30
0.0
 42
0.1316363093594268
  0
VERTEX
  5
13F8
  8
SAPA_PROFIL
 10
64.889241035743424
 20
5.5000068841706868
 30
0.0
  0
VERTEX
  5
13F9
  8
SAPA_PROFIL
 10
64.999999999626283
 20
5.4999998343798771
 30
0.0
  0
VERTEX
  5
13FA
  8
SAPA_PROFIL
 10
64.999999999626283
 20
7.0856406460516146
 30
0.0
 42
0.2679491924308297
  0
VERTEX
  5
13FB
  8
SAPA_PROFIL
 10
64.499999999626283
 20
7.9516660498302372
 30
0.0
  0
VERTEX
  5
13FC
  8
SAPA_PROFIL
 10
62.749999999625828
 20
8.9620290209087141
 30
0.0
 42
-0.2679491924308301
  0
VERTEX
  5
13FD
  8
SAPA_PROFIL
 10
62.49999999962629
 20
9.3950417228006682
 30
0.0
  0
VERTEX
  5
13FE
  8
SAPA_PROFIL
 10
62.49999999962629
 20
10.60495827718114
 30
0.0
 42
-0.267949192430829
  0
VERTEX
  5
13FF
  8
SAPA_PROFIL
 10
62.749999999626283
 20
11.03797097907227
 30
0.0
  0
VERTEX
  5
1400
  8
SAPA_PROFIL
 10
64.499999999626283
 20
12.04833395014793
 30
0.0
 42
0.2679491924308297
  0
VERTEX
  5
1401
  8
SAPA_PROFIL
 10
64.999999999624393
 20
12.914359353933831
 30
0.0
  0
VERTEX
  5
1402
  8
SAPA_PROFIL
 10
64.999999999626525
 20
14.50000016560193
 30
0.0
  0
VERTEX
  5
1403
  8
SAPA_PROFIL
 10
64.889241035743424
 20
14.499993115811121
 30
0.0
 42
0.1316363093594264
  0
VERTEX
  5
1404
  8
SAPA_PROFIL
 10
64.739260130696692
 20
14.45980073755416
 30
0.0
  0
VERTEX
  5
1405
  8
SAPA_PROFIL
 10
63.24999999962251
 20
13.599975999985171
 30
0.0
  0
VERTEX
  5
1406
  8
SAPA_PROFIL
 10
62.799999999622507
 20
13.59997599998507
 30
0.0
 42
-0.4142135623730951
  0
VERTEX
  5
1407
  8
SAPA_PROFIL
 10
62.499999999622517
 20
13.89997599998507
 30
0.0
  0
VERTEX
  5
1408
  8
SAPA_PROFIL
 10
62.499999999622467
 20
17.499987999985141
 30
0.0
 42
-0.4142135623731165
  0
VERTEX
  5
1409
  8
SAPA_PROFIL
 10
62.799999999622472
 20
17.799987999985131
 30
0.0
  0
VERTEX
  5
140A
  8
SAPA_PROFIL
 10
63.24999999962241
 20
17.799975999985481
 30
0.0
  0
VERTEX
  5
140B
  8
SAPA_PROFIL
 10
64.739230484163301
 20
16.940168378850171
 30
0.0
 42
0.1316524975873824
  0
VERTEX
  5
140C
  8
SAPA_PROFIL
 10
64.889230484163221
 20
16.899975999985529
 30
0.0
  0
VERTEX
  5
140D
  8
SAPA_PROFIL
 10
65.475735930910403
 20
16.89997599998539
 30
0.0
 42
0.1989123673797351
  0
VERTEX
  5
140E
  8
SAPA_PROFIL
 10
65.687867965266491
 20
16.987843965629509
 30
0.0
  0
VERTEX
  5
140F
  8
SAPA_PROFIL
 10
66.992917218435466
 20
18.292893218798671
 30
0.0
 42
0.6681786379192719
  0
VERTEX
  5
1410
  8
SAPA_PROFIL
 10
66.28581043724887
 20
19.99999999998516
 30
0.0
  0
VERTEX
  5
1411
  8
SAPA_PROFIL
 10
64.187738081529176
 20
19.99999999998516
 30
0.0
 42
0.2418327667433408
  0
VERTEX
  5
1412
  8
SAPA_PROFIL
 10
63.943869040577617
 20
19.874722325019398
 30
0.0
 42
-0.2418327667449424
  0
VERTEX
  5
1413
  8
SAPA_PROFIL
 10
63.699999999623373
 20
19.749444650053189
 30
0.0
  0
VERTEX
  5
1414
  8
SAPA_PROFIL
 10
62.743869040573458
 20
19.749444650049551
 30
0.0
 42
-0.2418327667509086
  0
VERTEX
  5
1415
  8
SAPA_PROFIL
 10
62.49999999962634
 20
19.874722325031971
 30
0.0
 42
0.2418327667378184
  0
VERTEX
  5
1416
  8
SAPA_PROFIL
 10
62.256130958689049
 20
19.999999999993801
 30
0.0
  0
VERTEX
  5
1417
  8
SAPA_PROFIL
 10
60.443389324929761
 20
20.000000000003642
 30
0.0
 42
0.1095178116817878
  0
VERTEX
  5
1418
  8
SAPA_PROFIL
 10
59.598152801458781
 20
19.8126155740818
 30
0.0
  0
VERTEX
  5
1419
  8
SAPA_PROFIL
 10
53.968326436326628
 20
17.187384425924389
 30
0.0
 42
-0.1095178116855124
  0
VERTEX
  5
141A
  8
SAPA_PROFIL
 10
53.123089912820461
 20
17.0
 30
0.0
  0
VERTEX
  5
141B
  8
SAPA_PROFIL
 10
45.999999999658051
 20
16.999999999985452
 30
0.0
 42
-0.414213562373099
  0
VERTEX
  5
141C
  8
SAPA_PROFIL
 10
45.499999999658051
 20
17.500000000003642
 30
0.0
  0
VERTEX
  5
141D
  8
SAPA_PROFIL
 10
45.499999999658051
 20
18.500000000003631
 30
0.0
 42
-0.4142135623730951
  0
VERTEX
  5
141E
  8
SAPA_PROFIL
 10
45.999999999658051
 20
19.000000000003642
 30
0.0
  0
VERTEX
  5
141F
  8
SAPA_PROFIL
 10
46.291287847125233
 20
19.000000000003642
 30
0.0
 42
0.2982166266909471
  0
VERTEX
  5
1420
  8
SAPA_PROFIL
 10
46.74954541661517
 20
19.299999999990739
 30
0.0
 42
1.5275252316550949
  0
VERTEX
  5
1421
  8
SAPA_PROFIL
 10
41.250454582696158
 20
19.299999999998899
 30
0.0
 42
0.2982166266892463
  0
VERTEX
  5
1422
  8
SAPA_PROFIL
 10
41.708712152176332
 20
19.00000000001296
 30
0.0
  0
VERTEX
  5
1423
  8
SAPA_PROFIL
 10
41.999999999658058
 20
19.000000000003642
 30
0.0
 42
-0.4142135623730951
  0
VERTEX
  5
1424
  8
SAPA_PROFIL
 10
42.499999999658058
 20
18.500000000003631
 30
0.0
  0
VERTEX
  5
1425
  8
SAPA_PROFIL
 10
42.499999999658058
 20
17.500000000003642
 30
0.0
 42
-0.4142135623730946
  0
VERTEX
  5
1426
  8
SAPA_PROFIL
 10
41.999999999658058
 20
17.000000000003642
 30
0.0
  0
VERTEX
  5
1427
  8
SAPA_PROFIL
 10
23.076910086798321
 20
17.000000000003642
 30
0.0
 42
-0.1095178116834561
  0
VERTEX
  5
1428
  8
SAPA_PROFIL
 10
22.23167356331259
 20
17.18738442592506
 30
0.0
  0
SEQEND
  5
1429
  8
SAPA_PROFIL
  0
POLYLINE
  5
BB4
  8
SAPA_PROFIL
 66
     1
 10
0.0
 20
0.0
 30
0.0
 70
     1
  0
VERTEX
  5
142A
  8
SAPA_PROFIL
 10
16.500000000000021
 20
2.7999999999992862
 30
0.0
 42
0.4142135623730916
  0
VERTEX
  5
142B
  8
SAPA_PROFIL
 10
16.800000000010211
 20
2.5000000000000142
 30
0.0
  0
VERTEX
  5
142C
  8
SAPA_PROFIL
 10
59.699999999626023
 20
2.5000000000036371
 30
0.0
 42
0.4142135623730959
  0
VERTEX
  5
142D
  8
SAPA_PROFIL
 10
59.999999999625288
 20
2.8000000000029099
 30
0.0
  0
VERTEX
  5
142E
  8
SAPA_PROFIL
 10
59.999999999628947
 20
14.3999999999869
 30
0.0
 42
0.4142135623730951
  0
VERTEX
  5
142F
  8
SAPA_PROFIL
 10
59.699999999626037
 20
14.69999999998981
 30
0.0
  0
VERTEX
  5
1430
  8
SAPA_PROFIL
 10
16.800000000010211
 20
14.70000000001165
 30
0.0
 42
0.4142135623730946
  0
VERTEX
  5
1431
  8
SAPA_PROFIL
 10
16.500000000000021
 20
14.400000000019659
 30
0.0
  0
SEQEND
  5
1432
  8
SAPA_PROFIL
  0
POLYLINE
  5
BB5
  8
SAPA_PROFIL
 62
     4
 66
     1
 10
0.0
 20
0.0
 30
-0.2
 70
     1
1001
RC_PROFILE
1002
{
1000
Region
1002
}
  0
VERTEX
  5
1433
  8
SAPA_PROFIL
 62
     4
 10
73.999999931237681
 20
43.297179717640567
 30
-0.2
  0
VERTEX
  5
1434
  8
SAPA_PROFIL
 62
     4
 10
73.999999931237681
 20
57.497179717642659
 30
-0.2
 42
-0.4142135623720297
  0
VERTEX
  5
1435
  8
SAPA_PROFIL
 62
     4
 10
74.499999931235863
 20
57.997179717642659
 30
-0.2
  0
VERTEX
  5
1436
  8
SAPA_PROFIL
 62
     4
 10
78.499999931857033
 20
57.997179717645622
 30
-0.2
 42
-0.4142135623730951
  0
VERTEX
  5
1437
  8
SAPA_PROFIL
 62
     4
 10
78.999999931857047
 20
57.497179717645622
 30
-0.2
  0
VERTEX
  5
1438
  8
SAPA_PROFIL
 62
     4
 10
78.999999931864323
 20
43.297179717641697
 30
-0.2
 42
-0.414213562373761
  0
VERTEX
  5
1439
  8
SAPA_PROFIL
 62
     4
 10
78.499999931864323
 20
42.797179717640567
 30
-0.2
  0
VERTEX
  5
143A
  8
SAPA_PROFIL
 62
     4
 10
74.499999931237681
 20
42.797179717640567
 30
-0.2
 42
-0.4142135623730951
  0
SEQEND
  5
143B
  8
SAPA_PROFIL
 62
     4
  0
POLYLINE
  5
BB6
  8
SAPA_PROFIL
 62
     4
 66
     1
 10
0.0
 20
0.0
 30
0.0
1001
GENIUS_GENOBJ-N-FIL_13
1002
{
1000
OWNER
1000
GEN
1002
}
1001
GENIUS_GENODEF_13
1002
{
1000
HIER
1070
     0
1002
}
1002
{
1000
MANEDIT
1070
     0
1002
}
1002
{
1000
NOSEL
1070
     0
1002
}
1002
{
1000
BEHIND
1070
     0
1002
}
1002
{
1000
OTHER
1070
     0
1002
}
1002
{
1000
REACTOR
1002
}
  0
VERTEX
  5
143C
  8
SAPA_PROFIL
 62
     4
 10
87.42274000125613
 20
16.533706161231521
 30
0.0
 42
0.131652497587489
  0
VERTEX
  5
143D
  8
SAPA_PROFIL
 62
     4
 10
88.022740001256565
 20
16.69447567669026
 30
0.0
  0
VERTEX
  5
143E
  8
SAPA_PROFIL
 62
     4
 10
89.763397941900095
 20
17.69944500728813
 30
0.0
  0
VERTEX
  5
143F
  8
SAPA_PROFIL
 62
     4
 10
90.199999863478567
 20
17.699456650023489
 30
0.0
 42
-0.4142135623731046
  0
VERTEX
  5
1440
  8
SAPA_PROFIL
 62
     4
 10
90.449999863478567
 20
17.449456650023489
 30
0.0
  0
VERTEX
  5
1441
  8
SAPA_PROFIL
 62
     4
 10
90.449999863478524
 20
13.849444650023431
 30
0.0
 42
-0.4142135623730957
  0
VERTEX
  5
1442
  8
SAPA_PROFIL
 62
     4
 10
90.199999863478524
 20
13.599444650023431
 30
0.0
  0
VERTEX
  5
1443
  8
SAPA_PROFIL
 62
     4
 10
89.763397323100065
 20
13.59944465002353
 30
0.0
  0
VERTEX
  5
1444
  8
SAPA_PROFIL
 62
     4
 10
88.077259725699193
 20
14.57293664577359
 30
0.0
 42
0.1316524975873848
  0
VERTEX
  5
1445
  8
SAPA_PROFIL
 62
     4
 10
87.477259725699241
 20
14.73370616123225
 30
0.0
  0
VERTEX
  5
1446
  8
SAPA_PROFIL
 62
     4
 10
65.522740137408221
 20
14.73370616123225
 30
0.0
 42
0.1316524975873846
  0
VERTEX
  5
1447
  8
SAPA_PROFIL
 62
     4
 10
64.922740137408269
 20
14.57293664577359
 30
0.0
  0
VERTEX
  5
1448
  8
SAPA_PROFIL
 62
     4
 10
63.236602540007389
 20
13.59944465002353
 30
0.0
  0
VERTEX
  5
1449
  8
SAPA_PROFIL
 62
     4
 10
62.79999999962893
 20
13.599444650023431
 30
0.0
 42
-0.4142135623730951
  0
VERTEX
  5
144A
  8
SAPA_PROFIL
 62
     4
 10
62.549999999628952
 20
13.849444650023431
 30
0.0
  0
VERTEX
  5
144B
  8
SAPA_PROFIL
 62
     4
 10
62.549999999628902
 20
17.449456650023489
 30
0.0
 42
-0.4142135623731046
  0
VERTEX
  5
144C
  8
SAPA_PROFIL
 62
     4
 10
62.799999999628909
 20
17.699456650023489
 30
0.0
  0
VERTEX
  5
144D
  8
SAPA_PROFIL
 62
     4
 10
63.236601921207367
 20
17.69944500728813
 30
0.0
  0
VERTEX
  5
144E
  8
SAPA_PROFIL
 62
     4
 10
64.977259861850911
 20
16.69447567669026
 30
0.0
 42
0.1316524975874892
  0
VERTEX
  5
144F
  8
SAPA_PROFIL
 62
     4
 10
65.577259861851331
 20
16.533706161231521
 30
0.0
  0
VERTEX
  5
1450
  8
SAPA_PROFIL
 62
     4
 10
68.299999999379935
 20
16.5337061612322
 30
0.0
 42
0.414213562374094
  0
VERTEX
  5
1451
  8
SAPA_PROFIL
 62
     4
 10
69.499999999378844
 20
17.733706161236341
 30
0.0
  0
VERTEX
  5
1452
  8
SAPA_PROFIL
 62
     4
 10
69.499999999289713
 20
43.531441188158169
 30
0.0
 42
-0.4142135623730951
  0
VERTEX
  5
1453
  8
SAPA_PROFIL
 62
     4
 10
69.999999999289713
 20
44.031441188158162
 30
0.0
  0
VERTEX
  5
1454
  8
SAPA_PROFIL
 62
     4
 10
70.199999999289531
 20
44.031441188158396
 30
0.0
 42
-0.4142135623730951
  0
VERTEX
  5
1455
  8
SAPA_PROFIL
 62
     4
 10
70.499999999289713
 20
43.731441188158207
 30
0.0
  0
VERTEX
  5
1456
  8
SAPA_PROFIL
 62
     4
 10
70.499999999289713
 20
43.081441188156298
 30
0.0
 42
0.4142135623730951
  0
VERTEX
  5
1457
  8
SAPA_PROFIL
 62
     4
 10
70.799999999290804
 20
42.781441188156343
 30
0.0
  0
VERTEX
  5
1458
  8
SAPA_PROFIL
 62
     4
 10
71.699999999286803
 20
42.78144118815726
 30
0.0
 42
0.4142135623730951
  0
VERTEX
  5
1459
  8
SAPA_PROFIL
 62
     4
 10
72.199999999286803
 20
43.28144118815635
 30
0.0
  0
VERTEX
  5
145A
  8
SAPA_PROFIL
 62
     4
 10
72.199999999286803
 20
49.281441188158169
 30
0.0
 42
0.4142135623730951
  0
VERTEX
  5
145B
  8
SAPA_PROFIL
 62
     4
 10
71.699999999286803
 20
49.781441188158169
 30
0.0
  0
VERTEX
  5
145C
  8
SAPA_PROFIL
 62
     4
 10
70.799999999288076
 20
49.781441188158169
 30
0.0
 42
0.4142135623710974
  0
VERTEX
  5
145D
  8
SAPA_PROFIL
 62
     4
 10
70.499999999288804
 20
49.481441188160261
 30
0.0
  0
VERTEX
  5
145E
  8
SAPA_PROFIL
 62
     4
 10
70.499999999284256
 20
48.831441188158351
 30
0.0
 42
-0.4142135623730951
  0
VERTEX
  5
145F
  8
SAPA_PROFIL
 62
     4
 10
70.199999999282255
 20
48.531441188160223
 30
0.0
  0
VERTEX
  5
1460
  8
SAPA_PROFIL
 62
     4
 10
69.999999999289713
 20
48.531441188161352
 30
0.0
 42
-0.4142135623730951
  0
VERTEX
  5
1461
  8
SAPA_PROFIL
 62
     4
 10
69.499999999289713
 20
49.031441188161352
 30
0.0
  0
VERTEX
  5
1462
  8
SAPA_PROFIL
 62
     4
 10
69.499999999289713
 20
52.031441188161352
 30
0.0
 42
-0.4142135623730951
  0
VERTEX
  5
1463
  8
SAPA_PROFIL
 62
     4
 10
69.999999999289713
 20
52.531441188161352
 30
0.0
  0
VERTEX
  5
1464
  8
SAPA_PROFIL
 62
     4
 10
70.199999999289531
 20
52.531441188161352
 30
0.0
 42
-0.4142135623730951
  0
VERTEX
  5
1465
  8
SAPA_PROFIL
 62
     4
 10
70.499999999289713
 20
52.23144118816117
 30
0.0
  0
VERTEX
  5
1466
  8
SAPA_PROFIL
 62
     4
 10
70.499999999289713
 20
51.581441188161307
 30
0.0
 42
0.4142135623730951
  0
VERTEX
  5
1467
  8
SAPA_PROFIL
 62
     4
 10
70.799999999290804
 20
51.281441188161352
 30
0.0
  0
VERTEX
  5
1468
  8
SAPA_PROFIL
 62
     4
 10
71.699999999286803
 20
51.281441188161352
 30
0.0
 42
0.4142135623730951
  0
VERTEX
  5
1469
  8
SAPA_PROFIL
 62
     4
 10
72.199999999286803
 20
51.781441188161352
 30
0.0
  0
VERTEX
  5
146A
  8
SAPA_PROFIL
 62
     4
 10
72.199999999286803
 20
57.781441188161352
 30
0.0
 42
0.4142135623730951
  0
VERTEX
  5
146B
  8
SAPA_PROFIL
 62
     4
 10
71.699999999286803
 20
58.281441188161352
 30
0.0
  0
VERTEX
  5
146C
  8
SAPA_PROFIL
 62
     4
 10
70.799999999290804
 20
58.281441188161352
 30
0.0
 42
0.4142135623730951
  0
VERTEX
  5
146D
  8
SAPA_PROFIL
 62
     4
 10
70.499999999289713
 20
57.98144118816117
 30
0.0
  0
VERTEX
  5
146E
  8
SAPA_PROFIL
 62
     4
 10
70.499999999289713
 20
57.331441188161307
 30
0.0
 42
-0.4142135623730949
  0
VERTEX
  5
146F
  8
SAPA_PROFIL
 62
     4
 10
70.199999999289531
 20
57.031441188161352
 30
0.0
  0
VERTEX
  5
1470
  8
SAPA_PROFIL
 62
     4
 10
69.999999999289713
 20
57.031441188161352
 30
0.0
 42
-0.4142135623730951
  0
VERTEX
  5
1471
  8
SAPA_PROFIL
 62
     4
 10
69.499999999289713
 20
57.531441188161352
 30
0.0
  0
VERTEX
  5
1472
  8
SAPA_PROFIL
 62
     4
 10
69.499999999290623
 20
59.281441188161352
 30
0.0
 42
-0.4142135623726955
  0
VERTEX
  5
1473
  8
SAPA_PROFIL
 62
     4
 10
69.999999999624393
 20
59.781441188161352
 30
0.0
  0
VERTEX
  5
1474
  8
SAPA_PROFIL
 62
     4
 10
82.999999999631669
 20
59.78144118816158
 30
0.0
 42
-0.4142135623732284
  0
VERTEX
  5
1475
  8
SAPA_PROFIL
 62
     4
 10
83.499999999908169
 20
59.281441188163171
 30
0.0
  0
VERTEX
  5
1476
  8
SAPA_PROFIL
 62
     4
 10
83.499999999908169
 20
57.531441188163171
 30
0.0
 42
-0.4142135623730951
  0
VERTEX
  5
1477
  8
SAPA_PROFIL
 62
     4
 10
82.999999999908155
 20
57.031441188163171
 30
0.0
  0
VERTEX
  5
1478
  8
SAPA_PROFIL
 62
     4
 10
82.799999999908351
 20
57.031441188163171
 30
0.0
 42
-0.4142135623730951
  0
VERTEX
  5
1479
  8
SAPA_PROFIL
 62
     4
 10
82.499999999908184
 20
57.331441188163353
 30
0.0
  0
VERTEX
  5
147A
  8
SAPA_PROFIL
 62
     4
 10
82.499999999908184
 20
57.98144118816321
 30
0.0
 42
0.4142135623730951
  0
VERTEX
  5
147B
  8
SAPA_PROFIL
 62
     4
 10
82.199999999908897
 20
58.281441188163171
 30
0.0
  0
VERTEX
  5
147C
  8
SAPA_PROFIL
 62
     4
 10
81.29999999991108
 20
58.281441188163171
 30
0.0
 42
0.4142135623730951
  0
VERTEX
  5
147D
  8
SAPA_PROFIL
 62
     4
 10
80.799999999911066
 20
57.781441188163171
 30
0.0
  0
VERTEX
  5
147E
  8
SAPA_PROFIL
 62
     4
 10
80.799999999911066
 20
51.781441188163171
 30
0.0
 42
0.4142135623730951
  0
VERTEX
  5
147F
  8
SAPA_PROFIL
 62
     4
 10
81.29999999991108
 20
51.281441188163171
 30
0.0
  0
VERTEX
  5
1480
  8
SAPA_PROFIL
 62
     4
 10
82.199999999908897
 20
51.281441188163171
 30
0.0
 42
0.4142135623730953
  0
VERTEX
  5
1481
  8
SAPA_PROFIL
 62
     4
 10
82.499999999908184
 20
51.581441188163353
 30
0.0
  0
VERTEX
  5
1482
  8
SAPA_PROFIL
 62
     4
 10
82.499999999908184
 20
52.23144118816321
 30
0.0
 42
-0.4142135623730951
  0
VERTEX
  5
1483
  8
SAPA_PROFIL
 62
     4
 10
82.799999999908351
 20
52.531441188163171
 30
0.0
  0
VERTEX
  5
1484
  8
SAPA_PROFIL
 62
     4
 10
82.999999999908155
 20
52.531441188163171
 30
0.0
 42
-0.4142135623730951
  0
VERTEX
  5
1485
  8
SAPA_PROFIL
 62
     4
 10
83.499999999908169
 20
52.031441188163171
 30
0.0
  0
VERTEX
  5
1486
  8
SAPA_PROFIL
 62
     4
 10
83.499999999908169
 20
49.031441188163171
 30
0.0
 42
-0.4142135623730951
  0
VERTEX
  5
1487
  8
SAPA_PROFIL
 62
     4
 10
82.999999999908155
 20
48.531441188163171
 30
0.0
  0
VERTEX
  5
1488
  8
SAPA_PROFIL
 62
     4
 10
82.799999999915627
 20
48.531441188162027
 30
0.0
 42
-0.414213562372873
  0
VERTEX
  5
1489
  8
SAPA_PROFIL
 62
     4
 10
82.499999999913626
 20
48.83144118816017
 30
0.0
  0
VERTEX
  5
148A
  8
SAPA_PROFIL
 62
     4
 10
82.499999999910884
 20
49.48144118816117
 30
0.0
 42
0.4142135623722071
  0
VERTEX
  5
148B
  8
SAPA_PROFIL
 62
     4
 10
82.199999999909807
 20
49.781441188160223
 30
0.0
  0
VERTEX
  5
148C
  8
SAPA_PROFIL
 62
     4
 10
81.29999999991108
 20
49.781441188160223
 30
0.0
 42
0.4142135623730951
  0
VERTEX
  5
148D
  8
SAPA_PROFIL
 62
     4
 10
80.799999999911066
 20
49.281441188160208
 30
0.0
  0
VERTEX
  5
148E
  8
SAPA_PROFIL
 62
     4
 10
80.799999999918356
 20
43.281441188158162
 30
0.0
 42
0.4142135623730951
  0
VERTEX
  5
148F
  8
SAPA_PROFIL
 62
     4
 10
81.299999999918356
 20
42.781441188158162
 30
0.0
  0
VERTEX
  5
1490
  8
SAPA_PROFIL
 62
     4
 10
82.199999999915264
 20
42.781441188158162
 30
0.0
 42
0.4142135623730951
  0
VERTEX
  5
1491
  8
SAPA_PROFIL
 62
     4
 10
82.499999999915445
 20
43.081441188158337
 30
0.0
  0
VERTEX
  5
1492
  8
SAPA_PROFIL
 62
     4
 10
82.499999999915445
 20
43.731441188160261
 30
0.0
 42
-0.4142135623730951
  0
VERTEX
  5
1493
  8
SAPA_PROFIL
 62
     4
 10
82.799999999915627
 20
44.031441188160223
 30
0.0
  0
VERTEX
  5
1494
  8
SAPA_PROFIL
 62
     4
 10
82.999999999915445
 20
44.031441188160223
 30
0.0
 42
-0.4142135623730951
  0
VERTEX
  5
1495
  8
SAPA_PROFIL
 62
     4
 10
83.499999999915445
 20
43.531441188160208
 30
0.0
  0
VERTEX
  5
1496
  8
SAPA_PROFIL
 62
     4
 10
83.499999999833577
 20
17.733706161236341
 30
0.0
 42
0.414213562374094
  0
VERTEX
  5
1497
  8
SAPA_PROFIL
 62
     4
 10
84.699999999833409
 20
16.533706161232431
 30
0.0
  0
VERTEX
  5
1498
  8
SAPA_PROFIL
 62
     4
 10
87.428481349913483
 20
16.5337061612322
 30
0.0
  0
SEQEND
  5
1499
  8
SAPA_PROFIL
 62
     4
  0
POLYLINE
  5
BB7
  8
SAPA_PROFIL
 62
     4
 66
     1
 10
0.0
 20
0.0
 30
0.0
 70
     1
  0
VERTEX
  5
149A
  8
SAPA_PROFIL
 62
     4
 10
79.799999931868143
 20
41.497179717642673
 30
0.0
  0
VERTEX
  5
149B
  8
SAPA_PROFIL
 62
     4
 10
72.299999931309713
 20
41.497179717638573
 30
0.0
 42
0.4142135623730951
  0
VERTEX
  5
149C
  8
SAPA_PROFIL
 62
     4
 10
71.299999931309713
 20
40.497179717638573
 30
0.0
  0
VERTEX
  5
149D
  8
SAPA_PROFIL
 62
     4
 10
71.299999931294252
 20
17.34944469071479
 30
0.0
 42
0.4142135623730949
  0
VERTEX
  5
149E
  8
SAPA_PROFIL
 62
     4
 10
72.099999931294434
 20
16.549444690714608
 30
0.0
  0
VERTEX
  5
149F
  8
SAPA_PROFIL
 62
     4
 10
80.899999931813028
 20
16.549444690714608
 30
0.0
 42
0.414213562373428
  0
VERTEX
  5
14A0
  8
SAPA_PROFIL
 62
     4
 10
81.699999931813196
 20
17.3494446907157
 30
0.0
  0
VERTEX
  5
14A1
  8
SAPA_PROFIL
 62
     4
 10
81.699999931789563
 20
40.497179717642659
 30
0.0
 42
0.4142135623724957
  0
VERTEX
  5
14A2
  8
SAPA_PROFIL
 62
     4
 10
80.699999931790472
 20
41.497179717640613
 30
0.0
  0
SEQEND
  5
14A3
  8
SAPA_PROFIL
 62
     4
  0
LINE
  5
BE3
  8
SAPA_GLAS
 10
65.749999999845244
 20
69.799999999895817
 30
0.0
 11
64.999999999832085
 21
69.799999999895817
 31
0.0
  0
LINE
  5
BE4
  8
SAPA_GLAS
 10
64.999999999832113
 20
56.999999999884892
 30
0.0
 11
65.749999999831232
 21
56.999999999884082
 31
0.0
  0
LINE
  5
BE5
  8
SAPA_GLAS
 10
22.249999999818659
 20
69.799999999895817
 30
0.0
 11
22.9999999998318
 21
69.799999999895817
 31
0.0
  0
LINE
  5
BE6
  8
SAPA_GLAS
 10
22.999999999831779
 20
56.999999999884892
 30
0.0
 11
22.249999999832681
 21
56.999999999884082
 31
0.0
  0
INSERT
  5
BE7
  8
SAPA_GLAS
  6
CONTINUOUS
  2
*X55
 10
0.0
 20
0.0
 30
0.0
1001
ACAD
1000
HATCH
1002
{
1070
    19
1000
ANSI37
1040
0.25
1040
1.5707963267948959
1000
R14_HATCH_DATA
1000
BE7
1011
1.0
1021
0.0
1031
0.0
1021
0.0
1031
0.0
1011
0.0
1021
0.0
1031
0.0
1021
1.0
1031
0.0
1011
0.0
1021
0.0
1031
0.0
1021
0.0
1031
1.0
1040
0.0
1010
0.0
1020
0.0
1030
1.0
1000
ANSI37
1070
     0
1070
     0
1071
        1
1071
        7
1070
     0
1070
     1
1071
        4
1040
65.750000000184713
1040
69.799999999895832
1040
64.999999999832113
1040
69.799999999895832
1040
64.999999999832113
1040
56.999999999884892
1040
65.750000000170672
1040
56.999999999884061
1071
        0
1070
     0
1070
     1
1040
1.5707963267948959
1040
0.25
1070
     0
1070
     2
1040
2.3561944901923439
1040
67.499999999807017
1040
46.924144147585622
1040
-0.5612660075668221
1040
-0.5612660075668221
1070
     0
1040
3.926990816987241
1040
67.499999999807017
1040
46.924144147585622
1040
0.5612660075668221
1040
-0.5612660075668221
1070
     0
1040
0.0325758689756538
1071
        1
1040
65.408318584589779
1040
62.239910499685813
1040
0.0
1002
}
  0
INSERT
  5
BE8
  8
SAPA_GLAS
  6
CONTINUOUS
  2
*X56
 10
0.0
 20
0.0
 30
0.0
1001
ACAD
1000
HATCH
1002
{
1070
    19
1000
ANSI37
1040
0.25
1040
1.5707963267948959
1000
R14_HATCH_DATA
1000
BE8
1011
1.0
1021
0.0
1031
0.0
1021
0.0
1031
0.0
1011
0.0
1021
0.0
1031
0.0
1021
1.0
1031
0.0
1011
0.0
1021
0.0
1031
0.0
1021
0.0
1031
1.0
1040
0.0
1010
0.0
1020
0.0
1030
1.0
1000
ANSI37
1070
     0
1070
     0
1071
        1
1071
        7
1070
     0
1070
     1
1071
        4
1040
22.9999999998318
1040
69.799999999895817
1040
22.249999999818659
1040
69.799999999895817
1040
22.249999999832681
1040
56.999999999884082
1040
22.999999999831779
1040
56.999999999884892
1071
        0
1070
     0
1070
     1
1040
1.5707963267948959
1040
0.25
1070
     0
1070
     2
1040
2.3561944901923439
1040
67.499999999807017
1040
46.924144147585622
1040
-0.5612660075668221
1040
-0.5612660075668221
1070
     0
1040
3.926990816987241
1040
67.499999999807017
1040
46.924144147585622
1040
0.5612660075668221
1040
-0.5612660075668221
1070
     0
1040
0.0230646099693014
1071
        1
1040
22.652314357139129
1040
60.868422804599078
1040
0.0
1002
}
  0
POLYLINE
  5
BE9
  8
SAPA_GLAS
 66
     1
 10
0.0
 20
0.0
 30
0.0
  0
VERTEX
  5
1540
  8
SAPA_GLAS
 10
64.999999999832113
 20
88.999999999884864
 30
0.0
  0
VERTEX
  5
1541
  8
SAPA_GLAS
 10
64.999999999832113
 20
56.999999999884857
 30
0.0
  0
VERTEX
  5
1542
  8
SAPA_GLAS
 10
58.99999999983212
 20
56.999999999884857
 30
0.0
  0
VERTEX
  5
1543
  8
SAPA_GLAS
 10
58.99999999983212
 20
88.999999999884864
 30
0.0
  0
SEQEND
  5
1544
  8
SAPA_GLAS
  0
POLYLINE
  5
BEA
  8
SAPA_GLAS
 66
     1
 10
0.0
 20
0.0
 30
0.0
  0
VERTEX
  5
1545
  8
SAPA_GLAS
 10
46.99999999983195
 20
66.999999999884878
 30
0.0
  0
VERTEX
  5
1546
  8
SAPA_GLAS
 10
58.999999999831942
 20
66.999999999884864
 30
0.0
  0
VERTEX
  5
1547
  8
SAPA_GLAS
 10
58.999999999831942
 20
56.999999999884857
 30
0.0
  0
VERTEX
  5
1548
  8
SAPA_GLAS
 10
46.999999999831942
 20
56.999999999884878
 30
0.0
  0
VERTEX
  5
1549
  8
SAPA_GLAS
 10
46.99999999983195
 20
66.999999999884878
 30
0.0
  0
SEQEND
  5
154A
  8
SAPA_GLAS
  0
POLYLINE
  5
BEB
  8
SAPA_GLAS
 66
     1
 10
0.0
 20
0.0
 30
0.0
  0
VERTEX
  5
154B
  8
SAPA_GLAS
 10
46.999999999831942
 20
88.999999999884864
 30
0.0
  0
VERTEX
  5
154C
  8
SAPA_GLAS
 10
46.999999999831942
 20
56.999999999884878
 30
0.0
  0
VERTEX
  5
154D
  8
SAPA_GLAS
 10
40.99999999983195
 20
56.999999999884878
 30
0.0
  0
VERTEX
  5
154E
  8
SAPA_GLAS
 10
40.99999999983195
 20
88.999999999884864
 30
0.0
  0
SEQEND
  5
154F
  8
SAPA_GLAS
  0
POLYLINE
  5
BEC
  8
SAPA_GLAS
 66
     1
 10
0.0
 20
0.0
 30
0.0
  0
VERTEX
  5
1550
  8
SAPA_GLAS
 10
28.9999999998318
 20
66.999999999884892
 30
0.0
  0
VERTEX
  5
1551
  8
SAPA_GLAS
 10
40.999999999831779
 20
66.999999999884878
 30
0.0
  0
VERTEX
  5
1552
  8
SAPA_GLAS
 10
40.999999999831779
 20
56.999999999884878
 30
0.0
  0
VERTEX
  5
1553
  8
SAPA_GLAS
 10
28.999999999831779
 20
56.999999999884892
 30
0.0
  0
VERTEX
  5
1554
  8
SAPA_GLAS
 10
28.9999999998318
 20
66.999999999884892
 30
0.0
  0
SEQEND
  5
1555
  8
SAPA_GLAS
  0
POLYLINE
  5
BED
  8
SAPA_GLAS
 66
     1
 10
0.0
 20
0.0
 30
0.0
  0
VERTEX
  5
1556
  8
SAPA_GLAS
 10
22.9999999998318
 20
88.999999999884892
 30
0.0
  0
VERTEX
  5
1557
  8
SAPA_GLAS
 10
22.999999999831779
 20
56.999999999884892
 30
0.0
  0
VERTEX
  5
1558
  8
SAPA_GLAS
 10
28.999999999831779
 20
56.999999999884892
 30
0.0
  0
VERTEX
  5
1559
  8
SAPA_GLAS
 10
28.9999999998318
 20
88.999999999884892
 30
0.0
  0
SEQEND
  5
155A
  8
SAPA_GLAS
  0
POLYLINE
  5
BEE
  8
SAPA_GLAS
 66
     1
 10
0.0
 20
0.0
 30
0.0
 70
     1
  0
VERTEX
  5
155B
  8
SAPA_GLAS
 10
22.99999999983195
 20
56.999999999884892
 30
0.0
  0
VERTEX
  5
155C
  8
SAPA_GLAS
 10
64.999999999831942
 20
56.999999999884857
 30
0.0
  0
VERTEX
  5
155D
  8
SAPA_GLAS
 10
64.999999999839218
 20
54.999999999986727
 30
0.0
  0
VERTEX
  5
155E
  8
SAPA_GLAS
 10
55.99999999983195
 20
54.999999999986748
 30
0.0
  0
VERTEX
  5
155F
  8
SAPA_GLAS
 10
55.99999999983195
 20
52.999999999986748
 30
0.0
  0
VERTEX
  5
1560
  8
SAPA_GLAS
 10
31.99999999983195
 20
52.999999999986748
 30
0.0
  0
VERTEX
  5
1561
  8
SAPA_GLAS
 10
31.99999999983195
 20
54.999999999986748
 30
0.0
  0
VERTEX
  5
1562
  8
SAPA_GLAS
 10
22.99999999983195
 20
54.999999999986748
 30
0.0
  0
SEQEND
  5
1563
  8
SAPA_GLAS
  0
POLYLINE
  5
C13
  8
SAPA_FOGBAND
 66
     1
 10
0.0
 20
0.0
 30
0.0
 70
     1
  0
VERTEX
  5
1604
  8
SAPA_FOGBAND
 10
16.250000000010221
 20
49.649999999982533
 30
0.0
  0
VERTEX
  5
1605
  8
SAPA_FOGBAND
 10
17.0500000000104
 20
49.649999999982533
 30
0.0
  0
VERTEX
  5
1606
  8
SAPA_FOGBAND
 10
17.0500000000104
 20
43.34999999998545
 30
0.0
  0
VERTEX
  5
1607
  8
SAPA_FOGBAND
 10
16.250000000010221
 20
43.34999999998545
 30
0.0
  0
SEQEND
  5
1608
  8
SAPA_FOGBAND
  0
POLYLINE
  5
C14
  8
SAPA_FOGBAND
 66
     1
 10
0.0
 20
0.0
 30
0.0
  0
VERTEX
  5
1609
  8
SAPA_FOGBAND
 10
17.0500000000104
 20
44.927310396842941
 30
0.0
  0
VERTEX
  5
160A
  8
SAPA_FOGBAND
 10
20.500000000010221
 20
43.801863799527027
 30
0.0
  0
VERTEX
  5
160B
  8
SAPA_FOGBAND
 10
20.500000000010221
 20
46.240001846075558
 30
0.0
  0
VERTEX
  5
160C
  8
SAPA_FOGBAND
 10
17.0500000000104
 20
46.349999999982529
 30
0.0
  0
SEQEND
  5
160D
  8
SAPA_FOGBAND
  0
POLYLINE
  5
C15
  8
SAPA_FOGBAND
 66
     1
 10
0.0
 20
0.0
 30
0.0
  0
VERTEX
  5
160E
  8
SAPA_FOGBAND
 10
17.0500000000104
 20
46.424999999983257
 30
0.0
  0
VERTEX
  5
160F
  8
SAPA_FOGBAND
 10
20.500000000010221
 20
46.424999999986539
 30
0.0
  0
VERTEX
  5
1610
  8
SAPA_FOGBAND
 10
20.500000000010221
 20
46.574999999984719
 30
0.0
  0
VERTEX
  5
1611
  8
SAPA_FOGBAND
 10
17.0500000000104
 20
46.574999999984719
 30
0.0
  0
SEQEND
  5
1612
  8
SAPA_FOGBAND
  0
POLYLINE
  5
C16
  8
SAPA_FOGBAND
 66
     1
 10
0.0
 20
0.0
 30
0.0
  0
VERTEX
  5
1613
  8
SAPA_FOGBAND
 10
17.0500000000104
 20
46.649999999985447
 30
0.0
  0
VERTEX
  5
1614
  8
SAPA_FOGBAND
 10
20.500000000010221
 20
46.759997385167694
 30
0.0
  0
VERTEX
  5
1615
  8
SAPA_FOGBAND
 10
20.500000000010221
 20
49.198090725589857
 30
0.0
  0
VERTEX
  5
1616
  8
SAPA_FOGBAND
 10
17.0500000000104
 20
48.072689603125028
 30
0.0
  0
SEQEND
  5
1617
  8
SAPA_FOGBAND
  0
POLYLINE
  5
C17
  8
SAPA_FOGBAND
 66
     1
 10
0.0
 20
0.0
 30
0.0
 70
     1
  0
VERTEX
  5
1618
  8
SAPA_FOGBAND
 10
16.250000000010221
 20
58.149999999997092
 30
0.0
  0
VERTEX
  5
1619
  8
SAPA_FOGBAND
 10
17.0500000000104
 20
58.149999999997092
 30
0.0
  0
VERTEX
  5
161A
  8
SAPA_FOGBAND
 10
17.0500000000104
 20
51.850000000000001
 30
0.0
  0
VERTEX
  5
161B
  8
SAPA_FOGBAND
 10
16.250000000010221
 20
51.850000000000001
 30
0.0
  0
SEQEND
  5
161C
  8
SAPA_FOGBAND
  0
POLYLINE
  5
C18
  8
SAPA_FOGBAND
 66
     1
 10
0.0
 20
0.0
 30
0.0
  0
VERTEX
  5
161D
  8
SAPA_FOGBAND
 10
17.0500000000104
 20
53.4273103968575
 30
0.0
  0
VERTEX
  5
161E
  8
SAPA_FOGBAND
 10
20.500000000010221
 20
52.301863799541579
 30
0.0
  0
VERTEX
  5
161F
  8
SAPA_FOGBAND
 10
20.500000000010221
 20
54.740001846090109
 30
0.0
  0
VERTEX
  5
1620
  8
SAPA_FOGBAND
 10
17.0500000000104
 20
54.849999999997081
 30
0.0
  0
SEQEND
  5
1621
  8
SAPA_FOGBAND
  0
POLYLINE
  5
C19
  8
SAPA_FOGBAND
 66
     1
 10
0.0
 20
0.0
 30
0.0
  0
VERTEX
  5
1622
  8
SAPA_FOGBAND
 10
17.0500000000104
 20
54.924999999997823
 30
0.0
  0
VERTEX
  5
1623
  8
SAPA_FOGBAND
 10
20.500000000010221
 20
54.925000000001091
 30
0.0
  0
VERTEX
  5
1624
  8
SAPA_FOGBAND
 10
20.500000000010221
 20
55.074999999999278
 30
0.0
  0
VERTEX
  5
1625
  8
SAPA_FOGBAND
 10
17.0500000000104
 20
55.074999999999271
 30
0.0
  0
SEQEND
  5
1626
  8
SAPA_FOGBAND
  0
POLYLINE
  5
C1A
  8
SAPA_FOGBAND
 66
     1
 10
0.0
 20
0.0
 30
0.0
  0
VERTEX
  5
1627
  8
SAPA_FOGBAND
 10
17.0500000000104
 20
55.149999999999999
 30
0.0
  0
VERTEX
  5
1628
  8
SAPA_FOGBAND
 10
20.500000000010221
 20
55.259997385182238
 30
0.0
  0
VERTEX
  5
1629
  8
SAPA_FOGBAND
 10
20.500000000010221
 20
57.698090725604409
 30
0.0
  0
VERTEX
  5
162A
  8
SAPA_FOGBAND
 10
17.0500000000104
 20
56.572689603139587
 30
0.0
  0
SEQEND
  5
162B
  8
SAPA_FOGBAND
  0
POLYLINE
  5
C1B
  8
SAPA_FOGBAND
 66
     1
 10
0.0
 20
0.0
 30
0.0
 70
     1
  0
VERTEX
  5
162C
  8
SAPA_FOGBAND
 10
71.749999999672553
 20
49.431441188146799
 30
0.0
  0
VERTEX
  5
162D
  8
SAPA_FOGBAND
 10
70.949999999672372
 20
49.431441188146799
 30
0.0
  0
VERTEX
  5
162E
  8
SAPA_FOGBAND
 10
70.949999999672372
 20
43.131441188149708
 30
0.0
  0
VERTEX
  5
162F
  8
SAPA_FOGBAND
 10
71.749999999672553
 20
43.131441188149708
 30
0.0
  0
SEQEND
  5
1630
  8
SAPA_FOGBAND
  0
POLYLINE
  5
C1C
  8
SAPA_FOGBAND
 66
     1
 10
0.0
 20
0.0
 30
0.0
  0
VERTEX
  5
1631
  8
SAPA_FOGBAND
 10
70.949999999672372
 20
44.708751585007207
 30
0.0
  0
VERTEX
  5
1632
  8
SAPA_FOGBAND
 10
67.499999999672553
 20
43.583304987691292
 30
0.0
  0
VERTEX
  5
1633
  8
SAPA_FOGBAND
 10
67.499999999672553
 20
46.021443034239823
 30
0.0
  0
VERTEX
  5
1634
  8
SAPA_FOGBAND
 10
70.949999999672372
 20
46.131441188146802
 30
0.0
  0
SEQEND
  5
1635
  8
SAPA_FOGBAND
  0
POLYLINE
  5
C1D
  8
SAPA_FOGBAND
 66
     1
 10
0.0
 20
0.0
 30
0.0
  0
VERTEX
  5
1636
  8
SAPA_FOGBAND
 10
70.949999999672372
 20
46.206441188147529
 30
0.0
  0
VERTEX
  5
1637
  8
SAPA_FOGBAND
 10
67.499999999672553
 20
46.206441188150798
 30
0.0
  0
VERTEX
  5
1638
  8
SAPA_FOGBAND
 10
67.499999999672553
 20
46.356441188148992
 30
0.0
  0
VERTEX
  5
1639
  8
SAPA_FOGBAND
 10
70.949999999672372
 20
46.356441188148978
 30
0.0
  0
SEQEND
  5
163A
  8
SAPA_FOGBAND
  0
POLYLINE
  5
C1E
  8
SAPA_FOGBAND
 66
     1
 10
0.0
 20
0.0
 30
0.0
  0
VERTEX
  5
163B
  8
SAPA_FOGBAND
 10
70.949999999672372
 20
46.431441188149712
 30
0.0
  0
VERTEX
  5
163C
  8
SAPA_FOGBAND
 10
67.499999999672553
 20
46.541438573331952
 30
0.0
  0
VERTEX
  5
163D
  8
SAPA_FOGBAND
 10
67.499999999672553
 20
48.979531913754123
 30
0.0
  0
VERTEX
  5
163E
  8
SAPA_FOGBAND
 10
70.949999999672372
 20
47.8541307912893
 30
0.0
  0
SEQEND
  5
163F
  8
SAPA_FOGBAND
  0
POLYLINE
  5
C1F
  8
SAPA_FOGBAND
 66
     1
 10
0.0
 20
0.0
 30
0.0
 70
     1
  0
VERTEX
  5
1640
  8
SAPA_FOGBAND
 10
71.749999999672553
 20
57.931441188161351
 30
0.0
  0
VERTEX
  5
1641
  8
SAPA_FOGBAND
 10
70.949999999672372
 20
57.931441188161351
 30
0.0
  0
VERTEX
  5
1642
  8
SAPA_FOGBAND
 10
70.949999999672372
 20
51.63144118816426
 30
0.0
  0
VERTEX
  5
1643
  8
SAPA_FOGBAND
 10
71.749999999672553
 20
51.63144118816426
 30
0.0
  0
SEQEND
  5
1644
  8
SAPA_FOGBAND
  0
POLYLINE
  5
C20
  8
SAPA_FOGBAND
 66
     1
 10
0.0
 20
0.0
 30
0.0
  0
VERTEX
  5
1645
  8
SAPA_FOGBAND
 10
70.949999999672372
 20
53.208751585021759
 30
0.0
  0
VERTEX
  5
1646
  8
SAPA_FOGBAND
 10
67.499999999672553
 20
52.083304987705837
 30
0.0
  0
VERTEX
  5
1647
  8
SAPA_FOGBAND
 10
67.499999999672553
 20
54.521443034254382
 30
0.0
  0
VERTEX
  5
1648
  8
SAPA_FOGBAND
 10
70.949999999672372
 20
54.631441188161347
 30
0.0
  0
SEQEND
  5
1649
  8
SAPA_FOGBAND
  0
POLYLINE
  5
C21
  8
SAPA_FOGBAND
 66
     1
 10
0.0
 20
0.0
 30
0.0
  0
VERTEX
  5
164A
  8
SAPA_FOGBAND
 10
70.949999999672372
 20
54.706441188162081
 30
0.0
  0
VERTEX
  5
164B
  8
SAPA_FOGBAND
 10
67.499999999672553
 20
54.706441188165357
 30
0.0
  0
VERTEX
  5
164C
  8
SAPA_FOGBAND
 10
67.499999999672553
 20
54.856441188163537
 30
0.0
  0
VERTEX
  5
164D
  8
SAPA_FOGBAND
 10
70.949999999672372
 20
54.856441188163529
 30
0.0
  0
SEQEND
  5
164E
  8
SAPA_FOGBAND
  0
POLYLINE
  5
C22
  8
SAPA_FOGBAND
 66
     1
 10
0.0
 20
0.0
 30
0.0
  0
VERTEX
  5
164F
  8
SAPA_FOGBAND
 10
70.949999999672372
 20
54.931441188164257
 30
0.0
  0
VERTEX
  5
1650
  8
SAPA_FOGBAND
 10
67.499999999672553
 20
55.041438573346511
 30
0.0
  0
VERTEX
  5
1651
  8
SAPA_FOGBAND
 10
67.499999999672553
 20
57.479531913768668
 30
0.0
  0
VERTEX
  5
1652
  8
SAPA_FOGBAND
 10
70.949999999672372
 20
56.354130791303852
 30
0.0
  0
SEQEND
  5
1653
  8
SAPA_FOGBAND
  0
POLYLINE
  5
C23
  8
SAPA_FOGBAND
 66
     1
 10
0.0
 20
0.0
 30
0.0
 70
     1
  0
VERTEX
  5
1654
  8
SAPA_FOGBAND
 10
136.7499999277311
 20
49.649999999982533
 30
0.0
  0
VERTEX
  5
1655
  8
SAPA_FOGBAND
 10
135.94999992773089
 20
49.649999999982533
 30
0.0
  0
VERTEX
  5
1656
  8
SAPA_FOGBAND
 10
135.94999992773089
 20
43.34999999998545
 30
0.0
  0
VERTEX
  5
1657
  8
SAPA_FOGBAND
 10
136.7499999277311
 20
43.34999999998545
 30
0.0
  0
SEQEND
  5
1658
  8
SAPA_FOGBAND
  0
POLYLINE
  5
C24
  8
SAPA_FOGBAND
 66
     1
 10
0.0
 20
0.0
 30
0.0
  0
VERTEX
  5
1659
  8
SAPA_FOGBAND
 10
135.94999992773089
 20
44.927310396842941
 30
0.0
  0
VERTEX
  5
165A
  8
SAPA_FOGBAND
 10
132.4999999277311
 20
43.801863799527027
 30
0.0
  0
VERTEX
  5
165B
  8
SAPA_FOGBAND
 10
132.4999999277311
 20
46.240001846075558
 30
0.0
  0
VERTEX
  5
165C
  8
SAPA_FOGBAND
 10
135.94999992773089
 20
46.349999999982529
 30
0.0
  0
SEQEND
  5
165D
  8
SAPA_FOGBAND
  0
POLYLINE
  5
C25
  8
SAPA_FOGBAND
 66
     1
 10
0.0
 20
0.0
 30
0.0
  0
VERTEX
  5
165E
  8
SAPA_FOGBAND
 10
135.94999992773089
 20
46.424999999983257
 30
0.0
  0
VERTEX
  5
165F
  8
SAPA_FOGBAND
 10
132.4999999277311
 20
46.424999999986539
 30
0.0
  0
VERTEX
  5
1660
  8
SAPA_FOGBAND
 10
132.4999999277311
 20
46.574999999984719
 30
0.0
  0
VERTEX
  5
1661
  8
SAPA_FOGBAND
 10
135.94999992773089
 20
46.574999999984719
 30
0.0
  0
SEQEND
  5
1662
  8
SAPA_FOGBAND
  0
POLYLINE
  5
C26
  8
SAPA_FOGBAND
 66
     1
 10
0.0
 20
0.0
 30
0.0
  0
VERTEX
  5
1663
  8
SAPA_FOGBAND
 10
135.94999992773089
 20
46.649999999985447
 30
0.0
  0
VERTEX
  5
1664
  8
SAPA_FOGBAND
 10
132.4999999277311
 20
46.759997385167694
 30
0.0
  0
VERTEX
  5
1665
  8
SAPA_FOGBAND
 10
132.4999999277311
 20
49.198090725589857
 30
0.0
  0
VERTEX
  5
1666
  8
SAPA_FOGBAND
 10
135.94999992773089
 20
48.072689603125028
 30
0.0
  0
SEQEND
  5
1667
  8
SAPA_FOGBAND
  0
POLYLINE
  5
C27
  8
SAPA_FOGBAND
 66
     1
 10
0.0
 20
0.0
 30
0.0
 70
     1
  0
VERTEX
  5
1668
  8
SAPA_FOGBAND
 10
136.7499999277311
 20
58.149999999997092
 30
0.0
  0
VERTEX
  5
1669
  8
SAPA_FOGBAND
 10
135.94999992773089
 20
58.149999999997092
 30
0.0
  0
VERTEX
  5
166A
  8
SAPA_FOGBAND
 10
135.94999992773089
 20
51.850000000000001
 30
0.0
  0
VERTEX
  5
166B
  8
SAPA_FOGBAND
 10
136.7499999277311
 20
51.850000000000001
 30
0.0
  0
SEQEND
  5
166C
  8
SAPA_FOGBAND
  0
POLYLINE
  5
C28
  8
SAPA_FOGBAND
 66
     1
 10
0.0
 20
0.0
 30
0.0
  0
VERTEX
  5
166D
  8
SAPA_FOGBAND
 10
135.94999992773089
 20
53.4273103968575
 30
0.0
  0
VERTEX
  5
166E
  8
SAPA_FOGBAND
 10
132.4999999277311
 20
52.301863799541579
 30
0.0
  0
VERTEX
  5
166F
  8
SAPA_FOGBAND
 10
132.4999999277311
 20
54.740001846090109
 30
0.0
  0
VERTEX
  5
1670
  8
SAPA_FOGBAND
 10
135.94999992773089
 20
54.849999999997081
 30
0.0
  0
SEQEND
  5
1671
  8
SAPA_FOGBAND
  0
POLYLINE
  5
C29
  8
SAPA_FOGBAND
 66
     1
 10
0.0
 20
0.0
 30
0.0
  0
VERTEX
  5
1672
  8
SAPA_FOGBAND
 10
135.94999992773089
 20
54.924999999997823
 30
0.0
  0
VERTEX
  5
1673
  8
SAPA_FOGBAND
 10
132.4999999277311
 20
54.925000000001091
 30
0.0
  0
VERTEX
  5
1674
  8
SAPA_FOGBAND
 10
132.4999999277311
 20
55.074999999999278
 30
0.0
  0
VERTEX
  5
1675
  8
SAPA_FOGBAND
 10
135.94999992773089
 20
55.074999999999271
 30
0.0
  0
SEQEND
  5
1676
  8
SAPA_FOGBAND
  0
POLYLINE
  5
C2A
  8
SAPA_FOGBAND
 66
     1
 10
0.0
 20
0.0
 30
0.0
  0
VERTEX
  5
1677
  8
SAPA_FOGBAND
 10
135.94999992773089
 20
55.149999999999999
 30
0.0
  0
VERTEX
  5
1678
  8
SAPA_FOGBAND
 10
132.4999999277311
 20
55.259997385182238
 30
0.0
  0
VERTEX
  5
1679
  8
SAPA_FOGBAND
 10
132.4999999277311
 20
57.698090725604409
 30
0.0
  0
VERTEX
  5
167A
  8
SAPA_FOGBAND
 10
135.94999992773089
 20
56.572689603139587
 30
0.0
  0
SEQEND
  5
167B
  8
SAPA_FOGBAND
  0
POLYLINE
  5
C2B
  8
SAPA_FOGBAND
 66
     1
 10
0.0
 20
0.0
 30
0.0
 70
     1
  0
VERTEX
  5
167C
  8
SAPA_FOGBAND
 10
81.249999999907985
 20
49.431441188146799
 30
0.0
  0
VERTEX
  5
167D
  8
SAPA_FOGBAND
 10
82.049999999908167
 20
49.431441188146799
 30
0.0
  0
VERTEX
  5
167E
  8
SAPA_FOGBAND
 10
82.049999999908167
 20
43.131441188149708
 30
0.0
  0
VERTEX
  5
167F
  8
SAPA_FOGBAND
 10
81.249999999907985
 20
43.131441188149708
 30
0.0
  0
SEQEND
  5
1680
  8
SAPA_FOGBAND
  0
POLYLINE
  5
C2C
  8
SAPA_FOGBAND
 66
     1
 10
0.0
 20
0.0
 30
0.0
  0
VERTEX
  5
1681
  8
SAPA_FOGBAND
 10
82.049999999908167
 20
44.708751585007207
 30
0.0
  0
VERTEX
  5
1682
  8
SAPA_FOGBAND
 10
85.499999999907985
 20
43.583304987691292
 30
0.0
  0
VERTEX
  5
1683
  8
SAPA_FOGBAND
 10
85.499999999907985
 20
46.021443034239823
 30
0.0
  0
VERTEX
  5
1684
  8
SAPA_FOGBAND
 10
82.049999999908167
 20
46.131441188146802
 30
0.0
  0
SEQEND
  5
1685
  8
SAPA_FOGBAND
  0
POLYLINE
  5
C2D
  8
SAPA_FOGBAND
 66
     1
 10
0.0
 20
0.0
 30
0.0
  0
VERTEX
  5
1686
  8
SAPA_FOGBAND
 10
82.049999999908167
 20
46.206441188147529
 30
0.0
  0
VERTEX
  5
1687
  8
SAPA_FOGBAND
 10
85.499999999907985
 20
46.206441188150798
 30
0.0
  0
VERTEX
  5
1688
  8
SAPA_FOGBAND
 10
85.499999999907985
 20
46.356441188148992
 30
0.0
  0
VERTEX
  5
1689
  8
SAPA_FOGBAND
 10
82.049999999908167
 20
46.356441188148978
 30
0.0
  0
SEQEND
  5
168A
  8
SAPA_FOGBAND
  0
POLYLINE
  5
C2E
  8
SAPA_FOGBAND
 66
     1
 10
0.0
 20
0.0
 30
0.0
  0
VERTEX
  5
168B
  8
SAPA_FOGBAND
 10
82.049999999908167
 20
46.431441188149712
 30
0.0
  0
VERTEX
  5
168C
  8
SAPA_FOGBAND
 10
85.499999999907985
 20
46.541438573331952
 30
0.0
  0
VERTEX
  5
168D
  8
SAPA_FOGBAND
 10
85.499999999907985
 20
48.979531913754123
 30
0.0
  0
VERTEX
  5
168E
  8
SAPA_FOGBAND
 10
82.049999999908167
 20
47.8541307912893
 30
0.0
  0
SEQEND
  5
168F
  8
SAPA_FOGBAND
  0
POLYLINE
  5
C2F
  8
SAPA_FOGBAND
 66
     1
 10
0.0
 20
0.0
 30
0.0
 70
     1
  0
VERTEX
  5
1690
  8
SAPA_FOGBAND
 10
81.249999999907985
 20
57.931441188161351
 30
0.0
  0
VERTEX
  5
1691
  8
SAPA_FOGBAND
 10
82.049999999908167
 20
57.931441188161351
 30
0.0
  0
VERTEX
  5
1692
  8
SAPA_FOGBAND
 10
82.049999999908167
 20
51.63144118816426
 30
0.0
  0
VERTEX
  5
1693
  8
SAPA_FOGBAND
 10
81.249999999907985
 20
51.63144118816426
 30
0.0
  0
SEQEND
  5
1694
  8
SAPA_FOGBAND
  0
POLYLINE
  5
C30
  8
SAPA_FOGBAND
 66
     1
 10
0.0
 20
0.0
 30
0.0
  0
VERTEX
  5
1695
  8
SAPA_FOGBAND
 10
82.049999999908167
 20
53.208751585021759
 30
0.0
  0
VERTEX
  5
1696
  8
SAPA_FOGBAND
 10
85.499999999907985
 20
52.083304987705837
 30
0.0
  0
VERTEX
  5
1697
  8
SAPA_FOGBAND
 10
85.499999999907985
 20
54.521443034254382
 30
0.0
  0
VERTEX
  5
1698
  8
SAPA_FOGBAND
 10
82.049999999908167
 20
54.631441188161347
 30
0.0
  0
SEQEND
  5
1699
  8
SAPA_FOGBAND
  0
POLYLINE
  5
C31
  8
SAPA_FOGBAND
 66
     1
 10
0.0
 20
0.0
 30
0.0
  0
VERTEX
  5
169A
  8
SAPA_FOGBAND
 10
82.049999999908167
 20
54.706441188162081
 30
0.0
  0
VERTEX
  5
169B
  8
SAPA_FOGBAND
 10
85.499999999907985
 20
54.706441188165357
 30
0.0
  0
VERTEX
  5
169C
  8
SAPA_FOGBAND
 10
85.499999999907985
 20
54.856441188163537
 30
0.0
  0
VERTEX
  5
169D
  8
SAPA_FOGBAND
 10
82.049999999908167
 20
54.856441188163529
 30
0.0
  0
SEQEND
  5
169E
  8
SAPA_FOGBAND
  0
POLYLINE
  5
C32
  8
SAPA_FOGBAND
 66
     1
 10
0.0
 20
0.0
 30
0.0
  0
VERTEX
  5
169F
  8
SAPA_FOGBAND
 10
82.049999999908167
 20
54.931441188164257
 30
0.0
  0
VERTEX
  5
16A0
  8
SAPA_FOGBAND
 10
85.499999999907985
 20
55.041438573346511
 30
0.0
  0
VERTEX
  5
16A1
  8
SAPA_FOGBAND
 10
85.499999999907985
 20
57.479531913768668
 30
0.0
  0
VERTEX
  5
16A2
  8
SAPA_FOGBAND
 10
82.049999999908167
 20
56.354130791303852
 30
0.0
  0
SEQEND
  5
16A3
  8
SAPA_FOGBAND
  0
DIMENSION
  5
C3E
  8
SAPA_MATT
  2
*D30
 10
-22.999999999999929
 20
60.0
 30
0.0
 11
-25.7513257575757
 21
-5.0000000000106564
 31
0.0
 70
     0
  1
min. 130
 13
4.0000000000002407
 23
-70.000000000021316
 33
0.0
 14
-12.999999999998019
 24
60.0
 34
0.0
 50
90.0
1001
ACAD
1000
DSTYLE
1002
{
1070
    40
1040
1.0
1002
}
  0
DIMENSION
  5
C3F
  8
SAPA_MATT
  2
*D29
 10
138.99999999950211
 20
113.0000000000001
 30
0.0
 11
76.499999999751068
 21
115.7500000000001
 31
0.0
 70
     0
 13
14.00000000000003
 23
58.5
 33
0.0
 14
138.99999999950211
 24
60.0
 34
0.0
1001
ACAD
1000
DSTYLE
1002
{
1070
    40
1040
1.0
1002
}
  0
DIMENSION
  5
C40
  8
SAPA_MATT
  2
*D28
 10
138.99999999950211
 20
101.0000000000001
 30
0.0
 11
103.24999999950209
 21
103.7500000000001
 31
0.0
 70
     0
 13
67.499999999502137
 23
55.000000000019412
 33
0.0
 14
138.99999999950211
 24
58.5
 34
0.0
1001
ACAD
1000
DSTYLE
1002
{
1070
   287
1070
     4
1070
    40
1040
1.0
1070
   279
1070
     1
1002
}
  0
DIMENSION
  5
C41
  8
SAPA_MATT
  2
*D27
 10
67.499999999502137
 20
101.0000000000001
 30
0.0
 11
43.999999999841378
 21
103.7500000000001
 31
0.0
 70
     0
 13
20.500000000180631
 23
55.000000000019412
 33
0.0
 14
67.499999999502137
 24
55.000000000019412
 34
0.0
1001
ACAD
1000
DSTYLE
1002
{
1070
   287
1070
     4
1070
    40
1040
1.0
1070
   279
1070
     1
1002
}
  0
DIMENSION
  5
C42
  8
SAPA_MATT
  2
*D26
 10
20.500000000180631
 20
101.0000000000001
 30
0.0
 11
17.250000000090331
 21
101.0000000000001
 31
0.0
 70
   128
 13
14.00000000000003
 23
58.5
 33
0.0
 14
20.500000000180631
 24
55.000000000019412
 34
0.0
1001
ACAD
1000
DSTYLE
1002
{
1070
    40
1040
1.0
1002
}
  0
DIMENSION
  5
C43
  8
SAPA_MATT
  2
*D25
 10
-11.0
 20
70.000000000011042
 30
0.0
 11
-13.750000000000011
 21
65.000000000005514
 31
0.0
 70
     0
 13
15.50000000000003
 23
60.0
 33
0.0
 14
22.04999999981111
 24
70.000000000011042
 34
0.0
 50
90.0
1001
ACAD
1000
DSTYLE
1002
{
1070
   287
1070
     4
1070
    40
1040
1.0
1070
   279
1070
     1
1002
}
  0
DIMENSION
  5
C44
  8
SAPA_MATT
  2
*D24
 10
-10.999999999999989
 20
60.0
 30
0.0
 11
-13.750000000000011
 21
1.5000000000000151
 31
0.0
 70
     0
 13
15.37500000000003
 23
-56.999999999999972
 33
0.0
 14
15.50000000000003
 24
60.0
 34
0.0
 50
90.0
1001
ACAD
1000
DSTYLE
1002
{
1070
    40
1040
1.0
1002
}
  0
VIEWPORT
  5
C4
 67
     1
  8
0
 10
160.5543545598442
 20
116.00969601843509
 30
0.0
 40
404.96977709277462
 41
256.8421457311839
 68
     1
 69
     1
1001
ACAD
1000
MVIEW
1002
{
1070
    16
1010
0.0
1020
0.0
1030
0.0
1010
0.0
1020
0.0
1030
1.0
1040
0.0
1040
256.8421457311839
1040
99.206250190734863
1040
130.70624923706049
1040
50.0
1040
0.0
1040
0.0
1070
     0
1070
     0
1070
     1
1070
     1
1070
     0
1070
     0
1070
     0
1070
     0
1040
0.0
1040
0.0
1040
0.0
1040
10.0
1040
10.0
1040
10.0
1040
10.0
1070
     0
1002
{
1002
}
1002
}
  0
ENDSEC
  0
EOF
