  0
SECTION
  2
HEADER
  9
$ACADVER
  1
AC1009
  9
$INSBASE
 10
0.0
 20
0.0
 30
0.0
  9
$EXTMIN
 10
-62.250000000000171
 20
-23.048837602001459
 30
0.0
  9
$EXTMAX
 10
49.000000000028493
 20
187.75000000092049
 30
0.0000000048844772
  9
$LIMMIN
 10
0.0
 20
0.0
  9
$LIMMAX
 10
790.0
 20
790.0
  9
$ORTHOMODE
 70
     1
  9
$REGENMODE
 70
     1
  9
$FILLMODE
 70
     1
  9
$QTEXTMODE
 70
     0
  9
$MIRRTEXT
 70
     1
  9
$DRAGMODE
 70
     2
  9
$LTSCALE
 40
4.0
  9
$OSMODE
 70
    37
  9
$ATTMODE
 70
     1
  9
$TEXTSIZE
 40
3.5
  9
$TRACEWID
 40
0.05
  9
$TEXTSTYLE
  7
ISO
  9
$CLAYER
  8
0
  9
$CELTYPE
  6
BYLAYER
  9
$CECOLOR
 62
   256
  9
$DIMSCALE
 40
0.0
  9
$DIMASZ
 40
3.0
  9
$DIMEXO
 40
1.5
  9
$DIMDLI
 40
10.0
  9
$DIMRND
 40
0.0
  9
$DIMDLE
 40
0.0
  9
$DIMEXE
 40
1.5
  9
$DIMTP
 40
0.0
  9
$DIMTM
 40
0.0
  9
$DIMTXT
 40
3.5
  9
$DIMCEN
 40
-5.0
  9
$DIMTSZ
 40
0.0
  9
$DIMTOL
 70
     0
  9
$DIMLIM
 70
     0
  9
$DIMTIH
 70
     0
  9
$DIMTOH
 70
     0
  9
$DIMSE1
 70
     0
  9
$DIMSE2
 70
     0
  9
$DIMTAD
 70
     1
  9
$DIMZIN
 70
     8
  9
$DIMBLK
  1

  9
$DIMASO
 70
     1
  9
$DIMSHO
 70
     1
  9
$DIMPOST
  1

  9
$DIMAPOST
  1

  9
$DIMALT
 70
     0
  9
$DIMALTD
 70
     0
  9
$DIMALTF
 40
25.399999999999999
  9
$DIMLFAC
 40
-1.0
  9
$DIMTOFL
 70
     1
  9
$DIMTVP
 40
0.0
  9
$DIMTIX
 70
     0
  9
$DIMSOXD
 70
     0
  9
$DIMSAH
 70
     0
  9
$DIMBLK1
  1

  9
$DIMBLK2
  1

  9
$DIMSTYLE
  2
MASKIN
  9
$DIMCLRD
 70
   256
  9
$DIMCLRE
 70
   256
  9
$DIMCLRT
 70
     2
  9
$DIMTFAC
 40
1.0
  9
$DIMGAP
 40
1.0
  9
$LUNITS
 70
     2
  9
$LUPREC
 70
     8
  9
$SKETCHINC
 40
0.1
  9
$FILLETRAD
 40
0.0
  9
$AUNITS
 70
     0
  9
$AUPREC
 70
     8
  9
$MENU
  1
ACAD
  9
$ELEVATION
 40
0.0
  9
$PELEVATION
 40
0.0
  9
$THICKNESS
 40
0.0
  9
$LIMCHECK
 70
     0
  9
$BLIPMODE
 70
     0
  9
$CHAMFERA
 40
0.0
  9
$CHAMFERB
 40
0.0
  9
$SKPOLY
 70
     0
  9
$TDCREATE
 40
2455734.560015128
  9
$TDUPDATE
 40
2455782.4859310649
  9
$TDINDWG
 40
3.0716431828999999
  9
$TDUSRTIMER
 40
3.0716429977000002
  9
$USRTIMER
 70
     1
  9
$ANGBASE
 50
0.0
  9
$ANGDIR
 70
     0
  9
$PDMODE
 70
     0
  9
$PDSIZE
 40
0.0
  9
$PLINEWID
 40
0.0
  9
$COORDS
 70
     1
  9
$SPLFRAME
 70
     0
  9
$SPLINETYPE
 70
     6
  9
$SPLINESEGS
 70
     8
  9
$ATTDIA
 70
     0
  9
$ATTREQ
 70
     1
  9
$HANDLING
 70
     1
  9
$HANDSEED
  5
1E92
  9
$SURFTAB1
 70
     6
  9
$SURFTAB2
 70
     6
  9
$SURFTYPE
 70
     6
  9
$SURFU
 70
     6
  9
$SURFV
 70
     6
  9
$UCSNAME
  2

  9
$UCSORG
 10
0.0
 20
0.0
 30
0.0
  9
$UCSXDIR
 10
1.0
 20
0.0
 30
0.0
  9
$UCSYDIR
 10
0.0
 20
1.0
 30
0.0
  9
$PUCSNAME
  2

  9
$PUCSORG
 10
0.0
 20
0.0
 30
0.0
  9
$PUCSXDIR
 10
1.0
 20
0.0
 30
0.0
  9
$PUCSYDIR
 10
0.0
 20
1.0
 30
0.0
  9
$USERI1
 70
     0
  9
$USERI2
 70
     0
  9
$USERI3
 70
     0
  9
$USERI4
 70
     0
  9
$USERI5
 70
     0
  9
$USERR1
 40
0.0
  9
$USERR2
 40
0.0
  9
$USERR3
 40
0.0
  9
$USERR4
 40
0.0
  9
$USERR5
 40
0.0
  9
$WORLDVIEW
 70
     1
  9
$SHADEDGE
 70
     3
  9
$SHADEDIF
 70
    70
  9
$TILEMODE
 70
     1
  9
$MAXACTVP
 70
    16
  9
$PLIMCHECK
 70
     0
  9
$PEXTMIN
 10
1.0000000000000000E+020
 20
1.0000000000000000E+020
 30
1.0000000000000000E+020
  9
$PEXTMAX
 10
-1.0000000000000000E+020
 20
-1.0000000000000000E+020
 30
-1.0000000000000000E+020
  9
$PLIMMIN
 10
-5.069427490234375
 20
-5.8737497329711914
  9
$PLIMMAX
 10
291.89889526367187
 20
204.0995779037475
  9
$UNITMODE
 70
     0
  9
$VISRETAIN
 70
     1
  9
$PLINEGEN
 70
     0
  9
$PSLTSCALE
 70
     1
  0
ENDSEC
  0
SECTION
  2
TABLES
  0
TABLE
  2
VPORT
 70
     1
  0
VPORT
  2
*ACTIVE
 70
     0
 10
0.0
 20
0.0
 11
1.0
 21
1.0
 12
-1.0514493834651539
 22
82.350581199459569
 13
0.0
 23
0.0
 14
1.0
 24
1.0
 15
0.0
 25
0.0
 16
0.0
 26
0.0
 36
1.0
 17
0.0
 27
0.0
 37
0.0
 40
212.38379126910939
 41
2.362397820163487
 42
50.0
 43
0.0
 44
0.0
 50
0.0
 51
0.0
 71
     0
 72
   100
 73
     1
 74
     1
 75
     0
 76
     0
 77
     0
 78
     0
  0
ENDTAB
  0
TABLE
  2
LTYPE
 70
     3
  0
LTYPE
  2
CONTINUOUS
 70
     0
  3
Solid line
 72
    65
 73
     0
 40
0.0
  0
LTYPE
  2
BYGG-027378$0$NEWDOT
 70
     0
  3
____ . ____ . ____ . ____ . ____ . ____ . ____
 72
    65
 73
     4
 40
2.0
 49
1.0
 49
-0.5
 49
0.0
 49
-0.5
  0
LTYPE
  2
BYGG-027389$0$NEWDOT
 70
     0
  3
____ . ____ . ____ . ____ . ____ . ____ . ____
 72
    65
 73
     4
 40
2.0
 49
1.0
 49
-0.5
 49
0.0
 49
-0.5
  0
ENDTAB
  0
TABLE
  2
LAYER
 70
    32
  0
LAYER
  2
0
 70
     0
 62
     7
  6
CONTINUOUS
  0
LAYER
  2
DEFPOINTS
 70
     0
 62
     7
  6
CONTINUOUS
  0
LAYER
  2
SAPA_ARTIKELNR
 70
     0
 62
     4
  6
CONTINUOUS
  0
LAYER
  2
SAPA_MATT
 70
     0
 62
     1
  6
CONTINUOUS
  0
LAYER
  2
SAPA_GLAS
 70
     0
 62
     4
  6
CONTINUOUS
  0
LAYER
  2
SAPA_FOGBAND
 70
     0
 62
     2
  6
CONTINUOUS
  0
LAYER
  2
SAPA_PROFIL
 70
     0
 62
     7
  6
CONTINUOUS
  0
ENDTAB
  0
TABLE
  2
STYLE
 70
    16
  0
STYLE
  2
STANDARD
 70
     0
 40
0.0
 41
1.0
 50
0.0
 71
     0
 42
0.2
  3
txt
  4

  0
STYLE
  2
ISO
 70
     0
 40
0.0
 41
1.0
 50
0.0
 71
     0
 42
3.5
  3
txt
  4

  0
STYLE
  2
BYGG-027398$0$STANDARD
 70
     0
 40
0.0
 41
1.0
 50
0.0
 71
     0
 42
0.2
  3
txt
  4

  0
STYLE
  2
BYGG-027398$0$ISO
 70
     0
 40
0.0
 41
1.0
 50
0.0
 71
     0
 42
3.5
  3
txt
  4

  0
STYLE
  2
BYGG-027378$0$STANDARD
 70
     0
 40
0.0
 41
1.0
 50
0.0
 71
     0
 42
0.2
  3
txt
  4

  0
STYLE
  2
BYGG-027378$0$ISO
 70
     0
 40
0.0
 41
1.0
 50
0.0
 71
     0
 42
3.5
  3
txt
  4

  0
STYLE
  2
BYGG-027530$0$STANDARD
 70
     0
 40
0.0
 41
1.0
 50
0.0
 71
     0
 42
0.2
  3
txt
  4

  0
STYLE
  2
BYGG-027530$0$ISO
 70
     0
 40
0.0
 41
1.0
 50
0.0
 71
     0
 42
3.5
  3
txt
  4

  0
STYLE
  2
BYGG-027389$0$STANDARD
 70
     0
 40
0.0
 41
1.0
 50
0.0
 71
     0
 42
0.2
  3
txt
  4

  0
STYLE
  2
BYGG-027389$0$ISO
 70
     0
 40
0.0
 41
1.0
 50
0.0
 71
     0
 42
3.5
  3
txt
  4

  0
STYLE
  2
BYGG-027391$0$STANDARD
 70
     0
 40
0.0
 41
1.0
 50
0.0
 71
     0
 42
0.2
  3
txt
  4

  0
STYLE
  2
BYGG-027391$0$ISO
 70
     0
 40
0.0
 41
1.0
 50
0.0
 71
     0
 42
3.5
  3
txt
  4

  0
STYLE
  2
BYGG-027392$0$STANDARD
 70
     0
 40
0.0
 41
1.0
 50
0.0
 71
     0
 42
0.2
  3
txt
  4

  0
STYLE
  2
BYGG-027392$0$ISO
 70
     0
 40
0.0
 41
1.0
 50
0.0
 71
     0
 42
3.5
  3
txt
  4

  0
STYLE
  2
BYGG-027393$0$STANDARD
 70
     0
 40
0.0
 41
1.0
 50
0.0
 71
     0
 42
0.2
  3
txt
  4

  0
STYLE
  2
BYGG-027393$0$ISO
 70
     0
 40
0.0
 41
1.0
 50
0.0
 71
     0
 42
3.5
  3
txt
  4

  0
ENDTAB
  0
TABLE
  2
VIEW
 70
     0
  0
ENDTAB
  0
TABLE
  2
UCS
 70
     0
  0
ENDTAB
  0
TABLE
  2
APPID
 70
    26
  0
APPID
  2
ACAD
 70
     0
  0
APPID
  2
ACAD_DSTYLE_DIMTEXT_FILL
 70
     0
  0
APPID
  2
ACAD_DSTYLE_DIMEXT_LENGTH
 70
     0
  0
APPID
  2
ACAD_DSTYLE_DIMEXT_ENABLED
 70
     0
  0
APPID
  2
ACAD_DSTYLE_DIM_LINETYPE
 70
     0
  0
APPID
  2
ACAD_DSTYLE_DIM_EXT1_LINETYPE
 70
     0
  0
APPID
  2
ACAD_DSTYLE_DIM_EXT2_LINETYPE
 70
     0
  0
APPID
  2
ACAD_DSTYLE_DIMJOGGED_JOGA
 70
     0
  0
APPID
  2
ACAD_DSTYLE_DIMARC_LENGTH_
 70
     0
  0
APPID
  2
ACAD_PSEXT
 70
     0
  0
APPID
  2
ACAD_MLEADERVER
 70
     0
  0
APPID
  2
GENIUS_GENODEF_13
 70
     0
  0
APPID
  2
RC_PROFILE
 70
     0
  0
APPID
  2
ACAECLAYERSTANDARD
 70
     0
  0
APPID
  2
GENIUS_GENOBJ-N-FIL_13
 70
     0
  0
APPID
  2
ACADANNOTATIVE
 70
     0
  0
APPID
  2
ACAD_EXEMPT_FROM_CAD_STANDARDS
 70
     0
  0
APPID
  2
AEC_XDATA_BOUND_SPACE
 70
     0
  0
APPID
  2
ACAD_DSTYLE_DIMJAG
 70
     0
  0
APPID
  2
ACAD_DSTYLE_DIMTALN
 70
     0
  0
APPID
  2
GENIUS_GENREC_14
 70
     0
  0
APPID
  2
GENIUS_GENOBJ-N-REC_13
 70
     0
  0
APPID
  2
ACDBDYNAMICBLOCKTRUENAME
 70
     0
  0
APPID
  2
ACDBBLOCKREPETAG
 70
     0
  0
APPID
  2
ACDBDYNAMICBLOCKGUID
 70
     0
  0
APPID
  2
ACDBBLOCKREPBTAG
 70
     0
  0
ENDTAB
  0
TABLE
  2
DIMSTYLE
 70
     8
  0
DIMSTYLE
  2
MASKIN
 70
     0
  3

  4

  5

  6

  7

 40
0.0
 41
3.0
 42
1.5
 43
10.0
 44
1.5
 45
0.0
 46
0.0
 47
0.0
 48
0.0
140
3.5
141
-5.0
142
0.0
143
25.399999999999999
144
-1.0
145
0.0
146
1.0
147
1.0
 71
     0
 72
     0
 73
     0
 74
     0
 75
     0
 76
     0
 77
     1
 78
     8
170
     0
171
     0
172
     1
173
     0
174
     0
175
     0
176
   256
177
   256
178
     2
  0
DIMSTYLE
  2
BYGG-027398$0$MASKIN
 70
     0
  3

  4

  5

  6

  7

 40
0.0
 41
3.0
 42
1.5
 43
10.0
 44
1.5
 45
0.0
 46
0.0
 47
0.0
 48
0.0
140
3.0
141
-5.0
142
0.0
143
25.399999999999999
144
-1.0
145
0.0
146
1.0
147
1.0
 71
     0
 72
     0
 73
     0
 74
     0
 75
     0
 76
     0
 77
     1
 78
     8
170
     0
171
     0
172
     1
173
     0
174
     0
175
     0
176
   256
177
   256
178
     2
  0
DIMSTYLE
  2
BYGG-027378$0$MASKIN
 70
     0
  3

  4

  5

  6

  7

 40
0.0
 41
3.0
 42
1.5
 43
10.0
 44
1.5
 45
0.0
 46
0.0
 47
0.0
 48
0.0
140
3.0
141
-5.0
142
0.0
143
25.399999999999999
144
-1.0
145
0.0
146
1.0
147
1.0
 71
     0
 72
     0
 73
     0
 74
     0
 75
     0
 76
     0
 77
     1
 78
     8
170
     0
171
     0
172
     1
173
     0
174
     0
175
     0
176
   256
177
   256
178
     2
  0
DIMSTYLE
  2
BYGG-027530$0$MASKIN
 70
     0
  3

  4

  5

  6

  7

 40
0.0
 41
3.0
 42
1.5
 43
10.0
 44
1.5
 45
0.0
 46
0.0
 47
0.0
 48
0.0
140
3.0
141
-5.0
142
0.0
143
25.399999999999999
144
-1.0
145
0.0
146
1.0
147
1.0
 71
     0
 72
     0
 73
     0
 74
     0
 75
     0
 76
     0
 77
     1
 78
     8
170
     0
171
     0
172
     1
173
     0
174
     0
175
     0
176
   256
177
   256
178
     2
  0
DIMSTYLE
  2
BYGG-027389$0$MASKIN
 70
     0
  3

  4

  5

  6

  7

 40
0.0
 41
3.0
 42
1.5
 43
10.0
 44
1.5
 45
0.0
 46
0.0
 47
0.0
 48
0.0
140
3.0
141
-5.0
142
0.0
143
25.399999999999999
144
-1.0
145
0.0
146
1.0
147
1.0
 71
     0
 72
     0
 73
     0
 74
     0
 75
     0
 76
     0
 77
     1
 78
     8
170
     0
171
     0
172
     1
173
     0
174
     0
175
     0
176
   256
177
   256
178
     2
  0
DIMSTYLE
  2
BYGG-027391$0$MASKIN
 70
     0
  3

  4

  5

  6

  7

 40
0.0
 41
3.0
 42
1.5
 43
10.0
 44
1.5
 45
0.0
 46
0.0
 47
0.0
 48
0.0
140
3.0
141
-5.0
142
0.0
143
25.399999999999999
144
-1.0
145
0.0
146
1.0
147
1.0
 71
     0
 72
     0
 73
     0
 74
     0
 75
     0
 76
     0
 77
     1
 78
     8
170
     0
171
     0
172
     1
173
     0
174
     0
175
     0
176
   256
177
   256
178
     2
  0
DIMSTYLE
  2
BYGG-027392$0$MASKIN
 70
     0
  3

  4

  5

  6

  7

 40
0.0
 41
3.0
 42
1.5
 43
10.0
 44
1.5
 45
0.0
 46
0.0
 47
0.0
 48
0.0
140
3.0
141
-5.0
142
0.0
143
25.399999999999999
144
-1.0
145
0.0
146
1.0
147
1.0
 71
     0
 72
     0
 73
     0
 74
     0
 75
     0
 76
     0
 77
     1
 78
     8
170
     0
171
     0
172
     1
173
     0
174
     0
175
     0
176
   256
177
   256
178
     2
  0
DIMSTYLE
  2
BYGG-027393$0$MASKIN
 70
     0
  3

  4

  5

  6

  7

 40
0.0
 41
3.0
 42
1.5
 43
10.0
 44
1.5
 45
0.0
 46
0.0
 47
0.0
 48
0.0
140
3.0
141
-5.0
142
0.0
143
25.399999999999999
144
-1.0
145
0.0
146
1.0
147
1.0
 71
     0
 72
     0
 73
     0
 74
     0
 75
     0
 76
     0
 77
     1
 78
     8
170
     0
171
     0
172
     1
173
     0
174
     0
175
     0
176
   256
177
   256
178
     2
  0
ENDTAB
  0
ENDSEC
  0
SECTION
  2
BLOCKS
  0
BLOCK
  8
0
  2
$MODEL_SPACE
 70
     0
 10
0.0
 20
0.0
 30
0.0
  3
$MODEL_SPACE
  1

  0
ENDBLK
  5
37
  8
0
  0
BLOCK
 67
     1
  8
0
  2
$PAPER_SPACE
 70
     0
 10
0.0
 20
0.0
 30
0.0
  3
$PAPER_SPACE
  1

  0
ENDBLK
  5
35
 67
     1
  8
0
  0
BLOCK
  8
0
  2
*D28
 70
     1
 10
0.0
 20
0.0
 30
0.0
  3
*D28
  1

  0
LINE
  5
16B1
  8
SAPA_MATT
 10
-6.3999999998743462
 20
161.50000000091981
 30
0.0
 11
-45.500000000000171
 21
161.50000000091981
 31
0.0
  0
LINE
  5
16B2
  8
SAPA_MATT
 10
8.5000000001744525
 20
67.499999999387001
 30
0.0
 11
-45.500000000000192
 21
67.499999999387015
 31
0.0
  0
LINE
  5
16B3
  8
SAPA_MATT
 10
-44.000000000000171
 20
158.50000000091981
 30
0.0
 11
-44.000000000000192
 21
70.499999999387015
 31
0.0
  0
SOLID
  5
16B4
  8
SAPA_MATT
 10
-44.500000000000171
 20
158.50000000091981
 30
0.0
 11
-43.500000000000171
 21
158.50000000091981
 31
0.0
 12
-44.000000000000171
 22
161.50000000091981
 32
0.0
 13
-44.000000000000171
 23
161.50000000091981
 33
0.0
  0
SOLID
  5
16B5
  8
SAPA_MATT
 10
-44.500000000000192
 20
70.499999999387015
 30
0.0
 11
-43.500000000000192
 21
70.499999999387015
 31
0.0
 12
-44.000000000000192
 22
67.499999999387015
 32
0.0
 13
-44.000000000000192
 23
67.499999999387015
 33
0.0
  0
INSERT
  5
16B6
  8
0
  2
*U64
 10
0.0
 20
0.0
 30
0.0
  0
POINT
  5
16B7
  8
DEFPOINTS
 62
     0
 10
-4.8999999998743462
 20
161.50000000091981
 30
0.0
  0
POINT
  5
16B8
  8
DEFPOINTS
 62
     0
 10
10.000000000174451
 20
67.499999999387001
 30
0.0
  0
POINT
  5
16B9
  8
DEFPOINTS
 62
     0
 10
-44.000000000000192
 20
67.499999999387015
 30
0.0
  0
ENDBLK
  5
1653
  8
0
  0
BLOCK
  8
0
  2
*D29
 70
     1
 10
0.0
 20
0.0
 30
0.0
  3
*D29
  1

  0
LINE
  5
1E7B
  8
SAPA_MATT
 10
8.5000000001744525
 20
67.499999999387001
 30
0.0
 11
-45.500000000000213
 21
67.499999999387015
 31
0.0
  0
LINE
  5
1E7C
  8
SAPA_MATT
 10
8.5000000001744951
 20
20.5000000000787
 30
0.0
 11
-45.500000000000213
 21
20.500000000078721
 31
0.0
  0
LINE
  5
1E7D
  8
SAPA_MATT
 10
-44.000000000000199
 20
64.499999999387015
 30
0.0
 11
-44.000000000000213
 21
23.500000000078721
 31
0.0
  0
SOLID
  5
1E7E
  8
SAPA_MATT
 10
-44.500000000000199
 20
64.499999999387015
 30
0.0
 11
-43.500000000000199
 21
64.499999999387015
 31
0.0
 12
-44.000000000000199
 22
67.499999999387015
 32
0.0
 13
-44.000000000000199
 23
67.499999999387015
 33
0.0
  0
SOLID
  5
1E7F
  8
SAPA_MATT
 10
-44.500000000000213
 20
23.500000000078721
 30
0.0
 11
-43.500000000000213
 21
23.500000000078721
 31
0.0
 12
-44.000000000000213
 22
20.500000000078721
 32
0.0
 13
-44.000000000000213
 23
20.500000000078721
 33
0.0
  0
TEXT
  8
SAPA_MATT
  40
3.5
  5
1E90
  62
2
  72
0
  71
0
 10
-53.7500
 20
37.8050
 30
0.000000
  1
47
  7
ISO
  0
POINT
  5
1E81
  8
DEFPOINTS
 62
     0
 10
10.000000000174451
 20
67.499999999387001
 30
0.0
  0
POINT
  5
1E82
  8
DEFPOINTS
 62
     0
 10
10.00000000017449
 20
20.5000000000787
 30
0.0
  0
POINT
  5
1E83
  8
DEFPOINTS
 62
     0
 10
-44.000000000000213
 20
20.500000000078721
 30
0.0
  0
ENDBLK
  5
165F
  8
0
  0
BLOCK
  8
0
  2
*D30
 70
     1
 10
0.0
 20
0.0
 30
0.0
  3
*D30
  1

  0
LINE
  5
1E72
  8
SAPA_MATT
 10
8.5000000001744951
 20
20.5000000000787
 30
0.0
 11
-45.500000000000192
 21
20.500000000078721
 31
0.0
  0
LINE
  5
1E73
  8
SAPA_MATT
 10
-6.6000000001045116
 20
-8.5000000009207497
 30
0.0
 11
-45.500000000000199
 21
-8.500000000920739
 31
0.0
  0
LINE
  5
1E74
  8
SAPA_MATT
 10
-44.000000000000192
 20
17.500000000078721
 30
0.0
 11
-44.000000000000192
 21
-5.500000000920739
 31
0.0
  0
TEXT
  8
SAPA_MATT
  40
3.5
  5
1E91
  62
2
  72
0
  71
0
 10
-53.7500
 20
-0.195000
 30
0.000000
  1
29
  7
ISO
  0
SOLID
  5
1E76
  8
SAPA_MATT
 10
-44.500000000000192
 20
17.500000000078721
 30
0.0
 11
-43.500000000000192
 21
17.500000000078721
 31
0.0
 12
-44.000000000000192
 22
20.500000000078721
 32
0.0
 13
-44.000000000000192
 23
20.500000000078721
 33
0.0
  0
SOLID
  5
1E77
  8
SAPA_MATT
 10
-44.500000000000192
 20
-5.500000000920739
 30
0.0
 11
-43.500000000000199
 21
-5.500000000920739
 31
0.0
 12
-44.000000000000192
 22
-8.500000000920739
 32
0.0
 13
-44.000000000000192
 23
-8.500000000920739
 33
0.0
  0
POINT
  5
1E78
  8
DEFPOINTS
 62
     0
 10
10.00000000017449
 20
20.5000000000787
 30
0.0
  0
POINT
  5
1E79
  8
DEFPOINTS
 62
     0
 10
-5.1000000001045116
 20
-8.5000000009207497
 30
0.0
  0
POINT
  5
1E7A
  8
DEFPOINTS
 62
     0
 10
-44.000000000000192
 20
-8.500000000920739
 30
0.0
  0
ENDBLK
  5
166B
  8
0
  0
BLOCK
  8
0
  2
*D31
 70
     1
 10
0.0
 20
0.0
 30
0.0
  3
*D31
  1

  0
LINE
  5
1696
  8
SAPA_MATT
 10
-6.3999999998743462
 20
161.50000000091981
 30
0.0
 11
-57.500000000000142
 21
161.50000000091981
 31
0.0
  0
LINE
  5
1697
  8
SAPA_MATT
 10
-6.6000000001045116
 20
-8.5000000009207497
 30
0.0
 11
-57.500000000000171
 21
-8.5000000009207355
 31
0.0
  0
LINE
  5
1698
  8
SAPA_MATT
 10
-56.000000000000142
 20
158.50000000091981
 30
0.0
 11
-56.000000000000178
 21
-5.5000000009207346
 31
0.0
  0
SOLID
  5
1699
  8
SAPA_MATT
 10
-56.500000000000142
 20
158.50000000091981
 30
0.0
 11
-55.500000000000142
 21
158.50000000091981
 31
0.0
 12
-56.000000000000142
 22
161.50000000091981
 32
0.0
 13
-56.000000000000142
 23
161.50000000091981
 33
0.0
  0
SOLID
  5
169A
  8
SAPA_MATT
 10
-56.500000000000178
 20
-5.5000000009207346
 30
0.0
 11
-55.500000000000178
 21
-5.5000000009207346
 31
0.0
 12
-56.000000000000178
 22
-8.5000000009207355
 32
0.0
 13
-56.000000000000178
 23
-8.5000000009207355
 33
0.0
  0
INSERT
  5
169B
  8
0
  2
*U63
 10
0.0
 20
0.0
 30
0.0
  0
POINT
  5
169C
  8
DEFPOINTS
 62
     0
 10
-4.8999999998743462
 20
161.50000000091981
 30
0.0
  0
POINT
  5
169D
  8
DEFPOINTS
 62
     0
 10
-5.1000000001045116
 20
-8.5000000009207497
 30
0.0
  0
POINT
  5
169E
  8
DEFPOINTS
 62
     0
 10
-56.000000000000178
 20
-8.5000000009207355
 30
0.0
  0
ENDBLK
  5
1677
  8
0
  0
BLOCK
  8
0
  2
*D32
 70
     1
 10
0.0
 20
0.0
 30
0.0
  3
*D32
  1

  0
LINE
  5
168D
  8
SAPA_MATT
 10
31.599999999769128
 20
161.500033835903
 30
0.0
 11
31.599999999769128
 21
183.00000000092049
 31
0.0
  0
LINE
  5
168E
  8
SAPA_MATT
 10
-6.3999999998743462
 20
161.5000000009189
 30
0.0
 11
-6.3999999998743444
 21
183.00000000092049
 31
0.0
  0
LINE
  5
168F
  8
SAPA_MATT
 10
28.599999999769128
 20
181.50000000092049
 30
0.0
 11
-3.3999999998743449
 21
181.50000000092049
 31
0.0
  0
SOLID
  5
1690
  8
SAPA_MATT
 10
28.599999999769128
 20
182.00000000092049
 30
0.0
 11
28.599999999769128
 21
181.00000000092049
 31
0.0
 12
31.599999999769128
 22
181.50000000092049
 32
0.0
 13
31.599999999769128
 23
181.50000000092049
 33
0.0
  0
SOLID
  5
1691
  8
SAPA_MATT
 10
-3.3999999998743449
 20
182.00000000092049
 30
0.0
 11
-3.3999999998743449
 21
181.00000000092049
 31
0.0
 12
-6.3999999998743453
 22
181.50000000092049
 32
0.0
 13
-6.3999999998743453
 23
181.50000000092049
 33
0.0
  0
INSERT
  5
1692
  8
0
  2
*U62
 10
0.0
 20
0.0
 30
0.0
  0
POINT
  5
1693
  8
DEFPOINTS
 62
     0
 10
31.599999999769128
 20
160.00003383590311
 30
0.0
  0
POINT
  5
1694
  8
DEFPOINTS
 62
     0
 10
-6.3999999998743462
 20
160.0000000009189
 30
0.0
  0
POINT
  5
1695
  8
DEFPOINTS
 62
     0
 10
-6.3999999998743453
 20
181.50000000092049
 30
0.0
  0
ENDBLK
  5
1683
  8
0
  0
BLOCK
  8
0
  2
*U33
 70
     1
 10
0.0
 20
0.0
 30
0.0
  3
*U33
  1

  0
TEXT
  5
16DA
  8
0
 62
     2
 10
-45.00000000000022
 20
41.37499999973285
 30
0.0
 40
3.5
  1
47
 50
90.0
  7
ISO
  0
ENDBLK
  5
16DC
  8
0
  0
BLOCK
  8
0
  2
*U34
 70
     1
 10
0.0
 20
0.0
 30
0.0
  3
*U34
  1

  0
TEXT
  5
16DE
  8
0
 62
     2
 10
-45.000000000000199
 20
3.5499999995789882
 30
0.0
 40
3.5
  1
29
 50
90.0
  7
ISO
  0
ENDBLK
  5
16E0
  8
0
  0
BLOCK
  8
0
  2
*U35
 70
     1
 10
0.0
 20
0.0
 30
0.0
  3
*U35
  1

  0
TEXT
  5
16E2
  8
0
 62
     2
 10
-57.000000000000171
 20
73.174999999999557
 30
0.0
 40
3.5
  1
170
 50
90.0
  7
ISO
  0
ENDBLK
  5
16E4
  8
0
  0
BLOCK
  8
0
  2
*U36
 70
     1
 10
0.0
 20
0.0
 30
0.0
  3
*U36
  1

  0
TEXT
  5
16E6
  8
0
 62
     2
 10
-45.000000000000199
 20
111.87500000015341
 30
0.0
 40
3.5
  1
94
 50
90.0
  7
ISO
  0
ENDBLK
  5
16E8
  8
0
  0
BLOCK
  8
0
  2
*U37
 70
     1
 10
0.0
 20
0.0
 30
0.0
  3
*U37
  1

  0
TEXT
  5
16EA
  8
0
 62
     2
 10
10.14999999994739
 20
182.50000000092049
 30
0.0
 40
3.5
  1
38
  7
ISO
  0
ENDBLK
  5
16EC
  8
0
  0
BLOCK
  8
0
  2
*X38
 70
     1
 10
0.0
 20
0.0
 30
0.0
  3
*X38
  1

  0
LINE
  5
1723
  8
0
 62
     0
 10
29.999999999554021
 20
1.215448212313468
 30
0.0
 11
29.65448516013263
 21
1.5609630517348621
 31
0.0
  0
LINE
  5
1724
  8
0
 62
     0
 10
29.999999999554021
 20
0.0929161971798252
 30
0.0
 11
29.354941790154822
 21
0.7379744065790223
 31
0.0
  0
LINE
  5
1725
  8
0
 62
     0
 10
28.26924542378535
 20
0.7011387578148522
 30
0.0
 11
28.055358320270908
 21
0.9150258613292889
 31
0.0
  0
LINE
  5
1726
  8
0
 62
     0
 10
29.999999999554021
 20
-1.02961581795382
 30
0.0
 11
28.827893856525058
 21
0.142490325075143
 31
0.0
  0
LINE
  5
1727
  8
0
 62
     0
 10
29.999999999554021
 20
-2.1521478330874659
 30
0.0
 11
27.100184607703049
 21
0.7476675587635048
 31
0.0
  0
LINE
  5
1728
  8
0
 62
     0
 10
29.999999999554021
 20
-3.274679848221111
 30
0.0
 11
26.145915910690949
 21
0.5794042406419551
 31
0.0
  0
LINE
  5
1729
  8
0
 62
     0
 10
29.999999999554021
 20
-4.3972118633547561
 30
0.0
 11
26.000000000037851
 21
-0.3972118638385862
 31
0.0
  0
LINE
  5
172A
  8
0
 62
     0
 10
29.143643620930209
 20
-4.6633874998645917
 30
0.0
 11
25.931204439906072
 21
-1.4509483188404479
 31
0.0
  0
LINE
  5
172B
  8
0
 62
     0
 10
27.95551330178607
 20
-4.5977891958540882
 30
0.0
 11
24.8738893230339
 21
-1.5161652171019171
 31
0.0
  0
LINE
  5
172C
  8
0
 62
     0
 10
25.735192090802901
 20
-3.500000000004571
 30
0.0
 11
24.499999999910688
 21
-2.2648079091123599
 31
0.0
  0
LINE
  5
172D
  8
0
 62
     0
 10
26.894281331347209
 20
-4.6590892405488802
 30
0.0
 11
25.99999999955724
 21
-3.764807908758903
 31
0.0
  0
LINE
  5
172E
  8
0
 62
     0
 10
29.73134754333131
 20
-4.7489085777415951
 30
0.0
 11
29.999999999554021
 21
-4.4802561215188756
 31
0.0
  0
LINE
  5
172F
  8
0
 62
     0
 10
28.733091462111531
 20
-4.6246326438277219
 30
0.0
 11
29.999999999554021
 21
-3.3577241063852332
 31
0.0
  0
LINE
  5
1730
  8
0
 62
     0
 10
27.63067053669128
 20
-4.6045215541143261
 30
0.0
 11
29.999999999554021
 21
-2.235192091251589
 31
0.0
  0
LINE
  5
1731
  8
0
 62
     0
 10
26.3832341208999
 20
-4.729425954772065
 30
0.0
 11
29.999999999554021
 21
-1.1126600761179459
 31
0.0
  0
LINE
  5
1732
  8
0
 62
     0
 10
25.999999999555751
 20
-3.9901280609825731
 30
0.0
 11
29.999999999554021
 21
0.0098719390156958
 31
0.0
  0
LINE
  5
1733
  8
0
 62
     0
 10
25.367596045395089
 20
-3.5000000000095879
 30
0.0
 11
29.999999999554021
 21
1.1324039541493389
 31
0.0
  0
LINE
  5
1734
  8
0
 62
     0
 10
24.54275646564799
 20
-3.2023075646230388
 30
0.0
 11
28.233023173593448
 21
0.4879591433224118
 31
0.0
  0
LINE
  5
1735
  8
0
 62
     0
 10
26.000000000037851
 20
-0.6225320150995392
 30
0.0
 11
27.42800275868197
 21
0.8054707435445767
 31
0.0
  0
LINE
  5
1736
  8
0
 62
     0
 10
24.499999999979011
 20
-2.1225320151583751
 30
0.0
 11
25.1225320151337
 21
-1.500000000003689
 31
0.0
  0
LINE
  5
1737
  8
0
 62
     0
 10
25.755031130769289
 20
0.2550311307655466
 30
0.0
 11
26.065165821168961
 21
0.56516582116521
 31
0.0
  0
ENDBLK
  5
1739
  8
0
  0
BLOCK
  8
0
  2
*X39
 70
     1
 10
0.0
 20
0.0
 30
0.0
  3
*X39
  1

  0
LINE
  5
173B
  8
0
 62
     0
 10
62.266905377762079
 20
0.3794392578474408
 30
0.0
 11
62.11250739695695
 21
0.5338372386525699
 31
0.0
  0
LINE
  5
173C
  8
0
 62
     0
 10
61.999999999428027
 20
-0.4761873789521581
 30
0.0
 11
60.749670459422212
 21
0.774142161053657
 31
0.0
  0
LINE
  5
173D
  8
0
 62
     0
 10
63.499403856271179
 20
-1.9755912357953129
 30
0.0
 11
63.024408763636352
 21
-1.500596143160482
 31
0.0
  0
LINE
  5
173E
  8
0
 62
     0
 10
63.49174761776338
 20
-3.0904670124211471
 30
0.0
 11
59.736886876430937
 21
0.6643937289112892
 31
0.0
  0
LINE
  5
173F
  8
0
 62
     0
 10
58.704735102999301
 20
0.5740134872092783
 30
0.0
 11
57.999999999554177
 21
1.2787485906544001
 31
0.0
  0
LINE
  5
1740
  8
0
 62
     0
 10
62.778748590220097
 20
-3.500000000011525
 30
0.0
 11
59.131246739284649
 21
0.147501850923927
 31
0.0
  0
LINE
  5
1741
  8
0
 62
     0
 10
61.999999999909178
 20
-3.843783424834228
 30
0.0
 11
57.999999999554191
 21
0.1562165755207552
 31
0.0
  0
LINE
  5
1742
  8
0
 62
     0
 10
61.793789022463898
 20
-4.7601044625226079
 30
0.0
 11
57.999999999554177
 21
-0.9663154396128916
 31
0.0
  0
LINE
  5
1743
  8
0
 62
     0
 10
60.5225212462286
 20
-4.611368701420961
 30
0.0
 11
57.999999999554177
 21
-2.0888474547465341
 31
0.0
  0
LINE
  5
1744
  8
0
 62
     0
 10
59.404104230259442
 20
-4.6154837005854361
 30
0.0
 11
57.999999999554177
 21
-3.2113794698801779
 31
0.0
  0
LINE
  5
1745
  8
0
 62
     0
 10
58.39378876822024
 20
-4.7277002536798811
 30
0.0
 11
57.999999999554177
 21
-4.3339114850138207
 31
0.0
  0
LINE
  5
1746
  8
0
 62
     0
 10
62.411152544808417
 20
-3.5000000000065121
 30
0.0
 11
63.499999999625459
 21
-2.411152545189466
 31
0.0
  0
LINE
  5
1747
  8
0
 62
     0
 10
61.236607160379378
 20
-4.6745453844355529
 30
0.0
 11
61.999999999909612
 21
-3.9111525449053159
 31
0.0
  0
LINE
  5
1748
  8
0
 62
     0
 10
60.189139241347611
 20
-4.5994812883336884
 30
0.0
 11
63.231696808359807
 21
-1.5569237213214779
 31
0.0
  0
LINE
  5
1749
  8
0
 62
     0
 10
59.020221305244377
 20
-4.6458672093032582
 30
0.0
 11
62.16857307595437
 21
-1.4975154385932681
 31
0.0
  0
LINE
  5
174A
  8
0
 62
     0
 10
57.999999999554191
 20
-4.5435564998598181
 30
0.0
 11
61.999999999428042
 21
-0.5435564999859716
 31
0.0
  0
LINE
  5
174B
  8
0
 62
     0
 10
57.99999999955417
 20
-3.4210244847261739
 30
0.0
 11
61.978492215286678
 21
0.5574677310063266
 31
0.0
  0
LINE
  5
174C
  8
0
 62
     0
 10
57.999999999554191
 20
-2.2984924695925311
 30
0.0
 11
61.024223518285261
 21
0.7257310491385312
 31
0.0
  0
LINE
  5
174D
  8
0
 62
     0
 10
59.761814787541482
 20
0.5858543335284097
 30
0.0
 11
60.069954821283801
 21
0.8939943672707286
 31
0.0
  0
LINE
  5
174E
  8
0
 62
     0
 10
57.999999999554177
 20
-1.175960454458884
 30
0.0
 11
59.331083591011122
 21
0.1551231369980464
 31
0.0
  0
LINE
  5
174F
  8
0
 62
     0
 10
57.999999999554191
 20
-0.0534284393252413
 30
0.0
 11
58.684109714702778
 21
0.6306812758233457
 31
0.0
  0
LINE
  5
1750
  8
0
 62
     0
 10
57.999999999554191
 20
1.0691035758084051
 30
0.0
 11
58.38456634473367
 21
1.4536699209878909
 31
0.0
  0
ENDBLK
  5
1752
  8
0
  0
BLOCK
  8
0
  2
*U40
 70
     1
 10
0.0
 20
0.0
 30
0.0
  3
*U40
  1

  0
TEXT
  5
17DF
  8
0
 62
     2
 10
20.874999999732829
 20
-10.480782145089909
 30
0.0
 40
3.5
  1
47
  7
BYGG-027378$0$ISO
  0
ENDBLK
  5
17E1
  8
0
  0
BLOCK
  8
0
  2
*U41
 70
     1
 10
0.0
 20
0.0
 30
0.0
  3
*U41
  1

  0
TEXT
  5
17E3
  8
0
 62
     2
 10
56.253408988237346
 20
9.0500000000000682
 30
0.0
 40
3.5
  1
23
 50
90.0
  7
BYGG-027378$0$ISO
  0
ENDBLK
  5
17E5
  8
0
  0
BLOCK
  8
0
  2
*X42
 70
     1
 10
0.0
 20
0.0
 30
0.0
  3
*X42
  1

  0
LINE
  5
17E7
  8
0
 62
     0
 10
38.100000000000001
 20
2.2500120000001109
 30
0.0
 11
38.100000000000001
 21
6.3500213333294964
 31
0.0
  0
LINE
  5
17E8
  8
0
 62
     0
 10
36.512500000000003
 20
2.9722179848870041
 30
0.0
 11
36.512500000000003
 21
5.6278060151133609
 31
0.0
  0
LINE
  5
17E9
  8
0
 62
     0
 10
34.924999999999997
 20
3.350012000002045
 30
0.0
 11
34.924999999999997
 21
5.2500120000020232
 31
0.0
  0
LINE
  5
17EA
  8
0
 62
     0
 10
33.337499999999999
 20
3.350012000002045
 30
0.0
 11
33.337499999999999
 21
5.2500120000020232
 31
0.0
  0
LINE
  5
17EB
  8
0
 62
     0
 10
31.75
 20
3.350012000002045
 30
0.0
 11
31.75
 21
5.2500120000020232
 31
0.0
  0
LINE
  5
17EC
  8
0
 62
     0
 10
30.162500000000001
 20
3.350012000002045
 30
0.0
 11
30.162500000000001
 21
5.2500120000020232
 31
0.0
  0
LINE
  5
17ED
  8
0
 62
     0
 10
28.574999999999999
 20
3.350012000002045
 30
0.0
 11
28.574999999999999
 21
5.2500120000020232
 31
0.0
  0
LINE
  5
17EE
  8
0
 62
     0
 10
26.987500000000001
 20
3.350012000002045
 30
0.0
 11
26.987500000000001
 21
5.2500120000020232
 31
0.0
  0
LINE
  5
17EF
  8
0
 62
     0
 10
25.399999999999999
 20
3.350012000002045
 30
0.0
 11
25.399999999999999
 21
5.2500120000020232
 31
0.0
  0
LINE
  5
17F0
  8
0
 62
     0
 10
23.8125
 20
3.350012000002045
 30
0.0
 11
23.8125
 21
5.2500120000020232
 31
0.0
  0
LINE
  5
17F1
  8
0
 62
     0
 10
22.225000000000001
 20
3.350012000002045
 30
0.0
 11
22.225000000000001
 21
5.2500120000020232
 31
0.0
  0
LINE
  5
17F2
  8
0
 62
     0
 10
20.637499999999999
 20
3.350012000002045
 30
0.0
 11
20.637499999999999
 21
5.2500120000020232
 31
0.0
  0
LINE
  5
17F3
  8
0
 62
     0
 10
19.050000000000001
 20
3.350012000002045
 30
0.0
 11
19.050000000000001
 21
5.2500120000020232
 31
0.0
  0
LINE
  5
17F4
  8
0
 62
     0
 10
17.462499999999999
 20
3.350012000002045
 30
0.0
 11
17.462499999999999
 21
5.2500120000020232
 31
0.0
  0
LINE
  5
17F5
  8
0
 62
     0
 10
15.875
 20
3.350012000002045
 30
0.0
 11
15.875
 21
5.2500120000020232
 31
0.0
  0
LINE
  5
17F6
  8
0
 62
     0
 10
14.2875
 20
3.350012000002045
 30
0.0
 11
14.2875
 21
5.2500120000020232
 31
0.0
  0
LINE
  5
17F7
  8
0
 62
     0
 10
12.699999999999999
 20
3.350012000002045
 30
0.0
 11
12.699999999999999
 21
5.2500120000020232
 31
0.0
  0
LINE
  5
17F8
  8
0
 62
     0
 10
11.112500000000001
 20
3.3119842058922591
 30
0.0
 11
11.112500000000001
 21
5.2880397941097081
 31
0.0
  0
LINE
  5
17F9
  8
0
 62
     0
 10
9.5249999999999986
 20
2.416518351100537
 30
0.0
 11
9.5249999999999986
 21
6.1835056489000211
 31
0.0
  0
ENDBLK
  5
17FB
  8
0
  0
BLOCK
  8
0
  2
*U43
 70
     1
 10
0.0
 20
0.0
 30
0.0
  3
*U43
  1

  0
TEXT
  5
1833
  8
0
 62
     2
 10
16.549999999818102
 20
-12.04883760108115
 30
0.0
 40
3.5
  1
38
  7
BYGG-027389$0$ISO
  0
ENDBLK
  5
1835
  8
0
  0
BLOCK
  8
0
  2
*U44
 70
     1
 10
0.0
 20
0.0
 30
0.0
  3
*U44
  1

  0
TEXT
  5
1837
  8
0
 62
     2
 10
47.546389967435317
 20
43.54999999993661
 30
0.0
 40
3.5
  1
92
 50
90.0
  7
BYGG-027389$0$ISO
  0
ENDBLK
  5
1839
  8
0
  0
BLOCK
  8
0
  2
*U45
 70
     1
 10
0.0
 20
0.0
 30
0.0
  3
*U45
  1

  0
ENDBLK
  5
18F4
  8
0
  0
BLOCK
  8
0
  2
*U46
 70
     1
 10
0.0
 20
0.0
 30
0.0
  3
*U46
  1

  0
TEXT
  5
1903
  8
0
 62
     2
 10
28.48078214508616
 20
41.374999999732843
 30
0.0
 40
3.5
  1
47
 50
90.0
  7
BYGG-027378$0$ISO
  0
ENDBLK
  5
1905
  8
0
  0
BLOCK
  8
0
  2
*U47
 70
     1
 10
0.0
 20
0.0
 30
0.0
  3
*U47
  1

  0
TEXT
  5
1907
  8
0
 62
     2
 10
40.946389967698231
 20
35.049999999016308
 30
0.0
 40
3.5
  1
92
 50
90.0
  7
BYGG-027389$0$ISO
  0
ENDBLK
  5
1909
  8
0
  0
BLOCK
  8
0
  2
*U48
 70
     1
 10
0.0
 20
0.0
 30
0.0
  3
*U48
  1

  0
TEXT
  5
190B
  8
0
 62
     2
 10
-5.4807821450577938
 20
106.37500000026709
 30
0.0
 40
3.5
  1
47
 50
90.0
  7
BYGG-027378$0$ISO
  0
ENDBLK
  5
190D
  8
0
  0
BLOCK
  8
0
  2
*U49
 70
     1
 10
0.0
 20
0.0
 30
0.0
  3
*U49
  1

  0
TEXT
  5
190F
  8
0
 62
     2
 10
-17.94638996766988
 20
113.0500000009837
 30
0.0
 40
3.5
  1
92
 50
90.0
  7
BYGG-027389$0$ISO
  0
ENDBLK
  5
1911
  8
0
  0
BLOCK
  8
0
  2
*U50
 70
     1
 10
0.0
 20
0.0
 30
0.0
  3
*U50
  1

  0
TEXT
  5
1B8F
  8
0
 62
     2
 10
10.14999999994739
 20
175.54883760200141
 30
0.0
 40
3.5
  1
38
  7
BYGG-027389$0$ISO
  0
ENDBLK
  5
1B91
  8
0
  0
BLOCK
  8
0
  2
*U51
 70
     1
 10
0.0
 20
0.0
 30
0.0
  3
*U51
  1

  0
TEXT
  5
1B93
  8
0
 62
     2
 10
16.050000000032188
 20
76.246591011762632
 30
0.0
 40
3.5
  1
23
  7
BYGG-027378$0$ISO
  0
ENDBLK
  5
1B95
  8
0
  0
BLOCK
  8
0
  2
*U52
 70
     1
 10
0.0
 20
0.0
 30
0.0
  3
*U52
  1

  0
TEXT
  5
1B97
  8
0
 62
     2
 10
9.95000000008101
 20
-20.548837602001459
 30
0.0
 40
3.5
  1
38
  7
BYGG-027389$0$ISO
  0
ENDBLK
  5
1B99
  8
0
  0
BLOCK
  8
0
  2
*U53
 70
     1
 10
0.0
 20
0.0
 30
0.0
  3
*U53
  1

  0
TEXT
  5
1B9B
  8
0
 62
     2
 10
4.0499999999961984
 20
78.753408988237354
 30
0.0
 40
3.5
  1
23
  7
BYGG-027378$0$ISO
  0
ENDBLK
  5
1B9D
  8
0
  0
BLOCK
  8
0
  2
*X54
 70
     1
 10
0.0
 20
0.0
 30
0.0
  3
*X54
  1

  0
LINE
  5
1BD4
  8
0
 62
     0
 10
0.3794392578473413
 20
25.7330946217037
 30
0.0
 11
0.5338372386524634
 21
25.887492602508829
 31
0.0
  0
LINE
  5
1BD5
  8
0
 62
     0
 10
-0.4761873789522646
 20
26.000000000037751
 30
0.0
 11
0.7741421610535504
 21
27.25032954004357
 31
0.0
  0
LINE
  5
1BD6
  8
0
 62
     0
 10
-1.975591235795416
 20
24.500596143194599
 30
0.0
 11
-1.5005961431605921
 21
24.97559123582942
 31
0.0
  0
LINE
  5
1BD7
  8
0
 62
     0
 10
-3.0904670124212532
 20
24.508252381702409
 30
0.0
 11
0.6643937289111861
 21
28.263113123034849
 31
0.0
  0
LINE
  5
1BD8
  8
0
 62
     0
 10
0.5740134872091716
 20
29.295264896466481
 30
0.0
 11
1.2787485906542859
 21
29.999999999911591
 31
0.0
  0
LINE
  5
1BD9
  8
0
 62
     0
 10
-3.5000000000116378
 20
25.221251409245671
 30
0.0
 11
0.1475018509238133
 21
28.868753260181119
 31
0.0
  0
LINE
  5
1BDA
  8
0
 62
     0
 10
-3.8437834248343381
 20
25.999999999556611
 30
0.0
 11
0.156216575520645
 21
29.999999999911591
 31
0.0
  0
LINE
  5
1BDB
  8
0
 62
     0
 10
-4.760104462522726
 20
26.20621097700187
 30
0.0
 11
-0.9663154396129982
 21
29.999999999911591
 31
0.0
  0
LINE
  5
1BDC
  8
0
 62
     0
 10
-4.6113687014210782
 20
27.477478753237161
 30
0.0
 11
-2.0888474547466451
 21
29.999999999911591
 31
0.0
  0
LINE
  5
1BDD
  8
0
 62
     0
 10
-4.6154837005855489
 20
28.595895769206329
 30
0.0
 11
-3.211379469880284
 21
29.999999999911591
 31
0.0
  0
LINE
  5
1BDE
  8
0
 62
     0
 10
-4.7277002536799984
 20
29.606211231245531
 30
0.0
 11
-4.3339114850139282
 21
29.999999999911601
 31
0.0
  0
LINE
  5
1BDF
  8
0
 62
     0
 10
-3.5000000000066249
 20
25.588847454657358
 30
0.0
 11
-2.411152545189597
 21
24.49999999984033
 31
0.0
  0
LINE
  5
1BE0
  8
0
 62
     0
 10
-4.6745453844356737
 20
26.763392839086411
 30
0.0
 11
-3.9111525449054412
 21
25.99999999955617
 31
0.0
  0
LINE
  5
1BE1
  8
0
 62
     0
 10
-4.5994812883338048
 20
27.810860758118189
 30
0.0
 11
-1.5569237213215921
 21
24.768303191105971
 31
0.0
  0
LINE
  5
1BE2
  8
0
 62
     0
 10
-4.645867209303371
 20
28.979778694221402
 30
0.0
 11
-1.497515438593374
 21
25.831426923511401
 31
0.0
  0
LINE
  5
1BE3
  8
0
 62
     0
 10
-4.5435564998599416
 20
29.999999999911608
 30
0.0
 11
-0.5435564999860887
 21
26.000000000037758
 31
0.0
  0
LINE
  5
1BE4
  8
0
 62
     0
 10
-3.4210244847262952
 20
29.999999999911608
 30
0.0
 11
0.5574677310062235
 21
26.021507784179089
 31
0.0
  0
LINE
  5
1BE5
  8
0
 62
     0
 10
-2.2984924695926479
 20
29.999999999911608
 30
0.0
 11
0.7257310491384139
 21
26.975776481180539
 31
0.0
  0
LINE
  5
1BE6
  8
0
 62
     0
 10
0.5858543335282925
 20
28.238185211924311
 30
0.0
 11
0.8939943672706185
 21
27.930045178181981
 31
0.0
  0
LINE
  5
1BE7
  8
0
 62
     0
 10
-1.175960454459005
 20
29.999999999911608
 30
0.0
 11
0.1551231369979362
 21
28.66891640845466
 31
0.0
  0
LINE
  5
1BE8
  8
0
 62
     0
 10
-0.0534284393253621
 20
29.999999999911601
 30
0.0
 11
0.6306812758232248
 21
29.315890284763011
 31
0.0
  0
LINE
  5
1BE9
  8
0
 62
     0
 10
1.069103575808281
 20
29.999999999911601
 30
0.0
 11
1.4536699209877739
 21
29.615433654732112
 31
0.0
  0
ENDBLK
  5
1BEB
  8
0
  0
BLOCK
  8
0
  2
*X55
 70
     1
 10
0.0
 20
0.0
 30
0.0
  3
*X55
  1

  0
LINE
  5
1BED
  8
0
 62
     0
 10
1.2154482123133641
 20
57.999999999911758
 30
0.0
 11
1.5609630517347599
 21
58.345514839333148
 31
0.0
  0
LINE
  5
1BEE
  8
0
 62
     0
 10
0.0929161971797195
 20
57.999999999911751
 30
0.0
 11
0.7379744065789196
 21
58.64505820931096
 31
0.0
  0
LINE
  5
1BEF
  8
0
 62
     0
 10
0.7011387578147592
 20
59.730754575680443
 30
0.0
 11
0.9150258613291864
 21
59.944641679194874
 31
0.0
  0
LINE
  5
1BF0
  8
0
 62
     0
 10
-1.029615817953925
 20
57.999999999911751
 30
0.0
 11
0.1424903250750367
 21
59.17210614294072
 31
0.0
  0
LINE
  5
1BF1
  8
0
 62
     0
 10
-2.152147833087569
 20
57.999999999911751
 30
0.0
 11
0.7476675587634045
 21
60.899815391762729
 31
0.0
  0
LINE
  5
1BF2
  8
0
 62
     0
 10
-3.2746798482212141
 20
57.999999999911751
 30
0.0
 11
0.5794042406418525
 21
61.854084088774819
 31
0.0
  0
LINE
  5
1BF3
  8
0
 62
     0
 10
-4.3972118633548591
 20
57.999999999911751
 30
0.0
 11
-0.3972118638386842
 21
61.999999999427928
 31
0.0
  0
LINE
  5
1BF4
  8
0
 62
     0
 10
-4.6633874998646991
 20
58.856356378535558
 30
0.0
 11
-1.4509483188405501
 21
62.06879555955971
 31
0.0
  0
LINE
  5
1BF5
  8
0
 62
     0
 10
-4.597789195854193
 20
60.044486697679702
 30
0.0
 11
-1.516165217102019
 21
63.126110676431878
 31
0.0
  0
LINE
  5
1BF6
  8
0
 62
     0
 10
-3.5000000000046678
 20
62.264807908662881
 30
0.0
 11
-2.2648079091124611
 21
63.499999999555087
 31
0.0
  0
LINE
  5
1BF7
  8
0
 62
     0
 10
-4.6590892405489841
 20
61.10571866811857
 30
0.0
 11
-3.7648079087590052
 21
61.999999999908539
 31
0.0
  0
LINE
  5
1BF8
  8
0
 62
     0
 10
-4.7489085777416991
 20
58.268652456134468
 30
0.0
 11
-4.4802561215189911
 21
57.999999999911772
 31
0.0
  0
LINE
  5
1BF9
  8
0
 62
     0
 10
-4.6246326438278276
 20
59.266908537354247
 30
0.0
 11
-3.3577241063853478
 21
57.999999999911772
 31
0.0
  0
LINE
  5
1BFA
  8
0
 62
     0
 10
-4.60452155411443
 20
60.369329462774488
 30
0.0
 11
-2.2351920912517049
 21
57.999999999911772
 31
0.0
  0
LINE
  5
1BFB
  8
0
 62
     0
 10
-4.7294259547721671
 20
61.616765878565872
 30
0.0
 11
-1.1126600761180601
 21
57.999999999911758
 31
0.0
  0
LINE
  5
1BFC
  8
0
 62
     0
 10
-3.9901280609826868
 20
61.999999999910038
 30
0.0
 11
0.0098719390155839
 21
57.999999999911758
 31
0.0
  0
LINE
  5
1BFD
  8
0
 62
     0
 10
-3.5000000000096869
 20
62.632403954070682
 30
0.0
 11
1.132403954149227
 21
57.999999999911758
 31
0.0
  0
LINE
  5
1BFE
  8
0
 62
     0
 10
-3.202307564623148
 20
63.457243533817788
 30
0.0
 11
0.4879591433222972
 21
59.766976825872341
 31
0.0
  0
LINE
  5
1BFF
  8
0
 62
     0
 10
-0.6225320150996537
 20
61.999999999427928
 30
0.0
 11
0.805470743544479
 21
60.571997240783801
 31
0.0
  0
LINE
  5
1C00
  8
0
 62
     0
 10
-2.1225320151584892
 20
63.499999999486768
 30
0.0
 11
-1.500000000003789
 21
62.877467984332057
 31
0.0
  0
LINE
  5
1C01
  8
0
 62
     0
 10
0.2550311307654356
 20
62.244968868696489
 30
0.0
 11
0.5651658211651141
 21
61.934834178296811
 31
0.0
  0
ENDBLK
  5
1C03
  8
0
  0
BLOCK
  8
0
  2
*X56
 70
     1
 10
0.0
 20
0.0
 30
0.0
  3
*X56
  1

  0
LINE
  5
1C3A
  8
0
 62
     0
 10
24.620560742181041
 20
127.2669053782963
 30
0.0
 11
24.46616276137593
 21
127.1125073974912
 31
0.0
  0
LINE
  5
1C3B
  8
0
 62
     0
 10
25.476187378980661
 20
126.9999999999622
 30
0.0
 11
24.225857838974839
 21
125.74967045995641
 31
0.0
  0
LINE
  5
1C3C
  8
0
 62
     0
 10
26.975591235823831
 20
128.4994038568054
 30
0.0
 11
26.500596143188972
 21
128.0244087641706
 31
0.0
  0
LINE
  5
1C3D
  8
0
 62
     0
 10
28.09046701244964
 20
128.49174761829761
 30
0.0
 11
24.335606271117189
 21
124.7368868769651
 31
0.0
  0
LINE
  5
1C3E
  8
0
 62
     0
 10
24.425986512819211
 20
123.70473510353349
 30
0.0
 11
23.721251409374101
 21
123.00000000008841
 31
0.0
  0
LINE
  5
1C3F
  8
0
 62
     0
 10
28.500000000040021
 20
127.7787485907543
 30
0.0
 11
24.852498149104559
 21
124.13124673981891
 31
0.0
  0
LINE
  5
1C40
  8
0
 62
     0
 10
28.843783424862721
 20
127.00000000044341
 30
0.0
 11
24.843783424507741
 21
123.00000000008841
 31
0.0
  0
LINE
  5
1C41
  8
0
 62
     0
 10
29.760104462551109
 20
126.7937890229981
 30
0.0
 11
25.966315439641381
 21
123.00000000008841
 31
0.0
  0
LINE
  5
1C42
  8
0
 62
     0
 10
29.611368701449461
 20
125.52252124676281
 30
0.0
 11
27.088847454775021
 21
123.00000000008841
 31
0.0
  0
LINE
  5
1C43
  8
0
 62
     0
 10
29.615483700613929
 20
124.40410423079371
 30
0.0
 11
28.21137946990866
 21
123.00000000008841
 31
0.0
  0
LINE
  5
1C44
  8
0
 62
     0
 10
29.727700253708381
 20
123.3937887687544
 30
0.0
 11
29.333911485042311
 21
123.00000000008841
 31
0.0
  0
LINE
  5
1C45
  8
0
 62
     0
 10
28.500000000035008
 20
127.4111525453426
 30
0.0
 11
27.411152545217981
 21
128.5000000001597
 31
0.0
  0
LINE
  5
1C46
  8
0
 62
     0
 10
29.67454538446405
 20
126.23660716091359
 30
0.0
 11
28.91115254493382
 21
127.0000000004438
 31
0.0
  0
LINE
  5
1C47
  8
0
 62
     0
 10
29.599481288362188
 20
125.1891392418818
 30
0.0
 11
26.556923721349971
 21
128.23169680889399
 31
0.0
  0
LINE
  5
1C48
  8
0
 62
     0
 10
29.645867209331751
 20
124.02022130577861
 30
0.0
 11
26.497515438621772
 21
127.1685730764886
 31
0.0
  0
LINE
  5
1C49
  8
0
 62
     0
 10
29.543556499888329
 20
123.00000000008841
 30
0.0
 11
25.543556500014471
 21
126.9999999999622
 31
0.0
  0
LINE
  5
1C4A
  8
0
 62
     0
 10
28.421024484754689
 20
123.00000000008841
 30
0.0
 11
24.442532269022159
 21
126.97849221582091
 31
0.0
  0
LINE
  5
1C4B
  8
0
 62
     0
 10
27.298492469621038
 20
123.00000000008841
 30
0.0
 11
24.274268950889962
 21
126.0242235188195
 31
0.0
  0
LINE
  5
1C4C
  8
0
 62
     0
 10
24.41414566650009
 20
124.7618147880757
 30
0.0
 11
24.106005632757771
 21
125.069954821818
 31
0.0
  0
LINE
  5
1C4D
  8
0
 62
     0
 10
26.175960454487392
 20
123.00000000008841
 30
0.0
 11
24.844876863030439
 21
124.33108359154529
 31
0.0
  0
LINE
  5
1C4E
  8
0
 62
     0
 10
25.053428439353741
 20
123.00000000008841
 30
0.0
 11
24.369318724205151
 21
123.684109715237
 31
0.0
  0
LINE
  5
1C4F
  8
0
 62
     0
 10
23.930896424220101
 20
123.00000000008841
 30
0.0
 11
23.546330079040612
 21
123.3845663452679
 31
0.0
  0
ENDBLK
  5
1C51
  8
0
  0
BLOCK
  8
0
  2
*X57
 70
     1
 10
0.0
 20
0.0
 30
0.0
  3
*X57
  1

  0
LINE
  5
1C53
  8
0
 62
     0
 10
23.784551787715021
 20
95.000000000088235
 30
0.0
 11
23.439036948293619
 21
94.654485160666837
 31
0.0
  0
LINE
  5
1C54
  8
0
 62
     0
 10
24.907083802848661
 20
95.000000000088235
 30
0.0
 11
24.262025593449469
 21
94.354941790689026
 31
0.0
  0
LINE
  5
1C55
  8
0
 62
     0
 10
24.298861242213629
 20
93.26924542431955
 30
0.0
 11
24.084974138699199
 21
93.055358320805126
 31
0.0
  0
LINE
  5
1C56
  8
0
 62
     0
 10
26.029615817982311
 20
95.000000000088235
 30
0.0
 11
24.857509674953349
 21
93.827893857059266
 31
0.0
  0
LINE
  5
1C57
  8
0
 62
     0
 10
27.152147833115961
 20
95.000000000088235
 30
0.0
 11
24.25233244126499
 21
92.100184608237271
 31
0.0
  0
LINE
  5
1C58
  8
0
 62
     0
 10
28.274679848249601
 20
95.000000000088235
 30
0.0
 11
24.42059575938654
 21
91.145915911225174
 31
0.0
  0
LINE
  5
1C59
  8
0
 62
     0
 10
29.397211863383241
 20
95.000000000088235
 30
0.0
 11
25.397211863867071
 21
91.000000000572072
 31
0.0
  0
LINE
  5
1C5A
  8
0
 62
     0
 10
29.66338749989308
 20
94.143643621464435
 30
0.0
 11
26.450948318868939
 21
90.931204440440283
 31
0.0
  0
LINE
  5
1C5B
  8
0
 62
     0
 10
29.59778919588258
 20
92.955513302320284
 30
0.0
 11
26.516165217130411
 21
89.873889323568136
 31
0.0
  0
LINE
  5
1C5C
  8
0
 62
     0
 10
28.500000000033079
 20
90.735192091337126
 30
0.0
 11
27.264807909140849
 21
89.500000000444885
 31
0.0
  0
LINE
  5
1C5D
  8
0
 62
     0
 10
29.65908924057738
 20
91.894281331881416
 30
0.0
 11
28.76480790878739
 21
91.000000000091447
 31
0.0
  0
LINE
  5
1C5E
  8
0
 62
     0
 10
29.748908577770081
 20
94.731347543865525
 30
0.0
 11
29.480256121547381
 21
95.000000000088235
 31
0.0
  0
LINE
  5
1C5F
  8
0
 62
     0
 10
29.624632643856209
 20
93.73309146264576
 30
0.0
 11
28.357724106413741
 21
95.000000000088235
 31
0.0
  0
LINE
  5
1C60
  8
0
 62
     0
 10
29.604521554142821
 20
92.630670537225512
 30
0.0
 11
27.235192091280091
 21
95.000000000088235
 31
0.0
  0
LINE
  5
1C61
  8
0
 62
     0
 10
29.729425954800561
 20
91.383234121434114
 30
0.0
 11
26.112660076146451
 21
95.000000000088235
 31
0.0
  0
LINE
  5
1C62
  8
0
 62
     0
 10
28.990128061011081
 20
91.000000000089955
 30
0.0
 11
24.9901280610128
 21
95.000000000088235
 31
0.0
  0
LINE
  5
1C63
  8
0
 62
     0
 10
28.500000000038071
 20
90.367596045929332
 30
0.0
 11
23.867596045879161
 21
95.000000000088235
 31
0.0
  0
LINE
  5
1C64
  8
0
 62
     0
 10
28.20230756465153
 20
89.542756466182212
 30
0.0
 11
24.51204085670609
 21
93.233023174127666
 31
0.0
  0
LINE
  5
1C65
  8
0
 62
     0
 10
25.62253201512803
 20
91.000000000572072
 30
0.0
 11
24.1945292564839
 21
92.428002759216227
 31
0.0
  0
LINE
  5
1C66
  8
0
 62
     0
 10
27.12253201518687
 20
89.500000000513225
 30
0.0
 11
26.50000000003217
 21
90.122532015667943
 31
0.0
  0
LINE
  5
1C67
  8
0
 62
     0
 10
24.744968869262959
 20
90.755031131303497
 30
0.0
 11
24.434834178863269
 21
91.065165821703204
 31
0.0
  0
ENDBLK
  5
1C69
  8
0
  0
BLOCK
  8
0
  2
*X58
 70
     1
 10
0.0
 20
0.0
 30
0.0
  3
*X58
  1

  0
LINE
  5
1CA0
  8
0
 62
     0
 10
0.3794392578473413
 20
25.7330946217037
 30
0.0
 11
0.5338372386524634
 21
25.887492602508829
 31
0.0
  0
LINE
  5
1CA1
  8
0
 62
     0
 10
-0.4761873789522646
 20
26.000000000037751
 30
0.0
 11
0.7741421610535504
 21
27.25032954004357
 31
0.0
  0
LINE
  5
1CA2
  8
0
 62
     0
 10
-1.975591235795416
 20
24.500596143194599
 30
0.0
 11
-1.5005961431605921
 21
24.97559123582942
 31
0.0
  0
LINE
  5
1CA3
  8
0
 62
     0
 10
-3.0904670124212532
 20
24.508252381702409
 30
0.0
 11
0.6643937289111861
 21
28.263113123034849
 31
0.0
  0
LINE
  5
1CA4
  8
0
 62
     0
 10
0.5740134872091716
 20
29.295264896466481
 30
0.0
 11
1.2787485906542859
 21
29.999999999911591
 31
0.0
  0
LINE
  5
1CA5
  8
0
 62
     0
 10
-3.5000000000116378
 20
25.221251409245671
 30
0.0
 11
0.1475018509238133
 21
28.868753260181119
 31
0.0
  0
LINE
  5
1CA6
  8
0
 62
     0
 10
-3.8437834248343381
 20
25.999999999556611
 30
0.0
 11
0.156216575520645
 21
29.999999999911591
 31
0.0
  0
LINE
  5
1CA7
  8
0
 62
     0
 10
-4.760104462522726
 20
26.20621097700187
 30
0.0
 11
-0.9663154396129982
 21
29.999999999911591
 31
0.0
  0
LINE
  5
1CA8
  8
0
 62
     0
 10
-4.6113687014210782
 20
27.477478753237161
 30
0.0
 11
-2.0888474547466451
 21
29.999999999911591
 31
0.0
  0
LINE
  5
1CA9
  8
0
 62
     0
 10
-4.6154837005855489
 20
28.595895769206329
 30
0.0
 11
-3.211379469880284
 21
29.999999999911591
 31
0.0
  0
LINE
  5
1CAA
  8
0
 62
     0
 10
-4.7277002536799984
 20
29.606211231245531
 30
0.0
 11
-4.3339114850139282
 21
29.999999999911601
 31
0.0
  0
LINE
  5
1CAB
  8
0
 62
     0
 10
-3.5000000000066249
 20
25.588847454657358
 30
0.0
 11
-2.411152545189597
 21
24.49999999984033
 31
0.0
  0
LINE
  5
1CAC
  8
0
 62
     0
 10
-4.6745453844356737
 20
26.763392839086411
 30
0.0
 11
-3.9111525449054412
 21
25.99999999955617
 31
0.0
  0
LINE
  5
1CAD
  8
0
 62
     0
 10
-4.5994812883338048
 20
27.810860758118189
 30
0.0
 11
-1.5569237213215921
 21
24.768303191105971
 31
0.0
  0
LINE
  5
1CAE
  8
0
 62
     0
 10
-4.645867209303371
 20
28.979778694221402
 30
0.0
 11
-1.497515438593374
 21
25.831426923511401
 31
0.0
  0
LINE
  5
1CAF
  8
0
 62
     0
 10
-4.5435564998599416
 20
29.999999999911608
 30
0.0
 11
-0.5435564999860887
 21
26.000000000037758
 31
0.0
  0
LINE
  5
1CB0
  8
0
 62
     0
 10
-3.4210244847262952
 20
29.999999999911608
 30
0.0
 11
0.5574677310062235
 21
26.021507784179089
 31
0.0
  0
LINE
  5
1CB1
  8
0
 62
     0
 10
-2.2984924695926479
 20
29.999999999911608
 30
0.0
 11
0.7257310491384139
 21
26.975776481180539
 31
0.0
  0
LINE
  5
1CB2
  8
0
 62
     0
 10
0.5858543335282925
 20
28.238185211924311
 30
0.0
 11
0.8939943672706185
 21
27.930045178181981
 31
0.0
  0
LINE
  5
1CB3
  8
0
 62
     0
 10
-1.175960454459005
 20
29.999999999911608
 30
0.0
 11
0.1551231369979362
 21
28.66891640845466
 31
0.0
  0
LINE
  5
1CB4
  8
0
 62
     0
 10
-0.0534284393253621
 20
29.999999999911601
 30
0.0
 11
0.6306812758232248
 21
29.315890284763011
 31
0.0
  0
LINE
  5
1CB5
  8
0
 62
     0
 10
1.069103575808281
 20
29.999999999911601
 30
0.0
 11
1.4536699209877739
 21
29.615433654732112
 31
0.0
  0
ENDBLK
  5
1CB7
  8
0
  0
BLOCK
  8
0
  2
*X59
 70
     1
 10
0.0
 20
0.0
 30
0.0
  3
*X59
  1

  0
LINE
  5
1CB9
  8
0
 62
     0
 10
1.2154482123133641
 20
57.999999999911758
 30
0.0
 11
1.560963051734761
 21
58.345514839333148
 31
0.0
  0
LINE
  5
1CBA
  8
0
 62
     0
 10
0.0929161971797195
 20
57.999999999911751
 30
0.0
 11
0.7379744065789197
 21
58.64505820931096
 31
0.0
  0
LINE
  5
1CBB
  8
0
 62
     0
 10
0.7011387578147592
 20
59.730754575680443
 30
0.0
 11
0.9150258613291866
 21
59.944641679194874
 31
0.0
  0
LINE
  5
1CBC
  8
0
 62
     0
 10
-1.029615817953925
 20
57.999999999911751
 30
0.0
 11
0.1424903250750368
 21
59.17210614294072
 31
0.0
  0
LINE
  5
1CBD
  8
0
 62
     0
 10
-2.152147833087569
 20
57.999999999911751
 30
0.0
 11
0.7476675587634047
 21
60.899815391762729
 31
0.0
  0
LINE
  5
1CBE
  8
0
 62
     0
 10
-3.2746798482212141
 20
57.999999999911751
 30
0.0
 11
0.5794042406418526
 21
61.854084088774819
 31
0.0
  0
LINE
  5
1CBF
  8
0
 62
     0
 10
-4.3972118633548591
 20
57.999999999911751
 30
0.0
 11
-0.3972118638386841
 21
61.999999999427928
 31
0.0
  0
LINE
  5
1CC0
  8
0
 62
     0
 10
-4.6633874998646991
 20
58.856356378535558
 30
0.0
 11
-1.4509483188405501
 21
62.06879555955971
 31
0.0
  0
LINE
  5
1CC1
  8
0
 62
     0
 10
-4.597789195854193
 20
60.044486697679702
 30
0.0
 11
-1.516165217102019
 21
63.126110676431878
 31
0.0
  0
LINE
  5
1CC2
  8
0
 62
     0
 10
-3.5000000000046678
 20
62.264807908662881
 30
0.0
 11
-2.2648079091124611
 21
63.499999999555087
 31
0.0
  0
LINE
  5
1CC3
  8
0
 62
     0
 10
-4.6590892405489841
 20
61.10571866811857
 30
0.0
 11
-3.7648079087590052
 21
61.999999999908539
 31
0.0
  0
LINE
  5
1CC4
  8
0
 62
     0
 10
-4.7489085777416991
 20
58.268652456134468
 30
0.0
 11
-4.4802561215189911
 21
57.999999999911772
 31
0.0
  0
LINE
  5
1CC5
  8
0
 62
     0
 10
-4.6246326438278276
 20
59.266908537354247
 30
0.0
 11
-3.3577241063853478
 21
57.999999999911772
 31
0.0
  0
LINE
  5
1CC6
  8
0
 62
     0
 10
-4.60452155411443
 20
60.369329462774488
 30
0.0
 11
-2.2351920912517049
 21
57.999999999911772
 31
0.0
  0
LINE
  5
1CC7
  8
0
 62
     0
 10
-4.7294259547721671
 20
61.616765878565872
 30
0.0
 11
-1.1126600761180601
 21
57.999999999911758
 31
0.0
  0
LINE
  5
1CC8
  8
0
 62
     0
 10
-3.9901280609826868
 20
61.999999999910038
 30
0.0
 11
0.0098719390155839
 21
57.999999999911758
 31
0.0
  0
LINE
  5
1CC9
  8
0
 62
     0
 10
-3.5000000000096869
 20
62.632403954070682
 30
0.0
 11
1.132403954149227
 21
57.999999999911758
 31
0.0
  0
LINE
  5
1CCA
  8
0
 62
     0
 10
-3.202307564623148
 20
63.457243533817788
 30
0.0
 11
0.4879591433222972
 21
59.766976825872341
 31
0.0
  0
LINE
  5
1CCB
  8
0
 62
     0
 10
-0.6225320150996537
 20
61.999999999427928
 30
0.0
 11
0.805470743544479
 21
60.571997240783801
 31
0.0
  0
LINE
  5
1CCC
  8
0
 62
     0
 10
-2.1225320151584892
 20
63.499999999486768
 30
0.0
 11
-1.500000000003789
 21
62.877467984332057
 31
0.0
  0
LINE
  5
1CCD
  8
0
 62
     0
 10
0.2550311307654356
 20
62.244968868696489
 30
0.0
 11
0.5651658211651141
 21
61.934834178296811
 31
0.0
  0
ENDBLK
  5
1CCF
  8
0
  0
BLOCK
  8
0
  2
*X60
 70
     1
 10
0.0
 20
0.0
 30
0.0
  3
*X60
  1

  0
LINE
  5
1D06
  8
0
 62
     0
 10
24.620560742181041
 20
127.2669053782963
 30
0.0
 11
24.46616276137593
 21
127.1125073974912
 31
0.0
  0
LINE
  5
1D07
  8
0
 62
     0
 10
25.476187378980661
 20
126.9999999999622
 30
0.0
 11
24.225857838974839
 21
125.74967045995641
 31
0.0
  0
LINE
  5
1D08
  8
0
 62
     0
 10
26.975591235823831
 20
128.4994038568054
 30
0.0
 11
26.500596143188972
 21
128.0244087641706
 31
0.0
  0
LINE
  5
1D09
  8
0
 62
     0
 10
28.09046701244964
 20
128.49174761829761
 30
0.0
 11
24.335606271117189
 21
124.7368868769651
 31
0.0
  0
LINE
  5
1D0A
  8
0
 62
     0
 10
24.425986512819211
 20
123.70473510353349
 30
0.0
 11
23.721251409374101
 21
123.00000000008841
 31
0.0
  0
LINE
  5
1D0B
  8
0
 62
     0
 10
28.500000000040021
 20
127.7787485907543
 30
0.0
 11
24.852498149104559
 21
124.13124673981891
 31
0.0
  0
LINE
  5
1D0C
  8
0
 62
     0
 10
28.843783424862721
 20
127.00000000044341
 30
0.0
 11
24.843783424507741
 21
123.00000000008841
 31
0.0
  0
LINE
  5
1D0D
  8
0
 62
     0
 10
29.760104462551109
 20
126.7937890229981
 30
0.0
 11
25.966315439641381
 21
123.00000000008841
 31
0.0
  0
LINE
  5
1D0E
  8
0
 62
     0
 10
29.611368701449461
 20
125.52252124676281
 30
0.0
 11
27.088847454775021
 21
123.00000000008841
 31
0.0
  0
LINE
  5
1D0F
  8
0
 62
     0
 10
29.615483700613929
 20
124.40410423079371
 30
0.0
 11
28.21137946990866
 21
123.00000000008841
 31
0.0
  0
LINE
  5
1D10
  8
0
 62
     0
 10
29.727700253708381
 20
123.3937887687544
 30
0.0
 11
29.333911485042311
 21
123.00000000008841
 31
0.0
  0
LINE
  5
1D11
  8
0
 62
     0
 10
28.500000000035008
 20
127.4111525453426
 30
0.0
 11
27.411152545217981
 21
128.5000000001597
 31
0.0
  0
LINE
  5
1D12
  8
0
 62
     0
 10
29.67454538446405
 20
126.23660716091359
 30
0.0
 11
28.91115254493382
 21
127.0000000004438
 31
0.0
  0
LINE
  5
1D13
  8
0
 62
     0
 10
29.599481288362188
 20
125.1891392418818
 30
0.0
 11
26.556923721349971
 21
128.23169680889399
 31
0.0
  0
LINE
  5
1D14
  8
0
 62
     0
 10
29.645867209331751
 20
124.02022130577861
 30
0.0
 11
26.497515438621772
 21
127.1685730764886
 31
0.0
  0
LINE
  5
1D15
  8
0
 62
     0
 10
29.543556499888329
 20
123.00000000008841
 30
0.0
 11
25.543556500014471
 21
126.9999999999622
 31
0.0
  0
LINE
  5
1D16
  8
0
 62
     0
 10
28.421024484754689
 20
123.00000000008841
 30
0.0
 11
24.442532269022159
 21
126.97849221582091
 31
0.0
  0
LINE
  5
1D17
  8
0
 62
     0
 10
27.298492469621038
 20
123.00000000008841
 30
0.0
 11
24.274268950889962
 21
126.0242235188195
 31
0.0
  0
LINE
  5
1D18
  8
0
 62
     0
 10
24.41414566650009
 20
124.7618147880757
 30
0.0
 11
24.106005632757771
 21
125.069954821818
 31
0.0
  0
LINE
  5
1D19
  8
0
 62
     0
 10
26.175960454487392
 20
123.00000000008841
 30
0.0
 11
24.844876863030439
 21
124.33108359154529
 31
0.0
  0
LINE
  5
1D1A
  8
0
 62
     0
 10
25.053428439353741
 20
123.00000000008841
 30
0.0
 11
24.369318724205151
 21
123.684109715237
 31
0.0
  0
LINE
  5
1D1B
  8
0
 62
     0
 10
23.930896424220101
 20
123.00000000008841
 30
0.0
 11
23.546330079040612
 21
123.3845663452679
 31
0.0
  0
ENDBLK
  5
1D1D
  8
0
  0
BLOCK
  8
0
  2
*X61
 70
     1
 10
0.0
 20
0.0
 30
0.0
  3
*X61
  1

  0
LINE
  5
1D1F
  8
0
 62
     0
 10
23.784551787715021
 20
95.000000000088235
 30
0.0
 11
23.439036948293619
 21
94.654485160666837
 31
0.0
  0
LINE
  5
1D20
  8
0
 62
     0
 10
24.907083802848661
 20
95.000000000088235
 30
0.0
 11
24.262025593449469
 21
94.354941790689026
 31
0.0
  0
LINE
  5
1D21
  8
0
 62
     0
 10
24.298861242213629
 20
93.26924542431955
 30
0.0
 11
24.084974138699199
 21
93.055358320805126
 31
0.0
  0
LINE
  5
1D22
  8
0
 62
     0
 10
26.029615817982311
 20
95.000000000088235
 30
0.0
 11
24.857509674953349
 21
93.827893857059266
 31
0.0
  0
LINE
  5
1D23
  8
0
 62
     0
 10
27.152147833115961
 20
95.000000000088235
 30
0.0
 11
24.25233244126499
 21
92.100184608237271
 31
0.0
  0
LINE
  5
1D24
  8
0
 62
     0
 10
28.274679848249601
 20
95.000000000088235
 30
0.0
 11
24.42059575938654
 21
91.145915911225174
 31
0.0
  0
LINE
  5
1D25
  8
0
 62
     0
 10
29.397211863383241
 20
95.000000000088235
 30
0.0
 11
25.397211863867071
 21
91.000000000572072
 31
0.0
  0
LINE
  5
1D26
  8
0
 62
     0
 10
29.66338749989308
 20
94.143643621464435
 30
0.0
 11
26.450948318868939
 21
90.931204440440283
 31
0.0
  0
LINE
  5
1D27
  8
0
 62
     0
 10
29.59778919588258
 20
92.955513302320284
 30
0.0
 11
26.516165217130411
 21
89.873889323568136
 31
0.0
  0
LINE
  5
1D28
  8
0
 62
     0
 10
28.500000000033079
 20
90.735192091337126
 30
0.0
 11
27.264807909140849
 21
89.500000000444885
 31
0.0
  0
LINE
  5
1D29
  8
0
 62
     0
 10
29.65908924057738
 20
91.894281331881416
 30
0.0
 11
28.76480790878739
 21
91.000000000091447
 31
0.0
  0
LINE
  5
1D2A
  8
0
 62
     0
 10
29.748908577770081
 20
94.731347543865525
 30
0.0
 11
29.480256121547381
 21
95.000000000088235
 31
0.0
  0
LINE
  5
1D2B
  8
0
 62
     0
 10
29.624632643856209
 20
93.73309146264576
 30
0.0
 11
28.357724106413741
 21
95.000000000088235
 31
0.0
  0
LINE
  5
1D2C
  8
0
 62
     0
 10
29.604521554142821
 20
92.630670537225512
 30
0.0
 11
27.235192091280091
 21
95.000000000088235
 31
0.0
  0
LINE
  5
1D2D
  8
0
 62
     0
 10
29.729425954800561
 20
91.383234121434114
 30
0.0
 11
26.112660076146451
 21
95.000000000088235
 31
0.0
  0
LINE
  5
1D2E
  8
0
 62
     0
 10
28.990128061011081
 20
91.000000000089955
 30
0.0
 11
24.9901280610128
 21
95.000000000088235
 31
0.0
  0
LINE
  5
1D2F
  8
0
 62
     0
 10
28.500000000038071
 20
90.367596045929332
 30
0.0
 11
23.867596045879161
 21
95.000000000088235
 31
0.0
  0
LINE
  5
1D30
  8
0
 62
     0
 10
28.20230756465153
 20
89.542756466182212
 30
0.0
 11
24.51204085670609
 21
93.233023174127666
 31
0.0
  0
LINE
  5
1D31
  8
0
 62
     0
 10
25.62253201512803
 20
91.000000000572072
 30
0.0
 11
24.1945292564839
 21
92.428002759216227
 31
0.0
  0
LINE
  5
1D32
  8
0
 62
     0
 10
27.12253201518687
 20
89.500000000513225
 30
0.0
 11
26.50000000003217
 21
90.122532015667943
 31
0.0
  0
LINE
  5
1D33
  8
0
 62
     0
 10
24.744968869262959
 20
90.755031131303497
 30
0.0
 11
24.434834178863269
 21
91.065165821703204
 31
0.0
  0
ENDBLK
  5
1D35
  8
0
  0
BLOCK
  8
0
  2
*U62
 70
     1
 10
0.0
 20
0.0
 30
0.0
  3
*U62
  1

  0
TEXT
  5
1E85
  8
SAPA_MATT
 62
     2
 10
10.14999999994739
 20
182.50000000092049
 30
0.0
 40
3.5
  1
38
  7
ISO
  0
ENDBLK
  5
1E87
  8
0
  0
BLOCK
  8
0
  2
*U63
 70
     1
 10
0.0
 20
0.0
 30
0.0
  3
*U63
  1

  0
TEXT
  5
1E89
  8
SAPA_MATT
 62
     2
 10
-57.000000000000171
 20
73.174999999999557
 30
0.0
 40
3.5
  1
170
 50
90.0
  7
ISO
  0
ENDBLK
  5
1E8B
  8
0
  0
BLOCK
  8
0
  2
*U64
 70
     1
 10
0.0
 20
0.0
 30
0.0
  3
*U64
  1

  0
TEXT
  5
1E8D
  8
SAPA_MATT
 62
     2
 10
-45.000000000000199
 20
111.87500000015341
 30
0.0
 40
3.5
  1
94
 50
90.0
  7
ISO
  0
ENDBLK
  5
1E8F
  8
0
  0
ENDSEC
  0
SECTION
  2
ENTITIES
  0
TEXT
  5
722
  8
SAPA_ARTIKELNR
 10
-22.01441125410442
 20
24.258854072381752
 30
0.0000000048844772
 40
3.5
  1
D8V001
  7
ISO
  0
TEXT
  5
1025
  8
SAPA_ARTIKELNR
 10
32.365241330364697
 20
125.9421356243017
 30
0.0000000048844772
 40
3.5
  1
D8V001
  7
ISO
  0
TEXT
  5
1026
  8
SAPA_ARTIKELNR
 10
4.6185307842603001
 20
-13.54246934386614
 30
0.0000000048844772
 40
3.5
  1
D8V013
  7
ISO
  0
TEXT
  5
1028
  8
SAPA_ARTIKELNR
 10
4.6185307842603001
 20
163.1570294930317
 30
0.0000000048844772
 40
3.5
  1
D8V013
  7
ISO
  0
LINE
  5
1481
  8
SAPA_PROFIL
 62
     4
 10
22.19999999828282
 20
46.799999998988739
 30
0.0
 11
27.7999999987683
 21
46.799999998824298
 31
0.0
  0
ARC
  5
1482
  8
SAPA_PROFIL
 62
     4
 10
22.199999998268279
 20
46.299999998988739
 30
0.0
 40
0.4999999999999965
 50
89.999999998332882
 51
179.99999999833329
  0
LINE
  5
1483
  8
SAPA_PROFIL
 62
     4
 10
21.699999998140949
 20
41.699999998997463
 30
0.0
 11
21.699999998268279
 21
46.29999999900329
 31
0.0
  0
ARC
  5
1484
  8
SAPA_PROFIL
 62
     4
 10
22.199999998140939
 20
41.699999998982911
 30
0.0
 40
0.4999999999999929
 50
179.99999999833159
 51
269.9999999983321
  0
LINE
  5
1485
  8
SAPA_PROFIL
 62
     4
 10
27.799999998612432
 20
41.199999998830123
 30
0.0
 11
22.19999999812639
 21
41.199999998982918
 31
0.0
  0
ARC
  5
1486
  8
SAPA_PROFIL
 62
     4
 10
27.799999998602519
 20
40.899999998828442
 30
0.0
 40
0.3000000000016811
 50
359.99999999809882
 51
89.999999998106929
  0
LINE
  5
1487
  8
SAPA_PROFIL
 62
     4
 10
28.099999998553489
 20
39.299999998821392
 30
0.0
 11
28.099999998604201
 21
40.899999998818487
 31
0.0
  0
ARC
  5
1488
  8
SAPA_PROFIL
 62
     4
 10
27.799999998551279
 20
39.299999998830891
 30
0.0
 40
0.300000000002214
 50
269.99999999819312
 51
359.99999999818698
  0
LINE
  5
1489
  8
SAPA_PROFIL
 62
     4
 10
22.39999999797978
 20
38.999999998978552
 30
0.0
 11
27.799999998541821
 21
38.99999999882867
 31
0.0
  0
ARC
  5
148A
  8
SAPA_PROFIL
 62
     4
 10
22.399999997921569
 20
36.999999998978552
 30
0.0
 40
1.999999999999996
 50
89.999999998332555
 51
180.0
  0
LINE
  5
148B
  8
SAPA_PROFIL
 62
     4
 10
20.399999997964319
 20
33.725529357089641
 30
0.0
 11
20.399999997921579
 21
36.999999998978552
 31
0.0
  0
ARC
  5
148C
  8
SAPA_PROFIL
 62
     4
 10
22.39999999794361
 20
33.725529357093208
 30
0.0
 40
1.9999999999792939
 50
180.0000000001022
 51
199.99999999831959
  0
LINE
  5
148D
  8
SAPA_PROFIL
 62
     4
 10
23.227893595914921
 20
25.603301590036519
 30
0.0
 11
20.520614756371192
 21
33.04148907050407
 31
0.0
  0
ARC
  5
148E
  8
SAPA_PROFIL
 62
     4
 10
22.94598580967309
 20
25.500695547045389
 30
0.0
 40
0.3000000000034479
 50
289.99999999842998
 51
19.999999998425739
  0
LINE
  5
148F
  8
SAPA_PROFIL
 62
     4
 10
19.96840402652391
 20
24.097691076237339
 30
0.0
 11
23.048591852664241
 21
25.218787760803561
 31
0.0
  0
ARC
  5
1490
  8
SAPA_PROFIL
 62
     4
 10
19.89999999786199
 20
24.285629600401069
 30
0.0
 40
0.2000000000050477
 50
179.99999999861171
 51
289.99999999849263
  0
LINE
  5
1491
  8
SAPA_PROFIL
 62
     4
 10
19.699999997863539
 20
24.399999999423841
 30
0.0
 11
19.699999997856949
 21
24.285629600405908
 31
0.0
  0
ARC
  5
1492
  8
SAPA_PROFIL
 62
     4
 10
19.3999999978628
 20
24.399999999430371
 30
0.0
 40
0.3000000000007432
 50
359.99999999875291
 51
89.999999997916944
  0
LINE
  5
1493
  8
SAPA_PROFIL
 62
     4
 10
18.49999999796195
 20
24.699999999470421
 30
0.0
 11
19.39999999787371
 21
24.69999999943111
 31
0.0
  0
ARC
  5
1494
  8
SAPA_PROFIL
 62
     4
 10
18.499999997969791
 20
24.999999999469122
 30
0.0
 40
0.2999999999986969
 50
180.00000000058751
 51
269.9999999985032
  0
LINE
  5
1495
  8
SAPA_PROFIL
 62
     4
 10
18.199999997968131
 20
25.499999999466041
 30
0.0
 11
18.199999997971091
 21
24.999999999466041
 31
0.0
  0
ARC
  5
1496
  8
SAPA_PROFIL
 62
     4
 10
18.499999997969582
 20
25.499999999464588
 30
0.0
 40
0.3000000000014431
 50
89.999999997635356
 51
179.9999999997238
  0
LINE
  5
1497
  8
SAPA_PROFIL
 62
     4
 10
21.376376419491081
 20
25.799999999359809
 30
0.0
 11
18.499999997981959
 21
25.799999999466039
 31
0.0
  0
ARC
  5
1498
  8
SAPA_PROFIL
 62
     4
 10
21.376376419512969
 20
26.09999999934983
 30
0.0
 40
0.2999999999900217
 50
269.999999995819
 51
289.99999999611839
  0
LINE
  5
1499
  8
SAPA_PROFIL
 62
     4
 10
21.638707812152589
 20
25.876227486046361
 30
0.0
 11
21.478982462488158
 21
25.81809221311649
 31
0.0
  0
ARC
  5
149A
  8
SAPA_PROFIL
 62
     4
 10
21.536101769166301
 20
26.15813527228584
 30
0.0
 40
0.2999999999995738
 50
289.99999999771012
 51
19.99999999771444
  0
LINE
  5
149B
  8
SAPA_PROFIL
 62
     4
 10
20.929243478850498
 20
28.70260604202204
 30
0.0
 11
21.818009555405769
 21
26.260741315272139
 31
0.0
  0
ARC
  5
149C
  8
SAPA_PROFIL
 62
     4
 10
20.647335692614881
 20
28.599999999030171
 30
0.0
 40
0.2999999999978549
 50
19.99999999896384
 51
89.999999999083997
  0
LINE
  5
149D
  8
SAPA_PROFIL
 62
     4
 10
18.49999999790283
 20
28.899999999096419
 30
0.0
 11
20.647335692619681
 21
28.899999999028029
 31
0.0
  0
ARC
  5
149E
  8
SAPA_PROFIL
 62
     4
 10
18.499999997912749
 20
29.199999999098111
 30
0.0
 40
0.3000000000016882
 50
179.99999999809739
 51
269.99999999810558
  0
LINE
  5
149F
  8
SAPA_PROFIL
 62
     4
 10
18.19999999792266
 20
29.699999999106609
 30
0.0
 11
18.19999999791106
 21
29.199999999108069
 31
0.0
  0
ARC
  5
14A0
  8
SAPA_PROFIL
 62
     4
 10
18.499999997922291
 20
29.69999999909243
 30
0.0
 40
0.2999999999996277
 50
89.999999997701181
 51
179.9999999972913
  0
LINE
  5
14A1
  8
SAPA_PROFIL
 62
     4
 10
20.028586294393921
 20
29.999999999051312
 30
0.0
 11
18.499999997934321
 21
29.999999999092051
 31
0.0
  0
ARC
  5
14A2
  8
SAPA_PROFIL
 62
     4
 10
20.02858629440437
 20
30.29999999904928
 30
0.0
 40
0.2999999999979632
 50
269.9999999980032
 51
19.999999997887041
  0
LINE
  5
14A3
  8
SAPA_PROFIL
 62
     4
 10
18.392951832318559
 20
35.67101007064494
 30
0.0
 11
20.31049408064202
 21
30.402606042035881
 31
0.0
  0
ARC
  5
14A4
  8
SAPA_PROFIL
 62
     4
 10
17.923105521923588
 20
35.49999999899596
 30
0.0
 40
0.4999999999971508
 50
19.99999999843007
 51
89.999999998549868
  0
LINE
  5
14A5
  8
SAPA_PROFIL
 62
     4
 10
16.999999997978321
 20
35.999999999022208
 30
0.0
 11
17.92310552193625
 21
35.999999998993097
 31
0.0
  0
ARC
  5
14A6
  8
SAPA_PROFIL
 62
     4
 10
16.99999999796195
 20
35.499999999024027
 30
0.0
 40
0.499999999998181
 50
89.999999998124025
 51
179.99999999854089
  0
LINE
  5
14A7
  8
SAPA_PROFIL
 62
     4
 10
16.49999999791466
 20
33.799999999032387
 30
0.0
 11
16.499999997963769
 21
35.49999999903676
 31
0.0
  0
ARC
  5
14A8
  8
SAPA_PROFIL
 62
     4
 10
15.99999999791466
 20
33.799999999054222
 30
0.0
 40
0.5
 50
269.99999999749889
 51
359.99999999749872
  0
LINE
  5
14A9
  8
SAPA_PROFIL
 62
     4
 10
15.29999999788846
 20
33.29999999907605
 30
0.0
 11
15.99999999789283
 21
33.299999999054222
 31
0.0
  0
ARC
  5
14AA
  8
SAPA_PROFIL
 62
     4
 10
15.29999999790302
 20
33.79999999907605
 30
0.0
 40
0.5
 50
179.99999999833241
 51
269.9999999983325
  0
LINE
  5
14AB
  8
SAPA_PROFIL
 62
     4
 10
14.799999998010341
 20
37.249999999204107
 30
0.0
 11
14.79999999790301
 21
33.799999999090602
 31
0.0
  0
ARC
  5
14AC
  8
SAPA_PROFIL
 62
     4
 10
15.79999999801397
 20
37.249999999171372
 30
0.0
 40
1.0000000000036371
 50
89.999999998540915
 51
179.999999998124
  0
LINE
  5
14AD
  8
SAPA_PROFIL
 62
     4
 10
16.299999998039439
 20
38.249999999160451
 30
0.0
 11
15.799999998039439
 21
38.249999999175003
 31
0.0
  0
ARC
  5
14AE
  8
SAPA_PROFIL
 62
     4
 10
16.299999998126751
 20
41.249999999160437
 30
0.0
 40
3.0
 50
269.9999999983325
 51
359.9999999983325
  0
LINE
  5
14AF
  8
SAPA_PROFIL
 62
     4
 10
19.299999998286829
 20
46.74999999721777
 30
0.0
 11
19.299999998126751
 21
41.24999999907314
 31
0.0
  0
ARC
  5
14B0
  8
SAPA_PROFIL
 62
     4
 10
16.299999998286829
 20
46.749999997305082
 30
0.0
 40
3.0
 50
359.9999999983325
 51
89.999999998332399
  0
LINE
  5
14B1
  8
SAPA_PROFIL
 62
     4
 10
15.79999999837414
 20
49.749999997319627
 30
0.0
 11
16.29999999837414
 21
49.749999997305082
 31
0.0
  0
ARC
  5
14B2
  8
SAPA_PROFIL
 62
     4
 10
15.79999999840688
 20
50.749999997323272
 30
0.0
 40
1.0000000000036371
 50
179.99999999854089
 51
269.999999998124
  0
LINE
  5
14B3
  8
SAPA_PROFIL
 62
     4
 10
14.799999998496009
 20
54.19999999745496
 30
0.0
 11
14.79999999840325
 21
50.749999997348738
 31
0.0
  0
ARC
  5
14B4
  8
SAPA_PROFIL
 62
     4
 10
15.299999998496009
 20
54.199999997440422
 30
0.0
 40
0.5
 50
89.999999998332484
 51
179.99999999833241
  0
LINE
  5
14B5
  8
SAPA_PROFIL
 62
     4
 10
15.99999999851493
 20
54.699999997425849
 30
0.0
 11
15.29999999851057
 21
54.699999997440408
 31
0.0
  0
ARC
  5
14B6
  8
SAPA_PROFIL
 62
     4
 10
15.99999999850766
 20
54.199999997425863
 30
0.0
 40
0.4999999999999929
 50
359.99999999916707
 51
89.999999999167045
  0
LINE
  5
14B7
  8
SAPA_PROFIL
 62
     4
 10
16.499999998458541
 20
52.499999997414221
 30
0.0
 11
16.499999998507661
 21
54.19999999741858
 31
0.0
  0
ARC
  5
14B8
  8
SAPA_PROFIL
 62
     4
 10
16.999999998456719
 20
52.49999999739785
 30
0.0
 40
0.499999999998181
 50
179.999999998124
 51
269.99999999854089
  0
LINE
  5
14B9
  8
SAPA_PROFIL
 62
     4
 10
17.899999998445448
 20
51.999999997370558
 30
0.0
 11
16.99999999844399
 21
51.999999997399669
 31
0.0
  0
ARC
  5
14BA
  8
SAPA_PROFIL
 62
     4
 10
17.89999999846
 20
52.499999997370558
 30
0.0
 40
0.5
 50
269.9999999983325
 51
359.99999999666488
  0
LINE
  5
14BB
  8
SAPA_PROFIL
 62
     4
 10
18.399999998721931
 20
57.000000005432327
 30
0.0
 11
18.39999999846
 21
52.499999997341462
 31
0.0
  0
LINE
  5
14BC
  8
SAPA_PROFIL
 62
     4
 10
18.200000006326398
 20
57.19999999806614
 30
0.0
 11
18.399999998721931
 21
57.000000005432327
 31
0.0
  0
LINE
  5
14BD
  8
SAPA_PROFIL
 62
     4
 10
18.19999999911229
 20
63.54999999959265
 30
0.0
 11
18.200000006326398
 21
57.19999999806614
 31
0.0
  0
ARC
  5
14BE
  8
SAPA_PROFIL
 62
     4
 10
21.89999999911619
 20
63.549999999367841
 30
0.0
 40
3.700000000003894
 50
107.45760312128
 51
179.99999999651891
  0
ARC
  5
14BF
  8
SAPA_PROFIL
 62
     4
 10
20.699999999276791
 20
67.365756805087415
 30
0.0
 40
0.2999999999973433
 50
287.45760312161269
 51
359.99999999852082
  0
LINE
  5
14C0
  8
SAPA_PROFIL
 62
     4
 10
20.999999999293461
 20
67.949999999601374
 30
0.0
 11
20.999999999274142
 21
67.365756805079684
 31
0.0
  0
ARC
  5
14C1
  8
SAPA_PROFIL
 62
     4
 10
21.299999999295679
 20
67.949999999591896
 30
0.0
 40
0.3000000000021998
 50
89.999999998194468
 51
179.99999999818971
  0
LINE
  5
14C2
  8
SAPA_PROFIL
 62
     4
 10
21.999999999273459
 20
68.249999999567905
 30
0.0
 11
21.299999999305129
 21
68.249999999594095
 31
0.0
  0
ARC
  5
14C3
  8
SAPA_PROFIL
 62
     4
 10
21.999999999270369
 20
67.949999999552134
 30
0.0
 40
0.3000000000157783
 50
359.99999998689373
 51
89.999999999409695
  0
LINE
  5
14C4
  8
SAPA_PROFIL
 62
     4
 10
22.29999999919087
 20
67.549999999396192
 30
0.0
 11
22.29999999928614
 21
67.949999999483509
 31
0.0
  0
ARC
  5
14C5
  8
SAPA_PROFIL
 62
     4
 10
22.599999999189031
 20
67.549999999350689
 30
0.0
 40
0.2999999999981639
 50
179.99999999130949
 51
269.99999999923602
  0
LINE
  5
14C6
  8
SAPA_PROFIL
 62
     4
 10
23.899999999223979
 20
67.249999999313246
 30
0.0
 11
22.59999999918503
 21
67.249999999352525
 31
0.0
  0
ARC
  5
14C7
  8
SAPA_PROFIL
 62
     4
 10
23.899999999282191
 20
69.249999999313246
 30
0.0
 40
1.999999999999992
 50
269.99999999833233
 51
359.99999999874888
  0
LINE
  5
14C8
  8
SAPA_PROFIL
 62
     4
 10
25.89999999945681
 20
75.749999999255053
 30
0.0
 11
25.899999999282191
 21
69.249999999269576
 31
0.0
  0
ARC
  5
14C9
  8
SAPA_PROFIL
 62
     4
 10
23.89999999945681
 20
75.74999999931326
 30
0.0
 40
2.0
 50
359.9999999983325
 51
89.999999998332484
  0
LINE
  5
14CA
  8
SAPA_PROFIL
 62
     4
 10
22.599999999468452
 20
77.74999999934964
 30
0.0
 11
23.899999999515021
 21
77.74999999931326
 31
0.0
  0
ARC
  5
14CB
  8
SAPA_PROFIL
 62
     4
 10
22.599999999458451
 20
77.449999999350581
 30
0.0
 40
0.2999999999990521
 50
89.999999998090644
 51
180.00000000559911
  0
LINE
  5
14CC
  8
SAPA_PROFIL
 62
     4
 10
22.29999999953284
 20
77.049999999228859
 30
0.0
 11
22.299999999459398
 21
77.449999999321264
 31
0.0
  0
ARC
  5
14CD
  8
SAPA_PROFIL
 62
     4
 10
21.99999999953425
 20
77.049999999176507
 30
0.0
 40
0.2999999999985903
 50
269.99999999791561
 51
0.0000000099986461
  0
LINE
  5
14CE
  8
SAPA_PROFIL
 62
     4
 10
18.024109143837592
 20
76.749999999269605
 30
0.0
 11
21.99999999952334
 21
76.749999999177916
 31
0.0
  0
ARC
  5
14CF
  8
SAPA_PROFIL
 62
     4
 10
18.024109143815782
 20
75.749999999269562
 30
0.0
 40
1.000000000000042
 50
89.99999999875017
 51
124.99999999882741
  0
LINE
  5
14D0
  8
SAPA_PROFIL
 62
     4
 10
16.589319602404569
 20
75.966124135423271
 30
0.0
 11
17.450532707481472
 21
76.569152043570327
 31
0.0
  0
ARC
  5
14D1
  8
SAPA_PROFIL
 62
     4
 10
16.015743166077819
 20
76.785276179725329
 30
0.0
 40
0.9999999999967664
 50
254.99999999781551
 51
304.9999999984301
  0
LINE
  5
14D2
  8
SAPA_PROFIL
 62
     4
 10
11.040108049255799
 20
77.083217410855397
 30
0.0
 11
15.75692412093931
 21
75.819350353449252
 31
0.0
  0
ARC
  5
14D3
  8
SAPA_PROFIL
 62
     4
 10
12.85184136517832
 20
83.844698194825796
 30
0.0
 40
7.0000000000017657
 50
209.9999999995751
 51
254.99999999826781
  0
LINE
  5
14D4
  8
SAPA_PROFIL
 62
     4
 10
5.8339745960267129
 20
81.99999999980075
 30
0.0
 11
6.7896635386597728
 21
80.344698194869878
 31
0.0
  0
ARC
  5
14D5
  8
SAPA_PROFIL
 62
     4
 10
6.6999999998137341
 20
82.499999999789551
 30
0.0
 40
0.9999999999966462
 50
89.9999999981884
 51
209.9999999993704
  0
LINE
  5
14D6
  8
SAPA_PROFIL
 62
     4
 10
8.2499999998337117
 20
83.499999999742542
 30
0.0
 11
6.6999999998453532
 21
83.499999999786183
 31
0.0
  0
ARC
  5
14D7
  8
SAPA_PROFIL
 62
     4
 10
8.2499999998209788
 20
82.999999999744375
 30
0.0
 40
0.499999999998181
 50
359.999999998124
 51
89.999999998540915
  0
LINE
  5
14D8
  8
SAPA_PROFIL
 62
     4
 10
8.7499999998046079
 20
82.499999999727976
 30
0.0
 11
8.7499999998191598
 21
82.99999999972799
 31
0.0
  0
LINE
  5
14D9
  8
SAPA_PROFIL
 62
     4
 10
7.499999999804607
 20
82.499999999749804
 30
0.0
 11
8.7499999998046079
 21
82.499999999727976
 31
0.0
  0
LINE
  5
14DA
  8
SAPA_PROFIL
 62
     4
 10
7.499999999777323
 20
81.299999999752728
 30
0.0
 11
7.499999999804607
 21
82.499999999749804
 31
0.0
  0
ARC
  5
14DB
  8
SAPA_PROFIL
 62
     4
 10
7.9999999997773301
 20
81.299999999738176
 30
0.0
 40
0.5
 50
179.99999999833079
 51
269.99999999874848
  0
LINE
  5
14DC
  8
SAPA_PROFIL
 62
     4
 10
8.7499999997627711
 20
80.799999999716348
 30
0.0
 11
7.9999999997664091
 21
80.799999999738162
 31
0.0
  0
ARC
  5
14DD
  8
SAPA_PROFIL
 62
     4
 10
10.99999999978945
 20
82.784313482955255
 30
0.0
 40
2.9999999999806439
 50
221.40962210808121
 51
318.59037788952111
  0
LINE
  5
14DE
  8
SAPA_PROFIL
 62
     4
 10
13.999999999762769
 20
80.799999999578105
 30
0.0
 11
13.249999999733101
 21
80.799999999622173
 31
0.0
  0
ARC
  5
14DF
  8
SAPA_PROFIL
 62
     4
 10
13.9999999997755
 20
81.299999999579924
 30
0.0
 40
0.500000000001819
 50
269.99999999854089
 51
359.999999998124
  0
LINE
  5
14E0
  8
SAPA_PROFIL
 62
     4
 10
14.49999999980461
 20
82.499999999560643
 30
0.0
 11
14.499999999777319
 21
81.299999999563553
 31
0.0
  0
LINE
  5
14E1
  8
SAPA_PROFIL
 62
     4
 10
13.24999999980461
 20
82.499999999597037
 30
0.0
 11
14.49999999980461
 21
82.499999999560643
 31
0.0
  0
LINE
  5
14E2
  8
SAPA_PROFIL
 62
     4
 10
13.24999999981916
 20
82.999999999597023
 30
0.0
 11
13.24999999980461
 21
82.499999999597037
 31
0.0
  0
ARC
  5
14E3
  8
SAPA_PROFIL
 62
     4
 10
13.74999999981916
 20
82.999999999582471
 30
0.0
 40
0.5
 50
89.999999998749345
 51
179.99999999833241
  0
LINE
  5
14E4
  8
SAPA_PROFIL
 62
     4
 10
16.749999999833712
 20
83.499999999509726
 30
0.0
 11
13.74999999983007
 21
83.499999999582485
 31
0.0
  0
ARC
  5
14E5
  8
SAPA_PROFIL
 62
     4
 10
16.749999999820979
 20
82.999999999511516
 30
0.0
 40
0.499999999998181
 50
359.999999998124
 51
89.999999998540915
  0
LINE
  5
14E6
  8
SAPA_PROFIL
 62
     4
 10
17.24999999981188
 20
82.499999999495145
 30
0.0
 11
17.24999999981916
 21
82.999999999495159
 31
0.0
  0
LINE
  5
14E7
  8
SAPA_PROFIL
 62
     4
 10
15.99999999981188
 20
82.499999999531525
 30
0.0
 11
17.24999999981188
 21
82.499999999495145
 31
0.0
  0
LINE
  5
14E8
  8
SAPA_PROFIL
 62
     4
 10
15.999999999777311
 20
81.299999999534464
 30
0.0
 11
15.99999999981188
 21
82.499999999531525
 31
0.0
  0
ARC
  5
14E9
  8
SAPA_PROFIL
 62
     4
 10
16.499999999777319
 20
81.299999999519883
 30
0.0
 40
0.5
 50
179.99999999833079
 51
269.99999999874848
  0
LINE
  5
14EA
  8
SAPA_PROFIL
 62
     4
 10
17.249999999748209
 20
80.79999999949807
 30
0.0
 11
16.499999999766398
 21
80.799999999519883
 31
0.0
  0
ARC
  5
14EB
  8
SAPA_PROFIL
 62
     4
 10
19.499999999802281
 20
82.784313482735257
 30
0.0
 40
3.0000000000000488
 50
221.40962210771059
 51
318.5903778891506
  0
LINE
  5
14EC
  8
SAPA_PROFIL
 62
     4
 10
22.49999999976276
 20
80.799999999359812
 30
0.0
 11
21.749999999747651
 21
80.799999999374805
 31
0.0
  0
ARC
  5
14ED
  8
SAPA_PROFIL
 62
     4
 10
22.49999999977549
 20
81.299999999361631
 30
0.0
 40
0.5000000000018261
 50
269.9999999985418
 51
359.99999999812559
  0
LINE
  5
14EE
  8
SAPA_PROFIL
 62
     4
 10
22.99999999981188
 20
82.49999999934235
 30
0.0
 11
22.999999999777319
 21
81.299999999345275
 31
0.0
  0
LINE
  5
14EF
  8
SAPA_PROFIL
 62
     4
 10
21.74999999981188
 20
82.499999999378744
 30
0.0
 11
22.99999999981188
 21
82.49999999934235
 31
0.0
  0
LINE
  5
14F0
  8
SAPA_PROFIL
 62
     4
 10
21.749999999826429
 20
82.999999999378744
 30
0.0
 11
21.74999999981188
 21
82.499999999378744
 31
0.0
  0
ARC
  5
14F1
  8
SAPA_PROFIL
 62
     4
 10
22.249999999826429
 20
82.999999999364192
 30
0.0
 40
0.5
 50
89.999999998748933
 51
179.99999999833241
  0
LINE
  5
14F2
  8
SAPA_PROFIL
 62
     4
 10
24.499999999819149
 20
83.499999999291447
 30
0.0
 11
22.24999999983735
 21
83.499999999364206
 31
0.0
  0
ARC
  5
14F3
  8
SAPA_PROFIL
 62
     4
 10
24.49999999981242
 20
83.199999999293837
 30
0.0
 40
0.2999999999975955
 50
359.99999999870272
 51
89.999999998713534
  0
LINE
  5
14F4
  8
SAPA_PROFIL
 62
     4
 10
24.799999999722932
 20
80.099999999311805
 30
0.0
 11
24.799999999810009
 21
83.199999999287044
 31
0.0
  0
ARC
  5
14F5
  8
SAPA_PROFIL
 62
     4
 10
25.099999999723671
 20
80.099999999305254
 30
0.0
 40
0.3000000000007361
 50
179.99999999874879
 51
269.999999998742
  0
LINE
  5
14F6
  8
SAPA_PROFIL
 62
     4
 10
26.499999999719108
 20
79.799999999265239
 30
0.0
 11
25.099999999717092
 21
79.799999999304518
 31
0.0
  0
ARC
  5
14F7
  8
SAPA_PROFIL
 62
     4
 10
26.49999999972971
 20
80.099999999262792
 30
0.0
 40
0.2999999999975493
 50
269.99999999797598
 51
359.9999999975492
  0
LINE
  5
14F8
  8
SAPA_PROFIL
 62
     4
 10
26.799999999763859
 20
81.249999999247777
 30
0.0
 11
26.799999999727252
 21
80.09999999924996
 31
0.0
  0
ARC
  5
14F9
  8
SAPA_PROFIL
 62
     4
 10
27.099999999766059
 20
81.249999999238284
 30
0.0
 40
0.300000000002214
 50
89.999999998192436
 51
179.99999999818419
  0
LINE
  5
14FA
  8
SAPA_PROFIL
 62
     4
 10
27.799999999787509
 20
81.549999999221583
 30
0.0
 11
27.09999999977553
 21
81.549999999240484
 31
0.0
  0
ARC
  5
14FB
  8
SAPA_PROFIL
 62
     4
 10
27.79999999978077
 20
81.249999999223988
 30
0.0
 40
0.2999999999975955
 50
359.99999999787218
 51
89.999999998713534
  0
LINE
  5
14FC
  8
SAPA_PROFIL
 62
     4
 10
28.099999999432072
 20
69.249999999196831
 30
0.0
 11
28.099999999778358
 21
81.249999999212847
 31
0.0
  0
ARC
  5
14FD
  8
SAPA_PROFIL
 62
     4
 10
23.899999999430641
 20
69.249999999314682
 30
0.0
 40
4.2000000000014381
 50
269.99999999839201
 51
359.9999999983923
  0
LINE
  5
14FE
  8
SAPA_PROFIL
 62
     4
 10
21.899999999167591
 20
65.049999999374364
 30
0.0
 11
23.899999999312762
 21
65.049999999313243
 31
0.0
  0
ARC
  5
14FF
  8
SAPA_PROFIL
 62
     4
 10
21.899999999123938
 20
63.549999999374371
 30
0.0
 40
1.5000000000000031
 50
89.999999998332626
 51
179.9999999966652
  0
LINE
  5
1500
  8
SAPA_PROFIL
 62
     4
 10
20.39999999835814
 20
50.999999999102243
 30
0.0
 11
20.399999999123931
 21
63.549999999461669
 31
0.0
  0
ARC
  5
1501
  8
SAPA_PROFIL
 62
     4
 10
22.399999998347219
 20
50.999999998967638
 30
0.0
 40
1.9999999999890861
 50
179.9999999961438
 51
269.99999999781141
  0
LINE
  5
1502
  8
SAPA_PROFIL
 62
     4
 10
27.799999998832529
 20
48.999999998825757
 30
0.0
 11
22.399999998270818
 21
48.999999998978552
 31
0.0
  0
ARC
  5
1503
  8
SAPA_PROFIL
 62
     4
 10
27.799999998822159
 20
48.699999998824531
 30
0.0
 40
0.3000000000012264
 50
359.9999999980119
 51
89.999999998020087
  0
LINE
  5
1504
  8
SAPA_PROFIL
 62
     4
 10
28.09999999877995
 20
47.099999998809729
 30
0.0
 11
28.099999998823389
 21
48.699999998814121
 31
0.0
  0
ARC
  5
1505
  8
SAPA_PROFIL
 62
     4
 10
27.799999998781391
 20
47.099999998822867
 30
0.0
 40
0.2999999999985618
 50
269.99999999749889
 51
359.99999999749218
  0
LINE
  5
1506
  8
SAPA_PROFIL
 62
     4
 10
2.8000000017455342
 20
106.2000000010112
 30
0.0
 11
-2.799999998739938
 21
106.2000000011757
 31
0.0
  0
ARC
  5
1507
  8
SAPA_PROFIL
 62
     4
 10
2.8000000017600821
 20
106.7000000010112
 30
0.0
 40
0.4999999999999965
 50
269.9999999983329
 51
359.9999999983325
  0
LINE
  5
1508
  8
SAPA_PROFIL
 62
     4
 10
3.3000000018874078
 20
111.3000000010025
 30
0.0
 11
3.300000001760079
 21
106.7000000009967
 31
0.0
  0
ARC
  5
1509
  8
SAPA_PROFIL
 62
     4
 10
2.8000000018874109
 20
111.300000001017
 30
0.0
 40
0.5
 50
359.9999999983325
 51
89.999999998332072
  0
LINE
  5
150A
  8
SAPA_PROFIL
 62
     4
 10
-2.7999999985840658
 20
111.80000000116981
 30
0.0
 11
2.8000000019019669
 21
111.8000000010171
 31
0.0
  0
ARC
  5
150B
  8
SAPA_PROFIL
 62
     4
 10
-2.7999999985741559
 20
112.10000000117149
 30
0.0
 40
0.3000000000016794
 50
179.99999999809739
 51
269.99999999810728
  0
LINE
  5
150C
  8
SAPA_PROFIL
 62
     4
 10
-3.0999999985251381
 20
113.70000000117859
 30
0.0
 11
-3.0999999985758349
 21
112.1000000011815
 31
0.0
  0
ARC
  5
150D
  8
SAPA_PROFIL
 62
     4
 10
-2.7999999985229209
 20
113.7000000011691
 30
0.0
 40
0.300000000002214
 50
89.999999998193005
 51
179.99999999818701
  0
LINE
  5
150E
  8
SAPA_PROFIL
 62
     4
 10
2.600000002048577
 20
114.00000000102141
 30
0.0
 11
-2.79999999851346
 21
114.0000000011713
 31
0.0
  0
ARC
  5
150F
  8
SAPA_PROFIL
 62
     4
 10
2.6000000021067811
 20
116.00000000102141
 30
0.0
 40
1.999999999999996
 50
269.9999999983325
 51
0.0
  0
LINE
  5
1510
  8
SAPA_PROFIL
 62
     4
 10
4.6000000020640393
 20
119.2744706429103
 30
0.0
 11
4.6000000021067784
 21
116.00000000102141
 31
0.0
  0
ARC
  5
1511
  8
SAPA_PROFIL
 62
     4
 10
2.6000000020847449
 20
119.27447064290681
 30
0.0
 40
1.999999999979293
 50
0.0000000001021849
 51
19.999999998319652
  0
LINE
  5
1512
  8
SAPA_PROFIL
 62
     4
 10
1.7721064041134329
 20
127.39669840996351
 30
0.0
 11
4.4793852436571662
 21
119.9585109294959
 31
0.0
  0
ARC
  5
1513
  8
SAPA_PROFIL
 62
     4
 10
2.0540141903552631
 20
127.4993044529546
 30
0.0
 40
0.3000000000034407
 50
109.9999999984302
 51
199.99999999842711
  0
LINE
  5
1514
  8
SAPA_PROFIL
 62
     4
 10
5.03159597350444
 20
128.9023089237626
 30
0.0
 11
1.9514081473641089
 21
127.78121223919641
 31
0.0
  0
ARC
  5
1515
  8
SAPA_PROFIL
 62
     4
 10
5.1000000021663556
 20
128.71437039959889
 30
0.0
 40
0.2000000000050486
 50
359.99999999861581
 51
109.99999999849101
  0
LINE
  5
1516
  8
SAPA_PROFIL
 62
     4
 10
5.3000000021648113
 20
128.6000000005761
 30
0.0
 11
5.3000000021714051
 21
128.71437039959409
 31
0.0
  0
ARC
  5
1517
  8
SAPA_PROFIL
 62
     4
 10
5.6000000021655474
 20
128.60000000056959
 30
0.0
 40
0.3000000000007219
 50
179.99999999875149
 51
269.99999999791828
  0
LINE
  5
1518
  8
SAPA_PROFIL
 62
     4
 10
6.500000002066403
 20
128.30000000052951
 30
0.0
 11
5.6000000021546468
 21
128.3000000005689
 31
0.0
  0
ARC
  5
1519
  8
SAPA_PROFIL
 62
     4
 10
6.5000000020585729
 20
128.0000000005308
 30
0.0
 40
0.2999999999986897
 50
0.000000000591668
 51
89.999999998504549
  0
LINE
  5
151A
  8
SAPA_PROFIL
 62
     4
 10
6.8000000020602194
 20
127.5000000005339
 30
0.0
 11
6.8000000020572626
 21
128.0000000005339
 31
0.0
  0
ARC
  5
151B
  8
SAPA_PROFIL
 62
     4
 10
6.5000000020587771
 20
127.50000000053539
 30
0.0
 40
0.3000000000014324
 50
269.9999999976352
 51
359.9999999997259
  0
LINE
  5
151C
  8
SAPA_PROFIL
 62
     4
 10
3.6236235805372732
 20
127.2000000006402
 30
0.0
 11
6.5000000020463951
 21
127.2000000005339
 31
0.0
  0
ARC
  5
151D
  8
SAPA_PROFIL
 62
     4
 10
3.62362358051538
 20
126.9000000006501
 30
0.0
 40
0.2999999999900346
 50
89.999999995818726
 51
109.9999999961172
  0
LINE
  5
151E
  8
SAPA_PROFIL
 62
     4
 10
3.3612921878757649
 20
127.1237725139536
 30
0.0
 11
3.521017537540192
 21
127.1819077868835
 31
0.0
  0
ARC
  5
151F
  8
SAPA_PROFIL
 62
     4
 10
3.4638982308620521
 20
126.8418647277141
 30
0.0
 40
0.2999999999995685
 50
109.9999999977091
 51
199.99999999771191
  0
LINE
  5
1520
  8
SAPA_PROFIL
 62
     4
 10
4.0707565211778594
 20
124.2973939579779
 30
0.0
 11
3.181990444622588
 21
126.7392586847278
 31
0.0
  0
ARC
  5
1521
  8
SAPA_PROFIL
 62
     4
 10
4.3526643074134723
 20
124.4000000009698
 30
0.0
 40
0.2999999999978513
 50
199.99999999896329
 51
269.9999999990842
  0
LINE
  5
1522
  8
SAPA_PROFIL
 62
     4
 10
6.5000000021255211
 20
124.10000000090351
 30
0.0
 11
4.352664307408677
 21
124.1000000009719
 31
0.0
  0
ARC
  5
1523
  8
SAPA_PROFIL
 62
     4
 10
6.500000002115601
 20
123.8000000009019
 30
0.0
 40
0.3000000000016882
 50
359.99999999809739
 51
89.999999998105579
  0
LINE
  5
1524
  8
SAPA_PROFIL
 62
     4
 10
6.8000000021056941
 20
123.30000000089341
 30
0.0
 11
6.8000000021172902
 21
123.8000000008919
 31
0.0
  0
ARC
  5
1525
  8
SAPA_PROFIL
 62
     4
 10
6.5000000021060638
 20
123.3000000009075
 30
0.0
 40
0.2999999999996277
 50
269.99999999770148
 51
359.99999999729141
  0
LINE
  5
1526
  8
SAPA_PROFIL
 62
     4
 10
4.9714137056344363
 20
123.0000000009487
 30
0.0
 11
6.500000002094029
 21
123.0000000009079
 31
0.0
  0
ARC
  5
1527
  8
SAPA_PROFIL
 62
     4
 10
4.9714137056239798
 20
122.70000000095069
 30
0.0
 40
0.2999999999979632
 50
89.999999998003119
 51
199.99999999788699
  0
LINE
  5
1528
  8
SAPA_PROFIL
 62
     4
 10
6.6070481677097952
 20
117.328989929355
 30
0.0
 11
4.6895059193863382
 21
122.5973939579641
 31
0.0
  0
ARC
  5
1529
  8
SAPA_PROFIL
 62
     4
 10
7.0768944781047587
 20
117.500000001004
 30
0.0
 40
0.4999999999971579
 50
199.99999999843081
 51
269.99999999854981
  0
LINE
  5
152A
  8
SAPA_PROFIL
 62
     4
 10
8.000000002050033
 20
117.00000000097781
 30
0.0
 11
7.076894478092103
 21
117.0000000010069
 31
0.0
  0
ARC
  5
152B
  8
SAPA_PROFIL
 62
     4
 10
8.0000000020664022
 20
117.500000000976
 30
0.0
 40
0.499999999998181
 50
269.999999998124
 51
359.99999999854089
  0
LINE
  5
152C
  8
SAPA_PROFIL
 62
     4
 10
8.5000000021136977
 20
119.20000000096761
 30
0.0
 11
8.5000000020645832
 21
117.5000000009632
 31
0.0
  0
ARC
  5
152D
  8
SAPA_PROFIL
 62
     4
 10
9.0000000021136977
 20
119.20000000094571
 30
0.0
 40
0.5
 50
89.999999997498705
 51
179.99999999749869
  0
LINE
  5
152E
  8
SAPA_PROFIL
 62
     4
 10
9.7000000021398911
 20
119.70000000092389
 30
0.0
 11
9.0000000021355255
 21
119.70000000094581
 31
0.0
  0
ARC
  5
152F
  8
SAPA_PROFIL
 62
     4
 10
9.7000000021253392
 20
119.20000000092389
 30
0.0
 40
0.5
 50
359.9999999983325
 51
89.999999998332484
  0
LINE
  5
1530
  8
SAPA_PROFIL
 62
     4
 10
10.200000002018021
 20
115.75000000079589
 30
0.0
 11
10.200000002125339
 21
119.2000000009094
 31
0.0
  0
ARC
  5
1531
  8
SAPA_PROFIL
 62
     4
 10
9.2000000020143808
 20
115.75000000082861
 30
0.0
 40
1.0000000000036371
 50
269.99999999854089
 51
359.999999998124
  0
LINE
  5
1532
  8
SAPA_PROFIL
 62
     4
 10
8.7000000019889132
 20
114.75000000083951
 30
0.0
 11
9.2000000019889132
 21
114.750000000825
 31
0.0
  0
ARC
  5
1533
  8
SAPA_PROFIL
 62
     4
 10
8.7000000019016035
 20
111.75000000083951
 30
0.0
 40
3.0
 50
89.999999998332484
 51
179.99999999833241
  0
LINE
  5
1534
  8
SAPA_PROFIL
 62
     4
 10
5.7000000017415253
 20
106.2500000027822
 30
0.0
 11
5.7000000019016026
 21
111.7500000009268
 31
0.0
  0
ARC
  5
1535
  8
SAPA_PROFIL
 62
     4
 10
8.7000000017415253
 20
106.2500000026949
 30
0.0
 40
3.0
 50
179.99999999833241
 51
269.9999999983325
  0
LINE
  5
1536
  8
SAPA_PROFIL
 62
     4
 10
9.2000000016542138
 20
103.2500000026803
 30
0.0
 11
8.7000000016542138
 21
103.2500000026949
 31
0.0
  0
ARC
  5
1537
  8
SAPA_PROFIL
 62
     4
 10
9.200000001621472
 20
102.2500000026767
 30
0.0
 40
1.0000000000036371
 50
359.99999999854089
 51
89.999999998124025
  0
LINE
  5
1538
  8
SAPA_PROFIL
 62
     4
 10
10.20000000153234
 20
98.800000002545033
 30
0.0
 11
10.20000000162511
 21
102.25000000265121
 31
0.0
  0
ARC
  5
1539
  8
SAPA_PROFIL
 62
     4
 10
9.7000000015323415
 20
98.800000002559585
 30
0.0
 40
0.5
 50
269.9999999983325
 51
359.9999999983325
  0
LINE
  5
153A
  8
SAPA_PROFIL
 62
     4
 10
9.0000000015134241
 20
98.300000002574151
 30
0.0
 11
9.7000000015177896
 21
98.300000002559585
 31
0.0
  0
ARC
  5
153B
  8
SAPA_PROFIL
 62
     4
 10
9.0000000015206911
 20
98.800000002574137
 30
0.0
 40
0.4999999999999929
 50
179.99999999916619
 51
269.99999999916707
  0
LINE
  5
153C
  8
SAPA_PROFIL
 62
     4
 10
8.5000000015698127
 20
100.50000000258579
 30
0.0
 11
8.5000000015207
 21
98.800000002581413
 31
0.0
  0
ARC
  5
153D
  8
SAPA_PROFIL
 62
     4
 10
8.0000000015716317
 20
100.50000000260211
 30
0.0
 40
0.499999999998181
 50
359.999999998124
 51
89.999999998540915
  0
LINE
  5
153E
  8
SAPA_PROFIL
 62
     4
 10
7.1000000015829086
 20
101.00000000262941
 30
0.0
 11
8.0000000015843646
 21
101.0000000026003
 31
0.0
  0
ARC
  5
153F
  8
SAPA_PROFIL
 62
     4
 10
7.1000000015683566
 20
100.50000000262941
 30
0.0
 40
0.5
 50
89.999999998332484
 51
179.99999999666491
  0
LINE
  5
1540
  8
SAPA_PROFIL
 62
     4
 10
6.6000000013064231
 20
95.999999994567673
 30
0.0
 11
6.6000000015683566
 21
100.5000000026585
 31
0.0
  0
LINE
  5
1541
  8
SAPA_PROFIL
 62
     4
 10
6.7999999937019551
 20
95.800000001933839
 30
0.0
 11
6.6000000013064231
 21
95.999999994567673
 31
0.0
  0
LINE
  5
1542
  8
SAPA_PROFIL
 62
     4
 10
6.800000000916067
 20
89.450000000407357
 30
0.0
 11
6.7999999937019551
 21
95.800000001933839
 31
0.0
  0
ARC
  5
1543
  8
SAPA_PROFIL
 62
     4
 10
3.1000000009121709
 20
89.450000000632144
 30
0.0
 40
3.700000000003894
 50
287.45760312127999
 51
359.99999999651891
  0
ARC
  5
1544
  8
SAPA_PROFIL
 62
     4
 10
4.3000000007515649
 20
85.634243194912571
 30
0.0
 40
0.2999999999973424
 50
107.45760312161249
 51
179.99999999852079
  0
LINE
  5
1545
  8
SAPA_PROFIL
 62
     4
 10
4.0000000007348957
 20
85.050000000398626
 30
0.0
 11
4.0000000007542234
 21
85.634243194920316
 31
0.0
  0
ARC
  5
1546
  8
SAPA_PROFIL
 62
     4
 10
3.7000000007326861
 20
85.050000000408104
 30
0.0
 40
0.3000000000021998
 50
269.99999999819448
 51
359.99999999818971
  0
LINE
  5
1547
  8
SAPA_PROFIL
 62
     4
 10
3.000000000754905
 20
84.750000000432095
 30
0.0
 11
3.7000000007232319
 21
84.750000000405905
 31
0.0
  0
ARC
  5
1548
  8
SAPA_PROFIL
 62
     4
 10
3.000000000757995
 20
85.050000000447866
 30
0.0
 40
0.3000000000157774
 50
179.9999999868937
 51
269.99999999940991
  0
LINE
  5
1549
  8
SAPA_PROFIL
 62
     4
 10
2.7000000008374871
 20
85.450000000603808
 30
0.0
 11
2.700000000742218
 21
85.050000000516505
 31
0.0
  0
ARC
  5
154A
  8
SAPA_PROFIL
 62
     4
 10
2.400000000839329
 20
85.450000000649311
 30
0.0
 40
0.2999999999981639
 50
359.99999999130949
 51
89.999999999235825
  0
LINE
  5
154B
  8
SAPA_PROFIL
 62
     4
 10
1.1000000008043811
 20
85.750000000686754
 30
0.0
 11
2.4000000008433311
 21
85.750000000647475
 31
0.0
  0
ARC
  5
154C
  8
SAPA_PROFIL
 62
     4
 10
1.100000000746167
 20
83.750000000686754
 30
0.0
 40
1.999999999999992
 50
89.999999998332257
 51
179.9999999987489
  0
LINE
  5
154D
  8
SAPA_PROFIL
 62
     4
 10
-0.8999999994284486
 20
77.250000000744933
 30
0.0
 11
-0.8999999992538256
 21
83.750000000730424
 31
0.0
  0
ARC
  5
154E
  8
SAPA_PROFIL
 62
     4
 10
1.1000000005715509
 20
77.25000000068674
 30
0.0
 40
2.0
 50
179.99999999833241
 51
269.9999999983325
  0
LINE
  5
154F
  8
SAPA_PROFIL
 62
     4
 10
2.4000000005599089
 20
75.25000000065036
 30
0.0
 11
1.100000000513343
 21
75.25000000068674
 31
0.0
  0
ARC
  5
1550
  8
SAPA_PROFIL
 62
     4
 10
2.4000000005699049
 20
75.550000000649419
 30
0.0
 40
0.2999999999990539
 50
269.99999999809103
 51
0.0000000055991333
  0
LINE
  5
1551
  8
SAPA_PROFIL
 62
     4
 10
2.7000000004955171
 20
75.950000000771141
 30
0.0
 11
2.7000000005689588
 21
75.550000000678736
 31
0.0
  0
ARC
  5
1552
  8
SAPA_PROFIL
 62
     4
 10
3.0000000004941061
 20
75.950000000823493
 30
0.0
 40
0.2999999999985903
 50
89.999999997915253
 51
180.00000000999859
  0
LINE
  5
1553
  8
SAPA_PROFIL
 62
     4
 10
6.9758908561907687
 20
76.250000000730395
 30
0.0
 11
3.0000000005050209
 21
76.250000000822084
 31
0.0
  0
ARC
  5
1554
  8
SAPA_PROFIL
 62
     4
 10
6.9758908562125841
 20
77.250000000730438
 30
0.0
 40
1.0000000000000411
 50
269.99999999875013
 51
304.99999999882738
  0
LINE
  5
1555
  8
SAPA_PROFIL
 62
     4
 10
8.4106803976237892
 20
77.033875864576714
 30
0.0
 11
7.5494672925468889
 21
76.430847956429673
 31
0.0
  0
ARC
  5
1556
  8
SAPA_PROFIL
 62
     4
 10
8.9842568339505355
 20
76.214723820274671
 30
0.0
 40
0.9999999999967659
 50
74.999999997815635
 51
124.9999999984301
  0
LINE
  5
1557
  8
SAPA_PROFIL
 62
     4
 10
13.95989195077256
 20
75.916782589144603
 30
0.0
 11
9.2430758790890444
 21
77.180649646550734
 31
0.0
  0
ARC
  5
1558
  8
SAPA_PROFIL
 62
     4
 10
12.148158634850031
 20
69.15530180517419
 30
0.0
 40
7.0000000000017657
 50
29.999999999575149
 51
74.999999998267754
  0
LINE
  5
1559
  8
SAPA_PROFIL
 62
     4
 10
19.16602540400164
 20
71.00000000019925
 30
0.0
 11
18.210336461368591
 21
72.655301805130122
 31
0.0
  0
ARC
  5
155A
  8
SAPA_PROFIL
 62
     4
 10
18.300000000214631
 20
70.500000000210449
 30
0.0
 40
0.9999999999966462
 50
269.9999999981884
 51
29.999999999370399
  0
LINE
  5
155B
  8
SAPA_PROFIL
 62
     4
 10
16.75000000019465
 20
69.500000000257444
 30
0.0
 11
18.300000000183012
 21
69.500000000213802
 31
0.0
  0
ARC
  5
155C
  8
SAPA_PROFIL
 62
     4
 10
16.750000000207379
 20
70.000000000255639
 30
0.0
 40
0.499999999998181
 50
179.999999998124
 51
269.99999999854089
  0
LINE
  5
155D
  8
SAPA_PROFIL
 62
     4
 10
16.25000000022375
 20
70.50000000027201
 30
0.0
 11
16.250000000209202
 21
70.00000000027201
 31
0.0
  0
LINE
  5
155E
  8
SAPA_PROFIL
 62
     4
 10
17.50000000022375
 20
70.500000000250182
 30
0.0
 11
16.25000000022375
 21
70.50000000027201
 31
0.0
  0
LINE
  5
155F
  8
SAPA_PROFIL
 62
     4
 10
17.500000000251038
 20
71.700000000247272
 30
0.0
 11
17.50000000022375
 21
70.500000000250182
 31
0.0
  0
ARC
  5
1560
  8
SAPA_PROFIL
 62
     4
 10
17.000000000251031
 20
71.700000000261838
 30
0.0
 40
0.5
 50
359.99999999833079
 51
89.999999998748535
  0
LINE
  5
1561
  8
SAPA_PROFIL
 62
     4
 10
16.25000000026559
 20
72.200000000283652
 30
0.0
 11
17.000000000261949
 21
72.200000000261838
 31
0.0
  0
ARC
  5
1562
  8
SAPA_PROFIL
 62
     4
 10
14.0000000002389
 20
70.21568651704473
 30
0.0
 40
2.9999999999806439
 50
41.40962210808118
 51
138.59037788952099
  0
LINE
  5
1563
  8
SAPA_PROFIL
 62
     4
 10
11.00000000026559
 20
72.200000000421895
 30
0.0
 11
11.750000000295261
 21
72.200000000377813
 31
0.0
  0
ARC
  5
1564
  8
SAPA_PROFIL
 62
     4
 10
11.000000000252861
 20
71.700000000420076
 30
0.0
 40
0.500000000001819
 50
89.999999998540915
 51
179.999999998124
  0
LINE
  5
1565
  8
SAPA_PROFIL
 62
     4
 10
10.50000000022375
 20
70.500000000439357
 30
0.0
 11
10.50000000025104
 21
71.700000000436447
 31
0.0
  0
LINE
  5
1566
  8
SAPA_PROFIL
 62
     4
 10
11.75000000022375
 20
70.500000000402977
 30
0.0
 11
10.50000000022375
 21
70.500000000439357
 31
0.0
  0
LINE
  5
1567
  8
SAPA_PROFIL
 62
     4
 10
11.7500000002092
 20
70.000000000402977
 30
0.0
 11
11.75000000022375
 21
70.500000000402977
 31
0.0
  0
ARC
  5
1568
  8
SAPA_PROFIL
 62
     4
 10
11.2500000002092
 20
70.000000000417529
 30
0.0
 40
0.5
 50
269.99999999874927
 51
359.9999999983325
  0
LINE
  5
1569
  8
SAPA_PROFIL
 62
     4
 10
8.2500000001946496
 20
69.500000000490289
 30
0.0
 11
11.250000000198289
 21
69.500000000417529
 31
0.0
  0
ARC
  5
156A
  8
SAPA_PROFIL
 62
     4
 10
8.2500000002073826
 20
70.00000000048847
 30
0.0
 40
0.499999999998181
 50
179.999999998124
 51
269.99999999854089
  0
LINE
  5
156B
  8
SAPA_PROFIL
 62
     4
 10
7.7500000002164766
 20
70.500000000504841
 30
0.0
 11
7.7500000002092007
 21
70.000000000504841
 31
0.0
  0
LINE
  5
156C
  8
SAPA_PROFIL
 62
     4
 10
9.0000000002164775
 20
70.500000000468461
 30
0.0
 11
7.7500000002164766
 21
70.500000000504841
 31
0.0
  0
LINE
  5
156D
  8
SAPA_PROFIL
 62
     4
 10
9.0000000002510454
 20
71.70000000046555
 30
0.0
 11
9.0000000002164775
 21
70.500000000468461
 31
0.0
  0
ARC
  5
156E
  8
SAPA_PROFIL
 62
     4
 10
8.5000000002510383
 20
71.700000000480117
 30
0.0
 40
0.5
 50
359.99999999833079
 51
89.999999998748535
  0
LINE
  5
156F
  8
SAPA_PROFIL
 62
     4
 10
7.7500000002801492
 20
72.20000000050193
 30
0.0
 11
8.5000000002619593
 21
72.200000000480117
 31
0.0
  0
ARC
  5
1570
  8
SAPA_PROFIL
 62
     4
 10
5.5000000002260752
 20
70.215686517264729
 30
0.0
 40
3.000000000000048
 50
41.409622107710547
 51
138.59037788915049
  0
LINE
  5
1571
  8
SAPA_PROFIL
 62
     4
 10
2.5000000002655969
 20
72.200000000640173
 30
0.0
 11
3.2500000002807101
 21
72.200000000625195
 31
0.0
  0
ARC
  5
1572
  8
SAPA_PROFIL
 62
     4
 10
2.5000000002528711
 20
71.700000000638354
 30
0.0
 40
0.5000000000018267
 50
89.999999998541782
 51
179.9999999981257
  0
LINE
  5
1573
  8
SAPA_PROFIL
 62
     4
 10
2.0000000002164842
 20
70.500000000657636
 30
0.0
 11
2.000000000251045
 21
71.700000000654725
 31
0.0
  0
LINE
  5
1574
  8
SAPA_PROFIL
 62
     4
 10
3.2500000002164842
 20
70.500000000621256
 30
0.0
 11
2.0000000002164842
 21
70.500000000657636
 31
0.0
  0
LINE
  5
1575
  8
SAPA_PROFIL
 62
     4
 10
3.2500000002019318
 20
70.000000000621256
 30
0.0
 11
3.2500000002164842
 21
70.500000000621256
 31
0.0
  0
ARC
  5
1576
  8
SAPA_PROFIL
 62
     4
 10
2.7500000002019291
 20
70.000000000635808
 30
0.0
 40
0.5
 50
269.99999999874888
 51
359.9999999983325
  0
LINE
  5
1577
  8
SAPA_PROFIL
 62
     4
 10
0.5000000002092087
 20
69.500000000708567
 30
0.0
 11
2.7500000001910112
 21
69.500000000635808
 31
0.0
  0
ARC
  5
1578
  8
SAPA_PROFIL
 62
     4
 10
0.5000000002159464
 20
69.800000000706163
 30
0.0
 40
0.2999999999975973
 50
179.99999999870261
 51
269.99999999871318
  0
LINE
  5
1579
  8
SAPA_PROFIL
 62
     4
 10
0.2000000003054332
 20
72.900000000688195
 30
0.0
 11
0.2000000002183491
 21
69.800000000712956
 31
0.0
  0
ARC
  5
157A
  8
SAPA_PROFIL
 62
     4
 10
-0.0999999996953083
 20
72.900000000694746
 30
0.0
 40
0.3000000000007361
 50
359.99999999874882
 51
89.999999998742368
  0
LINE
  5
157B
  8
SAPA_PROFIL
 62
     4
 10
-1.499999999690746
 20
73.200000000734761
 30
0.0
 11
-0.0999999996887233
 21
73.200000000695482
 31
0.0
  0
ARC
  5
157C
  8
SAPA_PROFIL
 62
     4
 10
-1.499999999701344
 20
72.900000000737208
 30
0.0
 40
0.2999999999975491
 50
89.999999997975934
 51
179.9999999975492
  0
LINE
  5
157D
  8
SAPA_PROFIL
 62
     4
 10
-1.7999999997354941
 20
71.750000000752223
 30
0.0
 11
-1.799999999698894
 21
72.90000000075004
 31
0.0
  0
ARC
  5
157E
  8
SAPA_PROFIL
 62
     4
 10
-2.0999999997377019
 20
71.75000000076173
 30
0.0
 40
0.300000000002214
 50
269.99999999819278
 51
359.99999999818431
  0
LINE
  5
157F
  8
SAPA_PROFIL
 62
     4
 10
-2.79999999975914
 20
71.450000000778417
 30
0.0
 11
-2.099999999747165
 21
71.450000000759516
 31
0.0
  0
ARC
  5
1580
  8
SAPA_PROFIL
 62
     4
 10
-2.7999999997524059
 20
71.750000000776012
 30
0.0
 40
0.2999999999975937
 50
179.9999999978721
 51
269.9999999987138
  0
LINE
  5
1581
  8
SAPA_PROFIL
 62
     4
 10
-3.09999999940371
 20
83.750000000803169
 30
0.0
 11
-3.0999999997500001
 21
71.750000000787153
 31
0.0
  0
ARC
  5
1582
  8
SAPA_PROFIL
 62
     4
 10
1.100000000597718
 20
83.750000000685304
 30
0.0
 40
4.2000000000014381
 50
89.999999998391985
 51
179.9999999983923
  0
LINE
  5
1583
  8
SAPA_PROFIL
 62
     4
 10
3.1000000008607702
 20
87.950000000625636
 30
0.0
 11
1.1000000007155919
 21
87.950000000686757
 31
0.0
  0
ARC
  5
1584
  8
SAPA_PROFIL
 62
     4
 10
3.100000000904426
 20
89.450000000625636
 30
0.0
 40
1.5
 50
269.9999999983325
 51
359.99999999666488
  0
LINE
  5
1585
  8
SAPA_PROFIL
 62
     4
 10
4.6000000016702201
 20
102.0000000008977
 30
0.0
 11
4.6000000009044264
 21
89.450000000538324
 31
0.0
  0
ARC
  5
1586
  8
SAPA_PROFIL
 62
     4
 10
2.600000001681134
 20
102.0000000010323
 30
0.0
 40
1.9999999999890861
 50
359.9999999961438
 51
89.999999997811358
  0
LINE
  5
1587
  8
SAPA_PROFIL
 62
     4
 10
-2.7999999988041711
 20
104.0000000011742
 30
0.0
 11
2.600000001757532
 21
104.00000000102141
 31
0.0
  0
ARC
  5
1588
  8
SAPA_PROFIL
 62
     4
 10
-2.7999999987938051
 20
104.30000000117541
 30
0.0
 40
0.3000000000012259
 50
179.99999999801051
 51
269.99999999802009
  0
LINE
  5
1589
  8
SAPA_PROFIL
 62
     4
 10
-3.0999999987515952
 20
105.90000000119019
 30
0.0
 11
-3.0999999987950311
 21
104.30000000118589
 31
0.0
  0
ARC
  5
158A
  8
SAPA_PROFIL
 62
     4
 10
-2.7999999987530351
 20
105.9000000011771
 30
0.0
 40
0.2999999999985618
 50
89.999999997498719
 51
179.99999999749221
  0
POLYLINE
  5
158B
  8
SAPA_PROFIL
 66
     1
 10
0.0
 20
0.0
 30
0.0
 70
     1
  0
VERTEX
  5
1A50
  8
SAPA_PROFIL
 10
28.600000000118371
 20
156.20000000091781
 30
0.0
 42
0.4142135623753183
  0
VERTEX
  5
1A51
  8
SAPA_PROFIL
 10
28.300000000115471
 20
156.50000000091981
 30
0.0
  0
VERTEX
  5
1A52
  8
SAPA_PROFIL
 10
-3.0999999998714278
 20
156.500000000923
 30
0.0
 42
0.414213562373095
  0
VERTEX
  5
1A53
  8
SAPA_PROFIL
 10
-3.3999999998743462
 20
156.20000000092011
 30
0.0
  0
VERTEX
  5
1A54
  8
SAPA_PROFIL
 10
-3.3999999998716239
 20
135.80000000091911
 30
0.0
 42
0.4142135623730949
  0
VERTEX
  5
1A55
  8
SAPA_PROFIL
 10
-3.0999999998714278
 20
135.5000000009189
 30
0.0
  0
VERTEX
  5
1A56
  8
SAPA_PROFIL
 10
28.30000000001359
 20
135.50000000091981
 30
0.0
 42
0.4142135623722209
  0
VERTEX
  5
1A57
  8
SAPA_PROFIL
 10
28.600000000016522
 20
135.80000000091911
 30
0.0
  0
SEQEND
  5
1A58
  8
SAPA_PROFIL
  0
POLYLINE
  5
158C
  8
SAPA_PROFIL
 66
     1
 10
0.0
 20
0.0
 30
0.0
 70
     1
  0
VERTEX
  5
1A59
  8
SAPA_PROFIL
 10
-1.7999999998612559
 20
71.250000001050836
 30
0.0
 42
0.4142135623730956
  0
VERTEX
  5
1A5A
  8
SAPA_PROFIL
 10
-1.4999999998656219
 20
71.550000001051046
 30
0.0
  0
VERTEX
  5
1A5B
  8
SAPA_PROFIL
 10
-1.4999999998656219
 20
72.700000001052018
 30
0.0
 42
-0.4142135623730883
  0
VERTEX
  5
1A5C
  8
SAPA_PROFIL
 10
-1.1999999998627251
 20
73.000000001054929
 30
0.0
  0
VERTEX
  5
1A5D
  8
SAPA_PROFIL
 10
-0.1999999998554322
 20
73.000000001059931
 30
0.0
 42
-0.4663076581619016
  0
VERTEX
  5
1A5E
  8
SAPA_PROFIL
 10
0.0954423260468467
 20
72.647905547753368
 30
0.0
  0
VERTEX
  5
1A5F
  8
SAPA_PROFIL
 10
-0.4159059180058336
 20
69.747905547750008
 30
0.0
 42
-0.3639702342658946
  0
VERTEX
  5
1A60
  8
SAPA_PROFIL
 10
-0.7113482439128945
 20
69.500000001047539
 30
0.0
  0
VERTEX
  5
1A61
  8
SAPA_PROFIL
 10
-5.3999999998670836
 20
69.500000001054957
 30
0.0
 42
-0.4142135623730951
  0
VERTEX
  5
1A62
  8
SAPA_PROFIL
 10
-6.3999999998670836
 20
70.500000001054957
 30
0.0
  0
VERTEX
  5
1A63
  8
SAPA_PROFIL
 10
-6.3999999998743462
 20
160.0000000009189
 30
0.0
 42
-0.4142135623732721
  0
VERTEX
  5
1A64
  8
SAPA_PROFIL
 10
-4.8999999998743462
 20
161.50000000091981
 30
0.0
  0
VERTEX
  5
1A65
  8
SAPA_PROFIL
 10
30.100000000132919
 20
161.50000000092069
 30
0.0
 42
-0.4142135623726523
  0
VERTEX
  5
1A66
  8
SAPA_PROFIL
 10
31.599999999769128
 20
160.00003383590311
 30
0.0
  0
VERTEX
  5
1A67
  8
SAPA_PROFIL
 10
31.600000000103819
 20
130.9500000000038
 30
0.0
 42
-0.4142135623784228
  0
VERTEX
  5
1A68
  8
SAPA_PROFIL
 10
31.400000000106729
 20
130.7500000000008
 30
0.0
  0
VERTEX
  5
1A69
  8
SAPA_PROFIL
 10
30.49848720704518
 20
130.74999999999989
 30
0.0
 42
-0.3981911081797195
  0
VERTEX
  5
1A6A
  8
SAPA_PROFIL
 10
30.29878976565314
 20
130.93900309581321
 30
0.0
 42
0.3661896282356551
  0
VERTEX
  5
1A6B
  8
SAPA_PROFIL
 10
29.58916408678812
 20
131.6900310552974
 30
0.0
 42
0.0279290488516223
  0
VERTEX
  5
1A6C
  8
SAPA_PROFIL
 10
15.10000000008927
 20
132.49999999999989
 30
0.0
  0
VERTEX
  5
1A6D
  8
SAPA_PROFIL
 10
10.000000000083441
 20
132.49999999999989
 30
0.0
 42
0.4142135623706084
  0
VERTEX
  5
1A6E
  8
SAPA_PROFIL
 10
7.0000000000980078
 20
129.5000000000108
 30
0.0
 42
-0.4142135623712333
  0
VERTEX
  5
1A6F
  8
SAPA_PROFIL
 10
6.0000000001052767
 20
128.49999999984121
 30
0.0
  0
VERTEX
  5
1A70
  8
SAPA_PROFIL
 10
5.9000000001358357
 20
128.5000000007561
 30
0.0
 42
-0.4142135623730986
  0
VERTEX
  5
1A71
  8
SAPA_PROFIL
 10
5.6000000001329191
 20
128.8000000007558
 30
0.0
  0
VERTEX
  5
1A72
  8
SAPA_PROFIL
 10
5.6000000000892696
 20
130.00000000000989
 30
0.0
 42
0.4142135623672388
  0
VERTEX
  5
1A73
  8
SAPA_PROFIL
 10
5.1000000000892696
 20
130.49999999999989
 30
0.0
  0
VERTEX
  5
1A74
  8
SAPA_PROFIL
 10
-2.3999999999325601
 20
130.49999999999989
 30
0.0
 42
0.4142135623733613
  0
VERTEX
  5
1A75
  8
SAPA_PROFIL
 10
-3.3999999999325601
 20
129.49999999999889
 30
0.0
  0
VERTEX
  5
1A76
  8
SAPA_PROFIL
 10
-3.3999999999107469
 20
71.550000001050051
 30
0.0
 42
0.4142135623783301
  0
VERTEX
  5
1A77
  8
SAPA_PROFIL
 10
-3.099999999900553
 20
71.250000000144894
 30
0.0
  0
SEQEND
  5
1A78
  8
SAPA_PROFIL
  0
POLYLINE
  5
158D
  8
SAPA_PROFIL
 62
     4
 66
     1
 10
0.0
 20
0.0
 30
0.0
 70
     1
  0
VERTEX
  5
158E
  8
SAPA_PROFIL
 62
     4
 10
10.35001200003418
 20
121.1437822176147
 30
0.0
 42
0.1316524975873979
  0
VERTEX
  5
158F
  8
SAPA_PROFIL
 62
     4
 10
10.242832323061741
 20
121.54378221761471
 30
0.0
  0
VERTEX
  5
1590
  8
SAPA_PROFIL
 62
     4
 10
9.2500120000323172
 20
123.26339745988869
 30
0.0
  0
VERTEX
  5
1591
  8
SAPA_PROFIL
 62
     4
 10
9.2500120000322266
 20
123.7000000002671
 30
0.0
 42
-0.4142135623730951
  0
VERTEX
  5
1592
  8
SAPA_PROFIL
 62
     4
 10
9.5000120000322195
 20
123.9500000002672
 30
0.0
  0
VERTEX
  5
1593
  8
SAPA_PROFIL
 62
     4
 10
13.100024000032279
 20
123.9500000002672
 30
0.0
 42
-0.4142135623731053
  0
VERTEX
  5
1594
  8
SAPA_PROFIL
 62
     4
 10
13.35002400003229
 20
123.7000000002672
 30
0.0
  0
VERTEX
  5
1595
  8
SAPA_PROFIL
 62
     4
 10
13.35001235729692
 20
123.2633980786887
 30
0.0
  0
VERTEX
  5
1596
  8
SAPA_PROFIL
 62
     4
 10
12.35719167700665
 20
121.5437822176213
 30
0.0
 42
0.1316524975874149
  0
VERTEX
  5
1597
  8
SAPA_PROFIL
 62
     4
 10
12.250012000034159
 20
121.14378221762129
 30
0.0
  0
VERTEX
  5
1598
  8
SAPA_PROFIL
 62
     4
 10
12.25001200003415
 20
96.856217782913021
 30
0.0
 42
0.1316524975874151
  0
VERTEX
  5
1599
  8
SAPA_PROFIL
 62
     4
 10
12.35719167700665
 20
96.456217782912987
 30
0.0
  0
VERTEX
  5
159A
  8
SAPA_PROFIL
 62
     4
 10
13.35001235729692
 20
94.736601921845576
 30
0.0
  0
VERTEX
  5
159B
  8
SAPA_PROFIL
 62
     4
 10
13.350024000032279
 20
94.300000000267119
 30
0.0
 42
-0.4142135623731054
  0
VERTEX
  5
159C
  8
SAPA_PROFIL
 62
     4
 10
13.100024000032271
 20
94.050000000267119
 30
0.0
  0
VERTEX
  5
159D
  8
SAPA_PROFIL
 62
     4
 10
9.5000120000322141
 20
94.050000000267175
 30
0.0
 42
-0.4142135623730953
  0
VERTEX
  5
159E
  8
SAPA_PROFIL
 62
     4
 10
9.2500120000322212
 20
94.300000000267147
 30
0.0
  0
VERTEX
  5
159F
  8
SAPA_PROFIL
 62
     4
 10
9.2500120000323136
 20
94.736602540645606
 30
0.0
  0
VERTEX
  5
15A0
  8
SAPA_PROFIL
 62
     4
 10
10.242832323061741
 20
96.456217782919666
 30
0.0
 42
0.1316524975873982
  0
VERTEX
  5
15A1
  8
SAPA_PROFIL
 62
     4
 10
10.35001200003417
 20
96.856217782919671
 30
0.0
  0
SEQEND
  5
15A2
  8
SAPA_PROFIL
 62
     4
  0
POLYLINE
  5
15A3
  8
SAPA_PROFIL
 66
     1
 10
0.0
 20
0.0
 30
0.0
 70
     1
  0
VERTEX
  5
1A79
  8
SAPA_PROFIL
 10
7.2505553499717186
 20
94.243869041220918
 30
0.0
  0
VERTEX
  5
1A7A
  8
SAPA_PROFIL
 10
7.2505553499753566
 20
95.200000000256296
 30
0.0
 42
0.2418327667557183
  0
VERTEX
  5
1A7B
  8
SAPA_PROFIL
 10
7.1252776749984106
 20
95.443869041222868
 30
0.0
 42
-0.2418327667535164
  0
VERTEX
  5
1A7C
  8
SAPA_PROFIL
 10
7.0000000000242011
 20
95.687738082181625
 30
0.0
  0
VERTEX
  5
1A7D
  8
SAPA_PROFIL
 10
7.0000000000326636
 20
97.911541959814429
 30
0.0
 42
-0.0874886635239214
  0
VERTEX
  5
1A7E
  8
SAPA_PROFIL
 10
7.0180922137964652
 20
98.014148002809833
 30
0.0
  0
VERTEX
  5
1A7F
  8
SAPA_PROFIL
 10
7.5376062814718097
 20
99.441501172855254
 30
0.0
 42
-0.4142135623698208
  0
VERTEX
  5
1A80
  8
SAPA_PROFIL
 10
7.9221201107139843
 20
99.620802916092643
 30
0.0
  0
VERTEX
  5
1A81
  8
SAPA_PROFIL
 10
8.1100586348626873
 20
99.552398887421589
 30
0.0
 42
-0.4142135623730019
  0
VERTEX
  5
1A82
  8
SAPA_PROFIL
 10
8.2893603781052079
 20
99.167885058199957
 30
0.0
  0
VERTEX
  5
1A83
  8
SAPA_PROFIL
 10
7.913138220438519
 20
98.134223175330817
 30
0.0
 42
0.41421356237947
  0
VERTEX
  5
1A84
  8
SAPA_PROFIL
 10
8.0924399636896691
 20
97.749709346099252
 30
0.0
  0
VERTEX
  5
1A85
  8
SAPA_PROFIL
 10
9.9026300430285907
 20
97.090854038863426
 30
0.0
 42
-0.3152987888800591
  0
VERTEX
  5
1A86
  8
SAPA_PROFIL
 10
10.100024000031921
 20
96.808946252627209
 30
0.0
  0
VERTEX
  5
1A87
  8
SAPA_PROFIL
 10
10.100024000031819
 20
96.389230484807896
 30
0.0
 42
-0.1316524975873855
  0
VERTEX
  5
1A88
  8
SAPA_PROFIL
 10
10.05983162116717
 20
96.239230484807976
 30
0.0
  0
VERTEX
  5
1A89
  8
SAPA_PROFIL
 10
9.200024000031874
 20
94.750000000267079
 30
0.0
  0
VERTEX
  5
1A8A
  8
SAPA_PROFIL
 10
9.2000120000322134
 20
94.300000000267119
 30
0.0
 42
0.4142135623731054
  0
VERTEX
  5
1A8B
  8
SAPA_PROFIL
 10
9.5000120000322177
 20
94.000000000267107
 30
0.0
  0
VERTEX
  5
1A8C
  8
SAPA_PROFIL
 10
13.100024000032271
 20
94.000000000267164
 30
0.0
 42
0.414213562373095
  0
VERTEX
  5
1A8D
  8
SAPA_PROFIL
 10
13.400024000032269
 20
94.300000000267175
 30
0.0
  0
VERTEX
  5
1A8E
  8
SAPA_PROFIL
 10
13.40002400003217
 20
94.750000000267164
 30
0.0
  0
VERTEX
  5
1A8F
  8
SAPA_PROFIL
 10
12.54019926246319
 20
96.239260131341339
 30
0.0
 42
-0.1316363093594254
  0
VERTEX
  5
1A90
  8
SAPA_PROFIL
 10
12.500006884206231
 20
96.389241036388086
 30
0.0
  0
VERTEX
  5
1A91
  8
SAPA_PROFIL
 10
12.499999834415419
 20
96.500000000273744
 30
0.0
  0
VERTEX
  5
1A92
  8
SAPA_PROFIL
 10
14.50000000002855
 20
96.500000000273744
 30
0.0
 42
-0.4142135623730951
  0
VERTEX
  5
1A93
  8
SAPA_PROFIL
 10
15.00000000002855
 20
96.000000000273758
 30
0.0
  0
VERTEX
  5
1A94
  8
SAPA_PROFIL
 10
15.00000000002855
 20
88.849999999995816
 30
0.0
 42
-0.4142135623730935
  0
VERTEX
  5
1A95
  8
SAPA_PROFIL
 10
14.700000000029281
 20
88.550000000000182
 30
0.0
  0
VERTEX
  5
1A96
  8
SAPA_PROFIL
 10
14.05000000002782
 20
88.549999999996544
 30
0.0
 42
0.4142135623730951
  0
VERTEX
  5
1A97
  8
SAPA_PROFIL
 10
13.75000000002855
 20
88.249999999997272
 30
0.0
  0
VERTEX
  5
1A98
  8
SAPA_PROFIL
 10
13.75000000002491
 20
87.550000000109321
 30
0.0
 42
0.4142135623730971
  0
VERTEX
  5
1A99
  8
SAPA_PROFIL
 10
14.05000000002782
 20
87.250000000113687
 30
0.0
  0
VERTEX
  5
1A9A
  8
SAPA_PROFIL
 10
25.950000000032912
 20
87.250000000095497
 30
0.0
 42
0.4142135623730881
  0
VERTEX
  5
1A9B
  8
SAPA_PROFIL
 10
26.25000000003218
 20
87.550000000094769
 30
0.0
  0
VERTEX
  5
1A9C
  8
SAPA_PROFIL
 10
26.250000000043109
 20
88.250000000572058
 30
0.0
 42
0.4142135623730968
  0
VERTEX
  5
1A9D
  8
SAPA_PROFIL
 10
25.950000000032912
 20
88.550000000582244
 30
0.0
  0
VERTEX
  5
1A9E
  8
SAPA_PROFIL
 10
25.300000000020539
 20
88.550000000567707
 30
0.0
 42
-0.4142135623517844
  0
VERTEX
  5
1A9F
  8
SAPA_PROFIL
 10
25.00000000003218
 20
88.850000000570617
 30
0.0
  0
VERTEX
  5
1AA0
  8
SAPA_PROFIL
 10
25.00000000003218
 20
90.800000000582244
 30
0.0
 42
-0.414213562373103
  0
VERTEX
  5
1AA1
  8
SAPA_PROFIL
 10
25.200000000032912
 20
91.000000000572072
 30
0.0
  0
VERTEX
  5
1AA2
  8
SAPA_PROFIL
 10
26.300000000031449
 20
91.000000000572072
 30
0.0
 42
-0.4142135623731049
  0
VERTEX
  5
1AA3
  8
SAPA_PROFIL
 10
26.50000000003218
 20
90.800000000582244
 30
0.0
  0
VERTEX
  5
1AA4
  8
SAPA_PROFIL
 10
26.50000000003218
 20
90.000000000572072
 30
0.0
 42
0.414213562373094
  0
VERTEX
  5
1AA5
  8
SAPA_PROFIL
 10
27.00000000003218
 20
89.500000000572058
 30
0.0
  0
VERTEX
  5
1AA6
  8
SAPA_PROFIL
 10
28.000000000043109
 20
89.500000000091873
 30
0.0
 42
0.4142135623730951
  0
VERTEX
  5
1AA7
  8
SAPA_PROFIL
 10
28.500000000043091
 20
90.000000000091887
 30
0.0
  0
VERTEX
  5
1AA8
  8
SAPA_PROFIL
 10
28.50000000003218
 20
90.800000000094798
 30
0.0
 42
-0.414213562373103
  0
VERTEX
  5
1AA9
  8
SAPA_PROFIL
 10
28.700000000032912
 20
91.000000000091873
 30
0.0
  0
VERTEX
  5
1AAA
  8
SAPA_PROFIL
 10
29.800000000031471
 20
91.000000000084626
 30
0.0
 42
-0.4142135623731049
  0
VERTEX
  5
1AAB
  8
SAPA_PROFIL
 10
30.000000000032198
 20
90.800000000094798
 30
0.0
  0
VERTEX
  5
1AAC
  8
SAPA_PROFIL
 10
30.000000000032198
 20
87.250000000593928
 30
0.0
 42
-0.3389652260127085
  0
VERTEX
  5
1AAD
  8
SAPA_PROFIL
 10
29.260513148829819
 20
86.284529701048925
 30
0.0
 42
-0.0274862826960608
  0
VERTEX
  5
1AAE
  8
SAPA_PROFIL
 10
14.999999999853941
 20
85.500000000613014
 30
0.0
  0
VERTEX
  5
1AAF
  8
SAPA_PROFIL
 10
10.00000000012678
 20
85.500000000455657
 30
0.0
 42
-0.4142135623816193
  0
VERTEX
  5
1AB0
  8
SAPA_PROFIL
 10
7.0000000000321929
 20
88.500000000455657
 30
0.0
  0
VERTEX
  5
1AB1
  8
SAPA_PROFIL
 10
7.0000000000321867
 20
93.756130959312031
 30
0.0
 42
-0.2418327667412822
  0
VERTEX
  5
1AB2
  8
SAPA_PROFIL
 10
7.1252776749957434
 20
94.000000000261622
 30
0.0
 42
0.2418327667543803
  0
SEQEND
  5
1AB3
  8
SAPA_PROFIL
  0
POLYLINE
  5
15A4
  8
SAPA_PROFIL
 66
     1
 10
0.0
 20
0.0
 30
0.0
 70
     1
  0
VERTEX
  5
1AB4
  8
SAPA_PROFIL
 10
7.2505553499716644
 20
123.7561309593134
 30
0.0
  0
VERTEX
  5
1AB5
  8
SAPA_PROFIL
 10
7.2505553499753024
 20
122.800000000278
 30
0.0
 42
-0.2418327667557183
  0
VERTEX
  5
1AB6
  8
SAPA_PROFIL
 10
7.1252776749983591
 20
122.5561309593115
 30
0.0
 42
0.2418327667535164
  0
VERTEX
  5
1AB7
  8
SAPA_PROFIL
 10
7.0000000000241487
 20
122.3122619183527
 30
0.0
  0
VERTEX
  5
1AB8
  8
SAPA_PROFIL
 10
7.0000000000326112
 20
120.0884580407199
 30
0.0
 42
0.0874886635239214
  0
VERTEX
  5
1AB9
  8
SAPA_PROFIL
 10
7.018092213796411
 20
119.9858519977245
 30
0.0
  0
VERTEX
  5
1ABA
  8
SAPA_PROFIL
 10
7.5376062814717573
 20
118.5584988276791
 30
0.0
 42
0.4142135623698208
  0
VERTEX
  5
1ABB
  8
SAPA_PROFIL
 10
7.9221201107139274
 20
118.3791970844417
 30
0.0
  0
VERTEX
  5
1ABC
  8
SAPA_PROFIL
 10
8.1100586348626287
 20
118.4476011131127
 30
0.0
 42
0.4142135623730019
  0
VERTEX
  5
1ABD
  8
SAPA_PROFIL
 10
8.2893603781051528
 20
118.8321149423344
 30
0.0
  0
VERTEX
  5
1ABE
  8
SAPA_PROFIL
 10
7.9131382204384657
 20
119.8657768252035
 30
0.0
 42
-0.41421356237947
  0
VERTEX
  5
1ABF
  8
SAPA_PROFIL
 10
8.0924399636896194
 20
120.2502906544351
 30
0.0
  0
VERTEX
  5
1AC0
  8
SAPA_PROFIL
 10
9.9026300430285392
 20
120.9091459616709
 30
0.0
 42
0.3152987888800591
  0
VERTEX
  5
1AC1
  8
SAPA_PROFIL
 10
10.100024000031871
 20
121.19105374790711
 30
0.0
  0
VERTEX
  5
1AC2
  8
SAPA_PROFIL
 10
10.10002400003177
 20
121.6107695157264
 30
0.0
 42
0.1316524975873855
  0
VERTEX
  5
1AC3
  8
SAPA_PROFIL
 10
10.05983162116712
 20
121.76076951572639
 30
0.0
  0
VERTEX
  5
1AC4
  8
SAPA_PROFIL
 10
9.2000240000318225
 20
123.25000000026731
 30
0.0
  0
VERTEX
  5
1AC5
  8
SAPA_PROFIL
 10
9.2000120000321584
 20
123.7000000002672
 30
0.0
 42
-0.4142135623731054
  0
VERTEX
  5
1AC6
  8
SAPA_PROFIL
 10
9.5000120000321626
 20
124.00000000026721
 30
0.0
  0
VERTEX
  5
1AC7
  8
SAPA_PROFIL
 10
13.100024000032221
 20
124.00000000026721
 30
0.0
 42
-0.414213562373095
  0
VERTEX
  5
1AC8
  8
SAPA_PROFIL
 10
13.40002400003222
 20
123.7000000002671
 30
0.0
  0
VERTEX
  5
1AC9
  8
SAPA_PROFIL
 10
13.40002400003212
 20
123.25000000026721
 30
0.0
  0
VERTEX
  5
1ACA
  8
SAPA_PROFIL
 10
12.54019926246314
 20
121.760739869193
 30
0.0
 42
0.1316363093594254
  0
VERTEX
  5
1ACB
  8
SAPA_PROFIL
 10
12.50000688420617
 20
121.6107589641462
 30
0.0
  0
VERTEX
  5
1ACC
  8
SAPA_PROFIL
 10
12.49999983441537
 20
121.5000000002605
 30
0.0
  0
VERTEX
  5
1ACD
  8
SAPA_PROFIL
 10
14.500000000028489
 20
121.5000000002605
 30
0.0
 42
0.4142135623730951
  0
VERTEX
  5
1ACE
  8
SAPA_PROFIL
 10
15.000000000028489
 20
122.0000000002606
 30
0.0
  0
VERTEX
  5
1ACF
  8
SAPA_PROFIL
 10
15.000000000028489
 20
129.15000000053851
 30
0.0
 42
0.4142135623730935
  0
VERTEX
  5
1AD0
  8
SAPA_PROFIL
 10
14.70000000002922
 20
129.45000000053409
 30
0.0
  0
VERTEX
  5
1AD1
  8
SAPA_PROFIL
 10
14.05000000002777
 20
129.45000000053781
 30
0.0
 42
-0.4142135623730951
  0
VERTEX
  5
1AD2
  8
SAPA_PROFIL
 10
13.7500000000285
 20
129.750000000537
 30
0.0
  0
VERTEX
  5
1AD3
  8
SAPA_PROFIL
 10
13.75000000002486
 20
130.45000000042501
 30
0.0
 42
-0.4142135623730971
  0
VERTEX
  5
1AD4
  8
SAPA_PROFIL
 10
14.05000000002777
 20
130.75000000042061
 30
0.0
  0
VERTEX
  5
1AD5
  8
SAPA_PROFIL
 10
25.950000000032858
 20
130.7500000004388
 30
0.0
 42
-0.4142135623730881
  0
VERTEX
  5
1AD6
  8
SAPA_PROFIL
 10
26.250000000032131
 20
130.4500000004395
 30
0.0
  0
VERTEX
  5
1AD7
  8
SAPA_PROFIL
 10
26.250000000043048
 20
129.7499999999622
 30
0.0
 42
-0.4142135623730968
  0
VERTEX
  5
1AD8
  8
SAPA_PROFIL
 10
25.950000000032858
 20
129.4499999999521
 30
0.0
  0
VERTEX
  5
1AD9
  8
SAPA_PROFIL
 10
25.300000000020489
 20
129.44999999996659
 30
0.0
 42
0.4142135623517844
  0
VERTEX
  5
1ADA
  8
SAPA_PROFIL
 10
25.000000000032131
 20
129.14999999996371
 30
0.0
  0
VERTEX
  5
1ADB
  8
SAPA_PROFIL
 10
25.000000000032131
 20
127.199999999952
 30
0.0
 42
0.414213562373103
  0
VERTEX
  5
1ADC
  8
SAPA_PROFIL
 10
25.200000000032858
 20
126.9999999999622
 30
0.0
  0
VERTEX
  5
1ADD
  8
SAPA_PROFIL
 10
26.3000000000314
 20
126.9999999999622
 30
0.0
 42
0.4142135623731049
  0
VERTEX
  5
1ADE
  8
SAPA_PROFIL
 10
26.500000000032131
 20
127.199999999952
 30
0.0
  0
VERTEX
  5
1ADF
  8
SAPA_PROFIL
 10
26.500000000032131
 20
127.9999999999622
 30
0.0
 42
-0.414213562373094
  0
VERTEX
  5
1AE0
  8
SAPA_PROFIL
 10
27.000000000032131
 20
128.4999999999622
 30
0.0
  0
VERTEX
  5
1AE1
  8
SAPA_PROFIL
 10
28.000000000043048
 20
128.50000000044241
 30
0.0
 42
-0.4142135623730951
  0
VERTEX
  5
1AE2
  8
SAPA_PROFIL
 10
28.500000000043041
 20
128.00000000044241
 30
0.0
  0
VERTEX
  5
1AE3
  8
SAPA_PROFIL
 10
28.500000000032131
 20
127.2000000004395
 30
0.0
 42
0.414213562373103
  0
VERTEX
  5
1AE4
  8
SAPA_PROFIL
 10
28.700000000032858
 20
127.0000000004424
 30
0.0
  0
VERTEX
  5
1AE5
  8
SAPA_PROFIL
 10
29.80000000003141
 20
127.0000000004497
 30
0.0
 42
0.4142135623731049
  0
VERTEX
  5
1AE6
  8
SAPA_PROFIL
 10
30.000000000032149
 20
127.2000000004395
 30
0.0
  0
VERTEX
  5
1AE7
  8
SAPA_PROFIL
 10
30.000000000032149
 20
130.7499999999404
 30
0.0
 42
0.3389652260127085
  0
VERTEX
  5
1AE8
  8
SAPA_PROFIL
 10
29.260513148829759
 20
131.71547029948539
 30
0.0
 42
0.0274862826960608
  0
VERTEX
  5
1AE9
  8
SAPA_PROFIL
 10
14.999999999853889
 20
132.4999999999213
 30
0.0
  0
VERTEX
  5
1AEA
  8
SAPA_PROFIL
 10
10.000000000126731
 20
132.50000000007859
 30
0.0
 42
0.4142135623816193
  0
VERTEX
  5
1AEB
  8
SAPA_PROFIL
 10
7.0000000000321396
 20
129.50000000007859
 30
0.0
  0
VERTEX
  5
1AEC
  8
SAPA_PROFIL
 10
7.0000000000321316
 20
124.2438690412223
 30
0.0
 42
0.2418327667412822
  0
VERTEX
  5
1AED
  8
SAPA_PROFIL
 10
7.1252776749956883
 20
124.00000000027271
 30
0.0
 42
-0.2418327667543803
  0
SEQEND
  5
1AEE
  8
SAPA_PROFIL
  0
POLYLINE
  5
15A5
  8
SAPA_PROFIL
 66
     1
 10
0.0
 20
0.0
 30
0.0
 70
     1
  0
VERTEX
  5
1AEF
  8
SAPA_PROFIL
 10
-3.6000000000899668
 20
-3.2000000009178389
 30
0.0
 42
0.4142135623753183
  0
VERTEX
  5
1AF0
  8
SAPA_PROFIL
 10
-3.300000000087064
 20
-3.5000000009198402
 30
0.0
  0
VERTEX
  5
1AF1
  8
SAPA_PROFIL
 10
28.099999999899829
 20
-3.5000000009230301
 30
0.0
 42
0.414213562373095
  0
VERTEX
  5
1AF2
  8
SAPA_PROFIL
 10
28.39999999990275
 20
-3.2000000009201202
 30
0.0
  0
VERTEX
  5
1AF3
  8
SAPA_PROFIL
 10
28.399999999900029
 20
17.19999999908087
 30
0.0
 42
0.4142135623730949
  0
VERTEX
  5
1AF4
  8
SAPA_PROFIL
 10
28.099999999899829
 20
17.499999999081069
 30
0.0
  0
VERTEX
  5
1AF5
  8
SAPA_PROFIL
 10
-3.299999999985193
 20
17.49999999908016
 30
0.0
 42
0.4142135623722209
  0
VERTEX
  5
1AF6
  8
SAPA_PROFIL
 10
-3.599999999988118
 20
17.199999999080859
 30
0.0
  0
SEQEND
  5
1AF7
  8
SAPA_PROFIL
  0
POLYLINE
  5
15A6
  8
SAPA_PROFIL
 66
     1
 10
0.0
 20
0.0
 30
0.0
 70
     1
  0
VERTEX
  5
1AF8
  8
SAPA_PROFIL
 10
26.79999999988965
 20
81.749999998949164
 30
0.0
 42
0.4142135623730956
  0
VERTEX
  5
1AF9
  8
SAPA_PROFIL
 10
26.499999999894008
 20
81.449999998948954
 30
0.0
  0
VERTEX
  5
1AFA
  8
SAPA_PROFIL
 10
26.499999999894008
 20
80.299999998947982
 30
0.0
 42
-0.4142135623730883
  0
VERTEX
  5
1AFB
  8
SAPA_PROFIL
 10
26.199999999891119
 20
79.999999998945071
 30
0.0
  0
VERTEX
  5
1AFC
  8
SAPA_PROFIL
 10
25.199999999883829
 20
79.999999998940069
 30
0.0
 42
-0.4663076581619016
  0
VERTEX
  5
1AFD
  8
SAPA_PROFIL
 10
24.90455767398155
 20
80.352094452246646
 30
0.0
  0
VERTEX
  5
1AFE
  8
SAPA_PROFIL
 10
25.41590591803422
 20
83.252094452249992
 30
0.0
 42
-0.3639702342658946
  0
VERTEX
  5
1AFF
  8
SAPA_PROFIL
 10
25.711348243941291
 20
83.499999998952461
 30
0.0
  0
VERTEX
  5
1B00
  8
SAPA_PROFIL
 10
30.399999999895471
 20
83.499999998945043
 30
0.0
 42
-0.4142135623730951
  0
VERTEX
  5
1B01
  8
SAPA_PROFIL
 10
31.399999999895481
 20
82.499999998945029
 30
0.0
  0
VERTEX
  5
1B02
  8
SAPA_PROFIL
 10
31.39999999990275
 20
-7.0000000009189343
 30
0.0
 42
-0.4142135623732721
  0
VERTEX
  5
1B03
  8
SAPA_PROFIL
 10
29.89999999990275
 20
-8.5000000009198438
 30
0.0
  0
VERTEX
  5
1B04
  8
SAPA_PROFIL
 10
-5.1000000001045116
 20
-8.5000000009207497
 30
0.0
 42
-0.4142135623726523
  0
VERTEX
  5
1B05
  8
SAPA_PROFIL
 10
-6.5999999997407279
 20
-7.0000338359030776
 30
0.0
  0
VERTEX
  5
1B06
  8
SAPA_PROFIL
 10
-6.6000000000754149
 20
22.04999999999621
 30
0.0
 42
-0.4142135623784228
  0
VERTEX
  5
1B07
  8
SAPA_PROFIL
 10
-6.4000000000783333
 20
22.24999999999919
 30
0.0
  0
VERTEX
  5
1B08
  8
SAPA_PROFIL
 10
-5.4984872070167761
 20
22.250000000000121
 30
0.0
 42
-0.3981911081797195
  0
VERTEX
  5
1B09
  8
SAPA_PROFIL
 10
-5.2987897656247371
 20
22.060996904186752
 30
0.0
 42
0.3661896282356551
  0
VERTEX
  5
1B0A
  8
SAPA_PROFIL
 10
-4.5891640867597197
 20
21.30996894470259
 30
0.0
 42
0.0279290488516223
  0
VERTEX
  5
1B0B
  8
SAPA_PROFIL
 10
9.8999999999391282
 20
20.500000000000099
 30
0.0
  0
VERTEX
  5
1B0C
  8
SAPA_PROFIL
 10
14.99999999994496
 20
20.500000000000121
 30
0.0
 42
0.4142135623706084
  0
VERTEX
  5
1B0D
  8
SAPA_PROFIL
 10
17.999999999930392
 20
23.4999999999892
 30
0.0
 42
-0.4142135623712333
  0
VERTEX
  5
1B0E
  8
SAPA_PROFIL
 10
18.999999999923119
 20
24.500000000158821
 30
0.0
  0
VERTEX
  5
1B0F
  8
SAPA_PROFIL
 10
19.09999999989256
 20
24.499999999243869
 30
0.0
 42
-0.4142135623730986
  0
VERTEX
  5
1B10
  8
SAPA_PROFIL
 10
19.399999999895481
 20
24.199999999244142
 30
0.0
  0
VERTEX
  5
1B11
  8
SAPA_PROFIL
 10
19.39999999993913
 20
22.999999999990109
 30
0.0
 42
0.4142135623672388
  0
VERTEX
  5
1B12
  8
SAPA_PROFIL
 10
19.89999999993913
 20
22.500000000000121
 30
0.0
  0
VERTEX
  5
1B13
  8
SAPA_PROFIL
 10
27.399999999960961
 20
22.50000000000011
 30
0.0
 42
0.4142135623733613
  0
VERTEX
  5
1B14
  8
SAPA_PROFIL
 10
28.399999999960961
 20
23.500000000001009
 30
0.0
  0
VERTEX
  5
1B15
  8
SAPA_PROFIL
 10
28.399999999939141
 20
81.449999998949949
 30
0.0
 42
0.4142135623783301
  0
VERTEX
  5
1B16
  8
SAPA_PROFIL
 10
28.099999999928951
 20
81.749999999855106
 30
0.0
  0
SEQEND
  5
1B17
  8
SAPA_PROFIL
  0
POLYLINE
  5
15A7
  8
SAPA_PROFIL
 62
     4
 66
     1
 10
0.0
 20
0.0
 30
0.0
 70
     1
  0
VERTEX
  5
15A8
  8
SAPA_PROFIL
 62
     4
 10
14.649987999994201
 20
31.85621778238534
 30
0.0
 42
0.1316524975873979
  0
VERTEX
  5
15A9
  8
SAPA_PROFIL
 62
     4
 10
14.75716767696664
 20
31.45621778238532
 30
0.0
  0
VERTEX
  5
15AA
  8
SAPA_PROFIL
 62
     4
 10
15.749987999996071
 20
29.736602540111281
 30
0.0
  0
VERTEX
  5
15AB
  8
SAPA_PROFIL
 62
     4
 10
15.74998799999616
 20
29.29999999973283
 30
0.0
 42
-0.4142135623730951
  0
VERTEX
  5
15AC
  8
SAPA_PROFIL
 62
     4
 10
15.49998799999617
 20
29.04999999973284
 30
0.0
  0
VERTEX
  5
15AD
  8
SAPA_PROFIL
 62
     4
 10
11.8999759999961
 20
29.04999999973279
 30
0.0
 42
-0.4142135623731053
  0
VERTEX
  5
15AE
  8
SAPA_PROFIL
 62
     4
 10
11.6499759999961
 20
29.29999999973279
 30
0.0
  0
VERTEX
  5
15AF
  8
SAPA_PROFIL
 62
     4
 10
11.64998764273146
 20
29.736601921311259
 30
0.0
  0
VERTEX
  5
15B0
  8
SAPA_PROFIL
 62
     4
 10
12.642808323021731
 20
31.456217782378651
 30
0.0
 42
0.1316524975874149
  0
VERTEX
  5
15B1
  8
SAPA_PROFIL
 62
     4
 10
12.74998799999423
 20
31.8562177823787
 30
0.0
  0
VERTEX
  5
15B2
  8
SAPA_PROFIL
 62
     4
 10
12.74998799999423
 20
56.143782217086986
 30
0.0
 42
0.1316524975874151
  0
VERTEX
  5
15B3
  8
SAPA_PROFIL
 62
     4
 10
12.64280832302174
 20
56.543782217087042
 30
0.0
  0
VERTEX
  5
15B4
  8
SAPA_PROFIL
 62
     4
 10
11.64998764273146
 20
58.263398078154431
 30
0.0
  0
VERTEX
  5
15B5
  8
SAPA_PROFIL
 62
     4
 10
11.6499759999961
 20
58.699999999732889
 30
0.0
 42
-0.4142135623731054
  0
VERTEX
  5
15B6
  8
SAPA_PROFIL
 62
     4
 10
11.89997599999611
 20
58.949999999732903
 30
0.0
  0
VERTEX
  5
15B7
  8
SAPA_PROFIL
 62
     4
 10
15.49998799999617
 20
58.949999999732839
 30
0.0
 42
-0.4142135623730953
  0
VERTEX
  5
15B8
  8
SAPA_PROFIL
 62
     4
 10
15.74998799999617
 20
58.69999999973286
 30
0.0
  0
VERTEX
  5
15B9
  8
SAPA_PROFIL
 62
     4
 10
15.749987999996071
 20
58.263397459354401
 30
0.0
  0
VERTEX
  5
15BA
  8
SAPA_PROFIL
 62
     4
 10
14.757167676966651
 20
56.54378221708037
 30
0.0
 42
0.1316524975873982
  0
VERTEX
  5
15BB
  8
SAPA_PROFIL
 62
     4
 10
14.64998799999421
 20
56.14378221708035
 30
0.0
  0
SEQEND
  5
15BC
  8
SAPA_PROFIL
 62
     4
  0
POLYLINE
  5
15BD
  8
SAPA_PROFIL
 66
     1
 10
0.0
 20
0.0
 30
0.0
 70
     1
  0
VERTEX
  5
1B18
  8
SAPA_PROFIL
 10
17.74944465005667
 20
58.756130958779067
 30
0.0
  0
VERTEX
  5
1B19
  8
SAPA_PROFIL
 10
17.749444650053029
 20
57.799999999743711
 30
0.0
 42
0.2418327667557183
  0
VERTEX
  5
1B1A
  8
SAPA_PROFIL
 10
17.874722325029978
 20
57.556130958777139
 30
0.0
 42
-0.2418327667535164
  0
VERTEX
  5
1B1B
  8
SAPA_PROFIL
 10
18.000000000004189
 20
57.31226191781839
 30
0.0
  0
VERTEX
  5
1B1C
  8
SAPA_PROFIL
 10
17.999999999995719
 20
55.088458040185579
 30
0.0
 42
-0.0874886635239214
  0
VERTEX
  5
1B1D
  8
SAPA_PROFIL
 10
17.981907786231918
 20
54.985851997190188
 30
0.0
  0
VERTEX
  5
1B1E
  8
SAPA_PROFIL
 10
17.46239371855658
 20
53.55849882714476
 30
0.0
 42
-0.4142135623698208
  0
VERTEX
  5
1B1F
  8
SAPA_PROFIL
 10
17.077879889314399
 20
53.379197083907371
 30
0.0
  0
VERTEX
  5
1B20
  8
SAPA_PROFIL
 10
16.889941365165701
 20
53.447601112578418
 30
0.0
 42
-0.4142135623730019
  0
VERTEX
  5
1B21
  8
SAPA_PROFIL
 10
16.710639621923178
 20
53.832114941800057
 30
0.0
  0
VERTEX
  5
1B22
  8
SAPA_PROFIL
 10
17.086861779589871
 20
54.865776824669197
 30
0.0
 42
0.41421356237947
  0
VERTEX
  5
1B23
  8
SAPA_PROFIL
 10
16.907560036338719
 20
55.25029065390077
 30
0.0
  0
VERTEX
  5
1B24
  8
SAPA_PROFIL
 10
15.097369956999801
 20
55.909145961136581
 30
0.0
 42
-0.3152987888800591
  0
VERTEX
  5
1B25
  8
SAPA_PROFIL
 10
14.89997599999646
 20
56.191053747372798
 30
0.0
  0
VERTEX
  5
1B26
  8
SAPA_PROFIL
 10
14.89997599999657
 20
56.610769515192139
 30
0.0
 42
-0.1316524975873855
  0
VERTEX
  5
1B27
  8
SAPA_PROFIL
 10
14.940168378861211
 20
56.760769515192059
 30
0.0
  0
VERTEX
  5
1B28
  8
SAPA_PROFIL
 10
15.79997599999651
 20
58.249999999732943
 30
0.0
  0
VERTEX
  5
1B29
  8
SAPA_PROFIL
 10
15.799987999996169
 20
58.699999999732889
 30
0.0
 42
0.4142135623731054
  0
VERTEX
  5
1B2A
  8
SAPA_PROFIL
 10
15.49998799999617
 20
58.9999999997329
 30
0.0
  0
VERTEX
  5
1B2B
  8
SAPA_PROFIL
 10
11.89997599999611
 20
58.999999999732843
 30
0.0
 42
0.414213562373095
  0
VERTEX
  5
1B2C
  8
SAPA_PROFIL
 10
11.59997599999611
 20
58.699999999732839
 30
0.0
  0
VERTEX
  5
1B2D
  8
SAPA_PROFIL
 10
11.599975999996211
 20
58.249999999732843
 30
0.0
  0
VERTEX
  5
1B2E
  8
SAPA_PROFIL
 10
12.459800737565191
 20
56.760739868658668
 30
0.0
 42
-0.1316363093594254
  0
VERTEX
  5
1B2F
  8
SAPA_PROFIL
 10
12.499993115822161
 20
56.610758963611929
 30
0.0
  0
VERTEX
  5
1B30
  8
SAPA_PROFIL
 10
12.50000016561297
 20
56.499999999726242
 30
0.0
  0
VERTEX
  5
1B31
  8
SAPA_PROFIL
 10
10.49999999999984
 20
56.499999999726242
 30
0.0
 42
-0.4142135623730951
  0
VERTEX
  5
1B32
  8
SAPA_PROFIL
 10
9.9999999999998401
 20
56.999999999726249
 30
0.0
  0
VERTEX
  5
1B33
  8
SAPA_PROFIL
 10
9.9999999999998401
 20
64.150000000004184
 30
0.0
 42
-0.4142135623730935
  0
VERTEX
  5
1B34
  8
SAPA_PROFIL
 10
10.299999999999111
 20
64.449999999999818
 30
0.0
  0
VERTEX
  5
1B35
  8
SAPA_PROFIL
 10
10.95000000000057
 20
64.450000000003456
 30
0.0
 42
0.4142135623730951
  0
VERTEX
  5
1B36
  8
SAPA_PROFIL
 10
11.249999999999829
 20
64.750000000002728
 30
0.0
  0
VERTEX
  5
1B37
  8
SAPA_PROFIL
 10
11.25000000000348
 20
65.449999999890679
 30
0.0
 42
0.4142135623730971
  0
VERTEX
  5
1B38
  8
SAPA_PROFIL
 10
10.95000000000057
 20
65.749999999886313
 30
0.0
  0
VERTEX
  5
1B39
  8
SAPA_PROFIL
 10
-0.9500000000045147
 20
65.749999999904517
 30
0.0
 42
0.4142135623730881
  0
VERTEX
  5
1B3A
  8
SAPA_PROFIL
 10
-1.250000000003787
 20
65.449999999905245
 30
0.0
  0
VERTEX
  5
1B3B
  8
SAPA_PROFIL
 10
-1.2500000000147149
 20
64.749999999427942
 30
0.0
 42
0.4142135623730968
  0
VERTEX
  5
1B3C
  8
SAPA_PROFIL
 10
-0.9500000000045147
 20
64.449999999417756
 30
0.0
  0
VERTEX
  5
1B3D
  8
SAPA_PROFIL
 10
-0.2999999999921456
 20
64.449999999432308
 30
0.0
 42
-0.4142135623517844
  0
VERTEX
  5
1B3E
  8
SAPA_PROFIL
 10
-0.0000000000037907
 20
64.149999999429383
 30
0.0
  0
VERTEX
  5
1B3F
  8
SAPA_PROFIL
 10
-0.0000000000037907
 20
62.199999999417763
 30
0.0
 42
-0.414213562373103
  0
VERTEX
  5
1B40
  8
SAPA_PROFIL
 10
-0.2000000000045183
 20
61.999999999427942
 30
0.0
  0
VERTEX
  5
1B41
  8
SAPA_PROFIL
 10
-1.3000000000030629
 20
61.999999999427942
 30
0.0
 42
-0.4142135623731049
  0
VERTEX
  5
1B42
  8
SAPA_PROFIL
 10
-1.5000000000037901
 20
62.199999999417763
 30
0.0
  0
VERTEX
  5
1B43
  8
SAPA_PROFIL
 10
-1.5000000000037901
 20
62.999999999427942
 30
0.0
 42
0.414213562373094
  0
VERTEX
  5
1B44
  8
SAPA_PROFIL
 10
-2.0000000000037899
 20
63.499999999427942
 30
0.0
  0
VERTEX
  5
1B45
  8
SAPA_PROFIL
 10
-3.000000000014718
 20
63.499999999908127
 30
0.0
 42
0.4142135623730951
  0
VERTEX
  5
1B46
  8
SAPA_PROFIL
 10
-3.5000000000147038
 20
62.999999999908127
 30
0.0
  0
VERTEX
  5
1B47
  8
SAPA_PROFIL
 10
-3.5000000000037899
 20
62.199999999905209
 30
0.0
 42
-0.414213562373103
  0
VERTEX
  5
1B48
  8
SAPA_PROFIL
 10
-3.7000000000045179
 20
61.99999999990812
 30
0.0
  0
VERTEX
  5
1B49
  8
SAPA_PROFIL
 10
-4.8000000000030774
 20
61.999999999915403
 30
0.0
 42
-0.4142135623731049
  0
VERTEX
  5
1B4A
  8
SAPA_PROFIL
 10
-5.0000000000038041
 20
62.199999999905209
 30
0.0
  0
VERTEX
  5
1B4B
  8
SAPA_PROFIL
 10
-5.0000000000038014
 20
65.749999999406086
 30
0.0
 42
-0.3389652260127085
  0
VERTEX
  5
1B4C
  8
SAPA_PROFIL
 10
-4.2605131488014223
 20
66.715470298951075
 30
0.0
 42
-0.0274862826960608
  0
VERTEX
  5
1B4D
  8
SAPA_PROFIL
 10
10.000000000174451
 20
67.499999999387001
 30
0.0
  0
VERTEX
  5
1B4E
  8
SAPA_PROFIL
 10
14.999999999901609
 20
67.499999999544343
 30
0.0
 42
-0.4142135623816193
  0
VERTEX
  5
1B4F
  8
SAPA_PROFIL
 10
17.999999999996199
 20
64.499999999544343
 30
0.0
  0
VERTEX
  5
1B50
  8
SAPA_PROFIL
 10
17.999999999996199
 20
59.243869040687969
 30
0.0
 42
-0.2418327667412822
  0
VERTEX
  5
1B51
  8
SAPA_PROFIL
 10
17.874722325032639
 20
58.999999999738392
 30
0.0
 42
0.2418327667543803
  0
SEQEND
  5
1B52
  8
SAPA_PROFIL
  0
POLYLINE
  5
15BE
  8
SAPA_PROFIL
 66
     1
 10
0.0
 20
0.0
 30
0.0
 70
     1
  0
VERTEX
  5
1B53
  8
SAPA_PROFIL
 10
17.74944465005672
 20
29.243869040686612
 30
0.0
  0
VERTEX
  5
1B54
  8
SAPA_PROFIL
 10
17.749444650053078
 20
30.199999999721982
 30
0.0
 42
-0.2418327667557183
  0
VERTEX
  5
1B55
  8
SAPA_PROFIL
 10
17.874722325030021
 20
30.44386904068854
 30
0.0
 42
0.2418327667535164
  0
VERTEX
  5
1B56
  8
SAPA_PROFIL
 10
18.000000000004238
 20
30.687738081647279
 30
0.0
  0
VERTEX
  5
1B57
  8
SAPA_PROFIL
 10
17.999999999995769
 20
32.9115419592801
 30
0.0
 42
0.0874886635239214
  0
VERTEX
  5
1B58
  8
SAPA_PROFIL
 10
17.981907786231972
 20
33.014148002275491
 30
0.0
  0
VERTEX
  5
1B59
  8
SAPA_PROFIL
 10
17.46239371855663
 20
34.441501172320933
 30
0.0
 42
0.4142135623698208
  0
VERTEX
  5
1B5A
  8
SAPA_PROFIL
 10
17.07787988931446
 20
34.620802915558322
 30
0.0
  0
VERTEX
  5
1B5B
  8
SAPA_PROFIL
 10
16.889941365165761
 20
34.552398886887261
 30
0.0
 42
0.4142135623730019
  0
VERTEX
  5
1B5C
  8
SAPA_PROFIL
 10
16.710639621923232
 20
34.167885057665629
 30
0.0
  0
VERTEX
  5
1B5D
  8
SAPA_PROFIL
 10
17.08686177958992
 20
33.134223174796468
 30
0.0
 42
-0.41421356237947
  0
VERTEX
  5
1B5E
  8
SAPA_PROFIL
 10
16.907560036338769
 20
32.749709345564924
 30
0.0
  0
VERTEX
  5
1B5F
  8
SAPA_PROFIL
 10
15.097369956999851
 20
32.090854038329098
 30
0.0
 42
0.3152987888800591
  0
VERTEX
  5
1B60
  8
SAPA_PROFIL
 10
14.89997599999651
 20
31.808946252092881
 30
0.0
  0
VERTEX
  5
1B61
  8
SAPA_PROFIL
 10
14.89997599999662
 20
31.38923048427354
 30
0.0
 42
0.1316524975873855
  0
VERTEX
  5
1B62
  8
SAPA_PROFIL
 10
14.94016837886126
 20
31.239230484273619
 30
0.0
  0
VERTEX
  5
1B63
  8
SAPA_PROFIL
 10
15.79997599999656
 20
29.74999999973274
 30
0.0
  0
VERTEX
  5
1B64
  8
SAPA_PROFIL
 10
15.79998799999623
 20
29.29999999973279
 30
0.0
 42
-0.4142135623731054
  0
VERTEX
  5
1B65
  8
SAPA_PROFIL
 10
15.49998799999622
 20
28.999999999732779
 30
0.0
  0
VERTEX
  5
1B66
  8
SAPA_PROFIL
 10
11.89997599999616
 20
28.999999999732839
 30
0.0
 42
-0.414213562373095
  0
VERTEX
  5
1B67
  8
SAPA_PROFIL
 10
11.599975999996159
 20
29.29999999973284
 30
0.0
  0
VERTEX
  5
1B68
  8
SAPA_PROFIL
 10
11.599975999996261
 20
29.74999999973285
 30
0.0
  0
VERTEX
  5
1B69
  8
SAPA_PROFIL
 10
12.45980073756524
 20
31.239260130807011
 30
0.0
 42
0.1316363093594254
  0
VERTEX
  5
1B6A
  8
SAPA_PROFIL
 10
12.49999311582221
 20
31.389241035853761
 30
0.0
  0
VERTEX
  5
1B6B
  8
SAPA_PROFIL
 10
12.50000016561302
 20
31.49999999973944
 30
0.0
  0
VERTEX
  5
1B6C
  8
SAPA_PROFIL
 10
10.49999999999989
 20
31.49999999973944
 30
0.0
 42
0.4142135623730951
  0
VERTEX
  5
1B6D
  8
SAPA_PROFIL
 10
9.9999999999998934
 20
30.99999999973944
 30
0.0
  0
VERTEX
  5
1B6E
  8
SAPA_PROFIL
 10
9.9999999999998899
 20
23.849999999461499
 30
0.0
 42
0.4142135623730935
  0
VERTEX
  5
1B6F
  8
SAPA_PROFIL
 10
10.29999999999916
 20
23.549999999465861
 30
0.0
  0
VERTEX
  5
1B70
  8
SAPA_PROFIL
 10
10.95000000000061
 20
23.549999999462219
 30
0.0
 42
-0.4142135623730951
  0
VERTEX
  5
1B71
  8
SAPA_PROFIL
 10
11.249999999999879
 20
23.24999999946295
 30
0.0
  0
VERTEX
  5
1B72
  8
SAPA_PROFIL
 10
11.25000000000353
 20
22.549999999575
 30
0.0
 42
-0.4142135623730971
  0
VERTEX
  5
1B73
  8
SAPA_PROFIL
 10
10.95000000000061
 20
22.249999999579369
 30
0.0
  0
VERTEX
  5
1B74
  8
SAPA_PROFIL
 10
-0.950000000004472
 20
22.249999999561179
 30
0.0
 42
-0.4142135623730881
  0
VERTEX
  5
1B75
  8
SAPA_PROFIL
 10
-1.2500000000037439
 20
22.549999999560459
 30
0.0
  0
VERTEX
  5
1B76
  8
SAPA_PROFIL
 10
-1.2500000000146649
 20
23.250000000037758
 30
0.0
 42
-0.4142135623730968
  0
VERTEX
  5
1B77
  8
SAPA_PROFIL
 10
-0.950000000004472
 20
23.550000000047941
 30
0.0
  0
VERTEX
  5
1B78
  8
SAPA_PROFIL
 10
-0.299999999992103
 20
23.550000000033389
 30
0.0
 42
0.4142135623517844
  0
VERTEX
  5
1B79
  8
SAPA_PROFIL
 10
-0.0000000000037446
 20
23.850000000036299
 30
0.0
  0
VERTEX
  5
1B7A
  8
SAPA_PROFIL
 10
-0.0000000000037446
 20
25.800000000047941
 30
0.0
 42
0.414213562373103
  0
VERTEX
  5
1B7B
  8
SAPA_PROFIL
 10
-0.2000000000044722
 20
26.000000000037758
 30
0.0
  0
VERTEX
  5
1B7C
  8
SAPA_PROFIL
 10
-1.3000000000030161
 20
26.000000000037758
 30
0.0
 42
0.4142135623731049
  0
VERTEX
  5
1B7D
  8
SAPA_PROFIL
 10
-1.5000000000037439
 20
25.800000000047941
 30
0.0
  0
VERTEX
  5
1B7E
  8
SAPA_PROFIL
 10
-1.5000000000037439
 20
25.000000000037758
 30
0.0
 42
-0.414213562373094
  0
VERTEX
  5
1B7F
  8
SAPA_PROFIL
 10
-2.0000000000037441
 20
24.500000000037758
 30
0.0
  0
VERTEX
  5
1B80
  8
SAPA_PROFIL
 10
-3.0000000000146652
 20
24.49999999955757
 30
0.0
 42
-0.4142135623730951
  0
VERTEX
  5
1B81
  8
SAPA_PROFIL
 10
-3.5000000000146509
 20
24.999999999557581
 30
0.0
  0
VERTEX
  5
1B82
  8
SAPA_PROFIL
 10
-3.5000000000037441
 20
25.799999999560491
 30
0.0
 42
0.414213562373103
  0
VERTEX
  5
1B83
  8
SAPA_PROFIL
 10
-3.7000000000044722
 20
25.99999999955757
 30
0.0
  0
VERTEX
  5
1B84
  8
SAPA_PROFIL
 10
-4.8000000000030241
 20
25.999999999550301
 30
0.0
 42
0.4142135623731049
  0
VERTEX
  5
1B85
  8
SAPA_PROFIL
 10
-5.0000000000037579
 20
25.799999999560491
 30
0.0
  0
VERTEX
  5
1B86
  8
SAPA_PROFIL
 10
-5.0000000000037579
 20
22.250000000059611
 30
0.0
 42
0.3389652260127085
  0
VERTEX
  5
1B87
  8
SAPA_PROFIL
 10
-4.2605131488013717
 20
21.284529700514611
 30
0.0
 42
0.0274862826960608
  0
VERTEX
  5
1B88
  8
SAPA_PROFIL
 10
10.00000000017449
 20
20.500000000078689
 30
0.0
  0
VERTEX
  5
1B89
  8
SAPA_PROFIL
 10
14.999999999901661
 20
20.499999999921339
 30
0.0
 42
0.4142135623816193
  0
VERTEX
  5
1B8A
  8
SAPA_PROFIL
 10
17.999999999996241
 20
23.499999999921329
 30
0.0
  0
VERTEX
  5
1B8B
  8
SAPA_PROFIL
 10
17.999999999996248
 20
28.75613095877771
 30
0.0
 42
0.2418327667412822
  0
VERTEX
  5
1B8C
  8
SAPA_PROFIL
 10
17.8747223250327
 20
28.999999999727301
 30
0.0
 42
-0.2418327667543803
  0
SEQEND
  5
1B8D
  8
SAPA_PROFIL
  0
LINE
  5
15FF
  8
SAPA_GLAS
 10
-0.0000000000037986
 20
25.800000000400001
 30
0.0
 11
0.5027779603469436
 21
25.711346680688379
 31
0.0
  0
LINE
  5
1600
  8
SAPA_GLAS
 10
1.986969785101333
 20
29.809538931033501
 30
0.0
 11
1.986969785101333
 21
29.999999999911449
 31
0.0
  0
ARC
  5
1601
  8
SAPA_GLAS
 10
-14.58466937281503
 20
27.99999999990963
 30
0.0
 40
9.9869792597787779
 50
348.44779235426779
 51
11.552207645732169
  0
LINE
  5
1602
  8
SAPA_GLAS
 10
-0.0000000000037919
 20
62.199999999423213
 30
0.0
 11
0.5027779603469501
 21
62.288653319134831
 31
0.0
  0
LINE
  5
1603
  8
SAPA_GLAS
 10
1.9869697851013379
 20
58.190461068789709
 30
0.0
 11
1.9869697851013379
 21
57.999999999911758
 31
0.0
  0
ARC
  5
1604
  8
SAPA_GLAS
 10
-14.58466937281503
 20
59.999999999913577
 30
0.0
 40
9.9869792597787779
 50
348.44779235426779
 51
11.55220764573218
  0
POLYLINE
  5
1605
  8
SAPA_GLAS
 66
     1
 10
0.0
 20
0.0
 30
0.0
 70
     1
  0
VERTEX
  5
1C6A
  8
SAPA_GLAS
 10
2.7604722664100509
 20
29.877211629472619
 30
0.0
 42
0.1316524975872964
  0
VERTEX
  5
1C6B
  8
SAPA_GLAS
 10
1.986969784920656
 20
29.809538931135521
 30
0.0
  0
VERTEX
  5
1C6C
  8
SAPA_GLAS
 10
0.4698463102965355
 20
29.257351144683991
 30
0.0
 42
0.4142135623734131
  0
VERTEX
  5
1C6D
  8
SAPA_GLAS
 10
0.1710100715621825
 20
28.6164947626309
 30
0.0
  0
VERTEX
  5
1C6E
  8
SAPA_GLAS
 10
0.2394141002267919
 20
28.42855623847128
 30
0.0
 42
0.4142135623732762
  0
VERTEX
  5
1C6F
  8
SAPA_GLAS
 10
0.6239279294602687
 20
28.24925449522711
 30
0.0
  0
VERTEX
  5
1C70
  8
SAPA_GLAS
 10
0.6471413867781767
 20
28.257703502735492
 30
0.0
 42
-0.5773502691875974
  0
VERTEX
  5
1C71
  8
SAPA_GLAS
 10
0.9125069660445138
 20
28.035035343038921
 30
0.0
  0
VERTEX
  5
1C72
  8
SAPA_GLAS
 10
0.1514894435676293
 20
23.71909050354202
 30
0.0
 42
0.4142135623736183
  0
VERTEX
  5
1C73
  8
SAPA_GLAS
 10
0.3948373161689554
 20
23.37155372434583
 30
0.0
  0
VERTEX
  5
1C74
  8
SAPA_GLAS
 10
0.7887604173711248
 20
23.302094453275721
 30
0.0
 42
0.4142135623730951
  0
VERTEX
  5
1C75
  8
SAPA_GLAS
 10
1.1362971965762889
 20
23.54544232587287
 30
0.0
  0
VERTEX
  5
1C76
  8
SAPA_GLAS
 10
2.0075961233936068
 20
28.486824088794261
 30
0.0
 42
-0.4142135623725704
  0
VERTEX
  5
1C77
  8
SAPA_GLAS
 10
2.5868240887350238
 20
28.892403876459142
 30
0.0
  0
VERTEX
  5
1C78
  8
SAPA_GLAS
 10
9.4131759110620852
 20
27.688733870326281
 30
0.0
 42
0.4663076581553405
  0
VERTEX
  5
1C79
  8
SAPA_GLAS
 10
9.9999999998991846
 20
28.18113774683189
 30
0.0
  0
VERTEX
  5
1C7A
  8
SAPA_GLAS
 10
10.0000000001006
 20
59.818862252991309
 30
0.0
 42
0.4663076581553401
  0
VERTEX
  5
1C7B
  8
SAPA_GLAS
 10
9.4131759112697182
 20
60.311266129501057
 30
0.0
  0
VERTEX
  5
1C7C
  8
SAPA_GLAS
 10
2.5868240889273881
 20
59.107596123458443
 30
0.0
 42
-0.4142135623725707
  0
VERTEX
  5
1C7D
  8
SAPA_GLAS
 10
2.0075961235911288
 20
59.513175911130702
 30
0.0
  0
VERTEX
  5
1C7E
  8
SAPA_GLAS
 10
1.136297196836731
 20
64.454557674063182
 30
0.0
 42
0.4142135623730951
  0
VERTEX
  5
1C7F
  8
SAPA_GLAS
 10
0.7887604176346656
 20
64.697905546664771
 30
0.0
  0
VERTEX
  5
1C80
  8
SAPA_GLAS
 10
0.3948373164316152
 20
64.628446275599643
 30
0.0
 42
0.4142135623736183
  0
VERTEX
  5
1C81
  8
SAPA_GLAS
 10
0.151489443825855
 20
64.280909496406593
 30
0.0
  0
VERTEX
  5
1C82
  8
SAPA_GLAS
 10
0.9125069662477917
 20
59.96496465689998
 30
0.0
 42
-0.5773502691875974
  0
VERTEX
  5
1C83
  8
SAPA_GLAS
 10
0.6471413869786195
 20
59.742296497206802
 30
0.0
  0
VERTEX
  5
1C84
  8
SAPA_GLAS
 10
0.6239279296608179
 20
59.750745504715461
 30
0.0
 42
0.4142135623732762
  0
VERTEX
  5
1C85
  8
SAPA_GLAS
 10
0.2394141004250604
 20
59.571443761476182
 30
0.0
  0
VERTEX
  5
1C86
  8
SAPA_GLAS
 10
0.1710100717580564
 20
59.383505237317429
 30
0.0
 42
0.4142135623734131
  0
VERTEX
  5
1C87
  8
SAPA_GLAS
 10
0.4698463104842449
 20
58.742648855260548
 30
0.0
  0
VERTEX
  5
1C88
  8
SAPA_GLAS
 10
1.9869697851013379
 20
58.190461068789709
 30
0.0
 42
0.1316524975872963
  0
VERTEX
  5
1C89
  8
SAPA_GLAS
 10
2.7604722665898729
 20
58.122788370442748
 30
0.0
  0
VERTEX
  5
1C8A
  8
SAPA_GLAS
 10
8.7652703645625625
 20
59.181596288770038
 30
0.0
 42
-0.4663076581547951
  0
VERTEX
  5
1C8B
  8
SAPA_GLAS
 10
9.0000000000945608
 20
58.984634738166093
 30
0.0
  0
VERTEX
  5
1C8C
  8
SAPA_GLAS
 10
8.9999999999037676
 20
29.015365261669839
 30
0.0
 42
-0.466307658154795
  0
VERTEX
  5
1C8D
  8
SAPA_GLAS
 10
8.7652703643692611
 20
28.818403711068861
 30
0.0
  0
SEQEND
  5
1C8E
  8
SAPA_GLAS
  0
POLYLINE
  5
1606
  8
SAPA_GLAS
 66
     1
 10
0.0
 20
0.0
 30
0.0
  0
VERTEX
  5
1C8F
  8
SAPA_GLAS
 10
-24.000000000000099
 20
57.999999999911758
 30
0.0
  0
VERTEX
  5
1C90
  8
SAPA_GLAS
 10
7.999999999999905
 20
57.999999999911758
 30
0.0
  0
VERTEX
  5
1C91
  8
SAPA_GLAS
 10
7.9999999999999041
 20
53.999999999911772
 30
0.0
  0
VERTEX
  5
1C92
  8
SAPA_GLAS
 10
-24.000000000000099
 20
53.999999999911772
 30
0.0
  0
SEQEND
  5
1C93
  8
SAPA_GLAS
  0
POLYLINE
  5
1607
  8
SAPA_GLAS
 66
     1
 10
0.0
 20
0.0
 30
0.0
  0
VERTEX
  5
1C94
  8
SAPA_GLAS
 10
-2.0000000000001048
 20
33.999999999911608
 30
0.0
  0
VERTEX
  5
1C95
  8
SAPA_GLAS
 10
-2.0000000000000981
 20
53.999999999911601
 30
0.0
  0
VERTEX
  5
1C96
  8
SAPA_GLAS
 10
7.9999999999999112
 20
53.999999999911601
 30
0.0
  0
VERTEX
  5
1C97
  8
SAPA_GLAS
 10
7.9999999999998943
 20
33.999999999911587
 30
0.0
  0
VERTEX
  5
1C98
  8
SAPA_GLAS
 10
-2.0000000000001048
 20
33.999999999911608
 30
0.0
  0
SEQEND
  5
1C99
  8
SAPA_GLAS
  0
POLYLINE
  5
1608
  8
SAPA_GLAS
 66
     1
 10
0.0
 20
0.0
 30
0.0
  0
VERTEX
  5
1C9A
  8
SAPA_GLAS
 10
-24.00000000000011
 20
29.999999999911619
 30
0.0
  0
VERTEX
  5
1C9B
  8
SAPA_GLAS
 10
7.9999999999998934
 20
29.999999999911591
 30
0.0
  0
VERTEX
  5
1C9C
  8
SAPA_GLAS
 10
7.9999999999998943
 20
33.999999999911587
 30
0.0
  0
VERTEX
  5
1C9D
  8
SAPA_GLAS
 10
-24.00000000000011
 20
33.999999999911623
 30
0.0
  0
SEQEND
  5
1C9E
  8
SAPA_GLAS
  0
INSERT
  5
1609
  8
SAPA_GLAS
  6
CONTINUOUS
  2
*X58
 10
0.0
 20
0.0
 30
0.0
1001
ACAD
1000
HATCH
1002
{
1070
    19
1000
ANSI37
1040
0.25
1040
-1.5707963267948959
1000
R14_HATCH_DATA
1000
1609
1011
1.0
1021
-4.5427420268475431E+133
1031
0.0
1021
0.0
1031
0.0
1011
0.0
1021
-4.5427420268475431E+133
1031
0.0
1021
1.0
1031
0.0
1011
0.0
1021
-4.5427420268475431E+133
1031
0.0
1021
0.0
1031
1.0
1040
0.0
1010
0.0
1020
0.0
1030
1.0
1000
ANSI37
1070
     0
1070
     0
1071
        1
1071
        7
1070
     1
1070
     1
1071
       21
1040
-4.8000000000031138
1040
29.999999999911601
1040
-0.1011549434925542
1040
-4.8000000000761638
1040
25.99999999955029
1040
0.0
1040
-3.700000000004473
1040
25.99999999955757
1040
-0.4142135623731029
1040
-3.500000000003745
1040
25.79999999956048
1040
0.0
1040
-3.5000000000146518
1040
24.99999999955757
1040
0.4142135623730951
1040
-3.000000000014666
1040
24.49999999955757
1040
0.0
1040
-2.000000000003745
1040
24.500000000037751
1040
0.414213562373094
1040
-1.500000000003745
1040
25.000000000037751
1040
0.0
1040
-1.500000000003745
1040
25.800000000047941
1040
-0.4142135623731048
1040
-1.300000000003017
1040
26.000000000037751
1040
0.0
1040
-0.2000000000044729
1040
26.000000000037751
1040
-0.4142135618575339
1040
-0.0000000000037453
1040
25.80000000039999
1040
0.0
1040
0.5027779601004291
1040
25.71134668073185
1040
0.0
1040
0.9125069660445138
1040
28.035035343038921
1040
0.5773502691875974
1040
0.6471413867781767
1040
28.257703502735492
1040
0.0
1040
0.6239279294602687
1040
28.24925449522711
1040
-0.4142135623732763
1040
0.2394141002267919
1040
28.42855623847128
1040
0.0
1040
0.1710100715621825
1040
28.6164947626309
1040
-0.4142135623734132
1040
0.4698463102965355
1040
29.257351144683991
1040
0.0
1040
1.986969785101333
1040
29.80953893120126
1040
0.0
1040
1.986969785101333
1040
29.999999999911591
1040
0.0
1071
        0
1070
     0
1070
     1
1040
-1.5707963267948959
1040
0.25
1070
     0
1070
     2
1040
5.4977871437821371
1040
-5.000000000003741
1040
67.499999999465672
1040
0.5612660075668222
1040
0.5612660075668219
1070
     0
1040
0.7853981633974481
1040
-5.000000000003741
1040
67.499999999465672
1040
-0.5612660075668219
1040
0.5612660075668222
1070
     0
1040
0.0554184978666472
1071
        1
1040
-2.3851922194991708
1040
27.977469986901621
1040
0.0
1002
}
  0
INSERT
  5
160A
  8
SAPA_GLAS
  6
CONTINUOUS
  2
*X59
 10
0.0
 20
0.0
 30
0.0
1001
ACAD
1000
HATCH
1002
{
1070
    19
1000
ANSI37
1040
0.25
1040
-1.5707963267948959
1000
R14_HATCH_DATA
1000
160A
1011
1.0
1021
-4.5427420268475431E+133
1031
0.0
1021
0.0
1031
0.0
1011
0.0
1021
-4.5427420268475431E+133
1031
0.0
1021
1.0
1031
0.0
1011
0.0
1021
-4.5427420268475431E+133
1031
0.0
1021
0.0
1031
1.0
1040
0.0
1010
0.0
1020
0.0
1030
1.0
1000
ANSI37
1070
     0
1070
     0
1071
        1
1071
        7
1070
     1
1070
     1
1071
       21
1040
1.9869697851013379
1040
57.999999999911758
1040
0.0
1040
1.9869697851013379
1040
58.190461068789709
1040
0.0
1040
0.4698463104842449
1040
58.742648855260548
1040
-0.4142135623734131
1040
0.1710100717580564
1040
59.383505237317429
1040
0.0
1040
0.2394141004250604
1040
59.571443761476182
1040
-0.4142135623732763
1040
0.6239279296608179
1040
59.750745504715461
1040
0.0
1040
0.6471413869786195
1040
59.742296497206802
1040
0.5773502691875974
1040
0.9125069662477917
1040
59.96496465689998
1040
0.0
1040
0.5027779603469496
1040
62.288653319134824
1040
0.0
1040
-0.0000000000037919
1040
62.199999999423213
1040
-0.4142135623811048
1040
-0.2000000000045196
1040
61.999999999427928
1040
0.0
1040
-1.300000000003064
1040
61.999999999427928
1040
-0.4142135623731048
1040
-1.500000000003791
1040
62.199999999417749
1040
0.0
1040
-1.500000000003791
1040
62.999999999427942
1040
0.414213562373094
1040
-2.0000000000037912
1040
63.499999999427928
1040
0.0
1040
-3.0000000000147189
1040
63.49999999990812
1040
0.4142135623730951
1040
-3.5000000000147051
1040
62.99999999990812
1040
0.0
1040
-3.5000000000037921
1040
62.199999999905209
1040
-0.4142135623731029
1040
-3.7000000000045188
1040
61.999999999908113
1040
0.0
1040
-4.8000000000030782
1040
61.999999999915403
1040
-0.101154943483322
1040
-4.8000000000030791
1040
57.999999999911758
1040
0.0
1071
        0
1070
     0
1070
     1
1040
-1.5707963267948959
1040
0.25
1070
     0
1070
     2
1040
5.4977871437821371
1040
-5.000000000003741
1040
67.499999999465672
1040
0.5612660075668222
1040
0.5612660075668219
1070
     0
1040
0.7853981633974481
1040
-5.000000000003741
1040
67.499999999465672
1040
-0.5612660075668219
1040
0.5612660075668222
1070
     0
1040
0.0245236365555031
1071
        1
1040
-1.8094267628166749
1040
59.942981476480668
1040
0.0
1002
}
  0
LINE
  5
160B
  8
SAPA_GLAS
 10
25.000000000032191
 20
127.1999999996
 30
0.0
 11
24.497222039681439
 21
127.28865331931161
 31
0.0
  0
LINE
  5
160C
  8
SAPA_GLAS
 10
23.013030214927049
 20
123.1904610689665
 30
0.0
 11
23.013030214927049
 21
123.00000000008851
 31
0.0
  0
ARC
  5
160D
  8
SAPA_GLAS
 10
39.584669372843422
 20
125.0000000000903
 30
0.0
 40
9.9869792597787779
 50
168.44779235426779
 51
191.5522076457321
  0
LINE
  5
160E
  8
SAPA_GLAS
 10
25.00000000003218
 20
90.800000000576773
 30
0.0
 11
24.497222039681439
 21
90.711346680865176
 31
0.0
  0
LINE
  5
160F
  8
SAPA_GLAS
 10
23.013030214927049
 20
94.809538931210284
 30
0.0
 11
23.013030214927049
 21
95.000000000088235
 31
0.0
  0
ARC
  5
1610
  8
SAPA_GLAS
 10
39.584669372843422
 20
93.000000000086416
 30
0.0
 40
9.9869792597787779
 50
168.44779235426779
 51
191.5522076457321
  0
POLYLINE
  5
1611
  8
SAPA_GLAS
 66
     1
 10
0.0
 20
0.0
 30
0.0
 70
     1
  0
VERTEX
  5
1CD0
  8
SAPA_GLAS
 10
22.239527733618331
 20
123.1227883705274
 30
0.0
 42
0.1316524975872964
  0
VERTEX
  5
1CD1
  8
SAPA_GLAS
 10
23.01303021510773
 20
123.19046106886449
 30
0.0
  0
VERTEX
  5
1CD2
  8
SAPA_GLAS
 10
24.530153689731851
 20
123.74264885531601
 30
0.0
 42
0.4142135623734131
  0
VERTEX
  5
1CD3
  8
SAPA_GLAS
 10
24.8289899284662
 20
124.38350523736911
 30
0.0
  0
VERTEX
  5
1CD4
  8
SAPA_GLAS
 10
24.76058589980159
 20
124.5714437615287
 30
0.0
 42
0.4142135623732762
  0
VERTEX
  5
1CD5
  8
SAPA_GLAS
 10
24.376072070568121
 20
124.75074550477279
 30
0.0
  0
VERTEX
  5
1CD6
  8
SAPA_GLAS
 10
24.352858613250209
 20
124.7422964972645
 30
0.0
 42
-0.5773502691875974
  0
VERTEX
  5
1CD7
  8
SAPA_GLAS
 10
24.087493033983868
 20
124.9649646569611
 30
0.0
  0
VERTEX
  5
1CD8
  8
SAPA_GLAS
 10
24.848510556460759
 20
129.28090949645801
 30
0.0
 42
0.4142135623736183
  0
VERTEX
  5
1CD9
  8
SAPA_GLAS
 10
24.60516268385943
 20
129.62844627565411
 30
0.0
  0
VERTEX
  5
1CDA
  8
SAPA_GLAS
 10
24.21123958265726
 20
129.69790554672429
 30
0.0
 42
0.4142135623730951
  0
VERTEX
  5
1CDB
  8
SAPA_GLAS
 10
23.863702803452099
 20
129.4545576741271
 30
0.0
  0
VERTEX
  5
1CDC
  8
SAPA_GLAS
 10
22.992403876634778
 20
124.51317591120571
 30
0.0
 42
-0.4142135623725704
  0
VERTEX
  5
1CDD
  8
SAPA_GLAS
 10
22.413175911293362
 20
124.1075961235408
 30
0.0
  0
VERTEX
  5
1CDE
  8
SAPA_GLAS
 10
15.586824088966299
 20
125.3112661296737
 30
0.0
 42
0.4663076581553405
  0
VERTEX
  5
1CDF
  8
SAPA_GLAS
 10
15.0000000001292
 20
124.81886225316811
 30
0.0
  0
VERTEX
  5
1CE0
  8
SAPA_GLAS
 10
14.999999999927789
 20
93.181137747008691
 30
0.0
 42
0.4663076581553401
  0
VERTEX
  5
1CE1
  8
SAPA_GLAS
 10
15.58682408875867
 20
92.688733870498936
 30
0.0
  0
VERTEX
  5
1CE2
  8
SAPA_GLAS
 10
22.413175911101
 20
93.89240387654155
 30
0.0
 42
-0.4142135623725707
  0
VERTEX
  5
1CE3
  8
SAPA_GLAS
 10
22.992403876437258
 20
93.486824088869284
 30
0.0
  0
VERTEX
  5
1CE4
  8
SAPA_GLAS
 10
23.863702803191661
 20
88.545442325936804
 30
0.0
 42
0.4142135623730951
  0
VERTEX
  5
1CE5
  8
SAPA_GLAS
 10
24.21123958239372
 20
88.302094453335215
 30
0.0
  0
VERTEX
  5
1CE6
  8
SAPA_GLAS
 10
24.605162683596781
 20
88.371553724400357
 30
0.0
 42
0.4142135623736183
  0
VERTEX
  5
1CE7
  8
SAPA_GLAS
 10
24.848510556202541
 20
88.719090503593407
 30
0.0
  0
VERTEX
  5
1CE8
  8
SAPA_GLAS
 10
24.0874930337806
 20
93.035035343100006
 30
0.0
 42
-0.5773502691875974
  0
VERTEX
  5
1CE9
  8
SAPA_GLAS
 10
24.352858613049769
 20
93.257703502793206
 30
0.0
  0
VERTEX
  5
1CEA
  8
SAPA_GLAS
 10
24.37607207036757
 20
93.249254495284532
 30
0.0
 42
0.4142135623732762
  0
VERTEX
  5
1CEB
  8
SAPA_GLAS
 10
24.760585899603331
 20
93.428556238523811
 30
0.0
  0
VERTEX
  5
1CEC
  8
SAPA_GLAS
 10
24.828989928270332
 20
93.616494762682578
 30
0.0
 42
0.4142135623734131
  0
VERTEX
  5
1CED
  8
SAPA_GLAS
 10
24.530153689544139
 20
94.257351144739459
 30
0.0
  0
VERTEX
  5
1CEE
  8
SAPA_GLAS
 10
23.013030214927049
 20
94.809538931210284
 30
0.0
 42
0.1316524975872963
  0
VERTEX
  5
1CEF
  8
SAPA_GLAS
 10
22.239527733438511
 20
94.877211629557252
 30
0.0
  0
VERTEX
  5
1CF0
  8
SAPA_GLAS
 10
16.234729635465818
 20
93.818403711229948
 30
0.0
 42
-0.4663076581547951
  0
VERTEX
  5
1CF1
  8
SAPA_GLAS
 10
15.999999999933831
 20
94.015365261833907
 30
0.0
  0
VERTEX
  5
1CF2
  8
SAPA_GLAS
 10
16.000000000124619
 20
123.9846347383301
 30
0.0
 42
-0.466307658154795
  0
VERTEX
  5
1CF3
  8
SAPA_GLAS
 10
16.234729635659122
 20
124.1815962889311
 30
0.0
  0
SEQEND
  5
1CF4
  8
SAPA_GLAS
  0
POLYLINE
  5
1612
  8
SAPA_GLAS
 66
     1
 10
0.0
 20
0.0
 30
0.0
  0
VERTEX
  5
1CF5
  8
SAPA_GLAS
 10
49.000000000028479
 20
95.000000000088235
 30
0.0
  0
VERTEX
  5
1CF6
  8
SAPA_GLAS
 10
17.000000000028479
 20
95.000000000088235
 30
0.0
  0
VERTEX
  5
1CF7
  8
SAPA_GLAS
 10
17.000000000028479
 20
99.000000000088235
 30
0.0
  0
VERTEX
  5
1CF8
  8
SAPA_GLAS
 10
49.000000000028479
 20
99.000000000088235
 30
0.0
  0
SEQEND
  5
1CF9
  8
SAPA_GLAS
  0
POLYLINE
  5
1613
  8
SAPA_GLAS
 66
     1
 10
0.0
 20
0.0
 30
0.0
  0
VERTEX
  5
1CFA
  8
SAPA_GLAS
 10
27.000000000028489
 20
119.00000000008841
 30
0.0
  0
VERTEX
  5
1CFB
  8
SAPA_GLAS
 10
27.000000000028489
 20
99.000000000088392
 30
0.0
  0
VERTEX
  5
1CFC
  8
SAPA_GLAS
 10
17.000000000028479
 20
99.000000000088392
 30
0.0
  0
VERTEX
  5
1CFD
  8
SAPA_GLAS
 10
17.000000000028489
 20
119.00000000008841
 30
0.0
  0
VERTEX
  5
1CFE
  8
SAPA_GLAS
 10
27.000000000028489
 20
119.00000000008841
 30
0.0
  0
SEQEND
  5
1CFF
  8
SAPA_GLAS
  0
POLYLINE
  5
1614
  8
SAPA_GLAS
 66
     1
 10
0.0
 20
0.0
 30
0.0
  0
VERTEX
  5
1D00
  8
SAPA_GLAS
 10
49.000000000028493
 20
123.00000000008841
 30
0.0
  0
VERTEX
  5
1D01
  8
SAPA_GLAS
 10
17.000000000028489
 20
123.00000000008841
 30
0.0
  0
VERTEX
  5
1D02
  8
SAPA_GLAS
 10
17.000000000028489
 20
119.00000000008841
 30
0.0
  0
VERTEX
  5
1D03
  8
SAPA_GLAS
 10
49.000000000028493
 20
119.00000000008841
 30
0.0
  0
SEQEND
  5
1D04
  8
SAPA_GLAS
  0
INSERT
  5
1615
  8
SAPA_GLAS
  6
CONTINUOUS
  2
*X60
 10
0.0
 20
0.0
 30
0.0
1001
ACAD
1000
HATCH
1002
{
1070
    19
1000
ANSI37
1040
0.25
1040
1.5707963267948959
1000
R14_HATCH_DATA
1000
1615
1011
1.0
1021
-4.5427420268475431E+133
1031
0.0
1021
0.0
1031
0.0
1011
0.0
1021
-4.5427420268475431E+133
1031
0.0
1021
1.0
1031
0.0
1011
0.0
1021
-4.5427420268475431E+133
1031
0.0
1021
0.0
1031
1.0
1040
0.0
1010
0.0
1020
0.0
1030
1.0
1000
ANSI37
1070
     0
1070
     0
1071
        1
1071
        7
1070
     1
1070
     1
1071
       21
1040
29.800000000031499
1040
123.00000000008841
1040
-0.1011549434925542
1040
29.80000000010455
1040
127.0000000004497
1040
0.0
1040
28.700000000032858
1040
127.0000000004424
1040
-0.4142135623731029
1040
28.500000000032131
1040
127.2000000004395
1040
0.0
1040
28.500000000043041
1040
128.00000000044241
1040
0.4142135623730951
1040
28.000000000043048
1040
128.50000000044241
1040
0.0
1040
27.000000000032131
1040
128.4999999999622
1040
0.414213562373094
1040
26.500000000032131
1040
127.9999999999622
1040
0.0
1040
26.500000000032131
1040
127.199999999952
1040
-0.4142135623731048
1040
26.3000000000314
1040
126.9999999999622
1040
0.0
1040
25.200000000032858
1040
126.9999999999622
1040
-0.4142135618575339
1040
25.000000000032131
1040
127.1999999996
1040
0.0
1040
24.497222039927951
1040
127.28865331926809
1040
0.0
1040
24.087493033983868
1040
124.9649646569611
1040
0.5773502691875974
1040
24.352858613250209
1040
124.7422964972645
1040
0.0
1040
24.376072070568121
1040
124.75074550477279
1040
-0.4142135623732763
1040
24.76058589980159
1040
124.5714437615287
1040
0.0
1040
24.8289899284662
1040
124.38350523736911
1040
-0.4142135623734132
1040
24.530153689731851
1040
123.74264885531601
1040
0.0
1040
23.013030214927049
1040
123.1904610687987
1040
0.0
1040
23.013030214927049
1040
123.00000000008841
1040
0.0
1071
        0
1070
     0
1070
     1
1040
1.5707963267948959
1040
0.25
1070
     0
1070
     2
1040
2.3561944901923439
1040
30.000000000032131
1040
85.500000000534328
1040
-0.5612660075668221
1040
-0.5612660075668221
1070
     0
1040
3.926990816987241
1040
30.000000000032131
1040
85.500000000534328
1040
0.5612660075668221
1040
-0.5612660075668221
1070
     0
1040
0.0554184978666472
1071
        1
1040
27.385192219527561
1040
125.0225300130984
1040
0.0
1002
}
  0
INSERT
  5
1616
  8
SAPA_GLAS
  6
CONTINUOUS
  2
*X61
 10
0.0
 20
0.0
 30
0.0
1001
ACAD
1000
HATCH
1002
{
1070
    19
1000
ANSI37
1040
0.25
1040
1.5707963267948959
1000
R14_HATCH_DATA
1000
1616
1011
1.0
1021
-4.5427420268475431E+133
1031
0.0
1021
0.0
1031
0.0
1011
0.0
1021
-4.5427420268475431E+133
1031
0.0
1021
1.0
1031
0.0
1011
0.0
1021
-4.5427420268475431E+133
1031
0.0
1021
0.0
1031
1.0
1040
0.0
1010
0.0
1020
0.0
1030
1.0
1000
ANSI37
1070
     0
1070
     0
1071
        1
1071
        7
1070
     1
1070
     1
1071
       21
1040
23.013030214927049
1040
95.000000000088235
1040
0.0
1040
23.013030214927049
1040
94.809538931210284
1040
0.0
1040
24.530153689544139
1040
94.257351144739459
1040
-0.4142135623734131
1040
24.828989928270332
1040
93.616494762682578
1040
0.0
1040
24.760585899603331
1040
93.428556238523811
1040
-0.4142135623732763
1040
24.37607207036757
1040
93.249254495284532
1040
0.0
1040
24.352858613049769
1040
93.257703502793206
1040
0.5773502691875974
1040
24.0874930337806
1040
93.035035343100006
1040
0.0
1040
24.497222039681439
1040
90.711346680865176
1040
0.0
1040
25.00000000003218
1040
90.800000000576773
1040
-0.4142135623811048
1040
25.200000000032912
1040
91.000000000572072
1040
0.0
1040
26.300000000031449
1040
91.000000000572072
1040
-0.4142135623731048
1040
26.50000000003218
1040
90.800000000582244
1040
0.0
1040
26.50000000003218
1040
90.000000000572072
1040
0.414213562373094
1040
27.00000000003218
1040
89.500000000572058
1040
0.0
1040
28.000000000043109
1040
89.500000000091873
1040
0.4142135623730951
1040
28.500000000043091
1040
90.000000000091887
1040
0.0
1040
28.50000000003218
1040
90.800000000094798
1040
-0.4142135623731029
1040
28.700000000032912
1040
91.000000000091873
1040
0.0
1040
29.800000000031471
1040
91.000000000084626
1040
-0.101154943483322
1040
29.800000000031471
1040
95.000000000088235
1040
0.0
1071
        0
1070
     0
1070
     1
1040
1.5707963267948959
1040
0.25
1070
     0
1070
     2
1040
2.3561944901923439
1040
30.000000000032131
1040
85.500000000534328
1040
-0.5612660075668221
1040
-0.5612660075668221
1070
     0
1040
3.926990816987241
1040
30.000000000032131
1040
85.500000000534328
1040
0.5612660075668221
1040
-0.5612660075668221
1070
     0
1040
0.0245236365555031
1071
        1
1040
26.80942676284506
1040
93.057018523519332
1040
0.0
1002
}
  0
POLYLINE
  5
162F
  8
SAPA_FOGBAND
 66
     1
 10
0.0
 20
0.0
 30
0.0
 70
     1
  0
VERTEX
  5
1DD4
  8
SAPA_FOGBAND
 10
8.6500000002329251
 20
71.750000000637485
 30
0.0
  0
VERTEX
  5
1DD5
  8
SAPA_FOGBAND
 10
8.6500000002329251
 20
70.950000000637303
 30
0.0
  0
VERTEX
  5
1DD6
  8
SAPA_FOGBAND
 10
2.3500000002358421
 20
70.950000000637303
 30
0.0
  0
VERTEX
  5
1DD7
  8
SAPA_FOGBAND
 10
2.3500000002358421
 20
71.750000000637485
 30
0.0
  0
SEQEND
  5
1DD8
  8
SAPA_FOGBAND
  0
POLYLINE
  5
1630
  8
SAPA_FOGBAND
 66
     1
 10
0.0
 20
0.0
 30
0.0
  0
VERTEX
  5
1DD9
  8
SAPA_FOGBAND
 10
3.9273103970933412
 20
70.950000000637303
 30
0.0
  0
VERTEX
  5
1DDA
  8
SAPA_FOGBAND
 10
2.8018637997774181
 20
67.500000000637485
 30
0.0
  0
VERTEX
  5
1DDB
  8
SAPA_FOGBAND
 10
5.2400018463259563
 20
67.500000000637485
 30
0.0
  0
VERTEX
  5
1DDC
  8
SAPA_FOGBAND
 10
5.3500000002329289
 20
70.950000000637303
 30
0.0
  0
SEQEND
  5
1DDD
  8
SAPA_FOGBAND
  0
POLYLINE
  5
1631
  8
SAPA_FOGBAND
 66
     1
 10
0.0
 20
0.0
 30
0.0
  0
VERTEX
  5
1DDE
  8
SAPA_FOGBAND
 10
5.4250000002336574
 20
70.950000000637303
 30
0.0
  0
VERTEX
  5
1DDF
  8
SAPA_FOGBAND
 10
5.4250000002369312
 20
67.500000000637485
 30
0.0
  0
VERTEX
  5
1DE0
  8
SAPA_FOGBAND
 10
5.575000000235117
 20
67.500000000637485
 30
0.0
  0
VERTEX
  5
1DE1
  8
SAPA_FOGBAND
 10
5.5750000002351117
 20
70.950000000637303
 30
0.0
  0
SEQEND
  5
1DE2
  8
SAPA_FOGBAND
  0
POLYLINE
  5
1632
  8
SAPA_FOGBAND
 66
     1
 10
0.0
 20
0.0
 30
0.0
  0
VERTEX
  5
1DE3
  8
SAPA_FOGBAND
 10
5.6500000002358401
 20
70.950000000637303
 30
0.0
  0
VERTEX
  5
1DE4
  8
SAPA_FOGBAND
 10
5.7599973854180853
 20
67.500000000637485
 30
0.0
  0
VERTEX
  5
1DE5
  8
SAPA_FOGBAND
 10
8.1980907258402471
 20
67.500000000637485
 30
0.0
  0
VERTEX
  5
1DE6
  8
SAPA_FOGBAND
 10
7.0726896033754283
 20
70.950000000637303
 30
0.0
  0
SEQEND
  5
1DE7
  8
SAPA_FOGBAND
  0
POLYLINE
  5
1633
  8
SAPA_FOGBAND
 66
     1
 10
0.0
 20
0.0
 30
0.0
 70
     1
  0
VERTEX
  5
1DE8
  8
SAPA_FOGBAND
 10
17.15000000024019
 20
71.750000000419192
 30
0.0
  0
VERTEX
  5
1DE9
  8
SAPA_FOGBAND
 10
17.15000000024019
 20
70.95000000041901
 30
0.0
  0
VERTEX
  5
1DEA
  8
SAPA_FOGBAND
 10
10.85000000024311
 20
70.95000000041901
 30
0.0
  0
VERTEX
  5
1DEB
  8
SAPA_FOGBAND
 10
10.85000000024311
 20
71.750000000419192
 30
0.0
  0
SEQEND
  5
1DEC
  8
SAPA_FOGBAND
  0
POLYLINE
  5
1634
  8
SAPA_FOGBAND
 66
     1
 10
0.0
 20
0.0
 30
0.0
  0
VERTEX
  5
1DED
  8
SAPA_FOGBAND
 10
12.42731039710061
 20
70.95000000041901
 30
0.0
  0
VERTEX
  5
1DEE
  8
SAPA_FOGBAND
 10
11.301863799784689
 20
67.500000000419192
 30
0.0
  0
VERTEX
  5
1DEF
  8
SAPA_FOGBAND
 10
13.74000184633322
 20
67.500000000419192
 30
0.0
  0
VERTEX
  5
1DF0
  8
SAPA_FOGBAND
 10
13.8500000002402
 20
70.95000000041901
 30
0.0
  0
SEQEND
  5
1DF1
  8
SAPA_FOGBAND
  0
POLYLINE
  5
1635
  8
SAPA_FOGBAND
 66
     1
 10
0.0
 20
0.0
 30
0.0
  0
VERTEX
  5
1DF2
  8
SAPA_FOGBAND
 10
13.92500000024093
 20
70.95000000041901
 30
0.0
  0
VERTEX
  5
1DF3
  8
SAPA_FOGBAND
 10
13.9250000002442
 20
67.500000000419192
 30
0.0
  0
VERTEX
  5
1DF4
  8
SAPA_FOGBAND
 10
14.07500000024239
 20
67.500000000419192
 30
0.0
  0
VERTEX
  5
1DF5
  8
SAPA_FOGBAND
 10
14.07500000024238
 20
70.95000000041901
 30
0.0
  0
SEQEND
  5
1DF6
  8
SAPA_FOGBAND
  0
POLYLINE
  5
1636
  8
SAPA_FOGBAND
 66
     1
 10
0.0
 20
0.0
 30
0.0
  0
VERTEX
  5
1DF7
  8
SAPA_FOGBAND
 10
14.150000000243111
 20
70.95000000041901
 30
0.0
  0
VERTEX
  5
1DF8
  8
SAPA_FOGBAND
 10
14.259997385425351
 20
67.500000000419192
 30
0.0
  0
VERTEX
  5
1DF9
  8
SAPA_FOGBAND
 10
16.698090725847521
 20
67.500000000419192
 30
0.0
  0
VERTEX
  5
1DFA
  8
SAPA_FOGBAND
 10
15.572689603382701
 20
70.95000000041901
 30
0.0
  0
SEQEND
  5
1DFB
  8
SAPA_FOGBAND
  0
POLYLINE
  5
1637
  8
SAPA_FOGBAND
 66
     1
 10
0.0
 20
0.0
 30
0.0
  0
VERTEX
  5
1DFC
  8
SAPA_FOGBAND
 10
4.6208303352795133
 20
77.297572673611796
 30
0.0
 42
0.1756065992291647
  0
VERTEX
  5
1DFD
  8
SAPA_FOGBAND
 10
4.6208303352513331
 20
83.705146618690705
 30
0.0
 42
0.8300903082441967
  0
VERTEX
  5
1DFE
  8
SAPA_FOGBAND
 10
3.6547222710894989
 20
83.524195596247765
 30
0.0
 42
-0.7165953663226575
  0
VERTEX
  5
1DFF
  8
SAPA_FOGBAND
 10
2.3198342691230751
 20
83.220386441342356
 30
0.0
  0
VERTEX
  5
1E00
  8
SAPA_FOGBAND
 10
2.253821233166204
 20
83.296341408903345
 30
0.0
 42
0.6937624830513327
  0
VERTEX
  5
1E01
  8
SAPA_FOGBAND
 10
0.850000000658392
 20
82.771555815375535
 30
0.0
  0
VERTEX
  5
1E02
  8
SAPA_FOGBAND
 10
0.8500000006578725
 20
78.228444186122118
 30
0.0
 42
0.6937624830479733
  0
VERTEX
  5
1E03
  8
SAPA_FOGBAND
 10
2.253821233165004
 20
77.703658592592134
 30
0.0
  0
VERTEX
  5
1E04
  8
SAPA_FOGBAND
 10
2.3198342691244669
 20
77.779613560156676
 30
0.0
 42
-0.7165953663226584
  0
VERTEX
  5
1E05
  8
SAPA_FOGBAND
 10
3.654722270927016
 20
77.475804405099169
 30
0.0
 42
0.8300903082441981
  0
VERTEX
  5
1E06
  8
SAPA_FOGBAND
 10
4.6208303350791224
 20
77.294853382604344
 30
0.0
  0
SEQEND
  5
1E07
  8
SAPA_FOGBAND
  0
POLYLINE
  5
1638
  8
SAPA_FOGBAND
 66
     1
 10
0.0
 20
0.0
 30
0.0
  0
VERTEX
  5
1E08
  8
SAPA_FOGBAND
 10
5.2348396318287289
 20
76.946651725677654
 30
0.0
 42
0.1824613590943247
  0
VERTEX
  5
1E09
  8
SAPA_FOGBAND
 10
5.234839631804876
 20
84.05606756661399
 30
0.0
 42
0.7211296999228974
  0
VERTEX
  5
1E0A
  8
SAPA_FOGBAND
 10
3.3406601382505761
 20
83.940944129233685
 30
0.0
  0
VERTEX
  5
1E0B
  8
SAPA_FOGBAND
 10
3.215046281304291
 20
83.646951193270553
 30
0.0
 42
-0.5666398931998444
  0
VERTEX
  5
1E0C
  8
SAPA_FOGBAND
 10
2.8933202805002498
 20
83.527638591436556
 30
0.0
  0
VERTEX
  5
1E0D
  8
SAPA_FOGBAND
 10
2.3114312837128188
 20
83.994284359215897
 30
0.0
  0
VERTEX
  5
1E0E
  8
SAPA_FOGBAND
 10
2.511431283709507
 20
85.550000000756484
 30
0.0
  0
VERTEX
  5
1E0F
  8
SAPA_FOGBAND
 10
1.212876662785314
 20
84.355752227151143
 30
0.0
 42
-0.5406355956263407
  0
VERTEX
  5
1E10
  8
SAPA_FOGBAND
 10
0.7261686607874403
 20
84.478822508220745
 30
0.0
  0
VERTEX
  5
1E11
  8
SAPA_FOGBAND
 10
0.3880258078956284
 20
85.460024856328147
 30
0.0
  0
VERTEX
  5
1E12
  8
SAPA_FOGBAND
 10
-0.6419787583756582
 20
83.774532900089497
 30
0.0
 42
0.1434356650195011
  0
VERTEX
  5
1E13
  8
SAPA_FOGBAND
 10
-0.7999999993527789
 20
83.235022224239685
 30
0.0
  0
VERTEX
  5
1E14
  8
SAPA_FOGBAND
 10
-0.7999999993411376
 20
80.500000000737685
 30
0.0
  0
VERTEX
  5
1E15
  8
SAPA_FOGBAND
 10
-0.7999999993411402
 20
78.067914395200503
 30
0.0
  0
VERTEX
  5
1E16
  8
SAPA_FOGBAND
 10
-0.7999999993414529
 20
77.911982440103642
 30
0.0
  0
VERTEX
  5
1E17
  8
SAPA_FOGBAND
 10
-0.7999999993411402
 20
77.764977777237334
 30
0.0
 42
0.1434356650195009
  0
VERTEX
  5
1E18
  8
SAPA_FOGBAND
 10
-0.6419787583617227
 20
77.225467101387281
 30
0.0
  0
VERTEX
  5
1E19
  8
SAPA_FOGBAND
 10
0.3880258079167369
 20
75.539975145152482
 30
0.0
  0
VERTEX
  5
1E1A
  8
SAPA_FOGBAND
 10
0.7261686608043725
 20
76.521177493262414
 30
0.0
 42
-0.5891605766439352
  0
VERTEX
  5
1E1B
  8
SAPA_FOGBAND
 10
1.212876662801722
 20
76.644247774332243
 30
0.0
  0
VERTEX
  5
1E1C
  8
SAPA_FOGBAND
 10
2.5114312837106239
 20
75.450000000741923
 30
0.0
  0
VERTEX
  5
1E1D
  8
SAPA_FOGBAND
 10
2.3114312837131359
 20
77.005715642282382
 30
0.0
  0
VERTEX
  5
1E1E
  8
SAPA_FOGBAND
 10
2.8933202803375742
 20
77.472361409951318
 30
0.0
 42
-0.5666398931998447
  0
VERTEX
  5
1E1F
  8
SAPA_FOGBAND
 10
3.2150462811352041
 20
77.353048808100041
 30
0.0
  0
VERTEX
  5
1E20
  8
SAPA_FOGBAND
 10
3.3406601380656959
 20
77.059055872130145
 30
0.0
 42
0.7211296999228983
  0
VERTEX
  5
1E21
  8
SAPA_FOGBAND
 10
5.2348396316138039
 20
76.943932434648062
 30
0.0
  0
SEQEND
  5
1E22
  8
SAPA_FOGBAND
  0
POLYLINE
  5
1639
  8
SAPA_FOGBAND
 66
     1
 10
0.0
 20
0.0
 30
0.0
 70
     1
  0
VERTEX
  5
1E23
  8
SAPA_FOGBAND
 10
16.349999999795461
 20
81.249999999362515
 30
0.0
  0
VERTEX
  5
1E24
  8
SAPA_FOGBAND
 10
16.349999999795461
 20
82.049999999362683
 30
0.0
  0
VERTEX
  5
1E25
  8
SAPA_FOGBAND
 10
22.649999999792541
 20
82.049999999362683
 30
0.0
  0
VERTEX
  5
1E26
  8
SAPA_FOGBAND
 10
22.649999999792541
 20
81.249999999362515
 30
0.0
  0
SEQEND
  5
1E27
  8
SAPA_FOGBAND
  0
POLYLINE
  5
163A
  8
SAPA_FOGBAND
 66
     1
 10
0.0
 20
0.0
 30
0.0
  0
VERTEX
  5
1E28
  8
SAPA_FOGBAND
 10
21.072689602935039
 20
82.049999999362683
 30
0.0
  0
VERTEX
  5
1E29
  8
SAPA_FOGBAND
 10
22.198136200250961
 20
85.499999999362515
 30
0.0
  0
VERTEX
  5
1E2A
  8
SAPA_FOGBAND
 10
19.759998153702419
 20
85.499999999362515
 30
0.0
  0
VERTEX
  5
1E2B
  8
SAPA_FOGBAND
 10
19.649999999795451
 20
82.049999999362683
 30
0.0
  0
SEQEND
  5
1E2C
  8
SAPA_FOGBAND
  0
POLYLINE
  5
163B
  8
SAPA_FOGBAND
 66
     1
 10
0.0
 20
0.0
 30
0.0
  0
VERTEX
  5
1E2D
  8
SAPA_FOGBAND
 10
19.574999999794731
 20
82.049999999362683
 30
0.0
  0
VERTEX
  5
1E2E
  8
SAPA_FOGBAND
 10
19.574999999791451
 20
85.499999999362515
 30
0.0
  0
VERTEX
  5
1E2F
  8
SAPA_FOGBAND
 10
19.424999999793261
 20
85.499999999362515
 30
0.0
  0
VERTEX
  5
1E30
  8
SAPA_FOGBAND
 10
19.424999999793268
 20
82.049999999362683
 30
0.0
  0
SEQEND
  5
1E31
  8
SAPA_FOGBAND
  0
POLYLINE
  5
163C
  8
SAPA_FOGBAND
 66
     1
 10
0.0
 20
0.0
 30
0.0
  0
VERTEX
  5
1E32
  8
SAPA_FOGBAND
 10
19.349999999792541
 20
82.049999999362683
 30
0.0
  0
VERTEX
  5
1E33
  8
SAPA_FOGBAND
 10
19.240002614610301
 20
85.499999999362515
 30
0.0
  0
VERTEX
  5
1E34
  8
SAPA_FOGBAND
 10
16.80190927418813
 20
85.499999999362515
 30
0.0
  0
VERTEX
  5
1E35
  8
SAPA_FOGBAND
 10
17.927310396652949
 20
82.049999999362683
 30
0.0
  0
SEQEND
  5
1E36
  8
SAPA_FOGBAND
  0
POLYLINE
  5
163D
  8
SAPA_FOGBAND
 66
     1
 10
0.0
 20
0.0
 30
0.0
 70
     1
  0
VERTEX
  5
1E37
  8
SAPA_FOGBAND
 10
7.8499999997881806
 20
81.249999999580808
 30
0.0
  0
VERTEX
  5
1E38
  8
SAPA_FOGBAND
 10
7.8499999997881806
 20
82.04999999958099
 30
0.0
  0
VERTEX
  5
1E39
  8
SAPA_FOGBAND
 10
14.14999999978526
 20
82.04999999958099
 30
0.0
  0
VERTEX
  5
1E3A
  8
SAPA_FOGBAND
 10
14.14999999978526
 20
81.249999999580808
 30
0.0
  0
SEQEND
  5
1E3B
  8
SAPA_FOGBAND
  0
POLYLINE
  5
163E
  8
SAPA_FOGBAND
 66
     1
 10
0.0
 20
0.0
 30
0.0
  0
VERTEX
  5
1E3C
  8
SAPA_FOGBAND
 10
12.57268960292776
 20
82.04999999958099
 30
0.0
  0
VERTEX
  5
1E3D
  8
SAPA_FOGBAND
 10
13.69813620024369
 20
85.499999999580794
 30
0.0
  0
VERTEX
  5
1E3E
  8
SAPA_FOGBAND
 10
11.25999815369515
 20
85.499999999580794
 30
0.0
  0
VERTEX
  5
1E3F
  8
SAPA_FOGBAND
 10
11.14999999978818
 20
82.04999999958099
 30
0.0
  0
SEQEND
  5
1E40
  8
SAPA_FOGBAND
  0
POLYLINE
  5
163F
  8
SAPA_FOGBAND
 66
     1
 10
0.0
 20
0.0
 30
0.0
  0
VERTEX
  5
1E41
  8
SAPA_FOGBAND
 10
11.074999999787449
 20
82.04999999958099
 30
0.0
  0
VERTEX
  5
1E42
  8
SAPA_FOGBAND
 10
11.074999999784181
 20
85.499999999580794
 30
0.0
  0
VERTEX
  5
1E43
  8
SAPA_FOGBAND
 10
10.924999999785991
 20
85.499999999580794
 30
0.0
  0
VERTEX
  5
1E44
  8
SAPA_FOGBAND
 10
10.924999999785991
 20
82.04999999958099
 30
0.0
  0
SEQEND
  5
1E45
  8
SAPA_FOGBAND
  0
POLYLINE
  5
1640
  8
SAPA_FOGBAND
 66
     1
 10
0.0
 20
0.0
 30
0.0
  0
VERTEX
  5
1E46
  8
SAPA_FOGBAND
 10
10.84999999978527
 20
82.04999999958099
 30
0.0
  0
VERTEX
  5
1E47
  8
SAPA_FOGBAND
 10
10.74000261460302
 20
85.499999999580794
 30
0.0
  0
VERTEX
  5
1E48
  8
SAPA_FOGBAND
 10
8.3019092741808596
 20
85.499999999580794
 30
0.0
  0
VERTEX
  5
1E49
  8
SAPA_FOGBAND
 10
9.4273103966456802
 20
82.04999999958099
 30
0.0
  0
SEQEND
  5
1E4A
  8
SAPA_FOGBAND
  0
POLYLINE
  5
1641
  8
SAPA_FOGBAND
 66
     1
 10
0.0
 20
0.0
 30
0.0
  0
VERTEX
  5
1E4B
  8
SAPA_FOGBAND
 10
20.379169664748868
 20
75.702427326388204
 30
0.0
 42
0.1756065992291647
  0
VERTEX
  5
1E4C
  8
SAPA_FOGBAND
 10
20.379169664777049
 20
69.294853381309295
 30
0.0
 42
0.8300903082441967
  0
VERTEX
  5
1E4D
  8
SAPA_FOGBAND
 10
21.345277728938878
 20
69.47580440375225
 30
0.0
 42
-0.7165953663226575
  0
VERTEX
  5
1E4E
  8
SAPA_FOGBAND
 10
22.680165730905301
 20
69.77961355865763
 30
0.0
  0
VERTEX
  5
1E4F
  8
SAPA_FOGBAND
 10
22.746178766862169
 20
69.703658591096655
 30
0.0
 42
0.6937624830513327
  0
VERTEX
  5
1E50
  8
SAPA_FOGBAND
 10
24.149999999369989
 20
70.22844418462445
 30
0.0
  0
VERTEX
  5
1E51
  8
SAPA_FOGBAND
 10
24.149999999370511
 20
74.771555813877882
 30
0.0
 42
0.6937624830479733
  0
VERTEX
  5
1E52
  8
SAPA_FOGBAND
 10
22.74617876686338
 20
75.296341407407866
 30
0.0
  0
VERTEX
  5
1E53
  8
SAPA_FOGBAND
 10
22.680165730903909
 20
75.220386439843324
 30
0.0
 42
-0.7165953663226584
  0
VERTEX
  5
1E54
  8
SAPA_FOGBAND
 10
21.345277729101369
 20
75.524195594900831
 30
0.0
 42
0.8300903082441981
  0
VERTEX
  5
1E55
  8
SAPA_FOGBAND
 10
20.379169664949259
 20
75.70514661739567
 30
0.0
  0
SEQEND
  5
1E56
  8
SAPA_FOGBAND
  0
POLYLINE
  5
1642
  8
SAPA_FOGBAND
 66
     1
 10
0.0
 20
0.0
 30
0.0
  0
VERTEX
  5
1E57
  8
SAPA_FOGBAND
 10
19.765160368199648
 20
76.053348274322346
 30
0.0
 42
0.1824613590943247
  0
VERTEX
  5
1E58
  8
SAPA_FOGBAND
 10
19.765160368223501
 20
68.94393243338601
 30
0.0
 42
0.7211296999228974
  0
VERTEX
  5
1E59
  8
SAPA_FOGBAND
 10
21.659339861777799
 20
69.059055870766315
 30
0.0
  0
VERTEX
  5
1E5A
  8
SAPA_FOGBAND
 10
21.78495371872409
 20
69.353048806729447
 30
0.0
 42
-0.5666398931998444
  0
VERTEX
  5
1E5B
  8
SAPA_FOGBAND
 10
22.106679719528131
 20
69.472361408563444
 30
0.0
  0
VERTEX
  5
1E5C
  8
SAPA_FOGBAND
 10
22.688568716315562
 20
69.005715640784103
 30
0.0
  0
VERTEX
  5
1E5D
  8
SAPA_FOGBAND
 10
22.48856871631887
 20
67.449999999243516
 30
0.0
  0
VERTEX
  5
1E5E
  8
SAPA_FOGBAND
 10
23.78712333724307
 20
68.644247772848843
 30
0.0
 42
-0.5406355956263407
  0
VERTEX
  5
1E5F
  8
SAPA_FOGBAND
 10
24.273831339240939
 20
68.52117749177927
 30
0.0
  0
VERTEX
  5
1E60
  8
SAPA_FOGBAND
 10
24.611974192132749
 20
67.539975143671853
 30
0.0
  0
VERTEX
  5
1E61
  8
SAPA_FOGBAND
 10
25.64197875840404
 20
69.225467099910503
 30
0.0
 42
0.1434356650195011
  0
VERTEX
  5
1E62
  8
SAPA_FOGBAND
 10
25.799999999381161
 20
69.764977775760315
 30
0.0
  0
VERTEX
  5
1E63
  8
SAPA_FOGBAND
 10
25.799999999369518
 20
72.499999999262315
 30
0.0
  0
VERTEX
  5
1E64
  8
SAPA_FOGBAND
 10
25.799999999369518
 20
74.932085604799482
 30
0.0
  0
VERTEX
  5
1E65
  8
SAPA_FOGBAND
 10
25.799999999369842
 20
75.088017559896358
 30
0.0
  0
VERTEX
  5
1E66
  8
SAPA_FOGBAND
 10
25.799999999369518
 20
75.235022222762666
 30
0.0
 42
0.1434356650195009
  0
VERTEX
  5
1E67
  8
SAPA_FOGBAND
 10
25.641978758390099
 20
75.774532898612719
 30
0.0
  0
VERTEX
  5
1E68
  8
SAPA_FOGBAND
 10
24.611974192111649
 20
77.460024854847504
 30
0.0
  0
VERTEX
  5
1E69
  8
SAPA_FOGBAND
 10
24.27383133922401
 20
76.478822506737586
 30
0.0
 42
-0.5891605766439352
  0
VERTEX
  5
1E6A
  8
SAPA_FOGBAND
 10
23.78712333722666
 20
76.355752225667743
 30
0.0
  0
VERTEX
  5
1E6B
  8
SAPA_FOGBAND
 10
22.488568716317761
 20
77.549999999258077
 30
0.0
  0
VERTEX
  5
1E6C
  8
SAPA_FOGBAND
 10
22.688568716315249
 20
75.994284357717618
 30
0.0
  0
VERTEX
  5
1E6D
  8
SAPA_FOGBAND
 10
22.10667971969081
 20
75.527638590048682
 30
0.0
 42
-0.5666398931998447
  0
VERTEX
  5
1E6E
  8
SAPA_FOGBAND
 10
21.784953718893181
 20
75.646951191899959
 30
0.0
  0
VERTEX
  5
1E6F
  8
SAPA_FOGBAND
 10
21.659339861962678
 20
75.940944127869855
 30
0.0
 42
0.7211296999228983
  0
VERTEX
  5
1E70
  8
SAPA_FOGBAND
 10
19.76516036841458
 20
76.056067565351938
 30
0.0
  0
SEQEND
  5
1E71
  8
SAPA_FOGBAND
  0
DIMENSION
  5
164C
  8
SAPA_MATT
  2
*D32
 10
-6.3999999998743453
 20
181.50000000092049
 30
0.0
 11
12.599999999947389
 21
184.25000000092049
 31
0.0
 70
     0
 13
31.599999999769128
 23
160.00003383590311
 33
0.0
 14
-6.3999999998743462
 24
160.0000000009189
 34
0.0
 50
180.0
1001
ACAD
1000
DSTYLE
1002
{
1070
    40
1040
1.0
1002
}
  0
DIMENSION
  5
164D
  8
SAPA_MATT
  2
*D31
 10
-56.000000000000178
 20
-8.5000000009207355
 30
0.0
 11
-56.000000000000171
 21
76.499999999999545
 31
0.0
 70
   128
 13
-4.8999999998743462
 23
161.50000000091981
 33
0.0
 14
-5.1000000001045116
 24
-8.5000000009207497
 34
0.0
 50
270.0
1001
ACAD
1000
DSTYLE
1002
{
1070
    40
1040
1.0
1002
}
  0
DIMENSION
  5
164E
  8
SAPA_MATT
  2
*D30
 10
-44.000000000000192
 20
-8.500000000920739
 30
0.0
 11
-44.000000000000192
 21
5.9999999995789892
 31
0.0
 70
   128
 13
10.00000000017449
 23
20.5000000000787
 33
0.0
 14
-5.1000000001045116
 24
-8.5000000009207497
 34
0.0
 50
270.0
1001
ACAD
1000
DSTYLE
1002
{
1070
   287
1070
     4
1070
    40
1040
1.0
1070
   279
1070
     1
1002
}
  0
DIMENSION
  5
164F
  8
SAPA_MATT
  2
*D29
 10
-44.000000000000213
 20
20.500000000078721
 30
0.0
 11
-46.75000000000022
 21
43.999999999732843
 31
0.0
 70
     0
 13
10.000000000174451
 23
67.499999999387001
 33
0.0
 14
10.00000000017449
 24
20.5000000000787
 34
0.0
 50
270.0
1001
ACAD
1000
DSTYLE
1002
{
1070
   287
1070
     4
1070
    40
1040
1.0
1070
   279
1070
     1
1002
}
  0
DIMENSION
  5
1650
  8
SAPA_MATT
  2
*D28
 10
-44.000000000000192
 20
67.499999999387015
 30
0.0
 11
-44.000000000000192
 21
114.50000000015341
 31
0.0
 70
   128
 13
-4.8999999998743462
 23
161.50000000091981
 33
0.0
 14
10.000000000174451
 24
67.499999999387001
 34
0.0
 50
270.0
1001
ACAD
1000
DSTYLE
1002
{
1070
    40
1040
1.0
1002
}
  0
VIEWPORT
  5
C4
 67
     1
  8
0
 10
160.5543545598442
 20
116.00969601843509
 30
0.0
 40
404.96977709277462
 41
256.8421457311839
 68
     1
 69
     1
1001
ACAD
1000
MVIEW
1002
{
1070
    16
1010
0.0
1020
0.0
1030
0.0
1010
0.0
1020
0.0
1030
1.0
1040
0.0
1040
256.8421457311839
1040
99.206250190734863
1040
130.70624923706049
1040
50.0
1040
0.0
1040
0.0
1070
     0
1070
     0
1070
     1
1070
     1
1070
     0
1070
     0
1070
     0
1070
     0
1040
0.0
1040
0.0
1040
0.0
1040
10.0
1040
10.0
1040
10.0
1040
10.0
1070
     0
1002
{
1002
}
1002
}
  0
ENDSEC
  0
EOF
