  0
SECTION
  2
HEADER
  9
$ACADVER
  1
AC1009
  9
$INSBASE
 10
0.0
 20
0.0
 30
0.0
  9
$EXTMIN
 10
-30.619466477045879
 20
-57.500000000000213
 30
-0.2
  9
$EXTMAX
 10
194.003255934413
 20
79.755365308950246
 30
0.0000000048844772
  9
$LIMMIN
 10
0.0
 20
0.0
  9
$LIMMAX
 10
790.0
 20
790.0
  9
$ORTHOMODE
 70
     1
  9
$REGENMODE
 70
     1
  9
$FILLMODE
 70
     1
  9
$QTEXTMODE
 70
     0
  9
$MIRRTEXT
 70
     1
  9
$DRAGMODE
 70
     2
  9
$LTSCALE
 40
4.0
  9
$OSMODE
 70
   167
  9
$ATTMODE
 70
     1
  9
$TEXTSIZE
 40
3.5
  9
$TRACEWID
 40
0.05
  9
$TEXTSTYLE
  7
ISO
  9
$CLAYER
  8
0
  9
$CELTYPE
  6
BYLAYER
  9
$CECOLOR
 62
   256
  9
$DIMSCALE
 40
0.0
  9
$DIMASZ
 40
3.0
  9
$DIMEXO
 40
1.5
  9
$DIMDLI
 40
10.0
  9
$DIMRND
 40
0.0
  9
$DIMDLE
 40
0.0
  9
$DIMEXE
 40
1.5
  9
$DIMTP
 40
0.0
  9
$DIMTM
 40
0.0
  9
$DIMTXT
 40
3.5
  9
$DIMCEN
 40
-5.0
  9
$DIMTSZ
 40
0.0
  9
$DIMTOL
 70
     0
  9
$DIMLIM
 70
     0
  9
$DIMTIH
 70
     0
  9
$DIMTOH
 70
     0
  9
$DIMSE1
 70
     0
  9
$DIMSE2
 70
     0
  9
$DIMTAD
 70
     1
  9
$DIMZIN
 70
     8
  9
$DIMBLK
  1

  9
$DIMASO
 70
     1
  9
$DIMSHO
 70
     1
  9
$DIMPOST
  1

  9
$DIMAPOST
  1

  9
$DIMALT
 70
     0
  9
$DIMALTD
 70
     0
  9
$DIMALTF
 40
25.399999999999999
  9
$DIMLFAC
 40
-1.0
  9
$DIMTOFL
 70
     1
  9
$DIMTVP
 40
0.0
  9
$DIMTIX
 70
     0
  9
$DIMSOXD
 70
     0
  9
$DIMSAH
 70
     0
  9
$DIMBLK1
  1

  9
$DIMBLK2
  1

  9
$DIMSTYLE
  2
MASKIN
  9
$DIMCLRD
 70
   256
  9
$DIMCLRE
 70
   256
  9
$DIMCLRT
 70
     2
  9
$DIMTFAC
 40
1.0
  9
$DIMGAP
 40
1.0
  9
$LUNITS
 70
     2
  9
$LUPREC
 70
     8
  9
$SKETCHINC
 40
0.1
  9
$FILLETRAD
 40
0.0
  9
$AUNITS
 70
     0
  9
$AUPREC
 70
     8
  9
$MENU
  1
ACAD
  9
$ELEVATION
 40
0.0
  9
$PELEVATION
 40
0.0
  9
$THICKNESS
 40
0.0
  9
$LIMCHECK
 70
     0
  9
$BLIPMODE
 70
     0
  9
$CHAMFERA
 40
0.0
  9
$CHAMFERB
 40
0.0
  9
$SKPOLY
 70
     0
  9
$TDCREATE
 40
2455734.518348461
  9
$TDUPDATE
 40
2455994.5008029868
  9
$TDINDWG
 40
1.1460471758999999
  9
$TDUSRTIMER
 40
1.1460469906999999
  9
$USRTIMER
 70
     1
  9
$ANGBASE
 50
0.0
  9
$ANGDIR
 70
     0
  9
$PDMODE
 70
     0
  9
$PDSIZE
 40
0.0
  9
$PLINEWID
 40
0.0
  9
$COORDS
 70
     1
  9
$SPLFRAME
 70
     0
  9
$SPLINETYPE
 70
     6
  9
$SPLINESEGS
 70
     8
  9
$ATTDIA
 70
     0
  9
$ATTREQ
 70
     1
  9
$HANDLING
 70
     1
  9
$HANDSEED
  5
17C5
  9
$SURFTAB1
 70
     6
  9
$SURFTAB2
 70
     6
  9
$SURFTYPE
 70
     6
  9
$SURFU
 70
     6
  9
$SURFV
 70
     6
  9
$UCSNAME
  2

  9
$UCSORG
 10
0.0
 20
0.0
 30
0.0
  9
$UCSXDIR
 10
1.0
 20
0.0
 30
0.0
  9
$UCSYDIR
 10
0.0
 20
1.0
 30
0.0
  9
$PUCSNAME
  2

  9
$PUCSORG
 10
0.0
 20
0.0
 30
0.0
  9
$PUCSXDIR
 10
1.0
 20
0.0
 30
0.0
  9
$PUCSYDIR
 10
0.0
 20
1.0
 30
0.0
  9
$USERI1
 70
     0
  9
$USERI2
 70
     0
  9
$USERI3
 70
     0
  9
$USERI4
 70
     0
  9
$USERI5
 70
     0
  9
$USERR1
 40
0.0
  9
$USERR2
 40
0.0
  9
$USERR3
 40
0.0
  9
$USERR4
 40
0.0
  9
$USERR5
 40
0.0
  9
$WORLDVIEW
 70
     1
  9
$SHADEDGE
 70
     3
  9
$SHADEDIF
 70
    70
  9
$TILEMODE
 70
     1
  9
$MAXACTVP
 70
    16
  9
$PLIMCHECK
 70
     0
  9
$PEXTMIN
 10
1.0000000000000000E+020
 20
1.0000000000000000E+020
 30
1.0000000000000000E+020
  9
$PEXTMAX
 10
-1.0000000000000000E+020
 20
-1.0000000000000000E+020
 30
-1.0000000000000000E+020
  9
$PLIMMIN
 10
-5.069427490234375
 20
-5.8737497329711914
  9
$PLIMMAX
 10
291.89889526367187
 20
204.0995779037475
  9
$UNITMODE
 70
     0
  9
$VISRETAIN
 70
     1
  9
$PLINEGEN
 70
     0
  9
$PSLTSCALE
 70
     1
  0
ENDSEC
  0
SECTION
  2
TABLES
  0
TABLE
  2
VPORT
 70
     1
  0
VPORT
  2
*ACTIVE
 70
     0
 10
0.0
 20
0.0
 11
1.0
 21
1.0
 12
86.705523155676616
 22
47.74819224398702
 13
0.0
 23
0.0
 14
1.0
 24
1.0
 15
0.0
 25
0.0
 16
0.0
 26
0.0
 36
1.0
 17
0.0
 27
0.0
 37
0.0
 40
149.25680624214351
 41
2.37391304347826
 42
50.0
 43
0.0
 44
0.0
 50
0.0
 51
0.0
 71
     0
 72
   100
 73
     1
 74
     1
 75
     0
 76
     0
 77
     0
 78
     0
  0
ENDTAB
  0
TABLE
  2
LTYPE
 70
     4
  0
LTYPE
  2
CONTINUOUS
 70
     0
  3
Solid line
 72
    65
 73
     0
 40
0.0
  0
LTYPE
  2
BYGG-027390$0$NEWDOT
 70
     0
  3
____ . ____ . ____ . ____ . ____ . ____ . ____
 72
    65
 73
     4
 40
2.0
 49
1.0
 49
-0.5
 49
0.0
 49
-0.5
  0
LTYPE
  2
BYGG-027368$0$NEWDOT
 70
     0
  3
____ . ____ . ____ . ____ . ____ . ____ . ____
 72
    65
 73
     4
 40
2.0
 49
1.0
 49
-0.5
 49
0.0
 49
-0.5
  0
LTYPE
  2
BYGG-027378$0$NEWDOT
 70
     0
  3
____ . ____ . ____ . ____ . ____ . ____ . ____
 72
    65
 73
     4
 40
2.0
 49
1.0
 49
-0.5
 49
0.0
 49
-0.5
  0
ENDTAB
  0
TABLE
  2
LAYER
 70
    35
  0
LAYER
  2
0
 70
     0
 62
     7
  6
CONTINUOUS
  0
LAYER
  2
DEFPOINTS
 70
     0
 62
     7
  6
CONTINUOUS
  0
LAYER
  2
SAPA_ARTIKELNR
 70
     0
 62
     4
  6
CONTINUOUS
  0
LAYER
  2
SAPA_ANSLUTNING
 70
     0
 62
     6
  6
CONTINUOUS
  0
LAYER
  2
SAPA_MATT
 70
     0
 62
     1
  6
CONTINUOUS
  0
LAYER
  2
SAPA_GLAS
 70
     0
 62
     4
  6
CONTINUOUS
  0
LAYER
  2
SAPA_FOGBAND
 70
     0
 62
     2
  6
CONTINUOUS
  0
LAYER
  2
SAPA_PROFIL
 70
     0
 62
     7
  6
CONTINUOUS
  0
ENDTAB
  0
TABLE
  2
STYLE
 70
    16
  0
STYLE
  2
STANDARD
 70
     0
 40
0.0
 41
1.0
 50
0.0
 71
     0
 42
0.2
  3
txt
  4

  0
STYLE
  2
ISO
 70
     0
 40
0.0
 41
1.0
 50
0.0
 71
     0
 42
3.5
  3
txt
  4

  0
STYLE
  2
BYGG-027392$0$STANDARD
 70
     0
 40
0.0
 41
1.0
 50
0.0
 71
     0
 42
0.2
  3
txt
  4

  0
STYLE
  2
BYGG-027392$0$ISO
 70
     0
 40
0.0
 41
1.0
 50
0.0
 71
     0
 42
3.5
  3
txt
  4

  0
STYLE
  2
BYGG-027457$0$STANDARD
 70
     0
 40
0.0
 41
1.0
 50
0.0
 71
     0
 42
0.2
  3
txt
  4

  0
STYLE
  2
BYGG-027457$0$ISO
 70
     0
 40
0.0
 41
1.0
 50
0.0
 71
     0
 42
3.5
  3
txt
  4

  0
STYLE
  2
BYGG-027390$0$STANDARD
 70
     0
 40
0.0
 41
1.0
 50
0.0
 71
     0
 42
0.2
  3
txt
  4

  0
STYLE
  2
BYGG-027390$0$ISO
 70
     0
 40
0.0
 41
1.0
 50
0.0
 71
     0
 42
3.5
  3
txt
  4

  0
STYLE
  2
BYGG-027458$0$STANDARD
 70
     0
 40
0.0
 41
1.0
 50
0.0
 71
     0
 42
0.2
  3
txt
  4

  0
STYLE
  2
BYGG-027458$0$ISO
 70
     0
 40
0.0
 41
1.0
 50
0.0
 71
     0
 42
3.5
  3
txt
  4

  0
STYLE
  2
BYGG-027368$0$STANDARD
 70
     0
 40
0.0
 41
1.0
 50
0.0
 71
     0
 42
0.2
  3
txt
  4

  0
STYLE
  2
BYGG-027368$0$ISO
 70
     0
 40
0.0
 41
1.0
 50
0.0
 71
     0
 42
3.5
  3
txt
  4

  0
STYLE
  2
BYGG-027398$0$STANDARD
 70
     0
 40
0.0
 41
1.0
 50
0.0
 71
     0
 42
0.2
  3
txt
  4

  0
STYLE
  2
BYGG-027398$0$ISO
 70
     0
 40
0.0
 41
1.0
 50
0.0
 71
     0
 42
3.5
  3
txt
  4

  0
STYLE
  2
BYGG-027378$0$STANDARD
 70
     0
 40
0.0
 41
1.0
 50
0.0
 71
     0
 42
0.2
  3
txt
  4

  0
STYLE
  2
BYGG-027378$0$ISO
 70
     0
 40
0.0
 41
1.0
 50
0.0
 71
     0
 42
3.5
  3
txt
  4

  0
ENDTAB
  0
TABLE
  2
VIEW
 70
     0
  0
ENDTAB
  0
TABLE
  2
UCS
 70
     0
  0
ENDTAB
  0
TABLE
  2
APPID
 70
    28
  0
APPID
  2
ACAD
 70
     0
  0
APPID
  2
ACAD_DSTYLE_DIMTEXT_FILL
 70
     0
  0
APPID
  2
ACAD_DSTYLE_DIMEXT_LENGTH
 70
     0
  0
APPID
  2
ACAD_DSTYLE_DIMEXT_ENABLED
 70
     0
  0
APPID
  2
ACAD_DSTYLE_DIM_LINETYPE
 70
     0
  0
APPID
  2
ACAD_DSTYLE_DIM_EXT1_LINETYPE
 70
     0
  0
APPID
  2
ACAD_DSTYLE_DIM_EXT2_LINETYPE
 70
     0
  0
APPID
  2
ACAD_DSTYLE_DIMJOGGED_JOGA
 70
     0
  0
APPID
  2
ACAD_DSTYLE_DIMARC_LENGTH_
 70
     0
  0
APPID
  2
ACAD_PSEXT
 70
     0
  0
APPID
  2
ACAD_MLEADERVER
 70
     0
  0
APPID
  2
GENIUS_GENODEF_13
 70
     0
  0
APPID
  2
RC_PROFILE
 70
     0
  0
APPID
  2
ACAECLAYERSTANDARD
 70
     0
  0
APPID
  2
GENIUS_GENOBJ-N-FIL_13
 70
     0
  0
APPID
  2
ACADANNOTATIVE
 70
     0
  0
APPID
  2
ACAD_EXEMPT_FROM_CAD_STANDARDS
 70
     0
  0
APPID
  2
AEC_XDATA_BOUND_SPACE
 70
     0
  0
APPID
  2
ACAD_DSTYLE_DIMJAG
 70
     0
  0
APPID
  2
ACAD_DSTYLE_DIMTALN
 70
     0
  0
APPID
  2
GENIUS_GENREC_14
 70
     0
  0
APPID
  2
GENIUS_GENOBJ-N-REC_13
 70
     0
  0
APPID
  2
ACDBDYNAMICBLOCKTRUENAME
 70
     0
  0
APPID
  2
ACDBBLOCKREPETAG
 70
     0
  0
APPID
  2
ACDBDYNAMICBLOCKGUID
 70
     0
  0
APPID
  2
ACDBBLOCKREPBTAG
 70
     0
  0
APPID
  2
ACAD_NAV_VCDISPLAY
 70
     0
  0
APPID
  2
ACCMTRANSPARENCY
 70
     0
  0
ENDTAB
  0
TABLE
  2
DIMSTYLE
 70
     8
  0
DIMSTYLE
  2
MASKIN
 70
     0
  3

  4

  5

  6

  7

 40
0.0
 41
3.0
 42
1.5
 43
10.0
 44
1.5
 45
0.0
 46
0.0
 47
0.0
 48
0.0
140
3.5
141
-5.0
142
0.0
143
25.399999999999999
144
-1.0
145
0.0
146
1.0
147
1.0
 71
     0
 72
     0
 73
     0
 74
     0
 75
     0
 76
     0
 77
     1
 78
     8
170
     0
171
     0
172
     1
173
     0
174
     0
175
     0
176
   256
177
   256
178
     2
  0
DIMSTYLE
  2
BYGG-027392$0$MASKIN
 70
     0
  3

  4

  5

  6

  7

 40
0.0
 41
3.0
 42
1.5
 43
10.0
 44
1.5
 45
0.0
 46
0.0
 47
0.0
 48
0.0
140
3.0
141
-5.0
142
0.0
143
25.399999999999999
144
-1.0
145
0.0
146
1.0
147
1.0
 71
     0
 72
     0
 73
     0
 74
     0
 75
     0
 76
     0
 77
     1
 78
     8
170
     0
171
     0
172
     1
173
     0
174
     0
175
     0
176
   256
177
   256
178
     2
  0
DIMSTYLE
  2
BYGG-027457$0$MASKIN
 70
     0
  3

  4

  5

  6

  7

 40
0.0
 41
3.0
 42
1.5
 43
10.0
 44
1.5
 45
0.0
 46
0.0
 47
0.0
 48
0.0
140
3.0
141
-5.0
142
0.0
143
25.399999999999999
144
-1.0
145
0.0
146
1.0
147
1.0
 71
     0
 72
     0
 73
     0
 74
     0
 75
     0
 76
     0
 77
     1
 78
     8
170
     0
171
     0
172
     1
173
     0
174
     0
175
     0
176
   256
177
   256
178
     2
  0
DIMSTYLE
  2
BYGG-027390$0$MASKIN
 70
     0
  3

  4

  5

  6

  7

 40
0.0
 41
3.0
 42
1.5
 43
10.0
 44
1.5
 45
0.0
 46
0.0
 47
0.0
 48
0.0
140
3.0
141
-5.0
142
0.0
143
25.399999999999999
144
-1.0
145
0.0
146
1.0
147
1.0
 71
     0
 72
     0
 73
     0
 74
     0
 75
     0
 76
     0
 77
     1
 78
     8
170
     0
171
     0
172
     1
173
     0
174
     0
175
     0
176
   256
177
   256
178
     2
  0
DIMSTYLE
  2
BYGG-027458$0$MASKIN
 70
     0
  3

  4

  5

  6

  7

 40
0.0
 41
3.0
 42
1.5
 43
10.0
 44
1.5
 45
0.0
 46
0.0
 47
0.0
 48
0.0
140
3.0
141
-5.0
142
0.0
143
25.399999999999999
144
-1.0
145
0.0
146
1.0
147
1.0
 71
     0
 72
     0
 73
     0
 74
     0
 75
     0
 76
     0
 77
     1
 78
     8
170
     0
171
     0
172
     1
173
     0
174
     0
175
     0
176
   256
177
   256
178
     2
  0
DIMSTYLE
  2
BYGG-027368$0$MASKIN
 70
     0
  3

  4

  5

  6

  7

 40
0.0
 41
3.0
 42
1.5
 43
10.0
 44
1.5
 45
0.0
 46
0.0
 47
0.0
 48
0.0
140
3.0
141
-5.0
142
0.0
143
25.399999999999999
144
-1.0
145
0.0
146
1.0
147
1.0
 71
     0
 72
     0
 73
     0
 74
     0
 75
     0
 76
     0
 77
     1
 78
     8
170
     0
171
     0
172
     1
173
     0
174
     0
175
     0
176
   256
177
   256
178
     2
  0
DIMSTYLE
  2
BYGG-027398$0$MASKIN
 70
     0
  3

  4

  5

  6

  7

 40
0.0
 41
3.0
 42
1.5
 43
10.0
 44
1.5
 45
0.0
 46
0.0
 47
0.0
 48
0.0
140
3.0
141
-5.0
142
0.0
143
25.399999999999999
144
-1.0
145
0.0
146
1.0
147
1.0
 71
     0
 72
     0
 73
     0
 74
     0
 75
     0
 76
     0
 77
     1
 78
     8
170
     0
171
     0
172
     1
173
     0
174
     0
175
     0
176
   256
177
   256
178
     2
  0
DIMSTYLE
  2
BYGG-027378$0$MASKIN
 70
     0
  3

  4

  5

  6

  7

 40
0.0
 41
3.0
 42
1.5
 43
10.0
 44
1.5
 45
0.0
 46
0.0
 47
0.0
 48
0.0
140
3.0
141
-5.0
142
0.0
143
25.399999999999999
144
-1.0
145
0.0
146
1.0
147
1.0
 71
     0
 72
     0
 73
     0
 74
     0
 75
     0
 76
     0
 77
     1
 78
     8
170
     0
171
     0
172
     1
173
     0
174
     0
175
     0
176
   256
177
   256
178
     2
  0
ENDTAB
  0
ENDSEC
  0
SECTION
  2
BLOCKS
  0
BLOCK
  8
0
  2
$MODEL_SPACE
 70
     0
 10
0.0
 20
0.0
 30
0.0
  3
$MODEL_SPACE
  1

  0
ENDBLK
  5
37
  8
0
  0
BLOCK
 67
     1
  8
0
  2
$PAPER_SPACE
 70
     0
 10
0.0
 20
0.0
 30
0.0
  3
$PAPER_SPACE
  1

  0
ENDBLK
  5
35
 67
     1
  8
0
  0
BLOCK
  8
0
  2
*D30
 70
     1
 10
0.0
 20
0.0
 30
0.0
  3
*D30
  1

  0
LINE
  5
1725
  8
SAPA_MATT
 10
14.000000000000121
 20
-0.0000000000001275
 30
0.0
 11
-7.4999999999999316
 21
-0.0000000000001214
 31
0.0
  0
LINE
  5
1726
  8
SAPA_MATT
 10
20.75000000005959
 20
-5.0000000000038067
 30
0.0
 11
-7.4999999999999334
 21
-5.0000000000037987
 31
0.0
  0
LINE
  5
1727
  8
SAPA_MATT
 10
-5.9999999999999316
 20
2.9999999999998779
 30
0.0
 11
-5.9999999999999316
 21
5.9999999999998774
 31
0.0
  0
LINE
  5
1728
  8
SAPA_MATT
 10
-5.9999999999999352
 20
-8.0000000000037996
 30
0.0
 11
-5.9999999999999361
 21
-11.0000000000038
 31
0.0
  0
LINE
  5
1729
  8
SAPA_MATT
 10
-5.9999999999999334
 20
-0.0000000000001218
 30
0.0
 11
-5.9999999999999343
 21
-5.0000000000037996
 31
0.0
  0
SOLID
  5
172A
  8
SAPA_MATT
 10
-6.4999999999999316
 20
2.9999999999998779
 30
0.0
 11
-5.4999999999999316
 21
2.9999999999998779
 31
0.0
 12
-5.9999999999999334
 22
-0.0000000000001218
 32
0.0
 13
-5.9999999999999334
 23
-0.0000000000001218
 33
0.0
  0
SOLID
  5
172B
  8
SAPA_MATT
 10
-6.4999999999999352
 20
-8.0000000000037996
 30
0.0
 11
-5.4999999999999352
 21
-8.0000000000037996
 31
0.0
 12
-5.9999999999999343
 22
-5.0000000000037996
 32
0.0
 13
-5.9999999999999343
 23
-5.0000000000037996
 33
0.0
  0
TEXT
  8
SAPA_MATT
  40
3.5
  5
1740
  62
2
  72
0
  71
0
 10
-15.7500
 20
-8.69500
 30
0.000000
  1
5
  7
ISO
  0
POINT
  5
172D
  8
DEFPOINTS
 62
     0
 10
15.50000000000013
 20
-0.0000000000001279
 30
0.0
  0
POINT
  5
172E
  8
DEFPOINTS
 62
     0
 10
22.25000000005959
 20
-5.0000000000038076
 30
0.0
  0
POINT
  5
172F
  8
DEFPOINTS
 62
     0
 10
-5.9999999999999343
 20
-5.0000000000037996
 30
0.0
  0
ENDBLK
  5
F6A
  8
0
  0
BLOCK
  8
0
  2
*D31
 70
     1
 10
0.0
 20
0.0
 30
0.0
  3
*D31
  1

  0
LINE
  5
FED
  8
SAPA_MATT
 10
14.000000000000121
 20
-0.0000000000001279
 30
0.0
 11
14.000000000000121
 21
-45.500000000000242
 31
0.0
  0
LINE
  5
FEE
  8
SAPA_MATT
 10
20.500000000078678
 20
8.5000000001744382
 30
0.0
 11
20.500000000078678
 21
-45.500000000000242
 31
0.0
  0
LINE
  5
FEF
  8
SAPA_MATT
 10
11.000000000000121
 20
-44.000000000000242
 30
0.0
 11
8.0000000000001243
 21
-44.000000000000242
 31
0.0
  0
LINE
  5
FF0
  8
SAPA_MATT
 10
23.500000000078678
 20
-44.000000000000242
 30
0.0
 11
26.500000000078678
 21
-44.000000000000242
 31
0.0
  0
LINE
  5
FF1
  8
SAPA_MATT
 10
14.000000000000121
 20
-44.000000000000242
 30
0.0
 11
20.500000000078678
 21
-44.000000000000242
 31
0.0
  0
SOLID
  5
FF2
  8
SAPA_MATT
 10
11.000000000000121
 20
-43.500000000000242
 30
0.0
 11
11.000000000000121
 21
-44.500000000000242
 31
0.0
 12
14.000000000000121
 22
-44.000000000000242
 32
0.0
 13
14.000000000000121
 23
-44.000000000000242
 33
0.0
  0
SOLID
  5
FF3
  8
SAPA_MATT
 10
23.500000000078678
 20
-43.500000000000242
 30
0.0
 11
23.500000000078678
 21
-44.500000000000242
 31
0.0
 12
20.500000000078678
 22
-44.000000000000242
 32
0.0
 13
20.500000000078678
 23
-44.000000000000242
 33
0.0
  0
INSERT
  5
FF4
  8
0
  2
*U46
 10
0.0
 20
0.0
 30
0.0
  0
POINT
  5
FF5
  8
DEFPOINTS
 62
     0
 10
14.000000000000121
 20
1.4999999999998721
 30
0.0
  0
POINT
  5
FF6
  8
DEFPOINTS
 62
     0
 10
20.500000000078678
 20
10.00000000017444
 30
0.0
  0
POINT
  5
FF7
  8
DEFPOINTS
 62
     0
 10
20.500000000078678
 20
-44.000000000000242
 30
0.0
  0
ENDBLK
  5
F78
  8
0
  0
BLOCK
  8
0
  2
*D32
 70
     1
 10
0.0
 20
0.0
 30
0.0
  3
*D32
  1

  0
LINE
  5
171C
  8
SAPA_MATT
 10
20.500000000078678
 20
8.5000000001744382
 30
0.0
 11
20.500000000078678
 21
-45.500000000000242
 31
0.0
  0
LINE
  5
171D
  8
SAPA_MATT
 10
67.499999999386972
 20
8.5000000001744951
 30
0.0
 11
67.499999999386972
 21
-45.500000000000242
 31
0.0
  0
LINE
  5
171E
  8
SAPA_MATT
 10
23.500000000078678
 20
-44.000000000000242
 30
0.0
 11
64.499999999386972
 21
-44.000000000000242
 31
0.0
  0
SOLID
  5
171F
  8
SAPA_MATT
 10
23.500000000078678
 20
-43.500000000000242
 30
0.0
 11
23.500000000078678
 21
-44.500000000000242
 31
0.0
 12
20.500000000078678
 22
-44.000000000000242
 32
0.0
 13
20.500000000078678
 23
-44.000000000000242
 33
0.0
  0
SOLID
  5
1720
  8
SAPA_MATT
 10
64.499999999386972
 20
-43.500000000000242
 30
0.0
 11
64.499999999386972
 21
-44.500000000000242
 31
0.0
 12
67.499999999386972
 22
-44.000000000000242
 32
0.0
 13
67.499999999386972
 23
-44.000000000000242
 33
0.0
  0
TEXT
  8
SAPA_MATT
  40
3.5
  5
1741
  62
2
  72
0
  71
0
 10
37.0000
 20
-47.4450
 30
0.000000
  1
47
  7
ISO
  0
POINT
  5
1722
  8
DEFPOINTS
 62
     0
 10
20.500000000078678
 20
10.00000000017444
 30
0.0
  0
POINT
  5
1723
  8
DEFPOINTS
 62
     0
 10
67.499999999386972
 20
10.00000000017449
 30
0.0
  0
POINT
  5
1724
  8
DEFPOINTS
 62
     0
 10
67.499999999386972
 20
-44.000000000000242
 30
0.0
  0
ENDBLK
  5
F86
  8
0
  0
BLOCK
  8
0
  2
*D33
 70
     1
 10
0.0
 20
0.0
 30
0.0
  3
*D33
  1

  0
LINE
  5
1713
  8
SAPA_MATT
 10
67.499999999386972
 20
8.5000000001744951
 30
0.0
 11
67.499999999386972
 21
-45.50000000000027
 31
0.0
  0
LINE
  5
1714
  8
SAPA_MATT
 10
138.99999999950219
 20
-2.000000000000127
 30
0.0
 11
138.99999999950219
 21
-45.50000000000027
 31
0.0
  0
LINE
  5
1715
  8
SAPA_MATT
 10
70.499999999386972
 20
-44.00000000000027
 30
0.0
 11
135.99999999950219
 21
-44.00000000000027
 31
0.0
  0
TEXT
  8
SAPA_MATT
  40
3.5
  5
1742
  62
2
  72
0
  71
0
 10
95.8577
 20
-46.6845
 30
0.000000
  1
71.5
  7
ISO
  0
SOLID
  5
1717
  8
SAPA_MATT
 10
70.499999999386972
 20
-43.50000000000027
 30
0.0
 11
70.499999999386972
 21
-44.500000000000263
 31
0.0
 12
67.499999999386972
 22
-44.00000000000027
 32
0.0
 13
67.499999999386972
 23
-44.00000000000027
 33
0.0
  0
SOLID
  5
1718
  8
SAPA_MATT
 10
135.99999999950219
 20
-43.50000000000027
 30
0.0
 11
135.99999999950219
 21
-44.500000000000263
 31
0.0
 12
138.99999999950219
 22
-44.00000000000027
 32
0.0
 13
138.99999999950219
 23
-44.00000000000027
 33
0.0
  0
POINT
  5
1719
  8
DEFPOINTS
 62
     0
 10
67.499999999386972
 20
10.00000000017449
 30
0.0
  0
POINT
  5
171A
  8
DEFPOINTS
 62
     0
 10
138.99999999950219
 20
-0.5000000000001279
 30
0.0
  0
POINT
  5
171B
  8
DEFPOINTS
 62
     0
 10
138.99999999950219
 20
-44.00000000000027
 30
0.0
  0
ENDBLK
  5
F92
  8
0
  0
BLOCK
  8
0
  2
*D34
 70
     1
 10
0.0
 20
0.0
 30
0.0
  3
*D34
  1

  0
LINE
  5
FD2
  8
SAPA_MATT
 10
14.000000000000121
 20
-0.0000000000001279
 30
0.0
 11
14.000000000000121
 21
-57.500000000000213
 31
0.0
  0
LINE
  5
FD3
  8
SAPA_MATT
 10
138.99999999950219
 20
-2.000000000000127
 30
0.0
 11
138.99999999950219
 21
-57.500000000000213
 31
0.0
  0
LINE
  5
FD4
  8
SAPA_MATT
 10
17.000000000000121
 20
-56.000000000000213
 30
0.0
 11
135.99999999950219
 21
-56.000000000000213
 31
0.0
  0
SOLID
  5
FD5
  8
SAPA_MATT
 10
17.000000000000121
 20
-55.50000000000022
 30
0.0
 11
17.000000000000121
 21
-56.500000000000213
 31
0.0
 12
14.000000000000121
 22
-56.000000000000213
 32
0.0
 13
14.000000000000121
 23
-56.000000000000213
 33
0.0
  0
SOLID
  5
FD6
  8
SAPA_MATT
 10
135.99999999950219
 20
-55.50000000000022
 30
0.0
 11
135.99999999950219
 21
-56.500000000000213
 31
0.0
 12
138.99999999950219
 22
-56.000000000000213
 32
0.0
 13
138.99999999950219
 23
-56.000000000000213
 33
0.0
  0
INSERT
  5
FD7
  8
0
  2
*U45
 10
0.0
 20
0.0
 30
0.0
  0
POINT
  5
FD8
  8
DEFPOINTS
 62
     0
 10
14.000000000000121
 20
1.4999999999998721
 30
0.0
  0
POINT
  5
FD9
  8
DEFPOINTS
 62
     0
 10
138.99999999950219
 20
-0.5000000000001279
 30
0.0
  0
POINT
  5
FDA
  8
DEFPOINTS
 62
     0
 10
138.99999999950219
 20
-56.000000000000213
 30
0.0
  0
ENDBLK
  5
F9E
  8
0
  0
BLOCK
  8
0
  2
*D35
 70
     1
 10
0.0
 20
0.0
 30
0.0
  3
*D35
  1

  0
LINE
  5
FC9
  8
SAPA_MATT
 10
12.80000007175766
 20
59.999999999999758
 30
0.0
 11
-7.4999999282525271
 21
59.999999999999758
 31
0.0
  0
LINE
  5
FCA
  8
SAPA_MATT
 10
14.00000007174752
 20
-0.0000000000001275
 30
0.0
 11
-7.4999999282525378
 21
-0.0000000000001214
 31
0.0
  0
LINE
  5
FCB
  8
SAPA_MATT
 10
-5.9999999282525263
 20
56.999999999999758
 30
0.0
 11
-5.9999999282525369
 21
2.9999999999998779
 31
0.0
  0
SOLID
  5
FCC
  8
SAPA_MATT
 10
-6.4999999282525263
 20
56.999999999999758
 30
0.0
 11
-5.4999999282525263
 21
56.999999999999758
 31
0.0
 12
-5.9999999282525254
 22
59.999999999999758
 32
0.0
 13
-5.9999999282525254
 23
59.999999999999758
 33
0.0
  0
SOLID
  5
FCD
  8
SAPA_MATT
 10
-6.4999999282525369
 20
2.9999999999998779
 30
0.0
 11
-5.4999999282525369
 21
2.9999999999998779
 31
0.0
 12
-5.9999999282525378
 22
-0.0000000000001218
 32
0.0
 13
-5.9999999282525378
 23
-0.0000000000001218
 33
0.0
  0
INSERT
  5
FCE
  8
0
  2
*U44
 10
0.0
 20
0.0
 30
0.0
  0
POINT
  5
FCF
  8
DEFPOINTS
 62
     0
 10
14.30000007175766
 20
59.999999999999758
 30
0.0
  0
POINT
  5
FD0
  8
DEFPOINTS
 62
     0
 10
15.50000007174752
 20
-0.0000000000001279
 30
0.0
  0
POINT
  5
FD1
  8
DEFPOINTS
 62
     0
 10
-5.9999999282525378
 20
-0.0000000000001218
 30
0.0
  0
ENDBLK
  5
FAA
  8
0
  0
BLOCK
  8
0
  2
*D36
 70
     1
 10
0.0
 20
0.0
 30
0.0
  3
*D36
  1

  0
LINE
  5
FC0
  8
SAPA_MATT
 10
20.75000000005959
 20
-5.0000000000038067
 30
0.0
 11
-19.49999992825251
 21
-5.0000000000037961
 31
0.0
  0
LINE
  5
FC1
  8
SAPA_MATT
 10
12.80000007175766
 20
59.999999999999758
 30
0.0
 11
-19.4999999282525
 21
59.999999999999758
 31
0.0
  0
LINE
  5
FC2
  8
SAPA_MATT
 10
-17.99999992825251
 20
-2.0000000000037961
 30
0.0
 11
-17.9999999282525
 21
56.999999999999773
 31
0.0
  0
SOLID
  5
FC3
  8
SAPA_MATT
 10
-18.49999992825251
 20
-2.0000000000037961
 30
0.0
 11
-17.49999992825251
 21
-2.0000000000037961
 31
0.0
 12
-17.99999992825251
 22
-5.0000000000037961
 32
0.0
 13
-17.99999992825251
 23
-5.0000000000037961
 33
0.0
  0
SOLID
  5
FC4
  8
SAPA_MATT
 10
-18.4999999282525
 20
56.999999999999773
 30
0.0
 11
-17.4999999282525
 21
56.999999999999773
 31
0.0
 12
-17.9999999282525
 22
59.999999999999758
 32
0.0
 13
-17.9999999282525
 23
59.999999999999758
 33
0.0
  0
INSERT
  5
FC5
  8
0
  2
*U43
 10
0.0
 20
0.0
 30
0.0
  0
POINT
  5
FC6
  8
DEFPOINTS
 62
     0
 10
22.25000000005959
 20
-5.0000000000038076
 30
0.0
  0
POINT
  5
FC7
  8
DEFPOINTS
 62
     0
 10
14.30000007175766
 20
59.999999999999758
 30
0.0
  0
POINT
  5
FC8
  8
DEFPOINTS
 62
     0
 10
-17.9999999282525
 20
59.999999999999758
 30
0.0
  0
ENDBLK
  5
FB6
  8
0
  0
BLOCK
  8
0
  2
*X37
 70
     1
 10
0.0
 20
0.0
 30
0.0
  3
*X37
  1

  0
LINE
  5
1046
  8
0
 62
     0
 10
139.04522034171529
 20
11.58237381436793
 30
0.0
 11
138.99999992775469
 21
11.53715340040732
 31
0.0
  0
LINE
  5
1047
  8
0
 62
     0
 10
139.23148746818359
 20
10.64610892570254
 30
0.0
 11
138.99999992775469
 21
10.41462138527368
 31
0.0
  0
LINE
  5
1048
  8
0
 62
     0
 10
139.52875225443611
 20
9.8208416968215104
 30
0.0
 11
138.99999992775469
 21
9.2920893701400544
 31
0.0
  0
LINE
  5
1049
  8
0
 62
     0
 10
139.91916163998081
 20
9.0887190672324607
 30
0.0
 11
138.99999992775469
 21
8.1695573550064253
 31
0.0
  0
LINE
  5
104A
  8
0
 62
     0
 10
140.3948147166538
 20
8.4418401287718652
 30
0.0
 11
138.99999992775469
 21
7.0470253398727891
 31
0.0
  0
LINE
  5
104B
  8
0
 62
     0
 10
140.9543036248655
 20
7.878797021849941
 30
0.0
 11
138.99999992775469
 21
5.9244933247391449
 31
0.0
  0
LINE
  5
104C
  8
0
 62
     0
 10
141.60217573133571
 20
7.4041371131864571
 30
0.0
 11
138.9999999277548
 21
4.801961309605538
 31
0.0
  0
LINE
  5
104D
  8
0
 62
     0
 10
142.35075441076589
 20
7.0301837774829892
 30
0.0
 11
138.9999999277548
 21
3.6794292944718872
 31
0.0
  0
LINE
  5
104E
  8
0
 62
     0
 10
143.226385718362
 20
6.7832830699455249
 30
0.0
 11
138.9999999277548
 21
2.5568972793382718
 31
0.0
  0
LINE
  5
104F
  8
0
 62
     0
 10
144.29073942841029
 20
6.7251047648601983
 30
0.0
 11
138.99849667115441
 21
1.4328620076042
 31
0.0
  0
LINE
  5
1050
  8
0
 62
     0
 10
148.9999999277548
 20
11.43436526420464
 30
0.0
 11
148.92363608602111
 21
11.358001422470929
 31
0.0
  0
LINE
  5
1051
  8
0
 62
     0
 10
145.76608656589519
 20
7.0779198872114222
 30
0.0
 11
139.2593802864638
 21
0.5712136077799599
 31
0.0
  0
LINE
  5
1052
  8
0
 62
     0
 10
148.9999999277548
 20
10.31183324907099
 30
0.0
 11
148.4399900696568
 21
9.7518233909729641
 31
0.0
  0
LINE
  5
1053
  8
0
 62
     0
 10
148.9999999277548
 20
9.1893012339373499
 30
0.0
 11
140.5651190718105
 21
0.7544203779930072
 31
0.0
  0
LINE
  5
1054
  8
0
 62
     0
 10
148.9999999277548
 20
8.0667692188037066
 30
0.0
 11
141.7859199086005
 21
0.8526891996494398
 31
0.0
  0
LINE
  5
1055
  8
0
 62
     0
 10
148.9999999277548
 20
6.9442372036700561
 30
0.0
 11
142.9373813633315
 21
0.8816186392467386
 31
0.0
  0
LINE
  5
1056
  8
0
 62
     0
 10
148.9999999277548
 20
5.8217051885364119
 30
0.0
 11
144.03036041298219
 21
0.852065673763839
 31
0.0
  0
LINE
  5
1057
  8
0
 62
     0
 10
148.9999999277548
 20
4.6991731734027757
 30
0.0
 11
145.07276903546671
 21
0.7719422811146828
 31
0.0
  0
LINE
  5
1058
  8
0
 62
     0
 10
148.9999999277548
 20
3.5766411582691191
 30
0.0
 11
146.07057661514159
 21
0.6472178456558808
 31
0.0
  0
LINE
  5
1059
  8
0
 62
     0
 10
148.9999999277548
 20
2.45410914313549
 30
0.0
 11
147.0284095796147
 21
0.4825187949953929
 31
0.0
  0
LINE
  5
105A
  8
0
 62
     0
 10
148.9999999277548
 20
1.331577128001832
 30
0.0
 11
147.9499301214027
 21
0.2815073216497197
 31
0.0
  0
LINE
  5
105B
  8
0
 62
     0
 10
148.9999999277548
 20
0.2090451128682034
 30
0.0
 11
148.8380860307401
 21
0.0471312158535042
 31
0.0
  0
LINE
  5
105C
  8
0
 62
     0
 10
138.85117536343179
 20
0.8485977110550635
 30
0.0
 11
139.14798551123391
 21
0.5517875632529865
 31
0.0
  0
LINE
  5
105D
  8
0
 62
     0
 10
138.9999999277548
 20
1.822305161865813
 30
0.0
 11
140.12105103646891
 21
0.7012540531516578
 31
0.0
  0
LINE
  5
105E
  8
0
 62
     0
 10
138.9999999277548
 20
2.9448371769994699
 30
0.0
 11
141.13577765865759
 21
0.8090594460966684
 31
0.0
  0
LINE
  5
105F
  8
0
 62
     0
 10
138.9999999277548
 20
4.067369192133099
 30
0.0
 11
142.19726507094521
 21
0.8701040489426219
 31
0.0
  0
LINE
  5
1060
  8
0
 62
     0
 10
138.9999999277548
 20
5.1899012072667432
 30
0.0
 11
143.31215802027589
 21
0.8777431147455843
 31
0.0
  0
LINE
  5
1061
  8
0
 62
     0
 10
138.99999992775469
 20
6.3124332224004291
 30
0.0
 11
144.48937491648371
 21
0.8230582336714746
 31
0.0
  0
LINE
  5
1062
  8
0
 62
     0
 10
138.99999992775469
 20
7.4349652375340716
 30
0.0
 11
145.74135694743799
 21
0.6936082178508088
 31
0.0
  0
LINE
  5
1063
  8
0
 62
     0
 10
138.99999992775469
 20
8.5574972526677442
 30
0.0
 11
147.0863822333348
 21
0.4711149470876422
 31
0.0
  0
LINE
  5
1064
  8
0
 62
     0
 10
138.99999992775469
 20
9.6800292678013733
 30
0.0
 11
148.5533292046342
 21
0.1266999909218782
 31
0.0
  0
LINE
  5
1065
  8
0
 62
     0
 10
142.965289440102
 20
6.8372717705877193
 30
0.0
 11
148.9999999277548
 21
0.8025612829349456
 31
0.0
  0
LINE
  5
1066
  8
0
 62
     0
 10
138.99999992775469
 20
10.802561282935031
 30
0.0
 11
139.26216740971381
 21
10.54039380097586
 31
0.0
  0
LINE
  5
1067
  8
0
 62
     0
 10
144.20478292540031
 20
6.7203103004230789
 30
0.0
 11
148.9999999277548
 21
1.925093298068588
 31
0.0
  0
LINE
  5
1068
  8
0
 62
     0
 10
138.99999992775469
 20
11.92509329806871
 30
0.0
 11
139.0143750455361
 21
11.910718180287271
 31
0.0
  0
LINE
  5
1069
  8
0
 62
     0
 10
145.1746978766906
 20
6.8729273642663742
 30
0.0
 11
148.9999999277548
 21
3.0476253132022459
 31
0.0
  0
LINE
  5
106A
  8
0
 62
     0
 10
145.9901223838697
 20
7.1800348722209861
 30
0.0
 11
148.9999999277548
 21
4.1701573283358888
 31
0.0
  0
LINE
  5
106B
  8
0
 62
     0
 10
146.69249089581609
 20
7.600198375408155
 30
0.0
 11
148.9999999277548
 21
5.292689343469533
 31
0.0
  0
LINE
  5
106C
  8
0
 62
     0
 10
147.30074304130929
 20
8.1144782450486304
 30
0.0
 11
148.9999999277548
 21
6.4152213586031763
 31
0.0
  0
LINE
  5
106D
  8
0
 62
     0
 10
147.82338657536451
 20
8.7143667261270963
 30
0.0
 11
148.9999999277548
 21
7.5377533737368054
 31
0.0
  0
LINE
  5
106E
  8
0
 62
     0
 10
148.2622930607121
 20
9.3979922559131523
 30
0.0
 11
148.9999999277548
 21
8.6602853888704612
 31
0.0
  0
LINE
  5
106F
  8
0
 62
     0
 10
148.61341571772141
 20
10.169401614037509
 30
0.0
 11
148.9999999277548
 21
9.7828174040041063
 31
0.0
  0
LINE
  5
1070
  8
0
 62
     0
 10
148.86518577862881
 20
11.040163568263759
 30
0.0
 11
148.9999999277548
 21
10.90534941913773
 31
0.0
  0
LINE
  5
1071
  8
0
 62
     0
 10
148.99279897802469
 20
12.035082384001401
 30
0.0
 11
148.9999999277548
 21
12.027881434271359
 31
0.0
  0
ENDBLK
  5
1073
  8
0
  0
BLOCK
  8
0
  2
*X38
 70
     1
 10
0.0
 20
0.0
 30
0.0
  3
*X38
  1

  0
LINE
  5
1075
  8
0
 62
     0
 10
142.47810508528659
 20
7.0695983546617249
 30
0.0
 11
142.5413133909351
 21
6.9601183578183123
 31
0.0
  0
LINE
  5
1076
  8
0
 62
     0
 10
141.28748008528669
 20
9.1318213474234202
 30
0.0
 11
141.68435508528671
 21
8.4444136831695182
 31
0.0
  0
LINE
  5
1077
  8
0
 62
     0
 10
140.09685508528671
 20
11.19404434018511
 30
0.0
 11
140.4937300852867
 21
10.50663667593121
 31
0.0
  0
LINE
  5
1078
  8
0
 62
     0
 10
139.0379713642613
 20
13.02808474430875
 30
0.0
 11
139.30310508528669
 21
12.568859668692911
 31
0.0
  0
LINE
  5
1079
  8
0
 62
     0
 10
143.66872980079049
 20
7.7570058546617489
 30
0.0
 11
144.06560480079051
 21
7.0695981904078469
 31
0.0
  0
LINE
  5
107A
  8
0
 62
     0
 10
142.47810480079059
 20
9.8192288474234442
 30
0.0
 11
142.8749798007905
 21
9.1318211831695422
 31
0.0
  0
LINE
  5
107B
  8
0
 62
     0
 10
141.28747980079061
 20
11.881451840185139
 30
0.0
 11
141.6843548007906
 21
11.19404417593123
 31
0.0
  0
LINE
  5
107C
  8
0
 62
     0
 10
140.0968548007906
 20
13.943674832946829
 30
0.0
 11
140.49372980079059
 21
13.256267168692929
 31
0.0
  0
LINE
  5
107D
  8
0
 62
     0
 10
144.85935451629439
 20
8.4444133546617302
 30
0.0
 11
145.25622951629441
 21
7.7570056904078291
 31
0.0
  0
LINE
  5
107E
  8
0
 62
     0
 10
143.66872951629449
 20
10.506636347423431
 30
0.0
 11
144.06560451629451
 21
9.8192286831695252
 31
0.0
  0
LINE
  5
107F
  8
0
 62
     0
 10
142.47810451629451
 20
12.568859340185121
 30
0.0
 11
142.8749795162945
 21
11.881451675931221
 31
0.0
  0
LINE
  5
1080
  8
0
 62
     0
 10
141.2874795162945
 20
14.63108233294682
 30
0.0
 11
141.68435451629449
 21
13.943674668692911
 31
0.0
  0
LINE
  5
1081
  8
0
 62
     0
 10
140.376164643572
 20
16.209525994195332
 30
0.0
 11
140.49372951629451
 21
16.005897661454611
 31
0.0
  0
LINE
  5
1082
  8
0
 62
     0
 10
146.0499792317984
 20
9.1318208546617292
 30
0.0
 11
146.44685423179831
 21
8.444413190407829
 31
0.0
  0
LINE
  5
1083
  8
0
 62
     0
 10
144.85935423179839
 20
11.194043847423419
 30
0.0
 11
145.25622923179839
 21
10.506636183169521
 31
0.0
  0
LINE
  5
1084
  8
0
 62
     0
 10
143.66872923179841
 20
13.25626684018512
 30
0.0
 11
144.0656042317984
 21
12.56885917593122
 31
0.0
  0
LINE
  5
1085
  8
0
 62
     0
 10
142.4781042317984
 20
15.31848983294682
 30
0.0
 11
142.87497923179839
 21
14.63108216869291
 31
0.0
  0
LINE
  5
1086
  8
0
 62
     0
 10
141.4198319966855
 20
17.151471112401889
 30
0.0
 11
141.68435423179841
 21
16.69330516145461
 31
0.0
  0
LINE
  5
1087
  8
0
 62
     0
 10
147.24060394730219
 20
9.8192283546617265
 30
0.0
 11
147.63747894730221
 21
9.1318206904078245
 31
0.0
  0
LINE
  5
1088
  8
0
 62
     0
 10
146.04997894730229
 20
11.88145134742342
 30
0.0
 11
146.4468539473022
 21
11.19404368316952
 31
0.0
  0
LINE
  5
1089
  8
0
 62
     0
 10
144.85935394730231
 20
13.94367434018511
 30
0.0
 11
145.2562289473023
 21
13.25626667593121
 31
0.0
  0
LINE
  5
108A
  8
0
 62
     0
 10
143.6687289473023
 20
16.005897332946809
 30
0.0
 11
144.06560394730229
 21
15.31848966869291
 31
0.0
  0
LINE
  5
108B
  8
0
 62
     0
 10
142.6604806727313
 20
17.752234571147511
 30
0.0
 11
142.87497894730231
 21
17.380712661454599
 31
0.0
  0
LINE
  5
108C
  8
0
 62
     0
 10
148.43122866280609
 20
10.506635854661729
 30
0.0
 11
148.6183066741614
 21
10.18260723401543
 31
0.0
  0
LINE
  5
108D
  8
0
 62
     0
 10
147.24060366280619
 20
12.56885884742343
 30
0.0
 11
147.63747866280619
 21
11.88145118316953
 31
0.0
  0
LINE
  5
108E
  8
0
 62
     0
 10
146.04997866280621
 20
14.63108184018512
 30
0.0
 11
146.44685366280621
 21
13.943674175931219
 31
0.0
  0
LINE
  5
108F
  8
0
 62
     0
 10
144.8593536628062
 20
16.693304832946819
 30
0.0
 11
145.25622866280619
 21
16.005897168692918
 31
0.0
  0
LINE
  5
1090
  8
0
 62
     0
 10
148.4312283783101
 20
13.256266347423431
 30
0.0
 11
148.82810337831009
 21
12.56885868316953
 31
0.0
  0
LINE
  5
1091
  8
0
 62
     0
 10
147.24060337831011
 20
15.318489340185121
 30
0.0
 11
147.63747837831011
 21
14.63108167593122
 31
0.0
  0
LINE
  5
1092
  8
0
 62
     0
 10
146.0499783783101
 20
17.380712332946821
 30
0.0
 11
146.4468533783101
 21
16.693304668692921
 31
0.0
  0
LINE
  5
1093
  8
0
 62
     0
 10
139.30309512792331
 20
12.568888413125119
 30
0.0
 11
139.00628919786641
 21
12.054805462278839
 31
0.0
  0
LINE
  5
1094
  8
0
 62
     0
 10
140.4937201279233
 20
14.631111405886809
 30
0.0
 11
140.0968451279233
 21
13.943703741632911
 31
0.0
  0
LINE
  5
1095
  8
0
 62
     0
 10
141.68434512792319
 20
16.693334398648499
 30
0.0
 11
141.28747012792331
 21
16.005926734394599
 31
0.0
  0
LINE
  5
1096
  8
0
 62
     0
 10
140.49371984342719
 20
11.88148091312511
 30
0.0
 11
140.09684484342719
 21
11.194073248871209
 31
0.0
  0
LINE
  5
1097
  8
0
 62
     0
 10
141.6843448434272
 20
13.9437039058868
 30
0.0
 11
141.2874698434272
 21
13.256296241632899
 31
0.0
  0
LINE
  5
1098
  8
0
 62
     0
 10
142.87496984342721
 20
16.005926898648489
 30
0.0
 11
142.47809484342719
 21
15.318519234394589
 31
0.0
  0
LINE
  5
1099
  8
0
 62
     0
 10
144.00183134728761
 20
17.957708276428288
 30
0.0
 11
143.6687198434272
 21
17.38074222715629
 31
0.0
  0
LINE
  5
109A
  8
0
 62
     0
 10
140.49371955893119
 20
9.1318504203634046
 30
0.0
 11
140.2198390612507
 21
8.6574754831786365
 31
0.0
  0
LINE
  5
109B
  8
0
 62
     0
 10
141.68434455893109
 20
11.1940734131251
 30
0.0
 11
141.28746955893109
 21
10.506665748871191
 31
0.0
  0
LINE
  5
109C
  8
0
 62
     0
 10
142.8749695589311
 20
13.25629640588679
 30
0.0
 11
142.4780945589311
 21
12.56888874163289
 31
0.0
  0
LINE
  5
109D
  8
0
 62
     0
 10
144.06559455893111
 20
15.31851939864848
 30
0.0
 11
143.66871955893109
 21
14.63111173439458
 31
0.0
  0
LINE
  5
109E
  8
0
 62
     0
 10
145.25621955893109
 20
17.38074239141018
 30
0.0
 11
144.8593445589311
 21
16.69333472715627
 31
0.0
  0
LINE
  5
109F
  8
0
 62
     0
 10
141.68434427443501
 20
8.444442920363409
 30
0.0
 11
141.2874692744351
 21
7.7570352561095071
 31
0.0
  0
LINE
  5
10A0
  8
0
 62
     0
 10
142.87496927443499
 20
10.506665913125101
 30
0.0
 11
142.47809427443499
 21
9.8192582488712006
 31
0.0
  0
LINE
  5
10A1
  8
0
 62
     0
 10
144.065594274435
 20
12.568888905886791
 30
0.0
 11
143.66871927443501
 21
11.881481241632891
 31
0.0
  0
LINE
  5
10A2
  8
0
 62
     0
 10
145.25621927443501
 20
14.63111189864849
 30
0.0
 11
144.85934427443499
 21
13.943704234394589
 31
0.0
  0
LINE
  5
10A3
  8
0
 62
     0
 10
146.44684427443499
 20
16.693334891410181
 30
0.0
 11
146.049969274435
 21
16.005927227156281
 31
0.0
  0
LINE
  5
10A4
  8
0
 62
     0
 10
142.87496898993891
 20
7.7570354203634153
 30
0.0
 11
142.478093989939
 21
7.0696277561095151
 31
0.0
  0
LINE
  5
10A5
  8
0
 62
     0
 10
144.06559398993889
 20
9.8192584131251088
 30
0.0
 11
143.6687189899389
 21
9.1318507488712086
 31
0.0
  0
LINE
  5
10A6
  8
0
 62
     0
 10
145.2562189899389
 20
11.881481405886801
 30
0.0
 11
144.85934398993891
 21
11.1940737416329
 31
0.0
  0
LINE
  5
10A7
  8
0
 62
     0
 10
146.44684398993891
 20
13.943704398648491
 30
0.0
 11
146.04996898993889
 21
13.25629673439459
 31
0.0
  0
LINE
  5
10A8
  8
0
 62
     0
 10
147.6374689899389
 20
16.005927391410189
 30
0.0
 11
147.2405939899389
 21
15.318519727156289
 31
0.0
  0
LINE
  5
10A9
  8
0
 62
     0
 10
144.06559370544289
 20
7.0696279203634136
 30
0.0
 11
143.86242080379961
 21
6.717722131996088
 31
0.0
  0
LINE
  5
10AA
  8
0
 62
     0
 10
145.25621870544279
 20
9.1318509131251062
 30
0.0
 11
144.8593437054428
 21
8.4444432488712096
 31
0.0
  0
LINE
  5
10AB
  8
0
 62
     0
 10
146.4468437054428
 20
11.1940739058868
 30
0.0
 11
146.04996870544281
 21
10.5066662416329
 31
0.0
  0
LINE
  5
10AC
  8
0
 62
     0
 10
147.63746870544281
 20
13.25629689864849
 30
0.0
 11
147.24059370544279
 21
12.5688892343946
 31
0.0
  0
LINE
  5
10AD
  8
0
 62
     0
 10
148.50899461834541
 20
14.76582405990861
 30
0.0
 11
148.4312187054428
 21
14.63111222715629
 31
0.0
  0
LINE
  5
10AE
  8
0
 62
     0
 10
146.44684342094669
 20
8.4444434131251072
 30
0.0
 11
146.0499684209467
 21
7.7570357488712114
 31
0.0
  0
LINE
  5
10AF
  8
0
 62
     0
 10
147.6374684209467
 20
10.506666405886801
 30
0.0
 11
147.24059342094671
 21
9.819258741632904
 31
0.0
  0
LINE
  5
10B0
  8
0
 62
     0
 10
148.82809342094669
 20
12.568889398648491
 30
0.0
 11
148.43121842094669
 21
11.881481734394599
 31
0.0
  0
LINE
  5
10B1
  8
0
 62
     0
 10
145.25625000001349
 20
7.757029999984737
 30
0.0
 11
146.05000000001351
 21
7.757029999984737
 31
0.0
  0
LINE
  5
10B2
  8
0
 62
     0
 10
142.8750000000135
 20
7.757029999984737
 30
0.0
 11
143.66875000001349
 21
7.757029999984737
 31
0.0
  0
LINE
  5
10B3
  8
0
 62
     0
 10
141.10076874741361
 20
7.757029999984737
 30
0.0
 11
141.28750000001349
 21
7.757029999984737
 31
0.0
  0
LINE
  5
10B4
  8
0
 62
     0
 10
147.63750000001349
 20
9.1318449999847431
 30
0.0
 11
148.1077274650826
 21
9.1318449999847431
 31
0.0
  0
LINE
  5
10B5
  8
0
 62
     0
 10
145.25625000001349
 20
9.1318449999847431
 30
0.0
 11
146.05000000001351
 21
9.1318449999847431
 31
0.0
  0
LINE
  5
10B6
  8
0
 62
     0
 10
142.8750000000135
 20
9.1318449999847431
 30
0.0
 11
143.66875000001349
 21
9.1318449999847431
 31
0.0
  0
LINE
  5
10B7
  8
0
 62
     0
 10
140.49375000001351
 20
9.1318449999847431
 30
0.0
 11
141.28750000001349
 21
9.1318449999847431
 31
0.0
  0
LINE
  5
10B8
  8
0
 62
     0
 10
147.63750000001349
 20
10.506659999984739
 30
0.0
 11
148.43125000001339
 21
10.506659999984739
 31
0.0
  0
LINE
  5
10B9
  8
0
 62
     0
 10
145.25625000001349
 20
10.506659999984739
 30
0.0
 11
146.05000000001351
 21
10.506659999984739
 31
0.0
  0
LINE
  5
10BA
  8
0
 62
     0
 10
142.8750000000135
 20
10.506659999984739
 30
0.0
 11
143.66875000001349
 21
10.506659999984739
 31
0.0
  0
LINE
  5
10BB
  8
0
 62
     0
 10
140.49375000001351
 20
10.506659999984739
 30
0.0
 11
141.28750000001349
 21
10.506659999984739
 31
0.0
  0
LINE
  5
10BC
  8
0
 62
     0
 10
147.63750000001349
 20
11.881474999984739
 30
0.0
 11
148.43125000001339
 21
11.881474999984739
 31
0.0
  0
LINE
  5
10BD
  8
0
 62
     0
 10
145.25625000001349
 20
11.881474999984739
 30
0.0
 11
146.05000000001351
 21
11.881474999984739
 31
0.0
  0
LINE
  5
10BE
  8
0
 62
     0
 10
142.8750000000135
 20
11.881474999984739
 30
0.0
 11
143.66875000001349
 21
11.881474999984739
 31
0.0
  0
LINE
  5
10BF
  8
0
 62
     0
 10
140.49375000001351
 20
11.881474999984739
 30
0.0
 11
141.28750000001349
 21
11.881474999984739
 31
0.0
  0
LINE
  5
10C0
  8
0
 62
     0
 10
147.63750000001349
 20
13.256289999984739
 30
0.0
 11
148.43125000001339
 21
13.256289999984739
 31
0.0
  0
LINE
  5
10C1
  8
0
 62
     0
 10
145.25625000001349
 20
13.256289999984739
 30
0.0
 11
146.05000000001351
 21
13.256289999984739
 31
0.0
  0
LINE
  5
10C2
  8
0
 62
     0
 10
142.8750000000135
 20
13.256289999984739
 30
0.0
 11
143.66875000001349
 21
13.256289999984739
 31
0.0
  0
LINE
  5
10C3
  8
0
 62
     0
 10
140.49375000001351
 20
13.256289999984739
 30
0.0
 11
141.28750000001349
 21
13.256289999984739
 31
0.0
  0
LINE
  5
10C4
  8
0
 62
     0
 10
147.63750000001349
 20
14.631104999984739
 30
0.0
 11
148.43125000001339
 21
14.631104999984739
 31
0.0
  0
LINE
  5
10C5
  8
0
 62
     0
 10
145.25625000001349
 20
14.631104999984739
 30
0.0
 11
146.05000000001351
 21
14.631104999984739
 31
0.0
  0
LINE
  5
10C6
  8
0
 62
     0
 10
142.8750000000135
 20
14.631104999984739
 30
0.0
 11
143.66875000001349
 21
14.631104999984739
 31
0.0
  0
LINE
  5
10C7
  8
0
 62
     0
 10
140.49375000001351
 20
14.631104999984739
 30
0.0
 11
141.28750000001349
 21
14.631104999984739
 31
0.0
  0
LINE
  5
10C8
  8
0
 62
     0
 10
147.63750000001349
 20
16.005919999984741
 30
0.0
 11
147.7877721817577
 21
16.005919999984741
 31
0.0
  0
LINE
  5
10C9
  8
0
 62
     0
 10
145.25625000001349
 20
16.005919999984741
 30
0.0
 11
146.05000000001351
 21
16.005919999984741
 31
0.0
  0
LINE
  5
10CA
  8
0
 62
     0
 10
142.8750000000135
 20
16.005919999984741
 30
0.0
 11
143.66875000001349
 21
16.005919999984741
 31
0.0
  0
LINE
  5
10CB
  8
0
 62
     0
 10
140.49375000001351
 20
16.005919999984741
 30
0.0
 11
141.28750000001349
 21
16.005919999984741
 31
0.0
  0
LINE
  5
10CC
  8
0
 62
     0
 10
145.25625000001349
 20
17.380734999984739
 30
0.0
 11
146.05000000001351
 21
17.380734999984739
 31
0.0
  0
LINE
  5
10CD
  8
0
 62
     0
 10
142.8750000000135
 20
17.380734999984739
 30
0.0
 11
143.66875000001349
 21
17.380734999984739
 31
0.0
  0
ENDBLK
  5
10CF
  8
0
  0
BLOCK
  8
0
  2
*X39
 70
     1
 10
0.0
 20
0.0
 30
0.0
  3
*X39
  1

  0
LINE
  5
15B5
  8
0
 62
     0
 10
62.266905377762079
 20
0.3794392578474408
 30
0.0
 11
62.11250739695695
 21
0.5338372386525699
 31
0.0
  0
LINE
  5
15B6
  8
0
 62
     0
 10
61.999999999428027
 20
-0.4761873789521581
 30
0.0
 11
60.749670459422212
 21
0.774142161053657
 31
0.0
  0
LINE
  5
15B7
  8
0
 62
     0
 10
63.499403856271179
 20
-1.9755912357953129
 30
0.0
 11
63.024408763636352
 21
-1.500596143160482
 31
0.0
  0
LINE
  5
15B8
  8
0
 62
     0
 10
63.49174761776338
 20
-3.0904670124211471
 30
0.0
 11
59.736886876430937
 21
0.6643937289112892
 31
0.0
  0
LINE
  5
15B9
  8
0
 62
     0
 10
58.704735102999301
 20
0.5740134872092783
 30
0.0
 11
57.999999999554177
 21
1.2787485906544001
 31
0.0
  0
LINE
  5
15BA
  8
0
 62
     0
 10
62.778748590220097
 20
-3.500000000011525
 30
0.0
 11
59.131246739284649
 21
0.147501850923927
 31
0.0
  0
LINE
  5
15BB
  8
0
 62
     0
 10
61.999999999909178
 20
-3.843783424834228
 30
0.0
 11
57.999999999554191
 21
0.1562165755207552
 31
0.0
  0
LINE
  5
15BC
  8
0
 62
     0
 10
61.793789022463898
 20
-4.7601044625226079
 30
0.0
 11
57.999999999554177
 21
-0.9663154396128916
 31
0.0
  0
LINE
  5
15BD
  8
0
 62
     0
 10
60.5225212462286
 20
-4.611368701420961
 30
0.0
 11
57.999999999554177
 21
-2.0888474547465341
 31
0.0
  0
LINE
  5
15BE
  8
0
 62
     0
 10
59.404104230259442
 20
-4.6154837005854361
 30
0.0
 11
57.999999999554177
 21
-3.2113794698801779
 31
0.0
  0
LINE
  5
15BF
  8
0
 62
     0
 10
58.39378876822024
 20
-4.7277002536798811
 30
0.0
 11
57.999999999554177
 21
-4.3339114850138207
 31
0.0
  0
LINE
  5
15C0
  8
0
 62
     0
 10
62.411152544808417
 20
-3.5000000000065121
 30
0.0
 11
63.499999999625459
 21
-2.411152545189466
 31
0.0
  0
LINE
  5
15C1
  8
0
 62
     0
 10
61.236607160379378
 20
-4.6745453844355529
 30
0.0
 11
61.999999999909612
 21
-3.9111525449053159
 31
0.0
  0
LINE
  5
15C2
  8
0
 62
     0
 10
60.189139241347611
 20
-4.5994812883336884
 30
0.0
 11
63.231696808359807
 21
-1.5569237213214779
 31
0.0
  0
LINE
  5
15C3
  8
0
 62
     0
 10
59.020221305244377
 20
-4.6458672093032582
 30
0.0
 11
62.16857307595437
 21
-1.4975154385932681
 31
0.0
  0
LINE
  5
15C4
  8
0
 62
     0
 10
57.999999999554191
 20
-4.5435564998598181
 30
0.0
 11
61.999999999428042
 21
-0.5435564999859716
 31
0.0
  0
LINE
  5
15C5
  8
0
 62
     0
 10
57.99999999955417
 20
-3.4210244847261739
 30
0.0
 11
61.978492215286678
 21
0.5574677310063266
 31
0.0
  0
LINE
  5
15C6
  8
0
 62
     0
 10
57.999999999554191
 20
-2.2984924695925311
 30
0.0
 11
61.024223518285261
 21
0.7257310491385312
 31
0.0
  0
LINE
  5
15C7
  8
0
 62
     0
 10
59.761814787541482
 20
0.5858543335284097
 30
0.0
 11
60.069954821283801
 21
0.8939943672707286
 31
0.0
  0
LINE
  5
15C8
  8
0
 62
     0
 10
57.999999999554177
 20
-1.175960454458884
 30
0.0
 11
59.331083591011122
 21
0.1551231369980464
 31
0.0
  0
LINE
  5
15C9
  8
0
 62
     0
 10
57.999999999554191
 20
-0.0534284393252413
 30
0.0
 11
58.684109714702778
 21
0.6306812758233457
 31
0.0
  0
LINE
  5
15CA
  8
0
 62
     0
 10
57.999999999554191
 20
1.0691035758084051
 30
0.0
 11
58.38456634473367
 21
1.4536699209878909
 31
0.0
  0
ENDBLK
  5
15CC
  8
0
  0
BLOCK
  8
0
  2
*X40
 70
     1
 10
0.0
 20
0.0
 30
0.0
  3
*X40
  1

  0
LINE
  5
15CE
  8
0
 62
     0
 10
29.999999999554021
 20
1.215448212313468
 30
0.0
 11
29.65448516013263
 21
1.5609630517348621
 31
0.0
  0
LINE
  5
15CF
  8
0
 62
     0
 10
29.999999999554021
 20
0.0929161971798252
 30
0.0
 11
29.354941790154822
 21
0.7379744065790223
 31
0.0
  0
LINE
  5
15D0
  8
0
 62
     0
 10
28.26924542378535
 20
0.7011387578148522
 30
0.0
 11
28.055358320270908
 21
0.9150258613292889
 31
0.0
  0
LINE
  5
15D1
  8
0
 62
     0
 10
29.999999999554021
 20
-1.02961581795382
 30
0.0
 11
28.827893856525058
 21
0.142490325075143
 31
0.0
  0
LINE
  5
15D2
  8
0
 62
     0
 10
29.999999999554021
 20
-2.1521478330874659
 30
0.0
 11
27.100184607703049
 21
0.7476675587635048
 31
0.0
  0
LINE
  5
15D3
  8
0
 62
     0
 10
29.999999999554021
 20
-3.274679848221111
 30
0.0
 11
26.145915910690949
 21
0.5794042406419551
 31
0.0
  0
LINE
  5
15D4
  8
0
 62
     0
 10
29.999999999554021
 20
-4.3972118633547561
 30
0.0
 11
26.000000000037851
 21
-0.3972118638385862
 31
0.0
  0
LINE
  5
15D5
  8
0
 62
     0
 10
29.143643620930209
 20
-4.6633874998645917
 30
0.0
 11
25.931204439906072
 21
-1.4509483188404479
 31
0.0
  0
LINE
  5
15D6
  8
0
 62
     0
 10
27.95551330178607
 20
-4.5977891958540882
 30
0.0
 11
24.8738893230339
 21
-1.5161652171019171
 31
0.0
  0
LINE
  5
15D7
  8
0
 62
     0
 10
25.735192090802901
 20
-3.500000000004571
 30
0.0
 11
24.499999999910688
 21
-2.2648079091123599
 31
0.0
  0
LINE
  5
15D8
  8
0
 62
     0
 10
26.894281331347209
 20
-4.6590892405488802
 30
0.0
 11
25.99999999955724
 21
-3.764807908758903
 31
0.0
  0
LINE
  5
15D9
  8
0
 62
     0
 10
29.73134754333131
 20
-4.7489085777415951
 30
0.0
 11
29.999999999554021
 21
-4.4802561215188756
 31
0.0
  0
LINE
  5
15DA
  8
0
 62
     0
 10
28.733091462111531
 20
-4.6246326438277219
 30
0.0
 11
29.999999999554021
 21
-3.3577241063852332
 31
0.0
  0
LINE
  5
15DB
  8
0
 62
     0
 10
27.63067053669128
 20
-4.6045215541143261
 30
0.0
 11
29.999999999554021
 21
-2.235192091251589
 31
0.0
  0
LINE
  5
15DC
  8
0
 62
     0
 10
26.3832341208999
 20
-4.729425954772065
 30
0.0
 11
29.999999999554021
 21
-1.1126600761179459
 31
0.0
  0
LINE
  5
15DD
  8
0
 62
     0
 10
25.999999999555751
 20
-3.9901280609825731
 30
0.0
 11
29.999999999554021
 21
0.0098719390156958
 31
0.0
  0
LINE
  5
15DE
  8
0
 62
     0
 10
25.367596045395089
 20
-3.5000000000095879
 30
0.0
 11
29.999999999554021
 21
1.1324039541493389
 31
0.0
  0
LINE
  5
15DF
  8
0
 62
     0
 10
24.54275646564799
 20
-3.2023075646230388
 30
0.0
 11
28.233023173593448
 21
0.4879591433224118
 31
0.0
  0
LINE
  5
15E0
  8
0
 62
     0
 10
26.000000000037851
 20
-0.6225320150995392
 30
0.0
 11
27.42800275868197
 21
0.8054707435445767
 31
0.0
  0
LINE
  5
15E1
  8
0
 62
     0
 10
24.499999999979011
 20
-2.1225320151583751
 30
0.0
 11
25.1225320151337
 21
-1.500000000003689
 31
0.0
  0
LINE
  5
15E2
  8
0
 62
     0
 10
25.755031130769289
 20
0.2550311307655466
 30
0.0
 11
26.065165821168961
 21
0.56516582116521
 31
0.0
  0
ENDBLK
  5
15E4
  8
0
  0
BLOCK
  8
0
  2
*X41
 70
     1
 10
0.0
 20
0.0
 30
0.0
  3
*X41
  1

  0
LINE
  5
161B
  8
0
 62
     0
 10
62.266905377762079
 20
0.3794392578474408
 30
0.0
 11
62.11250739695695
 21
0.5338372386525699
 31
0.0
  0
LINE
  5
161C
  8
0
 62
     0
 10
61.999999999428027
 20
-0.4761873789521581
 30
0.0
 11
60.749670459422212
 21
0.774142161053657
 31
0.0
  0
LINE
  5
161D
  8
0
 62
     0
 10
63.499403856271179
 20
-1.9755912357953129
 30
0.0
 11
63.024408763636352
 21
-1.500596143160482
 31
0.0
  0
LINE
  5
161E
  8
0
 62
     0
 10
63.49174761776338
 20
-3.0904670124211471
 30
0.0
 11
59.736886876430937
 21
0.6643937289112892
 31
0.0
  0
LINE
  5
161F
  8
0
 62
     0
 10
58.704735102999301
 20
0.5740134872092783
 30
0.0
 11
57.999999999554177
 21
1.2787485906544001
 31
0.0
  0
LINE
  5
1620
  8
0
 62
     0
 10
62.778748590220097
 20
-3.500000000011525
 30
0.0
 11
59.131246739284649
 21
0.147501850923927
 31
0.0
  0
LINE
  5
1621
  8
0
 62
     0
 10
61.999999999909178
 20
-3.843783424834228
 30
0.0
 11
57.999999999554191
 21
0.1562165755207552
 31
0.0
  0
LINE
  5
1622
  8
0
 62
     0
 10
61.793789022463898
 20
-4.7601044625226079
 30
0.0
 11
57.999999999554177
 21
-0.9663154396128916
 31
0.0
  0
LINE
  5
1623
  8
0
 62
     0
 10
60.5225212462286
 20
-4.611368701420961
 30
0.0
 11
57.999999999554177
 21
-2.0888474547465341
 31
0.0
  0
LINE
  5
1624
  8
0
 62
     0
 10
59.404104230259442
 20
-4.6154837005854361
 30
0.0
 11
57.999999999554177
 21
-3.2113794698801779
 31
0.0
  0
LINE
  5
1625
  8
0
 62
     0
 10
58.39378876822024
 20
-4.7277002536798811
 30
0.0
 11
57.999999999554177
 21
-4.3339114850138207
 31
0.0
  0
LINE
  5
1626
  8
0
 62
     0
 10
62.411152544808417
 20
-3.5000000000065121
 30
0.0
 11
63.499999999625459
 21
-2.411152545189466
 31
0.0
  0
LINE
  5
1627
  8
0
 62
     0
 10
61.236607160379378
 20
-4.6745453844355529
 30
0.0
 11
61.999999999909612
 21
-3.9111525449053159
 31
0.0
  0
LINE
  5
1628
  8
0
 62
     0
 10
60.189139241347611
 20
-4.5994812883336884
 30
0.0
 11
63.231696808359807
 21
-1.5569237213214779
 31
0.0
  0
LINE
  5
1629
  8
0
 62
     0
 10
59.020221305244377
 20
-4.6458672093032582
 30
0.0
 11
62.16857307595437
 21
-1.4975154385932681
 31
0.0
  0
LINE
  5
162A
  8
0
 62
     0
 10
57.999999999554191
 20
-4.5435564998598181
 30
0.0
 11
61.999999999428042
 21
-0.5435564999859716
 31
0.0
  0
LINE
  5
162B
  8
0
 62
     0
 10
57.99999999955417
 20
-3.4210244847261739
 30
0.0
 11
61.978492215286678
 21
0.5574677310063266
 31
0.0
  0
LINE
  5
162C
  8
0
 62
     0
 10
57.999999999554191
 20
-2.2984924695925311
 30
0.0
 11
61.024223518285261
 21
0.7257310491385312
 31
0.0
  0
LINE
  5
162D
  8
0
 62
     0
 10
59.761814787541482
 20
0.5858543335284097
 30
0.0
 11
60.069954821283801
 21
0.8939943672707286
 31
0.0
  0
LINE
  5
162E
  8
0
 62
     0
 10
57.999999999554177
 20
-1.175960454458884
 30
0.0
 11
59.331083591011122
 21
0.1551231369980464
 31
0.0
  0
LINE
  5
162F
  8
0
 62
     0
 10
57.999999999554191
 20
-0.0534284393252413
 30
0.0
 11
58.684109714702778
 21
0.6306812758233457
 31
0.0
  0
LINE
  5
1630
  8
0
 62
     0
 10
57.999999999554191
 20
1.0691035758084051
 30
0.0
 11
58.38456634473367
 21
1.4536699209878909
 31
0.0
  0
ENDBLK
  5
1632
  8
0
  0
BLOCK
  8
0
  2
*X42
 70
     1
 10
0.0
 20
0.0
 30
0.0
  3
*X42
  1

  0
LINE
  5
1634
  8
0
 62
     0
 10
29.999999999554021
 20
1.215448212313468
 30
0.0
 11
29.65448516013263
 21
1.5609630517348621
 31
0.0
  0
LINE
  5
1635
  8
0
 62
     0
 10
29.999999999554021
 20
0.0929161971798252
 30
0.0
 11
29.354941790154822
 21
0.7379744065790223
 31
0.0
  0
LINE
  5
1636
  8
0
 62
     0
 10
28.26924542378535
 20
0.7011387578148522
 30
0.0
 11
28.055358320270908
 21
0.9150258613292889
 31
0.0
  0
LINE
  5
1637
  8
0
 62
     0
 10
29.999999999554021
 20
-1.02961581795382
 30
0.0
 11
28.827893856525058
 21
0.142490325075143
 31
0.0
  0
LINE
  5
1638
  8
0
 62
     0
 10
29.999999999554021
 20
-2.1521478330874659
 30
0.0
 11
27.100184607703049
 21
0.7476675587635048
 31
0.0
  0
LINE
  5
1639
  8
0
 62
     0
 10
29.999999999554021
 20
-3.274679848221111
 30
0.0
 11
26.145915910690949
 21
0.5794042406419551
 31
0.0
  0
LINE
  5
163A
  8
0
 62
     0
 10
29.999999999554021
 20
-4.3972118633547561
 30
0.0
 11
26.000000000037851
 21
-0.3972118638385862
 31
0.0
  0
LINE
  5
163B
  8
0
 62
     0
 10
29.143643620930209
 20
-4.6633874998645917
 30
0.0
 11
25.931204439906072
 21
-1.4509483188404479
 31
0.0
  0
LINE
  5
163C
  8
0
 62
     0
 10
27.95551330178607
 20
-4.5977891958540882
 30
0.0
 11
24.8738893230339
 21
-1.5161652171019171
 31
0.0
  0
LINE
  5
163D
  8
0
 62
     0
 10
25.735192090802901
 20
-3.500000000004571
 30
0.0
 11
24.499999999910688
 21
-2.2648079091123599
 31
0.0
  0
LINE
  5
163E
  8
0
 62
     0
 10
26.894281331347209
 20
-4.6590892405488802
 30
0.0
 11
25.99999999955724
 21
-3.764807908758903
 31
0.0
  0
LINE
  5
163F
  8
0
 62
     0
 10
29.73134754333131
 20
-4.7489085777415951
 30
0.0
 11
29.999999999554021
 21
-4.4802561215188756
 31
0.0
  0
LINE
  5
1640
  8
0
 62
     0
 10
28.733091462111531
 20
-4.6246326438277219
 30
0.0
 11
29.999999999554021
 21
-3.3577241063852332
 31
0.0
  0
LINE
  5
1641
  8
0
 62
     0
 10
27.63067053669128
 20
-4.6045215541143261
 30
0.0
 11
29.999999999554021
 21
-2.235192091251589
 31
0.0
  0
LINE
  5
1642
  8
0
 62
     0
 10
26.3832341208999
 20
-4.729425954772065
 30
0.0
 11
29.999999999554021
 21
-1.1126600761179459
 31
0.0
  0
LINE
  5
1643
  8
0
 62
     0
 10
25.999999999555751
 20
-3.9901280609825731
 30
0.0
 11
29.999999999554021
 21
0.0098719390156958
 31
0.0
  0
LINE
  5
1644
  8
0
 62
     0
 10
25.367596045395089
 20
-3.5000000000095879
 30
0.0
 11
29.999999999554021
 21
1.1324039541493389
 31
0.0
  0
LINE
  5
1645
  8
0
 62
     0
 10
24.54275646564799
 20
-3.2023075646230388
 30
0.0
 11
28.233023173593448
 21
0.4879591433224118
 31
0.0
  0
LINE
  5
1646
  8
0
 62
     0
 10
26.000000000037851
 20
-0.6225320150995392
 30
0.0
 11
27.42800275868197
 21
0.8054707435445767
 31
0.0
  0
LINE
  5
1647
  8
0
 62
     0
 10
24.499999999979011
 20
-2.1225320151583751
 30
0.0
 11
25.1225320151337
 21
-1.500000000003689
 31
0.0
  0
LINE
  5
1648
  8
0
 62
     0
 10
25.755031130769289
 20
0.2550311307655466
 30
0.0
 11
26.065165821168961
 21
0.56516582116521
 31
0.0
  0
ENDBLK
  5
164A
  8
0
  0
BLOCK
  8
0
  2
*U43
 70
     1
 10
0.0
 20
0.0
 30
0.0
  3
*U43
  1

  0
TEXT
  5
1731
  8
SAPA_MATT
 62
     2
 10
-18.99999992825251
 20
25.049999999997979
 30
0.0
 40
3.5
  1
65
 50
90.0
  7
ISO
  0
ENDBLK
  5
1733
  8
0
  0
BLOCK
  8
0
  2
*U44
 70
     1
 10
0.0
 20
0.0
 30
0.0
  3
*U44
  1

  0
TEXT
  5
1735
  8
SAPA_MATT
 62
     2
 10
-6.999999928252536
 20
27.54999999999982
 30
0.0
 40
3.5
  1
60
 50
90.0
  7
ISO
  0
ENDBLK
  5
1737
  8
0
  0
BLOCK
  8
0
  2
*U45
 70
     1
 10
0.0
 20
0.0
 30
0.0
  3
*U45
  1

  0
TEXT
  5
1739
  8
SAPA_MATT
 62
     2
 10
73.174999999751151
 20
-55.000000000000213
 30
0.0
 40
3.5
  1
125
  7
ISO
  0
ENDBLK
  5
173B
  8
0
  0
BLOCK
  8
0
  2
*U46
 70
     1
 10
0.0
 20
0.0
 30
0.0
  3
*U46
  1

  0
TEXT
  5
173D
  8
SAPA_MATT
 62
     2
 10
14.2750000000394
 20
-43.000000000000242
 30
0.0
 40
3.5
  1
6.5
  7
ISO
  0
ENDBLK
  5
173F
  8
0
  0
ENDSEC
  0
SECTION
  2
ENTITIES
  0
TEXT
  5
70A
  8
SAPA_ARTIKELNR
 10
12.16555548758447
 20
24.833490238477282
 30
0.0000000048844772
 40
3.5
  1
D8K025
 50
90.0
  7
ISO
  0
TEXT
  5
722
  8
SAPA_ARTIKELNR
 10
26.593097235455701
 20
-21.869708984274119
 30
0.0000000048844772
 40
3.5
  1
D8V001
 50
90.0
  7
ISO
  0
TEXT
  5
8BF
  8
SAPA_ARTIKELNR
 10
101.5879484317109
 20
-6.6171623451272694
 30
0.0000000048844772
 40
3.5
  1
D8V020
  7
ISO
  0
INSERT
  5
C97
  8
SAPA_ANSLUTNING
  6
CONTINUOUS
  2
*X37
 10
0.0
 20
0.0
 30
0.0
1001
ACAD
1000
HATCH
1002
{
1070
    19
1000
ANSI37
1040
0.25
1040
0.0
1000
R14_HATCH_DATA
1000
C97
1011
1.0
1021
0.0
1031
0.0
1021
0.0
1031
0.0
1011
0.0
1021
0.0
1031
0.0
1021
1.0
1031
0.0
1011
0.0
1021
0.0
1031
0.0
1021
0.0
1031
1.0
1040
0.0
1010
0.0
1020
0.0
1030
1.0
1000
ANSI37
1070
     0
1070
     0
1071
        1
1071
        5
1071
        6
1070
     2
1040
137.4999999277548
1040
1.4999999999847939
1040
1.4999999999999989
1040
5.49778714378209
1040
6.2831853071795569
1070
     1
1070
     1
1040
138.9999999277548
1040
1.4999999999847511
1040
138.99999992775469
1040
12.33665123667528
1070
     3
1040
143.9999999277548
1040
12.336651236675589
1040
0.0
1040
5.6210574168242138
1040
0.8895123513655372
1040
1.5707963267948959
1040
2.144309431217978
1070
     1
1070
     3
1040
143.9999999277548
1040
12.336651236675589
1040
0.0
1040
5.6210574168242138
1040
0.8895123513655372
1040
2.144309431217978
1040
4.7123889803846888
1070
     1
1070
     1
1040
148.9999999277548
1040
12.33665123667495
1040
148.9999999277548
1040
-0.0000000000002558
1070
     2
1040
142.90216751658321
1040
-20.646721299902669
1040
21.528368738726542
1040
1.2836189008757071
1040
1.773853352005716
1070
     1
1071
        0
1070
     0
1070
     1
1040
0.0
1040
0.25
1070
     0
1070
     2
1040
5.4977871437821371
1040
0.0000000000135287
1040
59.999999999984738
1040
-0.5612660075668221
1040
-0.5612660075668221
1070
     0
1040
3.926990816987241
1040
0.0000000000135287
1040
59.999999999984738
1040
-0.5612660075668221
1040
0.5612660075668221
1070
     0
1040
0.0591690278051155
1071
        1
1040
142.99867634700311
1040
3.5796352870588488
1040
0.0
1002
}
  0
LINE
  5
C98
  8
SAPA_ANSLUTNING
 10
14.0
 20
75.000000000005201
 30
0.0
 11
148.9999999277548
 21
75.000000000005173
 31
0.0
  0
LINE
  5
C99
  8
SAPA_ANSLUTNING
 10
148.9999999277548
 20
-0.0000000000002558
 30
0.0
 11
194.003255934413
 21
-0.00000000000027
 31
0.0
  0
LINE
  5
C9A
  8
SAPA_ANSLUTNING
 10
148.9999999277548
 20
75.000000000005173
 30
0.0
 11
148.9999999277548
 21
-0.0000000000002558
 31
0.0
  0
ARC
  5
C9B
  8
SAPA_ANSLUTNING
 10
142.90216751658321
 20
-20.64672129990279
 30
0.0
 40
21.52836873872667
 50
73.54594552339988
 51
101.6343105450598
  0
INSERT
  5
C9C
  8
SAPA_ANSLUTNING
  6
CONTINUOUS
  2
*X38
 10
0.0
 20
0.0
 30
0.0
1001
ACAD
1000
HATCH
1002
{
1070
    19
1000
HEX
1040
0.25
1040
0.0
1000
ASC_BOUNDS
1070
     1
1070
     1
1070
     1
1005
C9D
1000
ASC_SEEDPOINT
1011
144.24210993782941
1021
0.0
1031
0.0
1021
12.21831354761887
1031
0.0
1000
R14_HATCH_DATA
1000
C9C
1011
1.0
1021
0.0
1031
0.0
1021
0.0
1031
0.0
1011
0.0
1021
0.0
1031
0.0
1021
1.0
1031
0.0
1011
0.0
1021
0.0
1031
0.0
1021
0.0
1031
1.0
1040
0.0
1010
0.0
1020
0.0
1030
1.0
1000
HEX
1070
     0
1070
     1
1071
        1
1071
        5
1071
        1
1070
     3
1040
143.9999999277548
1040
12.336651236675589
1040
0.0
1040
5.6210574168242138
1040
0.8895123513655372
1040
0.0
1040
6.2831853071795862
1070
     0
1071
        1
1005
C9D
1070
     0
1070
     1
1040
0.0
1040
0.25
1070
     0
1070
     3
1040
0.0
1040
0.0000000000135287
1040
59.999999999984738
1040
0.0
1040
-1.374814999999999
1070
     2
1040
0.79375
1040
-1.587499999999999
1040
4.1887902047863914
1040
0.0000000000135287
1040
59.999999999984738
1040
-1.190624715503902
1040
0.6874074999999996
1070
     2
1040
0.7937499999999993
1040
-1.5874999999999979
1040
5.2359877559829879
1040
0.7937500000135174
1040
59.999999999984738
1040
-1.190624715503902
1040
-0.6874075000000001
1070
     2
1040
0.79375
1040
-1.587499999999999
1040
0.0591690278051155
1071
        1
1040
144.24210993782941
1040
12.21831354761887
1040
0.0
1002
}
  0
POLYLINE
  5
C9D
  8
SAPA_ANSLUTNING
 10
143.9999999277548
 20
17.957708653499804
 30
0.0
 66
     1
 70
     8
  0
VERTEX
  8
SAPA_ANSLUTNING
  5
1743
 10
144.000
 20
17.9577
 30
0.000000
  70
    32
  0
VERTEX
  8
SAPA_ANSLUTNING
  5
1744
 10
144.245
 20
17.9509
 30
0.000000
  70
    32
  0
VERTEX
  8
SAPA_ANSLUTNING
  5
1745
 10
144.490
 20
17.9306
 30
0.000000
  70
    32
  0
VERTEX
  8
SAPA_ANSLUTNING
  5
1746
 10
144.734
 20
17.8969
 30
0.000000
  70
    32
  0
VERTEX
  8
SAPA_ANSLUTNING
  5
1747
 10
144.975
 20
17.8497
 30
0.000000
  70
    32
  0
VERTEX
  8
SAPA_ANSLUTNING
  5
1748
 10
145.215
 20
17.7893
 30
0.000000
  70
    32
  0
VERTEX
  8
SAPA_ANSLUTNING
  5
1749
 10
145.451
 20
17.7157
 30
0.000000
  70
    32
  0
VERTEX
  8
SAPA_ANSLUTNING
  5
174A
 10
145.684
 20
17.6291
 30
0.000000
  70
    32
  0
VERTEX
  8
SAPA_ANSLUTNING
  5
174B
 10
145.913
 20
17.5298
 30
0.000000
  70
    32
  0
VERTEX
  8
SAPA_ANSLUTNING
  5
174C
 10
146.138
 20
17.4180
 30
0.000000
  70
    32
  0
VERTEX
  8
SAPA_ANSLUTNING
  5
174D
 10
146.357
 20
17.2940
 30
0.000000
  70
    32
  0
VERTEX
  8
SAPA_ANSLUTNING
  5
174E
 10
146.571
 20
17.1580
 30
0.000000
  70
    32
  0
VERTEX
  8
SAPA_ANSLUTNING
  5
174F
 10
146.778
 20
17.0104
 30
0.000000
  70
    32
  0
VERTEX
  8
SAPA_ANSLUTNING
  5
1750
 10
146.978
 20
16.8515
 30
0.000000
  70
    32
  0
VERTEX
  8
SAPA_ANSLUTNING
  5
1751
 10
147.172
 20
16.6818
 30
0.000000
  70
    32
  0
VERTEX
  8
SAPA_ANSLUTNING
  5
1752
 10
147.358
 20
16.5016
 30
0.000000
  70
    32
  0
VERTEX
  8
SAPA_ANSLUTNING
  5
1753
 10
147.536
 20
16.3113
 30
0.000000
  70
    32
  0
VERTEX
  8
SAPA_ANSLUTNING
  5
1754
 10
147.705
 20
16.1115
 30
0.000000
  70
    32
  0
VERTEX
  8
SAPA_ANSLUTNING
  5
1755
 10
147.865
 20
15.9026
 30
0.000000
  70
    32
  0
VERTEX
  8
SAPA_ANSLUTNING
  5
1756
 10
148.016
 20
15.6851
 30
0.000000
  70
    32
  0
VERTEX
  8
SAPA_ANSLUTNING
  5
1757
 10
148.157
 20
15.4595
 30
0.000000
  70
    32
  0
VERTEX
  8
SAPA_ANSLUTNING
  5
1758
 10
148.289
 20
15.2265
 30
0.000000
  70
    32
  0
VERTEX
  8
SAPA_ANSLUTNING
  5
1759
 10
148.410
 20
14.9864
 30
0.000000
  70
    32
  0
VERTEX
  8
SAPA_ANSLUTNING
  5
175A
 10
148.520
 20
14.7400
 30
0.000000
  70
    32
  0
VERTEX
  8
SAPA_ANSLUTNING
  5
175B
 10
148.619
 20
14.4877
 30
0.000000
  70
    32
  0
VERTEX
  8
SAPA_ANSLUTNING
  5
175C
 10
148.708
 20
14.2303
 30
0.000000
  70
    32
  0
VERTEX
  8
SAPA_ANSLUTNING
  5
175D
 10
148.785
 20
13.9684
 30
0.000000
  70
    32
  0
VERTEX
  8
SAPA_ANSLUTNING
  5
175E
 10
148.850
 20
13.7025
 30
0.000000
  70
    32
  0
VERTEX
  8
SAPA_ANSLUTNING
  5
175F
 10
148.904
 20
13.4333
 30
0.000000
  70
    32
  0
VERTEX
  8
SAPA_ANSLUTNING
  5
1760
 10
148.946
 20
13.1614
 30
0.000000
  70
    32
  0
VERTEX
  8
SAPA_ANSLUTNING
  5
1761
 10
148.976
 20
12.8876
 30
0.000000
  70
    32
  0
VERTEX
  8
SAPA_ANSLUTNING
  5
1762
 10
148.994
 20
12.6125
 30
0.000000
  70
    32
  0
VERTEX
  8
SAPA_ANSLUTNING
  5
1763
 10
149.000
 20
12.3367
 30
0.000000
  70
    32
  0
VERTEX
  8
SAPA_ANSLUTNING
  5
1764
 10
148.994
 20
12.0608
 30
0.000000
  70
    32
  0
VERTEX
  8
SAPA_ANSLUTNING
  5
1765
 10
148.976
 20
11.7857
 30
0.000000
  70
    32
  0
VERTEX
  8
SAPA_ANSLUTNING
  5
1766
 10
148.946
 20
11.5119
 30
0.000000
  70
    32
  0
VERTEX
  8
SAPA_ANSLUTNING
  5
1767
 10
148.904
 20
11.2400
 30
0.000000
  70
    32
  0
VERTEX
  8
SAPA_ANSLUTNING
  5
1768
 10
148.850
 20
10.9708
 30
0.000000
  70
    32
  0
VERTEX
  8
SAPA_ANSLUTNING
  5
1769
 10
148.785
 20
10.7049
 30
0.000000
  70
    32
  0
VERTEX
  8
SAPA_ANSLUTNING
  5
176A
 10
148.708
 20
10.4430
 30
0.000000
  70
    32
  0
VERTEX
  8
SAPA_ANSLUTNING
  5
176B
 10
148.619
 20
10.1856
 30
0.000000
  70
    32
  0
VERTEX
  8
SAPA_ANSLUTNING
  5
176C
 10
148.520
 20
9.93334
 30
0.000000
  70
    32
  0
VERTEX
  8
SAPA_ANSLUTNING
  5
176D
 10
148.410
 20
9.68690
 30
0.000000
  70
    32
  0
VERTEX
  8
SAPA_ANSLUTNING
  5
176E
 10
148.289
 20
9.44685
 30
0.000000
  70
    32
  0
VERTEX
  8
SAPA_ANSLUTNING
  5
176F
 10
148.157
 20
9.21376
 30
0.000000
  70
    32
  0
VERTEX
  8
SAPA_ANSLUTNING
  5
1770
 10
148.016
 20
8.98819
 30
0.000000
  70
    32
  0
VERTEX
  8
SAPA_ANSLUTNING
  5
1771
 10
147.865
 20
8.77069
 30
0.000000
  70
    32
  0
VERTEX
  8
SAPA_ANSLUTNING
  5
1772
 10
147.705
 20
8.56178
 30
0.000000
  70
    32
  0
VERTEX
  8
SAPA_ANSLUTNING
  5
1773
 10
147.536
 20
8.36196
 30
0.000000
  70
    32
  0
VERTEX
  8
SAPA_ANSLUTNING
  5
1774
 10
147.358
 20
8.17172
 30
0.000000
  70
    32
  0
VERTEX
  8
SAPA_ANSLUTNING
  5
1775
 10
147.172
 20
7.99152
 30
0.000000
  70
    32
  0
VERTEX
  8
SAPA_ANSLUTNING
  5
1776
 10
146.978
 20
7.82178
 30
0.000000
  70
    32
  0
VERTEX
  8
SAPA_ANSLUTNING
  5
1777
 10
146.778
 20
7.66291
 30
0.000000
  70
    32
  0
VERTEX
  8
SAPA_ANSLUTNING
  5
1778
 10
146.571
 20
7.51531
 30
0.000000
  70
    32
  0
VERTEX
  8
SAPA_ANSLUTNING
  5
1779
 10
146.357
 20
7.37932
 30
0.000000
  70
    32
  0
VERTEX
  8
SAPA_ANSLUTNING
  5
177A
 10
146.138
 20
7.25528
 30
0.000000
  70
    32
  0
VERTEX
  8
SAPA_ANSLUTNING
  5
177B
 10
145.913
 20
7.14347
 30
0.000000
  70
    32
  0
VERTEX
  8
SAPA_ANSLUTNING
  5
177C
 10
145.684
 20
7.04418
 30
0.000000
  70
    32
  0
VERTEX
  8
SAPA_ANSLUTNING
  5
177D
 10
145.451
 20
6.95763
 30
0.000000
  70
    32
  0
VERTEX
  8
SAPA_ANSLUTNING
  5
177E
 10
145.215
 20
6.88405
 30
0.000000
  70
    32
  0
VERTEX
  8
SAPA_ANSLUTNING
  5
177F
 10
144.975
 20
6.82360
 30
0.000000
  70
    32
  0
VERTEX
  8
SAPA_ANSLUTNING
  5
1780
 10
144.734
 20
6.77643
 30
0.000000
  70
    32
  0
VERTEX
  8
SAPA_ANSLUTNING
  5
1781
 10
144.490
 20
6.74266
 30
0.000000
  70
    32
  0
VERTEX
  8
SAPA_ANSLUTNING
  5
1782
 10
144.245
 20
6.72236
 30
0.000000
  70
    32
  0
VERTEX
  8
SAPA_ANSLUTNING
  5
1783
 10
144.000
 20
6.71559
 30
0.000000
  70
    32
  0
VERTEX
  8
SAPA_ANSLUTNING
  5
1784
 10
143.755
 20
6.72236
 30
0.000000
  70
    32
  0
VERTEX
  8
SAPA_ANSLUTNING
  5
1785
 10
143.510
 20
6.74266
 30
0.000000
  70
    32
  0
VERTEX
  8
SAPA_ANSLUTNING
  5
1786
 10
143.266
 20
6.77643
 30
0.000000
  70
    32
  0
VERTEX
  8
SAPA_ANSLUTNING
  5
1787
 10
143.025
 20
6.82360
 30
0.000000
  70
    32
  0
VERTEX
  8
SAPA_ANSLUTNING
  5
1788
 10
142.785
 20
6.88405
 30
0.000000
  70
    32
  0
VERTEX
  8
SAPA_ANSLUTNING
  5
1789
 10
142.549
 20
6.95763
 30
0.000000
  70
    32
  0
VERTEX
  8
SAPA_ANSLUTNING
  5
178A
 10
142.316
 20
7.04418
 30
0.000000
  70
    32
  0
VERTEX
  8
SAPA_ANSLUTNING
  5
178B
 10
142.087
 20
7.14347
 30
0.000000
  70
    32
  0
VERTEX
  8
SAPA_ANSLUTNING
  5
178C
 10
141.862
 20
7.25528
 30
0.000000
  70
    32
  0
VERTEX
  8
SAPA_ANSLUTNING
  5
178D
 10
141.643
 20
7.37932
 30
0.000000
  70
    32
  0
VERTEX
  8
SAPA_ANSLUTNING
  5
178E
 10
141.429
 20
7.51531
 30
0.000000
  70
    32
  0
VERTEX
  8
SAPA_ANSLUTNING
  5
178F
 10
141.222
 20
7.66291
 30
0.000000
  70
    32
  0
VERTEX
  8
SAPA_ANSLUTNING
  5
1790
 10
141.022
 20
7.82178
 30
0.000000
  70
    32
  0
VERTEX
  8
SAPA_ANSLUTNING
  5
1791
 10
140.828
 20
7.99152
 30
0.000000
  70
    32
  0
VERTEX
  8
SAPA_ANSLUTNING
  5
1792
 10
140.642
 20
8.17172
 30
0.000000
  70
    32
  0
VERTEX
  8
SAPA_ANSLUTNING
  5
1793
 10
140.464
 20
8.36196
 30
0.000000
  70
    32
  0
VERTEX
  8
SAPA_ANSLUTNING
  5
1794
 10
140.295
 20
8.56178
 30
0.000000
  70
    32
  0
VERTEX
  8
SAPA_ANSLUTNING
  5
1795
 10
140.135
 20
8.77069
 30
0.000000
  70
    32
  0
VERTEX
  8
SAPA_ANSLUTNING
  5
1796
 10
139.984
 20
8.98819
 30
0.000000
  70
    32
  0
VERTEX
  8
SAPA_ANSLUTNING
  5
1797
 10
139.843
 20
9.21376
 30
0.000000
  70
    32
  0
VERTEX
  8
SAPA_ANSLUTNING
  5
1798
 10
139.711
 20
9.44685
 30
0.000000
  70
    32
  0
VERTEX
  8
SAPA_ANSLUTNING
  5
1799
 10
139.590
 20
9.68690
 30
0.000000
  70
    32
  0
VERTEX
  8
SAPA_ANSLUTNING
  5
179A
 10
139.480
 20
9.93334
 30
0.000000
  70
    32
  0
VERTEX
  8
SAPA_ANSLUTNING
  5
179B
 10
139.381
 20
10.1856
 30
0.000000
  70
    32
  0
VERTEX
  8
SAPA_ANSLUTNING
  5
179C
 10
139.292
 20
10.4430
 30
0.000000
  70
    32
  0
VERTEX
  8
SAPA_ANSLUTNING
  5
179D
 10
139.215
 20
10.7049
 30
0.000000
  70
    32
  0
VERTEX
  8
SAPA_ANSLUTNING
  5
179E
 10
139.150
 20
10.9708
 30
0.000000
  70
    32
  0
VERTEX
  8
SAPA_ANSLUTNING
  5
179F
 10
139.096
 20
11.2400
 30
0.000000
  70
    32
  0
VERTEX
  8
SAPA_ANSLUTNING
  5
17A0
 10
139.054
 20
11.5119
 30
0.000000
  70
    32
  0
VERTEX
  8
SAPA_ANSLUTNING
  5
17A1
 10
139.024
 20
11.7857
 30
0.000000
  70
    32
  0
VERTEX
  8
SAPA_ANSLUTNING
  5
17A2
 10
139.006
 20
12.0608
 30
0.000000
  70
    32
  0
VERTEX
  8
SAPA_ANSLUTNING
  5
17A3
 10
139.000
 20
12.3367
 30
0.000000
  70
    32
  0
VERTEX
  8
SAPA_ANSLUTNING
  5
17A4
 10
139.006
 20
12.6125
 30
0.000000
  70
    32
  0
VERTEX
  8
SAPA_ANSLUTNING
  5
17A5
 10
139.024
 20
12.8876
 30
0.000000
  70
    32
  0
VERTEX
  8
SAPA_ANSLUTNING
  5
17A6
 10
139.054
 20
13.1614
 30
0.000000
  70
    32
  0
VERTEX
  8
SAPA_ANSLUTNING
  5
17A7
 10
139.096
 20
13.4333
 30
0.000000
  70
    32
  0
VERTEX
  8
SAPA_ANSLUTNING
  5
17A8
 10
139.150
 20
13.7025
 30
0.000000
  70
    32
  0
VERTEX
  8
SAPA_ANSLUTNING
  5
17A9
 10
139.215
 20
13.9684
 30
0.000000
  70
    32
  0
VERTEX
  8
SAPA_ANSLUTNING
  5
17AA
 10
139.292
 20
14.2303
 30
0.000000
  70
    32
  0
VERTEX
  8
SAPA_ANSLUTNING
  5
17AB
 10
139.381
 20
14.4877
 30
0.000000
  70
    32
  0
VERTEX
  8
SAPA_ANSLUTNING
  5
17AC
 10
139.480
 20
14.7400
 30
0.000000
  70
    32
  0
VERTEX
  8
SAPA_ANSLUTNING
  5
17AD
 10
139.590
 20
14.9864
 30
0.000000
  70
    32
  0
VERTEX
  8
SAPA_ANSLUTNING
  5
17AE
 10
139.711
 20
15.2265
 30
0.000000
  70
    32
  0
VERTEX
  8
SAPA_ANSLUTNING
  5
17AF
 10
139.843
 20
15.4595
 30
0.000000
  70
    32
  0
VERTEX
  8
SAPA_ANSLUTNING
  5
17B0
 10
139.984
 20
15.6851
 30
0.000000
  70
    32
  0
VERTEX
  8
SAPA_ANSLUTNING
  5
17B1
 10
140.135
 20
15.9026
 30
0.000000
  70
    32
  0
VERTEX
  8
SAPA_ANSLUTNING
  5
17B2
 10
140.295
 20
16.1115
 30
0.000000
  70
    32
  0
VERTEX
  8
SAPA_ANSLUTNING
  5
17B3
 10
140.464
 20
16.3113
 30
0.000000
  70
    32
  0
VERTEX
  8
SAPA_ANSLUTNING
  5
17B4
 10
140.642
 20
16.5016
 30
0.000000
  70
    32
  0
VERTEX
  8
SAPA_ANSLUTNING
  5
17B5
 10
140.828
 20
16.6818
 30
0.000000
  70
    32
  0
VERTEX
  8
SAPA_ANSLUTNING
  5
17B6
 10
141.022
 20
16.8515
 30
0.000000
  70
    32
  0
VERTEX
  8
SAPA_ANSLUTNING
  5
17B7
 10
141.222
 20
17.0104
 30
0.000000
  70
    32
  0
VERTEX
  8
SAPA_ANSLUTNING
  5
17B8
 10
141.429
 20
17.1580
 30
0.000000
  70
    32
  0
VERTEX
  8
SAPA_ANSLUTNING
  5
17B9
 10
141.643
 20
17.2940
 30
0.000000
  70
    32
  0
VERTEX
  8
SAPA_ANSLUTNING
  5
17BA
 10
141.862
 20
17.4180
 30
0.000000
  70
    32
  0
VERTEX
  8
SAPA_ANSLUTNING
  5
17BB
 10
142.087
 20
17.5298
 30
0.000000
  70
    32
  0
VERTEX
  8
SAPA_ANSLUTNING
  5
17BC
 10
142.316
 20
17.6291
 30
0.000000
  70
    32
  0
VERTEX
  8
SAPA_ANSLUTNING
  5
17BD
 10
142.549
 20
17.7157
 30
0.000000
  70
    32
  0
VERTEX
  8
SAPA_ANSLUTNING
  5
17BE
 10
142.785
 20
17.7893
 30
0.000000
  70
    32
  0
VERTEX
  8
SAPA_ANSLUTNING
  5
17BF
 10
143.025
 20
17.8497
 30
0.000000
  70
    32
  0
VERTEX
  8
SAPA_ANSLUTNING
  5
17C0
 10
143.266
 20
17.8969
 30
0.000000
  70
    32
  0
VERTEX
  8
SAPA_ANSLUTNING
  5
17C1
 10
143.510
 20
17.9306
 30
0.000000
  70
    32
  0
VERTEX
  8
SAPA_ANSLUTNING
  5
17C2
 10
143.755
 20
17.9509
 30
0.000000
  70
    32
  0
VERTEX
  8
SAPA_ANSLUTNING
  5
17C3
 10
144.000
 20
17.9577
 30
0.000000
  70
    32
  0
SEQEND
  8
SAPA_ANSLUTNING
  5
17C4
  0
POLYLINE
  5
C9E
  8
SAPA_ANSLUTNING
 66
     1
 10
0.0
 20
0.0
 30
0.0
  0
VERTEX
  5
10D0
  8
SAPA_ANSLUTNING
 10
140.50107147109571
 20
16.3520695905463
 30
0.0
 42
-0.8812634091771133
  0
VERTEX
  5
10D1
  8
SAPA_ANSLUTNING
 10
140.9999999277548
 20
20.288837618766468
 30
0.0
  0
VERTEX
  5
10D2
  8
SAPA_ANSLUTNING
 10
146.9999999277548
 20
20.288837618766468
 30
0.0
 42
0.9999999999999998
  0
VERTEX
  5
10D3
  8
SAPA_ANSLUTNING
 10
146.9999999277548
 20
24.288837618766468
 30
0.0
  0
VERTEX
  5
10D4
  8
SAPA_ANSLUTNING
 10
140.9999999277548
 20
24.288837618766451
 30
0.0
 42
-0.9999999999999998
  0
VERTEX
  5
10D5
  8
SAPA_ANSLUTNING
 10
140.9999999277548
 20
28.288837618766451
 30
0.0
  0
VERTEX
  5
10D6
  8
SAPA_ANSLUTNING
 10
146.9999999277548
 20
28.288837618766461
 30
0.0
 42
0.9999999999999998
  0
VERTEX
  5
10D7
  8
SAPA_ANSLUTNING
 10
146.9999999277548
 20
32.288837618766472
 30
0.0
  0
VERTEX
  5
10D8
  8
SAPA_ANSLUTNING
 10
140.9999999277548
 20
32.288837618766451
 30
0.0
 42
-0.9999999999999998
  0
VERTEX
  5
10D9
  8
SAPA_ANSLUTNING
 10
140.9999999277548
 20
36.288837618766451
 30
0.0
  0
VERTEX
  5
10DA
  8
SAPA_ANSLUTNING
 10
146.9999999277548
 20
36.288837618766472
 30
0.0
 42
0.9999999999999998
  0
VERTEX
  5
10DB
  8
SAPA_ANSLUTNING
 10
146.9999999277548
 20
40.288837618766458
 30
0.0
  0
VERTEX
  5
10DC
  8
SAPA_ANSLUTNING
 10
140.9999999277548
 20
40.288837618766443
 30
0.0
 42
-0.9999999999999998
  0
VERTEX
  5
10DD
  8
SAPA_ANSLUTNING
 10
140.9999999277548
 20
44.288837618766451
 30
0.0
  0
VERTEX
  5
10DE
  8
SAPA_ANSLUTNING
 10
146.9999999277548
 20
44.288837618766472
 30
0.0
 42
0.9999999999999998
  0
VERTEX
  5
10DF
  8
SAPA_ANSLUTNING
 10
146.9999999277548
 20
48.288837618766458
 30
0.0
  0
VERTEX
  5
10E0
  8
SAPA_ANSLUTNING
 10
140.9999999277548
 20
48.288837618766451
 30
0.0
 42
-0.9999999999999998
  0
VERTEX
  5
10E1
  8
SAPA_ANSLUTNING
 10
140.9999999277548
 20
52.288837618766451
 30
0.0
  0
VERTEX
  5
10E2
  8
SAPA_ANSLUTNING
 10
146.9999999277548
 20
52.288837618766458
 30
0.0
 42
0.9999999999999998
  0
VERTEX
  5
10E3
  8
SAPA_ANSLUTNING
 10
146.9999999277548
 20
56.288837618766472
 30
0.0
  0
VERTEX
  5
10E4
  8
SAPA_ANSLUTNING
 10
140.9999999277548
 20
56.288837618766451
 30
0.0
 42
-0.9999999999999998
  0
VERTEX
  5
10E5
  8
SAPA_ANSLUTNING
 10
140.9999999277548
 20
60.288837618766451
 30
0.0
  0
VERTEX
  5
10E6
  8
SAPA_ANSLUTNING
 10
146.9999999277548
 20
60.288837618766451
 30
0.0
 42
0.9999999999999998
  0
VERTEX
  5
10E7
  8
SAPA_ANSLUTNING
 10
146.9999999277548
 20
64.288837618766451
 30
0.0
  0
VERTEX
  5
10E8
  8
SAPA_ANSLUTNING
 10
140.9999999277548
 20
64.288837618766451
 30
0.0
 42
-0.9999999999999998
  0
VERTEX
  5
10E9
  8
SAPA_ANSLUTNING
 10
140.9999999277548
 20
68.288837618766451
 30
0.0
  0
VERTEX
  5
10EA
  8
SAPA_ANSLUTNING
 10
146.9999999277548
 20
68.288837618766451
 30
0.0
 42
0.9999999999999998
  0
VERTEX
  5
10EB
  8
SAPA_ANSLUTNING
 10
146.9999999277548
 20
72.288837618766451
 30
0.0
  0
VERTEX
  5
10EC
  8
SAPA_ANSLUTNING
 10
140.9999999277548
 20
72.288837618766451
 30
0.0
 42
-0.5251735434384823
  0
VERTEX
  5
10ED
  8
SAPA_ANSLUTNING
 10
139.1307091350981
 20
75.000000000005173
 30
0.0
 42
-0.5251735434384823
  0
SEQEND
  5
10EE
  8
SAPA_ANSLUTNING
  0
LINE
  5
C9F
  8
SAPA_ANSLUTNING
 10
14.0
 20
-0.0000000000002842
 30
0.0
 11
-30.619466477045879
 21
-0.0000000000002842
 31
0.0
  0
LINE
  5
CA0
  8
SAPA_ANSLUTNING
 10
14.0
 20
-0.0000000000002842
 30
0.0
 11
14.0
 21
75.000000000005201
 31
0.0
  0
POLYLINE
  5
CA1
  8
SAPA_ANSLUTNING
 66
     1
 10
0.0
 20
0.0
 30
0.0
  0
VERTEX
  5
10EF
  8
SAPA_ANSLUTNING
 10
14.0
 20
73.498928456658774
 30
0.0
 42
-0.8812634091771133
  0
VERTEX
  5
10F0
  8
SAPA_ANSLUTNING
 10
17.936768028220161
 20
72.999999999999673
 30
0.0
  0
VERTEX
  5
10F1
  8
SAPA_ANSLUTNING
 10
17.936768028220161
 20
61.999999999999687
 30
0.0
 42
0.9999999999999998
  0
VERTEX
  5
10F2
  8
SAPA_ANSLUTNING
 10
21.936768028220161
 20
61.999999999999687
 30
0.0
  0
VERTEX
  5
10F3
  8
SAPA_ANSLUTNING
 10
21.93676802822015
 20
72.999999999999673
 30
0.0
 42
-0.9999999999999998
  0
VERTEX
  5
10F4
  8
SAPA_ANSLUTNING
 10
25.93676802822014
 20
72.999999999999673
 30
0.0
  0
VERTEX
  5
10F5
  8
SAPA_ANSLUTNING
 10
25.936768028220161
 20
61.999999999999687
 30
0.0
 42
0.9999999999999998
  0
VERTEX
  5
10F6
  8
SAPA_ANSLUTNING
 10
29.936768028220161
 20
61.999999999999687
 30
0.0
  0
VERTEX
  5
10F7
  8
SAPA_ANSLUTNING
 10
29.93676802822014
 20
72.999999999999673
 30
0.0
 42
-0.9999999999999998
  0
VERTEX
  5
10F8
  8
SAPA_ANSLUTNING
 10
33.936768028220143
 20
72.999999999999673
 30
0.0
  0
VERTEX
  5
10F9
  8
SAPA_ANSLUTNING
 10
33.936768028220143
 20
61.999999999999687
 30
0.0
 42
0.9999999999999998
  0
VERTEX
  5
10FA
  8
SAPA_ANSLUTNING
 10
37.93676802822015
 20
61.999999999999687
 30
0.0
  0
VERTEX
  5
10FB
  8
SAPA_ANSLUTNING
 10
37.93676802822015
 20
72.999999999999673
 30
0.0
 42
-0.9999999999999998
  0
VERTEX
  5
10FC
  8
SAPA_ANSLUTNING
 10
41.936768028220143
 20
72.999999999999673
 30
0.0
  0
VERTEX
  5
10FD
  8
SAPA_ANSLUTNING
 10
41.936768028220143
 20
61.999999999999687
 30
0.0
 42
0.9999999999999998
  0
VERTEX
  5
10FE
  8
SAPA_ANSLUTNING
 10
45.936768028220143
 20
61.999999999999687
 30
0.0
  0
VERTEX
  5
10FF
  8
SAPA_ANSLUTNING
 10
45.936768028220143
 20
72.999999999999673
 30
0.0
 42
-0.9999999999999998
  0
VERTEX
  5
1100
  8
SAPA_ANSLUTNING
 10
49.936768028220143
 20
72.999999999999673
 30
0.0
  0
VERTEX
  5
1101
  8
SAPA_ANSLUTNING
 10
49.936768028220143
 20
61.999999999999687
 30
0.0
 42
0.9999999999999998
  0
VERTEX
  5
1102
  8
SAPA_ANSLUTNING
 10
53.936768028220143
 20
61.999999999999687
 30
0.0
  0
VERTEX
  5
1103
  8
SAPA_ANSLUTNING
 10
53.936768028220143
 20
72.999999999999673
 30
0.0
 42
-0.9999999999999998
  0
VERTEX
  5
1104
  8
SAPA_ANSLUTNING
 10
57.936768028220143
 20
72.999999999999673
 30
0.0
  0
VERTEX
  5
1105
  8
SAPA_ANSLUTNING
 10
57.936768028220143
 20
61.999999999999687
 30
0.0
 42
0.9999999999999998
  0
VERTEX
  5
1106
  8
SAPA_ANSLUTNING
 10
61.93676802822015
 20
61.999999999999687
 30
0.0
  0
VERTEX
  5
1107
  8
SAPA_ANSLUTNING
 10
61.93676802822015
 20
72.999999999999673
 30
0.0
 42
-0.9999999999999998
  0
VERTEX
  5
1108
  8
SAPA_ANSLUTNING
 10
65.936768028220143
 20
72.999999999999673
 30
0.0
  0
VERTEX
  5
1109
  8
SAPA_ANSLUTNING
 10
65.936768028220143
 20
61.999999999999687
 30
0.0
 42
0.9999999999999998
  0
VERTEX
  5
110A
  8
SAPA_ANSLUTNING
 10
69.936768028220143
 20
61.999999999999687
 30
0.0
  0
VERTEX
  5
110B
  8
SAPA_ANSLUTNING
 10
69.936768028220143
 20
72.999999999999673
 30
0.0
 42
-0.5251735434384823
  0
VERTEX
  5
110C
  8
SAPA_ANSLUTNING
 10
72.647930409458866
 20
74.869290792656301
 30
0.0
 42
-0.5251735434384823
  0
SEQEND
  5
110D
  8
SAPA_ANSLUTNING
  0
POLYLINE
  5
CA2
  8
SAPA_ANSLUTNING
 66
     1
 10
0.0
 20
0.0
 30
0.0
  0
VERTEX
  5
110E
  8
SAPA_ANSLUTNING
 10
61.999999999999993
 20
73.498928456658774
 30
0.0
 42
-0.8812634091771133
  0
VERTEX
  5
110F
  8
SAPA_ANSLUTNING
 10
65.936768028220143
 20
72.999999999999673
 30
0.0
  0
VERTEX
  5
1110
  8
SAPA_ANSLUTNING
 10
65.936768028220143
 20
61.999999999999687
 30
0.0
 42
0.9999999999999998
  0
VERTEX
  5
1111
  8
SAPA_ANSLUTNING
 10
69.936768028220143
 20
61.999999999999687
 30
0.0
  0
VERTEX
  5
1112
  8
SAPA_ANSLUTNING
 10
69.936768028220129
 20
72.999999999999673
 30
0.0
 42
-0.9999999999999998
  0
VERTEX
  5
1113
  8
SAPA_ANSLUTNING
 10
73.936768028220129
 20
72.999999999999673
 30
0.0
  0
VERTEX
  5
1114
  8
SAPA_ANSLUTNING
 10
73.936768028220143
 20
61.999999999999687
 30
0.0
 42
0.9999999999999998
  0
VERTEX
  5
1115
  8
SAPA_ANSLUTNING
 10
77.936768028220143
 20
61.999999999999687
 30
0.0
  0
VERTEX
  5
1116
  8
SAPA_ANSLUTNING
 10
77.936768028220115
 20
72.999999999999673
 30
0.0
 42
-0.9999999999999998
  0
VERTEX
  5
1117
  8
SAPA_ANSLUTNING
 10
81.936768028220129
 20
72.999999999999673
 30
0.0
  0
VERTEX
  5
1118
  8
SAPA_ANSLUTNING
 10
81.936768028220129
 20
61.999999999999687
 30
0.0
 42
0.9999999999999998
  0
VERTEX
  5
1119
  8
SAPA_ANSLUTNING
 10
85.936768028220129
 20
61.999999999999687
 30
0.0
  0
VERTEX
  5
111A
  8
SAPA_ANSLUTNING
 10
85.936768028220129
 20
72.999999999999673
 30
0.0
 42
-0.9999999999999998
  0
VERTEX
  5
111B
  8
SAPA_ANSLUTNING
 10
89.936768028220129
 20
72.999999999999673
 30
0.0
  0
VERTEX
  5
111C
  8
SAPA_ANSLUTNING
 10
89.936768028220129
 20
61.999999999999687
 30
0.0
 42
0.9999999999999998
  0
VERTEX
  5
111D
  8
SAPA_ANSLUTNING
 10
93.936768028220115
 20
61.999999999999687
 30
0.0
  0
VERTEX
  5
111E
  8
SAPA_ANSLUTNING
 10
93.936768028220115
 20
72.999999999999673
 30
0.0
 42
-0.9999999999999998
  0
VERTEX
  5
111F
  8
SAPA_ANSLUTNING
 10
97.936768028220115
 20
72.999999999999673
 30
0.0
  0
VERTEX
  5
1120
  8
SAPA_ANSLUTNING
 10
97.936768028220115
 20
61.999999999999687
 30
0.0
 42
0.9999999999999998
  0
VERTEX
  5
1121
  8
SAPA_ANSLUTNING
 10
101.9367680282201
 20
61.999999999999687
 30
0.0
  0
VERTEX
  5
1122
  8
SAPA_ANSLUTNING
 10
101.9367680282201
 20
72.999999999999673
 30
0.0
 42
-0.9999999999999998
  0
VERTEX
  5
1123
  8
SAPA_ANSLUTNING
 10
105.9367680282201
 20
72.999999999999673
 30
0.0
  0
VERTEX
  5
1124
  8
SAPA_ANSLUTNING
 10
105.9367680282201
 20
61.999999999999687
 30
0.0
 42
0.9999999999999998
  0
VERTEX
  5
1125
  8
SAPA_ANSLUTNING
 10
109.9367680282201
 20
61.999999999999687
 30
0.0
  0
VERTEX
  5
1126
  8
SAPA_ANSLUTNING
 10
109.9367680282201
 20
72.999999999999673
 30
0.0
 42
-0.9999999999999998
  0
VERTEX
  5
1127
  8
SAPA_ANSLUTNING
 10
113.9367680282201
 20
72.999999999999673
 30
0.0
  0
VERTEX
  5
1128
  8
SAPA_ANSLUTNING
 10
113.9367680282201
 20
61.999999999999687
 30
0.0
 42
0.9999999999999998
  0
VERTEX
  5
1129
  8
SAPA_ANSLUTNING
 10
117.9367680282201
 20
61.999999999999687
 30
0.0
  0
VERTEX
  5
112A
  8
SAPA_ANSLUTNING
 10
117.9367680282201
 20
72.999999999999673
 30
0.0
 42
-0.5251735434384823
  0
VERTEX
  5
112B
  8
SAPA_ANSLUTNING
 10
120.64793040945879
 20
74.869290792656301
 30
0.0
 42
-0.5251735434384823
  0
SEQEND
  5
112C
  8
SAPA_ANSLUTNING
  0
POLYLINE
  5
CA3
  8
SAPA_ANSLUTNING
 66
     1
 10
0.0
 20
0.0
 30
0.0
  0
VERTEX
  5
112D
  8
SAPA_ANSLUTNING
 10
109.9999999999999
 20
73.498928456658774
 30
0.0
 42
-0.8812634091771133
  0
VERTEX
  5
112E
  8
SAPA_ANSLUTNING
 10
113.9367680282201
 20
72.999999999999673
 30
0.0
  0
VERTEX
  5
112F
  8
SAPA_ANSLUTNING
 10
113.9367680282201
 20
61.999999999999687
 30
0.0
 42
0.9999999999999998
  0
VERTEX
  5
1130
  8
SAPA_ANSLUTNING
 10
117.9367680282201
 20
61.999999999999687
 30
0.0
  0
VERTEX
  5
1131
  8
SAPA_ANSLUTNING
 10
117.9367680282201
 20
72.999999999999673
 30
0.0
 42
-0.9999999999999998
  0
VERTEX
  5
1132
  8
SAPA_ANSLUTNING
 10
121.9367680282201
 20
72.999999999999673
 30
0.0
  0
VERTEX
  5
1133
  8
SAPA_ANSLUTNING
 10
121.9367680282201
 20
61.999999999999687
 30
0.0
 42
0.9999999999999998
  0
VERTEX
  5
1134
  8
SAPA_ANSLUTNING
 10
125.9367680282201
 20
61.999999999999687
 30
0.0
  0
VERTEX
  5
1135
  8
SAPA_ANSLUTNING
 10
125.9367680282201
 20
72.999999999999673
 30
0.0
 42
-0.9999999999999998
  0
VERTEX
  5
1136
  8
SAPA_ANSLUTNING
 10
129.93676802822009
 20
72.999999999999673
 30
0.0
  0
VERTEX
  5
1137
  8
SAPA_ANSLUTNING
 10
129.93676802822009
 20
61.999999999999687
 30
0.0
 42
0.9999999999999998
  0
VERTEX
  5
1138
  8
SAPA_ANSLUTNING
 10
133.93676802822009
 20
61.999999999999687
 30
0.0
  0
VERTEX
  5
1139
  8
SAPA_ANSLUTNING
 10
133.93676802822009
 20
72.999999999999673
 30
0.0
 42
-0.9999999999999998
  0
VERTEX
  5
113A
  8
SAPA_ANSLUTNING
 10
137.93676802822009
 20
72.999999999999673
 30
0.0
  0
VERTEX
  5
113B
  8
SAPA_ANSLUTNING
 10
137.93676802822009
 20
61.999999999999687
 30
0.0
 42
0.4183530514568368
  0
VERTEX
  5
113C
  8
SAPA_ANSLUTNING
 10
139.9649918658032
 20
60.00019915616744
 30
0.0
 42
0.4183530514568368
  0
SEQEND
  5
113D
  8
SAPA_ANSLUTNING
  0
POLYLINE
  5
EDB
  8
SAPA_PROFIL
 62
     4
 66
     1
 10
0.0
 20
0.0
 30
0.0
 70
     1
  0
VERTEX
  5
EDC
  8
SAPA_PROFIL
 62
     4
 10
56.143782217080329
 20
14.649987999994201
 30
0.0
 42
0.1316524975873979
  0
VERTEX
  5
EDD
  8
SAPA_PROFIL
 62
     4
 10
56.543782217080349
 20
14.75716767696664
 30
0.0
  0
VERTEX
  5
EDE
  8
SAPA_PROFIL
 62
     4
 10
58.263397459354387
 20
15.74998799999606
 30
0.0
  0
VERTEX
  5
EDF
  8
SAPA_PROFIL
 62
     4
 10
58.699999999732839
 20
15.749987999996151
 30
0.0
 42
-0.4142135623730951
  0
VERTEX
  5
EE0
  8
SAPA_PROFIL
 62
     4
 10
58.949999999732832
 20
15.49998799999616
 30
0.0
  0
VERTEX
  5
EE1
  8
SAPA_PROFIL
 62
     4
 10
58.949999999732881
 20
11.899975999996091
 30
0.0
 42
-0.4142135623731053
  0
VERTEX
  5
EE2
  8
SAPA_PROFIL
 62
     4
 10
58.699999999732881
 20
11.649975999996091
 30
0.0
  0
VERTEX
  5
EE3
  8
SAPA_PROFIL
 62
     4
 10
58.263398078154417
 20
11.64998764273145
 30
0.0
  0
VERTEX
  5
EE4
  8
SAPA_PROFIL
 62
     4
 10
56.543782217087028
 20
12.642808323021731
 30
0.0
 42
0.1316524975874149
  0
VERTEX
  5
EE5
  8
SAPA_PROFIL
 62
     4
 10
56.143782217086972
 20
12.74998799999422
 30
0.0
  0
VERTEX
  5
EE6
  8
SAPA_PROFIL
 62
     4
 10
31.856217782378678
 20
12.74998799999422
 30
0.0
 42
0.1316524975874151
  0
VERTEX
  5
EE7
  8
SAPA_PROFIL
 62
     4
 10
31.45621778237863
 20
12.642808323021731
 30
0.0
  0
VERTEX
  5
EE8
  8
SAPA_PROFIL
 62
     4
 10
29.736601921311241
 20
11.64998764273145
 30
0.0
  0
VERTEX
  5
EE9
  8
SAPA_PROFIL
 62
     4
 10
29.29999999973278
 20
11.649975999996091
 30
0.0
 42
-0.4142135623731054
  0
VERTEX
  5
EEA
  8
SAPA_PROFIL
 62
     4
 10
29.049999999732769
 20
11.8999759999961
 30
0.0
  0
VERTEX
  5
EEB
  8
SAPA_PROFIL
 62
     4
 10
29.04999999973283
 20
15.49998799999617
 30
0.0
 42
-0.4142135623730953
  0
VERTEX
  5
EEC
  8
SAPA_PROFIL
 62
     4
 10
29.299999999732812
 20
15.74998799999616
 30
0.0
  0
VERTEX
  5
EED
  8
SAPA_PROFIL
 62
     4
 10
29.736602540111271
 20
15.74998799999606
 30
0.0
  0
VERTEX
  5
EEE
  8
SAPA_PROFIL
 62
     4
 10
31.456217782385298
 20
14.75716767696664
 30
0.0
 42
0.1316524975873982
  0
VERTEX
  5
EEF
  8
SAPA_PROFIL
 62
     4
 10
31.856217782385318
 20
14.649987999994201
 30
0.0
  0
SEQEND
  5
EF0
  8
SAPA_PROFIL
 62
     4
  0
POLYLINE
  5
EF1
  8
SAPA_PROFIL
 66
     1
 10
0.0
 20
0.0
 30
0.0
 70
     1
  0
VERTEX
  5
136C
  8
SAPA_PROFIL
 10
29.243869040686601
 20
17.74944465005666
 30
0.0
  0
VERTEX
  5
136D
  8
SAPA_PROFIL
 10
30.19999999972196
 20
17.749444650053022
 30
0.0
 42
0.2418327667557183
  0
VERTEX
  5
136E
  8
SAPA_PROFIL
 10
30.443869040688529
 20
17.874722325029971
 30
0.0
 42
-0.2418327667535164
  0
VERTEX
  5
136F
  8
SAPA_PROFIL
 10
30.687738081647279
 20
18.000000000004182
 30
0.0
  0
VERTEX
  5
1370
  8
SAPA_PROFIL
 10
32.911541959280093
 20
17.999999999995708
 30
0.0
 42
-0.0874886635239214
  0
VERTEX
  5
1371
  8
SAPA_PROFIL
 10
33.014148002275483
 20
17.981907786231911
 30
0.0
  0
VERTEX
  5
1372
  8
SAPA_PROFIL
 10
34.441501172320912
 20
17.462393718556569
 30
0.0
 42
-0.4142135623698208
  0
VERTEX
  5
1373
  8
SAPA_PROFIL
 10
34.620802915558301
 20
17.077879889314389
 30
0.0
  0
VERTEX
  5
1374
  8
SAPA_PROFIL
 10
34.552398886887246
 20
16.88994136516569
 30
0.0
 42
-0.4142135623730019
  0
VERTEX
  5
1375
  8
SAPA_PROFIL
 10
34.167885057665607
 20
16.710639621923171
 30
0.0
  0
VERTEX
  5
1376
  8
SAPA_PROFIL
 10
33.134223174796468
 20
17.08686177958986
 30
0.0
 42
0.41421356237947
  0
VERTEX
  5
1377
  8
SAPA_PROFIL
 10
32.749709345564909
 20
16.907560036338712
 30
0.0
  0
VERTEX
  5
1378
  8
SAPA_PROFIL
 10
32.090854038329091
 20
15.09736995699979
 30
0.0
 42
-0.3152987888800591
  0
VERTEX
  5
1379
  8
SAPA_PROFIL
 10
31.80894625209287
 20
14.89997599999645
 30
0.0
  0
VERTEX
  5
137A
  8
SAPA_PROFIL
 10
31.389230484273529
 20
14.899975999996551
 30
0.0
 42
-0.1316524975873855
  0
VERTEX
  5
137B
  8
SAPA_PROFIL
 10
31.239230484273609
 20
14.9401683788612
 30
0.0
  0
VERTEX
  5
137C
  8
SAPA_PROFIL
 10
29.749999999732729
 20
15.7999759999965
 30
0.0
  0
VERTEX
  5
137D
  8
SAPA_PROFIL
 10
29.29999999973278
 20
15.799987999996169
 30
0.0
 42
0.4142135623731054
  0
VERTEX
  5
137E
  8
SAPA_PROFIL
 10
28.999999999732768
 20
15.49998799999616
 30
0.0
  0
VERTEX
  5
137F
  8
SAPA_PROFIL
 10
28.999999999732829
 20
11.8999759999961
 30
0.0
 42
0.414213562373095
  0
VERTEX
  5
1380
  8
SAPA_PROFIL
 10
29.29999999973283
 20
11.599975999996101
 30
0.0
  0
VERTEX
  5
1381
  8
SAPA_PROFIL
 10
29.749999999732829
 20
11.5999759999962
 30
0.0
  0
VERTEX
  5
1382
  8
SAPA_PROFIL
 10
31.239260130807001
 20
12.45980073756518
 30
0.0
 42
-0.1316363093594254
  0
VERTEX
  5
1383
  8
SAPA_PROFIL
 10
31.38924103585374
 20
12.49999311582215
 30
0.0
  0
VERTEX
  5
1384
  8
SAPA_PROFIL
 10
31.499999999739419
 20
12.500000165612949
 30
0.0
  0
VERTEX
  5
1385
  8
SAPA_PROFIL
 10
31.499999999739419
 20
10.499999999999829
 30
0.0
 42
-0.4142135623730951
  0
VERTEX
  5
1386
  8
SAPA_PROFIL
 10
30.999999999739419
 20
9.9999999999998295
 30
0.0
  0
VERTEX
  5
1387
  8
SAPA_PROFIL
 10
23.849999999461481
 20
9.9999999999998312
 30
0.0
 42
-0.4142135623730935
  0
VERTEX
  5
1388
  8
SAPA_PROFIL
 10
23.54999999946585
 20
10.2999999999991
 30
0.0
  0
VERTEX
  5
1389
  8
SAPA_PROFIL
 10
23.549999999462209
 20
10.950000000000561
 30
0.0
 42
0.4142135623730951
  0
VERTEX
  5
138A
  8
SAPA_PROFIL
 10
23.24999999946294
 20
11.249999999999821
 30
0.0
  0
VERTEX
  5
138B
  8
SAPA_PROFIL
 10
22.54999999957499
 20
11.250000000003469
 30
0.0
 42
0.4142135623730971
  0
VERTEX
  5
138C
  8
SAPA_PROFIL
 10
22.249999999579352
 20
10.950000000000561
 30
0.0
  0
VERTEX
  5
138D
  8
SAPA_PROFIL
 10
22.249999999561162
 20
-0.9500000000045255
 30
0.0
 42
0.4142135623730881
  0
VERTEX
  5
138E
  8
SAPA_PROFIL
 10
22.549999999560431
 20
-1.250000000003797
 30
0.0
  0
VERTEX
  5
138F
  8
SAPA_PROFIL
 10
23.25000000003774
 20
-1.2500000000147251
 30
0.0
 42
0.4142135623730968
  0
VERTEX
  5
1390
  8
SAPA_PROFIL
 10
23.55000000004793
 20
-0.9500000000045255
 30
0.0
  0
VERTEX
  5
1391
  8
SAPA_PROFIL
 10
23.550000000033371
 20
-0.2999999999921563
 30
0.0
 42
-0.4142135623517844
  0
VERTEX
  5
1392
  8
SAPA_PROFIL
 10
23.850000000036282
 20
-0.0000000000037979
 30
0.0
  0
VERTEX
  5
1393
  8
SAPA_PROFIL
 10
25.80000000004793
 20
-0.0000000000038014
 30
0.0
 42
-0.414213562373103
  0
VERTEX
  5
1394
  8
SAPA_PROFIL
 10
26.00000000003774
 20
-0.200000000004529
 30
0.0
  0
VERTEX
  5
1395
  8
SAPA_PROFIL
 10
26.00000000003774
 20
-1.3000000000030729
 30
0.0
 42
-0.4142135623731049
  0
VERTEX
  5
1396
  8
SAPA_PROFIL
 10
25.80000000004793
 20
-1.500000000003801
 30
0.0
  0
VERTEX
  5
1397
  8
SAPA_PROFIL
 10
25.00000000003774
 20
-1.500000000003801
 30
0.0
 42
0.414213562373094
  0
VERTEX
  5
1398
  8
SAPA_PROFIL
 10
24.50000000003774
 20
-2.000000000003801
 30
0.0
  0
VERTEX
  5
1399
  8
SAPA_PROFIL
 10
24.499999999557559
 20
-3.0000000000147291
 30
0.0
 42
0.4142135623730951
  0
VERTEX
  5
139A
  8
SAPA_PROFIL
 10
24.999999999557549
 20
-3.5000000000147149
 30
0.0
  0
VERTEX
  5
139B
  8
SAPA_PROFIL
 10
25.799999999560459
 20
-3.500000000003801
 30
0.0
 42
-0.414213562373103
  0
VERTEX
  5
139C
  8
SAPA_PROFIL
 10
25.999999999557549
 20
-3.7000000000045281
 30
0.0
  0
VERTEX
  5
139D
  8
SAPA_PROFIL
 10
25.99999999955028
 20
-4.800000000003088
 30
0.0
 42
-0.4142135623731049
  0
VERTEX
  5
139E
  8
SAPA_PROFIL
 10
25.799999999560459
 20
-5.0000000000038147
 30
0.0
  0
VERTEX
  5
139F
  8
SAPA_PROFIL
 10
22.25000000005959
 20
-5.0000000000038121
 30
0.0
 42
-0.3389652260127085
  0
VERTEX
  5
13A0
  8
SAPA_PROFIL
 10
21.284529700514589
 20
-4.2605131488014321
 30
0.0
 42
-0.0274862826960608
  0
VERTEX
  5
13A1
  8
SAPA_PROFIL
 10
20.500000000078678
 20
10.000000000174429
 30
0.0
  0
VERTEX
  5
13A2
  8
SAPA_PROFIL
 10
20.499999999921322
 20
14.9999999999016
 30
0.0
 42
-0.4142135623816193
  0
VERTEX
  5
13A3
  8
SAPA_PROFIL
 10
23.499999999921322
 20
17.999999999996181
 30
0.0
  0
VERTEX
  5
13A4
  8
SAPA_PROFIL
 10
28.7561309587777
 20
17.999999999996191
 30
0.0
 42
-0.2418327667412822
  0
VERTEX
  5
13A5
  8
SAPA_PROFIL
 10
28.99999999972729
 20
17.874722325032629
 30
0.0
 42
0.2418327667543803
  0
SEQEND
  5
13A6
  8
SAPA_PROFIL
  0
POLYLINE
  5
EF2
  8
SAPA_PROFIL
 66
     1
 10
0.0
 20
0.0
 30
0.0
 70
     1
  0
VERTEX
  5
13A7
  8
SAPA_PROFIL
 10
58.75613095877906
 20
17.74944465005672
 30
0.0
  0
VERTEX
  5
13A8
  8
SAPA_PROFIL
 10
57.799999999743697
 20
17.749444650053078
 30
0.0
 42
-0.2418327667557183
  0
VERTEX
  5
13A9
  8
SAPA_PROFIL
 10
57.556130958777132
 20
17.874722325030021
 30
0.0
 42
0.2418327667535164
  0
VERTEX
  5
13AA
  8
SAPA_PROFIL
 10
57.31226191781839
 20
18.000000000004231
 30
0.0
  0
VERTEX
  5
13AB
  8
SAPA_PROFIL
 10
55.088458040185571
 20
17.999999999995769
 30
0.0
 42
0.0874886635239214
  0
VERTEX
  5
13AC
  8
SAPA_PROFIL
 10
54.985851997190181
 20
17.981907786231972
 30
0.0
  0
VERTEX
  5
13AD
  8
SAPA_PROFIL
 10
53.558498827144739
 20
17.462393718556619
 30
0.0
 42
0.4142135623698208
  0
VERTEX
  5
13AE
  8
SAPA_PROFIL
 10
53.37919708390735
 20
17.077879889314449
 30
0.0
  0
VERTEX
  5
13AF
  8
SAPA_PROFIL
 10
53.447601112578411
 20
16.88994136516575
 30
0.0
 42
0.4142135623730019
  0
VERTEX
  5
13B0
  8
SAPA_PROFIL
 10
53.832114941800043
 20
16.710639621923232
 30
0.0
  0
VERTEX
  5
13B1
  8
SAPA_PROFIL
 10
54.86577682466919
 20
17.08686177958991
 30
0.0
 42
-0.41421356237947
  0
VERTEX
  5
13B2
  8
SAPA_PROFIL
 10
55.250290653900748
 20
16.907560036338761
 30
0.0
  0
VERTEX
  5
13B3
  8
SAPA_PROFIL
 10
55.909145961136574
 20
15.09736995699984
 30
0.0
 42
0.3152987888800591
  0
VERTEX
  5
13B4
  8
SAPA_PROFIL
 10
56.191053747372791
 20
14.89997599999651
 30
0.0
  0
VERTEX
  5
13B5
  8
SAPA_PROFIL
 10
56.610769515192132
 20
14.899975999996609
 30
0.0
 42
0.1316524975873855
  0
VERTEX
  5
13B6
  8
SAPA_PROFIL
 10
56.760769515192052
 20
14.94016837886126
 30
0.0
  0
VERTEX
  5
13B7
  8
SAPA_PROFIL
 10
58.249999999732928
 20
15.79997599999656
 30
0.0
  0
VERTEX
  5
13B8
  8
SAPA_PROFIL
 10
58.699999999732881
 20
15.799987999996221
 30
0.0
 42
-0.4142135623731054
  0
VERTEX
  5
13B9
  8
SAPA_PROFIL
 10
58.999999999732893
 20
15.49998799999622
 30
0.0
  0
VERTEX
  5
13BA
  8
SAPA_PROFIL
 10
58.999999999732829
 20
11.899975999996149
 30
0.0
 42
-0.414213562373095
  0
VERTEX
  5
13BB
  8
SAPA_PROFIL
 10
58.699999999732839
 20
11.59997599999615
 30
0.0
  0
VERTEX
  5
13BC
  8
SAPA_PROFIL
 10
58.249999999732829
 20
11.59997599999625
 30
0.0
  0
VERTEX
  5
13BD
  8
SAPA_PROFIL
 10
56.760739868658661
 20
12.45980073756524
 30
0.0
 42
0.1316363093594254
  0
VERTEX
  5
13BE
  8
SAPA_PROFIL
 10
56.610758963611907
 20
12.49999311582221
 30
0.0
  0
VERTEX
  5
13BF
  8
SAPA_PROFIL
 10
56.499999999726242
 20
12.50000016561301
 30
0.0
  0
VERTEX
  5
13C0
  8
SAPA_PROFIL
 10
56.499999999726242
 20
10.49999999999989
 30
0.0
 42
0.4142135623730951
  0
VERTEX
  5
13C1
  8
SAPA_PROFIL
 10
56.999999999726228
 20
9.9999999999998863
 30
0.0
  0
VERTEX
  5
13C2
  8
SAPA_PROFIL
 10
64.150000000004169
 20
9.9999999999998863
 30
0.0
 42
0.4142135623730935
  0
VERTEX
  5
13C3
  8
SAPA_PROFIL
 10
64.449999999999818
 20
10.29999999999916
 30
0.0
  0
VERTEX
  5
13C4
  8
SAPA_PROFIL
 10
64.450000000003442
 20
10.95000000000061
 30
0.0
 42
-0.4142135623730951
  0
VERTEX
  5
13C5
  8
SAPA_PROFIL
 10
64.750000000002714
 20
11.249999999999879
 30
0.0
  0
VERTEX
  5
13C6
  8
SAPA_PROFIL
 10
65.449999999890665
 20
11.250000000003521
 30
0.0
 42
-0.4142135623730971
  0
VERTEX
  5
13C7
  8
SAPA_PROFIL
 10
65.749999999886313
 20
10.95000000000061
 30
0.0
  0
VERTEX
  5
13C8
  8
SAPA_PROFIL
 10
65.749999999904489
 20
-0.9500000000044757
 30
0.0
 42
-0.4142135623730881
  0
VERTEX
  5
13C9
  8
SAPA_PROFIL
 10
65.449999999905216
 20
-1.2500000000037479
 30
0.0
  0
VERTEX
  5
13CA
  8
SAPA_PROFIL
 10
64.749999999427914
 20
-1.2500000000146689
 30
0.0
 42
-0.4142135623730968
  0
VERTEX
  5
13CB
  8
SAPA_PROFIL
 10
64.449999999417727
 20
-0.9500000000044757
 30
0.0
  0
VERTEX
  5
13CC
  8
SAPA_PROFIL
 10
64.449999999432265
 20
-0.2999999999921066
 30
0.0
 42
0.4142135623517844
  0
VERTEX
  5
13CD
  8
SAPA_PROFIL
 10
64.149999999429369
 20
-0.0000000000037481
 30
0.0
  0
VERTEX
  5
13CE
  8
SAPA_PROFIL
 10
62.199999999417727
 20
-0.0000000000037481
 30
0.0
 42
0.414213562373103
  0
VERTEX
  5
13CF
  8
SAPA_PROFIL
 10
61.999999999427921
 20
-0.2000000000044757
 30
0.0
  0
VERTEX
  5
13D0
  8
SAPA_PROFIL
 10
61.999999999427921
 20
-1.3000000000030201
 30
0.0
 42
0.4142135623731049
  0
VERTEX
  5
13D1
  8
SAPA_PROFIL
 10
62.199999999417727
 20
-1.5000000000037479
 30
0.0
  0
VERTEX
  5
13D2
  8
SAPA_PROFIL
 10
62.999999999427921
 20
-1.5000000000037479
 30
0.0
 42
-0.414213562373094
  0
VERTEX
  5
13D3
  8
SAPA_PROFIL
 10
63.499999999427921
 20
-2.0000000000037481
 30
0.0
  0
VERTEX
  5
13D4
  8
SAPA_PROFIL
 10
63.499999999908098
 20
-3.0000000000146692
 30
0.0
 42
-0.4142135623730951
  0
VERTEX
  5
13D5
  8
SAPA_PROFIL
 10
62.999999999908098
 20
-3.5000000000146541
 30
0.0
  0
VERTEX
  5
13D6
  8
SAPA_PROFIL
 10
62.199999999905202
 20
-3.5000000000037481
 30
0.0
 42
0.414213562373103
  0
VERTEX
  5
13D7
  8
SAPA_PROFIL
 10
61.999999999908113
 20
-3.7000000000044748
 30
0.0
  0
VERTEX
  5
13D8
  8
SAPA_PROFIL
 10
61.999999999915381
 20
-4.8000000000030267
 30
0.0
 42
0.4142135623731049
  0
VERTEX
  5
13D9
  8
SAPA_PROFIL
 10
62.199999999905202
 20
-5.0000000000037623
 30
0.0
  0
VERTEX
  5
13DA
  8
SAPA_PROFIL
 10
65.749999999406043
 20
-5.0000000000037623
 30
0.0
 42
0.3389652260127085
  0
VERTEX
  5
13DB
  8
SAPA_PROFIL
 10
66.715470298951061
 20
-4.2605131488013761
 30
0.0
 42
0.0274862826960608
  0
VERTEX
  5
13DC
  8
SAPA_PROFIL
 10
67.499999999386972
 20
10.00000000017449
 30
0.0
  0
VERTEX
  5
13DD
  8
SAPA_PROFIL
 10
67.499999999544315
 20
14.99999999990165
 30
0.0
 42
0.4142135623816193
  0
VERTEX
  5
13DE
  8
SAPA_PROFIL
 10
64.499999999544343
 20
17.999999999996241
 30
0.0
  0
VERTEX
  5
13DF
  8
SAPA_PROFIL
 10
59.243869040687962
 20
17.999999999996248
 30
0.0
 42
0.2418327667412822
  0
VERTEX
  5
13E0
  8
SAPA_PROFIL
 10
58.999999999738371
 20
17.874722325032689
 30
0.0
 42
-0.2418327667543803
  0
SEQEND
  5
13E1
  8
SAPA_PROFIL
  0
POLYLINE
  5
EF3
  8
SAPA_PROFIL
 62
     4
 66
     1
 10
0.0
 20
0.0
 30
0.0
 70
     1
  0
VERTEX
  5
13E2
  8
SAPA_PROFIL
 62
     4
 10
64.725833080859275
 20
54.509252303701949
 30
0.0
  0
VERTEX
  5
13E3
  8
SAPA_PROFIL
 62
     4
 10
63.236602540014069
 20
53.649444650059628
 30
0.0
  0
VERTEX
  5
13E4
  8
SAPA_PROFIL
 62
     4
 10
62.79999999963561
 20
53.64944465005955
 30
0.0
 42
-0.4142135623730946
  0
VERTEX
  5
13E5
  8
SAPA_PROFIL
 62
     4
 10
62.549999999635652
 20
53.899444650059529
 30
0.0
  0
VERTEX
  5
13E6
  8
SAPA_PROFIL
 62
     4
 10
62.549999999635581
 20
57.499456650059592
 30
0.0
 42
-0.414213562373107
  0
VERTEX
  5
13E7
  8
SAPA_PROFIL
 62
     4
 10
62.799999999635588
 20
57.749456650059606
 30
0.0
  0
VERTEX
  5
13E8
  8
SAPA_PROFIL
 62
     4
 10
63.23660192121406
 20
57.74944500732424
 30
0.0
  0
VERTEX
  5
13E9
  8
SAPA_PROFIL
 62
     4
 10
64.725832968251751
 20
56.889637061431259
 30
0.0
 42
0.1316524975874248
  0
VERTEX
  5
13EA
  8
SAPA_PROFIL
 62
     4
 10
64.875832968251785
 20
56.84944468256657
 30
0.0
  0
VERTEX
  5
13EB
  8
SAPA_PROFIL
 62
     4
 10
88.124166959503043
 20
56.84944468256657
 30
0.0
 42
0.1316524975874248
  0
VERTEX
  5
13EC
  8
SAPA_PROFIL
 62
     4
 10
88.274166959503077
 20
56.889637061431252
 30
0.0
  0
VERTEX
  5
13ED
  8
SAPA_PROFIL
 62
     4
 10
89.763398006540768
 20
57.74944500732424
 30
0.0
  0
VERTEX
  5
13EE
  8
SAPA_PROFIL
 62
     4
 10
90.199999928119212
 20
57.749456650059599
 30
0.0
 42
-0.4142135623731049
  0
VERTEX
  5
13EF
  8
SAPA_PROFIL
 62
     4
 10
90.449999928119226
 20
57.499456650059592
 30
0.0
  0
VERTEX
  5
13F0
  8
SAPA_PROFIL
 62
     4
 10
90.449999928119183
 20
53.899444650059529
 30
0.0
 42
-0.4142135623730951
  0
VERTEX
  5
13F1
  8
SAPA_PROFIL
 62
     4
 10
90.199999928119183
 20
53.649444650059543
 30
0.0
  0
VERTEX
  5
13F2
  8
SAPA_PROFIL
 62
     4
 10
89.763397387740724
 20
53.649444650059628
 30
0.0
  0
VERTEX
  5
13F3
  8
SAPA_PROFIL
 62
     4
 10
88.274166846895611
 20
54.509252303701899
 30
0.0
 42
0.1316524975873867
  0
VERTEX
  5
13F4
  8
SAPA_PROFIL
 62
     4
 10
88.124166846895633
 20
54.549444682566559
 30
0.0
  0
VERTEX
  5
13F5
  8
SAPA_PROFIL
 62
     4
 10
64.875833080859252
 20
54.549444682566623
 30
0.0
 42
0.1316524975873873
  0
SEQEND
  5
13F6
  8
SAPA_PROFIL
 62
     4
  0
POLYLINE
  5
EF4
  8
SAPA_PROFIL
 66
     1
 10
0.0
 20
0.0
 30
0.0
 70
     1
  0
VERTEX
  5
13F7
  8
SAPA_PROFIL
 10
17.300000000010211
 20
10.000000000032481
 30
0.0
 42
0.4142135623624294
  0
VERTEX
  5
13F8
  8
SAPA_PROFIL
 10
17.5
 20
10.200000000007719
 30
0.0
  0
VERTEX
  5
13F9
  8
SAPA_PROFIL
 10
17.500000000014548
 20
11.05000000000628
 30
0.0
 42
-0.4142135623730744
  0
VERTEX
  5
13FA
  8
SAPA_PROFIL
 10
17.700000000018921
 20
11.25000000000701
 30
0.0
  0
VERTEX
  5
13FB
  8
SAPA_PROFIL
 10
18.000000000000028
 20
11.249999999999719
 30
0.0
 42
-0.4142135623731035
  0
VERTEX
  5
13FC
  8
SAPA_PROFIL
 10
18.500000000000028
 20
10.749999999999719
 30
0.0
  0
VERTEX
  5
13FD
  8
SAPA_PROFIL
 10
18.500000000000028
 20
7.749999999999722
 30
0.0
 42
-0.4142135623731035
  0
VERTEX
  5
13FE
  8
SAPA_PROFIL
 10
18.000000000000028
 20
7.249999999999722
 30
0.0
  0
VERTEX
  5
13FF
  8
SAPA_PROFIL
 10
17.700000000004358
 20
7.249999999999722
 30
0.0
 42
-0.4142135623730744
  0
VERTEX
  5
1400
  8
SAPA_PROFIL
 10
17.5
 20
7.4500000000004638
 30
0.0
  0
VERTEX
  5
1401
  8
SAPA_PROFIL
 10
17.500000000010939
 20
8.3000000000026475
 30
0.0
 42
0.4142135623730534
  0
VERTEX
  5
1402
  8
SAPA_PROFIL
 10
17.300000000010211
 20
8.4999999999997211
 30
0.0
  0
VERTEX
  5
1403
  8
SAPA_PROFIL
 10
16.300000000010211
 20
8.4999999999997211
 30
0.0
 42
0.4142135623731035
  0
VERTEX
  5
1404
  8
SAPA_PROFIL
 10
15.800000000010209
 20
7.999999999999722
 30
0.0
  0
VERTEX
  5
1405
  8
SAPA_PROFIL
 10
15.800000000010209
 20
1.9999999999997371
 30
0.0
 42
0.4142135623731033
  0
VERTEX
  5
1406
  8
SAPA_PROFIL
 10
16.300000000010201
 20
1.4999999999997371
 30
0.0
  0
VERTEX
  5
1407
  8
SAPA_PROFIL
 10
17.300000000010201
 20
1.500000000010651
 30
0.0
 42
0.414213562373064
  0
VERTEX
  5
1408
  8
SAPA_PROFIL
 10
17.499999999999979
 20
1.700000000000464
 30
0.0
  0
VERTEX
  5
1409
  8
SAPA_PROFIL
 10
17.5
 20
2.550000000002647
 30
0.0
 42
-0.414213562373064
  0
VERTEX
  5
140A
  8
SAPA_PROFIL
 10
17.700000000004358
 20
2.7499999999997371
 30
0.0
  0
VERTEX
  5
140B
  8
SAPA_PROFIL
 10
18.000000000000028
 20
2.7499999999997371
 30
0.0
 42
-0.4142135623731035
  0
VERTEX
  5
140C
  8
SAPA_PROFIL
 10
18.500000000000028
 20
2.2499999999997371
 30
0.0
  0
VERTEX
  5
140D
  8
SAPA_PROFIL
 10
18.500000000000011
 20
0.4999999999997371
 30
0.0
 42
-0.4142135623731035
  0
VERTEX
  5
140E
  8
SAPA_PROFIL
 10
18.000000000000011
 20
-0.0000000000002629
 30
0.0
  0
VERTEX
  5
140F
  8
SAPA_PROFIL
 10
15.500000000000011
 20
-0.0000000000002629
 30
0.0
 42
-0.4142135623730966
  0
VERTEX
  5
1410
  8
SAPA_PROFIL
 10
13.99999999999998
 20
1.4999999999997371
 30
0.0
  0
VERTEX
  5
1411
  8
SAPA_PROFIL
 10
14.0
 20
59.70000000000045
 30
0.0
 42
-0.4142135623730935
  0
VERTEX
  5
1412
  8
SAPA_PROFIL
 10
14.300000000010179
 20
59.99999999999973
 30
0.0
  0
VERTEX
  5
1413
  8
SAPA_PROFIL
 10
62.256130958696303
 20
59.999999999999737
 30
0.0
 42
-0.2418327667378115
  0
VERTEX
  5
1414
  8
SAPA_PROFIL
 10
62.499999999634703
 20
59.874722325032643
 30
0.0
 42
0.2418327667509125
  0
VERTEX
  5
1415
  8
SAPA_PROFIL
 10
62.743869040590653
 20
59.749444650060198
 30
0.0
  0
VERTEX
  5
1416
  8
SAPA_PROFIL
 10
63.699999999640568
 20
59.74944465005656
 30
0.0
 42
0.2418327667448973
  0
VERTEX
  5
1417
  8
SAPA_PROFIL
 10
63.943869040595501
 20
59.874722325024969
 30
0.0
 42
-0.2418327667448979
  0
VERTEX
  5
1418
  8
SAPA_PROFIL
 10
64.187738081548105
 20
59.99999999999217
 30
0.0
  0
VERTEX
  5
1419
  8
SAPA_PROFIL
 10
66.285810437266065
 20
59.99999999999217
 30
0.0
 42
-0.6681786379192718
  0
VERTEX
  5
141A
  8
SAPA_PROFIL
 10
66.992917218452675
 20
58.292893218805673
 30
0.0
  0
VERTEX
  5
141B
  8
SAPA_PROFIL
 10
65.687867965283715
 20
56.9878439656365
 30
0.0
 42
-0.1989123673797335
  0
VERTEX
  5
141C
  8
SAPA_PROFIL
 10
65.475735930927641
 20
56.899975999992392
 30
0.0
  0
VERTEX
  5
141D
  8
SAPA_PROFIL
 10
64.889230484180445
 20
56.899975999992527
 30
0.0
 42
-0.1316524975873855
  0
VERTEX
  5
141E
  8
SAPA_PROFIL
 10
64.739230484180524
 20
56.940168378857173
 30
0.0
  0
VERTEX
  5
141F
  8
SAPA_PROFIL
 10
63.249999999639641
 20
57.799975999992483
 30
0.0
  0
VERTEX
  5
1420
  8
SAPA_PROFIL
 10
62.799999999639681
 20
57.79998799999214
 30
0.0
 42
0.4142135623731054
  0
VERTEX
  5
1421
  8
SAPA_PROFIL
 10
62.49999999963967
 20
57.49998799999215
 30
0.0
  0
VERTEX
  5
1422
  8
SAPA_PROFIL
 10
62.499999999639719
 20
53.89997599999208
 30
0.0
 42
0.4142135623730951
  0
VERTEX
  5
1423
  8
SAPA_PROFIL
 10
62.799999999639731
 20
53.599975999992083
 30
0.0
  0
VERTEX
  5
1424
  8
SAPA_PROFIL
 10
63.249999999639719
 20
53.599975999992182
 30
0.0
  0
VERTEX
  5
1425
  8
SAPA_PROFIL
 10
64.739260130713873
 20
54.459800737561167
 30
0.0
 42
-0.1316363093594257
  0
VERTEX
  5
1426
  8
SAPA_PROFIL
 10
64.889241035760634
 20
54.499993115818121
 30
0.0
  0
VERTEX
  5
1427
  8
SAPA_PROFIL
 10
64.999999999643478
 20
54.500000165608938
 30
0.0
  0
VERTEX
  5
1428
  8
SAPA_PROFIL
 10
64.999999999643478
 20
52.914359353937201
 30
0.0
 42
-0.2679491924308306
  0
VERTEX
  5
1429
  8
SAPA_PROFIL
 10
64.499999999643464
 20
52.048333950158579
 30
0.0
  0
VERTEX
  5
142A
  8
SAPA_PROFIL
 10
62.749999999643023
 20
51.0379709790801
 30
0.0
 42
0.2679491924308306
  0
VERTEX
  5
142B
  8
SAPA_PROFIL
 10
62.499999999643478
 20
50.604958277188139
 30
0.0
  0
VERTEX
  5
142C
  8
SAPA_PROFIL
 10
62.499999999643478
 20
49.395041722807669
 30
0.0
 42
0.2679491924308304
  0
VERTEX
  5
142D
  8
SAPA_PROFIL
 10
62.749999999643471
 20
48.962029020916553
 30
0.0
  0
VERTEX
  5
142E
  8
SAPA_PROFIL
 10
64.499999999643464
 20
47.951666049840881
 30
0.0
 42
-0.2679491924308308
  0
VERTEX
  5
142F
  8
SAPA_PROFIL
 10
64.999999999641602
 20
47.085640646054983
 30
0.0
  0
VERTEX
  5
1430
  8
SAPA_PROFIL
 10
64.999999999643762
 20
45.499999834386891
 30
0.0
  0
VERTEX
  5
1431
  8
SAPA_PROFIL
 10
64.889241035760634
 20
45.500006884177687
 30
0.0
 42
-0.1316363093594255
  0
VERTEX
  5
1432
  8
SAPA_PROFIL
 10
64.739260130713873
 20
45.540199262434662
 30
0.0
  0
VERTEX
  5
1433
  8
SAPA_PROFIL
 10
63.249999999639719
 20
46.40002400000364
 30
0.0
  0
VERTEX
  5
1434
  8
SAPA_PROFIL
 10
62.799999999639731
 20
46.400024000003739
 30
0.0
 42
0.4142135623730951
  0
VERTEX
  5
1435
  8
SAPA_PROFIL
 10
62.499999999639719
 20
46.100024000003742
 30
0.0
  0
VERTEX
  5
1436
  8
SAPA_PROFIL
 10
62.49999999963967
 20
42.500012000003693
 30
0.0
 42
0.4142135623731054
  0
VERTEX
  5
1437
  8
SAPA_PROFIL
 10
62.799999999639681
 20
42.200012000003682
 30
0.0
  0
VERTEX
  5
1438
  8
SAPA_PROFIL
 10
63.249999999639641
 20
42.200024000003353
 30
0.0
  0
VERTEX
  5
1439
  8
SAPA_PROFIL
 10
64.739230484180524
 20
43.059831621138649
 30
0.0
 42
-0.1316524975873855
  0
VERTEX
  5
143A
  8
SAPA_PROFIL
 10
64.889230484180445
 20
43.100024000003302
 30
0.0
  0
VERTEX
  5
143B
  8
SAPA_PROFIL
 10
65.475735930927641
 20
43.100024000003437
 30
0.0
 42
-0.1989123673797335
  0
VERTEX
  5
143C
  8
SAPA_PROFIL
 10
65.687867965283715
 20
43.012156034359322
 30
0.0
  0
VERTEX
  5
143D
  8
SAPA_PROFIL
 10
66.992917218452675
 20
41.707106781190141
 30
0.0
 42
-0.6681786379192716
  0
VERTEX
  5
143E
  8
SAPA_PROFIL
 10
66.285810437266065
 20
40.000000000003652
 30
0.0
  0
VERTEX
  5
143F
  8
SAPA_PROFIL
 10
64.187738081546371
 20
40.000000000003652
 30
0.0
 42
-0.2418327667433386
  0
VERTEX
  5
1440
  8
SAPA_PROFIL
 10
63.943869040594819
 20
40.125277674969411
 30
0.0
 42
0.2418327667449431
  0
VERTEX
  5
1441
  8
SAPA_PROFIL
 10
63.699999999640568
 20
40.250555349935617
 30
0.0
  0
VERTEX
  5
1442
  8
SAPA_PROFIL
 10
62.743869040590653
 20
40.250555349939262
 30
0.0
 42
0.2418327667509097
  0
VERTEX
  5
1443
  8
SAPA_PROFIL
 10
62.499999999643528
 20
40.125277674956848
 30
0.0
 42
-0.2418327667378167
  0
VERTEX
  5
1444
  8
SAPA_PROFIL
 10
62.256130958696303
 20
40.000000000003652
 30
0.0
  0
VERTEX
  5
1445
  8
SAPA_PROFIL
 10
60.44338932492974
 20
39.999999999985178
 30
0.0
 42
-0.1095178116817878
  0
VERTEX
  5
1446
  8
SAPA_PROFIL
 10
59.598152801458752
 20
40.187384425907013
 30
0.0
  0
VERTEX
  5
1447
  8
SAPA_PROFIL
 10
53.96832643631933
 20
42.812615574068062
 30
0.0
 42
0.1095178116855129
  0
VERTEX
  5
1448
  8
SAPA_PROFIL
 10
53.123089912834978
 20
42.99999999999973
 30
0.0
  0
VERTEX
  5
1449
  8
SAPA_PROFIL
 10
45.999999999658023
 20
43.000000000006999
 30
0.0
 42
0.4142135623730957
  0
VERTEX
  5
144A
  8
SAPA_PROFIL
 10
45.49999999965803
 20
42.499999999985171
 30
0.0
  0
VERTEX
  5
144B
  8
SAPA_PROFIL
 10
45.49999999965803
 20
41.499999999985171
 30
0.0
 42
0.4142135623730915
  0
VERTEX
  5
144C
  8
SAPA_PROFIL
 10
45.999999999658023
 20
40.999999999985178
 30
0.0
  0
VERTEX
  5
144D
  8
SAPA_PROFIL
 10
46.291287847139763
 20
40.999999999985178
 30
0.0
 42
-0.2982166266909514
  0
VERTEX
  5
144E
  8
SAPA_PROFIL
 10
46.749545416629701
 20
40.69999999999807
 30
0.0
 42
-1.5275252316550829
  0
VERTEX
  5
144F
  8
SAPA_PROFIL
 10
41.25045458270224
 20
40.69999999999817
 30
0.0
 42
-0.2982166266892446
  0
VERTEX
  5
1450
  8
SAPA_PROFIL
 10
41.708712152169021
 20
40.999999999975849
 30
0.0
  0
VERTEX
  5
1451
  8
SAPA_PROFIL
 10
41.99999999965803
 20
40.999999999985178
 30
0.0
 42
0.4142135623730915
  0
VERTEX
  5
1452
  8
SAPA_PROFIL
 10
42.49999999965803
 20
41.499999999985171
 30
0.0
  0
VERTEX
  5
1453
  8
SAPA_PROFIL
 10
42.49999999965803
 20
42.499999999985171
 30
0.0
 42
0.4142135623730918
  0
VERTEX
  5
1454
  8
SAPA_PROFIL
 10
41.99999999965803
 20
42.999999999985178
 30
0.0
  0
VERTEX
  5
1455
  8
SAPA_PROFIL
 10
23.076910086805579
 20
42.999999999985178
 30
0.0
 42
0.1095178116838485
  0
VERTEX
  5
1456
  8
SAPA_PROFIL
 10
22.23167356331578
 20
42.812615574065262
 30
0.0
  0
VERTEX
  5
1457
  8
SAPA_PROFIL
 10
17.354763476527289
 20
40.538475052471497
 30
0.0
 42
0.2914734195858569
  0
VERTEX
  5
1458
  8
SAPA_PROFIL
 10
16.200000000004358
 20
38.725859478388621
 30
0.0
  0
VERTEX
  5
1459
  8
SAPA_PROFIL
 10
16.200000000004358
 20
19.00000000000701
 30
0.0
 42
0.4142135623730951
  0
VERTEX
  5
145A
  8
SAPA_PROFIL
 10
16.700000000004358
 20
18.50000000000701
 30
0.0
  0
VERTEX
  5
145B
  8
SAPA_PROFIL
 10
17.000000000021831
 20
18.50000000000701
 30
0.0
 42
0.4142135623731035
  0
VERTEX
  5
145C
  8
SAPA_PROFIL
 10
17.500000000021831
 20
19.00000000000701
 30
0.0
  0
VERTEX
  5
145D
  8
SAPA_PROFIL
 10
17.500000000021831
 20
20.300000000006289
 30
0.0
 42
-0.4142135623730744
  0
VERTEX
  5
145E
  8
SAPA_PROFIL
 10
17.700000000018921
 20
20.500000000010651
 30
0.0
  0
VERTEX
  5
145F
  8
SAPA_PROFIL
 10
18.000000000021831
 20
20.500000000006999
 30
0.0
 42
-0.4142135623731035
  0
VERTEX
  5
1460
  8
SAPA_PROFIL
 10
18.500000000021821
 20
20.00000000000701
 30
0.0
  0
VERTEX
  5
1461
  8
SAPA_PROFIL
 10
18.500000000000028
 20
16.25000000000701
 30
0.0
 42
-0.4142135623731035
  0
VERTEX
  5
1462
  8
SAPA_PROFIL
 10
18.000000000000028
 20
15.75000000000701
 30
0.0
  0
VERTEX
  5
1463
  8
SAPA_PROFIL
 10
17.700000000004358
 20
15.75000000000701
 30
0.0
 42
-0.4142135623731159
  0
VERTEX
  5
1464
  8
SAPA_PROFIL
 10
17.49999999999639
 20
15.95000000002228
 30
0.0
  0
VERTEX
  5
1465
  8
SAPA_PROFIL
 10
17.5
 20
16.800000000006278
 30
0.0
 42
0.4142135623730951
  0
VERTEX
  5
1466
  8
SAPA_PROFIL
 10
17.300000000010211
 20
17.00000000000701
 30
0.0
  0
VERTEX
  5
1467
  8
SAPA_PROFIL
 10
16.300000000010211
 20
17.00000000000701
 30
0.0
 42
0.4142135623731035
  0
VERTEX
  5
1468
  8
SAPA_PROFIL
 10
15.800000000010209
 20
16.50000000000701
 30
0.0
  0
VERTEX
  5
1469
  8
SAPA_PROFIL
 10
15.800000000010209
 20
10.500000000007001
 30
0.0
 42
0.4142135623731033
  0
VERTEX
  5
146A
  8
SAPA_PROFIL
 10
16.300000000010211
 20
10.00000000000701
 30
0.0
  0
SEQEND
  5
146B
  8
SAPA_PROFIL
  0
POLYLINE
  5
EF5
  8
SAPA_PROFIL
 66
     1
 10
0.0
 20
0.0
 30
0.0
 70
     1
  0
VERTEX
  5
146C
  8
SAPA_PROFIL
 10
59.999999999643478
 20
57.199999999985913
 30
0.0
  0
VERTEX
  5
146D
  8
SAPA_PROFIL
 10
59.999999999643478
 20
45.600000000005551
 30
0.0
 42
-0.4142135623730951
  0
VERTEX
  5
146E
  8
SAPA_PROFIL
 10
59.699999999640561
 20
45.30000000000264
 30
0.0
  0
VERTEX
  5
146F
  8
SAPA_PROFIL
 10
16.800000000010179
 20
45.299999999980813
 30
0.0
 42
-0.4142135623730935
  0
VERTEX
  5
1470
  8
SAPA_PROFIL
 10
16.50000000001091
 20
45.599999999980092
 30
0.0
  0
VERTEX
  5
1471
  8
SAPA_PROFIL
 10
16.5
 20
57.20000000000045
 30
0.0
 42
-0.4142135623730935
  0
VERTEX
  5
1472
  8
SAPA_PROFIL
 10
16.800000000010179
 20
57.49999999999973
 30
0.0
  0
VERTEX
  5
1473
  8
SAPA_PROFIL
 10
59.699999999640561
 20
57.499999999985178
 30
0.0
 42
-0.4142135623730939
  0
SEQEND
  5
1474
  8
SAPA_PROFIL
  0
POLYLINE
  5
EF6
  8
SAPA_PROFIL
 66
     1
 10
0.0
 20
0.0
 30
0.0
 70
     1
  0
VERTEX
  5
1475
  8
SAPA_PROFIL
 10
135.69999992774461
 20
10.000000000032459
 30
0.0
 42
-0.4142135623624294
  0
VERTEX
  5
1476
  8
SAPA_PROFIL
 10
135.4999999277548
 20
10.20000000000771
 30
0.0
  0
VERTEX
  5
1477
  8
SAPA_PROFIL
 10
135.49999992774019
 20
11.050000000006269
 30
0.0
 42
0.4142135623730744
  0
VERTEX
  5
1478
  8
SAPA_PROFIL
 10
135.29999992773591
 20
11.250000000007001
 30
0.0
  0
VERTEX
  5
1479
  8
SAPA_PROFIL
 10
134.99999992775469
 20
11.24999999999971
 30
0.0
 42
0.4142135623731035
  0
VERTEX
  5
147A
  8
SAPA_PROFIL
 10
134.49999992775469
 20
10.74999999999971
 30
0.0
  0
VERTEX
  5
147B
  8
SAPA_PROFIL
 10
134.49999992775469
 20
7.7499999999997078
 30
0.0
 42
0.4142135623731035
  0
VERTEX
  5
147C
  8
SAPA_PROFIL
 10
134.99999992775469
 20
7.2499999999997078
 30
0.0
  0
VERTEX
  5
147D
  8
SAPA_PROFIL
 10
135.29999992775041
 20
7.2499999999997078
 30
0.0
 42
0.4142135623730744
  0
VERTEX
  5
147E
  8
SAPA_PROFIL
 10
135.4999999277548
 20
7.4500000000004496
 30
0.0
  0
VERTEX
  5
147F
  8
SAPA_PROFIL
 10
135.4999999277438
 20
8.3000000000026333
 30
0.0
 42
-0.4142135623730534
  0
VERTEX
  5
1480
  8
SAPA_PROFIL
 10
135.69999992774461
 20
8.4999999999997087
 30
0.0
  0
VERTEX
  5
1481
  8
SAPA_PROFIL
 10
136.69999992774461
 20
8.4999999999997087
 30
0.0
 42
-0.4142135623731035
  0
VERTEX
  5
1482
  8
SAPA_PROFIL
 10
137.19999992774461
 20
7.9999999999997078
 30
0.0
  0
VERTEX
  5
1483
  8
SAPA_PROFIL
 10
137.19999992774461
 20
1.999999999999722
 30
0.0
 42
-0.4142135623731033
  0
VERTEX
  5
1484
  8
SAPA_PROFIL
 10
136.69999992774461
 20
1.499999999999722
 30
0.0
  0
VERTEX
  5
1485
  8
SAPA_PROFIL
 10
135.69999992774461
 20
1.5000000000106359
 30
0.0
 42
-0.414213562373064
  0
VERTEX
  5
1486
  8
SAPA_PROFIL
 10
135.4999999277548
 20
1.70000000000045
 30
0.0
  0
VERTEX
  5
1487
  8
SAPA_PROFIL
 10
135.4999999277548
 20
2.5500000000026328
 30
0.0
 42
0.414213562373064
  0
VERTEX
  5
1488
  8
SAPA_PROFIL
 10
135.29999992775041
 20
2.749999999999722
 30
0.0
  0
VERTEX
  5
1489
  8
SAPA_PROFIL
 10
134.99999992775469
 20
2.749999999999722
 30
0.0
 42
0.4142135623731035
  0
VERTEX
  5
148A
  8
SAPA_PROFIL
 10
134.49999992775469
 20
2.249999999999722
 30
0.0
  0
VERTEX
  5
148B
  8
SAPA_PROFIL
 10
134.49999992775469
 20
0.4999999999997229
 30
0.0
 42
0.4142135623731035
  0
VERTEX
  5
148C
  8
SAPA_PROFIL
 10
134.99999992775469
 20
-0.0000000000002771
 30
0.0
  0
VERTEX
  5
148D
  8
SAPA_PROFIL
 10
137.49999992775469
 20
-0.0000000000002771
 30
0.0
 42
0.4142135623730966
  0
VERTEX
  5
148E
  8
SAPA_PROFIL
 10
138.9999999277548
 20
1.499999999999722
 30
0.0
  0
VERTEX
  5
148F
  8
SAPA_PROFIL
 10
138.9999999277548
 20
59.700000000000443
 30
0.0
 42
0.4142135623730935
  0
VERTEX
  5
1490
  8
SAPA_PROFIL
 10
138.69999992774461
 20
59.999999999999709
 30
0.0
  0
VERTEX
  5
1491
  8
SAPA_PROFIL
 10
90.743868969058497
 20
59.99999999999973
 30
0.0
 42
0.2418327667378115
  0
VERTEX
  5
1492
  8
SAPA_PROFIL
 10
90.499999928120104
 20
59.874722325032629
 30
0.0
 42
-0.2418327667509125
  0
VERTEX
  5
1493
  8
SAPA_PROFIL
 10
90.256130887164147
 20
59.749444650060198
 30
0.0
  0
VERTEX
  5
1494
  8
SAPA_PROFIL
 10
89.299999928114218
 20
59.74944465005656
 30
0.0
 42
-0.2418327667448973
  0
VERTEX
  5
1495
  8
SAPA_PROFIL
 10
89.056130887159284
 20
59.874722325024969
 30
0.0
 42
0.2418327667448979
  0
VERTEX
  5
1496
  8
SAPA_PROFIL
 10
88.812261846206724
 20
59.99999999999217
 30
0.0
  0
VERTEX
  5
1497
  8
SAPA_PROFIL
 10
86.714189490488735
 20
59.99999999999217
 30
0.0
 42
0.6681786379192718
  0
VERTEX
  5
1498
  8
SAPA_PROFIL
 10
86.007082709302125
 20
58.292893218805673
 30
0.0
  0
VERTEX
  5
1499
  8
SAPA_PROFIL
 10
87.312131962471113
 20
56.9878439656365
 30
0.0
 42
0.1989123673797335
  0
VERTEX
  5
149A
  8
SAPA_PROFIL
 10
87.524263996827173
 20
56.899975999992392
 30
0.0
  0
VERTEX
  5
149B
  8
SAPA_PROFIL
 10
88.110769443574384
 20
56.899975999992527
 30
0.0
 42
0.1316524975873855
  0
VERTEX
  5
149C
  8
SAPA_PROFIL
 10
88.260769443574304
 20
56.940168378857173
 30
0.0
  0
VERTEX
  5
149D
  8
SAPA_PROFIL
 10
89.749999928115173
 20
57.799975999992483
 30
0.0
  0
VERTEX
  5
149E
  8
SAPA_PROFIL
 10
90.199999928115105
 20
57.79998799999214
 30
0.0
 42
-0.4142135623731054
  0
VERTEX
  5
149F
  8
SAPA_PROFIL
 10
90.499999928115116
 20
57.49998799999215
 30
0.0
  0
VERTEX
  5
14A0
  8
SAPA_PROFIL
 10
90.499999928115074
 20
53.89997599999208
 30
0.0
 42
-0.4142135623730951
  0
VERTEX
  5
14A1
  8
SAPA_PROFIL
 10
90.199999928115091
 20
53.599975999992083
 30
0.0
  0
VERTEX
  5
14A2
  8
SAPA_PROFIL
 10
89.749999928115074
 20
53.599975999992182
 30
0.0
  0
VERTEX
  5
14A3
  8
SAPA_PROFIL
 10
88.260739797040912
 20
54.45980073756116
 30
0.0
 42
0.1316363093594257
  0
VERTEX
  5
14A4
  8
SAPA_PROFIL
 10
88.11075889199418
 20
54.499993115818121
 30
0.0
  0
VERTEX
  5
14A5
  8
SAPA_PROFIL
 10
87.999999928111322
 20
54.500000165608938
 30
0.0
  0
VERTEX
  5
14A6
  8
SAPA_PROFIL
 10
87.999999928111322
 20
52.914359353937201
 30
0.0
 42
0.2679491924308306
  0
VERTEX
  5
14A7
  8
SAPA_PROFIL
 10
88.499999928111336
 20
52.048333950158579
 30
0.0
  0
VERTEX
  5
14A8
  8
SAPA_PROFIL
 10
90.249999928111777
 20
51.0379709790801
 30
0.0
 42
-0.2679491924308306
  0
VERTEX
  5
14A9
  8
SAPA_PROFIL
 10
90.499999928111322
 20
50.604958277188139
 30
0.0
  0
VERTEX
  5
14AA
  8
SAPA_PROFIL
 10
90.499999928111322
 20
49.395041722807669
 30
0.0
 42
-0.2679491924308304
  0
VERTEX
  5
14AB
  8
SAPA_PROFIL
 10
90.249999928111322
 20
48.962029020916553
 30
0.0
  0
VERTEX
  5
14AC
  8
SAPA_PROFIL
 10
88.499999928111336
 20
47.951666049840881
 30
0.0
 42
0.2679491924308308
  0
VERTEX
  5
14AD
  8
SAPA_PROFIL
 10
87.999999928113198
 20
47.085640646054983
 30
0.0
  0
VERTEX
  5
14AE
  8
SAPA_PROFIL
 10
87.999999928111066
 20
45.499999834386891
 30
0.0
  0
VERTEX
  5
14AF
  8
SAPA_PROFIL
 10
88.11075889199418
 20
45.500006884177687
 30
0.0
 42
0.1316363093594255
  0
VERTEX
  5
14B0
  8
SAPA_PROFIL
 10
88.260739797040912
 20
45.540199262434662
 30
0.0
  0
VERTEX
  5
14B1
  8
SAPA_PROFIL
 10
89.749999928115074
 20
46.40002400000364
 30
0.0
  0
VERTEX
  5
14B2
  8
SAPA_PROFIL
 10
90.199999928115091
 20
46.400024000003739
 30
0.0
 42
-0.4142135623730951
  0
VERTEX
  5
14B3
  8
SAPA_PROFIL
 10
90.499999928115074
 20
46.100024000003742
 30
0.0
  0
VERTEX
  5
14B4
  8
SAPA_PROFIL
 10
90.499999928115116
 20
42.500012000003679
 30
0.0
 42
-0.4142135623731054
  0
VERTEX
  5
14B5
  8
SAPA_PROFIL
 10
90.199999928115105
 20
42.200012000003682
 30
0.0
  0
VERTEX
  5
14B6
  8
SAPA_PROFIL
 10
89.749999928115173
 20
42.200024000003353
 30
0.0
  0
VERTEX
  5
14B7
  8
SAPA_PROFIL
 10
88.260769443574304
 20
43.059831621138642
 30
0.0
 42
0.1316524975873855
  0
VERTEX
  5
14B8
  8
SAPA_PROFIL
 10
88.110769443574384
 20
43.10002400000328
 30
0.0
  0
VERTEX
  5
14B9
  8
SAPA_PROFIL
 10
87.524263996827173
 20
43.100024000003422
 30
0.0
 42
0.1989123673797335
  0
VERTEX
  5
14BA
  8
SAPA_PROFIL
 10
87.312131962471113
 20
43.012156034359307
 30
0.0
  0
VERTEX
  5
14BB
  8
SAPA_PROFIL
 10
86.007082709302125
 20
41.707106781190141
 30
0.0
 42
0.6681786379192716
  0
VERTEX
  5
14BC
  8
SAPA_PROFIL
 10
86.714189490488735
 20
40.000000000003652
 30
0.0
  0
VERTEX
  5
14BD
  8
SAPA_PROFIL
 10
88.812261846208415
 20
40.000000000003652
 30
0.0
 42
0.2418327667433386
  0
VERTEX
  5
14BE
  8
SAPA_PROFIL
 10
89.056130887159981
 20
40.125277674969411
 30
0.0
 42
-0.2418327667449431
  0
VERTEX
  5
14BF
  8
SAPA_PROFIL
 10
89.299999928114218
 20
40.250555349935617
 30
0.0
  0
VERTEX
  5
14C0
  8
SAPA_PROFIL
 10
90.256130887164147
 20
40.250555349939262
 30
0.0
 42
-0.2418327667509097
  0
VERTEX
  5
14C1
  8
SAPA_PROFIL
 10
90.499999928111265
 20
40.125277674956848
 30
0.0
 42
0.2418327667378167
  0
VERTEX
  5
14C2
  8
SAPA_PROFIL
 10
90.743868969058497
 20
40.000000000003652
 30
0.0
  0
VERTEX
  5
14C3
  8
SAPA_PROFIL
 10
92.55661060282506
 20
39.999999999985178
 30
0.0
 42
0.1095178116817878
  0
VERTEX
  5
14C4
  8
SAPA_PROFIL
 10
93.401847126296047
 20
40.187384425907013
 30
0.0
  0
VERTEX
  5
14C5
  8
SAPA_PROFIL
 10
99.03167349143547
 20
42.812615574068062
 30
0.0
 42
-0.1095178116855129
  0
VERTEX
  5
14C6
  8
SAPA_PROFIL
 10
99.876910014919815
 20
42.99999999999973
 30
0.0
  0
VERTEX
  5
14C7
  8
SAPA_PROFIL
 10
106.9999999280968
 20
43.000000000006999
 30
0.0
 42
-0.4142135623730957
  0
VERTEX
  5
14C8
  8
SAPA_PROFIL
 10
107.4999999280968
 20
42.499999999985171
 30
0.0
  0
VERTEX
  5
14C9
  8
SAPA_PROFIL
 10
107.4999999280968
 20
41.499999999985171
 30
0.0
 42
-0.4142135623730915
  0
VERTEX
  5
14CA
  8
SAPA_PROFIL
 10
106.9999999280968
 20
40.999999999985178
 30
0.0
  0
VERTEX
  5
14CB
  8
SAPA_PROFIL
 10
106.708712080615
 20
40.999999999985178
 30
0.0
 42
0.2982166266909514
  0
VERTEX
  5
14CC
  8
SAPA_PROFIL
 10
106.2504545111251
 20
40.69999999999807
 30
0.0
 42
1.5275252316550829
  0
VERTEX
  5
14CD
  8
SAPA_PROFIL
 10
111.7495453450525
 20
40.699999999998148
 30
0.0
 42
0.2982166266892446
  0
VERTEX
  5
14CE
  8
SAPA_PROFIL
 10
111.2912877755857
 20
40.999999999975849
 30
0.0
  0
VERTEX
  5
14CF
  8
SAPA_PROFIL
 10
110.9999999280968
 20
40.999999999985178
 30
0.0
 42
-0.4142135623730915
  0
VERTEX
  5
14D0
  8
SAPA_PROFIL
 10
110.4999999280968
 20
41.499999999985171
 30
0.0
  0
VERTEX
  5
14D1
  8
SAPA_PROFIL
 10
110.4999999280968
 20
42.499999999985171
 30
0.0
 42
-0.4142135623730918
  0
VERTEX
  5
14D2
  8
SAPA_PROFIL
 10
110.9999999280968
 20
42.999999999985178
 30
0.0
  0
VERTEX
  5
14D3
  8
SAPA_PROFIL
 10
129.92308984094919
 20
42.999999999985157
 30
0.0
 42
-0.1095178116838485
  0
VERTEX
  5
14D4
  8
SAPA_PROFIL
 10
130.76832636443899
 20
42.812615574065248
 30
0.0
  0
VERTEX
  5
14D5
  8
SAPA_PROFIL
 10
135.6452364512275
 20
40.538475052471483
 30
0.0
 42
-0.2914734195858569
  0
VERTEX
  5
14D6
  8
SAPA_PROFIL
 10
136.79999992775041
 20
38.7258594783886
 30
0.0
  0
VERTEX
  5
14D7
  8
SAPA_PROFIL
 10
136.79999992775041
 20
19.000000000006999
 30
0.0
 42
-0.4142135623730951
  0
VERTEX
  5
14D8
  8
SAPA_PROFIL
 10
136.29999992775041
 20
18.500000000006999
 30
0.0
  0
VERTEX
  5
14D9
  8
SAPA_PROFIL
 10
135.99999992773289
 20
18.500000000006999
 30
0.0
 42
-0.4142135623731035
  0
VERTEX
  5
14DA
  8
SAPA_PROFIL
 10
135.499999927733
 20
19.000000000006999
 30
0.0
  0
VERTEX
  5
14DB
  8
SAPA_PROFIL
 10
135.499999927733
 20
20.300000000006271
 30
0.0
 42
0.4142135623730744
  0
VERTEX
  5
14DC
  8
SAPA_PROFIL
 10
135.29999992773591
 20
20.50000000001064
 30
0.0
  0
VERTEX
  5
14DD
  8
SAPA_PROFIL
 10
134.99999992773289
 20
20.500000000006981
 30
0.0
 42
0.4142135623731035
  0
VERTEX
  5
14DE
  8
SAPA_PROFIL
 10
134.499999927733
 20
20.000000000006999
 30
0.0
  0
VERTEX
  5
14DF
  8
SAPA_PROFIL
 10
134.49999992775469
 20
16.250000000006999
 30
0.0
 42
0.4142135623731035
  0
VERTEX
  5
14E0
  8
SAPA_PROFIL
 10
134.99999992775469
 20
15.750000000007001
 30
0.0
  0
VERTEX
  5
14E1
  8
SAPA_PROFIL
 10
135.29999992775041
 20
15.750000000007001
 30
0.0
 42
0.4142135623731159
  0
VERTEX
  5
14E2
  8
SAPA_PROFIL
 10
135.49999992775841
 20
15.950000000022261
 30
0.0
  0
VERTEX
  5
14E3
  8
SAPA_PROFIL
 10
135.4999999277548
 20
16.800000000006271
 30
0.0
 42
-0.4142135623730951
  0
VERTEX
  5
14E4
  8
SAPA_PROFIL
 10
135.69999992774461
 20
17.000000000006999
 30
0.0
  0
VERTEX
  5
14E5
  8
SAPA_PROFIL
 10
136.69999992774461
 20
17.000000000006999
 30
0.0
 42
-0.4142135623731035
  0
VERTEX
  5
14E6
  8
SAPA_PROFIL
 10
137.19999992774461
 20
16.500000000006999
 30
0.0
  0
VERTEX
  5
14E7
  8
SAPA_PROFIL
 10
137.19999992774461
 20
10.500000000006979
 30
0.0
 42
-0.4142135623731033
  0
VERTEX
  5
14E8
  8
SAPA_PROFIL
 10
136.69999992774461
 20
10.000000000007001
 30
0.0
  0
SEQEND
  5
14E9
  8
SAPA_PROFIL
  0
POLYLINE
  5
EF7
  8
SAPA_PROFIL
 66
     1
 10
0.0
 20
0.0
 30
0.0
 70
     1
  0
VERTEX
  5
14EA
  8
SAPA_PROFIL
 10
92.999999928111322
 20
57.199999999985913
 30
0.0
  0
VERTEX
  5
14EB
  8
SAPA_PROFIL
 10
92.999999928111322
 20
45.600000000005551
 30
0.0
 42
0.4142135623730951
  0
VERTEX
  5
14EC
  8
SAPA_PROFIL
 10
93.299999928114232
 20
45.30000000000264
 30
0.0
  0
VERTEX
  5
14ED
  8
SAPA_PROFIL
 10
136.19999992774461
 20
45.299999999980798
 30
0.0
 42
0.4142135623730935
  0
VERTEX
  5
14EE
  8
SAPA_PROFIL
 10
136.49999992774389
 20
45.599999999980071
 30
0.0
  0
VERTEX
  5
14EF
  8
SAPA_PROFIL
 10
136.4999999277548
 20
57.200000000000443
 30
0.0
 42
0.4142135623730935
  0
VERTEX
  5
14F0
  8
SAPA_PROFIL
 10
136.19999992774461
 20
57.499999999999709
 30
0.0
  0
VERTEX
  5
14F1
  8
SAPA_PROFIL
 10
93.299999928114232
 20
57.499999999985171
 30
0.0
 42
0.4142135623730939
  0
SEQEND
  5
14F2
  8
SAPA_PROFIL
  0
POLYLINE
  5
EF8
  8
SAPA_PROFIL
 62
     4
 66
     1
 10
0.0
 20
0.0
 30
-0.2
 70
     1
1001
RC_PROFILE
1002
{
1000
Region
1002
}
  0
VERTEX
  5
14F3
  8
SAPA_PROFIL
 62
     4
 10
78.999999996510425
 20
16.652820282319141
 30
-0.2
  0
VERTEX
  5
14F4
  8
SAPA_PROFIL
 62
     4
 10
78.999999996510425
 20
2.4528202823170631
 30
-0.2
 42
-0.4142135623720297
  0
VERTEX
  5
14F5
  8
SAPA_PROFIL
 62
     4
 10
78.499999996512258
 20
1.9528202823170631
 30
-0.2
  0
VERTEX
  5
14F6
  8
SAPA_PROFIL
 62
     4
 10
74.499999995891059
 20
1.9528202823140921
 30
-0.2
 42
-0.4142135623730951
  0
VERTEX
  5
14F7
  8
SAPA_PROFIL
 62
     4
 10
73.999999995891073
 20
2.4528202823140921
 30
-0.2
  0
VERTEX
  5
14F8
  8
SAPA_PROFIL
 62
     4
 10
73.999999995883798
 20
16.652820282318
 30
-0.2
 42
-0.414213562373761
  0
VERTEX
  5
14F9
  8
SAPA_PROFIL
 62
     4
 10
74.499999995883798
 20
17.15282028231913
 30
-0.2
  0
VERTEX
  5
14FA
  8
SAPA_PROFIL
 62
     4
 10
78.499999996510439
 20
17.15282028231913
 30
-0.2
 42
-0.4142135623730951
  0
SEQEND
  5
14FB
  8
SAPA_PROFIL
 62
     4
  0
POLYLINE
  5
EF9
  8
SAPA_PROFIL
 62
     4
 66
     1
 10
0.0
 20
0.0
 30
0.0
1001
GENIUS_GENOBJ-N-FIL_13
1002
{
1000
OWNER
1000
GEN
1002
}
1001
GENIUS_GENODEF_13
1002
{
1000
HIER
1070
     0
1002
}
1002
{
1000
MANEDIT
1070
     0
1002
}
1002
{
1000
NOSEL
1070
     0
1002
}
1002
{
1000
BEHIND
1070
     0
1002
}
1002
{
1000
OTHER
1070
     0
1002
}
1002
{
1000
REACTOR
1002
}
  0
VERTEX
  5
14FC
  8
SAPA_PROFIL
 62
     4
 10
65.57725992649199
 20
43.416293838728187
 30
0.0
 42
0.131652497587489
  0
VERTEX
  5
14FD
  8
SAPA_PROFIL
 62
     4
 10
64.97725992649157
 20
43.255524323269448
 30
0.0
  0
VERTEX
  5
14FE
  8
SAPA_PROFIL
 62
     4
 10
63.236601985848033
 20
42.250554992671582
 30
0.0
  0
VERTEX
  5
14FF
  8
SAPA_PROFIL
 62
     4
 10
62.800000064269561
 20
42.250543349936223
 30
0.0
 42
-0.4142135623731046
  0
VERTEX
  5
1500
  8
SAPA_PROFIL
 62
     4
 10
62.550000064269568
 20
42.500543349936223
 30
0.0
  0
VERTEX
  5
1501
  8
SAPA_PROFIL
 62
     4
 10
62.550000064269618
 20
46.100555349936279
 30
0.0
 42
-0.4142135623730957
  0
VERTEX
  5
1502
  8
SAPA_PROFIL
 62
     4
 10
62.800000064269589
 20
46.350555349936279
 30
0.0
  0
VERTEX
  5
1503
  8
SAPA_PROFIL
 62
     4
 10
63.236602604648048
 20
46.35055534993618
 30
0.0
  0
VERTEX
  5
1504
  8
SAPA_PROFIL
 62
     4
 10
64.922740202048942
 20
45.37706335418612
 30
0.0
 42
0.1316524975873848
  0
VERTEX
  5
1505
  8
SAPA_PROFIL
 62
     4
 10
65.52274020204888
 20
45.216293838727459
 30
0.0
  0
VERTEX
  5
1506
  8
SAPA_PROFIL
 62
     4
 10
87.4772597903399
 20
45.216293838727459
 30
0.0
 42
0.1316524975873846
  0
VERTEX
  5
1507
  8
SAPA_PROFIL
 62
     4
 10
88.077259790339866
 20
45.37706335418612
 30
0.0
  0
VERTEX
  5
1508
  8
SAPA_PROFIL
 62
     4
 10
89.763397387740724
 20
46.35055534993618
 30
0.0
  0
VERTEX
  5
1509
  8
SAPA_PROFIL
 62
     4
 10
90.199999928119183
 20
46.350555349936279
 30
0.0
 42
-0.4142135623730951
  0
VERTEX
  5
150A
  8
SAPA_PROFIL
 62
     4
 10
90.449999928119183
 20
46.100555349936279
 30
0.0
  0
VERTEX
  5
150B
  8
SAPA_PROFIL
 62
     4
 10
90.449999928119226
 20
42.500543349936223
 30
0.0
 42
-0.4142135623731046
  0
VERTEX
  5
150C
  8
SAPA_PROFIL
 62
     4
 10
90.199999928119212
 20
42.250543349936223
 30
0.0
  0
VERTEX
  5
150D
  8
SAPA_PROFIL
 62
     4
 10
89.763398006540768
 20
42.250554992671582
 30
0.0
  0
VERTEX
  5
150E
  8
SAPA_PROFIL
 62
     4
 10
88.02274006589721
 20
43.255524323269448
 30
0.0
 42
0.1316524975874892
  0
VERTEX
  5
150F
  8
SAPA_PROFIL
 62
     4
 10
87.422740065896804
 20
43.416293838728187
 30
0.0
  0
VERTEX
  5
1510
  8
SAPA_PROFIL
 62
     4
 10
84.699999928368186
 20
43.416293838727512
 30
0.0
 42
0.414213562374094
  0
VERTEX
  5
1511
  8
SAPA_PROFIL
 62
     4
 10
83.499999928369263
 20
42.216293838723367
 30
0.0
  0
VERTEX
  5
1512
  8
SAPA_PROFIL
 62
     4
 10
83.499999928458408
 20
16.418558811801539
 30
0.0
 42
-0.4142135623730951
  0
VERTEX
  5
1513
  8
SAPA_PROFIL
 62
     4
 10
82.999999928458394
 20
15.918558811801541
 30
0.0
  0
VERTEX
  5
1514
  8
SAPA_PROFIL
 62
     4
 10
82.799999928458575
 20
15.91855881180132
 30
0.0
 42
-0.4142135623730951
  0
VERTEX
  5
1515
  8
SAPA_PROFIL
 62
     4
 10
82.499999928458408
 20
16.218558811801479
 30
0.0
  0
VERTEX
  5
1516
  8
SAPA_PROFIL
 62
     4
 10
82.499999928458408
 20
16.868558811803389
 30
0.0
 42
0.4142135623730951
  0
VERTEX
  5
1517
  8
SAPA_PROFIL
 62
     4
 10
82.199999928457316
 20
17.168558811803361
 30
0.0
  0
VERTEX
  5
1518
  8
SAPA_PROFIL
 62
     4
 10
81.299999928461318
 20
17.168558811802448
 30
0.0
 42
0.4142135623730951
  0
VERTEX
  5
1519
  8
SAPA_PROFIL
 62
     4
 10
80.799999928461304
 20
16.668558811803361
 30
0.0
  0
VERTEX
  5
151A
  8
SAPA_PROFIL
 62
     4
 10
80.799999928461304
 20
10.66855881180153
 30
0.0
 42
0.4142135623730951
  0
VERTEX
  5
151B
  8
SAPA_PROFIL
 62
     4
 10
81.299999928461318
 20
10.16855881180153
 30
0.0
  0
VERTEX
  5
151C
  8
SAPA_PROFIL
 62
     4
 10
82.199999928460045
 20
10.16855881180153
 30
0.0
 42
0.4142135623710974
  0
VERTEX
  5
151D
  8
SAPA_PROFIL
 62
     4
 10
82.499999928459317
 20
10.468558811799451
 30
0.0
  0
VERTEX
  5
151E
  8
SAPA_PROFIL
 62
     4
 10
82.499999928463865
 20
11.11855881180135
 30
0.0
 42
-0.4142135623730951
  0
VERTEX
  5
151F
  8
SAPA_PROFIL
 62
     4
 10
82.799999928465866
 20
11.41855881179951
 30
0.0
  0
VERTEX
  5
1520
  8
SAPA_PROFIL
 62
     4
 10
82.999999928458394
 20
11.418558811798359
 30
0.0
 42
-0.4142135623730951
  0
VERTEX
  5
1521
  8
SAPA_PROFIL
 62
     4
 10
83.499999928458408
 20
10.918558811798359
 30
0.0
  0
VERTEX
  5
1522
  8
SAPA_PROFIL
 62
     4
 10
83.499999928458408
 20
7.9185588117983619
 30
0.0
 42
-0.4142135623730951
  0
VERTEX
  5
1523
  8
SAPA_PROFIL
 62
     4
 10
82.999999928458394
 20
7.4185588117983619
 30
0.0
  0
VERTEX
  5
1524
  8
SAPA_PROFIL
 62
     4
 10
82.799999928458575
 20
7.4185588117983619
 30
0.0
 42
-0.4142135623730951
  0
VERTEX
  5
1525
  8
SAPA_PROFIL
 62
     4
 10
82.499999928458408
 20
7.7185588117985438
 30
0.0
  0
VERTEX
  5
1526
  8
SAPA_PROFIL
 62
     4
 10
82.499999928458408
 20
8.368558811798394
 30
0.0
 42
0.4142135623730951
  0
VERTEX
  5
1527
  8
SAPA_PROFIL
 62
     4
 10
82.199999928457316
 20
8.6685588117983627
 30
0.0
  0
VERTEX
  5
1528
  8
SAPA_PROFIL
 62
     4
 10
81.299999928461318
 20
8.6685588117983627
 30
0.0
 42
0.4142135623730951
  0
VERTEX
  5
1529
  8
SAPA_PROFIL
 62
     4
 10
80.799999928461304
 20
8.1685588117983627
 30
0.0
  0
VERTEX
  5
152A
  8
SAPA_PROFIL
 62
     4
 10
80.799999928461304
 20
2.1685588117983761
 30
0.0
 42
0.4142135623730951
  0
VERTEX
  5
152B
  8
SAPA_PROFIL
 62
     4
 10
81.299999928461318
 20
1.6685588117983621
 30
0.0
  0
VERTEX
  5
152C
  8
SAPA_PROFIL
 62
     4
 10
82.199999928457316
 20
1.6685588117983621
 30
0.0
 42
0.4142135623730951
  0
VERTEX
  5
152D
  8
SAPA_PROFIL
 62
     4
 10
82.499999928458408
 20
1.968558811798558
 30
0.0
  0
VERTEX
  5
152E
  8
SAPA_PROFIL
 62
     4
 10
82.499999928458408
 20
2.618558811798422
 30
0.0
 42
-0.4142135623730949
  0
VERTEX
  5
152F
  8
SAPA_PROFIL
 62
     4
 10
82.799999928458575
 20
2.9185588117983619
 30
0.0
  0
VERTEX
  5
1530
  8
SAPA_PROFIL
 62
     4
 10
82.999999928458394
 20
2.9185588117983619
 30
0.0
 42
-0.4142135623730951
  0
VERTEX
  5
1531
  8
SAPA_PROFIL
 62
     4
 10
83.499999928458408
 20
2.4185588117983619
 30
0.0
  0
VERTEX
  5
1532
  8
SAPA_PROFIL
 62
     4
 10
83.499999928457498
 20
0.6685588117983629
 30
0.0
 42
-0.4142135623726955
  0
VERTEX
  5
1533
  8
SAPA_PROFIL
 62
     4
 10
82.999999928123714
 20
0.1685588117983627
 30
0.0
  0
VERTEX
  5
1534
  8
SAPA_PROFIL
 62
     4
 10
69.999999928116424
 20
0.1685588117981354
 30
0.0
 42
-0.4142135623732284
  0
VERTEX
  5
1535
  8
SAPA_PROFIL
 62
     4
 10
69.499999927839923
 20
0.6685588117965438
 30
0.0
  0
VERTEX
  5
1536
  8
SAPA_PROFIL
 62
     4
 10
69.499999927839951
 20
2.4185588117965429
 30
0.0
 42
-0.4142135623730951
  0
VERTEX
  5
1537
  8
SAPA_PROFIL
 62
     4
 10
69.999999927839951
 20
2.9185588117965571
 30
0.0
  0
VERTEX
  5
1538
  8
SAPA_PROFIL
 62
     4
 10
70.199999927839769
 20
2.9185588117965571
 30
0.0
 42
-0.4142135623730951
  0
VERTEX
  5
1539
  8
SAPA_PROFIL
 62
     4
 10
70.499999927839951
 20
2.618558811796361
 30
0.0
  0
VERTEX
  5
153A
  8
SAPA_PROFIL
 62
     4
 10
70.499999927839937
 20
1.968558811796512
 30
0.0
 42
0.4142135623730951
  0
VERTEX
  5
153B
  8
SAPA_PROFIL
 62
     4
 10
70.79999992783921
 20
1.6685588117965571
 30
0.0
  0
VERTEX
  5
153C
  8
SAPA_PROFIL
 62
     4
 10
71.699999927837027
 20
1.6685588117965571
 30
0.0
 42
0.4142135623730951
  0
VERTEX
  5
153D
  8
SAPA_PROFIL
 62
     4
 10
72.199999927837041
 20
2.1685588117965429
 30
0.0
  0
VERTEX
  5
153E
  8
SAPA_PROFIL
 62
     4
 10
72.199999927837041
 20
8.1685588117965438
 30
0.0
 42
0.4142135623730951
  0
VERTEX
  5
153F
  8
SAPA_PROFIL
 62
     4
 10
71.699999927837041
 20
8.6685588117965438
 30
0.0
  0
VERTEX
  5
1540
  8
SAPA_PROFIL
 62
     4
 10
70.799999927839224
 20
8.6685588117965438
 30
0.0
 42
0.4142135623730953
  0
VERTEX
  5
1541
  8
SAPA_PROFIL
 62
     4
 10
70.499999927839951
 20
8.3685588117963619
 30
0.0
  0
VERTEX
  5
1542
  8
SAPA_PROFIL
 62
     4
 10
70.499999927839951
 20
7.7185588117964983
 30
0.0
 42
-0.4142135623730951
  0
VERTEX
  5
1543
  8
SAPA_PROFIL
 62
     4
 10
70.199999927839769
 20
7.4185588117965429
 30
0.0
  0
VERTEX
  5
1544
  8
SAPA_PROFIL
 62
     4
 10
69.999999927839951
 20
7.4185588117965429
 30
0.0
 42
-0.4142135623730951
  0
VERTEX
  5
1545
  8
SAPA_PROFIL
 62
     4
 10
69.499999927839951
 20
7.9185588117965429
 30
0.0
  0
VERTEX
  5
1546
  8
SAPA_PROFIL
 62
     4
 10
69.499999927839951
 20
10.91855881179654
 30
0.0
 42
-0.4142135623730951
  0
VERTEX
  5
1547
  8
SAPA_PROFIL
 62
     4
 10
69.999999927839951
 20
11.41855881179654
 30
0.0
  0
VERTEX
  5
1548
  8
SAPA_PROFIL
 62
     4
 10
70.199999927832494
 20
11.418558811797681
 30
0.0
 42
-0.414213562372873
  0
VERTEX
  5
1549
  8
SAPA_PROFIL
 62
     4
 10
70.499999927834494
 20
11.11855881179954
 30
0.0
  0
VERTEX
  5
154A
  8
SAPA_PROFIL
 62
     4
 10
70.499999927837223
 20
10.468558811798539
 30
0.0
 42
0.4142135623722071
  0
VERTEX
  5
154B
  8
SAPA_PROFIL
 62
     4
 10
70.799999927838314
 20
10.16855881179951
 30
0.0
  0
VERTEX
  5
154C
  8
SAPA_PROFIL
 62
     4
 10
71.699999927837041
 20
10.16855881179951
 30
0.0
 42
0.4142135623730951
  0
VERTEX
  5
154D
  8
SAPA_PROFIL
 62
     4
 10
72.199999927837041
 20
10.66855881179948
 30
0.0
  0
VERTEX
  5
154E
  8
SAPA_PROFIL
 62
     4
 10
72.199999927829765
 20
16.668558811801539
 30
0.0
 42
0.4142135623730951
  0
VERTEX
  5
154F
  8
SAPA_PROFIL
 62
     4
 10
71.699999927829765
 20
17.168558811801539
 30
0.0
  0
VERTEX
  5
1550
  8
SAPA_PROFIL
 62
     4
 10
70.799999927832843
 20
17.168558811801539
 30
0.0
 42
0.4142135623730951
  0
VERTEX
  5
1551
  8
SAPA_PROFIL
 62
     4
 10
70.499999927832675
 20
16.868558811801361
 30
0.0
  0
VERTEX
  5
1552
  8
SAPA_PROFIL
 62
     4
 10
70.499999927832675
 20
16.218558811799451
 30
0.0
 42
-0.4142135623730951
  0
VERTEX
  5
1553
  8
SAPA_PROFIL
 62
     4
 10
70.199999927832494
 20
15.91855881179948
 30
0.0
  0
VERTEX
  5
1554
  8
SAPA_PROFIL
 62
     4
 10
69.999999927832675
 20
15.91855881179948
 30
0.0
 42
-0.4142135623730951
  0
VERTEX
  5
1555
  8
SAPA_PROFIL
 62
     4
 10
69.499999927832675
 20
16.4185588117995
 30
0.0
  0
VERTEX
  5
1556
  8
SAPA_PROFIL
 62
     4
 10
69.49999992791453
 20
42.216293838723367
 30
0.0
 42
0.414213562374094
  0
VERTEX
  5
1557
  8
SAPA_PROFIL
 62
     4
 10
68.299999927914712
 20
43.416293838727277
 30
0.0
  0
VERTEX
  5
1558
  8
SAPA_PROFIL
 62
     4
 10
65.571518577834624
 20
43.416293838727512
 30
0.0
  0
SEQEND
  5
1559
  8
SAPA_PROFIL
 62
     4
  0
POLYLINE
  5
EFA
  8
SAPA_PROFIL
 62
     4
 66
     1
 10
0.0
 20
0.0
 30
0.0
 70
     1
  0
VERTEX
  5
155A
  8
SAPA_PROFIL
 62
     4
 10
73.199999995879978
 20
18.452820282317031
 30
0.0
  0
VERTEX
  5
155B
  8
SAPA_PROFIL
 62
     4
 10
80.699999996438393
 20
18.452820282321142
 30
0.0
 42
0.4142135623730951
  0
VERTEX
  5
155C
  8
SAPA_PROFIL
 62
     4
 10
81.699999996438393
 20
19.452820282321142
 30
0.0
  0
VERTEX
  5
155D
  8
SAPA_PROFIL
 62
     4
 10
81.699999996453869
 20
42.600555309244918
 30
0.0
 42
0.4142135623730949
  0
VERTEX
  5
155E
  8
SAPA_PROFIL
 62
     4
 10
80.899999996453687
 20
43.400555309245107
 30
0.0
  0
VERTEX
  5
155F
  8
SAPA_PROFIL
 62
     4
 10
72.099999995935093
 20
43.400555309245107
 30
0.0
 42
0.414213562373428
  0
VERTEX
  5
1560
  8
SAPA_PROFIL
 62
     4
 10
71.299999995934911
 20
42.600555309244008
 30
0.0
  0
VERTEX
  5
1561
  8
SAPA_PROFIL
 62
     4
 10
71.299999995958558
 20
19.452820282317031
 30
0.0
 42
0.4142135623724957
  0
VERTEX
  5
1562
  8
SAPA_PROFIL
 62
     4
 10
72.299999995957648
 20
18.452820282319081
 30
0.0
  0
SEQEND
  5
1563
  8
SAPA_PROFIL
 62
     4
  0
POLYLINE
  5
EFB
  8
SAPA_PROFIL
 66
     1
 10
0.0
 20
0.0
 30
0.0
 70
     1
  0
VERTEX
  5
1564
  8
SAPA_PROFIL
 10
138.4999999277415
 20
-0.0000000000019291
 30
0.0
  0
VERTEX
  5
1565
  8
SAPA_PROFIL
 10
133.4999999277415
 20
0.0000000000017089
 30
0.0
 42
-0.4142135623730951
  0
VERTEX
  5
1566
  8
SAPA_PROFIL
 10
132.4999999277415
 20
1.000000000001708
 30
0.0
  0
VERTEX
  5
1567
  8
SAPA_PROFIL
 10
132.49999992774869
 20
11.00000000000102
 30
0.0
 42
-0.4142135623730951
  0
VERTEX
  5
1568
  8
SAPA_PROFIL
 10
133.4999999277415
 20
12.00000000000102
 30
0.0
  0
VERTEX
  5
1569
  8
SAPA_PROFIL
 10
135.24999992777791
 20
12.00000000000102
 30
0.0
 42
0.9999999999999998
  0
VERTEX
  5
156A
  8
SAPA_PROFIL
 10
135.24999992777791
 20
13.50000000000829
 30
0.0
  0
VERTEX
  5
156B
  8
SAPA_PROFIL
 10
133.49999992774869
 20
13.500000000011941
 30
0.0
 42
0.4142135623730951
  0
VERTEX
  5
156C
  8
SAPA_PROFIL
 10
130.9999999277415
 20
11.00000000000829
 30
0.0
  0
VERTEX
  5
156D
  8
SAPA_PROFIL
 10
130.9999999277415
 20
1.200000000002436
 30
0.0
 42
-0.4142135623730951
  0
VERTEX
  5
156E
  8
SAPA_PROFIL
 10
129.9999999277415
 20
0.2000000000024364
 30
0.0
  0
VERTEX
  5
156F
  8
SAPA_PROFIL
 10
85.749999928447266
 20
0.2000000000024329
 30
0.0
 42
-0.4142135623730951
  0
VERTEX
  5
1570
  8
SAPA_PROFIL
 10
85.249999928447281
 20
0.7000000000024329
 30
0.0
  0
VERTEX
  5
1571
  8
SAPA_PROFIL
 10
85.249999928444353
 20
18.50000000000534
 30
0.0
 42
0.8390996311761574
  0
VERTEX
  5
1572
  8
SAPA_PROFIL
 10
84.668092142207499
 20
18.602606043002989
 30
0.0
  0
VERTEX
  5
1573
  8
SAPA_PROFIL
 10
82.375079666322932
 20
12.302606043004049
 30
0.0
 42
0.4663076581554896
  0
VERTEX
  5
1574
  8
SAPA_PROFIL
 10
82.604892999260244
 20
11.90455767410219
 30
0.0
  0
VERTEX
  5
1575
  8
SAPA_PROFIL
 10
83.336824017273955
 20
11.775498487606651
 30
0.0
 42
-0.3639702342659115
  0
VERTEX
  5
1576
  8
SAPA_PROFIL
 10
83.749999928439991
 20
11.28309461110063
 30
0.0
  0
VERTEX
  5
1577
  8
SAPA_PROFIL
 10
83.749999928447266
 20
0.5000000000017018
 30
0.0
 42
-0.4142135623730951
  0
VERTEX
  5
1578
  8
SAPA_PROFIL
 10
83.249999928447266
 20
0.0000000000017017
 30
0.0
  0
VERTEX
  5
1579
  8
SAPA_PROFIL
 10
69.999999927756051
 20
0.0000000000089777
 30
0.0
 42
0.4142135623730951
  0
VERTEX
  5
157A
  8
SAPA_PROFIL
 10
69.499999927756051
 20
-0.4999999999946603
 30
0.0
 42
0.4142135623730951
  0
VERTEX
  5
157B
  8
SAPA_PROFIL
 10
70.499999927756051
 20
-1.49999999999466
 30
0.0
  0
VERTEX
  5
157C
  8
SAPA_PROFIL
 10
137.9999999277415
 20
-1.4999999999982909
 30
0.0
 42
0.4142135623730951
  0
VERTEX
  5
157D
  8
SAPA_PROFIL
 10
138.9999999277415
 20
-0.4999999999982912
 30
0.0
 42
0.4142135623730951
  0
SEQEND
  5
157E
  8
SAPA_PROFIL
  0
LINE
  5
F1E
  8
SAPA_GLAS
 10
62.199999999065668
 20
-0.0000000000038014
 30
0.0
 11
62.288653318777293
 21
0.5027779603469407
 31
0.0
  0
LINE
  5
F1F
  8
SAPA_GLAS
 10
58.190461068432171
 20
1.986969785101329
 30
0.0
 11
57.999999999554227
 21
1.986969785101329
 31
0.0
  0
ARC
  5
F20
  8
SAPA_GLAS
 10
59.999999999556039
 20
-14.584669372815039
 30
0.0
 40
9.9869792597787779
 50
78.447792354267833
 51
101.5522076457321
  0
LINE
  5
F21
  8
SAPA_GLAS
 10
25.800000000042459
 20
-0.0000000000038014
 30
0.0
 11
25.711346680330841
 21
0.5027779603469407
 31
0.0
  0
LINE
  5
F22
  8
SAPA_GLAS
 10
29.809538930675959
 20
1.986969785101329
 30
0.0
 11
29.999999999553911
 21
1.986969785101329
 31
0.0
  0
ARC
  5
F23
  8
SAPA_GLAS
 10
27.999999999552092
 20
-14.584669372815039
 30
0.0
 40
9.9869792597787779
 50
78.447792354267619
 51
101.55220764573239
  0
POLYLINE
  5
F24
  8
SAPA_GLAS
 66
     1
 10
0.0
 20
0.0
 30
0.0
 70
     1
  0
VERTEX
  5
15E5
  8
SAPA_GLAS
 10
58.122788369993053
 20
2.7604722664100469
 30
0.0
 42
0.1316524975872964
  0
VERTEX
  5
15E6
  8
SAPA_GLAS
 10
58.190461068330158
 20
1.9869697849206529
 30
0.0
  0
VERTEX
  5
15E7
  8
SAPA_GLAS
 10
58.742648854781692
 20
0.469846310296532
 30
0.0
 42
0.4142135623734131
  0
VERTEX
  5
15E8
  8
SAPA_GLAS
 10
59.383505236834772
 20
0.1710100715621792
 30
0.0
  0
VERTEX
  5
15E9
  8
SAPA_GLAS
 10
59.571443760994391
 20
0.2394141002267887
 30
0.0
 42
0.4142135623732762
  0
VERTEX
  5
15EA
  8
SAPA_GLAS
 10
59.750745504238559
 20
0.6239279294602654
 30
0.0
  0
VERTEX
  5
15EB
  8
SAPA_GLAS
 10
59.742296496730177
 20
0.6471413867781735
 30
0.0
 42
-0.5773502691875974
  0
VERTEX
  5
15EC
  8
SAPA_GLAS
 10
59.964964656426751
 20
0.9125069660445107
 30
0.0
  0
VERTEX
  5
15ED
  8
SAPA_GLAS
 10
64.280909495923652
 20
0.1514894435676268
 30
0.0
 42
0.4142135623736183
  0
VERTEX
  5
15EE
  8
SAPA_GLAS
 10
64.628446275119842
 20
0.3948373161689531
 30
0.0
  0
VERTEX
  5
15EF
  8
SAPA_GLAS
 10
64.697905546189943
 20
0.7887604173711225
 30
0.0
 42
0.4142135623730951
  0
VERTEX
  5
15F0
  8
SAPA_GLAS
 10
64.454557673592802
 20
1.136297196576286
 30
0.0
  0
VERTEX
  5
15F1
  8
SAPA_GLAS
 10
59.513175910671407
 20
2.0075961233936042
 30
0.0
 42
-0.4142135623725704
  0
VERTEX
  5
15F2
  8
SAPA_GLAS
 10
59.107596123006537
 20
2.5868240887350211
 30
0.0
  0
VERTEX
  5
15F3
  8
SAPA_GLAS
 10
60.311266129139391
 20
9.4131759110620834
 30
0.0
 42
0.4663076581553405
  0
VERTEX
  5
15F4
  8
SAPA_GLAS
 10
59.818862252633778
 20
9.9999999998991811
 30
0.0
  0
VERTEX
  5
15F5
  8
SAPA_GLAS
 10
28.181137746474359
 20
10.00000000010059
 30
0.0
 42
0.4663076581553401
  0
VERTEX
  5
15F6
  8
SAPA_GLAS
 10
27.688733869964619
 20
9.4131759112697111
 30
0.0
  0
VERTEX
  5
15F7
  8
SAPA_GLAS
 10
28.892403876007229
 20
2.5868240889273788
 30
0.0
 42
-0.4142135623725707
  0
VERTEX
  5
15F8
  8
SAPA_GLAS
 10
28.48682408833497
 20
2.0075961235911199
 30
0.0
  0
VERTEX
  5
15F9
  8
SAPA_GLAS
 10
23.545442325402501
 20
1.136297196836721
 30
0.0
 42
0.4142135623730951
  0
VERTEX
  5
15FA
  8
SAPA_GLAS
 10
23.302094452800901
 20
0.7887604176346557
 30
0.0
  0
VERTEX
  5
15FB
  8
SAPA_GLAS
 10
23.371553723866018
 20
0.3948373164316052
 30
0.0
 42
0.4142135623736183
  0
VERTEX
  5
15FC
  8
SAPA_GLAS
 10
23.719090503059089
 20
0.1514894438258452
 30
0.0
  0
VERTEX
  5
15FD
  8
SAPA_GLAS
 10
28.035035342565688
 20
0.9125069662477827
 30
0.0
 42
-0.5773502691875974
  0
VERTEX
  5
15FE
  8
SAPA_GLAS
 10
28.257703502258881
 20
0.6471413869786105
 30
0.0
  0
VERTEX
  5
15FF
  8
SAPA_GLAS
 10
28.249254494750211
 20
0.6239279296608089
 30
0.0
 42
0.4142135623732762
  0
VERTEX
  5
1600
  8
SAPA_GLAS
 10
28.42855623798949
 20
0.2394141004250514
 30
0.0
  0
VERTEX
  5
1601
  8
SAPA_GLAS
 10
28.616494762148239
 20
0.1710100717580474
 30
0.0
 42
0.4142135623734131
  0
VERTEX
  5
1602
  8
SAPA_GLAS
 10
29.257351144205131
 20
0.4698463104842361
 30
0.0
  0
VERTEX
  5
1603
  8
SAPA_GLAS
 10
29.809538930675959
 20
1.986969785101329
 30
0.0
 42
0.1316524975872963
  0
VERTEX
  5
1604
  8
SAPA_GLAS
 10
29.87721162902292
 20
2.760472266589864
 30
0.0
  0
VERTEX
  5
1605
  8
SAPA_GLAS
 10
28.81840371069563
 20
8.7652703645625536
 30
0.0
 42
-0.4663076581547951
  0
VERTEX
  5
1606
  8
SAPA_GLAS
 10
29.015365261299578
 20
9.0000000000945501
 30
0.0
  0
VERTEX
  5
1607
  8
SAPA_GLAS
 10
58.984634737795837
 20
8.9999999999037641
 30
0.0
 42
-0.466307658154795
  0
VERTEX
  5
1608
  8
SAPA_GLAS
 10
59.181596288396811
 20
8.7652703643692575
 30
0.0
  0
SEQEND
  5
1609
  8
SAPA_GLAS
  0
POLYLINE
  5
F25
  8
SAPA_GLAS
 66
     1
 10
0.0
 20
0.0
 30
0.0
  0
VERTEX
  5
160A
  8
SAPA_GLAS
 10
29.999999999553911
 20
-24.00000000000011
 30
0.0
  0
VERTEX
  5
160B
  8
SAPA_GLAS
 10
29.999999999553911
 20
7.9999999999998961
 30
0.0
  0
VERTEX
  5
160C
  8
SAPA_GLAS
 10
33.999999999553907
 20
7.9999999999998961
 30
0.0
  0
VERTEX
  5
160D
  8
SAPA_GLAS
 10
33.999999999553907
 20
-24.00000000000011
 30
0.0
  0
SEQEND
  5
160E
  8
SAPA_GLAS
  0
POLYLINE
  5
F26
  8
SAPA_GLAS
 66
     1
 10
0.0
 20
0.0
 30
0.0
  0
VERTEX
  5
160F
  8
SAPA_GLAS
 10
53.999999999554063
 20
-2.0000000000001101
 30
0.0
  0
VERTEX
  5
1610
  8
SAPA_GLAS
 10
33.99999999955407
 20
-2.0000000000001061
 30
0.0
  0
VERTEX
  5
1611
  8
SAPA_GLAS
 10
33.99999999955407
 20
7.9999999999999041
 30
0.0
  0
VERTEX
  5
1612
  8
SAPA_GLAS
 10
53.999999999554078
 20
7.999999999999889
 30
0.0
  0
VERTEX
  5
1613
  8
SAPA_GLAS
 10
53.999999999554063
 20
-2.0000000000001101
 30
0.0
  0
SEQEND
  5
1614
  8
SAPA_GLAS
  0
POLYLINE
  5
F27
  8
SAPA_GLAS
 66
     1
 10
0.0
 20
0.0
 30
0.0
  0
VERTEX
  5
1615
  8
SAPA_GLAS
 10
57.99999999955407
 20
-24.00000000000011
 30
0.0
  0
VERTEX
  5
1616
  8
SAPA_GLAS
 10
57.99999999955407
 20
7.999999999999889
 30
0.0
  0
VERTEX
  5
1617
  8
SAPA_GLAS
 10
53.999999999554078
 20
7.999999999999889
 30
0.0
  0
VERTEX
  5
1618
  8
SAPA_GLAS
 10
53.999999999554063
 20
-24.00000000000011
 30
0.0
  0
SEQEND
  5
1619
  8
SAPA_GLAS
  0
INSERT
  5
F28
  8
SAPA_GLAS
  6
CONTINUOUS
  2
*X41
 10
0.0
 20
0.0
 30
0.0
1001
ACAD
1000
HATCH
1002
{
1070
    19
1000
ANSI37
1040
0.25
1040
0.0
1000
R14_HATCH_DATA
1000
F28
1011
1.0
1021
0.0
1031
0.0
1021
0.0
1031
0.0
1011
0.0
1021
0.0
1031
0.0
1021
1.0
1031
0.0
1011
0.0
1021
0.0
1031
0.0
1021
0.0
1031
1.0
1040
0.0
1010
0.0
1020
0.0
1030
1.0
1000
ANSI37
1070
     0
1070
     0
1071
        1
1071
        7
1070
     1
1070
     1
1071
       21
1040
57.999999999554177
1040
-4.8000000000030036
1040
-0.1011549434925542
1040
61.999999999915502
1040
-4.8000000000760528
1040
0.0
1040
61.999999999908219
1040
-3.700000000004362
1040
-0.4142135623731029
1040
62.199999999905302
1040
-3.500000000003634
1040
0.0
1040
62.999999999908219
1040
-3.5000000000145408
1040
0.4142135623730951
1040
63.499999999908219
1040
-3.000000000014555
1040
0.0
1040
63.499999999428027
1040
-2.000000000003634
1040
0.414213562373094
1040
62.999999999428027
1040
-1.500000000003634
1040
0.0
1040
62.199999999417841
1040
-1.500000000003634
1040
-0.4142135623731048
1040
61.999999999428042
1040
-1.3000000000029059
1040
0.0
1040
61.999999999428042
1040
-0.200000000004362
1040
-0.4142135618575339
1040
62.199999999065803
1040
-0.0000000000036344
1040
0.0
1040
62.288653318733928
1040
0.50277796010054
1040
0.0
1040
59.964964656426858
1040
0.9125069660446243
1040
0.5773502691875974
1040
59.742296496730297
1040
0.6471413867782873
1040
0.0
1040
59.750745504238672
1040
0.623927929460379
1040
-0.4142135623732763
1040
59.571443760994498
1040
0.2394141002269023
1040
0.0
1040
59.383505236834893
1040
0.1710100715622929
1040
-0.4142135623734132
1040
58.742648854781791
1040
0.4698463102966457
1040
0.0
1040
58.190461068264518
1040
1.986969785101443
1040
0.0
1040
57.999999999554191
1040
1.986969785101443
1040
0.0
1071
        0
1070
     0
1070
     1
1040
0.0
1040
0.25
1070
     0
1070
     2
1040
0.7853981633974483
1040
20.50000000000011
1040
-5.0000000000036371
1040
-0.5612660075668221
1040
0.5612660075668221
1070
     0
1040
2.3561944901923439
1040
20.50000000000011
1040
-5.0000000000036371
1040
-0.5612660075668221
1040
-0.5612660075668221
1070
     0
1040
0.0554184978666472
1071
        1
1040
60.022530012564161
1040
-2.3851922194990598
1040
0.0
1002
}
  0
INSERT
  5
F29
  8
SAPA_GLAS
  6
CONTINUOUS
  2
*X42
 10
0.0
 20
0.0
 30
0.0
1001
ACAD
1000
HATCH
1002
{
1070
    19
1000
ANSI37
1040
0.25
1040
0.0
1000
R14_HATCH_DATA
1000
F29
1011
1.0
1021
0.0
1031
0.0
1021
0.0
1031
0.0
1011
0.0
1021
0.0
1031
0.0
1021
1.0
1031
0.0
1011
0.0
1021
0.0
1031
0.0
1021
0.0
1031
1.0
1040
0.0
1010
0.0
1020
0.0
1030
1.0
1000
ANSI37
1070
     0
1070
     0
1071
        1
1071
        7
1070
     1
1070
     1
1071
       21
1040
29.999999999554021
1040
1.986969785101443
1040
0.0
1040
29.80953893067608
1040
1.986969785101443
1040
0.0
1040
29.257351144205241
1040
0.4698463104843498
1040
-0.4142135623734131
1040
28.61649476214836
1040
0.1710100717581611
1040
0.0
1040
28.428556237989611
1040
0.2394141004251651
1040
-0.4142135623732763
1040
28.249254494750321
1040
0.6239279296609226
1040
0.0
1040
28.257703502259002
1040
0.6471413869787243
1040
0.5773502691875974
1040
28.035035342565809
1040
0.9125069662478964
1040
0.0
1040
25.711346680330958
1040
0.5027779603470539
1040
0.0
1040
25.800000000042569
1040
-0.0000000000036877
1040
-0.4142135623811048
1040
26.000000000037851
1040
-0.2000000000044153
1040
0.0
1040
26.000000000037851
1040
-1.3000000000029599
1040
-0.4142135623731048
1040
25.800000000048041
1040
-1.5000000000036871
1040
0.0
1040
25.000000000037851
1040
-1.5000000000036871
1040
0.414213562373094
1040
24.500000000037851
1040
-2.0000000000036868
1040
0.0
1040
24.499999999557669
1040
-3.000000000014615
1040
0.4142135623730951
1040
24.999999999557669
1040
-3.5000000000146012
1040
0.0
1040
25.79999999956058
1040
-3.5000000000036868
1040
-0.4142135623731029
1040
25.999999999557669
1040
-3.7000000000044149
1040
0.0
1040
25.99999999955039
1040
-4.8000000000029743
1040
-0.101154943483322
1040
29.999999999554021
1040
-4.8000000000029743
1040
0.0
1071
        0
1070
     0
1070
     1
1040
0.0
1040
0.25
1070
     0
1070
     2
1040
0.7853981633974483
1040
20.50000000000011
1040
-5.0000000000036371
1040
-0.5612660075668221
1040
0.5612660075668221
1070
     0
1040
2.3561944901923439
1040
20.50000000000011
1040
-5.0000000000036371
1040
-0.5612660075668221
1040
-0.5612660075668221
1070
     0
1040
0.0245236365555031
1071
        1
1040
28.057018522985111
1040
-1.8094267628165699
1040
0.0
1002
}
  0
POLYLINE
  5
F42
  8
SAPA_FOGBAND
 66
     1
 10
0.0
 20
0.0
 30
0.0
 70
     1
  0
VERTEX
  5
16AF
  8
SAPA_FOGBAND
 10
16.250000000010299
 20
10.35000000001734
 30
0.0
  0
VERTEX
  5
16B0
  8
SAPA_FOGBAND
 10
17.050000000010481
 20
10.35000000001734
 30
0.0
  0
VERTEX
  5
16B1
  8
SAPA_FOGBAND
 10
17.050000000010481
 20
16.65000000001443
 30
0.0
  0
VERTEX
  5
16B2
  8
SAPA_FOGBAND
 10
16.250000000010299
 20
16.65000000001443
 30
0.0
  0
SEQEND
  5
16B3
  8
SAPA_FOGBAND
  0
POLYLINE
  5
F43
  8
SAPA_FOGBAND
 66
     1
 10
0.0
 20
0.0
 30
0.0
  0
VERTEX
  5
16B4
  8
SAPA_FOGBAND
 10
17.050000000010481
 20
15.072689603156929
 30
0.0
  0
VERTEX
  5
16B5
  8
SAPA_FOGBAND
 10
20.500000000010299
 20
16.198136200472849
 30
0.0
  0
VERTEX
  5
16B6
  8
SAPA_FOGBAND
 10
20.500000000010299
 20
13.759998153924309
 30
0.0
  0
VERTEX
  5
16B7
  8
SAPA_FOGBAND
 10
17.050000000010481
 20
13.650000000017339
 30
0.0
  0
SEQEND
  5
16B8
  8
SAPA_FOGBAND
  0
POLYLINE
  5
F44
  8
SAPA_FOGBAND
 66
     1
 10
0.0
 20
0.0
 30
0.0
  0
VERTEX
  5
16B9
  8
SAPA_FOGBAND
 10
17.050000000010481
 20
13.57500000001661
 30
0.0
  0
VERTEX
  5
16BA
  8
SAPA_FOGBAND
 10
20.500000000010299
 20
13.57500000001334
 30
0.0
  0
VERTEX
  5
16BB
  8
SAPA_FOGBAND
 10
20.500000000010299
 20
13.425000000015149
 30
0.0
  0
VERTEX
  5
16BC
  8
SAPA_FOGBAND
 10
17.050000000010481
 20
13.42500000001516
 30
0.0
  0
SEQEND
  5
16BD
  8
SAPA_FOGBAND
  0
POLYLINE
  5
F45
  8
SAPA_FOGBAND
 66
     1
 10
0.0
 20
0.0
 30
0.0
  0
VERTEX
  5
16BE
  8
SAPA_FOGBAND
 10
17.050000000010481
 20
13.350000000014431
 30
0.0
  0
VERTEX
  5
16BF
  8
SAPA_FOGBAND
 10
20.500000000010299
 20
13.24000261483218
 30
0.0
  0
VERTEX
  5
16C0
  8
SAPA_FOGBAND
 10
20.500000000010299
 20
10.80190927441002
 30
0.0
  0
VERTEX
  5
16C1
  8
SAPA_FOGBAND
 10
17.050000000010481
 20
11.927310396874841
 30
0.0
  0
SEQEND
  5
16C2
  8
SAPA_FOGBAND
  0
POLYLINE
  5
F46
  8
SAPA_FOGBAND
 66
     1
 10
0.0
 20
0.0
 30
0.0
 70
     1
  0
VERTEX
  5
16C3
  8
SAPA_FOGBAND
 10
16.250000000010299
 20
1.850000000002793
 30
0.0
  0
VERTEX
  5
16C4
  8
SAPA_FOGBAND
 10
17.050000000010481
 20
1.850000000002793
 30
0.0
  0
VERTEX
  5
16C5
  8
SAPA_FOGBAND
 10
17.050000000010481
 20
8.1499999999998778
 30
0.0
  0
VERTEX
  5
16C6
  8
SAPA_FOGBAND
 10
16.250000000010299
 20
8.1499999999998778
 30
0.0
  0
SEQEND
  5
16C7
  8
SAPA_FOGBAND
  0
POLYLINE
  5
F47
  8
SAPA_FOGBAND
 66
     1
 10
0.0
 20
0.0
 30
0.0
  0
VERTEX
  5
16C8
  8
SAPA_FOGBAND
 10
17.050000000010481
 20
6.5726896031423783
 30
0.0
  0
VERTEX
  5
16C9
  8
SAPA_FOGBAND
 10
20.500000000010299
 20
7.6981362004582996
 30
0.0
  0
VERTEX
  5
16CA
  8
SAPA_FOGBAND
 10
20.500000000010299
 20
5.2599981539097618
 30
0.0
  0
VERTEX
  5
16CB
  8
SAPA_FOGBAND
 10
17.050000000010481
 20
5.150000000002791
 30
0.0
  0
SEQEND
  5
16CC
  8
SAPA_FOGBAND
  0
POLYLINE
  5
F48
  8
SAPA_FOGBAND
 66
     1
 10
0.0
 20
0.0
 30
0.0
  0
VERTEX
  5
16CD
  8
SAPA_FOGBAND
 10
17.050000000010481
 20
5.0750000000020634
 30
0.0
  0
VERTEX
  5
16CE
  8
SAPA_FOGBAND
 10
20.500000000010299
 20
5.0749999999987878
 30
0.0
  0
VERTEX
  5
16CF
  8
SAPA_FOGBAND
 10
20.500000000010299
 20
4.925000000000602
 30
0.0
  0
VERTEX
  5
16D0
  8
SAPA_FOGBAND
 10
17.050000000010481
 20
4.9250000000006082
 30
0.0
  0
SEQEND
  5
16D1
  8
SAPA_FOGBAND
  0
POLYLINE
  5
F49
  8
SAPA_FOGBAND
 66
     1
 10
0.0
 20
0.0
 30
0.0
  0
VERTEX
  5
16D2
  8
SAPA_FOGBAND
 10
17.050000000010481
 20
4.8499999999998797
 30
0.0
  0
VERTEX
  5
16D3
  8
SAPA_FOGBAND
 10
20.500000000010299
 20
4.7400026148176329
 30
0.0
  0
VERTEX
  5
16D4
  8
SAPA_FOGBAND
 10
20.500000000010299
 20
2.3019092743954701
 30
0.0
  0
VERTEX
  5
16D5
  8
SAPA_FOGBAND
 10
17.050000000010481
 20
3.427310396860292
 30
0.0
  0
SEQEND
  5
16D6
  8
SAPA_FOGBAND
  0
POLYLINE
  5
F4A
  8
SAPA_FOGBAND
 66
     1
 10
0.0
 20
0.0
 30
0.0
 70
     1
  0
VERTEX
  5
16D7
  8
SAPA_FOGBAND
 10
71.749999999672639
 20
10.56855881185308
 30
0.0
  0
VERTEX
  5
16D8
  8
SAPA_FOGBAND
 10
70.949999999672457
 20
10.56855881185308
 30
0.0
  0
VERTEX
  5
16D9
  8
SAPA_FOGBAND
 10
70.949999999672457
 20
16.868558811850161
 30
0.0
  0
VERTEX
  5
16DA
  8
SAPA_FOGBAND
 10
71.749999999672639
 20
16.868558811850161
 30
0.0
  0
SEQEND
  5
16DB
  8
SAPA_FOGBAND
  0
POLYLINE
  5
F4B
  8
SAPA_FOGBAND
 66
     1
 10
0.0
 20
0.0
 30
0.0
  0
VERTEX
  5
16DC
  8
SAPA_FOGBAND
 10
70.949999999672457
 20
15.29124841499266
 30
0.0
  0
VERTEX
  5
16DD
  8
SAPA_FOGBAND
 10
67.499999999672639
 20
16.41669501230859
 30
0.0
  0
VERTEX
  5
16DE
  8
SAPA_FOGBAND
 10
67.499999999672639
 20
13.978556965760051
 30
0.0
  0
VERTEX
  5
16DF
  8
SAPA_FOGBAND
 10
70.949999999672457
 20
13.868558811853079
 30
0.0
  0
SEQEND
  5
16E0
  8
SAPA_FOGBAND
  0
POLYLINE
  5
F4C
  8
SAPA_FOGBAND
 66
     1
 10
0.0
 20
0.0
 30
0.0
  0
VERTEX
  5
16E1
  8
SAPA_FOGBAND
 10
70.949999999672457
 20
13.79355881185235
 30
0.0
  0
VERTEX
  5
16E2
  8
SAPA_FOGBAND
 10
67.499999999672639
 20
13.793558811849071
 30
0.0
  0
VERTEX
  5
16E3
  8
SAPA_FOGBAND
 10
67.499999999672639
 20
13.643558811850889
 30
0.0
  0
VERTEX
  5
16E4
  8
SAPA_FOGBAND
 10
70.949999999672457
 20
13.643558811850889
 30
0.0
  0
SEQEND
  5
16E5
  8
SAPA_FOGBAND
  0
POLYLINE
  5
F4D
  8
SAPA_FOGBAND
 66
     1
 10
0.0
 20
0.0
 30
0.0
  0
VERTEX
  5
16E6
  8
SAPA_FOGBAND
 10
70.949999999672457
 20
13.568558811850171
 30
0.0
  0
VERTEX
  5
16E7
  8
SAPA_FOGBAND
 10
67.499999999672639
 20
13.45856142666792
 30
0.0
  0
VERTEX
  5
16E8
  8
SAPA_FOGBAND
 10
67.499999999672639
 20
11.02046808624576
 30
0.0
  0
VERTEX
  5
16E9
  8
SAPA_FOGBAND
 10
70.949999999672457
 20
12.145869208710581
 30
0.0
  0
SEQEND
  5
16EA
  8
SAPA_FOGBAND
  0
POLYLINE
  5
F4E
  8
SAPA_FOGBAND
 66
     1
 10
0.0
 20
0.0
 30
0.0
 70
     1
  0
VERTEX
  5
16EB
  8
SAPA_FOGBAND
 10
71.749999999672639
 20
2.0685588118385279
 30
0.0
  0
VERTEX
  5
16EC
  8
SAPA_FOGBAND
 10
70.949999999672457
 20
2.0685588118385279
 30
0.0
  0
VERTEX
  5
16ED
  8
SAPA_FOGBAND
 10
70.949999999672457
 20
8.3685588118356122
 30
0.0
  0
VERTEX
  5
16EE
  8
SAPA_FOGBAND
 10
71.749999999672639
 20
8.3685588118356122
 30
0.0
  0
SEQEND
  5
16EF
  8
SAPA_FOGBAND
  0
POLYLINE
  5
F4F
  8
SAPA_FOGBAND
 66
     1
 10
0.0
 20
0.0
 30
0.0
  0
VERTEX
  5
16F0
  8
SAPA_FOGBAND
 10
70.949999999672457
 20
6.7912484149781118
 30
0.0
  0
VERTEX
  5
16F1
  8
SAPA_FOGBAND
 10
67.499999999672639
 20
7.9166950122940349
 30
0.0
  0
VERTEX
  5
16F2
  8
SAPA_FOGBAND
 10
67.499999999672639
 20
5.478556965745498
 30
0.0
  0
VERTEX
  5
16F3
  8
SAPA_FOGBAND
 10
70.949999999672457
 20
5.3685588118385246
 30
0.0
  0
SEQEND
  5
16F4
  8
SAPA_FOGBAND
  0
POLYLINE
  5
F50
  8
SAPA_FOGBAND
 66
     1
 10
0.0
 20
0.0
 30
0.0
  0
VERTEX
  5
16F5
  8
SAPA_FOGBAND
 10
70.949999999672457
 20
5.293558811837797
 30
0.0
  0
VERTEX
  5
16F6
  8
SAPA_FOGBAND
 10
67.499999999672639
 20
5.293558811834524
 30
0.0
  0
VERTEX
  5
16F7
  8
SAPA_FOGBAND
 10
67.499999999672639
 20
5.1435588118363373
 30
0.0
  0
VERTEX
  5
16F8
  8
SAPA_FOGBAND
 10
70.949999999672457
 20
5.1435588118363418
 30
0.0
  0
SEQEND
  5
16F9
  8
SAPA_FOGBAND
  0
POLYLINE
  5
F51
  8
SAPA_FOGBAND
 66
     1
 10
0.0
 20
0.0
 30
0.0
  0
VERTEX
  5
16FA
  8
SAPA_FOGBAND
 10
70.949999999672457
 20
5.0685588118356151
 30
0.0
  0
VERTEX
  5
16FB
  8
SAPA_FOGBAND
 10
67.499999999672639
 20
4.9585614266533691
 30
0.0
  0
VERTEX
  5
16FC
  8
SAPA_FOGBAND
 10
67.499999999672639
 20
2.5204680862312072
 30
0.0
  0
VERTEX
  5
16FD
  8
SAPA_FOGBAND
 10
70.949999999672457
 20
3.645869208696026
 30
0.0
  0
SEQEND
  5
16FE
  8
SAPA_FOGBAND
  0
POLYLINE
  5
F52
  8
SAPA_FOGBAND
 66
     1
 10
0.0
 20
0.0
 30
0.0
 70
     1
  0
VERTEX
  5
16FF
  8
SAPA_FOGBAND
 10
136.74999992773121
 20
1.850000000002793
 30
0.0
  0
VERTEX
  5
1700
  8
SAPA_FOGBAND
 10
135.949999927731
 20
1.850000000002793
 30
0.0
  0
VERTEX
  5
1701
  8
SAPA_FOGBAND
 10
135.949999927731
 20
8.1499999999998778
 30
0.0
  0
VERTEX
  5
1702
  8
SAPA_FOGBAND
 10
136.74999992773121
 20
8.1499999999998778
 30
0.0
  0
SEQEND
  5
1703
  8
SAPA_FOGBAND
  0
POLYLINE
  5
F53
  8
SAPA_FOGBAND
 66
     1
 10
0.0
 20
0.0
 30
0.0
  0
VERTEX
  5
1704
  8
SAPA_FOGBAND
 10
135.949999927731
 20
6.5726896031423783
 30
0.0
  0
VERTEX
  5
1705
  8
SAPA_FOGBAND
 10
132.49999992773121
 20
7.6981362004583014
 30
0.0
  0
VERTEX
  5
1706
  8
SAPA_FOGBAND
 10
132.49999992773121
 20
5.2599981539097644
 30
0.0
  0
VERTEX
  5
1707
  8
SAPA_FOGBAND
 10
135.949999927731
 20
5.150000000002791
 30
0.0
  0
SEQEND
  5
1708
  8
SAPA_FOGBAND
  0
POLYLINE
  5
F54
  8
SAPA_FOGBAND
 66
     1
 10
0.0
 20
0.0
 30
0.0
  0
VERTEX
  5
1709
  8
SAPA_FOGBAND
 10
135.949999927731
 20
5.0750000000020634
 30
0.0
  0
VERTEX
  5
170A
  8
SAPA_FOGBAND
 10
132.49999992773121
 20
5.0749999999987887
 30
0.0
  0
VERTEX
  5
170B
  8
SAPA_FOGBAND
 10
132.49999992773121
 20
4.925000000000602
 30
0.0
  0
VERTEX
  5
170C
  8
SAPA_FOGBAND
 10
135.949999927731
 20
4.9250000000006082
 30
0.0
  0
SEQEND
  5
170D
  8
SAPA_FOGBAND
  0
POLYLINE
  5
F55
  8
SAPA_FOGBAND
 66
     1
 10
0.0
 20
0.0
 30
0.0
  0
VERTEX
  5
170E
  8
SAPA_FOGBAND
 10
135.949999927731
 20
4.8499999999998797
 30
0.0
  0
VERTEX
  5
170F
  8
SAPA_FOGBAND
 10
132.49999992773121
 20
4.7400026148176346
 30
0.0
  0
VERTEX
  5
1710
  8
SAPA_FOGBAND
 10
132.49999992773121
 20
2.3019092743954719
 30
0.0
  0
VERTEX
  5
1711
  8
SAPA_FOGBAND
 10
135.949999927731
 20
3.427310396860292
 30
0.0
  0
SEQEND
  5
1712
  8
SAPA_FOGBAND
  0
DIMENSION
  5
F61
  8
SAPA_MATT
  2
*D36
 10
-17.9999999282525
 20
59.999999999999758
 30
0.0
 11
-20.74999992825251
 21
27.499999999997979
 31
0.0
 70
     0
 13
22.25000000005959
 23
-5.0000000000038076
 33
0.0
 14
14.30000007175766
 24
59.999999999999758
 34
0.0
 50
270.0
1001
ACAD
1000
DSTYLE
1002
{
1070
    40
1040
1.0
1002
}
  0
DIMENSION
  5
F62
  8
SAPA_MATT
  2
*D35
 10
-5.9999999282525378
 20
-0.0000000000001218
 30
0.0
 11
-8.7499999282525351
 21
29.999999999999819
 31
0.0
 70
     0
 13
14.30000007175766
 23
59.999999999999758
 33
0.0
 14
15.50000007174752
 24
-0.0000000000001279
 34
0.0
 50
270.0
1001
ACAD
1000
DSTYLE
1002
{
1070
    40
1040
1.0
1002
}
  0
DIMENSION
  5
F63
  8
SAPA_MATT
  2
*D34
 10
138.99999999950219
 20
-56.000000000000213
 30
0.0
 11
76.49999999975114
 21
-56.000000000000213
 31
0.0
 70
   128
 13
14.000000000000121
 23
1.4999999999998721
 33
0.0
 14
138.99999999950219
 24
-0.5000000000001279
 34
0.0
1001
ACAD
1000
DSTYLE
1002
{
1070
    40
1040
1.0
1002
}
  0
DIMENSION
  5
F64
  8
SAPA_MATT
  2
*D33
 10
138.99999999950219
 20
-44.00000000000027
 30
0.0
 11
102.8577351492784
 21
-43.239486851190023
 31
0.0
 70
   128
 13
67.499999999386972
 23
10.00000000017449
 33
0.0
 14
138.99999999950219
 24
-0.5000000000001279
 34
0.0
1001
ACAD
1000
DSTYLE
1002
{
1070
   287
1070
     4
1070
    40
1040
1.0
1070
   279
1070
     1
1002
}
  0
DIMENSION
  5
F65
  8
SAPA_MATT
  2
*D32
 10
67.499999999386972
 20
-44.000000000000242
 30
0.0
 11
43.999999999732822
 21
-41.250000000000227
 31
0.0
 70
     0
 13
20.500000000078678
 23
10.00000000017444
 33
0.0
 14
67.499999999386972
 24
10.00000000017449
 34
0.0
1001
ACAD
1000
DSTYLE
1002
{
1070
   287
1070
     4
1070
    40
1040
1.0
1070
   279
1070
     1
1002
}
  0
DIMENSION
  5
F66
  8
SAPA_MATT
  2
*D31
 10
20.500000000078678
 20
-44.000000000000242
 30
0.0
 11
17.2500000000394
 21
-44.000000000000242
 31
0.0
 70
   128
 13
14.000000000000121
 23
1.4999999999998721
 33
0.0
 14
20.500000000078678
 24
10.00000000017444
 34
0.0
1001
ACAD
1000
DSTYLE
1002
{
1070
    40
1040
1.0
1002
}
  0
DIMENSION
  5
F67
  8
SAPA_MATT
  2
*D30
 10
-5.9999999999999343
 20
-5.0000000000037996
 30
0.0
 11
-8.7499999999999325
 21
-2.5000000000019611
 31
0.0
 70
     0
 13
15.50000000000013
 23
-0.0000000000001279
 33
0.0
 14
22.25000000005959
 24
-5.0000000000038076
 34
0.0
 50
270.0
1001
ACAD
1000
DSTYLE
1002
{
1070
   287
1070
     4
1070
    40
1040
1.0
1070
   279
1070
     1
1002
}
  0
VIEWPORT
  5
C4
 67
     1
  8
0
 10
160.5543545598442
 20
116.00969601843509
 30
0.0
 40
404.96977709277462
 41
256.8421457311839
 68
     1
 69
     1
1001
ACAD
1000
MVIEW
1002
{
1070
    16
1010
0.0
1020
0.0
1030
0.0
1010
0.0
1020
0.0
1030
1.0
1040
0.0
1040
256.8421457311839
1040
99.206250190734863
1040
130.70624923706049
1040
50.0
1040
0.0
1040
0.0
1070
     0
1070
     0
1070
     1
1070
     1
1070
     0
1070
     0
1070
     0
1070
     0
1040
0.0
1040
0.0
1040
0.0
1040
10.0
1040
10.0
1040
10.0
1040
10.0
1070
     0
1002
{
1002
}
1002
}
  0
ENDSEC
  0
EOF
