  0
SECTION
  2
HEADER
  9
$ACADVER
  1
AC1009
  9
$INSBASE
 10
0.0
 20
0.0
 30
0.0
  9
$EXTMIN
 10
-30.619466477045759
 20
-57.500000000000099
 30
-0.2
  9
$EXTMAX
 10
194.0032559344132
 20
79.75536530895036
 30
0.0000000048844772
  9
$LIMMIN
 10
0.0
 20
0.0
  9
$LIMMAX
 10
790.0
 20
790.0
  9
$ORTHOMODE
 70
     1
  9
$REGENMODE
 70
     1
  9
$FILLMODE
 70
     1
  9
$QTEXTMODE
 70
     0
  9
$MIRRTEXT
 70
     1
  9
$DRAGMODE
 70
     2
  9
$LTSCALE
 40
4.0
  9
$OSMODE
 70
   167
  9
$ATTMODE
 70
     1
  9
$TEXTSIZE
 40
3.5
  9
$TRACEWID
 40
0.05
  9
$TEXTSTYLE
  7
ISO
  9
$CLAYER
  8
0
  9
$CELTYPE
  6
BYLAYER
  9
$CECOLOR
 62
   256
  9
$DIMSCALE
 40
0.0
  9
$DIMASZ
 40
3.0
  9
$DIMEXO
 40
1.5
  9
$DIMDLI
 40
10.0
  9
$DIMRND
 40
0.0
  9
$DIMDLE
 40
0.0
  9
$DIMEXE
 40
1.5
  9
$DIMTP
 40
0.0
  9
$DIMTM
 40
0.0
  9
$DIMTXT
 40
3.5
  9
$DIMCEN
 40
-5.0
  9
$DIMTSZ
 40
0.0
  9
$DIMTOL
 70
     0
  9
$DIMLIM
 70
     0
  9
$DIMTIH
 70
     0
  9
$DIMTOH
 70
     0
  9
$DIMSE1
 70
     0
  9
$DIMSE2
 70
     0
  9
$DIMTAD
 70
     1
  9
$DIMZIN
 70
     8
  9
$DIMBLK
  1

  9
$DIMASO
 70
     1
  9
$DIMSHO
 70
     1
  9
$DIMPOST
  1

  9
$DIMAPOST
  1

  9
$DIMALT
 70
     0
  9
$DIMALTD
 70
     0
  9
$DIMALTF
 40
25.399999999999999
  9
$DIMLFAC
 40
-1.0
  9
$DIMTOFL
 70
     1
  9
$DIMTVP
 40
0.0
  9
$DIMTIX
 70
     0
  9
$DIMSOXD
 70
     0
  9
$DIMSAH
 70
     0
  9
$DIMBLK1
  1

  9
$DIMBLK2
  1

  9
$DIMSTYLE
  2
MASKIN
  9
$DIMCLRD
 70
   256
  9
$DIMCLRE
 70
   256
  9
$DIMCLRT
 70
     2
  9
$DIMTFAC
 40
1.0
  9
$DIMGAP
 40
1.0
  9
$LUNITS
 70
     2
  9
$LUPREC
 70
     8
  9
$SKETCHINC
 40
0.1
  9
$FILLETRAD
 40
0.0
  9
$AUNITS
 70
     0
  9
$AUPREC
 70
     8
  9
$MENU
  1
ACAD
  9
$ELEVATION
 40
0.0
  9
$PELEVATION
 40
0.0
  9
$THICKNESS
 40
0.0
  9
$LIMCHECK
 70
     0
  9
$BLIPMODE
 70
     0
  9
$CHAMFERA
 40
0.0
  9
$CHAMFERB
 40
0.0
  9
$SKPOLY
 70
     0
  9
$TDCREATE
 40
2455734.518348461
  9
$TDUPDATE
 40
2455994.5011229049
  9
$TDINDWG
 40
2.3123318171
  9
$TDUSRTIMER
 40
2.3123316318999998
  9
$USRTIMER
 70
     1
  9
$ANGBASE
 50
0.0
  9
$ANGDIR
 70
     0
  9
$PDMODE
 70
     0
  9
$PDSIZE
 40
0.0
  9
$PLINEWID
 40
0.0
  9
$COORDS
 70
     1
  9
$SPLFRAME
 70
     0
  9
$SPLINETYPE
 70
     6
  9
$SPLINESEGS
 70
     8
  9
$ATTDIA
 70
     0
  9
$ATTREQ
 70
     1
  9
$HANDLING
 70
     1
  9
$HANDSEED
  5
180B
  9
$SURFTAB1
 70
     6
  9
$SURFTAB2
 70
     6
  9
$SURFTYPE
 70
     6
  9
$SURFU
 70
     6
  9
$SURFV
 70
     6
  9
$UCSNAME
  2

  9
$UCSORG
 10
0.0
 20
0.0
 30
0.0
  9
$UCSXDIR
 10
1.0
 20
0.0
 30
0.0
  9
$UCSYDIR
 10
0.0
 20
1.0
 30
0.0
  9
$PUCSNAME
  2

  9
$PUCSORG
 10
0.0
 20
0.0
 30
0.0
  9
$PUCSXDIR
 10
1.0
 20
0.0
 30
0.0
  9
$PUCSYDIR
 10
0.0
 20
1.0
 30
0.0
  9
$USERI1
 70
     0
  9
$USERI2
 70
     0
  9
$USERI3
 70
     0
  9
$USERI4
 70
     0
  9
$USERI5
 70
     0
  9
$USERR1
 40
0.0
  9
$USERR2
 40
0.0
  9
$USERR3
 40
0.0
  9
$USERR4
 40
0.0
  9
$USERR5
 40
0.0
  9
$WORLDVIEW
 70
     1
  9
$SHADEDGE
 70
     3
  9
$SHADEDIF
 70
    70
  9
$TILEMODE
 70
     1
  9
$MAXACTVP
 70
    16
  9
$PLIMCHECK
 70
     0
  9
$PEXTMIN
 10
1.0000000000000000E+020
 20
1.0000000000000000E+020
 30
1.0000000000000000E+020
  9
$PEXTMAX
 10
-1.0000000000000000E+020
 20
-1.0000000000000000E+020
 30
-1.0000000000000000E+020
  9
$PLIMMIN
 10
-5.069427490234375
 20
-5.8737497329711914
  9
$PLIMMAX
 10
291.89889526367187
 20
204.0995779037475
  9
$UNITMODE
 70
     0
  9
$VISRETAIN
 70
     1
  9
$PLINEGEN
 70
     0
  9
$PSLTSCALE
 70
     1
  0
ENDSEC
  0
SECTION
  2
TABLES
  0
TABLE
  2
VPORT
 70
     1
  0
VPORT
  2
*ACTIVE
 70
     0
 10
0.0
 20
0.0
 11
1.0
 21
1.0
 12
86.548348814859295
 22
48.294168295001953
 13
0.0
 23
0.0
 14
1.0
 24
1.0
 15
0.0
 25
0.0
 16
0.0
 26
0.0
 36
1.0
 17
0.0
 27
0.0
 37
0.0
 40
149.34896140370401
 41
2.37391304347826
 42
50.0
 43
0.0
 44
0.0
 50
0.0
 51
0.0
 71
     0
 72
   100
 73
     1
 74
     1
 75
     0
 76
     0
 77
     0
 78
     0
  0
ENDTAB
  0
TABLE
  2
LTYPE
 70
     3
  0
LTYPE
  2
CONTINUOUS
 70
     0
  3
Solid line
 72
    65
 73
     0
 40
0.0
  0
LTYPE
  2
BYGG-027368$0$NEWDOT
 70
     0
  3
____ . ____ . ____ . ____ . ____ . ____ . ____
 72
    65
 73
     4
 40
2.0
 49
1.0
 49
-0.5
 49
0.0
 49
-0.5
  0
LTYPE
  2
BYGG-027378$0$NEWDOT
 70
     0
  3
____ . ____ . ____ . ____ . ____ . ____ . ____
 72
    65
 73
     4
 40
2.0
 49
1.0
 49
-0.5
 49
0.0
 49
-0.5
  0
ENDTAB
  0
TABLE
  2
LAYER
 70
    31
  0
LAYER
  2
0
 70
     0
 62
     7
  6
CONTINUOUS
  0
LAYER
  2
DEFPOINTS
 70
     0
 62
     7
  6
CONTINUOUS
  0
LAYER
  2
SAPA_ARTIKELNR
 70
     0
 62
     4
  6
CONTINUOUS
  0
LAYER
  2
SAPA_ANSLUTNING
 70
     0
 62
     6
  6
CONTINUOUS
  0
LAYER
  2
SAPA_MATT
 70
     0
 62
     1
  6
CONTINUOUS
  0
LAYER
  2
SAPA_GLAS
 70
     0
 62
     4
  6
CONTINUOUS
  0
LAYER
  2
SAPA_FOGBAND
 70
     0
 62
     2
  6
CONTINUOUS
  0
LAYER
  2
SAPA_PROFIL
 70
     0
 62
     7
  6
CONTINUOUS
  0
ENDTAB
  0
TABLE
  2
STYLE
 70
    12
  0
STYLE
  2
STANDARD
 70
     0
 40
0.0
 41
1.0
 50
0.0
 71
     0
 42
0.2
  3
txt
  4

  0
STYLE
  2
ISO
 70
     0
 40
0.0
 41
1.0
 50
0.0
 71
     0
 42
3.5
  3
txt
  4

  0
STYLE
  2
BYGG-027392$0$STANDARD
 70
     0
 40
0.0
 41
1.0
 50
0.0
 71
     0
 42
0.2
  3
txt
  4

  0
STYLE
  2
BYGG-027392$0$ISO
 70
     0
 40
0.0
 41
1.0
 50
0.0
 71
     0
 42
3.5
  3
txt
  4

  0
STYLE
  2
BYGG-027458$0$STANDARD
 70
     0
 40
0.0
 41
1.0
 50
0.0
 71
     0
 42
0.2
  3
txt
  4

  0
STYLE
  2
BYGG-027458$0$ISO
 70
     0
 40
0.0
 41
1.0
 50
0.0
 71
     0
 42
3.5
  3
txt
  4

  0
STYLE
  2
BYGG-027368$0$STANDARD
 70
     0
 40
0.0
 41
1.0
 50
0.0
 71
     0
 42
0.2
  3
txt
  4

  0
STYLE
  2
BYGG-027368$0$ISO
 70
     0
 40
0.0
 41
1.0
 50
0.0
 71
     0
 42
3.5
  3
txt
  4

  0
STYLE
  2
BYGG-027398$0$STANDARD
 70
     0
 40
0.0
 41
1.0
 50
0.0
 71
     0
 42
0.2
  3
txt
  4

  0
STYLE
  2
BYGG-027398$0$ISO
 70
     0
 40
0.0
 41
1.0
 50
0.0
 71
     0
 42
3.5
  3
txt
  4

  0
STYLE
  2
BYGG-027378$0$STANDARD
 70
     0
 40
0.0
 41
1.0
 50
0.0
 71
     0
 42
0.2
  3
txt
  4

  0
STYLE
  2
BYGG-027378$0$ISO
 70
     0
 40
0.0
 41
1.0
 50
0.0
 71
     0
 42
3.5
  3
txt
  4

  0
ENDTAB
  0
TABLE
  2
VIEW
 70
     0
  0
ENDTAB
  0
TABLE
  2
UCS
 70
     0
  0
ENDTAB
  0
TABLE
  2
APPID
 70
    28
  0
APPID
  2
ACAD
 70
     0
  0
APPID
  2
ACAD_DSTYLE_DIMTEXT_FILL
 70
     0
  0
APPID
  2
ACAD_DSTYLE_DIMEXT_LENGTH
 70
     0
  0
APPID
  2
ACAD_DSTYLE_DIMEXT_ENABLED
 70
     0
  0
APPID
  2
ACAD_DSTYLE_DIM_LINETYPE
 70
     0
  0
APPID
  2
ACAD_DSTYLE_DIM_EXT1_LINETYPE
 70
     0
  0
APPID
  2
ACAD_DSTYLE_DIM_EXT2_LINETYPE
 70
     0
  0
APPID
  2
ACAD_DSTYLE_DIMJOGGED_JOGA
 70
     0
  0
APPID
  2
ACAD_DSTYLE_DIMARC_LENGTH_
 70
     0
  0
APPID
  2
ACAD_PSEXT
 70
     0
  0
APPID
  2
ACAD_MLEADERVER
 70
     0
  0
APPID
  2
GENIUS_GENODEF_13
 70
     0
  0
APPID
  2
RC_PROFILE
 70
     0
  0
APPID
  2
ACAECLAYERSTANDARD
 70
     0
  0
APPID
  2
GENIUS_GENOBJ-N-FIL_13
 70
     0
  0
APPID
  2
ACADANNOTATIVE
 70
     0
  0
APPID
  2
ACAD_EXEMPT_FROM_CAD_STANDARDS
 70
     0
  0
APPID
  2
AEC_XDATA_BOUND_SPACE
 70
     0
  0
APPID
  2
ACAD_DSTYLE_DIMJAG
 70
     0
  0
APPID
  2
ACAD_DSTYLE_DIMTALN
 70
     0
  0
APPID
  2
GENIUS_GENREC_14
 70
     0
  0
APPID
  2
GENIUS_GENOBJ-N-REC_13
 70
     0
  0
APPID
  2
ACDBDYNAMICBLOCKTRUENAME
 70
     0
  0
APPID
  2
ACDBBLOCKREPETAG
 70
     0
  0
APPID
  2
ACDBDYNAMICBLOCKGUID
 70
     0
  0
APPID
  2
ACDBBLOCKREPBTAG
 70
     0
  0
APPID
  2
ACAD_NAV_VCDISPLAY
 70
     0
  0
APPID
  2
ACCMTRANSPARENCY
 70
     0
  0
ENDTAB
  0
TABLE
  2
DIMSTYLE
 70
     6
  0
DIMSTYLE
  2
MASKIN
 70
     0
  3

  4

  5

  6

  7

 40
0.0
 41
3.0
 42
1.5
 43
10.0
 44
1.5
 45
0.0
 46
0.0
 47
0.0
 48
0.0
140
3.5
141
-5.0
142
0.0
143
25.399999999999999
144
-1.0
145
0.0
146
1.0
147
1.0
 71
     0
 72
     0
 73
     0
 74
     0
 75
     0
 76
     0
 77
     1
 78
     8
170
     0
171
     0
172
     1
173
     0
174
     0
175
     0
176
   256
177
   256
178
     2
  0
DIMSTYLE
  2
BYGG-027392$0$MASKIN
 70
     0
  3

  4

  5

  6

  7

 40
0.0
 41
3.0
 42
1.5
 43
10.0
 44
1.5
 45
0.0
 46
0.0
 47
0.0
 48
0.0
140
3.0
141
-5.0
142
0.0
143
25.399999999999999
144
-1.0
145
0.0
146
1.0
147
1.0
 71
     0
 72
     0
 73
     0
 74
     0
 75
     0
 76
     0
 77
     1
 78
     8
170
     0
171
     0
172
     1
173
     0
174
     0
175
     0
176
   256
177
   256
178
     2
  0
DIMSTYLE
  2
BYGG-027458$0$MASKIN
 70
     0
  3

  4

  5

  6

  7

 40
0.0
 41
3.0
 42
1.5
 43
10.0
 44
1.5
 45
0.0
 46
0.0
 47
0.0
 48
0.0
140
3.0
141
-5.0
142
0.0
143
25.399999999999999
144
-1.0
145
0.0
146
1.0
147
1.0
 71
     0
 72
     0
 73
     0
 74
     0
 75
     0
 76
     0
 77
     1
 78
     8
170
     0
171
     0
172
     1
173
     0
174
     0
175
     0
176
   256
177
   256
178
     2
  0
DIMSTYLE
  2
BYGG-027368$0$MASKIN
 70
     0
  3

  4

  5

  6

  7

 40
0.0
 41
3.0
 42
1.5
 43
10.0
 44
1.5
 45
0.0
 46
0.0
 47
0.0
 48
0.0
140
3.0
141
-5.0
142
0.0
143
25.399999999999999
144
-1.0
145
0.0
146
1.0
147
1.0
 71
     0
 72
     0
 73
     0
 74
     0
 75
     0
 76
     0
 77
     1
 78
     8
170
     0
171
     0
172
     1
173
     0
174
     0
175
     0
176
   256
177
   256
178
     2
  0
DIMSTYLE
  2
BYGG-027398$0$MASKIN
 70
     0
  3

  4

  5

  6

  7

 40
0.0
 41
3.0
 42
1.5
 43
10.0
 44
1.5
 45
0.0
 46
0.0
 47
0.0
 48
0.0
140
3.0
141
-5.0
142
0.0
143
25.399999999999999
144
-1.0
145
0.0
146
1.0
147
1.0
 71
     0
 72
     0
 73
     0
 74
     0
 75
     0
 76
     0
 77
     1
 78
     8
170
     0
171
     0
172
     1
173
     0
174
     0
175
     0
176
   256
177
   256
178
     2
  0
DIMSTYLE
  2
BYGG-027378$0$MASKIN
 70
     0
  3

  4

  5

  6

  7

 40
0.0
 41
3.0
 42
1.5
 43
10.0
 44
1.5
 45
0.0
 46
0.0
 47
0.0
 48
0.0
140
3.0
141
-5.0
142
0.0
143
25.399999999999999
144
-1.0
145
0.0
146
1.0
147
1.0
 71
     0
 72
     0
 73
     0
 74
     0
 75
     0
 76
     0
 77
     1
 78
     8
170
     0
171
     0
172
     1
173
     0
174
     0
175
     0
176
   256
177
   256
178
     2
  0
ENDTAB
  0
ENDSEC
  0
SECTION
  2
BLOCKS
  0
BLOCK
  8
0
  2
$MODEL_SPACE
 70
     0
 10
0.0
 20
0.0
 30
0.0
  3
$MODEL_SPACE
  1

  0
ENDBLK
  5
37
  8
0
  0
BLOCK
 67
     1
  8
0
  2
$PAPER_SPACE
 70
     0
 10
0.0
 20
0.0
 30
0.0
  3
$PAPER_SPACE
  1

  0
ENDBLK
  5
35
 67
     1
  8
0
  0
BLOCK
  8
0
  2
*D24
 70
     1
 10
0.0
 20
0.0
 30
0.0
  3
*D24
  1

  0
LINE
  5
176B
  8
SAPA_MATT
 10
14.00000000000024
 20
-0.0000000000000138
 30
0.0
 11
-7.4999999999998179
 21
-0.0000000000000077
 31
0.0
  0
LINE
  5
176C
  8
SAPA_MATT
 10
20.75000000005971
 20
-5.000000000003693
 30
0.0
 11
-7.4999999999998188
 21
-5.0000000000036851
 31
0.0
  0
LINE
  5
176D
  8
SAPA_MATT
 10
-5.9999999999998179
 20
2.999999999999992
 30
0.0
 11
-5.9999999999998179
 21
5.9999999999999911
 31
0.0
  0
LINE
  5
176E
  8
SAPA_MATT
 10
-5.9999999999998206
 20
-8.0000000000036842
 30
0.0
 11
-5.9999999999998224
 21
-11.000000000003681
 31
0.0
  0
LINE
  5
176F
  8
SAPA_MATT
 10
-5.9999999999998188
 20
-0.0000000000000081
 30
0.0
 11
-5.9999999999998197
 21
-5.0000000000036859
 31
0.0
  0
SOLID
  5
1770
  8
SAPA_MATT
 10
-6.4999999999998179
 20
2.999999999999992
 30
0.0
 11
-5.4999999999998179
 21
2.999999999999992
 31
0.0
 12
-5.9999999999998188
 22
-0.0000000000000081
 32
0.0
 13
-5.9999999999998188
 23
-0.0000000000000081
 33
0.0
  0
SOLID
  5
1771
  8
SAPA_MATT
 10
-6.4999999999998206
 20
-8.0000000000036842
 30
0.0
 11
-5.4999999999998206
 21
-8.0000000000036842
 31
0.0
 12
-5.9999999999998197
 22
-5.0000000000036859
 32
0.0
 13
-5.9999999999998197
 23
-5.0000000000036859
 33
0.0
  0
TEXT
  8
SAPA_MATT
  40
3.5
  5
1786
  62
2
  72
0
  71
0
 10
-15.7500
 20
-8.69500
 30
0.000000
  1
5
  7
ISO
  0
POINT
  5
1773
  8
DEFPOINTS
 62
     0
 10
15.50000000000024
 20
-0.0000000000000142
 30
0.0
  0
POINT
  5
1774
  8
DEFPOINTS
 62
     0
 10
22.25000000005971
 20
-5.0000000000036939
 30
0.0
  0
POINT
  5
1775
  8
DEFPOINTS
 62
     0
 10
-5.9999999999998197
 20
-5.0000000000036859
 30
0.0
  0
ENDBLK
  5
F72
  8
0
  0
BLOCK
  8
0
  2
*D25
 70
     1
 10
0.0
 20
0.0
 30
0.0
  3
*D25
  1

  0
LINE
  5
FF5
  8
SAPA_MATT
 10
14.00000000000024
 20
-0.0000000000000142
 30
0.0
 11
14.00000000000024
 21
-45.500000000000128
 31
0.0
  0
LINE
  5
FF6
  8
SAPA_MATT
 10
20.500000000078789
 20
8.5000000001745502
 30
0.0
 11
20.500000000078789
 21
-45.500000000000128
 31
0.0
  0
LINE
  5
FF7
  8
SAPA_MATT
 10
11.00000000000024
 20
-44.000000000000121
 30
0.0
 11
8.000000000000238
 21
-44.000000000000121
 31
0.0
  0
LINE
  5
FF8
  8
SAPA_MATT
 10
23.500000000078789
 20
-44.000000000000121
 30
0.0
 11
26.500000000078789
 21
-44.000000000000121
 31
0.0
  0
LINE
  5
FF9
  8
SAPA_MATT
 10
14.00000000000024
 20
-44.000000000000121
 30
0.0
 11
20.500000000078789
 21
-44.000000000000121
 31
0.0
  0
SOLID
  5
FFA
  8
SAPA_MATT
 10
11.00000000000024
 20
-43.500000000000121
 30
0.0
 11
11.00000000000024
 21
-44.500000000000121
 31
0.0
 12
14.00000000000024
 22
-44.000000000000121
 32
0.0
 13
14.00000000000024
 23
-44.000000000000121
 33
0.0
  0
SOLID
  5
FFB
  8
SAPA_MATT
 10
23.500000000078789
 20
-43.500000000000121
 30
0.0
 11
23.500000000078789
 21
-44.500000000000121
 31
0.0
 12
20.500000000078789
 22
-44.000000000000121
 32
0.0
 13
20.500000000078789
 23
-44.000000000000121
 33
0.0
  0
INSERT
  5
FFC
  8
0
  2
*U40
 10
0.0
 20
0.0
 30
0.0
  0
POINT
  5
FFD
  8
DEFPOINTS
 62
     0
 10
14.00000000000024
 20
1.4999999999999849
 30
0.0
  0
POINT
  5
FFE
  8
DEFPOINTS
 62
     0
 10
20.500000000078789
 20
10.00000000017455
 30
0.0
  0
POINT
  5
FFF
  8
DEFPOINTS
 62
     0
 10
20.500000000078789
 20
-44.000000000000121
 30
0.0
  0
ENDBLK
  5
F80
  8
0
  0
BLOCK
  8
0
  2
*D26
 70
     1
 10
0.0
 20
0.0
 30
0.0
  3
*D26
  1

  0
LINE
  5
1762
  8
SAPA_MATT
 10
20.500000000078789
 20
8.5000000001745502
 30
0.0
 11
20.500000000078789
 21
-45.500000000000128
 31
0.0
  0
LINE
  5
1763
  8
SAPA_MATT
 10
67.499999999387086
 20
8.5000000001746088
 30
0.0
 11
67.499999999387086
 21
-45.500000000000128
 31
0.0
  0
LINE
  5
1764
  8
SAPA_MATT
 10
23.500000000078789
 20
-44.000000000000121
 30
0.0
 11
64.499999999387086
 21
-44.000000000000121
 31
0.0
  0
SOLID
  5
1765
  8
SAPA_MATT
 10
23.500000000078789
 20
-43.500000000000121
 30
0.0
 11
23.500000000078789
 21
-44.500000000000121
 31
0.0
 12
20.500000000078789
 22
-44.000000000000121
 32
0.0
 13
20.500000000078789
 23
-44.000000000000121
 33
0.0
  0
SOLID
  5
1766
  8
SAPA_MATT
 10
64.499999999387086
 20
-43.500000000000121
 30
0.0
 11
64.499999999387086
 21
-44.500000000000121
 31
0.0
 12
67.499999999387086
 22
-44.000000000000121
 32
0.0
 13
67.499999999387086
 23
-44.000000000000121
 33
0.0
  0
TEXT
  8
SAPA_MATT
  40
3.5
  5
1787
  62
2
  72
0
  71
0
 10
37.0000
 20
-47.4450
 30
0.000000
  1
47
  7
ISO
  0
POINT
  5
1768
  8
DEFPOINTS
 62
     0
 10
20.500000000078789
 20
10.00000000017455
 30
0.0
  0
POINT
  5
1769
  8
DEFPOINTS
 62
     0
 10
67.499999999387086
 20
10.000000000174611
 30
0.0
  0
POINT
  5
176A
  8
DEFPOINTS
 62
     0
 10
67.499999999387086
 20
-44.000000000000121
 30
0.0
  0
ENDBLK
  5
F8E
  8
0
  0
BLOCK
  8
0
  2
*D27
 70
     1
 10
0.0
 20
0.0
 30
0.0
  3
*D27
  1

  0
LINE
  5
1759
  8
SAPA_MATT
 10
67.499999999387086
 20
8.5000000001746088
 30
0.0
 11
67.499999999387086
 21
-45.500000000000149
 31
0.0
  0
LINE
  5
175A
  8
SAPA_MATT
 10
138.99999999950231
 20
0.0167835971555377
 30
0.0
 11
138.99999999950231
 21
-45.500000000000149
 31
0.0
  0
LINE
  5
175B
  8
SAPA_MATT
 10
70.499999999387086
 20
-44.000000000000149
 30
0.0
 11
135.99999999950231
 21
-44.000000000000149
 31
0.0
  0
TEXT
  8
SAPA_MATT
  40
3.5
  5
1788
  62
2
  72
0
  71
0
 10
95.8577
 20
-46.6845
 30
0.000000
  1
71.5
  7
ISO
  0
SOLID
  5
175D
  8
SAPA_MATT
 10
70.499999999387086
 20
-43.500000000000149
 30
0.0
 11
70.499999999387086
 21
-44.500000000000163
 31
0.0
 12
67.499999999387086
 22
-44.000000000000149
 32
0.0
 13
67.499999999387086
 23
-44.000000000000149
 33
0.0
  0
SOLID
  5
175E
  8
SAPA_MATT
 10
135.99999999950231
 20
-43.500000000000149
 30
0.0
 11
135.99999999950231
 21
-44.500000000000163
 31
0.0
 12
138.99999999950231
 22
-44.000000000000149
 32
0.0
 13
138.99999999950231
 23
-44.000000000000149
 33
0.0
  0
POINT
  5
175F
  8
DEFPOINTS
 62
     0
 10
67.499999999387086
 20
10.000000000174611
 30
0.0
  0
POINT
  5
1760
  8
DEFPOINTS
 62
     0
 10
138.99999999950231
 20
1.516783597155537
 30
0.0
  0
POINT
  5
1761
  8
DEFPOINTS
 62
     0
 10
138.99999999950231
 20
-44.000000000000149
 30
0.0
  0
ENDBLK
  5
F9A
  8
0
  0
BLOCK
  8
0
  2
*D28
 70
     1
 10
0.0
 20
0.0
 30
0.0
  3
*D28
  1

  0
LINE
  5
FDA
  8
SAPA_MATT
 10
14.00000000000024
 20
-0.0000000000000142
 30
0.0
 11
14.00000000000024
 21
-57.500000000000099
 31
0.0
  0
LINE
  5
FDB
  8
SAPA_MATT
 10
138.99999999950231
 20
0.0167835971555377
 30
0.0
 11
138.99999999950231
 21
-57.500000000000099
 31
0.0
  0
LINE
  5
FDC
  8
SAPA_MATT
 10
17.000000000000242
 20
-56.000000000000099
 30
0.0
 11
135.99999999950231
 21
-56.000000000000099
 31
0.0
  0
SOLID
  5
FDD
  8
SAPA_MATT
 10
17.000000000000242
 20
-55.500000000000099
 30
0.0
 11
17.000000000000242
 21
-56.500000000000099
 31
0.0
 12
14.00000000000024
 22
-56.000000000000099
 32
0.0
 13
14.00000000000024
 23
-56.000000000000099
 33
0.0
  0
SOLID
  5
FDE
  8
SAPA_MATT
 10
135.99999999950231
 20
-55.500000000000099
 30
0.0
 11
135.99999999950231
 21
-56.500000000000099
 31
0.0
 12
138.99999999950231
 22
-56.000000000000099
 32
0.0
 13
138.99999999950231
 23
-56.000000000000099
 33
0.0
  0
INSERT
  5
FDF
  8
0
  2
*U39
 10
0.0
 20
0.0
 30
0.0
  0
POINT
  5
FE0
  8
DEFPOINTS
 62
     0
 10
14.00000000000024
 20
1.4999999999999849
 30
0.0
  0
POINT
  5
FE1
  8
DEFPOINTS
 62
     0
 10
138.99999999950231
 20
1.516783597155537
 30
0.0
  0
POINT
  5
FE2
  8
DEFPOINTS
 62
     0
 10
138.99999999950231
 20
-56.000000000000099
 30
0.0
  0
ENDBLK
  5
FA6
  8
0
  0
BLOCK
  8
0
  2
*D29
 70
     1
 10
0.0
 20
0.0
 30
0.0
  3
*D29
  1

  0
LINE
  5
FD1
  8
SAPA_MATT
 10
12.80000007175777
 20
59.999999999999872
 30
0.0
 11
-7.4999999282524126
 21
59.999999999999872
 31
0.0
  0
LINE
  5
FD2
  8
SAPA_MATT
 10
14.00000007174763
 20
-0.0000000000000138
 30
0.0
 11
-7.499999928252425
 21
-0.0000000000000077
 31
0.0
  0
LINE
  5
FD3
  8
SAPA_MATT
 10
-5.9999999282524117
 20
56.999999999999872
 30
0.0
 11
-5.9999999282524241
 21
2.999999999999992
 31
0.0
  0
SOLID
  5
FD4
  8
SAPA_MATT
 10
-6.4999999282524117
 20
56.999999999999872
 30
0.0
 11
-5.4999999282524117
 21
56.999999999999872
 31
0.0
 12
-5.9999999282524108
 22
59.999999999999872
 32
0.0
 13
-5.9999999282524108
 23
59.999999999999872
 33
0.0
  0
SOLID
  5
FD5
  8
SAPA_MATT
 10
-6.4999999282524241
 20
2.999999999999992
 30
0.0
 11
-5.4999999282524241
 21
2.999999999999992
 31
0.0
 12
-5.999999928252425
 22
-0.0000000000000081
 32
0.0
 13
-5.999999928252425
 23
-0.0000000000000081
 33
0.0
  0
INSERT
  5
FD6
  8
0
  2
*U38
 10
0.0
 20
0.0
 30
0.0
  0
POINT
  5
FD7
  8
DEFPOINTS
 62
     0
 10
14.30000007175777
 20
59.999999999999872
 30
0.0
  0
POINT
  5
FD8
  8
DEFPOINTS
 62
     0
 10
15.50000007174763
 20
-0.0000000000000142
 30
0.0
  0
POINT
  5
FD9
  8
DEFPOINTS
 62
     0
 10
-5.999999928252425
 20
-0.0000000000000081
 30
0.0
  0
ENDBLK
  5
FB2
  8
0
  0
BLOCK
  8
0
  2
*D30
 70
     1
 10
0.0
 20
0.0
 30
0.0
  3
*D30
  1

  0
LINE
  5
FC8
  8
SAPA_MATT
 10
20.75000000005971
 20
-5.000000000003693
 30
0.0
 11
-19.4999999282524
 21
-5.0000000000036824
 31
0.0
  0
LINE
  5
FC9
  8
SAPA_MATT
 10
12.80000007175777
 20
59.999999999999872
 30
0.0
 11
-19.499999928252379
 21
59.999999999999879
 31
0.0
  0
LINE
  5
FCA
  8
SAPA_MATT
 10
-17.9999999282524
 20
-2.0000000000036819
 30
0.0
 11
-17.999999928252379
 21
56.999999999999879
 31
0.0
  0
SOLID
  5
FCB
  8
SAPA_MATT
 10
-18.4999999282524
 20
-2.0000000000036819
 30
0.0
 11
-17.4999999282524
 21
-2.0000000000036819
 31
0.0
 12
-17.9999999282524
 22
-5.0000000000036833
 32
0.0
 13
-17.9999999282524
 23
-5.0000000000036833
 33
0.0
  0
SOLID
  5
FCC
  8
SAPA_MATT
 10
-18.499999928252379
 20
56.999999999999879
 30
0.0
 11
-17.499999928252379
 21
56.999999999999879
 31
0.0
 12
-17.999999928252379
 22
59.999999999999879
 32
0.0
 13
-17.999999928252379
 23
59.999999999999879
 33
0.0
  0
INSERT
  5
FCD
  8
0
  2
*U37
 10
0.0
 20
0.0
 30
0.0
  0
POINT
  5
FCE
  8
DEFPOINTS
 62
     0
 10
22.25000000005971
 20
-5.0000000000036939
 30
0.0
  0
POINT
  5
FCF
  8
DEFPOINTS
 62
     0
 10
14.30000007175777
 20
59.999999999999872
 30
0.0
  0
POINT
  5
FD0
  8
DEFPOINTS
 62
     0
 10
-17.999999928252379
 20
59.999999999999879
 30
0.0
  0
ENDBLK
  5
FBE
  8
0
  0
BLOCK
  8
0
  2
*X31
 70
     1
 10
0.0
 20
0.0
 30
0.0
  3
*X31
  1

  0
LINE
  5
104C
  8
0
 62
     0
 10
139.04522034171541
 20
11.58237381436807
 30
0.0
 11
138.9999999277548
 21
11.53715340040748
 31
0.0
  0
LINE
  5
104D
  8
0
 62
     0
 10
139.2314874681837
 20
10.646108925702681
 30
0.0
 11
138.9999999277548
 21
10.414621385273851
 31
0.0
  0
LINE
  5
104E
  8
0
 62
     0
 10
139.52875225443631
 20
9.8208416968216525
 30
0.0
 11
138.9999999277548
 21
9.2920893701402107
 31
0.0
  0
LINE
  5
104F
  8
0
 62
     0
 10
139.9191616399809
 20
9.0887190672326028
 30
0.0
 11
138.9999999277548
 21
8.1695573550065816
 31
0.0
  0
LINE
  5
1050
  8
0
 62
     0
 10
140.39481471665391
 20
8.4418401287720144
 30
0.0
 11
138.9999999277548
 21
7.0470253398729454
 31
0.0
  0
LINE
  5
1051
  8
0
 62
     0
 10
140.95430362486559
 20
7.8787970218500831
 30
0.0
 11
138.9999999277548
 21
5.9244933247393021
 31
0.0
  0
LINE
  5
1052
  8
0
 62
     0
 10
141.60217573133579
 20
7.4041371131866001
 30
0.0
 11
138.99999992775491
 21
4.8019613096056872
 31
0.0
  0
LINE
  5
1053
  8
0
 62
     0
 10
142.350754410766
 20
7.0301837774831384
 30
0.0
 11
138.99999992775491
 21
3.679429294472043
 31
0.0
  0
LINE
  5
1054
  8
0
 62
     0
 10
143.22638571836211
 20
6.783283069945667
 30
0.0
 11
138.99999992775491
 21
2.556897279338421
 31
0.0
  0
LINE
  5
1055
  8
0
 62
     0
 10
144.29073942841049
 20
6.7251047648603466
 30
0.0
 11
138.9984966711545
 21
1.432862007604349
 31
0.0
  0
LINE
  5
1056
  8
0
 62
     0
 10
148.99999992775491
 20
11.43436526420477
 30
0.0
 11
148.92363608602119
 21
11.35800142247108
 31
0.0
  0
LINE
  5
1057
  8
0
 62
     0
 10
145.76608656589531
 20
7.0779198872115643
 30
0.0
 11
139.2593802864638
 21
0.5712136077800949
 31
0.0
  0
LINE
  5
1058
  8
0
 62
     0
 10
148.99999992775491
 20
10.31183324907115
 30
0.0
 11
148.43999006965689
 21
9.7518233909731151
 31
0.0
  0
LINE
  5
1059
  8
0
 62
     0
 10
148.99999992775491
 20
9.1893012339374902
 30
0.0
 11
140.5651190718105
 21
0.7544203779931422
 31
0.0
  0
LINE
  5
105A
  8
0
 62
     0
 10
148.99999992775491
 20
8.0667692188038558
 30
0.0
 11
141.78591990860059
 21
0.8526891996495749
 31
0.0
  0
LINE
  5
105B
  8
0
 62
     0
 10
148.99999992775491
 20
6.9442372036702116
 30
0.0
 11
142.93738136333161
 21
0.8816186392468736
 31
0.0
  0
LINE
  5
105C
  8
0
 62
     0
 10
148.99999992775491
 20
5.821705188536562
 30
0.0
 11
144.0303604129823
 21
0.8520656737639811
 31
0.0
  0
LINE
  5
105D
  8
0
 62
     0
 10
148.99999992775491
 20
4.6991731734029178
 30
0.0
 11
145.07276903546679
 21
0.7719422811148178
 31
0.0
  0
LINE
  5
105E
  8
0
 62
     0
 10
148.99999992775491
 20
3.576641158269275
 30
0.0
 11
146.07057661514159
 21
0.647217845656023
 31
0.0
  0
LINE
  5
105F
  8
0
 62
     0
 10
148.99999992775491
 20
2.4541091431356321
 30
0.0
 11
147.02840957961479
 21
0.4825187949955421
 31
0.0
  0
LINE
  5
1060
  8
0
 62
     0
 10
148.99999992775491
 20
1.3315771280019879
 30
0.0
 11
147.94993012140279
 21
0.2815073216498547
 31
0.0
  0
LINE
  5
1061
  8
0
 62
     0
 10
148.99999992775491
 20
0.2090451128683455
 30
0.0
 11
148.83808603074019
 21
0.0471312158536392
 31
0.0
  0
LINE
  5
1062
  8
0
 62
     0
 10
138.85117536343199
 20
0.848597711055234
 30
0.0
 11
139.14798551123411
 21
0.5517875632531571
 31
0.0
  0
LINE
  5
1063
  8
0
 62
     0
 10
138.99999992775491
 20
1.8223051618659689
 30
0.0
 11
140.121051036469
 21
0.7012540531518141
 31
0.0
  0
LINE
  5
1064
  8
0
 62
     0
 10
138.99999992775491
 20
2.944837176999612
 30
0.0
 11
141.1357776586577
 21
0.8090594460968105
 31
0.0
  0
LINE
  5
1065
  8
0
 62
     0
 10
138.9999999277548
 20
4.0673691921332704
 30
0.0
 11
142.19726507094541
 21
0.8701040489427782
 31
0.0
  0
LINE
  5
1066
  8
0
 62
     0
 10
138.99999992775491
 20
5.1899012072669128
 30
0.0
 11
143.312158020276
 21
0.8777431147457548
 31
0.0
  0
LINE
  5
1067
  8
0
 62
     0
 10
138.9999999277548
 20
6.3124332224005846
 30
0.0
 11
144.4893749164838
 21
0.823058233671631
 31
0.0
  0
LINE
  5
1068
  8
0
 62
     0
 10
138.9999999277548
 20
7.4349652375342279
 30
0.0
 11
145.74135694743811
 21
0.693608217850951
 31
0.0
  0
LINE
  5
1069
  8
0
 62
     0
 10
138.9999999277548
 20
8.5574972526679005
 30
0.0
 11
147.08638223333489
 21
0.4711149470877701
 31
0.0
  0
LINE
  5
106A
  8
0
 62
     0
 10
138.9999999277548
 20
9.6800292678015438
 30
0.0
 11
148.55332920463431
 21
0.1266999909220345
 31
0.0
  0
LINE
  5
106B
  8
0
 62
     0
 10
142.9652894401022
 20
6.8372717705878321
 30
0.0
 11
148.99999992775491
 21
0.8025612829351018
 31
0.0
  0
LINE
  5
106C
  8
0
 62
     0
 10
138.9999999277548
 20
10.802561282935191
 30
0.0
 11
139.2621674097139
 21
10.54039380097602
 31
0.0
  0
LINE
  5
106D
  8
0
 62
     0
 10
144.20478292540051
 20
6.7203103004231934
 30
0.0
 11
148.99999992775491
 21
1.925093298068745
 31
0.0
  0
LINE
  5
106E
  8
0
 62
     0
 10
138.9999999277548
 20
11.92509329806887
 30
0.0
 11
139.01437504553621
 21
11.91071818028743
 31
0.0
  0
LINE
  5
106F
  8
0
 62
     0
 10
145.1746978766908
 20
6.8729273642665021
 30
0.0
 11
148.99999992775491
 21
3.047625313202416
 31
0.0
  0
LINE
  5
1070
  8
0
 62
     0
 10
145.99012238386979
 20
7.1800348722211282
 30
0.0
 11
148.99999992775491
 21
4.170157328336046
 31
0.0
  0
LINE
  5
1071
  8
0
 62
     0
 10
146.69249089581629
 20
7.6001983754082678
 30
0.0
 11
148.99999992775491
 21
5.2926893434696751
 31
0.0
  0
LINE
  5
1072
  8
0
 62
     0
 10
147.30074304130949
 20
8.1144782450487725
 30
0.0
 11
148.99999992775491
 21
6.4152213586033184
 31
0.0
  0
LINE
  5
1073
  8
0
 62
     0
 10
147.82338657536459
 20
8.7143667261272384
 30
0.0
 11
148.99999992775491
 21
7.5377533737369751
 31
0.0
  0
LINE
  5
1074
  8
0
 62
     0
 10
148.26229306071221
 20
9.3979922559132802
 30
0.0
 11
148.99999992775491
 21
8.6602853888706051
 31
0.0
  0
LINE
  5
1075
  8
0
 62
     0
 10
148.61341571772149
 20
10.169401614037641
 30
0.0
 11
148.99999992775491
 21
9.7828174040042484
 31
0.0
  0
LINE
  5
1076
  8
0
 62
     0
 10
148.8651857786289
 20
11.040163568263919
 30
0.0
 11
148.99999992775491
 21
10.90534941913789
 31
0.0
  0
LINE
  5
1077
  8
0
 62
     0
 10
148.99279897802489
 20
12.035082384001569
 30
0.0
 11
148.99999992775491
 21
12.02788143427153
 31
0.0
  0
ENDBLK
  5
1079
  8
0
  0
BLOCK
  8
0
  2
*X32
 70
     1
 10
0.0
 20
0.0
 30
0.0
  3
*X32
  1

  0
LINE
  5
107B
  8
0
 62
     0
 10
142.4781050852867
 20
7.0695983546618919
 30
0.0
 11
142.54131339093519
 21
6.960118357818466
 31
0.0
  0
LINE
  5
107C
  8
0
 62
     0
 10
141.2874800852868
 20
9.1318213474235872
 30
0.0
 11
141.6843550852868
 21
8.4444136831696852
 31
0.0
  0
LINE
  5
107D
  8
0
 62
     0
 10
140.09685508528679
 20
11.194044340185281
 30
0.0
 11
140.49373008528681
 21
10.506636675931381
 31
0.0
  0
LINE
  5
107E
  8
0
 62
     0
 10
139.03797136426141
 20
13.028084744308901
 30
0.0
 11
139.3031050852868
 21
12.56885966869307
 31
0.0
  0
LINE
  5
107F
  8
0
 62
     0
 10
143.66872980079069
 20
7.7570058546618768
 30
0.0
 11
144.06560480079071
 21
7.0695981904079748
 31
0.0
  0
LINE
  5
1080
  8
0
 62
     0
 10
142.4781048007907
 20
9.819228847423572
 30
0.0
 11
142.8749798007907
 21
9.1318211831696701
 31
0.0
  0
LINE
  5
1081
  8
0
 62
     0
 10
141.28747980079069
 20
11.881451840185269
 30
0.0
 11
141.68435480079069
 21
11.19404417593136
 31
0.0
  0
LINE
  5
1082
  8
0
 62
     0
 10
140.09685480079071
 20
13.943674832946961
 30
0.0
 11
140.4937298007907
 21
13.256267168693061
 31
0.0
  0
LINE
  5
1083
  8
0
 62
     0
 10
144.85935451629459
 20
8.4444133546618847
 30
0.0
 11
145.2562295162945
 21
7.7570056904079818
 31
0.0
  0
LINE
  5
1084
  8
0
 62
     0
 10
143.6687295162946
 20
10.50663634742358
 30
0.0
 11
144.0656045162946
 21
9.819228683169678
 31
0.0
  0
LINE
  5
1085
  8
0
 62
     0
 10
142.47810451629459
 20
12.56885934018527
 30
0.0
 11
142.87497951629459
 21
11.88145167593137
 31
0.0
  0
LINE
  5
1086
  8
0
 62
     0
 10
141.28747951629461
 20
14.631082332946971
 30
0.0
 11
141.6843545162946
 21
13.94367466869307
 31
0.0
  0
LINE
  5
1087
  8
0
 62
     0
 10
140.37616464357211
 20
16.20952599419547
 30
0.0
 11
140.49372951629459
 21
16.00589766145476
 31
0.0
  0
LINE
  5
1088
  8
0
 62
     0
 10
146.04997923179849
 20
9.1318208546618873
 30
0.0
 11
146.44685423179851
 21
8.4444131904079853
 31
0.0
  0
LINE
  5
1089
  8
0
 62
     0
 10
144.85935423179851
 20
11.194043847423581
 30
0.0
 11
145.2562292317985
 21
10.506636183169681
 31
0.0
  0
LINE
  5
108A
  8
0
 62
     0
 10
143.66872923179849
 20
13.25626684018528
 30
0.0
 11
144.06560423179849
 21
12.568859175931371
 31
0.0
  0
LINE
  5
108B
  8
0
 62
     0
 10
142.47810423179851
 20
15.31848983294697
 30
0.0
 11
142.87497923179851
 21
14.631082168693069
 31
0.0
  0
LINE
  5
108C
  8
0
 62
     0
 10
141.41983199668559
 20
17.151471112402049
 30
0.0
 11
141.68435423179849
 21
16.69330516145477
 31
0.0
  0
LINE
  5
108D
  8
0
 62
     0
 10
147.24060394730239
 20
9.8192283546618793
 30
0.0
 11
147.63747894730241
 21
9.1318206904079773
 31
0.0
  0
LINE
  5
108E
  8
0
 62
     0
 10
146.04997894730241
 20
11.881451347423569
 30
0.0
 11
146.4468539473024
 21
11.194043683169671
 31
0.0
  0
LINE
  5
108F
  8
0
 62
     0
 10
144.8593539473024
 20
13.94367434018527
 30
0.0
 11
145.25622894730239
 21
13.25626667593137
 31
0.0
  0
LINE
  5
1090
  8
0
 62
     0
 10
143.66872894730241
 20
16.005897332946962
 30
0.0
 11
144.06560394730241
 21
15.31848966869306
 31
0.0
  0
LINE
  5
1091
  8
0
 62
     0
 10
142.66048067273141
 20
17.75223457114765
 30
0.0
 11
142.8749789473024
 21
17.380712661454758
 31
0.0
  0
LINE
  5
1092
  8
0
 62
     0
 10
148.43122866280629
 20
10.50663585466188
 30
0.0
 11
148.6183066741616
 21
10.18260723401559
 31
0.0
  0
LINE
  5
1093
  8
0
 62
     0
 10
147.24060366280631
 20
12.568858847423581
 30
0.0
 11
147.6374786628063
 21
11.881451183169681
 31
0.0
  0
LINE
  5
1094
  8
0
 62
     0
 10
146.0499786628063
 20
14.63108184018528
 30
0.0
 11
146.44685366280629
 21
13.94367417593137
 31
0.0
  0
LINE
  5
1095
  8
0
 62
     0
 10
144.85935366280631
 20
16.693304832946971
 30
0.0
 11
145.25622866280631
 21
16.005897168693071
 31
0.0
  0
LINE
  5
1096
  8
0
 62
     0
 10
148.43122837831021
 20
13.25626634742358
 30
0.0
 11
148.8281033783102
 21
12.56885868316968
 31
0.0
  0
LINE
  5
1097
  8
0
 62
     0
 10
147.2406033783102
 20
15.31848934018527
 30
0.0
 11
147.63747837831019
 21
14.63108167593137
 31
0.0
  0
LINE
  5
1098
  8
0
 62
     0
 10
146.04997837831019
 20
17.38071233294697
 30
0.0
 11
146.44685337831021
 21
16.69330466869307
 31
0.0
  0
LINE
  5
1099
  8
0
 62
     0
 10
139.3030951279234
 20
12.56888841312527
 30
0.0
 11
139.00628919786649
 21
12.05480546227899
 31
0.0
  0
LINE
  5
109A
  8
0
 62
     0
 10
140.49372012792341
 20
14.63111140588696
 30
0.0
 11
140.09684512792339
 21
13.94370374163306
 31
0.0
  0
LINE
  5
109B
  8
0
 62
     0
 10
141.68434512792339
 20
16.693334398648659
 30
0.0
 11
141.2874701279234
 21
16.005926734394759
 31
0.0
  0
LINE
  5
109C
  8
0
 62
     0
 10
140.4937198434273
 20
11.881480913125269
 30
0.0
 11
140.09684484342731
 21
11.194073248871369
 31
0.0
  0
LINE
  5
109D
  8
0
 62
     0
 10
141.68434484342731
 20
13.943703905886959
 30
0.0
 11
141.28746984342729
 21
13.256296241633059
 31
0.0
  0
LINE
  5
109E
  8
0
 62
     0
 10
142.87496984342729
 20
16.005926898648649
 30
0.0
 11
142.4780948434273
 21
15.318519234394749
 31
0.0
  0
LINE
  5
109F
  8
0
 62
     0
 10
144.0018313472878
 20
17.957708276428441
 30
0.0
 11
143.66871984342731
 21
17.38074222715645
 31
0.0
  0
LINE
  5
10A0
  8
0
 62
     0
 10
140.4937195589313
 20
9.1318504203635786
 30
0.0
 11
140.21983906125081
 21
8.6574754831788034
 31
0.0
  0
LINE
  5
10A1
  8
0
 62
     0
 10
141.6843445589312
 20
11.19407341312527
 30
0.0
 11
141.28746955893121
 21
10.50666574887137
 31
0.0
  0
LINE
  5
10A2
  8
0
 62
     0
 10
142.87496955893121
 20
13.25629640588696
 30
0.0
 11
142.47809455893119
 21
12.56888874163306
 31
0.0
  0
LINE
  5
10A3
  8
0
 62
     0
 10
144.0655945589312
 20
15.318519398648659
 30
0.0
 11
143.6687195589312
 21
14.63111173439475
 31
0.0
  0
LINE
  5
10A4
  8
0
 62
     0
 10
145.25621955893121
 20
17.380742391410351
 30
0.0
 11
144.85934455893121
 21
16.693334727156451
 31
0.0
  0
LINE
  5
10A5
  8
0
 62
     0
 10
141.68434427443509
 20
8.4444429203635725
 30
0.0
 11
141.28746927443521
 21
7.7570352561096714
 31
0.0
  0
LINE
  5
10A6
  8
0
 62
     0
 10
142.8749692744351
 20
10.506665913125261
 30
0.0
 11
142.47809427443511
 21
9.819258248871364
 31
0.0
  0
LINE
  5
10A7
  8
0
 62
     0
 10
144.06559427443511
 20
12.56888890588696
 30
0.0
 11
143.66871927443509
 21
11.881481241633059
 31
0.0
  0
LINE
  5
10A8
  8
0
 62
     0
 10
145.2562192744351
 20
14.631111898648649
 30
0.0
 11
144.8593442744351
 21
13.943704234394749
 31
0.0
  0
LINE
  5
10A9
  8
0
 62
     0
 10
146.44684427443511
 20
16.693334891410341
 30
0.0
 11
146.04996927443511
 21
16.005927227156441
 31
0.0
  0
LINE
  5
10AA
  8
0
 62
     0
 10
142.87496898993899
 20
7.757035420363553
 30
0.0
 11
142.47809398993911
 21
7.0696277561096537
 31
0.0
  0
LINE
  5
10AB
  8
0
 62
     0
 10
144.065593989939
 20
9.8192584131252474
 30
0.0
 11
143.66871898993901
 21
9.1318507488713472
 31
0.0
  0
LINE
  5
10AC
  8
0
 62
     0
 10
145.25621898993899
 20
11.881481405886939
 30
0.0
 11
144.85934398993899
 21
11.194073741633041
 31
0.0
  0
LINE
  5
10AD
  8
0
 62
     0
 10
146.446843989939
 20
13.943704398648631
 30
0.0
 11
146.049968989939
 21
13.256296734394731
 31
0.0
  0
LINE
  5
10AE
  8
0
 62
     0
 10
147.63746898993901
 20
16.005927391410331
 30
0.0
 11
147.24059398993899
 21
15.318519727156421
 31
0.0
  0
LINE
  5
10AF
  8
0
 62
     0
 10
144.06559370544301
 20
7.0696279203635761
 30
0.0
 11
143.86242080379969
 21
6.7177221319962372
 31
0.0
  0
LINE
  5
10B0
  8
0
 62
     0
 10
145.2562187054429
 20
9.1318509131252696
 30
0.0
 11
144.85934370544291
 21
8.4444432488713712
 31
0.0
  0
LINE
  5
10B1
  8
0
 62
     0
 10
146.44684370544289
 20
11.19407390588696
 30
0.0
 11
146.04996870544289
 21
10.506666241633059
 31
0.0
  0
LINE
  5
10B2
  8
0
 62
     0
 10
147.6374687054429
 20
13.25629689864866
 30
0.0
 11
147.2405937054429
 21
12.56888923439476
 31
0.0
  0
LINE
  5
10B3
  8
0
 62
     0
 10
148.5089946183455
 20
14.765824059908759
 30
0.0
 11
148.43121870544289
 21
14.63111222715645
 31
0.0
  0
LINE
  5
10B4
  8
0
 62
     0
 10
146.44684342094681
 20
8.4444434131252581
 30
0.0
 11
146.04996842094681
 21
7.7570357488713597
 31
0.0
  0
LINE
  5
10B5
  8
0
 62
     0
 10
147.63746842094679
 20
10.50666640588695
 30
0.0
 11
147.24059342094679
 21
9.8192587416330532
 31
0.0
  0
LINE
  5
10B6
  8
0
 62
     0
 10
148.8280934209468
 20
12.56888939864864
 30
0.0
 11
148.43121842094681
 21
11.88148173439474
 31
0.0
  0
LINE
  5
10B7
  8
0
 62
     0
 10
145.25625000001361
 20
7.7570299999848942
 30
0.0
 11
146.0500000000136
 21
7.7570299999848942
 31
0.0
  0
LINE
  5
10B8
  8
0
 62
     0
 10
142.87500000001361
 20
7.7570299999848942
 30
0.0
 11
143.6687500000136
 21
7.7570299999848942
 31
0.0
  0
LINE
  5
10B9
  8
0
 62
     0
 10
141.1007687474137
 20
7.7570299999848942
 30
0.0
 11
141.28750000001361
 21
7.7570299999848942
 31
0.0
  0
LINE
  5
10BA
  8
0
 62
     0
 10
147.6375000000136
 20
9.1318449999848994
 30
0.0
 11
148.10772746508269
 21
9.1318449999848994
 31
0.0
  0
LINE
  5
10BB
  8
0
 62
     0
 10
145.25625000001361
 20
9.1318449999848994
 30
0.0
 11
146.0500000000136
 21
9.1318449999848994
 31
0.0
  0
LINE
  5
10BC
  8
0
 62
     0
 10
142.87500000001361
 20
9.1318449999848994
 30
0.0
 11
143.6687500000136
 21
9.1318449999848994
 31
0.0
  0
LINE
  5
10BD
  8
0
 62
     0
 10
140.49375000001359
 20
9.1318449999848994
 30
0.0
 11
141.28750000001361
 21
9.1318449999848994
 31
0.0
  0
LINE
  5
10BE
  8
0
 62
     0
 10
147.6375000000136
 20
10.50665999998489
 30
0.0
 11
148.43125000001359
 21
10.50665999998489
 31
0.0
  0
LINE
  5
10BF
  8
0
 62
     0
 10
145.25625000001361
 20
10.50665999998489
 30
0.0
 11
146.0500000000136
 21
10.50665999998489
 31
0.0
  0
LINE
  5
10C0
  8
0
 62
     0
 10
142.87500000001361
 20
10.50665999998489
 30
0.0
 11
143.6687500000136
 21
10.50665999998489
 31
0.0
  0
LINE
  5
10C1
  8
0
 62
     0
 10
140.49375000001359
 20
10.50665999998489
 30
0.0
 11
141.28750000001361
 21
10.50665999998489
 31
0.0
  0
LINE
  5
10C2
  8
0
 62
     0
 10
147.6375000000136
 20
11.88147499998489
 30
0.0
 11
148.43125000001359
 21
11.88147499998489
 31
0.0
  0
LINE
  5
10C3
  8
0
 62
     0
 10
145.25625000001361
 20
11.88147499998489
 30
0.0
 11
146.0500000000136
 21
11.88147499998489
 31
0.0
  0
LINE
  5
10C4
  8
0
 62
     0
 10
142.87500000001361
 20
11.88147499998489
 30
0.0
 11
143.6687500000136
 21
11.88147499998489
 31
0.0
  0
LINE
  5
10C5
  8
0
 62
     0
 10
140.49375000001359
 20
11.88147499998489
 30
0.0
 11
141.28750000001361
 21
11.88147499998489
 31
0.0
  0
LINE
  5
10C6
  8
0
 62
     0
 10
147.6375000000136
 20
13.256289999984901
 30
0.0
 11
148.43125000001359
 21
13.256289999984901
 31
0.0
  0
LINE
  5
10C7
  8
0
 62
     0
 10
145.25625000001361
 20
13.256289999984901
 30
0.0
 11
146.0500000000136
 21
13.256289999984901
 31
0.0
  0
LINE
  5
10C8
  8
0
 62
     0
 10
142.87500000001361
 20
13.256289999984901
 30
0.0
 11
143.6687500000136
 21
13.256289999984901
 31
0.0
  0
LINE
  5
10C9
  8
0
 62
     0
 10
140.49375000001359
 20
13.256289999984901
 30
0.0
 11
141.28750000001361
 21
13.256289999984901
 31
0.0
  0
LINE
  5
10CA
  8
0
 62
     0
 10
147.6375000000136
 20
14.631104999984901
 30
0.0
 11
148.43125000001359
 21
14.631104999984901
 31
0.0
  0
LINE
  5
10CB
  8
0
 62
     0
 10
145.25625000001361
 20
14.631104999984901
 30
0.0
 11
146.0500000000136
 21
14.631104999984901
 31
0.0
  0
LINE
  5
10CC
  8
0
 62
     0
 10
142.87500000001361
 20
14.631104999984901
 30
0.0
 11
143.6687500000136
 21
14.631104999984901
 31
0.0
  0
LINE
  5
10CD
  8
0
 62
     0
 10
140.49375000001359
 20
14.631104999984901
 30
0.0
 11
141.28750000001361
 21
14.631104999984901
 31
0.0
  0
LINE
  5
10CE
  8
0
 62
     0
 10
147.6375000000136
 20
16.005919999984901
 30
0.0
 11
147.78777218175779
 21
16.005919999984901
 31
0.0
  0
LINE
  5
10CF
  8
0
 62
     0
 10
145.25625000001361
 20
16.005919999984901
 30
0.0
 11
146.0500000000136
 21
16.005919999984901
 31
0.0
  0
LINE
  5
10D0
  8
0
 62
     0
 10
142.87500000001361
 20
16.005919999984901
 30
0.0
 11
143.6687500000136
 21
16.005919999984901
 31
0.0
  0
LINE
  5
10D1
  8
0
 62
     0
 10
140.49375000001359
 20
16.005919999984901
 30
0.0
 11
141.28750000001361
 21
16.005919999984901
 31
0.0
  0
LINE
  5
10D2
  8
0
 62
     0
 10
145.25625000001361
 20
17.380734999984892
 30
0.0
 11
146.0500000000136
 21
17.380734999984892
 31
0.0
  0
LINE
  5
10D3
  8
0
 62
     0
 10
142.87500000001361
 20
17.380734999984892
 30
0.0
 11
143.6687500000136
 21
17.380734999984892
 31
0.0
  0
ENDBLK
  5
10D5
  8
0
  0
BLOCK
  8
0
  2
*X33
 70
     1
 10
0.0
 20
0.0
 30
0.0
  3
*X33
  1

  0
LINE
  5
1583
  8
0
 62
     0
 10
62.266905377762079
 20
0.3794392578474408
 30
0.0
 11
62.11250739695695
 21
0.5338372386525699
 31
0.0
  0
LINE
  5
1584
  8
0
 62
     0
 10
61.999999999428027
 20
-0.4761873789521581
 30
0.0
 11
60.749670459422212
 21
0.774142161053657
 31
0.0
  0
LINE
  5
1585
  8
0
 62
     0
 10
63.499403856271179
 20
-1.9755912357953129
 30
0.0
 11
63.024408763636352
 21
-1.500596143160482
 31
0.0
  0
LINE
  5
1586
  8
0
 62
     0
 10
63.49174761776338
 20
-3.0904670124211471
 30
0.0
 11
59.736886876430937
 21
0.6643937289112892
 31
0.0
  0
LINE
  5
1587
  8
0
 62
     0
 10
58.704735102999301
 20
0.5740134872092783
 30
0.0
 11
57.999999999554177
 21
1.2787485906544001
 31
0.0
  0
LINE
  5
1588
  8
0
 62
     0
 10
62.778748590220097
 20
-3.500000000011525
 30
0.0
 11
59.131246739284649
 21
0.147501850923927
 31
0.0
  0
LINE
  5
1589
  8
0
 62
     0
 10
61.999999999909178
 20
-3.843783424834228
 30
0.0
 11
57.999999999554191
 21
0.1562165755207552
 31
0.0
  0
LINE
  5
158A
  8
0
 62
     0
 10
61.793789022463898
 20
-4.7601044625226079
 30
0.0
 11
57.999999999554177
 21
-0.9663154396128916
 31
0.0
  0
LINE
  5
158B
  8
0
 62
     0
 10
60.5225212462286
 20
-4.611368701420961
 30
0.0
 11
57.999999999554177
 21
-2.0888474547465341
 31
0.0
  0
LINE
  5
158C
  8
0
 62
     0
 10
59.404104230259442
 20
-4.6154837005854361
 30
0.0
 11
57.999999999554177
 21
-3.2113794698801779
 31
0.0
  0
LINE
  5
158D
  8
0
 62
     0
 10
58.39378876822024
 20
-4.7277002536798811
 30
0.0
 11
57.999999999554177
 21
-4.3339114850138207
 31
0.0
  0
LINE
  5
158E
  8
0
 62
     0
 10
62.411152544808417
 20
-3.5000000000065121
 30
0.0
 11
63.499999999625459
 21
-2.411152545189466
 31
0.0
  0
LINE
  5
158F
  8
0
 62
     0
 10
61.236607160379378
 20
-4.6745453844355529
 30
0.0
 11
61.999999999909612
 21
-3.9111525449053159
 31
0.0
  0
LINE
  5
1590
  8
0
 62
     0
 10
60.189139241347611
 20
-4.5994812883336884
 30
0.0
 11
63.231696808359807
 21
-1.5569237213214779
 31
0.0
  0
LINE
  5
1591
  8
0
 62
     0
 10
59.020221305244377
 20
-4.6458672093032582
 30
0.0
 11
62.16857307595437
 21
-1.4975154385932681
 31
0.0
  0
LINE
  5
1592
  8
0
 62
     0
 10
57.999999999554191
 20
-4.5435564998598181
 30
0.0
 11
61.999999999428042
 21
-0.5435564999859716
 31
0.0
  0
LINE
  5
1593
  8
0
 62
     0
 10
57.99999999955417
 20
-3.4210244847261739
 30
0.0
 11
61.978492215286678
 21
0.5574677310063266
 31
0.0
  0
LINE
  5
1594
  8
0
 62
     0
 10
57.999999999554191
 20
-2.2984924695925311
 30
0.0
 11
61.024223518285261
 21
0.7257310491385312
 31
0.0
  0
LINE
  5
1595
  8
0
 62
     0
 10
59.761814787541482
 20
0.5858543335284097
 30
0.0
 11
60.069954821283801
 21
0.8939943672707286
 31
0.0
  0
LINE
  5
1596
  8
0
 62
     0
 10
57.999999999554177
 20
-1.175960454458884
 30
0.0
 11
59.331083591011122
 21
0.1551231369980464
 31
0.0
  0
LINE
  5
1597
  8
0
 62
     0
 10
57.999999999554191
 20
-0.0534284393252413
 30
0.0
 11
58.684109714702778
 21
0.6306812758233457
 31
0.0
  0
LINE
  5
1598
  8
0
 62
     0
 10
57.999999999554191
 20
1.0691035758084051
 30
0.0
 11
58.38456634473367
 21
1.4536699209878909
 31
0.0
  0
ENDBLK
  5
159A
  8
0
  0
BLOCK
  8
0
  2
*X34
 70
     1
 10
0.0
 20
0.0
 30
0.0
  3
*X34
  1

  0
LINE
  5
159C
  8
0
 62
     0
 10
29.999999999554021
 20
1.215448212313468
 30
0.0
 11
29.65448516013263
 21
1.5609630517348621
 31
0.0
  0
LINE
  5
159D
  8
0
 62
     0
 10
29.999999999554021
 20
0.0929161971798252
 30
0.0
 11
29.354941790154822
 21
0.7379744065790223
 31
0.0
  0
LINE
  5
159E
  8
0
 62
     0
 10
28.26924542378535
 20
0.7011387578148522
 30
0.0
 11
28.055358320270908
 21
0.9150258613292889
 31
0.0
  0
LINE
  5
159F
  8
0
 62
     0
 10
29.999999999554021
 20
-1.02961581795382
 30
0.0
 11
28.827893856525058
 21
0.142490325075143
 31
0.0
  0
LINE
  5
15A0
  8
0
 62
     0
 10
29.999999999554021
 20
-2.1521478330874659
 30
0.0
 11
27.100184607703049
 21
0.7476675587635048
 31
0.0
  0
LINE
  5
15A1
  8
0
 62
     0
 10
29.999999999554021
 20
-3.274679848221111
 30
0.0
 11
26.145915910690949
 21
0.5794042406419551
 31
0.0
  0
LINE
  5
15A2
  8
0
 62
     0
 10
29.999999999554021
 20
-4.3972118633547561
 30
0.0
 11
26.000000000037851
 21
-0.3972118638385862
 31
0.0
  0
LINE
  5
15A3
  8
0
 62
     0
 10
29.143643620930209
 20
-4.6633874998645917
 30
0.0
 11
25.931204439906072
 21
-1.4509483188404479
 31
0.0
  0
LINE
  5
15A4
  8
0
 62
     0
 10
27.95551330178607
 20
-4.5977891958540882
 30
0.0
 11
24.8738893230339
 21
-1.5161652171019171
 31
0.0
  0
LINE
  5
15A5
  8
0
 62
     0
 10
25.735192090802901
 20
-3.500000000004571
 30
0.0
 11
24.499999999910688
 21
-2.2648079091123599
 31
0.0
  0
LINE
  5
15A6
  8
0
 62
     0
 10
26.894281331347209
 20
-4.6590892405488802
 30
0.0
 11
25.99999999955724
 21
-3.764807908758903
 31
0.0
  0
LINE
  5
15A7
  8
0
 62
     0
 10
29.73134754333131
 20
-4.7489085777415951
 30
0.0
 11
29.999999999554021
 21
-4.4802561215188756
 31
0.0
  0
LINE
  5
15A8
  8
0
 62
     0
 10
28.733091462111531
 20
-4.6246326438277219
 30
0.0
 11
29.999999999554021
 21
-3.3577241063852332
 31
0.0
  0
LINE
  5
15A9
  8
0
 62
     0
 10
27.63067053669128
 20
-4.6045215541143261
 30
0.0
 11
29.999999999554021
 21
-2.235192091251589
 31
0.0
  0
LINE
  5
15AA
  8
0
 62
     0
 10
26.3832341208999
 20
-4.729425954772065
 30
0.0
 11
29.999999999554021
 21
-1.1126600761179459
 31
0.0
  0
LINE
  5
15AB
  8
0
 62
     0
 10
25.999999999555751
 20
-3.9901280609825731
 30
0.0
 11
29.999999999554021
 21
0.0098719390156958
 31
0.0
  0
LINE
  5
15AC
  8
0
 62
     0
 10
25.367596045395089
 20
-3.5000000000095879
 30
0.0
 11
29.999999999554021
 21
1.1324039541493389
 31
0.0
  0
LINE
  5
15AD
  8
0
 62
     0
 10
24.54275646564799
 20
-3.2023075646230388
 30
0.0
 11
28.233023173593448
 21
0.4879591433224118
 31
0.0
  0
LINE
  5
15AE
  8
0
 62
     0
 10
26.000000000037851
 20
-0.6225320150995392
 30
0.0
 11
27.42800275868197
 21
0.8054707435445767
 31
0.0
  0
LINE
  5
15AF
  8
0
 62
     0
 10
24.499999999979011
 20
-2.1225320151583751
 30
0.0
 11
25.1225320151337
 21
-1.500000000003689
 31
0.0
  0
LINE
  5
15B0
  8
0
 62
     0
 10
25.755031130769289
 20
0.2550311307655466
 30
0.0
 11
26.065165821168961
 21
0.56516582116521
 31
0.0
  0
ENDBLK
  5
15B2
  8
0
  0
BLOCK
  8
0
  2
*X35
 70
     1
 10
0.0
 20
0.0
 30
0.0
  3
*X35
  1

  0
LINE
  5
15E9
  8
0
 62
     0
 10
62.266905377762079
 20
0.3794392578474408
 30
0.0
 11
62.11250739695695
 21
0.5338372386525699
 31
0.0
  0
LINE
  5
15EA
  8
0
 62
     0
 10
61.999999999428027
 20
-0.4761873789521581
 30
0.0
 11
60.749670459422212
 21
0.774142161053657
 31
0.0
  0
LINE
  5
15EB
  8
0
 62
     0
 10
63.499403856271179
 20
-1.9755912357953129
 30
0.0
 11
63.024408763636352
 21
-1.500596143160482
 31
0.0
  0
LINE
  5
15EC
  8
0
 62
     0
 10
63.49174761776338
 20
-3.0904670124211471
 30
0.0
 11
59.736886876430937
 21
0.6643937289112892
 31
0.0
  0
LINE
  5
15ED
  8
0
 62
     0
 10
58.704735102999301
 20
0.5740134872092783
 30
0.0
 11
57.999999999554177
 21
1.2787485906544001
 31
0.0
  0
LINE
  5
15EE
  8
0
 62
     0
 10
62.778748590220097
 20
-3.500000000011525
 30
0.0
 11
59.131246739284649
 21
0.147501850923927
 31
0.0
  0
LINE
  5
15EF
  8
0
 62
     0
 10
61.999999999909178
 20
-3.843783424834228
 30
0.0
 11
57.999999999554191
 21
0.1562165755207552
 31
0.0
  0
LINE
  5
15F0
  8
0
 62
     0
 10
61.793789022463898
 20
-4.7601044625226079
 30
0.0
 11
57.999999999554177
 21
-0.9663154396128916
 31
0.0
  0
LINE
  5
15F1
  8
0
 62
     0
 10
60.5225212462286
 20
-4.611368701420961
 30
0.0
 11
57.999999999554177
 21
-2.0888474547465341
 31
0.0
  0
LINE
  5
15F2
  8
0
 62
     0
 10
59.404104230259442
 20
-4.6154837005854361
 30
0.0
 11
57.999999999554177
 21
-3.2113794698801779
 31
0.0
  0
LINE
  5
15F3
  8
0
 62
     0
 10
58.39378876822024
 20
-4.7277002536798811
 30
0.0
 11
57.999999999554177
 21
-4.3339114850138207
 31
0.0
  0
LINE
  5
15F4
  8
0
 62
     0
 10
62.411152544808417
 20
-3.5000000000065121
 30
0.0
 11
63.499999999625459
 21
-2.411152545189466
 31
0.0
  0
LINE
  5
15F5
  8
0
 62
     0
 10
61.236607160379378
 20
-4.6745453844355529
 30
0.0
 11
61.999999999909612
 21
-3.9111525449053159
 31
0.0
  0
LINE
  5
15F6
  8
0
 62
     0
 10
60.189139241347611
 20
-4.5994812883336884
 30
0.0
 11
63.231696808359807
 21
-1.5569237213214779
 31
0.0
  0
LINE
  5
15F7
  8
0
 62
     0
 10
59.020221305244377
 20
-4.6458672093032582
 30
0.0
 11
62.16857307595437
 21
-1.4975154385932681
 31
0.0
  0
LINE
  5
15F8
  8
0
 62
     0
 10
57.999999999554191
 20
-4.5435564998598181
 30
0.0
 11
61.999999999428042
 21
-0.5435564999859716
 31
0.0
  0
LINE
  5
15F9
  8
0
 62
     0
 10
57.99999999955417
 20
-3.4210244847261739
 30
0.0
 11
61.978492215286678
 21
0.5574677310063266
 31
0.0
  0
LINE
  5
15FA
  8
0
 62
     0
 10
57.999999999554191
 20
-2.2984924695925311
 30
0.0
 11
61.024223518285261
 21
0.7257310491385312
 31
0.0
  0
LINE
  5
15FB
  8
0
 62
     0
 10
59.761814787541482
 20
0.5858543335284097
 30
0.0
 11
60.069954821283801
 21
0.8939943672707286
 31
0.0
  0
LINE
  5
15FC
  8
0
 62
     0
 10
57.999999999554177
 20
-1.175960454458884
 30
0.0
 11
59.331083591011122
 21
0.1551231369980464
 31
0.0
  0
LINE
  5
15FD
  8
0
 62
     0
 10
57.999999999554191
 20
-0.0534284393252413
 30
0.0
 11
58.684109714702778
 21
0.6306812758233457
 31
0.0
  0
LINE
  5
15FE
  8
0
 62
     0
 10
57.999999999554191
 20
1.0691035758084051
 30
0.0
 11
58.38456634473367
 21
1.4536699209878909
 31
0.0
  0
ENDBLK
  5
1600
  8
0
  0
BLOCK
  8
0
  2
*X36
 70
     1
 10
0.0
 20
0.0
 30
0.0
  3
*X36
  1

  0
LINE
  5
1602
  8
0
 62
     0
 10
29.999999999554021
 20
1.215448212313468
 30
0.0
 11
29.65448516013263
 21
1.5609630517348621
 31
0.0
  0
LINE
  5
1603
  8
0
 62
     0
 10
29.999999999554021
 20
0.0929161971798252
 30
0.0
 11
29.354941790154822
 21
0.7379744065790223
 31
0.0
  0
LINE
  5
1604
  8
0
 62
     0
 10
28.26924542378535
 20
0.7011387578148522
 30
0.0
 11
28.055358320270908
 21
0.9150258613292889
 31
0.0
  0
LINE
  5
1605
  8
0
 62
     0
 10
29.999999999554021
 20
-1.02961581795382
 30
0.0
 11
28.827893856525058
 21
0.142490325075143
 31
0.0
  0
LINE
  5
1606
  8
0
 62
     0
 10
29.999999999554021
 20
-2.1521478330874659
 30
0.0
 11
27.100184607703049
 21
0.7476675587635048
 31
0.0
  0
LINE
  5
1607
  8
0
 62
     0
 10
29.999999999554021
 20
-3.274679848221111
 30
0.0
 11
26.145915910690949
 21
0.5794042406419551
 31
0.0
  0
LINE
  5
1608
  8
0
 62
     0
 10
29.999999999554021
 20
-4.3972118633547561
 30
0.0
 11
26.000000000037851
 21
-0.3972118638385862
 31
0.0
  0
LINE
  5
1609
  8
0
 62
     0
 10
29.143643620930209
 20
-4.6633874998645917
 30
0.0
 11
25.931204439906072
 21
-1.4509483188404479
 31
0.0
  0
LINE
  5
160A
  8
0
 62
     0
 10
27.95551330178607
 20
-4.5977891958540882
 30
0.0
 11
24.8738893230339
 21
-1.5161652171019171
 31
0.0
  0
LINE
  5
160B
  8
0
 62
     0
 10
25.735192090802901
 20
-3.500000000004571
 30
0.0
 11
24.499999999910688
 21
-2.2648079091123599
 31
0.0
  0
LINE
  5
160C
  8
0
 62
     0
 10
26.894281331347209
 20
-4.6590892405488802
 30
0.0
 11
25.99999999955724
 21
-3.764807908758903
 31
0.0
  0
LINE
  5
160D
  8
0
 62
     0
 10
29.73134754333131
 20
-4.7489085777415951
 30
0.0
 11
29.999999999554021
 21
-4.4802561215188756
 31
0.0
  0
LINE
  5
160E
  8
0
 62
     0
 10
28.733091462111531
 20
-4.6246326438277219
 30
0.0
 11
29.999999999554021
 21
-3.3577241063852332
 31
0.0
  0
LINE
  5
160F
  8
0
 62
     0
 10
27.63067053669128
 20
-4.6045215541143261
 30
0.0
 11
29.999999999554021
 21
-2.235192091251589
 31
0.0
  0
LINE
  5
1610
  8
0
 62
     0
 10
26.3832341208999
 20
-4.729425954772065
 30
0.0
 11
29.999999999554021
 21
-1.1126600761179459
 31
0.0
  0
LINE
  5
1611
  8
0
 62
     0
 10
25.999999999555751
 20
-3.9901280609825731
 30
0.0
 11
29.999999999554021
 21
0.0098719390156958
 31
0.0
  0
LINE
  5
1612
  8
0
 62
     0
 10
25.367596045395089
 20
-3.5000000000095879
 30
0.0
 11
29.999999999554021
 21
1.1324039541493389
 31
0.0
  0
LINE
  5
1613
  8
0
 62
     0
 10
24.54275646564799
 20
-3.2023075646230388
 30
0.0
 11
28.233023173593448
 21
0.4879591433224118
 31
0.0
  0
LINE
  5
1614
  8
0
 62
     0
 10
26.000000000037851
 20
-0.6225320150995392
 30
0.0
 11
27.42800275868197
 21
0.8054707435445767
 31
0.0
  0
LINE
  5
1615
  8
0
 62
     0
 10
24.499999999979011
 20
-2.1225320151583751
 30
0.0
 11
25.1225320151337
 21
-1.500000000003689
 31
0.0
  0
LINE
  5
1616
  8
0
 62
     0
 10
25.755031130769289
 20
0.2550311307655466
 30
0.0
 11
26.065165821168961
 21
0.56516582116521
 31
0.0
  0
ENDBLK
  5
1618
  8
0
  0
BLOCK
  8
0
  2
*U37
 70
     1
 10
0.0
 20
0.0
 30
0.0
  3
*U37
  1

  0
TEXT
  5
1777
  8
SAPA_MATT
 62
     2
 10
-18.9999999282524
 20
25.049999999998089
 30
0.0
 40
3.5
  1
65
 50
90.0
  7
ISO
  0
ENDBLK
  5
1779
  8
0
  0
BLOCK
  8
0
  2
*U38
 70
     1
 10
0.0
 20
0.0
 30
0.0
  3
*U38
  1

  0
TEXT
  5
177B
  8
SAPA_MATT
 62
     2
 10
-6.9999999282524232
 20
27.54999999999993
 30
0.0
 40
3.5
  1
60
 50
90.0
  7
ISO
  0
ENDBLK
  5
177D
  8
0
  0
BLOCK
  8
0
  2
*U39
 70
     1
 10
0.0
 20
0.0
 30
0.0
  3
*U39
  1

  0
TEXT
  5
177F
  8
SAPA_MATT
 62
     2
 10
73.174999999751265
 20
-55.000000000000099
 30
0.0
 40
3.5
  1
125
  7
ISO
  0
ENDBLK
  5
1781
  8
0
  0
BLOCK
  8
0
  2
*U40
 70
     1
 10
0.0
 20
0.0
 30
0.0
  3
*U40
  1

  0
TEXT
  5
1783
  8
SAPA_MATT
 62
     2
 10
14.27500000003951
 20
-43.000000000000128
 30
0.0
 40
3.5
  1
6.5
  7
ISO
  0
ENDBLK
  5
1785
  8
0
  0
ENDSEC
  0
SECTION
  2
ENTITIES
  0
TEXT
  5
70A
  8
SAPA_ARTIKELNR
 10
12.530149907001711
 20
24.833490238477399
 30
0.0000000048844772
 40
3.5
  1
D8K025
 50
90.0
  7
ISO
  0
TEXT
  5
722
  8
SAPA_ARTIKELNR
 10
26.593097235455812
 20
-21.869708984274009
 30
0.0000000048844772
 40
3.5
  1
D8V001
 50
90.0
  7
ISO
  0
INSERT
  5
CA3
  8
SAPA_ANSLUTNING
  6
CONTINUOUS
  2
*X31
 10
0.0
 20
0.0
 30
0.0
1001
ACAD
1000
HATCH
1002
{
1070
    19
1000
ANSI37
1040
0.25
1040
0.0
1000
R14_HATCH_DATA
1000
CA3
1011
1.0
1021
0.0
1031
0.0
1021
0.0
1031
0.0
1011
0.0
1021
0.0
1031
0.0
1021
1.0
1031
0.0
1011
0.0
1021
0.0
1031
0.0
1021
0.0
1031
1.0
1040
0.0
1010
0.0
1020
0.0
1030
1.0
1000
ANSI37
1070
     0
1070
     0
1071
        1
1071
        5
1071
        6
1070
     2
1040
137.49999992775491
1040
1.499999999984938
1040
1.4999999999999989
1040
5.49778714378209
1040
6.2831853071795569
1070
     1
1070
     1
1040
138.99999992775491
1040
1.499999999984895
1040
138.9999999277548
1040
12.33665123667542
1070
     3
1040
143.99999992775491
1040
12.336651236675729
1040
0.0
1040
5.6210574168242138
1040
0.8895123513655372
1040
1.5707963267948959
1040
2.144309431217978
1070
     1
1070
     3
1040
143.99999992775491
1040
12.336651236675729
1040
0.0
1040
5.6210574168242138
1040
0.8895123513655372
1040
2.144309431217978
1040
4.7123889803846888
1070
     1
1070
     1
1040
148.99999992775491
1040
12.33665123667509
1040
148.99999992775491
1040
-0.000000000000119
1070
     2
1040
142.90216751658329
1040
-20.646721299902531
1040
21.528368738726542
1040
1.2836189008757071
1040
1.773853352005716
1070
     1
1071
        0
1070
     0
1070
     1
1040
0.0
1040
0.25
1070
     0
1070
     2
1040
5.4977871437821371
1040
0.0000000000136424
1040
59.999999999984901
1040
-0.5612660075668221
1040
-0.5612660075668221
1070
     0
1040
3.926990816987241
1040
0.0000000000136424
1040
59.999999999984901
1040
-0.5612660075668221
1040
0.5612660075668221
1070
     0
1040
0.0591690278051155
1071
        1
1040
142.9986763470032
1040
3.5796352870589931
1040
0.0
1002
}
  0
LINE
  5
CA4
  8
SAPA_ANSLUTNING
 10
14.00000000000011
 20
75.000000000005315
 30
0.0
 11
148.99999992775491
 21
75.000000000005315
 31
0.0
  0
LINE
  5
CA5
  8
SAPA_ANSLUTNING
 10
148.99999992775491
 20
-0.000000000000119
 30
0.0
 11
194.0032559344132
 21
-0.0000000000001261
 31
0.0
  0
LINE
  5
CA7
  8
SAPA_ANSLUTNING
 10
148.99999992775491
 20
75.000000000005315
 30
0.0
 11
148.99999992775491
 21
-0.000000000000119
 31
0.0
  0
ARC
  5
CA8
  8
SAPA_ANSLUTNING
 10
142.90216751658329
 20
-20.646721299902651
 30
0.0
 40
21.52836873872667
 50
73.545945523399908
 51
101.6343105450599
  0
INSERT
  5
CA9
  8
SAPA_ANSLUTNING
  6
CONTINUOUS
  2
*X32
 10
0.0
 20
0.0
 30
0.0
1001
ACAD
1000
HATCH
1002
{
1070
    19
1000
HEX
1040
0.25
1040
0.0
1000
ASC_BOUNDS
1070
     1
1070
     1
1070
     1
1005
CAA
1000
ASC_SEEDPOINT
1011
144.2421099378295
1021
0.0
1031
0.0
1021
12.218313547619021
1031
0.0
1000
R14_HATCH_DATA
1000
CA9
1011
1.0
1021
0.0
1031
0.0
1021
0.0
1031
0.0
1011
0.0
1021
0.0
1031
0.0
1021
1.0
1031
0.0
1011
0.0
1021
0.0
1031
0.0
1021
0.0
1031
1.0
1040
0.0
1010
0.0
1020
0.0
1030
1.0
1000
HEX
1070
     0
1070
     1
1071
        1
1071
        5
1071
        1
1070
     3
1040
143.99999992775491
1040
12.336651236675729
1040
0.0
1040
5.6210574168242138
1040
0.8895123513655372
1040
0.0
1040
6.2831853071795862
1070
     0
1071
        1
1005
CAA
1070
     0
1070
     1
1040
0.0
1040
0.25
1070
     0
1070
     3
1040
0.0
1040
0.0000000000136424
1040
59.999999999984901
1040
0.0
1040
-1.374814999999999
1070
     2
1040
0.79375
1040
-1.587499999999999
1040
4.1887902047863914
1040
0.0000000000136424
1040
59.999999999984901
1040
-1.190624715503902
1040
0.6874074999999996
1070
     2
1040
0.7937499999999993
1040
-1.5874999999999979
1040
5.2359877559829879
1040
0.7937500000136311
1040
59.999999999984901
1040
-1.190624715503902
1040
-0.6874075000000001
1070
     2
1040
0.79375
1040
-1.587499999999999
1040
0.0591690278051155
1071
        1
1040
144.2421099378295
1040
12.218313547619021
1040
0.0
1002
}
  0
POLYLINE
  5
CAA
  8
SAPA_ANSLUTNING
 10
143.99999992775491
 20
17.957708653499942
 30
0.0
 66
     1
 70
     8
  0
VERTEX
  8
SAPA_ANSLUTNING
  5
1789
 10
144.000
 20
17.9577
 30
0.000000
  70
    32
  0
VERTEX
  8
SAPA_ANSLUTNING
  5
178A
 10
144.245
 20
17.9509
 30
0.000000
  70
    32
  0
VERTEX
  8
SAPA_ANSLUTNING
  5
178B
 10
144.490
 20
17.9306
 30
0.000000
  70
    32
  0
VERTEX
  8
SAPA_ANSLUTNING
  5
178C
 10
144.734
 20
17.8969
 30
0.000000
  70
    32
  0
VERTEX
  8
SAPA_ANSLUTNING
  5
178D
 10
144.975
 20
17.8497
 30
0.000000
  70
    32
  0
VERTEX
  8
SAPA_ANSLUTNING
  5
178E
 10
145.215
 20
17.7893
 30
0.000000
  70
    32
  0
VERTEX
  8
SAPA_ANSLUTNING
  5
178F
 10
145.451
 20
17.7157
 30
0.000000
  70
    32
  0
VERTEX
  8
SAPA_ANSLUTNING
  5
1790
 10
145.684
 20
17.6291
 30
0.000000
  70
    32
  0
VERTEX
  8
SAPA_ANSLUTNING
  5
1791
 10
145.913
 20
17.5298
 30
0.000000
  70
    32
  0
VERTEX
  8
SAPA_ANSLUTNING
  5
1792
 10
146.138
 20
17.4180
 30
0.000000
  70
    32
  0
VERTEX
  8
SAPA_ANSLUTNING
  5
1793
 10
146.357
 20
17.2940
 30
0.000000
  70
    32
  0
VERTEX
  8
SAPA_ANSLUTNING
  5
1794
 10
146.571
 20
17.1580
 30
0.000000
  70
    32
  0
VERTEX
  8
SAPA_ANSLUTNING
  5
1795
 10
146.778
 20
17.0104
 30
0.000000
  70
    32
  0
VERTEX
  8
SAPA_ANSLUTNING
  5
1796
 10
146.978
 20
16.8515
 30
0.000000
  70
    32
  0
VERTEX
  8
SAPA_ANSLUTNING
  5
1797
 10
147.172
 20
16.6818
 30
0.000000
  70
    32
  0
VERTEX
  8
SAPA_ANSLUTNING
  5
1798
 10
147.358
 20
16.5016
 30
0.000000
  70
    32
  0
VERTEX
  8
SAPA_ANSLUTNING
  5
1799
 10
147.536
 20
16.3113
 30
0.000000
  70
    32
  0
VERTEX
  8
SAPA_ANSLUTNING
  5
179A
 10
147.705
 20
16.1115
 30
0.000000
  70
    32
  0
VERTEX
  8
SAPA_ANSLUTNING
  5
179B
 10
147.865
 20
15.9026
 30
0.000000
  70
    32
  0
VERTEX
  8
SAPA_ANSLUTNING
  5
179C
 10
148.016
 20
15.6851
 30
0.000000
  70
    32
  0
VERTEX
  8
SAPA_ANSLUTNING
  5
179D
 10
148.157
 20
15.4595
 30
0.000000
  70
    32
  0
VERTEX
  8
SAPA_ANSLUTNING
  5
179E
 10
148.289
 20
15.2265
 30
0.000000
  70
    32
  0
VERTEX
  8
SAPA_ANSLUTNING
  5
179F
 10
148.410
 20
14.9864
 30
0.000000
  70
    32
  0
VERTEX
  8
SAPA_ANSLUTNING
  5
17A0
 10
148.520
 20
14.7400
 30
0.000000
  70
    32
  0
VERTEX
  8
SAPA_ANSLUTNING
  5
17A1
 10
148.619
 20
14.4877
 30
0.000000
  70
    32
  0
VERTEX
  8
SAPA_ANSLUTNING
  5
17A2
 10
148.708
 20
14.2303
 30
0.000000
  70
    32
  0
VERTEX
  8
SAPA_ANSLUTNING
  5
17A3
 10
148.785
 20
13.9684
 30
0.000000
  70
    32
  0
VERTEX
  8
SAPA_ANSLUTNING
  5
17A4
 10
148.850
 20
13.7025
 30
0.000000
  70
    32
  0
VERTEX
  8
SAPA_ANSLUTNING
  5
17A5
 10
148.904
 20
13.4333
 30
0.000000
  70
    32
  0
VERTEX
  8
SAPA_ANSLUTNING
  5
17A6
 10
148.946
 20
13.1614
 30
0.000000
  70
    32
  0
VERTEX
  8
SAPA_ANSLUTNING
  5
17A7
 10
148.976
 20
12.8876
 30
0.000000
  70
    32
  0
VERTEX
  8
SAPA_ANSLUTNING
  5
17A8
 10
148.994
 20
12.6125
 30
0.000000
  70
    32
  0
VERTEX
  8
SAPA_ANSLUTNING
  5
17A9
 10
149.000
 20
12.3367
 30
0.000000
  70
    32
  0
VERTEX
  8
SAPA_ANSLUTNING
  5
17AA
 10
148.994
 20
12.0608
 30
0.000000
  70
    32
  0
VERTEX
  8
SAPA_ANSLUTNING
  5
17AB
 10
148.976
 20
11.7857
 30
0.000000
  70
    32
  0
VERTEX
  8
SAPA_ANSLUTNING
  5
17AC
 10
148.946
 20
11.5119
 30
0.000000
  70
    32
  0
VERTEX
  8
SAPA_ANSLUTNING
  5
17AD
 10
148.904
 20
11.2400
 30
0.000000
  70
    32
  0
VERTEX
  8
SAPA_ANSLUTNING
  5
17AE
 10
148.850
 20
10.9708
 30
0.000000
  70
    32
  0
VERTEX
  8
SAPA_ANSLUTNING
  5
17AF
 10
148.785
 20
10.7049
 30
0.000000
  70
    32
  0
VERTEX
  8
SAPA_ANSLUTNING
  5
17B0
 10
148.708
 20
10.4430
 30
0.000000
  70
    32
  0
VERTEX
  8
SAPA_ANSLUTNING
  5
17B1
 10
148.619
 20
10.1856
 30
0.000000
  70
    32
  0
VERTEX
  8
SAPA_ANSLUTNING
  5
17B2
 10
148.520
 20
9.93334
 30
0.000000
  70
    32
  0
VERTEX
  8
SAPA_ANSLUTNING
  5
17B3
 10
148.410
 20
9.68690
 30
0.000000
  70
    32
  0
VERTEX
  8
SAPA_ANSLUTNING
  5
17B4
 10
148.289
 20
9.44685
 30
0.000000
  70
    32
  0
VERTEX
  8
SAPA_ANSLUTNING
  5
17B5
 10
148.157
 20
9.21376
 30
0.000000
  70
    32
  0
VERTEX
  8
SAPA_ANSLUTNING
  5
17B6
 10
148.016
 20
8.98819
 30
0.000000
  70
    32
  0
VERTEX
  8
SAPA_ANSLUTNING
  5
17B7
 10
147.865
 20
8.77069
 30
0.000000
  70
    32
  0
VERTEX
  8
SAPA_ANSLUTNING
  5
17B8
 10
147.705
 20
8.56178
 30
0.000000
  70
    32
  0
VERTEX
  8
SAPA_ANSLUTNING
  5
17B9
 10
147.536
 20
8.36196
 30
0.000000
  70
    32
  0
VERTEX
  8
SAPA_ANSLUTNING
  5
17BA
 10
147.358
 20
8.17172
 30
0.000000
  70
    32
  0
VERTEX
  8
SAPA_ANSLUTNING
  5
17BB
 10
147.172
 20
7.99152
 30
0.000000
  70
    32
  0
VERTEX
  8
SAPA_ANSLUTNING
  5
17BC
 10
146.978
 20
7.82178
 30
0.000000
  70
    32
  0
VERTEX
  8
SAPA_ANSLUTNING
  5
17BD
 10
146.778
 20
7.66291
 30
0.000000
  70
    32
  0
VERTEX
  8
SAPA_ANSLUTNING
  5
17BE
 10
146.571
 20
7.51531
 30
0.000000
  70
    32
  0
VERTEX
  8
SAPA_ANSLUTNING
  5
17BF
 10
146.357
 20
7.37932
 30
0.000000
  70
    32
  0
VERTEX
  8
SAPA_ANSLUTNING
  5
17C0
 10
146.138
 20
7.25528
 30
0.000000
  70
    32
  0
VERTEX
  8
SAPA_ANSLUTNING
  5
17C1
 10
145.913
 20
7.14347
 30
0.000000
  70
    32
  0
VERTEX
  8
SAPA_ANSLUTNING
  5
17C2
 10
145.684
 20
7.04418
 30
0.000000
  70
    32
  0
VERTEX
  8
SAPA_ANSLUTNING
  5
17C3
 10
145.451
 20
6.95763
 30
0.000000
  70
    32
  0
VERTEX
  8
SAPA_ANSLUTNING
  5
17C4
 10
145.215
 20
6.88405
 30
0.000000
  70
    32
  0
VERTEX
  8
SAPA_ANSLUTNING
  5
17C5
 10
144.975
 20
6.82360
 30
0.000000
  70
    32
  0
VERTEX
  8
SAPA_ANSLUTNING
  5
17C6
 10
144.734
 20
6.77643
 30
0.000000
  70
    32
  0
VERTEX
  8
SAPA_ANSLUTNING
  5
17C7
 10
144.490
 20
6.74266
 30
0.000000
  70
    32
  0
VERTEX
  8
SAPA_ANSLUTNING
  5
17C8
 10
144.245
 20
6.72236
 30
0.000000
  70
    32
  0
VERTEX
  8
SAPA_ANSLUTNING
  5
17C9
 10
144.000
 20
6.71559
 30
0.000000
  70
    32
  0
VERTEX
  8
SAPA_ANSLUTNING
  5
17CA
 10
143.755
 20
6.72236
 30
0.000000
  70
    32
  0
VERTEX
  8
SAPA_ANSLUTNING
  5
17CB
 10
143.510
 20
6.74266
 30
0.000000
  70
    32
  0
VERTEX
  8
SAPA_ANSLUTNING
  5
17CC
 10
143.266
 20
6.77643
 30
0.000000
  70
    32
  0
VERTEX
  8
SAPA_ANSLUTNING
  5
17CD
 10
143.025
 20
6.82360
 30
0.000000
  70
    32
  0
VERTEX
  8
SAPA_ANSLUTNING
  5
17CE
 10
142.785
 20
6.88405
 30
0.000000
  70
    32
  0
VERTEX
  8
SAPA_ANSLUTNING
  5
17CF
 10
142.549
 20
6.95763
 30
0.000000
  70
    32
  0
VERTEX
  8
SAPA_ANSLUTNING
  5
17D0
 10
142.316
 20
7.04418
 30
0.000000
  70
    32
  0
VERTEX
  8
SAPA_ANSLUTNING
  5
17D1
 10
142.087
 20
7.14347
 30
0.000000
  70
    32
  0
VERTEX
  8
SAPA_ANSLUTNING
  5
17D2
 10
141.862
 20
7.25528
 30
0.000000
  70
    32
  0
VERTEX
  8
SAPA_ANSLUTNING
  5
17D3
 10
141.643
 20
7.37932
 30
0.000000
  70
    32
  0
VERTEX
  8
SAPA_ANSLUTNING
  5
17D4
 10
141.429
 20
7.51531
 30
0.000000
  70
    32
  0
VERTEX
  8
SAPA_ANSLUTNING
  5
17D5
 10
141.222
 20
7.66291
 30
0.000000
  70
    32
  0
VERTEX
  8
SAPA_ANSLUTNING
  5
17D6
 10
141.022
 20
7.82178
 30
0.000000
  70
    32
  0
VERTEX
  8
SAPA_ANSLUTNING
  5
17D7
 10
140.828
 20
7.99152
 30
0.000000
  70
    32
  0
VERTEX
  8
SAPA_ANSLUTNING
  5
17D8
 10
140.642
 20
8.17172
 30
0.000000
  70
    32
  0
VERTEX
  8
SAPA_ANSLUTNING
  5
17D9
 10
140.464
 20
8.36196
 30
0.000000
  70
    32
  0
VERTEX
  8
SAPA_ANSLUTNING
  5
17DA
 10
140.295
 20
8.56178
 30
0.000000
  70
    32
  0
VERTEX
  8
SAPA_ANSLUTNING
  5
17DB
 10
140.135
 20
8.77069
 30
0.000000
  70
    32
  0
VERTEX
  8
SAPA_ANSLUTNING
  5
17DC
 10
139.984
 20
8.98819
 30
0.000000
  70
    32
  0
VERTEX
  8
SAPA_ANSLUTNING
  5
17DD
 10
139.843
 20
9.21376
 30
0.000000
  70
    32
  0
VERTEX
  8
SAPA_ANSLUTNING
  5
17DE
 10
139.711
 20
9.44685
 30
0.000000
  70
    32
  0
VERTEX
  8
SAPA_ANSLUTNING
  5
17DF
 10
139.590
 20
9.68690
 30
0.000000
  70
    32
  0
VERTEX
  8
SAPA_ANSLUTNING
  5
17E0
 10
139.480
 20
9.93334
 30
0.000000
  70
    32
  0
VERTEX
  8
SAPA_ANSLUTNING
  5
17E1
 10
139.381
 20
10.1856
 30
0.000000
  70
    32
  0
VERTEX
  8
SAPA_ANSLUTNING
  5
17E2
 10
139.292
 20
10.4430
 30
0.000000
  70
    32
  0
VERTEX
  8
SAPA_ANSLUTNING
  5
17E3
 10
139.215
 20
10.7049
 30
0.000000
  70
    32
  0
VERTEX
  8
SAPA_ANSLUTNING
  5
17E4
 10
139.150
 20
10.9708
 30
0.000000
  70
    32
  0
VERTEX
  8
SAPA_ANSLUTNING
  5
17E5
 10
139.096
 20
11.2400
 30
0.000000
  70
    32
  0
VERTEX
  8
SAPA_ANSLUTNING
  5
17E6
 10
139.054
 20
11.5119
 30
0.000000
  70
    32
  0
VERTEX
  8
SAPA_ANSLUTNING
  5
17E7
 10
139.024
 20
11.7857
 30
0.000000
  70
    32
  0
VERTEX
  8
SAPA_ANSLUTNING
  5
17E8
 10
139.006
 20
12.0608
 30
0.000000
  70
    32
  0
VERTEX
  8
SAPA_ANSLUTNING
  5
17E9
 10
139.000
 20
12.3367
 30
0.000000
  70
    32
  0
VERTEX
  8
SAPA_ANSLUTNING
  5
17EA
 10
139.006
 20
12.6125
 30
0.000000
  70
    32
  0
VERTEX
  8
SAPA_ANSLUTNING
  5
17EB
 10
139.024
 20
12.8876
 30
0.000000
  70
    32
  0
VERTEX
  8
SAPA_ANSLUTNING
  5
17EC
 10
139.054
 20
13.1614
 30
0.000000
  70
    32
  0
VERTEX
  8
SAPA_ANSLUTNING
  5
17ED
 10
139.096
 20
13.4333
 30
0.000000
  70
    32
  0
VERTEX
  8
SAPA_ANSLUTNING
  5
17EE
 10
139.150
 20
13.7025
 30
0.000000
  70
    32
  0
VERTEX
  8
SAPA_ANSLUTNING
  5
17EF
 10
139.215
 20
13.9684
 30
0.000000
  70
    32
  0
VERTEX
  8
SAPA_ANSLUTNING
  5
17F0
 10
139.292
 20
14.2303
 30
0.000000
  70
    32
  0
VERTEX
  8
SAPA_ANSLUTNING
  5
17F1
 10
139.381
 20
14.4877
 30
0.000000
  70
    32
  0
VERTEX
  8
SAPA_ANSLUTNING
  5
17F2
 10
139.480
 20
14.7400
 30
0.000000
  70
    32
  0
VERTEX
  8
SAPA_ANSLUTNING
  5
17F3
 10
139.590
 20
14.9864
 30
0.000000
  70
    32
  0
VERTEX
  8
SAPA_ANSLUTNING
  5
17F4
 10
139.711
 20
15.2265
 30
0.000000
  70
    32
  0
VERTEX
  8
SAPA_ANSLUTNING
  5
17F5
 10
139.843
 20
15.4595
 30
0.000000
  70
    32
  0
VERTEX
  8
SAPA_ANSLUTNING
  5
17F6
 10
139.984
 20
15.6851
 30
0.000000
  70
    32
  0
VERTEX
  8
SAPA_ANSLUTNING
  5
17F7
 10
140.135
 20
15.9026
 30
0.000000
  70
    32
  0
VERTEX
  8
SAPA_ANSLUTNING
  5
17F8
 10
140.295
 20
16.1115
 30
0.000000
  70
    32
  0
VERTEX
  8
SAPA_ANSLUTNING
  5
17F9
 10
140.464
 20
16.3113
 30
0.000000
  70
    32
  0
VERTEX
  8
SAPA_ANSLUTNING
  5
17FA
 10
140.642
 20
16.5016
 30
0.000000
  70
    32
  0
VERTEX
  8
SAPA_ANSLUTNING
  5
17FB
 10
140.828
 20
16.6818
 30
0.000000
  70
    32
  0
VERTEX
  8
SAPA_ANSLUTNING
  5
17FC
 10
141.022
 20
16.8515
 30
0.000000
  70
    32
  0
VERTEX
  8
SAPA_ANSLUTNING
  5
17FD
 10
141.222
 20
17.0104
 30
0.000000
  70
    32
  0
VERTEX
  8
SAPA_ANSLUTNING
  5
17FE
 10
141.429
 20
17.1580
 30
0.000000
  70
    32
  0
VERTEX
  8
SAPA_ANSLUTNING
  5
17FF
 10
141.643
 20
17.2940
 30
0.000000
  70
    32
  0
VERTEX
  8
SAPA_ANSLUTNING
  5
1800
 10
141.862
 20
17.4180
 30
0.000000
  70
    32
  0
VERTEX
  8
SAPA_ANSLUTNING
  5
1801
 10
142.087
 20
17.5298
 30
0.000000
  70
    32
  0
VERTEX
  8
SAPA_ANSLUTNING
  5
1802
 10
142.316
 20
17.6291
 30
0.000000
  70
    32
  0
VERTEX
  8
SAPA_ANSLUTNING
  5
1803
 10
142.549
 20
17.7157
 30
0.000000
  70
    32
  0
VERTEX
  8
SAPA_ANSLUTNING
  5
1804
 10
142.785
 20
17.7893
 30
0.000000
  70
    32
  0
VERTEX
  8
SAPA_ANSLUTNING
  5
1805
 10
143.025
 20
17.8497
 30
0.000000
  70
    32
  0
VERTEX
  8
SAPA_ANSLUTNING
  5
1806
 10
143.266
 20
17.8969
 30
0.000000
  70
    32
  0
VERTEX
  8
SAPA_ANSLUTNING
  5
1807
 10
143.510
 20
17.9306
 30
0.000000
  70
    32
  0
VERTEX
  8
SAPA_ANSLUTNING
  5
1808
 10
143.755
 20
17.9509
 30
0.000000
  70
    32
  0
VERTEX
  8
SAPA_ANSLUTNING
  5
1809
 10
144.000
 20
17.9577
 30
0.000000
  70
    32
  0
SEQEND
  8
SAPA_ANSLUTNING
  5
180A
  0
POLYLINE
  5
CAB
  8
SAPA_ANSLUTNING
 66
     1
 10
0.0
 20
0.0
 30
0.0
  0
VERTEX
  5
10D6
  8
SAPA_ANSLUTNING
 10
140.5010714710958
 20
16.352069590546449
 30
0.0
 42
-0.8812634091771133
  0
VERTEX
  5
10D7
  8
SAPA_ANSLUTNING
 10
140.99999992775491
 20
20.28883761876661
 30
0.0
  0
VERTEX
  5
10D8
  8
SAPA_ANSLUTNING
 10
146.99999992775491
 20
20.28883761876661
 30
0.0
 42
0.9999999999999998
  0
VERTEX
  5
10D9
  8
SAPA_ANSLUTNING
 10
146.99999992775491
 20
24.28883761876661
 30
0.0
  0
VERTEX
  5
10DA
  8
SAPA_ANSLUTNING
 10
140.99999992775491
 20
24.2888376187666
 30
0.0
 42
-0.9999999999999998
  0
VERTEX
  5
10DB
  8
SAPA_ANSLUTNING
 10
140.99999992775491
 20
28.2888376187666
 30
0.0
  0
VERTEX
  5
10DC
  8
SAPA_ANSLUTNING
 10
146.99999992775491
 20
28.28883761876661
 30
0.0
 42
0.9999999999999998
  0
VERTEX
  5
10DD
  8
SAPA_ANSLUTNING
 10
146.99999992775491
 20
32.288837618766607
 30
0.0
  0
VERTEX
  5
10DE
  8
SAPA_ANSLUTNING
 10
140.99999992775491
 20
32.2888376187666
 30
0.0
 42
-0.9999999999999998
  0
VERTEX
  5
10DF
  8
SAPA_ANSLUTNING
 10
140.99999992775491
 20
36.2888376187666
 30
0.0
  0
VERTEX
  5
10E0
  8
SAPA_ANSLUTNING
 10
146.99999992775491
 20
36.288837618766607
 30
0.0
 42
0.9999999999999998
  0
VERTEX
  5
10E1
  8
SAPA_ANSLUTNING
 10
146.99999992775491
 20
40.2888376187666
 30
0.0
  0
VERTEX
  5
10E2
  8
SAPA_ANSLUTNING
 10
140.99999992775491
 20
40.288837618766593
 30
0.0
 42
-0.9999999999999998
  0
VERTEX
  5
10E3
  8
SAPA_ANSLUTNING
 10
140.99999992775491
 20
44.2888376187666
 30
0.0
  0
VERTEX
  5
10E4
  8
SAPA_ANSLUTNING
 10
146.99999992775491
 20
44.288837618766607
 30
0.0
 42
0.9999999999999998
  0
VERTEX
  5
10E5
  8
SAPA_ANSLUTNING
 10
146.99999992775491
 20
48.2888376187666
 30
0.0
  0
VERTEX
  5
10E6
  8
SAPA_ANSLUTNING
 10
140.99999992775491
 20
48.288837618766593
 30
0.0
 42
-0.9999999999999998
  0
VERTEX
  5
10E7
  8
SAPA_ANSLUTNING
 10
140.99999992775491
 20
52.288837618766593
 30
0.0
  0
VERTEX
  5
10E8
  8
SAPA_ANSLUTNING
 10
146.99999992775491
 20
52.288837618766607
 30
0.0
 42
0.9999999999999998
  0
VERTEX
  5
10E9
  8
SAPA_ANSLUTNING
 10
146.99999992775491
 20
56.288837618766607
 30
0.0
  0
VERTEX
  5
10EA
  8
SAPA_ANSLUTNING
 10
140.99999992775491
 20
56.288837618766593
 30
0.0
 42
-0.9999999999999998
  0
VERTEX
  5
10EB
  8
SAPA_ANSLUTNING
 10
140.99999992775491
 20
60.288837618766593
 30
0.0
  0
VERTEX
  5
10EC
  8
SAPA_ANSLUTNING
 10
146.99999992775491
 20
60.2888376187666
 30
0.0
 42
0.9999999999999998
  0
VERTEX
  5
10ED
  8
SAPA_ANSLUTNING
 10
146.99999992775491
 20
64.288837618766607
 30
0.0
  0
VERTEX
  5
10EE
  8
SAPA_ANSLUTNING
 10
140.99999992775491
 20
64.288837618766593
 30
0.0
 42
-0.9999999999999998
  0
VERTEX
  5
10EF
  8
SAPA_ANSLUTNING
 10
140.99999992775491
 20
68.288837618766593
 30
0.0
  0
VERTEX
  5
10F0
  8
SAPA_ANSLUTNING
 10
146.99999992775491
 20
68.288837618766607
 30
0.0
 42
0.9999999999999998
  0
VERTEX
  5
10F1
  8
SAPA_ANSLUTNING
 10
146.99999992775491
 20
72.288837618766607
 30
0.0
  0
VERTEX
  5
10F2
  8
SAPA_ANSLUTNING
 10
140.99999992775491
 20
72.288837618766593
 30
0.0
 42
-0.5251735434384823
  0
VERTEX
  5
10F3
  8
SAPA_ANSLUTNING
 10
139.1307091350983
 20
75.000000000005315
 30
0.0
 42
-0.5251735434384823
  0
SEQEND
  5
10F4
  8
SAPA_ANSLUTNING
  0
LINE
  5
CC2
  8
SAPA_ANSLUTNING
 10
14.00000000000011
 20
-0.0000000000001492
 30
0.0
 11
-30.619466477045759
 21
-0.0000000000001492
 31
0.0
  0
LINE
  5
CC3
  8
SAPA_ANSLUTNING
 10
14.00000000000011
 20
-0.0000000000001492
 30
0.0
 11
14.00000000000011
 21
75.000000000005315
 31
0.0
  0
POLYLINE
  5
CC4
  8
SAPA_ANSLUTNING
 66
     1
 10
0.0
 20
0.0
 30
0.0
  0
VERTEX
  5
10F5
  8
SAPA_ANSLUTNING
 10
14.00000000000011
 20
73.49892845665893
 30
0.0
 42
-0.8812634091771133
  0
VERTEX
  5
10F6
  8
SAPA_ANSLUTNING
 10
17.936768028220271
 20
72.999999999999844
 30
0.0
  0
VERTEX
  5
10F7
  8
SAPA_ANSLUTNING
 10
17.936768028220271
 20
61.999999999999851
 30
0.0
 42
0.9999999999999998
  0
VERTEX
  5
10F8
  8
SAPA_ANSLUTNING
 10
21.936768028220271
 20
61.999999999999851
 30
0.0
  0
VERTEX
  5
10F9
  8
SAPA_ANSLUTNING
 10
21.936768028220261
 20
72.999999999999844
 30
0.0
 42
-0.9999999999999998
  0
VERTEX
  5
10FA
  8
SAPA_ANSLUTNING
 10
25.936768028220261
 20
72.999999999999815
 30
0.0
  0
VERTEX
  5
10FB
  8
SAPA_ANSLUTNING
 10
25.936768028220271
 20
61.999999999999808
 30
0.0
 42
0.9999999999999998
  0
VERTEX
  5
10FC
  8
SAPA_ANSLUTNING
 10
29.936768028220271
 20
61.999999999999808
 30
0.0
  0
VERTEX
  5
10FD
  8
SAPA_ANSLUTNING
 10
29.936768028220261
 20
72.999999999999815
 30
0.0
 42
-0.9999999999999998
  0
VERTEX
  5
10FE
  8
SAPA_ANSLUTNING
 10
33.936768028220257
 20
72.999999999999815
 30
0.0
  0
VERTEX
  5
10FF
  8
SAPA_ANSLUTNING
 10
33.936768028220257
 20
61.999999999999808
 30
0.0
 42
0.9999999999999998
  0
VERTEX
  5
1100
  8
SAPA_ANSLUTNING
 10
37.936768028220257
 20
61.999999999999808
 30
0.0
  0
VERTEX
  5
1101
  8
SAPA_ANSLUTNING
 10
37.936768028220257
 20
72.999999999999815
 30
0.0
 42
-0.9999999999999998
  0
VERTEX
  5
1102
  8
SAPA_ANSLUTNING
 10
41.93676802822025
 20
72.999999999999815
 30
0.0
  0
VERTEX
  5
1103
  8
SAPA_ANSLUTNING
 10
41.93676802822025
 20
61.999999999999808
 30
0.0
 42
0.9999999999999998
  0
VERTEX
  5
1104
  8
SAPA_ANSLUTNING
 10
45.936768028220257
 20
61.999999999999808
 30
0.0
  0
VERTEX
  5
1105
  8
SAPA_ANSLUTNING
 10
45.936768028220257
 20
72.999999999999815
 30
0.0
 42
-0.9999999999999998
  0
VERTEX
  5
1106
  8
SAPA_ANSLUTNING
 10
49.936768028220257
 20
72.999999999999815
 30
0.0
  0
VERTEX
  5
1107
  8
SAPA_ANSLUTNING
 10
49.936768028220257
 20
61.999999999999808
 30
0.0
 42
0.9999999999999998
  0
VERTEX
  5
1108
  8
SAPA_ANSLUTNING
 10
53.93676802822025
 20
61.999999999999808
 30
0.0
  0
VERTEX
  5
1109
  8
SAPA_ANSLUTNING
 10
53.93676802822025
 20
72.999999999999815
 30
0.0
 42
-0.9999999999999998
  0
VERTEX
  5
110A
  8
SAPA_ANSLUTNING
 10
57.936768028220257
 20
72.999999999999815
 30
0.0
  0
VERTEX
  5
110B
  8
SAPA_ANSLUTNING
 10
57.936768028220257
 20
61.999999999999808
 30
0.0
 42
0.9999999999999998
  0
VERTEX
  5
110C
  8
SAPA_ANSLUTNING
 10
61.93676802822025
 20
61.999999999999808
 30
0.0
  0
VERTEX
  5
110D
  8
SAPA_ANSLUTNING
 10
61.93676802822025
 20
72.999999999999815
 30
0.0
 42
-0.9999999999999998
  0
VERTEX
  5
110E
  8
SAPA_ANSLUTNING
 10
65.936768028220257
 20
72.999999999999815
 30
0.0
  0
VERTEX
  5
110F
  8
SAPA_ANSLUTNING
 10
65.936768028220257
 20
61.999999999999808
 30
0.0
 42
0.9999999999999998
  0
VERTEX
  5
1110
  8
SAPA_ANSLUTNING
 10
69.936768028220257
 20
61.999999999999808
 30
0.0
  0
VERTEX
  5
1111
  8
SAPA_ANSLUTNING
 10
69.936768028220257
 20
72.999999999999815
 30
0.0
 42
-0.5251735434384823
  0
VERTEX
  5
1112
  8
SAPA_ANSLUTNING
 10
72.647930409458979
 20
74.869290792656457
 30
0.0
 42
-0.5251735434384823
  0
SEQEND
  5
1113
  8
SAPA_ANSLUTNING
  0
POLYLINE
  5
CC5
  8
SAPA_ANSLUTNING
 66
     1
 10
0.0
 20
0.0
 30
0.0
  0
VERTEX
  5
1114
  8
SAPA_ANSLUTNING
 10
62.000000000000092
 20
73.49892845665893
 30
0.0
 42
-0.8812634091771133
  0
VERTEX
  5
1115
  8
SAPA_ANSLUTNING
 10
65.936768028220257
 20
72.999999999999844
 30
0.0
  0
VERTEX
  5
1116
  8
SAPA_ANSLUTNING
 10
65.936768028220257
 20
61.999999999999851
 30
0.0
 42
0.9999999999999998
  0
VERTEX
  5
1117
  8
SAPA_ANSLUTNING
 10
69.936768028220257
 20
61.999999999999851
 30
0.0
  0
VERTEX
  5
1118
  8
SAPA_ANSLUTNING
 10
69.936768028220243
 20
72.999999999999844
 30
0.0
 42
-0.9999999999999998
  0
VERTEX
  5
1119
  8
SAPA_ANSLUTNING
 10
73.936768028220243
 20
72.999999999999815
 30
0.0
  0
VERTEX
  5
111A
  8
SAPA_ANSLUTNING
 10
73.936768028220257
 20
61.999999999999808
 30
0.0
 42
0.9999999999999998
  0
VERTEX
  5
111B
  8
SAPA_ANSLUTNING
 10
77.936768028220257
 20
61.999999999999808
 30
0.0
  0
VERTEX
  5
111C
  8
SAPA_ANSLUTNING
 10
77.936768028220243
 20
72.999999999999815
 30
0.0
 42
-0.9999999999999998
  0
VERTEX
  5
111D
  8
SAPA_ANSLUTNING
 10
81.936768028220229
 20
72.999999999999815
 30
0.0
  0
VERTEX
  5
111E
  8
SAPA_ANSLUTNING
 10
81.936768028220229
 20
61.999999999999808
 30
0.0
 42
0.9999999999999998
  0
VERTEX
  5
111F
  8
SAPA_ANSLUTNING
 10
85.936768028220243
 20
61.999999999999808
 30
0.0
  0
VERTEX
  5
1120
  8
SAPA_ANSLUTNING
 10
85.936768028220243
 20
72.999999999999815
 30
0.0
 42
-0.9999999999999998
  0
VERTEX
  5
1121
  8
SAPA_ANSLUTNING
 10
89.936768028220243
 20
72.999999999999815
 30
0.0
  0
VERTEX
  5
1122
  8
SAPA_ANSLUTNING
 10
89.936768028220243
 20
61.999999999999808
 30
0.0
 42
0.9999999999999998
  0
VERTEX
  5
1123
  8
SAPA_ANSLUTNING
 10
93.936768028220243
 20
61.999999999999808
 30
0.0
  0
VERTEX
  5
1124
  8
SAPA_ANSLUTNING
 10
93.936768028220243
 20
72.999999999999815
 30
0.0
 42
-0.9999999999999998
  0
VERTEX
  5
1125
  8
SAPA_ANSLUTNING
 10
97.936768028220257
 20
72.999999999999815
 30
0.0
  0
VERTEX
  5
1126
  8
SAPA_ANSLUTNING
 10
97.936768028220257
 20
61.999999999999808
 30
0.0
 42
0.9999999999999998
  0
VERTEX
  5
1127
  8
SAPA_ANSLUTNING
 10
101.9367680282202
 20
61.999999999999808
 30
0.0
  0
VERTEX
  5
1128
  8
SAPA_ANSLUTNING
 10
101.9367680282202
 20
72.999999999999815
 30
0.0
 42
-0.9999999999999998
  0
VERTEX
  5
1129
  8
SAPA_ANSLUTNING
 10
105.9367680282202
 20
72.999999999999815
 30
0.0
  0
VERTEX
  5
112A
  8
SAPA_ANSLUTNING
 10
105.9367680282202
 20
61.999999999999808
 30
0.0
 42
0.9999999999999998
  0
VERTEX
  5
112B
  8
SAPA_ANSLUTNING
 10
109.9367680282202
 20
61.999999999999808
 30
0.0
  0
VERTEX
  5
112C
  8
SAPA_ANSLUTNING
 10
109.9367680282202
 20
72.999999999999815
 30
0.0
 42
-0.9999999999999998
  0
VERTEX
  5
112D
  8
SAPA_ANSLUTNING
 10
113.9367680282202
 20
72.999999999999815
 30
0.0
  0
VERTEX
  5
112E
  8
SAPA_ANSLUTNING
 10
113.9367680282202
 20
61.999999999999808
 30
0.0
 42
0.9999999999999998
  0
VERTEX
  5
112F
  8
SAPA_ANSLUTNING
 10
117.9367680282202
 20
61.999999999999808
 30
0.0
  0
VERTEX
  5
1130
  8
SAPA_ANSLUTNING
 10
117.9367680282202
 20
72.999999999999815
 30
0.0
 42
-0.5251735434384823
  0
VERTEX
  5
1131
  8
SAPA_ANSLUTNING
 10
120.64793040945889
 20
74.869290792656457
 30
0.0
 42
-0.5251735434384823
  0
SEQEND
  5
1132
  8
SAPA_ANSLUTNING
  0
POLYLINE
  5
CC6
  8
SAPA_ANSLUTNING
 66
     1
 10
0.0
 20
0.0
 30
0.0
  0
VERTEX
  5
1133
  8
SAPA_ANSLUTNING
 10
110.0000000000001
 20
73.49892845665893
 30
0.0
 42
-0.8812634091771133
  0
VERTEX
  5
1134
  8
SAPA_ANSLUTNING
 10
113.9367680282202
 20
72.999999999999844
 30
0.0
  0
VERTEX
  5
1135
  8
SAPA_ANSLUTNING
 10
113.9367680282202
 20
61.999999999999851
 30
0.0
 42
0.9999999999999998
  0
VERTEX
  5
1136
  8
SAPA_ANSLUTNING
 10
117.9367680282202
 20
61.999999999999851
 30
0.0
  0
VERTEX
  5
1137
  8
SAPA_ANSLUTNING
 10
117.9367680282202
 20
72.999999999999844
 30
0.0
 42
-0.9999999999999998
  0
VERTEX
  5
1138
  8
SAPA_ANSLUTNING
 10
121.9367680282202
 20
72.999999999999815
 30
0.0
  0
VERTEX
  5
1139
  8
SAPA_ANSLUTNING
 10
121.9367680282202
 20
61.999999999999808
 30
0.0
 42
0.9999999999999998
  0
VERTEX
  5
113A
  8
SAPA_ANSLUTNING
 10
125.9367680282202
 20
61.999999999999808
 30
0.0
  0
VERTEX
  5
113B
  8
SAPA_ANSLUTNING
 10
125.9367680282202
 20
72.999999999999815
 30
0.0
 42
-0.9999999999999998
  0
VERTEX
  5
113C
  8
SAPA_ANSLUTNING
 10
129.9367680282202
 20
72.999999999999815
 30
0.0
  0
VERTEX
  5
113D
  8
SAPA_ANSLUTNING
 10
129.9367680282202
 20
61.999999999999808
 30
0.0
 42
0.9999999999999998
  0
VERTEX
  5
113E
  8
SAPA_ANSLUTNING
 10
133.9367680282202
 20
61.999999999999808
 30
0.0
  0
VERTEX
  5
113F
  8
SAPA_ANSLUTNING
 10
133.9367680282202
 20
72.999999999999815
 30
0.0
 42
-0.9999999999999998
  0
VERTEX
  5
1140
  8
SAPA_ANSLUTNING
 10
137.9367680282202
 20
72.999999999999815
 30
0.0
  0
VERTEX
  5
1141
  8
SAPA_ANSLUTNING
 10
137.9367680282202
 20
61.999999999999808
 30
0.0
 42
0.4183530514568368
  0
VERTEX
  5
1142
  8
SAPA_ANSLUTNING
 10
139.96499186580331
 20
60.000199156167589
 30
0.0
 42
0.4183530514568368
  0
SEQEND
  5
1143
  8
SAPA_ANSLUTNING
  0
POLYLINE
  5
ECC
  8
SAPA_PROFIL
 62
     4
 66
     1
 10
0.0
 20
0.0
 30
0.0
 70
     1
  0
VERTEX
  5
ECD
  8
SAPA_PROFIL
 62
     4
 10
56.143782217080449
 20
14.649987999994311
 30
0.0
 42
0.1316524975873979
  0
VERTEX
  5
ECE
  8
SAPA_PROFIL
 62
     4
 10
56.543782217080462
 20
14.75716767696675
 30
0.0
  0
VERTEX
  5
ECF
  8
SAPA_PROFIL
 62
     4
 10
58.263397459354508
 20
15.749987999996179
 30
0.0
  0
VERTEX
  5
ED0
  8
SAPA_PROFIL
 62
     4
 10
58.69999999973296
 20
15.74998799999627
 30
0.0
 42
-0.4142135623730951
  0
VERTEX
  5
ED1
  8
SAPA_PROFIL
 62
     4
 10
58.949999999732938
 20
15.49998799999627
 30
0.0
  0
VERTEX
  5
ED2
  8
SAPA_PROFIL
 62
     4
 10
58.949999999733002
 20
11.89997599999621
 30
0.0
 42
-0.4142135623731053
  0
VERTEX
  5
ED3
  8
SAPA_PROFIL
 62
     4
 10
58.699999999732988
 20
11.649975999996199
 30
0.0
  0
VERTEX
  5
ED4
  8
SAPA_PROFIL
 62
     4
 10
58.26339807815453
 20
11.64998764273156
 30
0.0
  0
VERTEX
  5
ED5
  8
SAPA_PROFIL
 62
     4
 10
56.543782217087141
 20
12.642808323021841
 30
0.0
 42
0.1316524975874149
  0
VERTEX
  5
ED6
  8
SAPA_PROFIL
 62
     4
 10
56.143782217087093
 20
12.749987999994341
 30
0.0
  0
VERTEX
  5
ED7
  8
SAPA_PROFIL
 62
     4
 10
31.856217782378788
 20
12.749987999994341
 30
0.0
 42
0.1316524975874151
  0
VERTEX
  5
ED8
  8
SAPA_PROFIL
 62
     4
 10
31.45621778237874
 20
12.642808323021841
 30
0.0
  0
VERTEX
  5
ED9
  8
SAPA_PROFIL
 62
     4
 10
29.736601921311362
 20
11.649987642731571
 30
0.0
  0
VERTEX
  5
EDA
  8
SAPA_PROFIL
 62
     4
 10
29.29999999973289
 20
11.64997599999621
 30
0.0
 42
-0.4142135623731054
  0
VERTEX
  5
EDB
  8
SAPA_PROFIL
 62
     4
 10
29.049999999732879
 20
11.89997599999621
 30
0.0
  0
VERTEX
  5
EDC
  8
SAPA_PROFIL
 62
     4
 10
29.04999999973294
 20
15.49998799999628
 30
0.0
 42
-0.4142135623730953
  0
VERTEX
  5
EDD
  8
SAPA_PROFIL
 62
     4
 10
29.299999999732929
 20
15.74998799999627
 30
0.0
  0
VERTEX
  5
EDE
  8
SAPA_PROFIL
 62
     4
 10
29.736602540111381
 20
15.749987999996179
 30
0.0
  0
VERTEX
  5
EDF
  8
SAPA_PROFIL
 62
     4
 10
31.456217782385419
 20
14.75716767696675
 30
0.0
 42
0.1316524975873982
  0
VERTEX
  5
EE0
  8
SAPA_PROFIL
 62
     4
 10
31.856217782385439
 20
14.649987999994311
 30
0.0
  0
SEQEND
  5
EE1
  8
SAPA_PROFIL
 62
     4
  0
POLYLINE
  5
EE2
  8
SAPA_PROFIL
 66
     1
 10
0.0
 20
0.0
 30
0.0
 70
     1
  0
VERTEX
  5
1355
  8
SAPA_PROFIL
 10
29.243869040686711
 20
17.74944465005677
 30
0.0
  0
VERTEX
  5
1356
  8
SAPA_PROFIL
 10
30.199999999722081
 20
17.749444650053132
 30
0.0
 42
0.2418327667557183
  0
VERTEX
  5
1357
  8
SAPA_PROFIL
 10
30.443869040688639
 20
17.874722325030081
 30
0.0
 42
-0.2418327667535164
  0
VERTEX
  5
1358
  8
SAPA_PROFIL
 10
30.687738081647389
 20
18.000000000004292
 30
0.0
  0
VERTEX
  5
1359
  8
SAPA_PROFIL
 10
32.911541959280207
 20
17.999999999995829
 30
0.0
 42
-0.0874886635239214
  0
VERTEX
  5
135A
  8
SAPA_PROFIL
 10
33.014148002275597
 20
17.981907786232028
 30
0.0
  0
VERTEX
  5
135B
  8
SAPA_PROFIL
 10
34.441501172321033
 20
17.46239371855668
 30
0.0
 42
-0.4142135623698208
  0
VERTEX
  5
135C
  8
SAPA_PROFIL
 10
34.620802915558407
 20
17.077879889314509
 30
0.0
  0
VERTEX
  5
135D
  8
SAPA_PROFIL
 10
34.55239888688736
 20
16.889941365165811
 30
0.0
 42
-0.4142135623730019
  0
VERTEX
  5
135E
  8
SAPA_PROFIL
 10
34.167885057665728
 20
16.710639621923281
 30
0.0
  0
VERTEX
  5
135F
  8
SAPA_PROFIL
 10
33.134223174796581
 20
17.08686177958997
 30
0.0
 42
0.41421356237947
  0
VERTEX
  5
1360
  8
SAPA_PROFIL
 10
32.749709345565023
 20
16.907560036338818
 30
0.0
  0
VERTEX
  5
1361
  8
SAPA_PROFIL
 10
32.090854038329212
 20
15.0973699569999
 30
0.0
 42
-0.3152987888800591
  0
VERTEX
  5
1362
  8
SAPA_PROFIL
 10
31.80894625209298
 20
14.89997599999657
 30
0.0
  0
VERTEX
  5
1363
  8
SAPA_PROFIL
 10
31.38923048427365
 20
14.89997599999667
 30
0.0
 42
-0.1316524975873855
  0
VERTEX
  5
1364
  8
SAPA_PROFIL
 10
31.23923048427373
 20
14.94016837886131
 30
0.0
  0
VERTEX
  5
1365
  8
SAPA_PROFIL
 10
29.74999999973285
 20
15.799975999996621
 30
0.0
  0
VERTEX
  5
1366
  8
SAPA_PROFIL
 10
29.299999999732901
 20
15.799987999996279
 30
0.0
 42
0.4142135623731054
  0
VERTEX
  5
1367
  8
SAPA_PROFIL
 10
28.999999999732889
 20
15.49998799999628
 30
0.0
  0
VERTEX
  5
1368
  8
SAPA_PROFIL
 10
28.999999999732939
 20
11.89997599999621
 30
0.0
 42
0.414213562373095
  0
VERTEX
  5
1369
  8
SAPA_PROFIL
 10
29.29999999973294
 20
11.59997599999622
 30
0.0
  0
VERTEX
  5
136A
  8
SAPA_PROFIL
 10
29.749999999732939
 20
11.59997599999631
 30
0.0
  0
VERTEX
  5
136B
  8
SAPA_PROFIL
 10
31.239260130807111
 20
12.459800737565301
 30
0.0
 42
-0.1316363093594254
  0
VERTEX
  5
136C
  8
SAPA_PROFIL
 10
31.38924103585385
 20
12.49999311582226
 30
0.0
  0
VERTEX
  5
136D
  8
SAPA_PROFIL
 10
31.49999999973954
 20
12.50000016561307
 30
0.0
  0
VERTEX
  5
136E
  8
SAPA_PROFIL
 10
31.49999999973954
 20
10.49999999999994
 30
0.0
 42
-0.4142135623730951
  0
VERTEX
  5
136F
  8
SAPA_PROFIL
 10
30.99999999973954
 20
9.9999999999999432
 30
0.0
  0
VERTEX
  5
1370
  8
SAPA_PROFIL
 10
23.849999999461598
 20
9.9999999999999432
 30
0.0
 42
-0.4142135623730935
  0
VERTEX
  5
1371
  8
SAPA_PROFIL
 10
23.54999999946596
 20
10.299999999999219
 30
0.0
  0
VERTEX
  5
1372
  8
SAPA_PROFIL
 10
23.549999999462319
 20
10.950000000000671
 30
0.0
 42
0.4142135623730951
  0
VERTEX
  5
1373
  8
SAPA_PROFIL
 10
23.24999999946305
 20
11.24999999999994
 30
0.0
  0
VERTEX
  5
1374
  8
SAPA_PROFIL
 10
22.5499999995751
 20
11.250000000003579
 30
0.0
 42
0.4142135623730971
  0
VERTEX
  5
1375
  8
SAPA_PROFIL
 10
22.249999999579469
 20
10.950000000000671
 30
0.0
  0
VERTEX
  5
1376
  8
SAPA_PROFIL
 10
22.249999999561279
 20
-0.9500000000044117
 30
0.0
 42
0.4142135623730881
  0
VERTEX
  5
1377
  8
SAPA_PROFIL
 10
22.549999999560551
 20
-1.2500000000036839
 30
0.0
  0
VERTEX
  5
1378
  8
SAPA_PROFIL
 10
23.250000000037851
 20
-1.2500000000146121
 30
0.0
 42
0.4142135623730968
  0
VERTEX
  5
1379
  8
SAPA_PROFIL
 10
23.550000000048041
 20
-0.9500000000044117
 30
0.0
  0
VERTEX
  5
137A
  8
SAPA_PROFIL
 10
23.550000000033481
 20
-0.2999999999920426
 30
0.0
 42
-0.4142135623517844
  0
VERTEX
  5
137B
  8
SAPA_PROFIL
 10
23.850000000036388
 20
-0.0000000000036842
 30
0.0
  0
VERTEX
  5
137C
  8
SAPA_PROFIL
 10
25.800000000048041
 20
-0.0000000000036877
 30
0.0
 42
-0.414213562373103
  0
VERTEX
  5
137D
  8
SAPA_PROFIL
 10
26.000000000037851
 20
-0.2000000000044153
 30
0.0
  0
VERTEX
  5
137E
  8
SAPA_PROFIL
 10
26.000000000037851
 20
-1.3000000000029599
 30
0.0
 42
-0.4142135623731049
  0
VERTEX
  5
137F
  8
SAPA_PROFIL
 10
25.800000000048041
 20
-1.5000000000036871
 30
0.0
  0
VERTEX
  5
1380
  8
SAPA_PROFIL
 10
25.000000000037851
 20
-1.5000000000036871
 30
0.0
 42
0.414213562373094
  0
VERTEX
  5
1381
  8
SAPA_PROFIL
 10
24.500000000037851
 20
-2.0000000000036868
 30
0.0
  0
VERTEX
  5
1382
  8
SAPA_PROFIL
 10
24.499999999557669
 20
-3.000000000014615
 30
0.0
 42
0.4142135623730951
  0
VERTEX
  5
1383
  8
SAPA_PROFIL
 10
24.999999999557669
 20
-3.5000000000146012
 30
0.0
  0
VERTEX
  5
1384
  8
SAPA_PROFIL
 10
25.79999999956058
 20
-3.5000000000036868
 30
0.0
 42
-0.414213562373103
  0
VERTEX
  5
1385
  8
SAPA_PROFIL
 10
25.999999999557669
 20
-3.7000000000044149
 30
0.0
  0
VERTEX
  5
1386
  8
SAPA_PROFIL
 10
25.99999999955039
 20
-4.8000000000029743
 30
0.0
 42
-0.4142135623731049
  0
VERTEX
  5
1387
  8
SAPA_PROFIL
 10
25.79999999956058
 20
-5.000000000003701
 30
0.0
  0
VERTEX
  5
1388
  8
SAPA_PROFIL
 10
22.25000000005971
 20
-5.0000000000036984
 30
0.0
 42
-0.3389652260127085
  0
VERTEX
  5
1389
  8
SAPA_PROFIL
 10
21.2845297005147
 20
-4.2605131488013193
 30
0.0
 42
-0.0274862826960608
  0
VERTEX
  5
138A
  8
SAPA_PROFIL
 10
20.500000000078789
 20
10.00000000017455
 30
0.0
  0
VERTEX
  5
138B
  8
SAPA_PROFIL
 10
20.499999999921432
 20
14.999999999901711
 30
0.0
 42
-0.4142135623816193
  0
VERTEX
  5
138C
  8
SAPA_PROFIL
 10
23.499999999921439
 20
17.999999999996302
 30
0.0
  0
VERTEX
  5
138D
  8
SAPA_PROFIL
 10
28.75613095877781
 20
17.999999999996302
 30
0.0
 42
-0.2418327667412822
  0
VERTEX
  5
138E
  8
SAPA_PROFIL
 10
28.9999999997274
 20
17.874722325032749
 30
0.0
 42
0.2418327667543803
  0
SEQEND
  5
138F
  8
SAPA_PROFIL
  0
POLYLINE
  5
EE3
  8
SAPA_PROFIL
 66
     1
 10
0.0
 20
0.0
 30
0.0
 70
     1
  0
VERTEX
  5
1390
  8
SAPA_PROFIL
 10
58.756130958779167
 20
17.74944465005683
 30
0.0
  0
VERTEX
  5
1391
  8
SAPA_PROFIL
 10
57.799999999743811
 20
17.749444650053189
 30
0.0
 42
-0.2418327667557183
  0
VERTEX
  5
1392
  8
SAPA_PROFIL
 10
57.556130958777239
 20
17.874722325030131
 30
0.0
 42
0.2418327667535164
  0
VERTEX
  5
1393
  8
SAPA_PROFIL
 10
57.312261917818503
 20
18.000000000004341
 30
0.0
  0
VERTEX
  5
1394
  8
SAPA_PROFIL
 10
55.088458040185692
 20
17.999999999995879
 30
0.0
 42
0.0874886635239214
  0
VERTEX
  5
1395
  8
SAPA_PROFIL
 10
54.985851997190302
 20
17.981907786232082
 30
0.0
  0
VERTEX
  5
1396
  8
SAPA_PROFIL
 10
53.558498827144859
 20
17.462393718556729
 30
0.0
 42
0.4142135623698208
  0
VERTEX
  5
1397
  8
SAPA_PROFIL
 10
53.379197083907471
 20
17.077879889314559
 30
0.0
  0
VERTEX
  5
1398
  8
SAPA_PROFIL
 10
53.447601112578518
 20
16.889941365165871
 30
0.0
 42
0.4142135623730019
  0
VERTEX
  5
1399
  8
SAPA_PROFIL
 10
53.832114941800157
 20
16.710639621923342
 30
0.0
  0
VERTEX
  5
139A
  8
SAPA_PROFIL
 10
54.865776824669311
 20
17.086861779590031
 30
0.0
 42
-0.41421356237947
  0
VERTEX
  5
139B
  8
SAPA_PROFIL
 10
55.250290653900862
 20
16.907560036338872
 30
0.0
  0
VERTEX
  5
139C
  8
SAPA_PROFIL
 10
55.909145961136687
 20
15.09736995699995
 30
0.0
 42
0.3152987888800591
  0
VERTEX
  5
139D
  8
SAPA_PROFIL
 10
56.191053747372912
 20
14.89997599999662
 30
0.0
  0
VERTEX
  5
139E
  8
SAPA_PROFIL
 10
56.610769515192239
 20
14.89997599999672
 30
0.0
 42
0.1316524975873855
  0
VERTEX
  5
139F
  8
SAPA_PROFIL
 10
56.760769515192173
 20
14.940168378861371
 30
0.0
  0
VERTEX
  5
13A0
  8
SAPA_PROFIL
 10
58.249999999733049
 20
15.79997599999667
 30
0.0
  0
VERTEX
  5
13A1
  8
SAPA_PROFIL
 10
58.699999999732988
 20
15.799987999996331
 30
0.0
 42
-0.4142135623731054
  0
VERTEX
  5
13A2
  8
SAPA_PROFIL
 10
58.999999999732992
 20
15.49998799999633
 30
0.0
  0
VERTEX
  5
13A3
  8
SAPA_PROFIL
 10
58.99999999973295
 20
11.89997599999627
 30
0.0
 42
-0.414213562373095
  0
VERTEX
  5
13A4
  8
SAPA_PROFIL
 10
58.699999999732952
 20
11.599975999996269
 30
0.0
  0
VERTEX
  5
13A5
  8
SAPA_PROFIL
 10
58.24999999973295
 20
11.599975999996371
 30
0.0
  0
VERTEX
  5
13A6
  8
SAPA_PROFIL
 10
56.760739868658767
 20
12.459800737565351
 30
0.0
 42
0.1316363093594254
  0
VERTEX
  5
13A7
  8
SAPA_PROFIL
 10
56.610758963612028
 20
12.499993115822321
 30
0.0
  0
VERTEX
  5
13A8
  8
SAPA_PROFIL
 10
56.499999999726349
 20
12.50000016561313
 30
0.0
  0
VERTEX
  5
13A9
  8
SAPA_PROFIL
 10
56.499999999726349
 20
10.5
 30
0.0
 42
0.4142135623730951
  0
VERTEX
  5
13AA
  8
SAPA_PROFIL
 10
56.999999999726349
 20
10.0
 30
0.0
  0
VERTEX
  5
13AB
  8
SAPA_PROFIL
 10
64.150000000004283
 20
10.0
 30
0.0
 42
0.4142135623730935
  0
VERTEX
  5
13AC
  8
SAPA_PROFIL
 10
64.449999999999932
 20
10.299999999999271
 30
0.0
  0
VERTEX
  5
13AD
  8
SAPA_PROFIL
 10
64.450000000003556
 20
10.950000000000729
 30
0.0
 42
-0.4142135623730951
  0
VERTEX
  5
13AE
  8
SAPA_PROFIL
 10
64.750000000002814
 20
11.249999999999989
 30
0.0
  0
VERTEX
  5
13AF
  8
SAPA_PROFIL
 10
65.449999999890764
 20
11.25000000000364
 30
0.0
 42
-0.4142135623730971
  0
VERTEX
  5
13B0
  8
SAPA_PROFIL
 10
65.749999999886427
 20
10.950000000000729
 30
0.0
  0
VERTEX
  5
13B1
  8
SAPA_PROFIL
 10
65.749999999904603
 20
-0.950000000004362
 30
0.0
 42
-0.4142135623730881
  0
VERTEX
  5
13B2
  8
SAPA_PROFIL
 10
65.44999999990533
 20
-1.250000000003634
 30
0.0
  0
VERTEX
  5
13B3
  8
SAPA_PROFIL
 10
64.749999999428013
 20
-1.250000000014555
 30
0.0
 42
-0.4142135623730968
  0
VERTEX
  5
13B4
  8
SAPA_PROFIL
 10
64.449999999417841
 20
-0.950000000004362
 30
0.0
  0
VERTEX
  5
13B5
  8
SAPA_PROFIL
 10
64.449999999432393
 20
-0.2999999999919929
 30
0.0
 42
0.4142135623517844
  0
VERTEX
  5
13B6
  8
SAPA_PROFIL
 10
64.149999999429483
 20
-0.0000000000036344
 30
0.0
  0
VERTEX
  5
13B7
  8
SAPA_PROFIL
 10
62.199999999417841
 20
-0.0000000000036344
 30
0.0
 42
0.414213562373103
  0
VERTEX
  5
13B8
  8
SAPA_PROFIL
 10
61.999999999428042
 20
-0.200000000004362
 30
0.0
  0
VERTEX
  5
13B9
  8
SAPA_PROFIL
 10
61.999999999428042
 20
-1.3000000000029059
 30
0.0
 42
0.4142135623731049
  0
VERTEX
  5
13BA
  8
SAPA_PROFIL
 10
62.199999999417841
 20
-1.500000000003634
 30
0.0
  0
VERTEX
  5
13BB
  8
SAPA_PROFIL
 10
62.999999999428027
 20
-1.500000000003634
 30
0.0
 42
-0.414213562373094
  0
VERTEX
  5
13BC
  8
SAPA_PROFIL
 10
63.499999999428027
 20
-2.000000000003634
 30
0.0
  0
VERTEX
  5
13BD
  8
SAPA_PROFIL
 10
63.499999999908219
 20
-3.000000000014555
 30
0.0
 42
-0.4142135623730951
  0
VERTEX
  5
13BE
  8
SAPA_PROFIL
 10
62.999999999908219
 20
-3.5000000000145408
 30
0.0
  0
VERTEX
  5
13BF
  8
SAPA_PROFIL
 10
62.199999999905302
 20
-3.500000000003634
 30
0.0
 42
0.414213562373103
  0
VERTEX
  5
13C0
  8
SAPA_PROFIL
 10
61.999999999908219
 20
-3.700000000004362
 30
0.0
  0
VERTEX
  5
13C1
  8
SAPA_PROFIL
 10
61.999999999915502
 20
-4.800000000002913
 30
0.0
 42
0.4142135623731049
  0
VERTEX
  5
13C2
  8
SAPA_PROFIL
 10
62.199999999905302
 20
-5.0000000000036477
 30
0.0
  0
VERTEX
  5
13C3
  8
SAPA_PROFIL
 10
65.749999999406171
 20
-5.0000000000036477
 30
0.0
 42
0.3389652260127085
  0
VERTEX
  5
13C4
  8
SAPA_PROFIL
 10
66.715470298951175
 20
-4.2605131488012624
 30
0.0
 42
0.0274862826960608
  0
VERTEX
  5
13C5
  8
SAPA_PROFIL
 10
67.499999999387086
 20
10.0000000001746
 30
0.0
  0
VERTEX
  5
13C6
  8
SAPA_PROFIL
 10
67.499999999544443
 20
14.99999999990176
 30
0.0
 42
0.4142135623816193
  0
VERTEX
  5
13C7
  8
SAPA_PROFIL
 10
64.499999999544457
 20
17.999999999996351
 30
0.0
  0
VERTEX
  5
13C8
  8
SAPA_PROFIL
 10
59.243869040688068
 20
17.999999999996358
 30
0.0
 42
0.2418327667412822
  0
VERTEX
  5
13C9
  8
SAPA_PROFIL
 10
58.999999999738478
 20
17.874722325032799
 30
0.0
 42
-0.2418327667543803
  0
SEQEND
  5
13CA
  8
SAPA_PROFIL
  0
POLYLINE
  5
EE4
  8
SAPA_PROFIL
 62
     4
 66
     1
 10
0.0
 20
0.0
 30
0.0
 70
     1
  0
VERTEX
  5
13CB
  8
SAPA_PROFIL
 62
     4
 10
64.725833080859388
 20
54.50925230370207
 30
0.0
  0
VERTEX
  5
13CC
  8
SAPA_PROFIL
 62
     4
 10
63.236602540014189
 20
53.649444650059749
 30
0.0
  0
VERTEX
  5
13CD
  8
SAPA_PROFIL
 62
     4
 10
62.79999999963573
 20
53.64944465005965
 30
0.0
 42
-0.4142135623730946
  0
VERTEX
  5
13CE
  8
SAPA_PROFIL
 62
     4
 10
62.549999999635759
 20
53.89944465005965
 30
0.0
  0
VERTEX
  5
13CF
  8
SAPA_PROFIL
 62
     4
 10
62.549999999635702
 20
57.499456650059713
 30
0.0
 42
-0.414213562373107
  0
VERTEX
  5
13D0
  8
SAPA_PROFIL
 62
     4
 10
62.799999999635702
 20
57.74945665005972
 30
0.0
  0
VERTEX
  5
13D1
  8
SAPA_PROFIL
 62
     4
 10
63.236601921214167
 20
57.749445007324347
 30
0.0
  0
VERTEX
  5
13D2
  8
SAPA_PROFIL
 62
     4
 10
64.725832968251865
 20
56.889637061431372
 30
0.0
 42
0.1316524975874248
  0
VERTEX
  5
13D3
  8
SAPA_PROFIL
 62
     4
 10
64.875832968251899
 20
56.849444682566677
 30
0.0
  0
VERTEX
  5
13D4
  8
SAPA_PROFIL
 62
     4
 10
88.124166959503157
 20
56.849444682566677
 30
0.0
 42
0.1316524975874248
  0
VERTEX
  5
13D5
  8
SAPA_PROFIL
 62
     4
 10
88.274166959503191
 20
56.889637061431372
 30
0.0
  0
VERTEX
  5
13D6
  8
SAPA_PROFIL
 62
     4
 10
89.763398006540882
 20
57.749445007324347
 30
0.0
  0
VERTEX
  5
13D7
  8
SAPA_PROFIL
 62
     4
 10
90.199999928119325
 20
57.749456650059713
 30
0.0
 42
-0.4142135623731049
  0
VERTEX
  5
13D8
  8
SAPA_PROFIL
 62
     4
 10
90.449999928119325
 20
57.499456650059713
 30
0.0
  0
VERTEX
  5
13D9
  8
SAPA_PROFIL
 62
     4
 10
90.449999928119297
 20
53.89944465005965
 30
0.0
 42
-0.4142135623730951
  0
VERTEX
  5
13DA
  8
SAPA_PROFIL
 62
     4
 10
90.199999928119297
 20
53.64944465005965
 30
0.0
  0
VERTEX
  5
13DB
  8
SAPA_PROFIL
 62
     4
 10
89.763397387740838
 20
53.649444650059749
 30
0.0
  0
VERTEX
  5
13DC
  8
SAPA_PROFIL
 62
     4
 10
88.274166846895724
 20
54.509252303702013
 30
0.0
 42
0.1316524975873867
  0
VERTEX
  5
13DD
  8
SAPA_PROFIL
 62
     4
 10
88.124166846895747
 20
54.54944468256668
 30
0.0
  0
VERTEX
  5
13DE
  8
SAPA_PROFIL
 62
     4
 10
64.875833080859366
 20
54.54944468256673
 30
0.0
 42
0.1316524975873873
  0
SEQEND
  5
13DF
  8
SAPA_PROFIL
 62
     4
  0
POLYLINE
  5
EE5
  8
SAPA_PROFIL
 66
     1
 10
0.0
 20
0.0
 30
0.0
 70
     1
  0
VERTEX
  5
13E0
  8
SAPA_PROFIL
 10
17.300000000010328
 20
10.000000000032591
 30
0.0
 42
0.4142135623624294
  0
VERTEX
  5
13E1
  8
SAPA_PROFIL
 10
17.50000000000011
 20
10.20000000000784
 30
0.0
  0
VERTEX
  5
13E2
  8
SAPA_PROFIL
 10
17.500000000014658
 20
11.050000000006399
 30
0.0
 42
-0.4142135623730744
  0
VERTEX
  5
13E3
  8
SAPA_PROFIL
 10
17.700000000019031
 20
11.25000000000712
 30
0.0
  0
VERTEX
  5
13E4
  8
SAPA_PROFIL
 10
18.000000000000139
 20
11.24999999999984
 30
0.0
 42
-0.4142135623731035
  0
VERTEX
  5
13E5
  8
SAPA_PROFIL
 10
18.500000000000139
 20
10.749999999999829
 30
0.0
  0
VERTEX
  5
13E6
  8
SAPA_PROFIL
 10
18.500000000000139
 20
7.7499999999998357
 30
0.0
 42
-0.4142135623731035
  0
VERTEX
  5
13E7
  8
SAPA_PROFIL
 10
18.000000000000139
 20
7.2499999999998357
 30
0.0
  0
VERTEX
  5
13E8
  8
SAPA_PROFIL
 10
17.700000000004479
 20
7.2499999999998357
 30
0.0
 42
-0.4142135623730744
  0
VERTEX
  5
13E9
  8
SAPA_PROFIL
 10
17.50000000000011
 20
7.4500000000005784
 30
0.0
  0
VERTEX
  5
13EA
  8
SAPA_PROFIL
 10
17.500000000011049
 20
8.3000000000027612
 30
0.0
 42
0.4142135623730534
  0
VERTEX
  5
13EB
  8
SAPA_PROFIL
 10
17.300000000010328
 20
8.4999999999998366
 30
0.0
  0
VERTEX
  5
13EC
  8
SAPA_PROFIL
 10
16.300000000010328
 20
8.4999999999998366
 30
0.0
 42
0.4142135623731035
  0
VERTEX
  5
13ED
  8
SAPA_PROFIL
 10
15.80000000001033
 20
7.9999999999998357
 30
0.0
  0
VERTEX
  5
13EE
  8
SAPA_PROFIL
 10
15.80000000001033
 20
1.9999999999998499
 30
0.0
 42
0.4142135623731033
  0
VERTEX
  5
13EF
  8
SAPA_PROFIL
 10
16.300000000010311
 20
1.4999999999998499
 30
0.0
  0
VERTEX
  5
13F0
  8
SAPA_PROFIL
 10
17.300000000010311
 20
1.5000000000107641
 30
0.0
 42
0.414213562373064
  0
VERTEX
  5
13F1
  8
SAPA_PROFIL
 10
17.500000000000099
 20
1.7000000000005779
 30
0.0
  0
VERTEX
  5
13F2
  8
SAPA_PROFIL
 10
17.50000000000011
 20
2.5500000000027612
 30
0.0
 42
-0.414213562373064
  0
VERTEX
  5
13F3
  8
SAPA_PROFIL
 10
17.700000000004479
 20
2.7499999999998499
 30
0.0
  0
VERTEX
  5
13F4
  8
SAPA_PROFIL
 10
18.000000000000139
 20
2.7499999999998499
 30
0.0
 42
-0.4142135623731035
  0
VERTEX
  5
13F5
  8
SAPA_PROFIL
 10
18.500000000000139
 20
2.2499999999998499
 30
0.0
  0
VERTEX
  5
13F6
  8
SAPA_PROFIL
 10
18.500000000000131
 20
0.4999999999998508
 30
0.0
 42
-0.4142135623731035
  0
VERTEX
  5
13F7
  8
SAPA_PROFIL
 10
18.000000000000131
 20
-0.0000000000001492
 30
0.0
  0
VERTEX
  5
13F8
  8
SAPA_PROFIL
 10
15.50000000000013
 20
-0.0000000000001492
 30
0.0
 42
-0.4142135623730966
  0
VERTEX
  5
13F9
  8
SAPA_PROFIL
 10
14.000000000000099
 20
1.4999999999998499
 30
0.0
  0
VERTEX
  5
13FA
  8
SAPA_PROFIL
 10
14.00000000000011
 20
59.700000000000557
 30
0.0
 42
-0.4142135623730935
  0
VERTEX
  5
13FB
  8
SAPA_PROFIL
 10
14.3000000000103
 20
59.999999999999837
 30
0.0
  0
VERTEX
  5
13FC
  8
SAPA_PROFIL
 10
62.256130958696417
 20
59.999999999999851
 30
0.0
 42
-0.2418327667378115
  0
VERTEX
  5
13FD
  8
SAPA_PROFIL
 10
62.499999999634809
 20
59.874722325032749
 30
0.0
 42
0.2418327667509125
  0
VERTEX
  5
13FE
  8
SAPA_PROFIL
 10
62.743869040590774
 20
59.749444650060312
 30
0.0
  0
VERTEX
  5
13FF
  8
SAPA_PROFIL
 10
63.699999999640681
 20
59.749444650056667
 30
0.0
 42
0.2418327667448973
  0
VERTEX
  5
1400
  8
SAPA_PROFIL
 10
63.943869040595622
 20
59.87472232502509
 30
0.0
 42
-0.2418327667448979
  0
VERTEX
  5
1401
  8
SAPA_PROFIL
 10
64.187738081548218
 20
59.999999999992291
 30
0.0
  0
VERTEX
  5
1402
  8
SAPA_PROFIL
 10
66.285810437266178
 20
59.999999999992291
 30
0.0
 42
-0.6681786379192718
  0
VERTEX
  5
1403
  8
SAPA_PROFIL
 10
66.992917218452789
 20
58.292893218805787
 30
0.0
  0
VERTEX
  5
1404
  8
SAPA_PROFIL
 10
65.687867965283829
 20
56.987843965636607
 30
0.0
 42
-0.1989123673797335
  0
VERTEX
  5
1405
  8
SAPA_PROFIL
 10
65.475735930927755
 20
56.899975999992513
 30
0.0
  0
VERTEX
  5
1406
  8
SAPA_PROFIL
 10
64.889230484180558
 20
56.899975999992648
 30
0.0
 42
-0.1316524975873855
  0
VERTEX
  5
1407
  8
SAPA_PROFIL
 10
64.739230484180638
 20
56.940168378857287
 30
0.0
  0
VERTEX
  5
1408
  8
SAPA_PROFIL
 10
63.249999999639748
 20
57.79997599999259
 30
0.0
  0
VERTEX
  5
1409
  8
SAPA_PROFIL
 10
62.799999999639802
 20
57.799987999992247
 30
0.0
 42
0.4142135623731054
  0
VERTEX
  5
140A
  8
SAPA_PROFIL
 10
62.49999999963979
 20
57.49998799999225
 30
0.0
  0
VERTEX
  5
140B
  8
SAPA_PROFIL
 10
62.49999999963984
 20
53.899975999992193
 30
0.0
 42
0.4142135623730951
  0
VERTEX
  5
140C
  8
SAPA_PROFIL
 10
62.799999999639851
 20
53.599975999992189
 30
0.0
  0
VERTEX
  5
140D
  8
SAPA_PROFIL
 10
63.24999999963984
 20
53.599975999992289
 30
0.0
  0
VERTEX
  5
140E
  8
SAPA_PROFIL
 10
64.739260130714001
 20
54.459800737561281
 30
0.0
 42
-0.1316363093594257
  0
VERTEX
  5
140F
  8
SAPA_PROFIL
 10
64.889241035760762
 20
54.499993115818242
 30
0.0
  0
VERTEX
  5
1410
  8
SAPA_PROFIL
 10
64.999999999643592
 20
54.500000165609052
 30
0.0
  0
VERTEX
  5
1411
  8
SAPA_PROFIL
 10
64.999999999643592
 20
52.914359353937321
 30
0.0
 42
-0.2679491924308306
  0
VERTEX
  5
1412
  8
SAPA_PROFIL
 10
64.499999999643592
 20
52.048333950158693
 30
0.0
  0
VERTEX
  5
1413
  8
SAPA_PROFIL
 10
62.749999999643137
 20
51.037970979080207
 30
0.0
 42
0.2679491924308306
  0
VERTEX
  5
1414
  8
SAPA_PROFIL
 10
62.499999999643592
 20
50.60495827718826
 30
0.0
  0
VERTEX
  5
1415
  8
SAPA_PROFIL
 10
62.499999999643592
 20
49.39504172280779
 30
0.0
 42
0.2679491924308304
  0
VERTEX
  5
1416
  8
SAPA_PROFIL
 10
62.749999999643592
 20
48.962029020916653
 30
0.0
  0
VERTEX
  5
1417
  8
SAPA_PROFIL
 10
64.499999999643592
 20
47.951666049840988
 30
0.0
 42
-0.2679491924308308
  0
VERTEX
  5
1418
  8
SAPA_PROFIL
 10
64.999999999641716
 20
47.085640646055097
 30
0.0
  0
VERTEX
  5
1419
  8
SAPA_PROFIL
 10
64.999999999643876
 20
45.499999834386998
 30
0.0
  0
VERTEX
  5
141A
  8
SAPA_PROFIL
 10
64.889241035760762
 20
45.500006884177807
 30
0.0
 42
-0.1316363093594255
  0
VERTEX
  5
141B
  8
SAPA_PROFIL
 10
64.739260130714001
 20
45.540199262434768
 30
0.0
  0
VERTEX
  5
141C
  8
SAPA_PROFIL
 10
63.24999999963984
 20
46.400024000003746
 30
0.0
  0
VERTEX
  5
141D
  8
SAPA_PROFIL
 10
62.799999999639851
 20
46.400024000003853
 30
0.0
 42
0.4142135623730951
  0
VERTEX
  5
141E
  8
SAPA_PROFIL
 10
62.49999999963984
 20
46.100024000003863
 30
0.0
  0
VERTEX
  5
141F
  8
SAPA_PROFIL
 10
62.49999999963979
 20
42.5000120000038
 30
0.0
 42
0.4142135623731054
  0
VERTEX
  5
1420
  8
SAPA_PROFIL
 10
62.799999999639802
 20
42.200012000003788
 30
0.0
  0
VERTEX
  5
1421
  8
SAPA_PROFIL
 10
63.249999999639748
 20
42.200024000003459
 30
0.0
  0
VERTEX
  5
1422
  8
SAPA_PROFIL
 10
64.739230484180638
 20
43.05983162113877
 30
0.0
 42
-0.1316524975873855
  0
VERTEX
  5
1423
  8
SAPA_PROFIL
 10
64.889230484180558
 20
43.100024000003422
 30
0.0
  0
VERTEX
  5
1424
  8
SAPA_PROFIL
 10
65.475735930927755
 20
43.100024000003557
 30
0.0
 42
-0.1989123673797335
  0
VERTEX
  5
1425
  8
SAPA_PROFIL
 10
65.687867965283829
 20
43.012156034359428
 30
0.0
  0
VERTEX
  5
1426
  8
SAPA_PROFIL
 10
66.992917218452789
 20
41.707106781190262
 30
0.0
 42
-0.6681786379192716
  0
VERTEX
  5
1427
  8
SAPA_PROFIL
 10
66.285810437266178
 20
40.000000000003759
 30
0.0
  0
VERTEX
  5
1428
  8
SAPA_PROFIL
 10
64.187738081546485
 20
40.000000000003759
 30
0.0
 42
-0.2418327667433386
  0
VERTEX
  5
1429
  8
SAPA_PROFIL
 10
63.943869040594933
 20
40.125277674969517
 30
0.0
 42
0.2418327667449431
  0
VERTEX
  5
142A
  8
SAPA_PROFIL
 10
63.699999999640681
 20
40.25055534993573
 30
0.0
  0
VERTEX
  5
142B
  8
SAPA_PROFIL
 10
62.743869040590774
 20
40.250555349939383
 30
0.0
 42
0.2418327667509097
  0
VERTEX
  5
142C
  8
SAPA_PROFIL
 10
62.499999999643649
 20
40.125277674956962
 30
0.0
 42
-0.2418327667378167
  0
VERTEX
  5
142D
  8
SAPA_PROFIL
 10
62.256130958696417
 20
40.000000000003759
 30
0.0
  0
VERTEX
  5
142E
  8
SAPA_PROFIL
 10
60.443389324929854
 20
39.999999999985292
 30
0.0
 42
-0.1095178116817878
  0
VERTEX
  5
142F
  8
SAPA_PROFIL
 10
59.598152801458859
 20
40.187384425907119
 30
0.0
  0
VERTEX
  5
1430
  8
SAPA_PROFIL
 10
53.968326436319437
 20
42.812615574068168
 30
0.0
 42
0.1095178116855129
  0
VERTEX
  5
1431
  8
SAPA_PROFIL
 10
53.123089912835098
 20
42.999999999999837
 30
0.0
  0
VERTEX
  5
1432
  8
SAPA_PROFIL
 10
45.999999999658137
 20
43.00000000000712
 30
0.0
 42
0.4142135623730957
  0
VERTEX
  5
1433
  8
SAPA_PROFIL
 10
45.499999999658137
 20
42.499999999985292
 30
0.0
  0
VERTEX
  5
1434
  8
SAPA_PROFIL
 10
45.499999999658137
 20
41.499999999985292
 30
0.0
 42
0.4142135623730915
  0
VERTEX
  5
1435
  8
SAPA_PROFIL
 10
45.999999999658137
 20
40.999999999985292
 30
0.0
  0
VERTEX
  5
1436
  8
SAPA_PROFIL
 10
46.291287847139863
 20
40.999999999985292
 30
0.0
 42
-0.2982166266909514
  0
VERTEX
  5
1437
  8
SAPA_PROFIL
 10
46.749545416629807
 20
40.699999999998177
 30
0.0
 42
-1.5275252316550829
  0
VERTEX
  5
1438
  8
SAPA_PROFIL
 10
41.250454582702361
 20
40.699999999998283
 30
0.0
 42
-0.2982166266892446
  0
VERTEX
  5
1439
  8
SAPA_PROFIL
 10
41.708712152169142
 20
40.999999999975969
 30
0.0
  0
VERTEX
  5
143A
  8
SAPA_PROFIL
 10
41.999999999658137
 20
40.999999999985292
 30
0.0
 42
0.4142135623730915
  0
VERTEX
  5
143B
  8
SAPA_PROFIL
 10
42.499999999658137
 20
41.499999999985292
 30
0.0
  0
VERTEX
  5
143C
  8
SAPA_PROFIL
 10
42.499999999658137
 20
42.499999999985292
 30
0.0
 42
0.4142135623730918
  0
VERTEX
  5
143D
  8
SAPA_PROFIL
 10
41.999999999658137
 20
42.999999999985278
 30
0.0
  0
VERTEX
  5
143E
  8
SAPA_PROFIL
 10
23.0769100868057
 20
42.999999999985292
 30
0.0
 42
0.1095178116838485
  0
VERTEX
  5
143F
  8
SAPA_PROFIL
 10
22.231673563315901
 20
42.812615574065383
 30
0.0
  0
VERTEX
  5
1440
  8
SAPA_PROFIL
 10
17.35476347652741
 20
40.538475052471611
 30
0.0
 42
0.2914734195858569
  0
VERTEX
  5
1441
  8
SAPA_PROFIL
 10
16.200000000004479
 20
38.725859478388728
 30
0.0
  0
VERTEX
  5
1442
  8
SAPA_PROFIL
 10
16.200000000004479
 20
19.00000000000712
 30
0.0
 42
0.4142135623730951
  0
VERTEX
  5
1443
  8
SAPA_PROFIL
 10
16.700000000004479
 20
18.50000000000713
 30
0.0
  0
VERTEX
  5
1444
  8
SAPA_PROFIL
 10
17.000000000021942
 20
18.50000000000713
 30
0.0
 42
0.4142135623731035
  0
VERTEX
  5
1445
  8
SAPA_PROFIL
 10
17.500000000021942
 20
19.00000000000712
 30
0.0
  0
VERTEX
  5
1446
  8
SAPA_PROFIL
 10
17.500000000021942
 20
20.300000000006399
 30
0.0
 42
-0.4142135623730744
  0
VERTEX
  5
1447
  8
SAPA_PROFIL
 10
17.700000000019031
 20
20.500000000010768
 30
0.0
  0
VERTEX
  5
1448
  8
SAPA_PROFIL
 10
18.000000000021942
 20
20.500000000007109
 30
0.0
 42
-0.4142135623731035
  0
VERTEX
  5
1449
  8
SAPA_PROFIL
 10
18.500000000021942
 20
20.00000000000713
 30
0.0
  0
VERTEX
  5
144A
  8
SAPA_PROFIL
 10
18.500000000000139
 20
16.25000000000713
 30
0.0
 42
-0.4142135623731035
  0
VERTEX
  5
144B
  8
SAPA_PROFIL
 10
18.000000000000139
 20
15.75000000000712
 30
0.0
  0
VERTEX
  5
144C
  8
SAPA_PROFIL
 10
17.700000000004479
 20
15.75000000000712
 30
0.0
 42
-0.4142135623731159
  0
VERTEX
  5
144D
  8
SAPA_PROFIL
 10
17.499999999996501
 20
15.95000000002239
 30
0.0
  0
VERTEX
  5
144E
  8
SAPA_PROFIL
 10
17.50000000000011
 20
16.800000000006399
 30
0.0
 42
0.4142135623730951
  0
VERTEX
  5
144F
  8
SAPA_PROFIL
 10
17.300000000010328
 20
17.00000000000712
 30
0.0
  0
VERTEX
  5
1450
  8
SAPA_PROFIL
 10
16.300000000010328
 20
17.00000000000712
 30
0.0
 42
0.4142135623731035
  0
VERTEX
  5
1451
  8
SAPA_PROFIL
 10
15.80000000001033
 20
16.50000000000712
 30
0.0
  0
VERTEX
  5
1452
  8
SAPA_PROFIL
 10
15.80000000001033
 20
10.500000000007111
 30
0.0
 42
0.4142135623731033
  0
VERTEX
  5
1453
  8
SAPA_PROFIL
 10
16.300000000010328
 20
10.00000000000712
 30
0.0
  0
SEQEND
  5
1454
  8
SAPA_PROFIL
  0
POLYLINE
  5
EE6
  8
SAPA_PROFIL
 66
     1
 10
0.0
 20
0.0
 30
0.0
 70
     1
  0
VERTEX
  5
1455
  8
SAPA_PROFIL
 10
59.999999999643592
 20
57.199999999986019
 30
0.0
  0
VERTEX
  5
1456
  8
SAPA_PROFIL
 10
59.999999999643592
 20
45.600000000005657
 30
0.0
 42
-0.4142135623730951
  0
VERTEX
  5
1457
  8
SAPA_PROFIL
 10
59.699999999640681
 20
45.300000000002747
 30
0.0
  0
VERTEX
  5
1458
  8
SAPA_PROFIL
 10
16.8000000000103
 20
45.299999999980933
 30
0.0
 42
-0.4142135623730935
  0
VERTEX
  5
1459
  8
SAPA_PROFIL
 10
16.500000000011031
 20
45.599999999980199
 30
0.0
  0
VERTEX
  5
145A
  8
SAPA_PROFIL
 10
16.50000000000011
 20
57.200000000000557
 30
0.0
 42
-0.4142135623730935
  0
VERTEX
  5
145B
  8
SAPA_PROFIL
 10
16.8000000000103
 20
57.499999999999837
 30
0.0
  0
VERTEX
  5
145C
  8
SAPA_PROFIL
 10
59.699999999640681
 20
57.499999999985292
 30
0.0
 42
-0.4142135623730939
  0
SEQEND
  5
145D
  8
SAPA_PROFIL
  0
POLYLINE
  5
EE7
  8
SAPA_PROFIL
 66
     1
 10
0.0
 20
0.0
 30
0.0
 70
     1
  0
VERTEX
  5
145E
  8
SAPA_PROFIL
 10
135.6999999277447
 20
10.00000000003258
 30
0.0
 42
-0.4142135623624294
  0
VERTEX
  5
145F
  8
SAPA_PROFIL
 10
135.49999992775491
 20
10.200000000007821
 30
0.0
  0
VERTEX
  5
1460
  8
SAPA_PROFIL
 10
135.4999999277403
 20
11.05000000000638
 30
0.0
 42
0.4142135623730744
  0
VERTEX
  5
1461
  8
SAPA_PROFIL
 10
135.299999927736
 20
11.250000000007111
 30
0.0
  0
VERTEX
  5
1462
  8
SAPA_PROFIL
 10
134.99999992775491
 20
11.249999999999821
 30
0.0
 42
0.4142135623731035
  0
VERTEX
  5
1463
  8
SAPA_PROFIL
 10
134.49999992775491
 20
10.749999999999821
 30
0.0
  0
VERTEX
  5
1464
  8
SAPA_PROFIL
 10
134.49999992775491
 20
7.7499999999998224
 30
0.0
 42
0.4142135623731035
  0
VERTEX
  5
1465
  8
SAPA_PROFIL
 10
134.99999992775491
 20
7.2499999999998224
 30
0.0
  0
VERTEX
  5
1466
  8
SAPA_PROFIL
 10
135.29999992775049
 20
7.2499999999998224
 30
0.0
 42
0.4142135623730744
  0
VERTEX
  5
1467
  8
SAPA_PROFIL
 10
135.49999992775491
 20
7.4500000000005642
 30
0.0
  0
VERTEX
  5
1468
  8
SAPA_PROFIL
 10
135.49999992774389
 20
8.3000000000027452
 30
0.0
 42
-0.4142135623730534
  0
VERTEX
  5
1469
  8
SAPA_PROFIL
 10
135.6999999277447
 20
8.4999999999998224
 30
0.0
  0
VERTEX
  5
146A
  8
SAPA_PROFIL
 10
136.6999999277447
 20
8.4999999999998224
 30
0.0
 42
-0.4142135623731035
  0
VERTEX
  5
146B
  8
SAPA_PROFIL
 10
137.1999999277447
 20
7.9999999999998224
 30
0.0
  0
VERTEX
  5
146C
  8
SAPA_PROFIL
 10
137.1999999277447
 20
1.9999999999998359
 30
0.0
 42
-0.4142135623731033
  0
VERTEX
  5
146D
  8
SAPA_PROFIL
 10
136.6999999277447
 20
1.4999999999998359
 30
0.0
  0
VERTEX
  5
146E
  8
SAPA_PROFIL
 10
135.6999999277447
 20
1.5000000000107501
 30
0.0
 42
-0.414213562373064
  0
VERTEX
  5
146F
  8
SAPA_PROFIL
 10
135.49999992775491
 20
1.7000000000005639
 30
0.0
  0
VERTEX
  5
1470
  8
SAPA_PROFIL
 10
135.49999992775491
 20
2.5500000000027461
 30
0.0
 42
0.414213562373064
  0
VERTEX
  5
1471
  8
SAPA_PROFIL
 10
135.29999992775049
 20
2.7499999999998361
 30
0.0
  0
VERTEX
  5
1472
  8
SAPA_PROFIL
 10
134.99999992775491
 20
2.7499999999998361
 30
0.0
 42
0.4142135623731035
  0
VERTEX
  5
1473
  8
SAPA_PROFIL
 10
134.49999992775491
 20
2.2499999999998361
 30
0.0
  0
VERTEX
  5
1474
  8
SAPA_PROFIL
 10
134.49999992775491
 20
0.4999999999998366
 30
0.0
 42
0.4142135623731035
  0
VERTEX
  5
1475
  8
SAPA_PROFIL
 10
134.99999992775491
 20
-0.0000000000001634
 30
0.0
  0
VERTEX
  5
1476
  8
SAPA_PROFIL
 10
137.49999992775491
 20
-0.0000000000001634
 30
0.0
 42
0.4142135623730966
  0
VERTEX
  5
1477
  8
SAPA_PROFIL
 10
138.99999992775491
 20
1.4999999999998359
 30
0.0
  0
VERTEX
  5
1478
  8
SAPA_PROFIL
 10
138.99999992775491
 20
59.70000000000055
 30
0.0
 42
0.4142135623730935
  0
VERTEX
  5
1479
  8
SAPA_PROFIL
 10
138.6999999277447
 20
59.999999999999829
 30
0.0
  0
VERTEX
  5
147A
  8
SAPA_PROFIL
 10
90.743868969058624
 20
59.999999999999837
 30
0.0
 42
0.2418327667378115
  0
VERTEX
  5
147B
  8
SAPA_PROFIL
 10
90.499999928120218
 20
59.874722325032742
 30
0.0
 42
-0.2418327667509125
  0
VERTEX
  5
147C
  8
SAPA_PROFIL
 10
90.256130887164261
 20
59.749444650060312
 30
0.0
  0
VERTEX
  5
147D
  8
SAPA_PROFIL
 10
89.299999928114346
 20
59.749444650056667
 30
0.0
 42
-0.2418327667448973
  0
VERTEX
  5
147E
  8
SAPA_PROFIL
 10
89.056130887159412
 20
59.87472232502509
 30
0.0
 42
0.2418327667448979
  0
VERTEX
  5
147F
  8
SAPA_PROFIL
 10
88.812261846206837
 20
59.999999999992291
 30
0.0
  0
VERTEX
  5
1480
  8
SAPA_PROFIL
 10
86.714189490488835
 20
59.999999999992291
 30
0.0
 42
0.6681786379192718
  0
VERTEX
  5
1481
  8
SAPA_PROFIL
 10
86.007082709302239
 20
58.292893218805787
 30
0.0
  0
VERTEX
  5
1482
  8
SAPA_PROFIL
 10
87.312131962471227
 20
56.987843965636607
 30
0.0
 42
0.1989123673797335
  0
VERTEX
  5
1483
  8
SAPA_PROFIL
 10
87.524263996827315
 20
56.899975999992513
 30
0.0
  0
VERTEX
  5
1484
  8
SAPA_PROFIL
 10
88.110769443574497
 20
56.899975999992648
 30
0.0
 42
0.1316524975873855
  0
VERTEX
  5
1485
  8
SAPA_PROFIL
 10
88.260769443574418
 20
56.940168378857287
 30
0.0
  0
VERTEX
  5
1486
  8
SAPA_PROFIL
 10
89.749999928115315
 20
57.79997599999259
 30
0.0
  0
VERTEX
  5
1487
  8
SAPA_PROFIL
 10
90.199999928115233
 20
57.799987999992247
 30
0.0
 42
-0.4142135623731054
  0
VERTEX
  5
1488
  8
SAPA_PROFIL
 10
90.499999928115244
 20
57.49998799999225
 30
0.0
  0
VERTEX
  5
1489
  8
SAPA_PROFIL
 10
90.499999928115187
 20
53.899975999992193
 30
0.0
 42
-0.4142135623730951
  0
VERTEX
  5
148A
  8
SAPA_PROFIL
 10
90.199999928115204
 20
53.599975999992189
 30
0.0
  0
VERTEX
  5
148B
  8
SAPA_PROFIL
 10
89.749999928115173
 20
53.599975999992289
 30
0.0
  0
VERTEX
  5
148C
  8
SAPA_PROFIL
 10
88.260739797041026
 20
54.459800737561267
 30
0.0
 42
0.1316363093594257
  0
VERTEX
  5
148D
  8
SAPA_PROFIL
 10
88.110758891994294
 20
54.499993115818242
 30
0.0
  0
VERTEX
  5
148E
  8
SAPA_PROFIL
 10
87.999999928111436
 20
54.500000165609052
 30
0.0
  0
VERTEX
  5
148F
  8
SAPA_PROFIL
 10
87.999999928111436
 20
52.914359353937321
 30
0.0
 42
0.2679491924308306
  0
VERTEX
  5
1490
  8
SAPA_PROFIL
 10
88.499999928111436
 20
52.048333950158693
 30
0.0
  0
VERTEX
  5
1491
  8
SAPA_PROFIL
 10
90.24999992811189
 20
51.037970979080207
 30
0.0
 42
-0.2679491924308306
  0
VERTEX
  5
1492
  8
SAPA_PROFIL
 10
90.499999928111436
 20
50.60495827718826
 30
0.0
  0
VERTEX
  5
1493
  8
SAPA_PROFIL
 10
90.499999928111436
 20
49.39504172280779
 30
0.0
 42
-0.2679491924308304
  0
VERTEX
  5
1494
  8
SAPA_PROFIL
 10
90.249999928111436
 20
48.962029020916653
 30
0.0
  0
VERTEX
  5
1495
  8
SAPA_PROFIL
 10
88.499999928111436
 20
47.951666049840988
 30
0.0
 42
0.2679491924308308
  0
VERTEX
  5
1496
  8
SAPA_PROFIL
 10
87.999999928113311
 20
47.085640646055097
 30
0.0
  0
VERTEX
  5
1497
  8
SAPA_PROFIL
 10
87.99999992811118
 20
45.499999834386998
 30
0.0
  0
VERTEX
  5
1498
  8
SAPA_PROFIL
 10
88.110758891994294
 20
45.500006884177807
 30
0.0
 42
0.1316363093594255
  0
VERTEX
  5
1499
  8
SAPA_PROFIL
 10
88.260739797041026
 20
45.540199262434768
 30
0.0
  0
VERTEX
  5
149A
  8
SAPA_PROFIL
 10
89.749999928115173
 20
46.400024000003746
 30
0.0
  0
VERTEX
  5
149B
  8
SAPA_PROFIL
 10
90.199999928115204
 20
46.400024000003853
 30
0.0
 42
-0.4142135623730951
  0
VERTEX
  5
149C
  8
SAPA_PROFIL
 10
90.499999928115187
 20
46.100024000003849
 30
0.0
  0
VERTEX
  5
149D
  8
SAPA_PROFIL
 10
90.499999928115244
 20
42.500012000003792
 30
0.0
 42
-0.4142135623731054
  0
VERTEX
  5
149E
  8
SAPA_PROFIL
 10
90.199999928115233
 20
42.200012000003788
 30
0.0
  0
VERTEX
  5
149F
  8
SAPA_PROFIL
 10
89.749999928115315
 20
42.200024000003452
 30
0.0
  0
VERTEX
  5
14A0
  8
SAPA_PROFIL
 10
88.260769443574418
 20
43.059831621138748
 30
0.0
 42
0.1316524975873855
  0
VERTEX
  5
14A1
  8
SAPA_PROFIL
 10
88.110769443574497
 20
43.100024000003401
 30
0.0
  0
VERTEX
  5
14A2
  8
SAPA_PROFIL
 10
87.524263996827315
 20
43.100024000003543
 30
0.0
 42
0.1989123673797335
  0
VERTEX
  5
14A3
  8
SAPA_PROFIL
 10
87.312131962471227
 20
43.012156034359428
 30
0.0
  0
VERTEX
  5
14A4
  8
SAPA_PROFIL
 10
86.007082709302239
 20
41.707106781190262
 30
0.0
 42
0.6681786379192716
  0
VERTEX
  5
14A5
  8
SAPA_PROFIL
 10
86.714189490488835
 20
40.000000000003759
 30
0.0
  0
VERTEX
  5
14A6
  8
SAPA_PROFIL
 10
88.812261846208557
 20
40.000000000003759
 30
0.0
 42
0.2418327667433386
  0
VERTEX
  5
14A7
  8
SAPA_PROFIL
 10
89.056130887160094
 20
40.125277674969517
 30
0.0
 42
-0.2418327667449431
  0
VERTEX
  5
14A8
  8
SAPA_PROFIL
 10
89.299999928114346
 20
40.25055534993573
 30
0.0
  0
VERTEX
  5
14A9
  8
SAPA_PROFIL
 10
90.256130887164261
 20
40.250555349939383
 30
0.0
 42
-0.2418327667509097
  0
VERTEX
  5
14AA
  8
SAPA_PROFIL
 10
90.499999928111365
 20
40.125277674956962
 30
0.0
 42
0.2418327667378167
  0
VERTEX
  5
14AB
  8
SAPA_PROFIL
 10
90.743868969058624
 20
40.000000000003759
 30
0.0
  0
VERTEX
  5
14AC
  8
SAPA_PROFIL
 10
92.556610602825174
 20
39.999999999985292
 30
0.0
 42
0.1095178116817878
  0
VERTEX
  5
14AD
  8
SAPA_PROFIL
 10
93.401847126296161
 20
40.187384425907119
 30
0.0
  0
VERTEX
  5
14AE
  8
SAPA_PROFIL
 10
99.031673491435583
 20
42.812615574068168
 30
0.0
 42
-0.1095178116855129
  0
VERTEX
  5
14AF
  8
SAPA_PROFIL
 10
99.876910014919929
 20
42.999999999999837
 30
0.0
  0
VERTEX
  5
14B0
  8
SAPA_PROFIL
 10
106.9999999280969
 20
43.00000000000712
 30
0.0
 42
-0.4142135623730957
  0
VERTEX
  5
14B1
  8
SAPA_PROFIL
 10
107.4999999280969
 20
42.499999999985292
 30
0.0
  0
VERTEX
  5
14B2
  8
SAPA_PROFIL
 10
107.4999999280969
 20
41.499999999985292
 30
0.0
 42
-0.4142135623730915
  0
VERTEX
  5
14B3
  8
SAPA_PROFIL
 10
106.9999999280969
 20
40.999999999985292
 30
0.0
  0
VERTEX
  5
14B4
  8
SAPA_PROFIL
 10
106.7087120806151
 20
40.999999999985292
 30
0.0
 42
0.2982166266909514
  0
VERTEX
  5
14B5
  8
SAPA_PROFIL
 10
106.2504545111252
 20
40.699999999998177
 30
0.0
 42
1.5275252316550829
  0
VERTEX
  5
14B6
  8
SAPA_PROFIL
 10
111.7495453450526
 20
40.699999999998269
 30
0.0
 42
0.2982166266892446
  0
VERTEX
  5
14B7
  8
SAPA_PROFIL
 10
111.2912877755859
 20
40.999999999975969
 30
0.0
  0
VERTEX
  5
14B8
  8
SAPA_PROFIL
 10
110.9999999280969
 20
40.999999999985292
 30
0.0
 42
-0.4142135623730915
  0
VERTEX
  5
14B9
  8
SAPA_PROFIL
 10
110.4999999280969
 20
41.499999999985292
 30
0.0
  0
VERTEX
  5
14BA
  8
SAPA_PROFIL
 10
110.4999999280969
 20
42.499999999985292
 30
0.0
 42
-0.4142135623730918
  0
VERTEX
  5
14BB
  8
SAPA_PROFIL
 10
110.9999999280969
 20
42.999999999985278
 30
0.0
  0
VERTEX
  5
14BC
  8
SAPA_PROFIL
 10
129.9230898409493
 20
42.999999999985278
 30
0.0
 42
-0.1095178116838485
  0
VERTEX
  5
14BD
  8
SAPA_PROFIL
 10
130.7683263644391
 20
42.812615574065362
 30
0.0
  0
VERTEX
  5
14BE
  8
SAPA_PROFIL
 10
135.64523645122759
 20
40.53847505247159
 30
0.0
 42
-0.2914734195858569
  0
VERTEX
  5
14BF
  8
SAPA_PROFIL
 10
136.79999992775049
 20
38.725859478388713
 30
0.0
  0
VERTEX
  5
14C0
  8
SAPA_PROFIL
 10
136.79999992775049
 20
19.000000000007109
 30
0.0
 42
-0.4142135623730951
  0
VERTEX
  5
14C1
  8
SAPA_PROFIL
 10
136.29999992775049
 20
18.500000000007109
 30
0.0
  0
VERTEX
  5
14C2
  8
SAPA_PROFIL
 10
135.99999992773311
 20
18.500000000007109
 30
0.0
 42
-0.4142135623731035
  0
VERTEX
  5
14C3
  8
SAPA_PROFIL
 10
135.49999992773311
 20
19.000000000007109
 30
0.0
  0
VERTEX
  5
14C4
  8
SAPA_PROFIL
 10
135.49999992773311
 20
20.300000000006381
 30
0.0
 42
0.4142135623730744
  0
VERTEX
  5
14C5
  8
SAPA_PROFIL
 10
135.299999927736
 20
20.500000000010751
 30
0.0
  0
VERTEX
  5
14C6
  8
SAPA_PROFIL
 10
134.99999992773311
 20
20.500000000007098
 30
0.0
 42
0.4142135623731035
  0
VERTEX
  5
14C7
  8
SAPA_PROFIL
 10
134.49999992773311
 20
20.000000000007109
 30
0.0
  0
VERTEX
  5
14C8
  8
SAPA_PROFIL
 10
134.49999992775491
 20
16.250000000007109
 30
0.0
 42
0.4142135623731035
  0
VERTEX
  5
14C9
  8
SAPA_PROFIL
 10
134.99999992775491
 20
15.750000000007111
 30
0.0
  0
VERTEX
  5
14CA
  8
SAPA_PROFIL
 10
135.29999992775049
 20
15.750000000007111
 30
0.0
 42
0.4142135623731159
  0
VERTEX
  5
14CB
  8
SAPA_PROFIL
 10
135.49999992775849
 20
15.95000000002238
 30
0.0
  0
VERTEX
  5
14CC
  8
SAPA_PROFIL
 10
135.49999992775491
 20
16.800000000006381
 30
0.0
 42
-0.4142135623730951
  0
VERTEX
  5
14CD
  8
SAPA_PROFIL
 10
135.6999999277447
 20
17.000000000007109
 30
0.0
  0
VERTEX
  5
14CE
  8
SAPA_PROFIL
 10
136.6999999277447
 20
17.000000000007109
 30
0.0
 42
-0.4142135623731035
  0
VERTEX
  5
14CF
  8
SAPA_PROFIL
 10
137.1999999277447
 20
16.500000000007109
 30
0.0
  0
VERTEX
  5
14D0
  8
SAPA_PROFIL
 10
137.1999999277447
 20
10.5000000000071
 30
0.0
 42
-0.4142135623731033
  0
VERTEX
  5
14D1
  8
SAPA_PROFIL
 10
136.6999999277447
 20
10.000000000007111
 30
0.0
  0
SEQEND
  5
14D2
  8
SAPA_PROFIL
  0
POLYLINE
  5
EE8
  8
SAPA_PROFIL
 66
     1
 10
0.0
 20
0.0
 30
0.0
 70
     1
  0
VERTEX
  5
14D3
  8
SAPA_PROFIL
 10
92.999999928111436
 20
57.199999999986019
 30
0.0
  0
VERTEX
  5
14D4
  8
SAPA_PROFIL
 10
92.999999928111436
 20
45.600000000005657
 30
0.0
 42
0.4142135623730951
  0
VERTEX
  5
14D5
  8
SAPA_PROFIL
 10
93.299999928114346
 20
45.300000000002747
 30
0.0
  0
VERTEX
  5
14D6
  8
SAPA_PROFIL
 10
136.1999999277447
 20
45.299999999980912
 30
0.0
 42
0.4142135623730935
  0
VERTEX
  5
14D7
  8
SAPA_PROFIL
 10
136.499999927744
 20
45.599999999980177
 30
0.0
  0
VERTEX
  5
14D8
  8
SAPA_PROFIL
 10
136.49999992775491
 20
57.20000000000055
 30
0.0
 42
0.4142135623730935
  0
VERTEX
  5
14D9
  8
SAPA_PROFIL
 10
136.1999999277447
 20
57.499999999999829
 30
0.0
  0
VERTEX
  5
14DA
  8
SAPA_PROFIL
 10
93.299999928114346
 20
57.499999999985292
 30
0.0
 42
0.4142135623730939
  0
SEQEND
  5
14DB
  8
SAPA_PROFIL
  0
POLYLINE
  5
EE9
  8
SAPA_PROFIL
 62
     4
 66
     1
 10
0.0
 20
0.0
 30
-0.2
 70
     1
1001
RC_PROFILE
1002
{
1000
Region
1002
}
  0
VERTEX
  5
14DC
  8
SAPA_PROFIL
 62
     4
 10
78.999999996510553
 20
16.652820282319251
 30
-0.2
  0
VERTEX
  5
14DD
  8
SAPA_PROFIL
 62
     4
 10
78.999999996510553
 20
2.4528202823171759
 30
-0.2
 42
-0.4142135623720297
  0
VERTEX
  5
14DE
  8
SAPA_PROFIL
 62
     4
 10
78.499999996512372
 20
1.9528202823171761
 30
-0.2
  0
VERTEX
  5
14DF
  8
SAPA_PROFIL
 62
     4
 10
74.499999995891173
 20
1.952820282314206
 30
-0.2
 42
-0.4142135623730951
  0
VERTEX
  5
14E0
  8
SAPA_PROFIL
 62
     4
 10
73.999999995891187
 20
2.4528202823142058
 30
-0.2
  0
VERTEX
  5
14E1
  8
SAPA_PROFIL
 62
     4
 10
73.999999995883911
 20
16.652820282318121
 30
-0.2
 42
-0.414213562373761
  0
VERTEX
  5
14E2
  8
SAPA_PROFIL
 62
     4
 10
74.499999995883911
 20
17.15282028231924
 30
-0.2
  0
VERTEX
  5
14E3
  8
SAPA_PROFIL
 62
     4
 10
78.499999996510553
 20
17.15282028231924
 30
-0.2
 42
-0.4142135623730951
  0
SEQEND
  5
14E4
  8
SAPA_PROFIL
 62
     4
  0
POLYLINE
  5
EEA
  8
SAPA_PROFIL
 62
     4
 66
     1
 10
0.0
 20
0.0
 30
0.0
1001
GENIUS_GENOBJ-N-FIL_13
1002
{
1000
OWNER
1000
GEN
1002
}
1001
GENIUS_GENODEF_13
1002
{
1000
HIER
1070
     0
1002
}
1002
{
1000
MANEDIT
1070
     0
1002
}
1002
{
1000
NOSEL
1070
     0
1002
}
1002
{
1000
BEHIND
1070
     0
1002
}
1002
{
1000
OTHER
1070
     0
1002
}
1002
{
1000
REACTOR
1002
}
  0
VERTEX
  5
14E5
  8
SAPA_PROFIL
 62
     4
 10
65.577259926492104
 20
43.416293838728301
 30
0.0
 42
0.131652497587489
  0
VERTEX
  5
14E6
  8
SAPA_PROFIL
 62
     4
 10
64.977259926491683
 20
43.255524323269569
 30
0.0
  0
VERTEX
  5
14E7
  8
SAPA_PROFIL
 62
     4
 10
63.236601985848147
 20
42.250554992671702
 30
0.0
  0
VERTEX
  5
14E8
  8
SAPA_PROFIL
 62
     4
 10
62.800000064269682
 20
42.250543349936329
 30
0.0
 42
-0.4142135623731046
  0
VERTEX
  5
14E9
  8
SAPA_PROFIL
 62
     4
 10
62.550000064269682
 20
42.500543349936343
 30
0.0
  0
VERTEX
  5
14EA
  8
SAPA_PROFIL
 62
     4
 10
62.550000064269739
 20
46.1005553499364
 30
0.0
 42
-0.4142135623730957
  0
VERTEX
  5
14EB
  8
SAPA_PROFIL
 62
     4
 10
62.80000006426971
 20
46.350555349936393
 30
0.0
  0
VERTEX
  5
14EC
  8
SAPA_PROFIL
 62
     4
 10
63.236602604648169
 20
46.3505553499363
 30
0.0
  0
VERTEX
  5
14ED
  8
SAPA_PROFIL
 62
     4
 10
64.922740202049056
 20
45.377063354186227
 30
0.0
 42
0.1316524975873848
  0
VERTEX
  5
14EE
  8
SAPA_PROFIL
 62
     4
 10
65.522740202048993
 20
45.21629383872758
 30
0.0
  0
VERTEX
  5
14EF
  8
SAPA_PROFIL
 62
     4
 10
87.477259790340014
 20
45.21629383872758
 30
0.0
 42
0.1316524975873846
  0
VERTEX
  5
14F0
  8
SAPA_PROFIL
 62
     4
 10
88.07725979033998
 20
45.377063354186227
 30
0.0
  0
VERTEX
  5
14F1
  8
SAPA_PROFIL
 62
     4
 10
89.763397387740838
 20
46.3505553499363
 30
0.0
  0
VERTEX
  5
14F2
  8
SAPA_PROFIL
 62
     4
 10
90.199999928119297
 20
46.350555349936393
 30
0.0
 42
-0.4142135623730951
  0
VERTEX
  5
14F3
  8
SAPA_PROFIL
 62
     4
 10
90.449999928119297
 20
46.1005553499364
 30
0.0
  0
VERTEX
  5
14F4
  8
SAPA_PROFIL
 62
     4
 10
90.449999928119325
 20
42.500543349936343
 30
0.0
 42
-0.4142135623731046
  0
VERTEX
  5
14F5
  8
SAPA_PROFIL
 62
     4
 10
90.199999928119325
 20
42.250543349936329
 30
0.0
  0
VERTEX
  5
14F6
  8
SAPA_PROFIL
 62
     4
 10
89.763398006540882
 20
42.250554992671702
 30
0.0
  0
VERTEX
  5
14F7
  8
SAPA_PROFIL
 62
     4
 10
88.022740065897324
 20
43.255524323269569
 30
0.0
 42
0.1316524975874892
  0
VERTEX
  5
14F8
  8
SAPA_PROFIL
 62
     4
 10
87.422740065896903
 20
43.416293838728301
 30
0.0
  0
VERTEX
  5
14F9
  8
SAPA_PROFIL
 62
     4
 10
84.699999928368314
 20
43.416293838727633
 30
0.0
 42
0.414213562374094
  0
VERTEX
  5
14FA
  8
SAPA_PROFIL
 62
     4
 10
83.499999928369405
 20
42.216293838723487
 30
0.0
  0
VERTEX
  5
14FB
  8
SAPA_PROFIL
 62
     4
 10
83.499999928458521
 20
16.41855881180166
 30
0.0
 42
-0.4142135623730951
  0
VERTEX
  5
14FC
  8
SAPA_PROFIL
 62
     4
 10
82.999999928458536
 20
15.91855881180166
 30
0.0
  0
VERTEX
  5
14FD
  8
SAPA_PROFIL
 62
     4
 10
82.799999928458703
 20
15.918558811801431
 30
0.0
 42
-0.4142135623730951
  0
VERTEX
  5
14FE
  8
SAPA_PROFIL
 62
     4
 10
82.499999928458521
 20
16.2185588118016
 30
0.0
  0
VERTEX
  5
14FF
  8
SAPA_PROFIL
 62
     4
 10
82.499999928458521
 20
16.86855881180351
 30
0.0
 42
0.4142135623730951
  0
VERTEX
  5
1500
  8
SAPA_PROFIL
 62
     4
 10
82.19999992845743
 20
17.168558811803479
 30
0.0
  0
VERTEX
  5
1501
  8
SAPA_PROFIL
 62
     4
 10
81.299999928461418
 20
17.168558811802569
 30
0.0
 42
0.4142135623730951
  0
VERTEX
  5
1502
  8
SAPA_PROFIL
 62
     4
 10
80.799999928461432
 20
16.668558811803479
 30
0.0
  0
VERTEX
  5
1503
  8
SAPA_PROFIL
 62
     4
 10
80.799999928461432
 20
10.66855881180164
 30
0.0
 42
0.4142135623730951
  0
VERTEX
  5
1504
  8
SAPA_PROFIL
 62
     4
 10
81.299999928461418
 20
10.16855881180164
 30
0.0
  0
VERTEX
  5
1505
  8
SAPA_PROFIL
 62
     4
 10
82.199999928460159
 20
10.16855881180164
 30
0.0
 42
0.4142135623710974
  0
VERTEX
  5
1506
  8
SAPA_PROFIL
 62
     4
 10
82.499999928459431
 20
10.46855881179957
 30
0.0
  0
VERTEX
  5
1507
  8
SAPA_PROFIL
 62
     4
 10
82.499999928463964
 20
11.11855881180146
 30
0.0
 42
-0.4142135623730951
  0
VERTEX
  5
1508
  8
SAPA_PROFIL
 62
     4
 10
82.799999928465965
 20
11.418558811799629
 30
0.0
  0
VERTEX
  5
1509
  8
SAPA_PROFIL
 62
     4
 10
82.999999928458536
 20
11.418558811798469
 30
0.0
 42
-0.4142135623730951
  0
VERTEX
  5
150A
  8
SAPA_PROFIL
 62
     4
 10
83.499999928458521
 20
10.918558811798469
 30
0.0
  0
VERTEX
  5
150B
  8
SAPA_PROFIL
 62
     4
 10
83.499999928458521
 20
7.9185588117984764
 30
0.0
 42
-0.4142135623730951
  0
VERTEX
  5
150C
  8
SAPA_PROFIL
 62
     4
 10
82.999999928458536
 20
7.4185588117984764
 30
0.0
  0
VERTEX
  5
150D
  8
SAPA_PROFIL
 62
     4
 10
82.799999928458703
 20
7.4185588117984764
 30
0.0
 42
-0.4142135623730951
  0
VERTEX
  5
150E
  8
SAPA_PROFIL
 62
     4
 10
82.499999928458521
 20
7.7185588117986583
 30
0.0
  0
VERTEX
  5
150F
  8
SAPA_PROFIL
 62
     4
 10
82.499999928458521
 20
8.3685588117985077
 30
0.0
 42
0.4142135623730951
  0
VERTEX
  5
1510
  8
SAPA_PROFIL
 62
     4
 10
82.19999992845743
 20
8.6685588117984764
 30
0.0
  0
VERTEX
  5
1511
  8
SAPA_PROFIL
 62
     4
 10
81.299999928461418
 20
8.6685588117984764
 30
0.0
 42
0.4142135623730951
  0
VERTEX
  5
1512
  8
SAPA_PROFIL
 62
     4
 10
80.799999928461432
 20
8.1685588117984764
 30
0.0
  0
VERTEX
  5
1513
  8
SAPA_PROFIL
 62
     4
 10
80.799999928461432
 20
2.1685588117984902
 30
0.0
 42
0.4142135623730951
  0
VERTEX
  5
1514
  8
SAPA_PROFIL
 62
     4
 10
81.299999928461418
 20
1.668558811798476
 30
0.0
  0
VERTEX
  5
1515
  8
SAPA_PROFIL
 62
     4
 10
82.19999992845743
 20
1.668558811798476
 30
0.0
 42
0.4142135623730951
  0
VERTEX
  5
1516
  8
SAPA_PROFIL
 62
     4
 10
82.499999928458521
 20
1.9685588117986721
 30
0.0
  0
VERTEX
  5
1517
  8
SAPA_PROFIL
 62
     4
 10
82.499999928458521
 20
2.6185588117985361
 30
0.0
 42
-0.4142135623730949
  0
VERTEX
  5
1518
  8
SAPA_PROFIL
 62
     4
 10
82.799999928458703
 20
2.918558811798476
 30
0.0
  0
VERTEX
  5
1519
  8
SAPA_PROFIL
 62
     4
 10
82.999999928458536
 20
2.918558811798476
 30
0.0
 42
-0.4142135623730951
  0
VERTEX
  5
151A
  8
SAPA_PROFIL
 62
     4
 10
83.499999928458521
 20
2.418558811798476
 30
0.0
  0
VERTEX
  5
151B
  8
SAPA_PROFIL
 62
     4
 10
83.499999928457612
 20
0.6685588117984765
 30
0.0
 42
-0.4142135623726955
  0
VERTEX
  5
151C
  8
SAPA_PROFIL
 62
     4
 10
82.999999928123827
 20
0.1685588117984764
 30
0.0
  0
VERTEX
  5
151D
  8
SAPA_PROFIL
 62
     4
 10
69.999999928116537
 20
0.168558811798249
 30
0.0
 42
-0.4142135623732284
  0
VERTEX
  5
151E
  8
SAPA_PROFIL
 62
     4
 10
69.499999927840051
 20
0.6685588117966576
 30
0.0
  0
VERTEX
  5
151F
  8
SAPA_PROFIL
 62
     4
 10
69.499999927840065
 20
2.418558811796657
 30
0.0
 42
-0.4142135623730951
  0
VERTEX
  5
1520
  8
SAPA_PROFIL
 62
     4
 10
69.999999927840065
 20
2.9185588117966712
 30
0.0
  0
VERTEX
  5
1521
  8
SAPA_PROFIL
 62
     4
 10
70.199999927839883
 20
2.9185588117966712
 30
0.0
 42
-0.4142135623730951
  0
VERTEX
  5
1522
  8
SAPA_PROFIL
 62
     4
 10
70.499999927840065
 20
2.6185588117964751
 30
0.0
  0
VERTEX
  5
1523
  8
SAPA_PROFIL
 62
     4
 10
70.499999927840051
 20
1.968558811796626
 30
0.0
 42
0.4142135623730951
  0
VERTEX
  5
1524
  8
SAPA_PROFIL
 62
     4
 10
70.799999927839323
 20
1.668558811796671
 30
0.0
  0
VERTEX
  5
1525
  8
SAPA_PROFIL
 62
     4
 10
71.69999992783714
 20
1.668558811796671
 30
0.0
 42
0.4142135623730951
  0
VERTEX
  5
1526
  8
SAPA_PROFIL
 62
     4
 10
72.199999927837155
 20
2.168558811796657
 30
0.0
  0
VERTEX
  5
1527
  8
SAPA_PROFIL
 62
     4
 10
72.199999927837155
 20
8.1685588117966574
 30
0.0
 42
0.4142135623730951
  0
VERTEX
  5
1528
  8
SAPA_PROFIL
 62
     4
 10
71.699999927837155
 20
8.6685588117966574
 30
0.0
  0
VERTEX
  5
1529
  8
SAPA_PROFIL
 62
     4
 10
70.799999927839337
 20
8.6685588117966574
 30
0.0
 42
0.4142135623730953
  0
VERTEX
  5
152A
  8
SAPA_PROFIL
 62
     4
 10
70.499999927840065
 20
8.3685588117964755
 30
0.0
  0
VERTEX
  5
152B
  8
SAPA_PROFIL
 62
     4
 10
70.499999927840065
 20
7.7185588117966111
 30
0.0
 42
-0.4142135623730951
  0
VERTEX
  5
152C
  8
SAPA_PROFIL
 62
     4
 10
70.199999927839883
 20
7.4185588117966574
 30
0.0
  0
VERTEX
  5
152D
  8
SAPA_PROFIL
 62
     4
 10
69.999999927840065
 20
7.4185588117966574
 30
0.0
 42
-0.4142135623730951
  0
VERTEX
  5
152E
  8
SAPA_PROFIL
 62
     4
 10
69.499999927840065
 20
7.9185588117966574
 30
0.0
  0
VERTEX
  5
152F
  8
SAPA_PROFIL
 62
     4
 10
69.499999927840065
 20
10.91855881179665
 30
0.0
 42
-0.4142135623730951
  0
VERTEX
  5
1530
  8
SAPA_PROFIL
 62
     4
 10
69.999999927840065
 20
11.41855881179665
 30
0.0
  0
VERTEX
  5
1531
  8
SAPA_PROFIL
 62
     4
 10
70.199999927832607
 20
11.418558811797791
 30
0.0
 42
-0.414213562372873
  0
VERTEX
  5
1532
  8
SAPA_PROFIL
 62
     4
 10
70.499999927834608
 20
11.118558811799661
 30
0.0
  0
VERTEX
  5
1533
  8
SAPA_PROFIL
 62
     4
 10
70.499999927837337
 20
10.46855881179866
 30
0.0
 42
0.4142135623722071
  0
VERTEX
  5
1534
  8
SAPA_PROFIL
 62
     4
 10
70.799999927838428
 20
10.168558811799629
 30
0.0
  0
VERTEX
  5
1535
  8
SAPA_PROFIL
 62
     4
 10
71.699999927837155
 20
10.168558811799629
 30
0.0
 42
0.4142135623730951
  0
VERTEX
  5
1536
  8
SAPA_PROFIL
 62
     4
 10
72.199999927837155
 20
10.668558811799601
 30
0.0
  0
VERTEX
  5
1537
  8
SAPA_PROFIL
 62
     4
 10
72.199999927829865
 20
16.66855881180166
 30
0.0
 42
0.4142135623730951
  0
VERTEX
  5
1538
  8
SAPA_PROFIL
 62
     4
 10
71.699999927829879
 20
17.16855881180166
 30
0.0
  0
VERTEX
  5
1539
  8
SAPA_PROFIL
 62
     4
 10
70.799999927832971
 20
17.16855881180166
 30
0.0
 42
0.4142135623730951
  0
VERTEX
  5
153A
  8
SAPA_PROFIL
 62
     4
 10
70.499999927832789
 20
16.868558811801481
 30
0.0
  0
VERTEX
  5
153B
  8
SAPA_PROFIL
 62
     4
 10
70.499999927832789
 20
16.218558811799571
 30
0.0
 42
-0.4142135623730951
  0
VERTEX
  5
153C
  8
SAPA_PROFIL
 62
     4
 10
70.199999927832607
 20
15.918558811799601
 30
0.0
  0
VERTEX
  5
153D
  8
SAPA_PROFIL
 62
     4
 10
69.999999927832789
 20
15.918558811799601
 30
0.0
 42
-0.4142135623730951
  0
VERTEX
  5
153E
  8
SAPA_PROFIL
 62
     4
 10
69.499999927832789
 20
16.41855881179961
 30
0.0
  0
VERTEX
  5
153F
  8
SAPA_PROFIL
 62
     4
 10
69.499999927914644
 20
42.216293838723487
 30
0.0
 42
0.414213562374094
  0
VERTEX
  5
1540
  8
SAPA_PROFIL
 62
     4
 10
68.299999927914826
 20
43.416293838727398
 30
0.0
  0
VERTEX
  5
1541
  8
SAPA_PROFIL
 62
     4
 10
65.571518577834752
 20
43.416293838727633
 30
0.0
  0
SEQEND
  5
1542
  8
SAPA_PROFIL
 62
     4
  0
POLYLINE
  5
EEB
  8
SAPA_PROFIL
 62
     4
 66
     1
 10
0.0
 20
0.0
 30
0.0
 70
     1
  0
VERTEX
  5
1543
  8
SAPA_PROFIL
 62
     4
 10
73.199999995880091
 20
18.452820282317148
 30
0.0
  0
VERTEX
  5
1544
  8
SAPA_PROFIL
 62
     4
 10
80.699999996438535
 20
18.452820282321252
 30
0.0
 42
0.4142135623730951
  0
VERTEX
  5
1545
  8
SAPA_PROFIL
 62
     4
 10
81.699999996438521
 20
19.452820282321252
 30
0.0
  0
VERTEX
  5
1546
  8
SAPA_PROFIL
 62
     4
 10
81.699999996453982
 20
42.600555309245031
 30
0.0
 42
0.4142135623730949
  0
VERTEX
  5
1547
  8
SAPA_PROFIL
 62
     4
 10
80.899999996453801
 20
43.40055530924522
 30
0.0
  0
VERTEX
  5
1548
  8
SAPA_PROFIL
 62
     4
 10
72.099999995935207
 20
43.40055530924522
 30
0.0
 42
0.414213562373428
  0
VERTEX
  5
1549
  8
SAPA_PROFIL
 62
     4
 10
71.299999995935025
 20
42.600555309244129
 30
0.0
  0
VERTEX
  5
154A
  8
SAPA_PROFIL
 62
     4
 10
71.299999995958672
 20
19.452820282317148
 30
0.0
 42
0.4142135623724957
  0
VERTEX
  5
154B
  8
SAPA_PROFIL
 62
     4
 10
72.299999995957762
 20
18.452820282319191
 30
0.0
  0
SEQEND
  5
154C
  8
SAPA_PROFIL
 62
     4
  0
LINE
  5
F0E
  8
SAPA_GLAS
 10
62.199999999065788
 20
-0.0000000000036877
 30
0.0
 11
62.288653318777413
 21
0.5027779603470544
 31
0.0
  0
LINE
  5
F0F
  8
SAPA_GLAS
 10
58.190461068432278
 20
1.986969785101443
 30
0.0
 11
57.99999999955434
 21
1.986969785101443
 31
0.0
  0
ARC
  5
F10
  8
SAPA_GLAS
 10
59.999999999556152
 20
-14.58466937281492
 30
0.0
 40
9.9869792597787779
 50
78.447792354267833
 51
101.5522076457321
  0
LINE
  5
F11
  8
SAPA_GLAS
 10
25.800000000042569
 20
-0.0000000000036877
 30
0.0
 11
25.711346680330958
 21
0.5027779603470544
 31
0.0
  0
LINE
  5
F12
  8
SAPA_GLAS
 10
29.80953893067608
 20
1.986969785101443
 30
0.0
 11
29.999999999554021
 21
1.986969785101443
 31
0.0
  0
ARC
  5
F13
  8
SAPA_GLAS
 10
27.999999999552202
 20
-14.58466937281492
 30
0.0
 40
9.9869792597787779
 50
78.447792354267619
 51
101.55220764573239
  0
POLYLINE
  5
F14
  8
SAPA_GLAS
 66
     1
 10
0.0
 20
0.0
 30
0.0
 70
     1
  0
VERTEX
  5
15B3
  8
SAPA_GLAS
 10
58.122788369993167
 20
2.7604722664101611
 30
0.0
 42
0.1316524975872964
  0
VERTEX
  5
15B4
  8
SAPA_GLAS
 10
58.190461068330272
 20
1.9869697849207659
 30
0.0
  0
VERTEX
  5
15B5
  8
SAPA_GLAS
 10
58.742648854781791
 20
0.4698463102966457
 30
0.0
 42
0.4142135623734131
  0
VERTEX
  5
15B6
  8
SAPA_GLAS
 10
59.383505236834893
 20
0.1710100715622929
 30
0.0
  0
VERTEX
  5
15B7
  8
SAPA_GLAS
 10
59.571443760994498
 20
0.2394141002269023
 30
0.0
 42
0.4142135623732762
  0
VERTEX
  5
15B8
  8
SAPA_GLAS
 10
59.750745504238672
 20
0.623927929460379
 30
0.0
  0
VERTEX
  5
15B9
  8
SAPA_GLAS
 10
59.742296496730297
 20
0.6471413867782873
 30
0.0
 42
-0.5773502691875974
  0
VERTEX
  5
15BA
  8
SAPA_GLAS
 10
59.964964656426858
 20
0.9125069660446243
 30
0.0
  0
VERTEX
  5
15BB
  8
SAPA_GLAS
 10
64.280909495923765
 20
0.1514894435677405
 30
0.0
 42
0.4142135623736183
  0
VERTEX
  5
15BC
  8
SAPA_GLAS
 10
64.628446275119956
 20
0.3948373161690668
 30
0.0
  0
VERTEX
  5
15BD
  8
SAPA_GLAS
 10
64.697905546190071
 20
0.7887604173712363
 30
0.0
 42
0.4142135623730951
  0
VERTEX
  5
15BE
  8
SAPA_GLAS
 10
64.454557673592916
 20
1.1362971965763999
 30
0.0
  0
VERTEX
  5
15BF
  8
SAPA_GLAS
 10
59.513175910671521
 20
2.007596123393717
 30
0.0
 42
-0.4142135623725704
  0
VERTEX
  5
15C0
  8
SAPA_GLAS
 10
59.107596123006651
 20
2.5868240887351339
 30
0.0
  0
VERTEX
  5
15C1
  8
SAPA_GLAS
 10
60.311266129139511
 20
9.4131759110621971
 30
0.0
 42
0.4663076581553405
  0
VERTEX
  5
15C2
  8
SAPA_GLAS
 10
59.818862252633899
 20
9.9999999998992948
 30
0.0
  0
VERTEX
  5
15C3
  8
SAPA_GLAS
 10
28.18113774647448
 20
10.0000000001007
 30
0.0
 42
0.4663076581553401
  0
VERTEX
  5
15C4
  8
SAPA_GLAS
 10
27.688733869964729
 20
9.4131759112698248
 30
0.0
  0
VERTEX
  5
15C5
  8
SAPA_GLAS
 10
28.89240387600735
 20
2.586824088927492
 30
0.0
 42
-0.4142135623725707
  0
VERTEX
  5
15C6
  8
SAPA_GLAS
 10
28.486824088335091
 20
2.0075961235912341
 30
0.0
  0
VERTEX
  5
15C7
  8
SAPA_GLAS
 10
23.545442325402611
 20
1.1362971968368349
 30
0.0
 42
0.4142135623730951
  0
VERTEX
  5
15C8
  8
SAPA_GLAS
 10
23.302094452801018
 20
0.7887604176347695
 30
0.0
  0
VERTEX
  5
15C9
  8
SAPA_GLAS
 10
23.371553723866139
 20
0.3948373164317189
 30
0.0
 42
0.4142135623736183
  0
VERTEX
  5
15CA
  8
SAPA_GLAS
 10
23.719090503059199
 20
0.1514894438259589
 30
0.0
  0
VERTEX
  5
15CB
  8
SAPA_GLAS
 10
28.035035342565809
 20
0.9125069662478964
 30
0.0
 42
-0.5773502691875974
  0
VERTEX
  5
15CC
  8
SAPA_GLAS
 10
28.257703502259002
 20
0.6471413869787243
 30
0.0
  0
VERTEX
  5
15CD
  8
SAPA_GLAS
 10
28.249254494750321
 20
0.6239279296609226
 30
0.0
 42
0.4142135623732762
  0
VERTEX
  5
15CE
  8
SAPA_GLAS
 10
28.428556237989611
 20
0.2394141004251651
 30
0.0
  0
VERTEX
  5
15CF
  8
SAPA_GLAS
 10
28.61649476214836
 20
0.1710100717581611
 30
0.0
 42
0.4142135623734131
  0
VERTEX
  5
15D0
  8
SAPA_GLAS
 10
29.257351144205241
 20
0.4698463104843498
 30
0.0
  0
VERTEX
  5
15D1
  8
SAPA_GLAS
 10
29.80953893067608
 20
1.986969785101443
 30
0.0
 42
0.1316524975872963
  0
VERTEX
  5
15D2
  8
SAPA_GLAS
 10
29.87721162902303
 20
2.7604722665899781
 30
0.0
  0
VERTEX
  5
15D3
  8
SAPA_GLAS
 10
28.81840371069574
 20
8.7652703645626673
 30
0.0
 42
-0.4663076581547951
  0
VERTEX
  5
15D4
  8
SAPA_GLAS
 10
29.015365261299689
 20
9.0000000000946656
 30
0.0
  0
VERTEX
  5
15D5
  8
SAPA_GLAS
 10
58.98463473779595
 20
8.9999999999038778
 30
0.0
 42
-0.466307658154795
  0
VERTEX
  5
15D6
  8
SAPA_GLAS
 10
59.181596288396918
 20
8.7652703643693712
 30
0.0
  0
SEQEND
  5
15D7
  8
SAPA_GLAS
  0
POLYLINE
  5
F15
  8
SAPA_GLAS
 66
     1
 10
0.0
 20
0.0
 30
0.0
  0
VERTEX
  5
15D8
  8
SAPA_GLAS
 10
29.999999999554031
 20
-23.999999999999989
 30
0.0
  0
VERTEX
  5
15D9
  8
SAPA_GLAS
 10
29.999999999554021
 20
8.0000000000000107
 30
0.0
  0
VERTEX
  5
15DA
  8
SAPA_GLAS
 10
33.999999999554021
 20
8.0000000000000107
 30
0.0
  0
VERTEX
  5
15DB
  8
SAPA_GLAS
 10
33.999999999554021
 20
-23.999999999999989
 30
0.0
  0
SEQEND
  5
15DC
  8
SAPA_GLAS
  0
POLYLINE
  5
F16
  8
SAPA_GLAS
 66
     1
 10
0.0
 20
0.0
 30
0.0
  0
VERTEX
  5
15DD
  8
SAPA_GLAS
 10
53.999999999554177
 20
-1.999999999999996
 30
0.0
  0
VERTEX
  5
15DE
  8
SAPA_GLAS
 10
33.999999999554191
 20
-1.999999999999992
 30
0.0
  0
VERTEX
  5
15DF
  8
SAPA_GLAS
 10
33.999999999554191
 20
8.0000000000000178
 30
0.0
  0
VERTEX
  5
15E0
  8
SAPA_GLAS
 10
53.999999999554191
 20
8.0000000000000036
 30
0.0
  0
VERTEX
  5
15E1
  8
SAPA_GLAS
 10
53.999999999554177
 20
-1.999999999999996
 30
0.0
  0
SEQEND
  5
15E2
  8
SAPA_GLAS
  0
POLYLINE
  5
F17
  8
SAPA_GLAS
 66
     1
 10
0.0
 20
0.0
 30
0.0
  0
VERTEX
  5
15E3
  8
SAPA_GLAS
 10
57.99999999955417
 20
-24.0
 30
0.0
  0
VERTEX
  5
15E4
  8
SAPA_GLAS
 10
57.999999999554191
 20
8.0000000000000036
 30
0.0
  0
VERTEX
  5
15E5
  8
SAPA_GLAS
 10
53.999999999554191
 20
8.0000000000000036
 30
0.0
  0
VERTEX
  5
15E6
  8
SAPA_GLAS
 10
53.999999999554177
 20
-24.0
 30
0.0
  0
SEQEND
  5
15E7
  8
SAPA_GLAS
  0
INSERT
  5
F18
  8
SAPA_GLAS
  6
CONTINUOUS
  2
*X35
 10
0.0
 20
0.0
 30
0.0
1001
ACAD
1000
HATCH
1002
{
1070
    19
1000
ANSI37
1040
0.25
1040
0.0
1000
R14_HATCH_DATA
1000
F18
1011
1.0
1021
0.0
1031
0.0
1021
0.0
1031
0.0
1011
0.0
1021
0.0
1031
0.0
1021
1.0
1031
0.0
1011
0.0
1021
0.0
1031
0.0
1021
0.0
1031
1.0
1040
0.0
1010
0.0
1020
0.0
1030
1.0
1000
ANSI37
1070
     0
1070
     0
1071
        1
1071
        7
1070
     1
1070
     1
1071
       21
1040
57.999999999554177
1040
-4.8000000000030036
1040
-0.1011549434925542
1040
61.999999999915502
1040
-4.8000000000760528
1040
0.0
1040
61.999999999908219
1040
-3.700000000004362
1040
-0.4142135623731029
1040
62.199999999905302
1040
-3.500000000003634
1040
0.0
1040
62.999999999908219
1040
-3.5000000000145408
1040
0.4142135623730951
1040
63.499999999908219
1040
-3.000000000014555
1040
0.0
1040
63.499999999428027
1040
-2.000000000003634
1040
0.414213562373094
1040
62.999999999428027
1040
-1.500000000003634
1040
0.0
1040
62.199999999417841
1040
-1.500000000003634
1040
-0.4142135623731048
1040
61.999999999428042
1040
-1.3000000000029059
1040
0.0
1040
61.999999999428042
1040
-0.200000000004362
1040
-0.4142135618575339
1040
62.199999999065803
1040
-0.0000000000036344
1040
0.0
1040
62.288653318733928
1040
0.50277796010054
1040
0.0
1040
59.964964656426858
1040
0.9125069660446243
1040
0.5773502691875974
1040
59.742296496730297
1040
0.6471413867782873
1040
0.0
1040
59.750745504238672
1040
0.623927929460379
1040
-0.4142135623732763
1040
59.571443760994498
1040
0.2394141002269023
1040
0.0
1040
59.383505236834893
1040
0.1710100715622929
1040
-0.4142135623734132
1040
58.742648854781791
1040
0.4698463102966457
1040
0.0
1040
58.190461068264518
1040
1.986969785101443
1040
0.0
1040
57.999999999554191
1040
1.986969785101443
1040
0.0
1071
        0
1070
     0
1070
     1
1040
0.0
1040
0.25
1070
     0
1070
     2
1040
0.7853981633974483
1040
20.50000000000011
1040
-5.0000000000036371
1040
-0.5612660075668221
1040
0.5612660075668221
1070
     0
1040
2.3561944901923439
1040
20.50000000000011
1040
-5.0000000000036371
1040
-0.5612660075668221
1040
-0.5612660075668221
1070
     0
1040
0.0554184978666472
1071
        1
1040
60.022530012564161
1040
-2.3851922194990598
1040
0.0
1002
}
  0
INSERT
  5
F19
  8
SAPA_GLAS
  6
CONTINUOUS
  2
*X36
 10
0.0
 20
0.0
 30
0.0
1001
ACAD
1000
HATCH
1002
{
1070
    19
1000
ANSI37
1040
0.25
1040
0.0
1000
R14_HATCH_DATA
1000
F19
1011
1.0
1021
0.0
1031
0.0
1021
0.0
1031
0.0
1011
0.0
1021
0.0
1031
0.0
1021
1.0
1031
0.0
1011
0.0
1021
0.0
1031
0.0
1021
0.0
1031
1.0
1040
0.0
1010
0.0
1020
0.0
1030
1.0
1000
ANSI37
1070
     0
1070
     0
1071
        1
1071
        7
1070
     1
1070
     1
1071
       21
1040
29.999999999554021
1040
1.986969785101443
1040
0.0
1040
29.80953893067608
1040
1.986969785101443
1040
0.0
1040
29.257351144205241
1040
0.4698463104843498
1040
-0.4142135623734131
1040
28.61649476214836
1040
0.1710100717581611
1040
0.0
1040
28.428556237989611
1040
0.2394141004251651
1040
-0.4142135623732763
1040
28.249254494750321
1040
0.6239279296609226
1040
0.0
1040
28.257703502259002
1040
0.6471413869787243
1040
0.5773502691875974
1040
28.035035342565809
1040
0.9125069662478964
1040
0.0
1040
25.711346680330958
1040
0.5027779603470539
1040
0.0
1040
25.800000000042569
1040
-0.0000000000036877
1040
-0.4142135623811048
1040
26.000000000037851
1040
-0.2000000000044153
1040
0.0
1040
26.000000000037851
1040
-1.3000000000029599
1040
-0.4142135623731048
1040
25.800000000048041
1040
-1.5000000000036871
1040
0.0
1040
25.000000000037851
1040
-1.5000000000036871
1040
0.414213562373094
1040
24.500000000037851
1040
-2.0000000000036868
1040
0.0
1040
24.499999999557669
1040
-3.000000000014615
1040
0.4142135623730951
1040
24.999999999557669
1040
-3.5000000000146012
1040
0.0
1040
25.79999999956058
1040
-3.5000000000036868
1040
-0.4142135623731029
1040
25.999999999557669
1040
-3.7000000000044149
1040
0.0
1040
25.99999999955039
1040
-4.8000000000029743
1040
-0.101154943483322
1040
29.999999999554021
1040
-4.8000000000029743
1040
0.0
1071
        0
1070
     0
1070
     1
1040
0.0
1040
0.25
1070
     0
1070
     2
1040
0.7853981633974483
1040
20.50000000000011
1040
-5.0000000000036371
1040
-0.5612660075668221
1040
0.5612660075668221
1070
     0
1040
2.3561944901923439
1040
20.50000000000011
1040
-5.0000000000036371
1040
-0.5612660075668221
1040
-0.5612660075668221
1070
     0
1040
0.0245236365555031
1071
        1
1040
28.057018522985111
1040
-1.8094267628165699
1040
0.0
1002
}
  0
POLYLINE
  5
F3E
  8
SAPA_FOGBAND
 66
     1
 10
0.0
 20
0.0
 30
0.0
 70
     1
  0
VERTEX
  5
16B9
  8
SAPA_FOGBAND
 10
16.25000000001042
 20
10.350000000017459
 30
0.0
  0
VERTEX
  5
16BA
  8
SAPA_FOGBAND
 10
17.050000000010598
 20
10.350000000017459
 30
0.0
  0
VERTEX
  5
16BB
  8
SAPA_FOGBAND
 10
17.050000000010598
 20
16.65000000001454
 30
0.0
  0
VERTEX
  5
16BC
  8
SAPA_FOGBAND
 10
16.25000000001042
 20
16.65000000001454
 30
0.0
  0
SEQEND
  5
16BD
  8
SAPA_FOGBAND
  0
POLYLINE
  5
F3F
  8
SAPA_FOGBAND
 66
     1
 10
0.0
 20
0.0
 30
0.0
  0
VERTEX
  5
16BE
  8
SAPA_FOGBAND
 10
17.050000000010598
 20
15.072689603157039
 30
0.0
  0
VERTEX
  5
16BF
  8
SAPA_FOGBAND
 10
20.50000000001042
 20
16.198136200472959
 30
0.0
  0
VERTEX
  5
16C0
  8
SAPA_FOGBAND
 10
20.50000000001042
 20
13.75999815392443
 30
0.0
  0
VERTEX
  5
16C1
  8
SAPA_FOGBAND
 10
17.050000000010598
 20
13.65000000001745
 30
0.0
  0
SEQEND
  5
16C2
  8
SAPA_FOGBAND
  0
POLYLINE
  5
F40
  8
SAPA_FOGBAND
 66
     1
 10
0.0
 20
0.0
 30
0.0
  0
VERTEX
  5
16C3
  8
SAPA_FOGBAND
 10
17.050000000010598
 20
13.575000000016731
 30
0.0
  0
VERTEX
  5
16C4
  8
SAPA_FOGBAND
 10
20.50000000001042
 20
13.57500000001345
 30
0.0
  0
VERTEX
  5
16C5
  8
SAPA_FOGBAND
 10
20.50000000001042
 20
13.42500000001527
 30
0.0
  0
VERTEX
  5
16C6
  8
SAPA_FOGBAND
 10
17.050000000010598
 20
13.42500000001527
 30
0.0
  0
SEQEND
  5
16C7
  8
SAPA_FOGBAND
  0
POLYLINE
  5
F41
  8
SAPA_FOGBAND
 66
     1
 10
0.0
 20
0.0
 30
0.0
  0
VERTEX
  5
16C8
  8
SAPA_FOGBAND
 10
17.050000000010598
 20
13.35000000001455
 30
0.0
  0
VERTEX
  5
16C9
  8
SAPA_FOGBAND
 10
20.50000000001042
 20
13.240002614832299
 30
0.0
  0
VERTEX
  5
16CA
  8
SAPA_FOGBAND
 10
20.50000000001042
 20
10.80190927441013
 30
0.0
  0
VERTEX
  5
16CB
  8
SAPA_FOGBAND
 10
17.050000000010598
 20
11.92731039687496
 30
0.0
  0
SEQEND
  5
16CC
  8
SAPA_FOGBAND
  0
POLYLINE
  5
F42
  8
SAPA_FOGBAND
 66
     1
 10
0.0
 20
0.0
 30
0.0
 70
     1
  0
VERTEX
  5
16CD
  8
SAPA_FOGBAND
 10
16.25000000001042
 20
1.8500000000029071
 30
0.0
  0
VERTEX
  5
16CE
  8
SAPA_FOGBAND
 10
17.050000000010598
 20
1.8500000000029071
 30
0.0
  0
VERTEX
  5
16CF
  8
SAPA_FOGBAND
 10
17.050000000010598
 20
8.1499999999999915
 30
0.0
  0
VERTEX
  5
16D0
  8
SAPA_FOGBAND
 10
16.25000000001042
 20
8.1499999999999915
 30
0.0
  0
SEQEND
  5
16D1
  8
SAPA_FOGBAND
  0
POLYLINE
  5
F43
  8
SAPA_FOGBAND
 66
     1
 10
0.0
 20
0.0
 30
0.0
  0
VERTEX
  5
16D2
  8
SAPA_FOGBAND
 10
17.050000000010598
 20
6.5726896031424911
 30
0.0
  0
VERTEX
  5
16D3
  8
SAPA_FOGBAND
 10
20.50000000001042
 20
7.6981362004584142
 30
0.0
  0
VERTEX
  5
16D4
  8
SAPA_FOGBAND
 10
20.50000000001042
 20
5.2599981539098764
 30
0.0
  0
VERTEX
  5
16D5
  8
SAPA_FOGBAND
 10
17.050000000010598
 20
5.1500000000029038
 30
0.0
  0
SEQEND
  5
16D6
  8
SAPA_FOGBAND
  0
POLYLINE
  5
F44
  8
SAPA_FOGBAND
 66
     1
 10
0.0
 20
0.0
 30
0.0
  0
VERTEX
  5
16D7
  8
SAPA_FOGBAND
 10
17.050000000010598
 20
5.0750000000021771
 30
0.0
  0
VERTEX
  5
16D8
  8
SAPA_FOGBAND
 10
20.50000000001042
 20
5.0749999999989024
 30
0.0
  0
VERTEX
  5
16D9
  8
SAPA_FOGBAND
 10
20.50000000001042
 20
4.9250000000007148
 30
0.0
  0
VERTEX
  5
16DA
  8
SAPA_FOGBAND
 10
17.050000000010598
 20
4.925000000000721
 30
0.0
  0
SEQEND
  5
16DB
  8
SAPA_FOGBAND
  0
POLYLINE
  5
F45
  8
SAPA_FOGBAND
 66
     1
 10
0.0
 20
0.0
 30
0.0
  0
VERTEX
  5
16DC
  8
SAPA_FOGBAND
 10
17.050000000010598
 20
4.8499999999999943
 30
0.0
  0
VERTEX
  5
16DD
  8
SAPA_FOGBAND
 10
20.50000000001042
 20
4.7400026148177474
 30
0.0
  0
VERTEX
  5
16DE
  8
SAPA_FOGBAND
 10
20.50000000001042
 20
2.3019092743955838
 30
0.0
  0
VERTEX
  5
16DF
  8
SAPA_FOGBAND
 10
17.050000000010598
 20
3.4273103968604062
 30
0.0
  0
SEQEND
  5
16E0
  8
SAPA_FOGBAND
  0
POLYLINE
  5
F46
  8
SAPA_FOGBAND
 66
     1
 10
0.0
 20
0.0
 30
0.0
 70
     1
  0
VERTEX
  5
16E1
  8
SAPA_FOGBAND
 10
71.749999999672752
 20
10.56855881185319
 30
0.0
  0
VERTEX
  5
16E2
  8
SAPA_FOGBAND
 10
70.949999999672571
 20
10.56855881185319
 30
0.0
  0
VERTEX
  5
16E3
  8
SAPA_FOGBAND
 10
70.949999999672571
 20
16.868558811850281
 30
0.0
  0
VERTEX
  5
16E4
  8
SAPA_FOGBAND
 10
71.749999999672752
 20
16.868558811850281
 30
0.0
  0
SEQEND
  5
16E5
  8
SAPA_FOGBAND
  0
POLYLINE
  5
F47
  8
SAPA_FOGBAND
 66
     1
 10
0.0
 20
0.0
 30
0.0
  0
VERTEX
  5
16E6
  8
SAPA_FOGBAND
 10
70.949999999672571
 20
15.291248414992779
 30
0.0
  0
VERTEX
  5
16E7
  8
SAPA_FOGBAND
 10
67.499999999672752
 20
16.416695012308701
 30
0.0
  0
VERTEX
  5
16E8
  8
SAPA_FOGBAND
 10
67.499999999672752
 20
13.978556965760159
 30
0.0
  0
VERTEX
  5
16E9
  8
SAPA_FOGBAND
 10
70.949999999672571
 20
13.868558811853189
 30
0.0
  0
SEQEND
  5
16EA
  8
SAPA_FOGBAND
  0
POLYLINE
  5
F48
  8
SAPA_FOGBAND
 66
     1
 10
0.0
 20
0.0
 30
0.0
  0
VERTEX
  5
16EB
  8
SAPA_FOGBAND
 10
70.949999999672571
 20
13.79355881185246
 30
0.0
  0
VERTEX
  5
16EC
  8
SAPA_FOGBAND
 10
67.499999999672752
 20
13.79355881184919
 30
0.0
  0
VERTEX
  5
16ED
  8
SAPA_FOGBAND
 10
67.499999999672752
 20
13.643558811850999
 30
0.0
  0
VERTEX
  5
16EE
  8
SAPA_FOGBAND
 10
70.949999999672571
 20
13.64355881185101
 30
0.0
  0
SEQEND
  5
16EF
  8
SAPA_FOGBAND
  0
POLYLINE
  5
F49
  8
SAPA_FOGBAND
 66
     1
 10
0.0
 20
0.0
 30
0.0
  0
VERTEX
  5
16F0
  8
SAPA_FOGBAND
 10
70.949999999672571
 20
13.568558811850281
 30
0.0
  0
VERTEX
  5
16F1
  8
SAPA_FOGBAND
 10
67.499999999672752
 20
13.45856142666803
 30
0.0
  0
VERTEX
  5
16F2
  8
SAPA_FOGBAND
 10
67.499999999672752
 20
11.02046808624587
 30
0.0
  0
VERTEX
  5
16F3
  8
SAPA_FOGBAND
 10
70.949999999672571
 20
12.145869208710691
 30
0.0
  0
SEQEND
  5
16F4
  8
SAPA_FOGBAND
  0
POLYLINE
  5
F4A
  8
SAPA_FOGBAND
 66
     1
 10
0.0
 20
0.0
 30
0.0
 70
     1
  0
VERTEX
  5
16F5
  8
SAPA_FOGBAND
 10
71.749999999672752
 20
2.0685588118386411
 30
0.0
  0
VERTEX
  5
16F6
  8
SAPA_FOGBAND
 10
70.949999999672571
 20
2.0685588118386411
 30
0.0
  0
VERTEX
  5
16F7
  8
SAPA_FOGBAND
 10
70.949999999672571
 20
8.3685588118357241
 30
0.0
  0
VERTEX
  5
16F8
  8
SAPA_FOGBAND
 10
71.749999999672752
 20
8.3685588118357241
 30
0.0
  0
SEQEND
  5
16F9
  8
SAPA_FOGBAND
  0
POLYLINE
  5
F4B
  8
SAPA_FOGBAND
 66
     1
 10
0.0
 20
0.0
 30
0.0
  0
VERTEX
  5
16FA
  8
SAPA_FOGBAND
 10
70.949999999672571
 20
6.7912484149782264
 30
0.0
  0
VERTEX
  5
16FB
  8
SAPA_FOGBAND
 10
67.499999999672752
 20
7.9166950122941486
 30
0.0
  0
VERTEX
  5
16FC
  8
SAPA_FOGBAND
 10
67.499999999672752
 20
5.4785569657456117
 30
0.0
  0
VERTEX
  5
16FD
  8
SAPA_FOGBAND
 10
70.949999999672571
 20
5.3685588118386391
 30
0.0
  0
SEQEND
  5
16FE
  8
SAPA_FOGBAND
  0
POLYLINE
  5
F4C
  8
SAPA_FOGBAND
 66
     1
 10
0.0
 20
0.0
 30
0.0
  0
VERTEX
  5
16FF
  8
SAPA_FOGBAND
 10
70.949999999672571
 20
5.2935588118379107
 30
0.0
  0
VERTEX
  5
1700
  8
SAPA_FOGBAND
 10
67.499999999672752
 20
5.2935588118346368
 30
0.0
  0
VERTEX
  5
1701
  8
SAPA_FOGBAND
 10
67.499999999672752
 20
5.143558811836451
 30
0.0
  0
VERTEX
  5
1702
  8
SAPA_FOGBAND
 10
70.949999999672571
 20
5.1435588118364564
 30
0.0
  0
SEQEND
  5
1703
  8
SAPA_FOGBAND
  0
POLYLINE
  5
F4D
  8
SAPA_FOGBAND
 66
     1
 10
0.0
 20
0.0
 30
0.0
  0
VERTEX
  5
1704
  8
SAPA_FOGBAND
 10
70.949999999672571
 20
5.0685588118357279
 30
0.0
  0
VERTEX
  5
1705
  8
SAPA_FOGBAND
 10
67.499999999672752
 20
4.9585614266534828
 30
0.0
  0
VERTEX
  5
1706
  8
SAPA_FOGBAND
 10
67.499999999672752
 20
2.52046808623132
 30
0.0
  0
VERTEX
  5
1707
  8
SAPA_FOGBAND
 10
70.949999999672571
 20
3.6458692086961402
 30
0.0
  0
SEQEND
  5
1708
  8
SAPA_FOGBAND
  0
POLYLINE
  5
F4E
  8
SAPA_FOGBAND
 66
     1
 10
0.0
 20
0.0
 30
0.0
 70
     1
  0
VERTEX
  5
1709
  8
SAPA_FOGBAND
 10
136.7499999277313
 20
1.8500000000029071
 30
0.0
  0
VERTEX
  5
170A
  8
SAPA_FOGBAND
 10
135.94999992773111
 20
1.8500000000029071
 30
0.0
  0
VERTEX
  5
170B
  8
SAPA_FOGBAND
 10
135.94999992773111
 20
8.1499999999999915
 30
0.0
  0
VERTEX
  5
170C
  8
SAPA_FOGBAND
 10
136.7499999277313
 20
8.1499999999999915
 30
0.0
  0
SEQEND
  5
170D
  8
SAPA_FOGBAND
  0
POLYLINE
  5
F4F
  8
SAPA_FOGBAND
 66
     1
 10
0.0
 20
0.0
 30
0.0
  0
VERTEX
  5
170E
  8
SAPA_FOGBAND
 10
135.94999992773111
 20
6.5726896031424911
 30
0.0
  0
VERTEX
  5
170F
  8
SAPA_FOGBAND
 10
132.4999999277313
 20
7.6981362004584151
 30
0.0
  0
VERTEX
  5
1710
  8
SAPA_FOGBAND
 10
132.4999999277313
 20
5.2599981539098781
 30
0.0
  0
VERTEX
  5
1711
  8
SAPA_FOGBAND
 10
135.94999992773111
 20
5.1500000000029038
 30
0.0
  0
SEQEND
  5
1712
  8
SAPA_FOGBAND
  0
POLYLINE
  5
F50
  8
SAPA_FOGBAND
 66
     1
 10
0.0
 20
0.0
 30
0.0
  0
VERTEX
  5
1713
  8
SAPA_FOGBAND
 10
135.94999992773111
 20
5.0750000000021771
 30
0.0
  0
VERTEX
  5
1714
  8
SAPA_FOGBAND
 10
132.4999999277313
 20
5.0749999999989033
 30
0.0
  0
VERTEX
  5
1715
  8
SAPA_FOGBAND
 10
132.4999999277313
 20
4.9250000000007157
 30
0.0
  0
VERTEX
  5
1716
  8
SAPA_FOGBAND
 10
135.94999992773111
 20
4.925000000000721
 30
0.0
  0
SEQEND
  5
1717
  8
SAPA_FOGBAND
  0
POLYLINE
  5
F51
  8
SAPA_FOGBAND
 66
     1
 10
0.0
 20
0.0
 30
0.0
  0
VERTEX
  5
1718
  8
SAPA_FOGBAND
 10
135.94999992773111
 20
4.8499999999999943
 30
0.0
  0
VERTEX
  5
1719
  8
SAPA_FOGBAND
 10
132.4999999277313
 20
4.7400026148177492
 30
0.0
  0
VERTEX
  5
171A
  8
SAPA_FOGBAND
 10
132.4999999277313
 20
2.301909274395586
 30
0.0
  0
VERTEX
  5
171B
  8
SAPA_FOGBAND
 10
135.94999992773111
 20
3.4273103968604062
 30
0.0
  0
SEQEND
  5
171C
  8
SAPA_FOGBAND
  0
POLYLINE
  5
F52
  8
SAPA_FOGBAND
 66
     1
 10
0.0
 20
0.0
 30
0.0
 70
     1
  0
VERTEX
  5
171D
  8
SAPA_FOGBAND
 10
136.7499999277313
 20
10.350000000017459
 30
0.0
  0
VERTEX
  5
171E
  8
SAPA_FOGBAND
 10
135.94999992773111
 20
10.350000000017459
 30
0.0
  0
VERTEX
  5
171F
  8
SAPA_FOGBAND
 10
135.94999992773111
 20
16.65000000001454
 30
0.0
  0
VERTEX
  5
1720
  8
SAPA_FOGBAND
 10
136.7499999277313
 20
16.65000000001454
 30
0.0
  0
SEQEND
  5
1721
  8
SAPA_FOGBAND
  0
POLYLINE
  5
F53
  8
SAPA_FOGBAND
 66
     1
 10
0.0
 20
0.0
 30
0.0
  0
VERTEX
  5
1722
  8
SAPA_FOGBAND
 10
135.94999992773111
 20
15.072689603157039
 30
0.0
  0
VERTEX
  5
1723
  8
SAPA_FOGBAND
 10
132.4999999277313
 20
16.198136200472959
 30
0.0
  0
VERTEX
  5
1724
  8
SAPA_FOGBAND
 10
132.4999999277313
 20
13.75999815392443
 30
0.0
  0
VERTEX
  5
1725
  8
SAPA_FOGBAND
 10
135.94999992773111
 20
13.65000000001745
 30
0.0
  0
SEQEND
  5
1726
  8
SAPA_FOGBAND
  0
POLYLINE
  5
F54
  8
SAPA_FOGBAND
 66
     1
 10
0.0
 20
0.0
 30
0.0
  0
VERTEX
  5
1727
  8
SAPA_FOGBAND
 10
135.94999992773111
 20
13.575000000016731
 30
0.0
  0
VERTEX
  5
1728
  8
SAPA_FOGBAND
 10
132.4999999277313
 20
13.57500000001345
 30
0.0
  0
VERTEX
  5
1729
  8
SAPA_FOGBAND
 10
132.4999999277313
 20
13.42500000001527
 30
0.0
  0
VERTEX
  5
172A
  8
SAPA_FOGBAND
 10
135.94999992773111
 20
13.42500000001527
 30
0.0
  0
SEQEND
  5
172B
  8
SAPA_FOGBAND
  0
POLYLINE
  5
F55
  8
SAPA_FOGBAND
 66
     1
 10
0.0
 20
0.0
 30
0.0
  0
VERTEX
  5
172C
  8
SAPA_FOGBAND
 10
135.94999992773111
 20
13.35000000001455
 30
0.0
  0
VERTEX
  5
172D
  8
SAPA_FOGBAND
 10
132.4999999277313
 20
13.240002614832299
 30
0.0
  0
VERTEX
  5
172E
  8
SAPA_FOGBAND
 10
132.4999999277313
 20
10.801909274410139
 30
0.0
  0
VERTEX
  5
172F
  8
SAPA_FOGBAND
 10
135.94999992773111
 20
11.92731039687496
 30
0.0
  0
SEQEND
  5
1730
  8
SAPA_FOGBAND
  0
POLYLINE
  5
F56
  8
SAPA_FOGBAND
 66
     1
 10
0.0
 20
0.0
 30
0.0
 70
     1
  0
VERTEX
  5
1731
  8
SAPA_FOGBAND
 10
81.249999928461435
 20
10.51855881180404
 30
0.0
  0
VERTEX
  5
1732
  8
SAPA_FOGBAND
 10
82.049999928461617
 20
10.51855881180404
 30
0.0
  0
VERTEX
  5
1733
  8
SAPA_FOGBAND
 10
82.049999928461617
 20
16.818558811801118
 30
0.0
  0
VERTEX
  5
1734
  8
SAPA_FOGBAND
 10
81.249999928461435
 20
16.818558811801118
 30
0.0
  0
SEQEND
  5
1735
  8
SAPA_FOGBAND
  0
POLYLINE
  5
F57
  8
SAPA_FOGBAND
 66
     1
 10
0.0
 20
0.0
 30
0.0
  0
VERTEX
  5
1736
  8
SAPA_FOGBAND
 10
82.049999928461617
 20
15.24124841494362
 30
0.0
  0
VERTEX
  5
1737
  8
SAPA_FOGBAND
 10
85.499999928461435
 20
16.366695012259552
 30
0.0
  0
VERTEX
  5
1738
  8
SAPA_FOGBAND
 10
85.499999928461435
 20
13.92855696571101
 30
0.0
  0
VERTEX
  5
1739
  8
SAPA_FOGBAND
 10
82.049999928461617
 20
13.81855881180404
 30
0.0
  0
SEQEND
  5
173A
  8
SAPA_FOGBAND
  0
POLYLINE
  5
F58
  8
SAPA_FOGBAND
 66
     1
 10
0.0
 20
0.0
 30
0.0
  0
VERTEX
  5
173B
  8
SAPA_FOGBAND
 10
82.049999928461617
 20
13.743558811803309
 30
0.0
  0
VERTEX
  5
173C
  8
SAPA_FOGBAND
 10
85.499999928461435
 20
13.74355881180003
 30
0.0
  0
VERTEX
  5
173D
  8
SAPA_FOGBAND
 10
85.499999928461435
 20
13.59355881180185
 30
0.0
  0
VERTEX
  5
173E
  8
SAPA_FOGBAND
 10
82.049999928461617
 20
13.59355881180185
 30
0.0
  0
SEQEND
  5
173F
  8
SAPA_FOGBAND
  0
POLYLINE
  5
F59
  8
SAPA_FOGBAND
 66
     1
 10
0.0
 20
0.0
 30
0.0
  0
VERTEX
  5
1740
  8
SAPA_FOGBAND
 10
82.049999928461617
 20
13.51855881180113
 30
0.0
  0
VERTEX
  5
1741
  8
SAPA_FOGBAND
 10
85.499999928461435
 20
13.40856142661888
 30
0.0
  0
VERTEX
  5
1742
  8
SAPA_FOGBAND
 10
85.499999928461435
 20
10.970468086196719
 30
0.0
  0
VERTEX
  5
1743
  8
SAPA_FOGBAND
 10
82.049999928461617
 20
12.09586920866154
 30
0.0
  0
SEQEND
  5
1744
  8
SAPA_FOGBAND
  0
POLYLINE
  5
F5A
  8
SAPA_FOGBAND
 66
     1
 10
0.0
 20
0.0
 30
0.0
 70
     1
  0
VERTEX
  5
1745
  8
SAPA_FOGBAND
 10
81.249999928461435
 20
2.018558811789489
 30
0.0
  0
VERTEX
  5
1746
  8
SAPA_FOGBAND
 10
82.049999928461617
 20
2.018558811789489
 30
0.0
  0
VERTEX
  5
1747
  8
SAPA_FOGBAND
 10
82.049999928461617
 20
8.3185588117865734
 30
0.0
  0
VERTEX
  5
1748
  8
SAPA_FOGBAND
 10
81.249999928461435
 20
8.3185588117865734
 30
0.0
  0
SEQEND
  5
1749
  8
SAPA_FOGBAND
  0
POLYLINE
  5
F5B
  8
SAPA_FOGBAND
 66
     1
 10
0.0
 20
0.0
 30
0.0
  0
VERTEX
  5
174A
  8
SAPA_FOGBAND
 10
82.049999928461617
 20
6.741248414929073
 30
0.0
  0
VERTEX
  5
174B
  8
SAPA_FOGBAND
 10
85.499999928461435
 20
7.8666950122449961
 30
0.0
  0
VERTEX
  5
174C
  8
SAPA_FOGBAND
 10
85.499999928461435
 20
5.4285569656964583
 30
0.0
  0
VERTEX
  5
174D
  8
SAPA_FOGBAND
 10
82.049999928461617
 20
5.3185588117894858
 30
0.0
  0
SEQEND
  5
174E
  8
SAPA_FOGBAND
  0
POLYLINE
  5
F5C
  8
SAPA_FOGBAND
 66
     1
 10
0.0
 20
0.0
 30
0.0
  0
VERTEX
  5
174F
  8
SAPA_FOGBAND
 10
82.049999928461617
 20
5.243558811788759
 30
0.0
  0
VERTEX
  5
1750
  8
SAPA_FOGBAND
 10
85.499999928461435
 20
5.2435588117854843
 30
0.0
  0
VERTEX
  5
1751
  8
SAPA_FOGBAND
 10
85.499999928461435
 20
5.0935588117872967
 30
0.0
  0
VERTEX
  5
1752
  8
SAPA_FOGBAND
 10
82.049999928461617
 20
5.093558811787303
 30
0.0
  0
SEQEND
  5
1753
  8
SAPA_FOGBAND
  0
POLYLINE
  5
F5D
  8
SAPA_FOGBAND
 66
     1
 10
0.0
 20
0.0
 30
0.0
  0
VERTEX
  5
1754
  8
SAPA_FOGBAND
 10
82.049999928461617
 20
5.0185588117865763
 30
0.0
  0
VERTEX
  5
1755
  8
SAPA_FOGBAND
 10
85.499999928461435
 20
4.9085614266043294
 30
0.0
  0
VERTEX
  5
1756
  8
SAPA_FOGBAND
 10
85.499999928461435
 20
2.4704680861821662
 30
0.0
  0
VERTEX
  5
1757
  8
SAPA_FOGBAND
 10
82.049999928461617
 20
3.5958692086469881
 30
0.0
  0
SEQEND
  5
1758
  8
SAPA_FOGBAND
  0
DIMENSION
  5
F69
  8
SAPA_MATT
  2
*D30
 10
-17.999999928252379
 20
59.999999999999879
 30
0.0
 11
-20.7499999282524
 21
27.499999999998089
 31
0.0
 70
     0
 13
22.25000000005971
 23
-5.0000000000036939
 33
0.0
 14
14.30000007175777
 24
59.999999999999872
 34
0.0
 50
270.0
1001
ACAD
1000
DSTYLE
1002
{
1070
    40
1040
1.0
1002
}
  0
DIMENSION
  5
F6A
  8
SAPA_MATT
  2
*D29
 10
-5.999999928252425
 20
-0.0000000000000081
 30
0.0
 11
-8.7499999282524232
 21
29.999999999999929
 31
0.0
 70
     0
 13
14.30000007175777
 23
59.999999999999872
 33
0.0
 14
15.50000007174763
 24
-0.0000000000000142
 34
0.0
 50
270.0
1001
ACAD
1000
DSTYLE
1002
{
1070
    40
1040
1.0
1002
}
  0
DIMENSION
  5
F6B
  8
SAPA_MATT
  2
*D28
 10
138.99999999950231
 20
-56.000000000000099
 30
0.0
 11
76.499999999751253
 21
-56.000000000000099
 31
0.0
 70
   128
 13
14.00000000000024
 23
1.4999999999999849
 33
0.0
 14
138.99999999950231
 24
1.516783597155537
 34
0.0
1001
ACAD
1000
DSTYLE
1002
{
1070
    40
1040
1.0
1002
}
  0
DIMENSION
  5
F6C
  8
SAPA_MATT
  2
*D27
 10
138.99999999950231
 20
-44.000000000000149
 30
0.0
 11
102.8577351492785
 21
-43.239486851189909
 31
0.0
 70
   128
 13
67.499999999387086
 23
10.000000000174611
 33
0.0
 14
138.99999999950231
 24
1.516783597155537
 34
0.0
1001
ACAD
1000
DSTYLE
1002
{
1070
   287
1070
     4
1070
    40
1040
1.0
1070
   279
1070
     1
1002
}
  0
DIMENSION
  5
F6D
  8
SAPA_MATT
  2
*D26
 10
67.499999999387086
 20
-44.000000000000121
 30
0.0
 11
43.999999999732928
 21
-41.250000000000128
 31
0.0
 70
     0
 13
20.500000000078789
 23
10.00000000017455
 33
0.0
 14
67.499999999387086
 24
10.000000000174611
 34
0.0
1001
ACAD
1000
DSTYLE
1002
{
1070
   287
1070
     4
1070
    40
1040
1.0
1070
   279
1070
     1
1002
}
  0
DIMENSION
  5
F6E
  8
SAPA_MATT
  2
*D25
 10
20.500000000078789
 20
-44.000000000000121
 30
0.0
 11
17.25000000003951
 21
-44.000000000000121
 31
0.0
 70
   128
 13
14.00000000000024
 23
1.4999999999999849
 33
0.0
 14
20.500000000078789
 24
10.00000000017455
 34
0.0
1001
ACAD
1000
DSTYLE
1002
{
1070
    40
1040
1.0
1002
}
  0
DIMENSION
  5
F6F
  8
SAPA_MATT
  2
*D24
 10
-5.9999999999998197
 20
-5.0000000000036859
 30
0.0
 11
-8.7499999999998188
 21
-2.5000000000018479
 31
0.0
 70
     0
 13
15.50000000000024
 23
-0.0000000000000142
 33
0.0
 14
22.25000000005971
 24
-5.0000000000036939
 34
0.0
 50
270.0
1001
ACAD
1000
DSTYLE
1002
{
1070
   287
1070
     4
1070
    40
1040
1.0
1070
   279
1070
     1
1002
}
  0
VIEWPORT
  5
C4
 67
     1
  8
0
 10
160.5543545598442
 20
116.00969601843509
 30
0.0
 40
404.96977709277462
 41
256.8421457311839
 68
     1
 69
     1
1001
ACAD
1000
MVIEW
1002
{
1070
    16
1010
0.0
1020
0.0
1030
0.0
1010
0.0
1020
0.0
1030
1.0
1040
0.0
1040
256.8421457311839
1040
99.206250190734863
1040
130.70624923706049
1040
50.0
1040
0.0
1040
0.0
1070
     0
1070
     0
1070
     1
1070
     1
1070
     0
1070
     0
1070
     0
1070
     0
1040
0.0
1040
0.0
1040
0.0
1040
10.0
1040
10.0
1040
10.0
1040
10.0
1070
     0
1002
{
1002
}
1002
}
  0
ENDSEC
  0
EOF
