  0
SECTION
  2
HEADER
  9
$ACADVER
  1
AC1009
  9
$INSBASE
 10
0.0
 20
0.0
 30
0.0
  9
$EXTMIN
 10
-30.619466477046021
 20
-57.499999999999993
 30
-0.2
  9
$EXTMAX
 10
194.00325593441289
 20
79.755365308950516
 30
0.0000000048844772
  9
$LIMMIN
 10
0.0
 20
0.0
  9
$LIMMAX
 10
790.0
 20
790.0
  9
$ORTHOMODE
 70
     1
  9
$REGENMODE
 70
     1
  9
$FILLMODE
 70
     1
  9
$QTEXTMODE
 70
     0
  9
$MIRRTEXT
 70
     1
  9
$DRAGMODE
 70
     2
  9
$LTSCALE
 40
4.0
  9
$OSMODE
 70
   167
  9
$ATTMODE
 70
     1
  9
$TEXTSIZE
 40
3.5
  9
$TRACEWID
 40
0.05
  9
$TEXTSTYLE
  7
ISO
  9
$CLAYER
  8
0
  9
$CELTYPE
  6
BYLAYER
  9
$CECOLOR
 62
   256
  9
$DIMSCALE
 40
0.0
  9
$DIMASZ
 40
3.0
  9
$DIMEXO
 40
1.5
  9
$DIMDLI
 40
10.0
  9
$DIMRND
 40
0.0
  9
$DIMDLE
 40
0.0
  9
$DIMEXE
 40
1.5
  9
$DIMTP
 40
0.0
  9
$DIMTM
 40
0.0
  9
$DIMTXT
 40
3.5
  9
$DIMCEN
 40
-5.0
  9
$DIMTSZ
 40
0.0
  9
$DIMTOL
 70
     0
  9
$DIMLIM
 70
     0
  9
$DIMTIH
 70
     0
  9
$DIMTOH
 70
     0
  9
$DIMSE1
 70
     0
  9
$DIMSE2
 70
     0
  9
$DIMTAD
 70
     1
  9
$DIMZIN
 70
     8
  9
$DIMBLK
  1

  9
$DIMASO
 70
     1
  9
$DIMSHO
 70
     1
  9
$DIMPOST
  1

  9
$DIMAPOST
  1

  9
$DIMALT
 70
     0
  9
$DIMALTD
 70
     0
  9
$DIMALTF
 40
25.399999999999999
  9
$DIMLFAC
 40
-1.0
  9
$DIMTOFL
 70
     1
  9
$DIMTVP
 40
0.0
  9
$DIMTIX
 70
     0
  9
$DIMSOXD
 70
     0
  9
$DIMSAH
 70
     0
  9
$DIMBLK1
  1

  9
$DIMBLK2
  1

  9
$DIMSTYLE
  2
MASKIN
  9
$DIMCLRD
 70
   256
  9
$DIMCLRE
 70
   256
  9
$DIMCLRT
 70
     2
  9
$DIMTFAC
 40
1.0
  9
$DIMGAP
 40
1.0
  9
$LUNITS
 70
     2
  9
$LUPREC
 70
     8
  9
$SKETCHINC
 40
0.1
  9
$FILLETRAD
 40
0.0
  9
$AUNITS
 70
     0
  9
$AUPREC
 70
     8
  9
$MENU
  1
ACAD
  9
$ELEVATION
 40
0.0
  9
$PELEVATION
 40
0.0
  9
$THICKNESS
 40
0.0
  9
$LIMCHECK
 70
     0
  9
$BLIPMODE
 70
     0
  9
$CHAMFERA
 40
0.0
  9
$CHAMFERB
 40
0.0
  9
$SKPOLY
 70
     0
  9
$TDCREATE
 40
2455734.518348461
  9
$TDUPDATE
 40
2455994.5014370368
  9
$TDINDWG
 40
3.0271510648
  9
$TDUSRTIMER
 40
3.0271508796000002
  9
$USRTIMER
 70
     1
  9
$ANGBASE
 50
0.0
  9
$ANGDIR
 70
     0
  9
$PDMODE
 70
     0
  9
$PDSIZE
 40
0.0
  9
$PLINEWID
 40
0.0
  9
$COORDS
 70
     1
  9
$SPLFRAME
 70
     0
  9
$SPLINETYPE
 70
     6
  9
$SPLINESEGS
 70
     8
  9
$ATTDIA
 70
     0
  9
$ATTREQ
 70
     1
  9
$HANDLING
 70
     1
  9
$HANDSEED
  5
1E5E
  9
$SURFTAB1
 70
     6
  9
$SURFTAB2
 70
     6
  9
$SURFTYPE
 70
     6
  9
$SURFU
 70
     6
  9
$SURFV
 70
     6
  9
$UCSNAME
  2

  9
$UCSORG
 10
0.0
 20
0.0
 30
0.0
  9
$UCSXDIR
 10
1.0
 20
0.0
 30
0.0
  9
$UCSYDIR
 10
0.0
 20
1.0
 30
0.0
  9
$PUCSNAME
  2

  9
$PUCSORG
 10
0.0
 20
0.0
 30
0.0
  9
$PUCSXDIR
 10
1.0
 20
0.0
 30
0.0
  9
$PUCSYDIR
 10
0.0
 20
1.0
 30
0.0
  9
$USERI1
 70
     0
  9
$USERI2
 70
     0
  9
$USERI3
 70
     0
  9
$USERI4
 70
     0
  9
$USERI5
 70
     0
  9
$USERR1
 40
0.0
  9
$USERR2
 40
0.0
  9
$USERR3
 40
0.0
  9
$USERR4
 40
0.0
  9
$USERR5
 40
0.0
  9
$WORLDVIEW
 70
     1
  9
$SHADEDGE
 70
     3
  9
$SHADEDIF
 70
    70
  9
$TILEMODE
 70
     1
  9
$MAXACTVP
 70
    16
  9
$PLIMCHECK
 70
     0
  9
$PEXTMIN
 10
1.0000000000000000E+020
 20
1.0000000000000000E+020
 30
1.0000000000000000E+020
  9
$PEXTMAX
 10
-1.0000000000000000E+020
 20
-1.0000000000000000E+020
 30
-1.0000000000000000E+020
  9
$PLIMMIN
 10
-5.069427490234375
 20
-5.8737497329711914
  9
$PLIMMAX
 10
291.89889526367187
 20
204.0995779037475
  9
$UNITMODE
 70
     0
  9
$VISRETAIN
 70
     1
  9
$PLINEGEN
 70
     0
  9
$PSLTSCALE
 70
     1
  0
ENDSEC
  0
SECTION
  2
TABLES
  0
TABLE
  2
VPORT
 70
     1
  0
VPORT
  2
*ACTIVE
 70
     0
 10
0.0
 20
0.0
 11
1.0
 21
1.0
 12
85.188651255684405
 22
44.245615266554502
 13
0.0
 23
0.0
 14
1.0
 24
1.0
 15
0.0
 25
0.0
 16
0.0
 26
0.0
 36
1.0
 17
0.0
 27
0.0
 37
0.0
 40
133.02496269104321
 41
2.37391304347826
 42
50.0
 43
0.0
 44
0.0
 50
0.0
 51
0.0
 71
     0
 72
   100
 73
     1
 74
     1
 75
     0
 76
     0
 77
     0
 78
     0
  0
ENDTAB
  0
TABLE
  2
LTYPE
 70
     3
  0
LTYPE
  2
CONTINUOUS
 70
     0
  3
Solid line
 72
    65
 73
     0
 40
0.0
  0
LTYPE
  2
BYGG-027368$0$NEWDOT
 70
     0
  3
____ . ____ . ____ . ____ . ____ . ____ . ____
 72
    65
 73
     4
 40
2.0
 49
1.0
 49
-0.5
 49
0.0
 49
-0.5
  0
LTYPE
  2
BYGG-027378$0$NEWDOT
 70
     0
  3
____ . ____ . ____ . ____ . ____ . ____ . ____
 72
    65
 73
     4
 40
2.0
 49
1.0
 49
-0.5
 49
0.0
 49
-0.5
  0
ENDTAB
  0
TABLE
  2
LAYER
 70
    31
  0
LAYER
  2
0
 70
     0
 62
     7
  6
CONTINUOUS
  0
LAYER
  2
DEFPOINTS
 70
     0
 62
     7
  6
CONTINUOUS
  0
LAYER
  2
SAPA_ARTIKELNR
 70
     0
 62
     4
  6
CONTINUOUS
  0
LAYER
  2
SAPA_GLAS
 70
     0
 62
     4
  6
CONTINUOUS
  0
LAYER
  2
SAPA_ANSLUTNING
 70
     0
 62
     6
  6
CONTINUOUS
  0
LAYER
  2
SAPA_MATT
 70
     0
 62
     1
  6
CONTINUOUS
  0
LAYER
  2
SAPA_FOGBAND
 70
     0
 62
     2
  6
CONTINUOUS
  0
LAYER
  2
SAPA_PROFIL
 70
     0
 62
     7
  6
CONTINUOUS
  0
ENDTAB
  0
TABLE
  2
STYLE
 70
    12
  0
STYLE
  2
STANDARD
 70
     0
 40
0.0
 41
1.0
 50
0.0
 71
     0
 42
0.2
  3
txt
  4

  0
STYLE
  2
ISO
 70
     0
 40
0.0
 41
1.0
 50
0.0
 71
     0
 42
3.5
  3
txt
  4

  0
STYLE
  2
BYGG-027392$0$STANDARD
 70
     0
 40
0.0
 41
1.0
 50
0.0
 71
     0
 42
0.2
  3
txt
  4

  0
STYLE
  2
BYGG-027392$0$ISO
 70
     0
 40
0.0
 41
1.0
 50
0.0
 71
     0
 42
3.5
  3
txt
  4

  0
STYLE
  2
BYGG-027458$0$STANDARD
 70
     0
 40
0.0
 41
1.0
 50
0.0
 71
     0
 42
0.2
  3
txt
  4

  0
STYLE
  2
BYGG-027458$0$ISO
 70
     0
 40
0.0
 41
1.0
 50
0.0
 71
     0
 42
3.5
  3
txt
  4

  0
STYLE
  2
BYGG-027368$0$STANDARD
 70
     0
 40
0.0
 41
1.0
 50
0.0
 71
     0
 42
0.2
  3
txt
  4

  0
STYLE
  2
BYGG-027368$0$ISO
 70
     0
 40
0.0
 41
1.0
 50
0.0
 71
     0
 42
3.5
  3
txt
  4

  0
STYLE
  2
BYGG-027398$0$STANDARD
 70
     0
 40
0.0
 41
1.0
 50
0.0
 71
     0
 42
0.2
  3
txt
  4

  0
STYLE
  2
BYGG-027398$0$ISO
 70
     0
 40
0.0
 41
1.0
 50
0.0
 71
     0
 42
3.5
  3
txt
  4

  0
STYLE
  2
BYGG-027378$0$STANDARD
 70
     0
 40
0.0
 41
1.0
 50
0.0
 71
     0
 42
0.2
  3
txt
  4

  0
STYLE
  2
BYGG-027378$0$ISO
 70
     0
 40
0.0
 41
1.0
 50
0.0
 71
     0
 42
3.5
  3
txt
  4

  0
ENDTAB
  0
TABLE
  2
VIEW
 70
     0
  0
ENDTAB
  0
TABLE
  2
UCS
 70
     0
  0
ENDTAB
  0
TABLE
  2
APPID
 70
    28
  0
APPID
  2
ACAD
 70
     0
  0
APPID
  2
ACAD_DSTYLE_DIMTEXT_FILL
 70
     0
  0
APPID
  2
ACAD_DSTYLE_DIMEXT_LENGTH
 70
     0
  0
APPID
  2
ACAD_DSTYLE_DIMEXT_ENABLED
 70
     0
  0
APPID
  2
ACAD_DSTYLE_DIM_LINETYPE
 70
     0
  0
APPID
  2
ACAD_DSTYLE_DIM_EXT1_LINETYPE
 70
     0
  0
APPID
  2
ACAD_DSTYLE_DIM_EXT2_LINETYPE
 70
     0
  0
APPID
  2
ACAD_DSTYLE_DIMJOGGED_JOGA
 70
     0
  0
APPID
  2
ACAD_DSTYLE_DIMARC_LENGTH_
 70
     0
  0
APPID
  2
ACAD_PSEXT
 70
     0
  0
APPID
  2
ACAD_MLEADERVER
 70
     0
  0
APPID
  2
GENIUS_GENODEF_13
 70
     0
  0
APPID
  2
RC_PROFILE
 70
     0
  0
APPID
  2
ACAECLAYERSTANDARD
 70
     0
  0
APPID
  2
GENIUS_GENOBJ-N-FIL_13
 70
     0
  0
APPID
  2
ACADANNOTATIVE
 70
     0
  0
APPID
  2
ACAD_EXEMPT_FROM_CAD_STANDARDS
 70
     0
  0
APPID
  2
AEC_XDATA_BOUND_SPACE
 70
     0
  0
APPID
  2
ACAD_DSTYLE_DIMJAG
 70
     0
  0
APPID
  2
ACAD_DSTYLE_DIMTALN
 70
     0
  0
APPID
  2
GENIUS_GENREC_14
 70
     0
  0
APPID
  2
GENIUS_GENOBJ-N-REC_13
 70
     0
  0
APPID
  2
ACDBDYNAMICBLOCKTRUENAME
 70
     0
  0
APPID
  2
ACDBBLOCKREPETAG
 70
     0
  0
APPID
  2
ACDBDYNAMICBLOCKGUID
 70
     0
  0
APPID
  2
ACDBBLOCKREPBTAG
 70
     0
  0
APPID
  2
ACAD_NAV_VCDISPLAY
 70
     0
  0
APPID
  2
ACCMTRANSPARENCY
 70
     0
  0
ENDTAB
  0
TABLE
  2
DIMSTYLE
 70
     6
  0
DIMSTYLE
  2
MASKIN
 70
     0
  3

  4

  5

  6

  7

 40
0.0
 41
3.0
 42
1.5
 43
10.0
 44
1.5
 45
0.0
 46
0.0
 47
0.0
 48
0.0
140
3.5
141
-5.0
142
0.0
143
25.399999999999999
144
-1.0
145
0.0
146
1.0
147
1.0
 71
     0
 72
     0
 73
     0
 74
     0
 75
     0
 76
     0
 77
     1
 78
     8
170
     0
171
     0
172
     1
173
     0
174
     0
175
     0
176
   256
177
   256
178
     2
  0
DIMSTYLE
  2
BYGG-027392$0$MASKIN
 70
     0
  3

  4

  5

  6

  7

 40
0.0
 41
3.0
 42
1.5
 43
10.0
 44
1.5
 45
0.0
 46
0.0
 47
0.0
 48
0.0
140
3.0
141
-5.0
142
0.0
143
25.399999999999999
144
-1.0
145
0.0
146
1.0
147
1.0
 71
     0
 72
     0
 73
     0
 74
     0
 75
     0
 76
     0
 77
     1
 78
     8
170
     0
171
     0
172
     1
173
     0
174
     0
175
     0
176
   256
177
   256
178
     2
  0
DIMSTYLE
  2
BYGG-027458$0$MASKIN
 70
     0
  3

  4

  5

  6

  7

 40
0.0
 41
3.0
 42
1.5
 43
10.0
 44
1.5
 45
0.0
 46
0.0
 47
0.0
 48
0.0
140
3.0
141
-5.0
142
0.0
143
25.399999999999999
144
-1.0
145
0.0
146
1.0
147
1.0
 71
     0
 72
     0
 73
     0
 74
     0
 75
     0
 76
     0
 77
     1
 78
     8
170
     0
171
     0
172
     1
173
     0
174
     0
175
     0
176
   256
177
   256
178
     2
  0
DIMSTYLE
  2
BYGG-027368$0$MASKIN
 70
     0
  3

  4

  5

  6

  7

 40
0.0
 41
3.0
 42
1.5
 43
10.0
 44
1.5
 45
0.0
 46
0.0
 47
0.0
 48
0.0
140
3.0
141
-5.0
142
0.0
143
25.399999999999999
144
-1.0
145
0.0
146
1.0
147
1.0
 71
     0
 72
     0
 73
     0
 74
     0
 75
     0
 76
     0
 77
     1
 78
     8
170
     0
171
     0
172
     1
173
     0
174
     0
175
     0
176
   256
177
   256
178
     2
  0
DIMSTYLE
  2
BYGG-027398$0$MASKIN
 70
     0
  3

  4

  5

  6

  7

 40
0.0
 41
3.0
 42
1.5
 43
10.0
 44
1.5
 45
0.0
 46
0.0
 47
0.0
 48
0.0
140
3.0
141
-5.0
142
0.0
143
25.399999999999999
144
-1.0
145
0.0
146
1.0
147
1.0
 71
     0
 72
     0
 73
     0
 74
     0
 75
     0
 76
     0
 77
     1
 78
     8
170
     0
171
     0
172
     1
173
     0
174
     0
175
     0
176
   256
177
   256
178
     2
  0
DIMSTYLE
  2
BYGG-027378$0$MASKIN
 70
     0
  3

  4

  5

  6

  7

 40
0.0
 41
3.0
 42
1.5
 43
10.0
 44
1.5
 45
0.0
 46
0.0
 47
0.0
 48
0.0
140
3.0
141
-5.0
142
0.0
143
25.399999999999999
144
-1.0
145
0.0
146
1.0
147
1.0
 71
     0
 72
     0
 73
     0
 74
     0
 75
     0
 76
     0
 77
     1
 78
     8
170
     0
171
     0
172
     1
173
     0
174
     0
175
     0
176
   256
177
   256
178
     2
  0
ENDTAB
  0
ENDSEC
  0
SECTION
  2
BLOCKS
  0
BLOCK
  8
0
  2
$MODEL_SPACE
 70
     0
 10
0.0
 20
0.0
 30
0.0
  3
$MODEL_SPACE
  1

  0
ENDBLK
  5
37
  8
0
  0
BLOCK
 67
     1
  8
0
  2
$PAPER_SPACE
 70
     0
 10
0.0
 20
0.0
 30
0.0
  3
$PAPER_SPACE
  1

  0
ENDBLK
  5
35
 67
     1
  8
0
  0
BLOCK
  8
0
  2
*D24
 70
     1
 10
0.0
 20
0.0
 30
0.0
  3
*D24
  1

  0
LINE
  5
1DBE
  8
SAPA_MATT
 10
138.99999992775449
 20
0.0000000000000991
 30
0.0
 11
170.4999999277546
 21
0.0000000000000901
 31
0.0
  0
LINE
  5
1DBF
  8
SAPA_MATT
 10
132.249999927695
 20
-5.0000000000036087
 30
0.0
 11
170.4999999277546
 21
-5.0000000000036211
 31
0.0
  0
LINE
  5
1DC0
  8
SAPA_MATT
 10
168.9999999277546
 20
3.0000000000000902
 30
0.0
 11
168.9999999277546
 21
6.0000000000000897
 31
0.0
  0
LINE
  5
1DC1
  8
SAPA_MATT
 10
168.9999999277546
 20
-8.0000000000036202
 30
0.0
 11
168.9999999277546
 21
-11.00000000000362
 31
0.0
  0
LINE
  5
1DC2
  8
SAPA_MATT
 10
168.9999999277546
 20
0.0000000000000906
 30
0.0
 11
168.9999999277546
 21
-5.0000000000036202
 31
0.0
  0
SOLID
  5
1DC3
  8
SAPA_MATT
 10
168.4999999277546
 20
3.0000000000000902
 30
0.0
 11
169.4999999277546
 21
3.0000000000000902
 31
0.0
 12
168.9999999277546
 22
0.0000000000000906
 32
0.0
 13
168.9999999277546
 23
0.0000000000000906
 33
0.0
  0
SOLID
  5
1DC4
  8
SAPA_MATT
 10
168.4999999277546
 20
-8.0000000000036202
 30
0.0
 11
169.4999999277546
 21
-8.0000000000036202
 31
0.0
 12
168.9999999277546
 22
-5.0000000000036202
 32
0.0
 13
168.9999999277546
 23
-5.0000000000036202
 33
0.0
  0
TEXT
  8
SAPA_MATT
  40
3.5
  5
1DD9
  62
2
  72
0
  71
0
 10
159.250
 20
-8.69500
 30
0.000000
  1
5
  7
ISO
  0
POINT
  5
1DC6
  8
DEFPOINTS
 62
     0
 10
137.49999992775449
 20
0.0000000000000995
 30
0.0
  0
POINT
  5
1DC7
  8
DEFPOINTS
 62
     0
 10
130.749999927695
 20
-5.0000000000036087
 30
0.0
  0
POINT
  5
1DC8
  8
DEFPOINTS
 62
     0
 10
168.9999999277546
 20
-5.0000000000036202
 30
0.0
  0
ENDBLK
  5
1624
  8
0
  0
BLOCK
  8
0
  2
*D25
 70
     1
 10
0.0
 20
0.0
 30
0.0
  3
*D25
  1

  0
LINE
  5
16A7
  8
SAPA_MATT
 10
138.99999992775449
 20
0.0000000000000995
 30
0.0
 11
138.99999992775449
 21
-45.500000000000007
 31
0.0
  0
LINE
  5
16A8
  8
SAPA_MATT
 10
132.4999999276759
 20
8.5000000001746514
 30
0.0
 11
132.4999999276759
 21
-45.500000000000007
 31
0.0
  0
LINE
  5
16A9
  8
SAPA_MATT
 10
141.99999992775449
 20
-44.000000000000007
 30
0.0
 11
144.99999992775449
 21
-44.000000000000007
 31
0.0
  0
LINE
  5
16AA
  8
SAPA_MATT
 10
129.4999999276759
 20
-44.000000000000007
 30
0.0
 11
126.4999999276759
 21
-44.000000000000007
 31
0.0
  0
LINE
  5
16AB
  8
SAPA_MATT
 10
138.99999992775449
 20
-44.000000000000007
 30
0.0
 11
132.4999999276759
 21
-44.000000000000007
 31
0.0
  0
SOLID
  5
16AC
  8
SAPA_MATT
 10
141.99999992775449
 20
-43.500000000000007
 30
0.0
 11
141.99999992775449
 21
-44.500000000000007
 31
0.0
 12
138.99999992775449
 22
-44.000000000000007
 32
0.0
 13
138.99999992775449
 23
-44.000000000000007
 33
0.0
  0
SOLID
  5
16AD
  8
SAPA_MATT
 10
129.4999999276759
 20
-43.500000000000007
 30
0.0
 11
129.4999999276759
 21
-44.500000000000007
 31
0.0
 12
132.4999999276759
 22
-44.000000000000007
 32
0.0
 13
132.4999999276759
 23
-44.000000000000007
 33
0.0
  0
INSERT
  5
16AE
  8
0
  2
*U42
 10
0.0
 20
0.0
 30
0.0
  0
POINT
  5
16AF
  8
DEFPOINTS
 62
     0
 10
138.99999992775449
 20
1.500000000000099
 30
0.0
  0
POINT
  5
16B0
  8
DEFPOINTS
 62
     0
 10
132.4999999276759
 20
10.00000000017465
 30
0.0
  0
POINT
  5
16B1
  8
DEFPOINTS
 62
     0
 10
132.4999999276759
 20
-44.000000000000007
 30
0.0
  0
ENDBLK
  5
1632
  8
0
  0
BLOCK
  8
0
  2
*D26
 70
     1
 10
0.0
 20
0.0
 30
0.0
  3
*D26
  1

  0
LINE
  5
1DB5
  8
SAPA_MATT
 10
132.4999999276759
 20
8.5000000001746514
 30
0.0
 11
132.4999999276759
 21
-45.500000000000007
 31
0.0
  0
LINE
  5
1DB6
  8
SAPA_MATT
 10
85.4999999283676
 20
8.500000000174694
 30
0.0
 11
85.4999999283676
 21
-45.500000000000007
 31
0.0
  0
LINE
  5
1DB7
  8
SAPA_MATT
 10
129.4999999276759
 20
-44.000000000000007
 30
0.0
 11
88.4999999283676
 21
-44.000000000000007
 31
0.0
  0
SOLID
  5
1DB8
  8
SAPA_MATT
 10
129.4999999276759
 20
-43.500000000000007
 30
0.0
 11
129.4999999276759
 21
-44.500000000000007
 31
0.0
 12
132.4999999276759
 22
-44.000000000000007
 32
0.0
 13
132.4999999276759
 23
-44.000000000000007
 33
0.0
  0
SOLID
  5
1DB9
  8
SAPA_MATT
 10
88.4999999283676
 20
-43.500000000000007
 30
0.0
 11
88.4999999283676
 21
-44.500000000000007
 31
0.0
 12
85.4999999283676
 22
-44.000000000000007
 32
0.0
 13
85.4999999283676
 23
-44.000000000000007
 33
0.0
  0
TEXT
  8
SAPA_MATT
  40
3.5
  5
1DDA
  62
2
  72
0
  71
0
 10
102.000
 20
-47.4450
 30
0.000000
  1
47
  7
ISO
  0
POINT
  5
1DBB
  8
DEFPOINTS
 62
     0
 10
132.4999999276759
 20
10.00000000017465
 30
0.0
  0
POINT
  5
1DBC
  8
DEFPOINTS
 62
     0
 10
85.4999999283676
 20
10.00000000017469
 30
0.0
  0
POINT
  5
1DBD
  8
DEFPOINTS
 62
     0
 10
85.4999999283676
 20
-44.000000000000007
 30
0.0
  0
ENDBLK
  5
1640
  8
0
  0
BLOCK
  8
0
  2
*D27
 70
     1
 10
0.0
 20
0.0
 30
0.0
  3
*D27
  1

  0
LINE
  5
1DAC
  8
SAPA_MATT
 10
85.4999999283676
 20
8.500000000174694
 30
0.0
 11
85.4999999283676
 21
-45.500000000000021
 31
0.0
  0
LINE
  5
1DAD
  8
SAPA_MATT
 10
13.999999928252491
 20
-1.9999999999998861
 30
0.0
 11
13.999999928252491
 21
-45.500000000000021
 31
0.0
  0
LINE
  5
1DAE
  8
SAPA_MATT
 10
82.499999928367615
 20
-44.000000000000021
 30
0.0
 11
16.999999928252489
 21
-44.000000000000021
 31
0.0
  0
TEXT
  8
SAPA_MATT
  40
3.5
  5
1DDB
  62
2
  72
0
  71
0
 10
43.1423
 20
-46.6845
 30
0.000000
  1
71.5
  7
ISO
  0
SOLID
  5
1DB0
  8
SAPA_MATT
 10
82.499999928367615
 20
-43.500000000000021
 30
0.0
 11
82.499999928367615
 21
-44.500000000000007
 31
0.0
 12
85.4999999283676
 22
-44.000000000000021
 32
0.0
 13
85.4999999283676
 23
-44.000000000000021
 33
0.0
  0
SOLID
  5
1DB1
  8
SAPA_MATT
 10
16.999999928252489
 20
-43.500000000000021
 30
0.0
 11
16.999999928252489
 21
-44.500000000000007
 31
0.0
 12
13.999999928252491
 22
-44.000000000000021
 32
0.0
 13
13.999999928252491
 23
-44.000000000000021
 33
0.0
  0
POINT
  5
1DB2
  8
DEFPOINTS
 62
     0
 10
85.4999999283676
 20
10.00000000017469
 30
0.0
  0
POINT
  5
1DB3
  8
DEFPOINTS
 62
     0
 10
13.999999928252491
 20
-0.4999999999998864
 30
0.0
  0
POINT
  5
1DB4
  8
DEFPOINTS
 62
     0
 10
13.999999928252491
 20
-44.000000000000021
 30
0.0
  0
ENDBLK
  5
164C
  8
0
  0
BLOCK
  8
0
  2
*D28
 70
     1
 10
0.0
 20
0.0
 30
0.0
  3
*D28
  1

  0
LINE
  5
168C
  8
SAPA_MATT
 10
138.99999992775449
 20
0.0000000000000995
 30
0.0
 11
138.99999992775449
 21
-57.499999999999993
 31
0.0
  0
LINE
  5
168D
  8
SAPA_MATT
 10
13.999999928252491
 20
-1.9999999999998861
 30
0.0
 11
13.999999928252491
 21
-57.499999999999993
 31
0.0
  0
LINE
  5
168E
  8
SAPA_MATT
 10
135.99999992775449
 20
-55.999999999999979
 30
0.0
 11
16.999999928252489
 21
-55.999999999999979
 31
0.0
  0
SOLID
  5
168F
  8
SAPA_MATT
 10
135.99999992775449
 20
-55.499999999999979
 30
0.0
 11
135.99999992775449
 21
-56.499999999999979
 31
0.0
 12
138.99999992775449
 22
-55.999999999999979
 32
0.0
 13
138.99999992775449
 23
-55.999999999999979
 33
0.0
  0
SOLID
  5
1690
  8
SAPA_MATT
 10
16.999999928252489
 20
-55.499999999999979
 30
0.0
 11
16.999999928252489
 21
-56.499999999999979
 31
0.0
 12
13.999999928252491
 22
-55.999999999999979
 32
0.0
 13
13.999999928252491
 23
-55.999999999999979
 33
0.0
  0
INSERT
  5
1691
  8
0
  2
*U41
 10
0.0
 20
0.0
 30
0.0
  0
POINT
  5
1692
  8
DEFPOINTS
 62
     0
 10
138.99999992775449
 20
1.500000000000099
 30
0.0
  0
POINT
  5
1693
  8
DEFPOINTS
 62
     0
 10
13.999999928252491
 20
-0.4999999999998864
 30
0.0
  0
POINT
  5
1694
  8
DEFPOINTS
 62
     0
 10
13.999999928252491
 20
-55.999999999999979
 30
0.0
  0
ENDBLK
  5
1658
  8
0
  0
BLOCK
  8
0
  2
*D29
 70
     1
 10
0.0
 20
0.0
 30
0.0
  3
*D29
  1

  0
LINE
  5
1683
  8
SAPA_MATT
 10
140.19999985599699
 20
60.0
 30
0.0
 11
170.49999985600721
 21
60.0
 31
0.0
  0
LINE
  5
1684
  8
SAPA_MATT
 10
138.99999985600709
 20
0.0000000000000991
 30
0.0
 11
170.49999985600721
 21
0.0000000000000901
 31
0.0
  0
LINE
  5
1685
  8
SAPA_MATT
 10
168.99999985600721
 20
56.999999999999993
 30
0.0
 11
168.99999985600721
 21
3.0000000000000902
 31
0.0
  0
SOLID
  5
1686
  8
SAPA_MATT
 10
168.49999985600721
 20
56.999999999999993
 30
0.0
 11
169.49999985600721
 21
56.999999999999993
 31
0.0
 12
168.99999985600721
 22
60.0
 32
0.0
 13
168.99999985600721
 23
60.0
 33
0.0
  0
SOLID
  5
1687
  8
SAPA_MATT
 10
168.49999985600721
 20
3.0000000000000902
 30
0.0
 11
169.49999985600721
 21
3.0000000000000902
 31
0.0
 12
168.99999985600721
 22
0.0000000000000906
 32
0.0
 13
168.99999985600721
 23
0.0000000000000906
 33
0.0
  0
INSERT
  5
1688
  8
0
  2
*U40
 10
0.0
 20
0.0
 30
0.0
  0
POINT
  5
1689
  8
DEFPOINTS
 62
     0
 10
138.69999985599699
 20
60.0
 30
0.0
  0
POINT
  5
168A
  8
DEFPOINTS
 62
     0
 10
137.49999985600709
 20
0.0000000000000995
 30
0.0
  0
POINT
  5
168B
  8
DEFPOINTS
 62
     0
 10
168.99999985600721
 20
0.0000000000000906
 30
0.0
  0
ENDBLK
  5
1664
  8
0
  0
BLOCK
  8
0
  2
*D30
 70
     1
 10
0.0
 20
0.0
 30
0.0
  3
*D30
  1

  0
LINE
  5
167A
  8
SAPA_MATT
 10
132.249999927695
 20
-5.0000000000036087
 30
0.0
 11
182.49999985600721
 21
-5.0000000000036238
 31
0.0
  0
LINE
  5
167B
  8
SAPA_MATT
 10
140.19999985599699
 20
60.0
 30
0.0
 11
182.49999985600721
 21
59.999999999999993
 31
0.0
  0
LINE
  5
167C
  8
SAPA_MATT
 10
180.99999985600721
 20
-2.000000000003622
 30
0.0
 11
180.99999985600721
 21
56.999999999999993
 31
0.0
  0
SOLID
  5
167D
  8
SAPA_MATT
 10
180.49999985600721
 20
-2.000000000003622
 30
0.0
 11
181.49999985600721
 21
-2.0000000000036229
 31
0.0
 12
180.99999985600721
 22
-5.000000000003622
 32
0.0
 13
180.99999985600721
 23
-5.000000000003622
 33
0.0
  0
SOLID
  5
167E
  8
SAPA_MATT
 10
180.49999985600721
 20
56.999999999999993
 30
0.0
 11
181.49999985600721
 21
56.999999999999993
 31
0.0
 12
180.99999985600721
 22
59.999999999999993
 32
0.0
 13
180.99999985600721
 23
59.999999999999993
 33
0.0
  0
INSERT
  5
167F
  8
0
  2
*U39
 10
0.0
 20
0.0
 30
0.0
  0
POINT
  5
1680
  8
DEFPOINTS
 62
     0
 10
130.749999927695
 20
-5.0000000000036087
 30
0.0
  0
POINT
  5
1681
  8
DEFPOINTS
 62
     0
 10
138.69999985599699
 20
60.0
 30
0.0
  0
POINT
  5
1682
  8
DEFPOINTS
 62
     0
 10
180.99999985600721
 20
59.999999999999993
 30
0.0
  0
ENDBLK
  5
1670
  8
0
  0
BLOCK
  8
0
  2
*X31
 70
     1
 10
0.0
 20
0.0
 30
0.0
  3
*X31
  1

  0
LINE
  5
1708
  8
0
 62
     0
 10
80.923327652386547
 20
1.839745800443026
 30
0.0
 11
80.971186917105598
 21
1.7918865357239639
 31
0.0
  0
LINE
  5
1709
  8
0
 62
     0
 10
83.445009071310608
 20
0.4405963966526123
 30
0.0
 11
83.717046656164598
 21
0.1685588117986043
 31
0.0
  0
LINE
  5
170A
  8
0
 62
     0
 10
80.799999928461204
 20
3.0856055395020081
 30
0.0
 11
82.216587714065867
 21
1.669017753897353
 31
0.0
  0
LINE
  5
170B
  8
0
 62
     0
 10
83.499999928457825
 20
1.508137554639041
 30
0.0
 11
84.839578671298256
 21
0.1685588117986008
 31
0.0
  0
LINE
  5
170C
  8
0
 62
     0
 10
80.799999928461204
 20
4.2081375546356554
 30
0.0
 11
82.499999928458308
 21
2.5081375546385551
 31
0.0
  0
LINE
  5
170D
  8
0
 62
     0
 10
80.799999928461204
 20
5.3306695697692978
 30
0.0
 11
85.001130501909174
 21
1.12953899632134
 31
0.0
  0
LINE
  5
170E
  8
0
 62
     0
 10
80.799999928461204
 20
6.453201584902942
 30
0.0
 11
84.925191607641025
 21
2.3280099057231212
 31
0.0
  0
LINE
  5
170F
  8
0
 62
     0
 10
80.799999928461204
 20
7.5757336000365854
 30
0.0
 11
84.860867033901897
 21
3.5148664945958821
 31
0.0
  0
LINE
  5
1710
  8
0
 62
     0
 10
80.961612086153124
 20
8.5366534574783337
 30
0.0
 11
84.807809085225045
 21
4.6904564584063912
 31
0.0
  0
LINE
  5
1711
  8
0
 62
     0
 10
83.171797633983175
 20
7.4489999247819041
 30
0.0
 11
84.765689706909313
 21
5.8551078518557729
 31
0.0
  0
LINE
  5
1712
  8
0
 62
     0
 10
81.952238746966458
 20
8.6685588117986185
 30
0.0
 11
82.499999928458294
 21
8.1207976303067841
 31
0.0
  0
LINE
  5
1713
  8
0
 62
     0
 10
84.024770762075875
 20
7.718558811822855
 30
0.0
 11
84.734198970109063
 21
7.0091306037896599
 31
0.0
  0
LINE
  5
1714
  8
0
 62
     0
 10
84.662755613881529
 20
0.1685588117986043
 30
0.0
 11
85.041977734626315
 21
0.5477809325433896
 31
0.0
  0
LINE
  5
1715
  8
0
 62
     0
 10
83.540223598747886
 20
0.1685588117985972
 30
0.0
 11
84.970103837062936
 21
1.598439050113668
 31
0.0
  0
LINE
  5
1716
  8
0
 62
     0
 10
83.499999928457697
 20
1.2508671566420579
 30
0.0
 11
84.906269747304435
 21
2.6571369754888252
 31
0.0
  0
LINE
  5
1717
  8
0
 62
     0
 10
83.499999928458294
 20
2.3733991717762839
 30
0.0
 11
84.850650710623285
 21
3.7240499539413028
 31
0.0
  0
LINE
  5
1718
  8
0
 62
     0
 10
82.92262755334697
 20
2.9185588117986252
 30
0.0
 11
84.803430126420267
 21
4.7993613848719141
 31
0.0
  0
LINE
  5
1719
  8
0
 62
     0
 10
81.67262755334697
 20
1.668558811798625
 30
0.0
 11
82.499999928458294
 21
2.495931186909949
 31
0.0
  0
LINE
  5
171A
  8
0
 62
     0
 10
80.84431075485783
 20
1.9627740284431281
 30
0.0
 11
84.764800080030824
 21
5.8832633536161216
 31
0.0
  0
LINE
  5
171B
  8
0
 62
     0
 10
80.799999928461204
 20
3.0409952171801531
 30
0.0
 11
84.734961920497923
 21
6.9759572092168787
 31
0.0
  0
LINE
  5
171C
  8
0
 62
     0
 10
80.799999928461204
 20
4.163527232313796
 30
0.0
 11
84.355031507970281
 21
7.7185588118228656
 31
0.0
  0
LINE
  5
171D
  8
0
 62
     0
 10
80.799999928461204
 20
5.2860592474474402
 30
0.0
 11
82.932499492812369
 21
7.4185588117986248
 31
0.0
  0
LINE
  5
171E
  8
0
 62
     0
 10
80.799999928461204
 20
6.4085912625810764
 30
0.0
 11
82.499999928458294
 21
8.1085912625781642
 31
0.0
  0
LINE
  5
171F
  8
0
 62
     0
 10
80.799999928461204
 20
7.5311232777147259
 30
0.0
 11
81.93743546254511
 21
8.6685588117986256
 31
0.0
  0
ENDBLK
  5
1721
  8
0
  0
BLOCK
  8
0
  2
*X32
 70
     1
 10
0.0
 20
0.0
 30
0.0
  3
*X32
  1

  0
LINE
  5
1723
  8
0
 62
     0
 10
133.01589379952009
 20
1.383652349457015
 30
0.0
 11
133.89954614897721
 21
0.4999999999999716
 31
0.0
  0
LINE
  5
1724
  8
0
 62
     0
 10
133.08138048560019
 20
2.440697678510602
 30
0.0
 11
134.4999999277546
 21
1.0220782363561649
 31
0.0
  0
LINE
  5
1725
  8
0
 62
     0
 10
133.1386884812882
 20
3.5059216979562531
 30
0.0
 11
134.49999992775469
 21
2.1446102514898082
 31
0.0
  0
LINE
  5
1726
  8
0
 62
     0
 10
135.49999992775469
 20
2.2671422666234302
 30
0.0
 11
136.26714219437341
 21
1.50000000000471
 31
0.0
  0
LINE
  5
1727
  8
0
 62
     0
 10
133.18763609085241
 20
4.5795061035257296
 30
0.0
 11
135.0171421943781
 21
2.749999999999992
 31
0.0
  0
LINE
  5
1728
  8
0
 62
     0
 10
133.22803304459521
 20
5.6616411649165954
 30
0.0
 11
137.1354334818638
 21
1.754240727647953
 31
0.0
  0
LINE
  5
1729
  8
0
 62
     0
 10
133.25967993083179
 20
6.7525262938135446
 30
0.0
 11
137.19999992774439
 21
2.812206296900932
 31
0.0
  0
LINE
  5
172A
  8
0
 62
     0
 10
133.416179427956
 20
7.7185588118230513
 30
0.0
 11
137.19999992774439
 21
3.9347383120345678
 31
0.0
  0
LINE
  5
172B
  8
0
 62
     0
 10
135.0072702549127
 20
7.2499999999999707
 30
0.0
 11
137.19999992774439
 21
5.0572703271682178
 31
0.0
  0
LINE
  5
172C
  8
0
 62
     0
 10
135.49999992774909
 20
7.8798023422971823
 30
0.0
 11
137.1999999277445
 21
6.1798023423018469
 31
0.0
  0
LINE
  5
172D
  8
0
 62
     0
 10
136.00233428518001
 20
8.4999999999999716
 30
0.0
 11
137.19999992774439
 21
7.3023343574355053
 31
0.0
  0
LINE
  5
172E
  8
0
 62
     0
 10
136.50813748309901
 20
1.5000000000020739
 30
0.0
 11
137.19999992774439
 21
2.1918624446475681
 31
0.0
  0
LINE
  5
172F
  8
0
 62
     0
 10
135.5134640845524
 20
1.627858616589136
 30
0.0
 11
137.19999992774439
 21
3.314394459781226
 31
0.0
  0
LINE
  5
1730
  8
0
 62
     0
 10
134.38560546796319
 20
0.4999999999999716
 30
0.0
 11
134.4999999277546
 21
0.6143944597913987
 31
0.0
  0
LINE
  5
1731
  8
0
 62
     0
 10
135.44780689499029
 20
2.6847334421607201
 30
0.0
 11
137.1999999277445
 21
4.4369264749148689
 31
0.0
  0
LINE
  5
1732
  8
0
 62
     0
 10
133.26307345282959
 20
0.4999999999999716
 30
0.0
 11
134.4999999277546
 21
1.736926474925041
 31
0.0
  0
LINE
  5
1733
  8
0
 62
     0
 10
133.015306797823
 20
1.374765360127042
 30
0.0
 11
137.19999992774439
 21
5.5594584900485131
 31
0.0
  0
LINE
  5
1734
  8
0
 62
     0
 10
133.08884929791679
 20
2.570839875354479
 30
0.0
 11
137.19999992774439
 21
6.6819905051821564
 31
0.0
  0
LINE
  5
1735
  8
0
 62
     0
 10
133.15085001576369
 20
3.7553726083350081
 30
0.0
 11
137.19999992774439
 21
7.8045225203157989
 31
0.0
  0
LINE
  5
1736
  8
0
 62
     0
 10
133.20165251299241
 20
4.9287071206973394
 30
0.0
 11
136.76826355046509
 21
8.4953181581701074
 31
0.0
  0
LINE
  5
1737
  8
0
 62
     0
 10
135.50867366482871
 20
8.3582602876673064
 30
0.0
 11
135.64173964007639
 21
8.4913262629150097
 31
0.0
  0
LINE
  5
1738
  8
0
 62
     0
 10
133.24158103215399
 20
6.0911676549926446
 30
0.0
 11
134.60017718264831
 21
7.4497638054869659
 31
0.0
  0
LINE
  5
1739
  8
0
 62
     0
 10
133.27094197996709
 20
7.2430606179393768
 30
0.0
 11
133.7464401738508
 21
7.7185588118230717
 31
0.0
  0
ENDBLK
  5
173B
  8
0
  0
BLOCK
  8
0
  2
*X33
 70
     1
 10
0.0
 20
0.0
 30
0.0
  3
*X33
  1

  0
LINE
  5
173D
  8
0
 62
     0
 10
139.04522034171509
 20
11.58237381436828
 30
0.0
 11
138.9999999277546
 21
11.53715340040767
 31
0.0
  0
LINE
  5
173E
  8
0
 62
     0
 10
139.23148746818339
 20
10.64610892570289
 30
0.0
 11
138.9999999277546
 21
10.414621385274041
 31
0.0
  0
LINE
  5
173F
  8
0
 62
     0
 10
139.528752254436
 20
9.8208416968218657
 30
0.0
 11
138.9999999277546
 21
9.2920893701404097
 31
0.0
  0
LINE
  5
1740
  8
0
 62
     0
 10
139.91916163998059
 20
9.0887190672328142
 30
0.0
 11
138.9999999277546
 21
8.1695573550067806
 31
0.0
  0
LINE
  5
1741
  8
0
 62
     0
 10
140.39481471665371
 20
8.4418401287722205
 30
0.0
 11
138.9999999277546
 21
7.0470253398731444
 31
0.0
  0
LINE
  5
1742
  8
0
 62
     0
 10
140.95430362486539
 20
7.8787970218502963
 30
0.0
 11
138.9999999277546
 21
5.9244933247395011
 31
0.0
  0
LINE
  5
1743
  8
0
 62
     0
 10
141.60217573133551
 20
7.4041371131868132
 30
0.0
 11
138.9999999277546
 21
4.8019613096058933
 31
0.0
  0
LINE
  5
1744
  8
0
 62
     0
 10
142.35075441076569
 20
7.0301837774833444
 30
0.0
 11
138.9999999277546
 21
3.679429294472242
 31
0.0
  0
LINE
  5
1745
  8
0
 62
     0
 10
143.22638571836191
 20
6.783283069945881
 30
0.0
 11
138.99999992775469
 21
2.5568972793386271
 31
0.0
  0
LINE
  5
1746
  8
0
 62
     0
 10
144.29073942841021
 20
6.7251047648605526
 30
0.0
 11
138.99849667115419
 21
1.4328620076045551
 31
0.0
  0
LINE
  5
1747
  8
0
 62
     0
 10
148.9999999277546
 20
11.43436526420497
 30
0.0
 11
148.92363608602091
 21
11.35800142247129
 31
0.0
  0
LINE
  5
1748
  8
0
 62
     0
 10
145.76608656589511
 20
7.0779198872117766
 30
0.0
 11
139.2593802864636
 21
0.5712136077803152
 31
0.0
  0
LINE
  5
1749
  8
0
 62
     0
 10
148.99999992775469
 20
10.31183324907135
 30
0.0
 11
148.4399900696566
 21
9.7518233909733212
 31
0.0
  0
LINE
  5
174A
  8
0
 62
     0
 10
148.9999999277546
 20
9.1893012339376838
 30
0.0
 11
140.5651190718103
 21
0.7544203779933625
 31
0.0
  0
LINE
  5
174B
  8
0
 62
     0
 10
148.99999992775469
 20
8.0667692188040547
 30
0.0
 11
141.78591990860039
 21
0.8526891996497951
 31
0.0
  0
LINE
  5
174C
  8
0
 62
     0
 10
148.9999999277546
 20
6.9442372036704043
 30
0.0
 11
142.9373813633313
 21
0.8816186392470939
 31
0.0
  0
LINE
  5
174D
  8
0
 62
     0
 10
148.9999999277546
 20
5.8217051885367459
 30
0.0
 11
144.03036041298211
 21
0.8520656737641942
 31
0.0
  0
LINE
  5
174E
  8
0
 62
     0
 10
148.9999999277546
 20
4.6991731734031168
 30
0.0
 11
145.07276903546659
 21
0.7719422811150382
 31
0.0
  0
LINE
  5
174F
  8
0
 62
     0
 10
148.99999992775469
 20
3.5766411582694668
 30
0.0
 11
146.07057661514139
 21
0.6472178456562361
 31
0.0
  0
LINE
  5
1750
  8
0
 62
     0
 10
148.9999999277546
 20
2.4541091431358311
 30
0.0
 11
147.02840957961459
 21
0.4825187949957482
 31
0.0
  0
LINE
  5
1751
  8
0
 62
     0
 10
148.99999992775469
 20
1.33157712800218
 30
0.0
 11
147.9499301214025
 21
0.281507321650075
 31
0.0
  0
LINE
  5
1752
  8
0
 62
     0
 10
148.9999999277546
 20
0.2090451128685444
 30
0.0
 11
148.8380860307399
 21
0.0471312158538595
 31
0.0
  0
LINE
  5
1753
  8
0
 62
     0
 10
138.85117536343171
 20
0.848597711055433
 30
0.0
 11
139.1479855112338
 21
0.551787563253356
 31
0.0
  0
LINE
  5
1754
  8
0
 62
     0
 10
138.9999999277546
 20
1.8223051618661681
 30
0.0
 11
140.1210510364688
 21
0.7012540531520131
 31
0.0
  0
LINE
  5
1755
  8
0
 62
     0
 10
138.9999999277546
 20
2.944837176999811
 30
0.0
 11
141.13577765865739
 21
0.8090594460970095
 31
0.0
  0
LINE
  5
1756
  8
0
 62
     0
 10
138.9999999277546
 20
4.0673691921334552
 30
0.0
 11
142.19726507094509
 21
0.8701040489429772
 31
0.0
  0
LINE
  5
1757
  8
0
 62
     0
 10
138.9999999277546
 20
5.1899012072671118
 30
0.0
 11
143.31215802027569
 21
0.8777431147459537
 31
0.0
  0
LINE
  5
1758
  8
0
 62
     0
 10
138.9999999277546
 20
6.3124332224007844
 30
0.0
 11
144.48937491648351
 21
0.82305823367183
 31
0.0
  0
LINE
  5
1759
  8
0
 62
     0
 10
138.9999999277546
 20
7.4349652375344126
 30
0.0
 11
145.74135694743779
 21
0.6936082178511498
 31
0.0
  0
LINE
  5
175A
  8
0
 62
     0
 10
138.9999999277546
 20
8.5574972526680995
 30
0.0
 11
147.08638223333469
 21
0.4711149470879974
 31
0.0
  0
LINE
  5
175B
  8
0
 62
     0
 10
138.9999999277546
 20
9.6800292678017428
 30
0.0
 11
148.55332920463411
 21
0.1266999909222477
 31
0.0
  0
LINE
  5
175C
  8
0
 62
     0
 10
142.96528944010191
 20
6.8372717705880737
 30
0.0
 11
148.99999992775469
 21
0.8025612829352866
 31
0.0
  0
LINE
  5
175D
  8
0
 62
     0
 10
138.9999999277546
 20
10.802561282935381
 30
0.0
 11
139.2621674097137
 21
10.54039380097622
 31
0.0
  0
LINE
  5
175E
  8
0
 62
     0
 10
144.20478292540011
 20
6.720310300423435
 30
0.0
 11
148.9999999277546
 21
1.9250932980689439
 31
0.0
  0
LINE
  5
175F
  8
0
 62
     0
 10
138.99999992775449
 20
11.92509329806907
 30
0.0
 11
139.01437504553601
 21
11.910718180287629
 31
0.0
  0
LINE
  5
1760
  8
0
 62
     0
 10
145.17469787669049
 20
6.8729273642667428
 30
0.0
 11
148.9999999277546
 21
3.047625313202587
 31
0.0
  0
LINE
  5
1761
  8
0
 62
     0
 10
145.9901223838695
 20
7.1800348722213414
 30
0.0
 11
148.9999999277546
 21
4.1701573283362441
 31
0.0
  0
LINE
  5
1762
  8
0
 62
     0
 10
146.69249089581601
 20
7.6001983754084961
 30
0.0
 11
148.9999999277546
 21
5.2926893434698741
 31
0.0
  0
LINE
  5
1763
  8
0
 62
     0
 10
147.3007430413092
 20
8.1144782450489856
 30
0.0
 11
148.99999992775469
 21
6.4152213586035174
 31
0.0
  0
LINE
  5
1764
  8
0
 62
     0
 10
147.8233865753644
 20
8.7143667261274658
 30
0.0
 11
148.9999999277546
 21
7.537753373737174
 31
0.0
  0
LINE
  5
1765
  8
0
 62
     0
 10
148.2622930607119
 20
9.3979922559135076
 30
0.0
 11
148.99999992775469
 21
8.660285388870804
 31
0.0
  0
LINE
  5
1766
  8
0
 62
     0
 10
148.61341571772121
 20
10.16940161403785
 30
0.0
 11
148.9999999277546
 21
9.7828174040044473
 31
0.0
  0
LINE
  5
1767
  8
0
 62
     0
 10
148.86518577862859
 20
11.04016356826412
 30
0.0
 11
148.9999999277546
 21
10.905349419138091
 31
0.0
  0
LINE
  5
1768
  8
0
 62
     0
 10
148.99279897802461
 20
12.03508238400177
 30
0.0
 11
148.9999999277546
 21
12.02788143427173
 31
0.0
  0
ENDBLK
  5
176A
  8
0
  0
BLOCK
  8
0
  2
*X34
 70
     1
 10
0.0
 20
0.0
 30
0.0
  3
*X34
  1

  0
LINE
  5
176C
  8
0
 62
     0
 10
142.4781050852865
 20
7.0695983546620926
 30
0.0
 11
142.5413133909349
 21
6.96011835781868
 31
0.0
  0
LINE
  5
176D
  8
0
 62
     0
 10
141.28748008528649
 20
9.1318213474237862
 30
0.0
 11
141.68435508528651
 21
8.4444136831698842
 31
0.0
  0
LINE
  5
176E
  8
0
 62
     0
 10
140.09685508528659
 20
11.19404434018548
 30
0.0
 11
140.4937300852865
 21
10.506636675931579
 31
0.0
  0
LINE
  5
176F
  8
0
 62
     0
 10
139.0379713642611
 20
13.02808474430911
 30
0.0
 11
139.3031050852866
 21
12.568859668693269
 31
0.0
  0
LINE
  5
1770
  8
0
 62
     0
 10
143.6687298007904
 20
7.7570058546620899
 30
0.0
 11
144.0656048007904
 21
7.0695981904081879
 31
0.0
  0
LINE
  5
1771
  8
0
 62
     0
 10
142.47810480079039
 20
9.8192288474237852
 30
0.0
 11
142.87497980079041
 21
9.1318211831698832
 31
0.0
  0
LINE
  5
1772
  8
0
 62
     0
 10
141.28747980079041
 20
11.881451840185481
 30
0.0
 11
141.6843548007904
 21
11.19404417593158
 31
0.0
  0
LINE
  5
1773
  8
0
 62
     0
 10
140.09685480079051
 20
13.94367483294717
 30
0.0
 11
140.49372980079039
 21
13.25626716869327
 31
0.0
  0
LINE
  5
1774
  8
0
 62
     0
 10
144.8593545162943
 20
8.4444133546620872
 30
0.0
 11
145.2562295162943
 21
7.7570056904081852
 31
0.0
  0
LINE
  5
1775
  8
0
 62
     0
 10
143.66872951629429
 20
10.506636347423781
 30
0.0
 11
144.06560451629429
 21
9.8192286831698805
 31
0.0
  0
LINE
  5
1776
  8
0
 62
     0
 10
142.47810451629431
 20
12.56885934018548
 30
0.0
 11
142.8749795162943
 21
11.88145167593157
 31
0.0
  0
LINE
  5
1777
  8
0
 62
     0
 10
141.28747951629441
 20
14.63108233294717
 30
0.0
 11
141.68435451629441
 21
13.943674668693269
 31
0.0
  0
LINE
  5
1778
  8
0
 62
     0
 10
140.37616464357191
 20
16.20952599419569
 30
0.0
 11
140.49372951629439
 21
16.005897661454959
 31
0.0
  0
LINE
  5
1779
  8
0
 62
     0
 10
146.0499792317982
 20
9.1318208546620863
 30
0.0
 11
146.4468542317982
 21
8.4444131904081843
 31
0.0
  0
LINE
  5
177A
  8
0
 62
     0
 10
144.85935423179819
 20
11.19404384742378
 30
0.0
 11
145.25622923179819
 21
10.50663618316988
 31
0.0
  0
LINE
  5
177B
  8
0
 62
     0
 10
143.6687292317983
 20
13.25626684018547
 30
0.0
 11
144.0656042317982
 21
12.56885917593157
 31
0.0
  0
LINE
  5
177C
  8
0
 62
     0
 10
142.47810423179831
 20
15.31848983294717
 30
0.0
 11
142.87497923179831
 21
14.63108216869327
 31
0.0
  0
LINE
  5
177D
  8
0
 62
     0
 10
141.4198319966853
 20
17.151471112402259
 30
0.0
 11
141.6843542317983
 21
16.693305161454958
 31
0.0
  0
LINE
  5
177E
  8
0
 62
     0
 10
147.24060394730211
 20
9.8192283546620818
 30
0.0
 11
147.6374789473021
 21
9.1318206904081798
 31
0.0
  0
LINE
  5
177F
  8
0
 62
     0
 10
146.04997894730209
 20
11.88145134742377
 30
0.0
 11
146.44685394730209
 21
11.19404368316987
 31
0.0
  0
LINE
  5
1780
  8
0
 62
     0
 10
144.85935394730211
 20
13.943674340185471
 30
0.0
 11
145.25622894730211
 21
13.25626667593157
 31
0.0
  0
LINE
  5
1781
  8
0
 62
     0
 10
143.66872894730221
 20
16.005897332947161
 30
0.0
 11
144.06560394730221
 21
15.31848966869326
 31
0.0
  0
LINE
  5
1782
  8
0
 62
     0
 10
142.6604806727311
 20
17.752234571147859
 30
0.0
 11
142.8749789473022
 21
17.380712661454961
 31
0.0
  0
LINE
  5
1783
  8
0
 62
     0
 10
148.43122866280601
 20
10.50663585466209
 30
0.0
 11
148.61830667416129
 21
10.182607234015791
 31
0.0
  0
LINE
  5
1784
  8
0
 62
     0
 10
147.240603662806
 20
12.56885884742378
 30
0.0
 11
147.63747866280599
 21
11.881451183169879
 31
0.0
  0
LINE
  5
1785
  8
0
 62
     0
 10
146.04997866280601
 20
14.63108184018548
 30
0.0
 11
146.44685366280609
 21
13.94367417593158
 31
0.0
  0
LINE
  5
1786
  8
0
 62
     0
 10
144.85935366280609
 20
16.69330483294717
 30
0.0
 11
145.25622866280611
 21
16.00589716869327
 31
0.0
  0
LINE
  5
1787
  8
0
 62
     0
 10
148.43122837831001
 20
13.25626634742377
 30
0.0
 11
148.82810337831
 21
12.56885868316987
 31
0.0
  0
LINE
  5
1788
  8
0
 62
     0
 10
147.24060337831
 20
15.31848934018546
 30
0.0
 11
147.63747837830999
 21
14.63108167593156
 31
0.0
  0
LINE
  5
1789
  8
0
 62
     0
 10
146.04997837830999
 20
17.380712332947159
 30
0.0
 11
146.44685337831001
 21
16.693304668693258
 31
0.0
  0
LINE
  5
178A
  8
0
 62
     0
 10
139.3030951279232
 20
12.568888413125469
 30
0.0
 11
139.00628919786629
 21
12.0548054622792
 31
0.0
  0
LINE
  5
178B
  8
0
 62
     0
 10
140.4937201279231
 20
14.631111405887159
 30
0.0
 11
140.0968451279231
 21
13.943703741633261
 31
0.0
  0
LINE
  5
178C
  8
0
 62
     0
 10
141.68434512792311
 20
16.693334398648851
 30
0.0
 11
141.28747012792309
 21
16.005926734394951
 31
0.0
  0
LINE
  5
178D
  8
0
 62
     0
 10
140.4937198434271
 20
11.88148091312546
 30
0.0
 11
140.09684484342711
 21
11.194073248871559
 31
0.0
  0
LINE
  5
178E
  8
0
 62
     0
 10
141.68434484342711
 20
13.94370390588716
 30
0.0
 11
141.28746984342709
 21
13.256296241633249
 31
0.0
  0
LINE
  5
178F
  8
0
 62
     0
 10
142.87496984342701
 20
16.005926898648848
 30
0.0
 11
142.4780948434271
 21
15.31851923439495
 31
0.0
  0
LINE
  5
1790
  8
0
 62
     0
 10
144.00183134728749
 20
17.95770827642864
 30
0.0
 11
143.668719843427
 21
17.380742227156642
 31
0.0
  0
LINE
  5
1791
  8
0
 62
     0
 10
140.49371955893099
 20
9.1318504203637652
 30
0.0
 11
140.21983906125061
 21
8.6574754831790042
 31
0.0
  0
LINE
  5
1792
  8
0
 62
     0
 10
141.684344558931
 20
11.19407341312546
 30
0.0
 11
141.28746955893101
 21
10.50666574887156
 31
0.0
  0
LINE
  5
1793
  8
0
 62
     0
 10
142.87496955893101
 20
13.25629640588715
 30
0.0
 11
142.47809455893099
 21
12.56888874163325
 31
0.0
  0
LINE
  5
1794
  8
0
 62
     0
 10
144.06559455893091
 20
15.318519398648849
 30
0.0
 11
143.66871955893089
 21
14.63111173439494
 31
0.0
  0
LINE
  5
1795
  8
0
 62
     0
 10
145.25621955893089
 20
17.380742391410539
 30
0.0
 11
144.8593445589309
 21
16.693334727156639
 31
0.0
  0
LINE
  5
1796
  8
0
 62
     0
 10
141.68434427443489
 20
8.4444429203637643
 30
0.0
 11
141.2874692744349
 21
7.7570352561098632
 31
0.0
  0
LINE
  5
1797
  8
0
 62
     0
 10
142.8749692744349
 20
10.50666591312546
 30
0.0
 11
142.47809427443491
 21
9.8192582488715558
 31
0.0
  0
LINE
  5
1798
  8
0
 62
     0
 10
144.06559427443489
 20
12.56888890588715
 30
0.0
 11
143.66871927443489
 21
11.881481241633249
 31
0.0
  0
LINE
  5
1799
  8
0
 62
     0
 10
145.25621927443481
 20
14.63111189864884
 30
0.0
 11
144.85934427443479
 21
13.943704234394939
 31
0.0
  0
LINE
  5
179A
  8
0
 62
     0
 10
146.4468442744348
 20
16.69333489141054
 30
0.0
 11
146.0499692744348
 21
16.005927227156629
 31
0.0
  0
LINE
  5
179B
  8
0
 62
     0
 10
142.87496898993879
 20
7.7570354203637626
 30
0.0
 11
142.4780939899388
 21
7.0696277561098642
 31
0.0
  0
LINE
  5
179C
  8
0
 62
     0
 10
144.0655939899388
 20
9.8192584131254552
 30
0.0
 11
143.66871898993881
 21
9.1318507488715568
 31
0.0
  0
LINE
  5
179D
  8
0
 62
     0
 10
145.25621898993879
 20
11.881481405887151
 30
0.0
 11
144.85934398993879
 21
11.19407374163325
 31
0.0
  0
LINE
  5
179E
  8
0
 62
     0
 10
146.44684398993871
 20
13.94370439864884
 30
0.0
 11
146.0499689899388
 21
13.25629673439494
 31
0.0
  0
LINE
  5
179F
  8
0
 62
     0
 10
147.6374689899387
 20
16.005927391410541
 30
0.0
 11
147.2405939899387
 21
15.318519727156639
 31
0.0
  0
LINE
  5
17A0
  8
0
 62
     0
 10
144.06559370544269
 20
7.0696279203637689
 30
0.0
 11
143.86242080379941
 21
6.7177221319964433
 31
0.0
  0
LINE
  5
17A1
  8
0
 62
     0
 10
145.25621870544271
 20
9.1318509131254633
 30
0.0
 11
144.85934370544271
 21
8.4444432488715648
 31
0.0
  0
LINE
  5
17A2
  8
0
 62
     0
 10
146.44684370544269
 20
11.19407390588715
 30
0.0
 11
146.04996870544269
 21
10.50666624163326
 31
0.0
  0
LINE
  5
17A3
  8
0
 62
     0
 10
147.63746870544259
 20
13.25629689864885
 30
0.0
 11
147.24059370544271
 21
12.56888923439495
 31
0.0
  0
LINE
  5
17A4
  8
0
 62
     0
 10
148.50899461834521
 20
14.76582405990896
 30
0.0
 11
148.4312187054426
 21
14.63111222715664
 31
0.0
  0
LINE
  5
17A5
  8
0
 62
     0
 10
146.44684342094661
 20
8.4444434131254695
 30
0.0
 11
146.04996842094661
 21
7.7570357488715711
 31
0.0
  0
LINE
  5
17A6
  8
0
 62
     0
 10
147.63746842094659
 20
10.506666405887159
 30
0.0
 11
147.2405934209466
 21
9.8192587416332646
 31
0.0
  0
LINE
  5
17A7
  8
0
 62
     0
 10
148.8280934209466
 20
12.568889398648849
 30
0.0
 11
148.43121842094649
 21
11.88148173439496
 31
0.0
  0
LINE
  5
17A8
  8
0
 62
     0
 10
145.2562500000133
 20
7.7570299999850931
 30
0.0
 11
146.05000000001331
 21
7.7570299999850931
 31
0.0
  0
LINE
  5
17A9
  8
0
 62
     0
 10
142.8750000000133
 20
7.7570299999850931
 30
0.0
 11
143.66875000001329
 21
7.7570299999850931
 31
0.0
  0
LINE
  5
17AA
  8
0
 62
     0
 10
141.1007687474135
 20
7.7570299999850931
 30
0.0
 11
141.2875000000133
 21
7.7570299999850931
 31
0.0
  0
LINE
  5
17AB
  8
0
 62
     0
 10
147.63750000001329
 20
9.1318449999850984
 30
0.0
 11
148.10772746508241
 21
9.1318449999850984
 31
0.0
  0
LINE
  5
17AC
  8
0
 62
     0
 10
145.2562500000133
 20
9.1318449999850984
 30
0.0
 11
146.05000000001331
 21
9.1318449999850984
 31
0.0
  0
LINE
  5
17AD
  8
0
 62
     0
 10
142.8750000000133
 20
9.1318449999850984
 30
0.0
 11
143.66875000001329
 21
9.1318449999850984
 31
0.0
  0
LINE
  5
17AE
  8
0
 62
     0
 10
140.49375000001331
 20
9.1318449999850984
 30
0.0
 11
141.2875000000133
 21
9.1318449999850984
 31
0.0
  0
LINE
  5
17AF
  8
0
 62
     0
 10
147.63750000001329
 20
10.506659999985089
 30
0.0
 11
148.43125000001331
 21
10.506659999985089
 31
0.0
  0
LINE
  5
17B0
  8
0
 62
     0
 10
145.2562500000133
 20
10.506659999985089
 30
0.0
 11
146.05000000001331
 21
10.506659999985089
 31
0.0
  0
LINE
  5
17B1
  8
0
 62
     0
 10
142.8750000000133
 20
10.506659999985089
 30
0.0
 11
143.66875000001329
 21
10.506659999985089
 31
0.0
  0
LINE
  5
17B2
  8
0
 62
     0
 10
140.49375000001331
 20
10.506659999985089
 30
0.0
 11
141.2875000000133
 21
10.506659999985089
 31
0.0
  0
LINE
  5
17B3
  8
0
 62
     0
 10
147.63750000001329
 20
11.881474999985089
 30
0.0
 11
148.43125000001331
 21
11.881474999985089
 31
0.0
  0
LINE
  5
17B4
  8
0
 62
     0
 10
145.2562500000133
 20
11.881474999985089
 30
0.0
 11
146.05000000001331
 21
11.881474999985089
 31
0.0
  0
LINE
  5
17B5
  8
0
 62
     0
 10
142.8750000000133
 20
11.881474999985089
 30
0.0
 11
143.66875000001329
 21
11.881474999985089
 31
0.0
  0
LINE
  5
17B6
  8
0
 62
     0
 10
140.49375000001331
 20
11.881474999985089
 30
0.0
 11
141.2875000000133
 21
11.881474999985089
 31
0.0
  0
LINE
  5
17B7
  8
0
 62
     0
 10
147.63750000001329
 20
13.2562899999851
 30
0.0
 11
148.43125000001331
 21
13.2562899999851
 31
0.0
  0
LINE
  5
17B8
  8
0
 62
     0
 10
145.2562500000133
 20
13.2562899999851
 30
0.0
 11
146.05000000001331
 21
13.2562899999851
 31
0.0
  0
LINE
  5
17B9
  8
0
 62
     0
 10
142.8750000000133
 20
13.2562899999851
 30
0.0
 11
143.66875000001329
 21
13.2562899999851
 31
0.0
  0
LINE
  5
17BA
  8
0
 62
     0
 10
140.49375000001331
 20
13.2562899999851
 30
0.0
 11
141.2875000000133
 21
13.2562899999851
 31
0.0
  0
LINE
  5
17BB
  8
0
 62
     0
 10
147.63750000001329
 20
14.6311049999851
 30
0.0
 11
148.43125000001331
 21
14.6311049999851
 31
0.0
  0
LINE
  5
17BC
  8
0
 62
     0
 10
145.2562500000133
 20
14.6311049999851
 30
0.0
 11
146.05000000001331
 21
14.6311049999851
 31
0.0
  0
LINE
  5
17BD
  8
0
 62
     0
 10
142.8750000000133
 20
14.6311049999851
 30
0.0
 11
143.66875000001329
 21
14.6311049999851
 31
0.0
  0
LINE
  5
17BE
  8
0
 62
     0
 10
140.49375000001331
 20
14.6311049999851
 30
0.0
 11
141.2875000000133
 21
14.6311049999851
 31
0.0
  0
LINE
  5
17BF
  8
0
 62
     0
 10
147.63750000001329
 20
16.005919999985089
 30
0.0
 11
147.7877721817575
 21
16.005919999985089
 31
0.0
  0
LINE
  5
17C0
  8
0
 62
     0
 10
145.2562500000133
 20
16.005919999985089
 30
0.0
 11
146.05000000001331
 21
16.005919999985089
 31
0.0
  0
LINE
  5
17C1
  8
0
 62
     0
 10
142.8750000000133
 20
16.005919999985089
 30
0.0
 11
143.66875000001329
 21
16.005919999985089
 31
0.0
  0
LINE
  5
17C2
  8
0
 62
     0
 10
140.49375000001331
 20
16.005919999985089
 30
0.0
 11
141.2875000000133
 21
16.005919999985089
 31
0.0
  0
LINE
  5
17C3
  8
0
 62
     0
 10
145.2562500000133
 20
17.380734999985091
 30
0.0
 11
146.05000000001331
 21
17.380734999985091
 31
0.0
  0
LINE
  5
17C4
  8
0
 62
     0
 10
142.8750000000133
 20
17.380734999985091
 30
0.0
 11
143.66875000001329
 21
17.380734999985091
 31
0.0
  0
ENDBLK
  5
17C6
  8
0
  0
BLOCK
  8
0
  2
*X35
 70
     1
 10
0.0
 20
0.0
 30
0.0
  3
*X35
  1

  0
LINE
  5
1C74
  8
0
 62
     0
 10
94.999999928200495
 20
1.3223051614183341
 30
0.0
 11
94.682999456610872
 21
1.6393056330079641
 31
0.0
  0
LINE
  5
1C75
  8
0
 62
     0
 10
94.999999928200495
 20
0.1997731462846914
 30
0.0
 11
94.383456086641758
 21
0.8163169878434288
 31
0.0
  0
LINE
  5
1C76
  8
0
 62
     0
 10
94.999999928200495
 20
-0.9227588688489589
 30
0.0
 11
93.918830156991021
 21
0.1584109023605222
 31
0.0
  0
LINE
  5
1C77
  8
0
 62
     0
 10
94.999999928200495
 20
-2.0452908839826018
 30
0.0
 11
92.191024031738664
 21
0.7636850124792433
 31
0.0
  0
LINE
  5
1C78
  8
0
 62
     0
 10
94.999999928200495
 20
-3.1678228991162451
 30
0.0
 11
91.236755334737197
 21
0.5954216943470457
 31
0.0
  0
LINE
  5
1C79
  8
0
 62
     0
 10
94.999999928200495
 20
-4.290354914249888
 30
0.0
 11
90.999999928326645
 21
-0.2903549143760173
 31
0.0
  0
LINE
  5
1C7A
  8
0
 62
     0
 10
94.265278157899473
 20
-4.6781651590824964
 30
0.0
 11
90.978103214696034
 21
-1.3909902158790499
 31
0.0
  0
LINE
  5
1C7B
  8
0
 62
     0
 10
93.062466456357356
 20
-4.5978854726740357
 30
0.0
 11
89.965755072333039
 21
-1.501174088649712
 31
0.0
  0
LINE
  5
1C7C
  8
0
 62
     0
 10
90.847859801865155
 20
-3.5058108333154641
 30
0.0
 11
89.499999928250801
 21
-2.1579509597011182
 31
0.0
  0
LINE
  5
1C7D
  8
0
 62
     0
 10
91.990854958388724
 20
-4.6488059898390404
 30
0.0
 11
90.994189094534519
 21
-3.6521401259848361
 31
0.0
  0
LINE
  5
1C7E
  8
0
 62
     0
 10
91.016216299263107
 20
-4.7966993458470659
 30
0.0
 11
90.999999927839326
 21
-4.7804829744232791
 31
0.0
  0
LINE
  5
1C7F
  8
0
 62
     0
 10
94.821844653219102
 20
-4.7652683456051568
 30
0.0
 11
94.999999928200495
 21
-4.5871130706237571
 31
0.0
  0
LINE
  5
1C80
  8
0
 62
     0
 10
93.832160758100201
 20
-4.6324202255904154
 30
0.0
 11
94.999999928200495
 21
-3.4645810554901142
 31
0.0
  0
LINE
  5
1C81
  8
0
 62
     0
 10
92.740999866119751
 20
-4.6010491024372149
 30
0.0
 11
94.999999928200495
 21
-2.3420490403564709
 31
0.0
  0
LINE
  5
1C82
  8
0
 62
     0
 10
91.510060800063798
 20
-4.7094561533595254
 30
0.0
 11
94.999999928200495
 21
-1.219517025222828
 31
0.0
  0
LINE
  5
1C83
  8
0
 62
     0
 10
90.999999927843831
 20
-4.0969850104458549
 30
0.0
 11
94.999999928200495
 21
-0.0969850100891847
 31
0.0
  0
LINE
  5
1C84
  8
0
 62
     0
 10
90.474452923148064
 20
-3.5000000000079718
 30
0.0
 11
94.999999928200495
 21
1.0255470050444511
 31
0.0
  0
LINE
  5
1C85
  8
0
 62
     0
 10
94.792742171129277
 20
1.940821263106876
 30
0.0
 11
94.838890693123943
 21
1.9869697851015351
 31
0.0
  0
LINE
  5
1C86
  8
0
 62
     0
 10
89.580246445153605
 20
-3.2716744628688161
 30
0.0
 11
93.255313283089563
 21
0.4033923750671633
 31
0.0
  0
LINE
  5
1C87
  8
0
 62
     0
 10
90.999999928326645
 20
-0.7293889645621193
 30
0.0
 11
92.557734931036023
 21
0.8283460381472949
 31
0.0
  0
LINE
  5
1C88
  8
0
 62
     0
 10
89.499999928216496
 20
-2.2293889646722529
 30
0.0
 11
90.229388892885211
 21
-1.5000000000035381
 31
0.0
  0
LINE
  5
1C89
  8
0
 62
     0
 10
90.771048513330854
 20
0.1641916355757402
 30
0.0
 11
91.194897993501314
 21
0.5880411157461936
 31
0.0
  0
ENDBLK
  5
1C8B
  8
0
  0
BLOCK
  8
0
  2
*X36
 70
     1
 10
0.0
 20
0.0
 30
0.0
  3
*X36
  1

  0
LINE
  5
1C8D
  8
0
 62
     0
 10
127.2829227603236
 20
0.4702787530372774
 30
0.0
 11
127.2422395692841
 21
0.5109619440767476
 31
0.0
  0
LINE
  5
1C8E
  8
0
 62
     0
 10
126.9999999277168
 20
-0.3693304294895938
 30
0.0
 11
125.8794026317711
 21
0.7512668664560991
 31
0.0
  0
LINE
  5
1C8F
  8
0
 62
     0
 10
128.47522208960791
 20
-1.8445525913806611
 30
0.0
 11
128.15544733633971
 21
-1.5247778381125201
 31
0.0
  0
LINE
  5
1C90
  8
0
 62
     0
 10
128.49999992819309
 20
-2.9918624450995281
 30
0.0
 11
124.73786752826599
 21
0.7702699548275618
 31
0.0
  0
LINE
  5
1C91
  8
0
 62
     0
 10
123.64358577306319
 20
0.7420196948967331
 30
0.0
 11
122.99999992820059
 21
1.3856055397592679
 31
0.0
  0
LINE
  5
1C92
  8
0
 62
     0
 10
127.88560546797289
 20
-3.5000000000129532
 30
0.0
 11
124.243770007026
 21
0.1418354609339474
 31
0.0
  0
LINE
  5
1C93
  8
0
 62
     0
 10
126.9999999281972
 20
-3.7369264753709639
 30
0.0
 11
122.99999992820059
 21
0.2630735246256179
 31
0.0
  0
LINE
  5
1C94
  8
0
 62
     0
 10
126.9256351117844
 20
-4.7850936740918106
 30
0.0
 11
122.99999992820059
 21
-0.8594584905080324
 31
0.0
  0
LINE
  5
1C95
  8
0
 62
     0
 10
125.63596932528139
 20
-4.617959902722375
 30
0.0
 11
122.99999992820059
 21
-1.9819905056416749
 31
0.0
  0
LINE
  5
1C96
  8
0
 62
     0
 10
124.5054213807301
 20
-4.6099439733047367
 30
0.0
 11
122.99999992820059
 21
-3.1045225207753111
 31
0.0
  0
LINE
  5
1C97
  8
0
 62
     0
 10
123.4860535378976
 20
-4.713108145605907
 30
0.0
 11
122.99999992820059
 21
-4.2270545359089553
 31
0.0
  0
LINE
  5
1C98
  8
0
 62
     0
 10
127.51800942255829
 20
-3.500000000007915
 30
0.0
 11
128.49999992796549
 21
-2.5180094946007321
 31
0.0
  0
LINE
  5
1C99
  8
0
 62
     0
 10
126.3312013139728
 20
-4.686808108593417
 30
0.0
 11
126.9999999281991
 21
-4.0180094943671838
 31
0.0
  0
LINE
  5
1C9A
  8
0
 62
     0
 10
125.2934743857496
 20
-4.6020030216830241
 30
0.0
 11
128.29740816965759
 21
-1.5980692377750001
 31
0.0
  0
LINE
  5
1C9B
  8
0
 62
     0
 10
124.13798369063851
 20
-4.6349617016604787
 30
0.0
 11
127.2729453922954
 21
-1.5000000000035809
 31
0.0
  0
LINE
  5
1C9C
  8
0
 62
     0
 10
122.99999992820059
 20
-4.6504134489647049
 30
0.0
 11
126.9999999277168
 21
-0.65041344944855
 31
0.0
  0
LINE
  5
1C9D
  8
0
 62
     0
 10
122.99999992820059
 20
-3.5278814338310549
 30
0.0
 11
127.0693316393355
 21
0.5414502773038166
 31
0.0
  0
LINE
  5
1C9E
  8
0
 62
     0
 10
122.99999992820059
 20
-2.4053494186974191
 30
0.0
 11
126.11506294232341
 21
0.709713595425356
 31
0.0
  0
LINE
  5
1C9F
  8
0
 62
     0
 10
124.7664623300191
 20
0.4836449982546541
 30
0.0
 11
125.16079424531129
 21
0.8779769135469167
 31
0.0
  0
LINE
  5
1CA0
  8
0
 62
     0
 10
122.99999992820059
 20
-1.2828174035637749
 30
0.0
 11
124.4940695475044
 21
0.2112522157399539
 31
0.0
  0
LINE
  5
1CA1
  8
0
 62
     0
 10
122.99999992820059
 20
-0.1602853884301254
 30
0.0
 11
123.71262401119171
 21
0.5523386945609375
 31
0.0
  0
LINE
  5
1CA2
  8
0
 62
     0
 10
122.99999992820059
 20
0.9622466267035107
 30
0.0
 11
123.4130806412139
 21
1.3753273397167971
 31
0.0
  0
ENDBLK
  5
1CA4
  8
0
  0
BLOCK
  8
0
  2
*X37
 70
     1
 10
0.0
 20
0.0
 30
0.0
  3
*X37
  1

  0
LINE
  5
1CDB
  8
0
 62
     0
 10
94.999999928200495
 20
1.3223051614183341
 30
0.0
 11
94.682999456610872
 21
1.6393056330079641
 31
0.0
  0
LINE
  5
1CDC
  8
0
 62
     0
 10
94.999999928200495
 20
0.1997731462846914
 30
0.0
 11
94.383456086641758
 21
0.8163169878434288
 31
0.0
  0
LINE
  5
1CDD
  8
0
 62
     0
 10
94.999999928200495
 20
-0.9227588688489589
 30
0.0
 11
93.918830156991021
 21
0.1584109023605222
 31
0.0
  0
LINE
  5
1CDE
  8
0
 62
     0
 10
94.999999928200495
 20
-2.0452908839826018
 30
0.0
 11
92.191024031738664
 21
0.7636850124792433
 31
0.0
  0
LINE
  5
1CDF
  8
0
 62
     0
 10
94.999999928200495
 20
-3.1678228991162451
 30
0.0
 11
91.236755334737197
 21
0.5954216943470457
 31
0.0
  0
LINE
  5
1CE0
  8
0
 62
     0
 10
94.999999928200495
 20
-4.290354914249888
 30
0.0
 11
90.999999928326645
 21
-0.2903549143760173
 31
0.0
  0
LINE
  5
1CE1
  8
0
 62
     0
 10
94.265278157899473
 20
-4.6781651590824964
 30
0.0
 11
90.978103214696034
 21
-1.3909902158790499
 31
0.0
  0
LINE
  5
1CE2
  8
0
 62
     0
 10
93.062466456357356
 20
-4.5978854726740357
 30
0.0
 11
89.965755072333039
 21
-1.501174088649712
 31
0.0
  0
LINE
  5
1CE3
  8
0
 62
     0
 10
90.847859801865155
 20
-3.5058108333154641
 30
0.0
 11
89.499999928250801
 21
-2.1579509597011182
 31
0.0
  0
LINE
  5
1CE4
  8
0
 62
     0
 10
91.990854958388724
 20
-4.6488059898390404
 30
0.0
 11
90.994189094534519
 21
-3.6521401259848361
 31
0.0
  0
LINE
  5
1CE5
  8
0
 62
     0
 10
91.016216299263107
 20
-4.7966993458470659
 30
0.0
 11
90.999999927839326
 21
-4.7804829744232791
 31
0.0
  0
LINE
  5
1CE6
  8
0
 62
     0
 10
94.821844653219102
 20
-4.7652683456051568
 30
0.0
 11
94.999999928200495
 21
-4.5871130706237571
 31
0.0
  0
LINE
  5
1CE7
  8
0
 62
     0
 10
93.832160758100201
 20
-4.6324202255904154
 30
0.0
 11
94.999999928200495
 21
-3.4645810554901142
 31
0.0
  0
LINE
  5
1CE8
  8
0
 62
     0
 10
92.740999866119751
 20
-4.6010491024372149
 30
0.0
 11
94.999999928200495
 21
-2.3420490403564709
 31
0.0
  0
LINE
  5
1CE9
  8
0
 62
     0
 10
91.510060800063798
 20
-4.7094561533595254
 30
0.0
 11
94.999999928200495
 21
-1.219517025222828
 31
0.0
  0
LINE
  5
1CEA
  8
0
 62
     0
 10
90.999999927843831
 20
-4.0969850104458549
 30
0.0
 11
94.999999928200495
 21
-0.0969850100891847
 31
0.0
  0
LINE
  5
1CEB
  8
0
 62
     0
 10
90.474452923148064
 20
-3.5000000000079718
 30
0.0
 11
94.999999928200495
 21
1.0255470050444511
 31
0.0
  0
LINE
  5
1CEC
  8
0
 62
     0
 10
94.792742171129277
 20
1.940821263106876
 30
0.0
 11
94.838890693123943
 21
1.9869697851015351
 31
0.0
  0
LINE
  5
1CED
  8
0
 62
     0
 10
89.580246445153605
 20
-3.2716744628688161
 30
0.0
 11
93.255313283089563
 21
0.4033923750671633
 31
0.0
  0
LINE
  5
1CEE
  8
0
 62
     0
 10
90.999999928326645
 20
-0.7293889645621193
 30
0.0
 11
92.557734931036023
 21
0.8283460381472949
 31
0.0
  0
LINE
  5
1CEF
  8
0
 62
     0
 10
89.499999928216496
 20
-2.2293889646722529
 30
0.0
 11
90.229388892885211
 21
-1.5000000000035381
 31
0.0
  0
LINE
  5
1CF0
  8
0
 62
     0
 10
90.771048513330854
 20
0.1641916355757402
 30
0.0
 11
91.194897993501314
 21
0.5880411157461936
 31
0.0
  0
ENDBLK
  5
1CF2
  8
0
  0
BLOCK
  8
0
  2
*X38
 70
     1
 10
0.0
 20
0.0
 30
0.0
  3
*X38
  1

  0
LINE
  5
1CF4
  8
0
 62
     0
 10
127.2829227603236
 20
0.4702787530372774
 30
0.0
 11
127.2422395692841
 21
0.5109619440767476
 31
0.0
  0
LINE
  5
1CF5
  8
0
 62
     0
 10
126.9999999277168
 20
-0.3693304294895938
 30
0.0
 11
125.8794026317711
 21
0.7512668664560991
 31
0.0
  0
LINE
  5
1CF6
  8
0
 62
     0
 10
128.47522208960791
 20
-1.8445525913806611
 30
0.0
 11
128.15544733633971
 21
-1.5247778381125201
 31
0.0
  0
LINE
  5
1CF7
  8
0
 62
     0
 10
128.49999992819309
 20
-2.9918624450995281
 30
0.0
 11
124.73786752826599
 21
0.7702699548275618
 31
0.0
  0
LINE
  5
1CF8
  8
0
 62
     0
 10
123.64358577306319
 20
0.7420196948967331
 30
0.0
 11
122.99999992820059
 21
1.3856055397592679
 31
0.0
  0
LINE
  5
1CF9
  8
0
 62
     0
 10
127.88560546797289
 20
-3.5000000000129532
 30
0.0
 11
124.243770007026
 21
0.1418354609339474
 31
0.0
  0
LINE
  5
1CFA
  8
0
 62
     0
 10
126.9999999281972
 20
-3.7369264753709639
 30
0.0
 11
122.99999992820059
 21
0.2630735246256179
 31
0.0
  0
LINE
  5
1CFB
  8
0
 62
     0
 10
126.9256351117844
 20
-4.7850936740918106
 30
0.0
 11
122.99999992820059
 21
-0.8594584905080324
 31
0.0
  0
LINE
  5
1CFC
  8
0
 62
     0
 10
125.63596932528139
 20
-4.617959902722375
 30
0.0
 11
122.99999992820059
 21
-1.9819905056416749
 31
0.0
  0
LINE
  5
1CFD
  8
0
 62
     0
 10
124.5054213807301
 20
-4.6099439733047367
 30
0.0
 11
122.99999992820059
 21
-3.1045225207753111
 31
0.0
  0
LINE
  5
1CFE
  8
0
 62
     0
 10
123.4860535378976
 20
-4.713108145605907
 30
0.0
 11
122.99999992820059
 21
-4.2270545359089553
 31
0.0
  0
LINE
  5
1CFF
  8
0
 62
     0
 10
127.51800942255829
 20
-3.500000000007915
 30
0.0
 11
128.49999992796549
 21
-2.5180094946007321
 31
0.0
  0
LINE
  5
1D00
  8
0
 62
     0
 10
126.3312013139728
 20
-4.686808108593417
 30
0.0
 11
126.9999999281991
 21
-4.0180094943671838
 31
0.0
  0
LINE
  5
1D01
  8
0
 62
     0
 10
125.2934743857496
 20
-4.6020030216830241
 30
0.0
 11
128.29740816965759
 21
-1.5980692377750001
 31
0.0
  0
LINE
  5
1D02
  8
0
 62
     0
 10
124.13798369063851
 20
-4.6349617016604787
 30
0.0
 11
127.2729453922954
 21
-1.5000000000035809
 31
0.0
  0
LINE
  5
1D03
  8
0
 62
     0
 10
122.99999992820059
 20
-4.6504134489647049
 30
0.0
 11
126.9999999277168
 21
-0.65041344944855
 31
0.0
  0
LINE
  5
1D04
  8
0
 62
     0
 10
122.99999992820059
 20
-3.5278814338310549
 30
0.0
 11
127.0693316393355
 21
0.5414502773038166
 31
0.0
  0
LINE
  5
1D05
  8
0
 62
     0
 10
122.99999992820059
 20
-2.4053494186974191
 30
0.0
 11
126.11506294232341
 21
0.709713595425356
 31
0.0
  0
LINE
  5
1D06
  8
0
 62
     0
 10
124.7664623300191
 20
0.4836449982546541
 30
0.0
 11
125.16079424531129
 21
0.8779769135469167
 31
0.0
  0
LINE
  5
1D07
  8
0
 62
     0
 10
122.99999992820059
 20
-1.2828174035637749
 30
0.0
 11
124.4940695475044
 21
0.2112522157399539
 31
0.0
  0
LINE
  5
1D08
  8
0
 62
     0
 10
122.99999992820059
 20
-0.1602853884301254
 30
0.0
 11
123.71262401119171
 21
0.5523386945609375
 31
0.0
  0
LINE
  5
1D09
  8
0
 62
     0
 10
122.99999992820059
 20
0.9622466267035107
 30
0.0
 11
123.4130806412139
 21
1.3753273397167971
 31
0.0
  0
ENDBLK
  5
1D0B
  8
0
  0
BLOCK
  8
0
  2
*U39
 70
     1
 10
0.0
 20
0.0
 30
0.0
  3
*U39
  1

  0
TEXT
  5
1DCA
  8
SAPA_MATT
 62
     2
 10
179.99999985600721
 20
25.04999999999821
 30
0.0
 40
3.5
  1
65
 50
90.0
  7
ISO
  0
ENDBLK
  5
1DCC
  8
0
  0
BLOCK
  8
0
  2
*U40
 70
     1
 10
0.0
 20
0.0
 30
0.0
  3
*U40
  1

  0
TEXT
  5
1DCE
  8
SAPA_MATT
 62
     2
 10
167.99999985600721
 20
27.550000000000061
 30
0.0
 40
3.5
  1
60
 50
90.0
  7
ISO
  0
ENDBLK
  5
1DD0
  8
0
  0
BLOCK
  8
0
  2
*U41
 70
     1
 10
0.0
 20
0.0
 30
0.0
  3
*U41
  1

  0
TEXT
  5
1DD2
  8
SAPA_MATT
 62
     2
 10
73.17499992800353
 20
-54.999999999999993
 30
0.0
 40
3.5
  1
125
  7
ISO
  0
ENDBLK
  5
1DD4
  8
0
  0
BLOCK
  8
0
  2
*U42
 70
     1
 10
0.0
 20
0.0
 30
0.0
  3
*U42
  1

  0
TEXT
  5
1DD6
  8
SAPA_MATT
 62
     2
 10
132.77499992771521
 20
-43.000000000000007
 30
0.0
 40
3.5
  1
6.5
  7
ISO
  0
ENDBLK
  5
1DD8
  8
0
  0
ENDSEC
  0
SECTION
  2
ENTITIES
  0
TEXT
  5
70A
  8
SAPA_ARTIKELNR
 10
12.34545056576661
 20
24.188039105301709
 30
0.0000000048844772
 40
3.5
  1
D8K025
 50
90.0
  7
ISO
  0
TEXT
  5
722
  8
SAPA_ARTIKELNR
 10
129.6215927705511
 20
-22.4857906104716
 30
0.0000000048844772
 40
3.5
  1
D8V001
 50
90.0
  7
ISO
  0
POLYLINE
  5
CBE
  8
SAPA_GLAS
 66
     1
 10
0.0
 20
0.0
 30
0.0
 70
     1
  0
VERTEX
  5
16FD
  8
SAPA_GLAS
 10
83.499999928235596
 20
7.7185588118228727
 30
0.0
  0
VERTEX
  5
16FE
  8
SAPA_GLAS
 10
85.49999992823561
 20
7.7185588118228727
 30
0.0
  0
VERTEX
  5
16FF
  8
SAPA_GLAS
 10
85.49999992823561
 20
19.71855881182287
 30
0.0
  0
VERTEX
  5
1700
  8
SAPA_GLAS
 10
83.499999928235596
 20
19.71855881182287
 30
0.0
  0
SEQEND
  5
1701
  8
SAPA_GLAS
  0
POLYLINE
  5
CBF
  8
SAPA_GLAS
 66
     1
 10
0.0
 20
0.0
 30
0.0
 70
     1
  0
VERTEX
  5
1702
  8
SAPA_GLAS
 10
134.49999992775469
 20
7.7185588118230584
 30
0.0
  0
VERTEX
  5
1703
  8
SAPA_GLAS
 10
132.49999992775469
 20
7.7185588118230584
 30
0.0
  0
VERTEX
  5
1704
  8
SAPA_GLAS
 10
132.49999992775469
 20
19.718558811823058
 30
0.0
  0
VERTEX
  5
1705
  8
SAPA_GLAS
 10
134.49999992775469
 20
19.718558811823058
 30
0.0
  0
SEQEND
  5
1706
  8
SAPA_GLAS
  0
LINE
  5
CEA
  8
SAPA_GLAS
 10
134.49999992775469
 20
0.4999999999999716
 30
0.0
 11
132.1524198819591
 21
0.4999999999999716
 31
0.0
  0
LINE
  5
CEB
  8
SAPA_GLAS
 10
82.999999928123614
 20
0.1685588117986043
 30
0.0
 11
85.872291608869318
 21
0.1685588117986043
 31
0.0
  0
INSERT
  5
DA4
  8
SAPA_GLAS
  6
CONTINUOUS
  2
*X31
 10
0.0
 20
0.0
 30
0.0
1001
ACAD
1000
HATCH
1002
{
1070
    19
1000
ANSI37
1040
0.25
1040
1.5707963267948959
1000
R14_HATCH_DATA
1000
DA4
1011
1.0
1021
0.0
1031
0.0
1021
0.0
1031
0.0
1011
0.0
1021
0.0
1031
0.0
1021
1.0
1031
0.0
1011
0.0
1021
0.0
1031
0.0
1021
0.0
1031
1.0
1040
0.0
1010
0.0
1020
0.0
1030
1.0
1000
ANSI37
1070
     0
1070
     0
1071
        1
1071
        7
1070
     1
1070
     1
1071
       20
1040
84.719898131095306
1040
7.7185588118228727
1040
0.0
1040
83.458257497964439
1040
7.7185588118228727
1040
-0.2982166267130052
1040
82.999999928458294
1040
7.4185588117986319
1040
0.0
1040
82.799999928458476
1040
7.4185588117986319
1040
-0.4142135623730951
1040
82.499999928458294
1040
7.7185588117988138
1040
0.0
1040
82.499999928458294
1040
8.368558811798664
1040
0.4142135623730952
1040
82.199999928457189
1040
8.6685588117986327
1040
0.0
1040
81.299999928461204
1040
8.6685588117986327
1040
0.4142135623730951
1040
80.799999928461204
1040
8.1685588117986327
1040
0.0
1040
80.799999928461204
1040
2.1685588117986461
1040
0.4142135623730951
1040
81.299999928461204
1040
1.6685588117986321
1040
0.0
1040
82.199999928457189
1040
1.6685588117986321
1040
0.4142135623730951
1040
82.499999928458294
1040
1.968558811798828
1040
0.0
1040
82.499999928458294
1040
2.618558811798692
1040
-0.4142135623730948
1040
82.799999928458476
1040
2.9185588117986319
1040
0.0
1040
82.999999928458294
1040
2.9185588117986319
1040
-0.4142135623730951
1040
83.499999928458294
1040
2.4185588117986319
1040
0.0
1040
83.499999928457385
1040
0.6685588117986328
1040
-0.4142135623727038
1040
82.999999928123614
1040
0.1685588117986043
1040
0.0
1040
85.070008116035595
1040
0.1685588117986043
1040
-0.0144489511593642
1071
        0
1070
     0
1070
     1
1040
1.5707963267948959
1040
0.25
1070
     0
1070
     2
1040
0.7853981633974484
1040
-0.0000000000002274
1040
-25.000000000000021
1040
0.5612660075668221
1040
-0.5612660075668221
1070
     0
1040
5.4977871437821371
1040
-0.0000000000002274
1040
-25.000000000000021
1040
-0.5612660075668221
1040
-0.5612660075668221
1070
     0
1040
0.0273279318620357
1071
        1
1040
83.532193531068458
1040
5.0108643734003939
1040
0.0
1002
}
  0
INSERT
  5
EAD
  8
SAPA_GLAS
  6
CONTINUOUS
  2
*X32
 10
0.0
 20
0.0
 30
0.0
1001
ACAD
1000
HATCH
1002
{
1070
    19
1000
ANSI37
1040
0.25
1040
1.5707963267948959
1000
R14_HATCH_DATA
1000
EAD
1011
1.0
1021
0.0
1031
0.0
1021
0.0
1031
0.0
1011
0.0
1021
0.0
1031
0.0
1021
1.0
1031
0.0
1011
0.0
1021
0.0
1031
0.0
1021
0.0
1031
1.0
1040
0.0
1010
0.0
1020
0.0
1030
1.0
1000
ANSI37
1070
     0
1070
     0
1071
        1
1071
        7
1070
     1
1070
     1
1071
       19
1040
132.95455140060039
1040
0.4999999999999716
1040
0.0
1040
134.4999999277546
1040
0.4999999999999716
1040
0.0
1040
134.4999999277546
1040
2.249999999999992
1040
-0.4142135623731036
1040
134.9999999277546
1040
2.749999999999992
1040
0.0
1040
135.29999992775029
1040
2.749999999999992
1040
-0.4142135623730641
1040
135.49999992775469
1040
2.5500000000029028
1040
0.0
1040
135.49999992775469
1040
1.70000000000072
1040
0.414213562373064
1040
135.69999992774439
1040
1.5000000000109059
1040
0.0
1040
136.69999992774439
1040
1.499999999999992
1040
0.4142135623731033
1040
137.19999992774439
1040
1.999999999999992
1040
0.0
1040
137.19999992774439
1040
7.9999999999999778
1040
0.4142135623731036
1040
136.69999992774439
1040
8.4999999999999787
1040
0.0
1040
135.69999992774439
1040
8.4999999999999787
1040
0.4142135623730533
1040
135.49999992774369
1040
8.3000000000029033
1040
0.0
1040
135.49999992775469
1040
7.4500000000007196
1040
-0.4142135623730744
1040
135.29999992775029
1040
7.2499999999999778
1040
0.0
1040
134.9999999277546
1040
7.2499999999999778
1040
-0.3959013923895183
1040
134.5009894552332
1040
7.7185588118230584
1040
0.0
1040
133.2801017249482
1040
7.7185588118230584
1040
-0.0138135988244473
1071
        0
1070
     0
1070
     1
1040
1.5707963267948959
1040
0.25
1070
     0
1070
     2
1040
0.7853981633974484
1040
-0.0000000000002274
1040
-25.000000000000021
1040
0.5612660075668221
1040
-0.5612660075668221
1070
     0
1040
5.4977871437821371
1040
-0.0000000000002274
1040
-25.000000000000021
1040
-0.5612660075668221
1040
-0.5612660075668221
1070
     0
1040
0.0213076291070774
1071
        1
1040
134.98724594988801
1040
4.6751223967903419
1040
0.0
1002
}
  0
INSERT
  5
13B6
  8
SAPA_ANSLUTNING
  6
CONTINUOUS
  2
*X33
 10
0.0
 20
0.0
 30
0.0
1001
ACAD
1000
HATCH
1002
{
1070
    19
1000
ANSI37
1040
0.25
1040
0.0
1000
R14_HATCH_DATA
1000
13B6
1011
1.0
1021
0.0
1031
0.0
1021
0.0
1031
0.0
1011
0.0
1021
0.0
1031
0.0
1021
1.0
1031
0.0
1011
0.0
1021
0.0
1031
0.0
1021
0.0
1031
1.0
1040
0.0
1010
0.0
1020
0.0
1030
1.0
1000
ANSI37
1070
     0
1070
     0
1071
        1
1071
        5
1071
        6
1070
     2
1040
137.4999999277546
1040
1.499999999985149
1040
1.4999999999999989
1040
5.49778714378209
1040
6.2831853071795569
1070
     1
1070
     1
1040
138.9999999277546
1040
1.499999999985107
1040
138.99999992775449
1040
12.33665123667563
1070
     3
1040
143.9999999277546
1040
12.33665123667595
1040
0.0
1040
5.6210574168242138
1040
0.8895123513655372
1040
1.5707963267948959
1040
2.144309431217978
1070
     1
1070
     3
1040
143.9999999277546
1040
12.33665123667595
1040
0.0
1040
5.6210574168242138
1040
0.8895123513655372
1040
2.144309431217978
1040
4.7123889803846888
1070
     1
1070
     1
1040
148.9999999277546
1040
12.33665123667531
1040
148.9999999277546
1040
0.0000000000000995
1070
     2
1040
142.90216751658309
1040
-20.64672129990231
1040
21.528368738726542
1040
1.2836189008757071
1040
1.773853352005716
1070
     1
1071
        0
1070
     0
1070
     1
1040
0.0
1040
0.25
1070
     0
1070
     2
1040
5.4977871437821371
1040
0.0000000000133866
1040
59.999999999985093
1040
-0.5612660075668221
1040
-0.5612660075668221
1070
     0
1040
3.926990816987241
1040
0.0000000000133866
1040
59.999999999985093
1040
-0.5612660075668221
1040
0.5612660075668221
1070
     0
1040
0.0591690278051155
1071
        1
1040
142.998676347003
1040
3.5796352870592041
1040
0.0
1002
}
  0
LINE
  5
13B7
  8
SAPA_ANSLUTNING
 10
13.99999999999986
 20
75.000000000005556
 30
0.0
 11
148.9999999277546
 21
75.000000000005528
 31
0.0
  0
LINE
  5
13B8
  8
SAPA_ANSLUTNING
 10
148.9999999277546
 20
0.0000000000000995
 30
0.0
 11
194.00325593441289
 21
0.0000000000000853
 31
0.0
  0
LINE
  5
13B9
  8
SAPA_ANSLUTNING
 10
148.9999999277546
 20
75.000000000005528
 30
0.0
 11
148.9999999277546
 21
0.0000000000000995
 31
0.0
  0
ARC
  5
13BA
  8
SAPA_ANSLUTNING
 10
142.90216751658309
 20
-20.646721299902438
 30
0.0
 40
21.52836873872667
 50
73.545945523399851
 51
101.6343105450598
  0
INSERT
  5
13BB
  8
SAPA_ANSLUTNING
  6
CONTINUOUS
  2
*X34
 10
0.0
 20
0.0
 30
0.0
1001
ACAD
1000
HATCH
1002
{
1070
    19
1000
HEX
1040
0.25
1040
0.0
1000
ASC_BOUNDS
1070
     1
1070
     1
1070
     1
1005
13BC
1000
ASC_SEEDPOINT
1011
144.24210993782921
1021
0.0
1031
0.0
1021
12.21831354761923
1031
0.0
1000
R14_HATCH_DATA
1000
13BB
1011
1.0
1021
0.0
1031
0.0
1021
0.0
1031
0.0
1011
0.0
1021
0.0
1031
0.0
1021
1.0
1031
0.0
1011
0.0
1021
0.0
1031
0.0
1021
0.0
1031
1.0
1040
0.0
1010
0.0
1020
0.0
1030
1.0
1000
HEX
1070
     0
1070
     1
1071
        1
1071
        5
1071
        1
1070
     3
1040
143.9999999277546
1040
12.33665123667595
1040
0.0
1040
5.6210574168242138
1040
0.8895123513655372
1040
0.0
1040
6.2831853071795862
1070
     0
1071
        1
1005
13BC
1070
     0
1070
     1
1040
0.0
1040
0.25
1070
     0
1070
     3
1040
0.0
1040
0.0000000000133866
1040
59.999999999985093
1040
0.0
1040
-1.374814999999999
1070
     2
1040
0.79375
1040
-1.587499999999999
1040
4.1887902047863914
1040
0.0000000000133866
1040
59.999999999985093
1040
-1.190624715503902
1040
0.6874074999999996
1070
     2
1040
0.7937499999999993
1040
-1.5874999999999979
1040
5.2359877559829879
1040
0.7937500000133753
1040
59.999999999985093
1040
-1.190624715503902
1040
-0.6874075000000001
1070
     2
1040
0.79375
1040
-1.587499999999999
1040
0.0591690278051155
1071
        1
1040
144.24210993782921
1040
12.21831354761923
1040
0.0
1002
}
  0
POLYLINE
  5
13BC
  8
SAPA_ANSLUTNING
 10
143.9999999277546
 20
17.957708653500163
 30
0.0
 66
     1
 70
     8
  0
VERTEX
  8
SAPA_ANSLUTNING
  5
1DDC
 10
144.000
 20
17.9577
 30
0.000000
  70
    32
  0
VERTEX
  8
SAPA_ANSLUTNING
  5
1DDD
 10
144.245
 20
17.9509
 30
0.000000
  70
    32
  0
VERTEX
  8
SAPA_ANSLUTNING
  5
1DDE
 10
144.490
 20
17.9306
 30
0.000000
  70
    32
  0
VERTEX
  8
SAPA_ANSLUTNING
  5
1DDF
 10
144.734
 20
17.8969
 30
0.000000
  70
    32
  0
VERTEX
  8
SAPA_ANSLUTNING
  5
1DE0
 10
144.975
 20
17.8497
 30
0.000000
  70
    32
  0
VERTEX
  8
SAPA_ANSLUTNING
  5
1DE1
 10
145.215
 20
17.7893
 30
0.000000
  70
    32
  0
VERTEX
  8
SAPA_ANSLUTNING
  5
1DE2
 10
145.451
 20
17.7157
 30
0.000000
  70
    32
  0
VERTEX
  8
SAPA_ANSLUTNING
  5
1DE3
 10
145.684
 20
17.6291
 30
0.000000
  70
    32
  0
VERTEX
  8
SAPA_ANSLUTNING
  5
1DE4
 10
145.913
 20
17.5298
 30
0.000000
  70
    32
  0
VERTEX
  8
SAPA_ANSLUTNING
  5
1DE5
 10
146.138
 20
17.4180
 30
0.000000
  70
    32
  0
VERTEX
  8
SAPA_ANSLUTNING
  5
1DE6
 10
146.357
 20
17.2940
 30
0.000000
  70
    32
  0
VERTEX
  8
SAPA_ANSLUTNING
  5
1DE7
 10
146.571
 20
17.1580
 30
0.000000
  70
    32
  0
VERTEX
  8
SAPA_ANSLUTNING
  5
1DE8
 10
146.778
 20
17.0104
 30
0.000000
  70
    32
  0
VERTEX
  8
SAPA_ANSLUTNING
  5
1DE9
 10
146.978
 20
16.8515
 30
0.000000
  70
    32
  0
VERTEX
  8
SAPA_ANSLUTNING
  5
1DEA
 10
147.172
 20
16.6818
 30
0.000000
  70
    32
  0
VERTEX
  8
SAPA_ANSLUTNING
  5
1DEB
 10
147.358
 20
16.5016
 30
0.000000
  70
    32
  0
VERTEX
  8
SAPA_ANSLUTNING
  5
1DEC
 10
147.536
 20
16.3113
 30
0.000000
  70
    32
  0
VERTEX
  8
SAPA_ANSLUTNING
  5
1DED
 10
147.705
 20
16.1115
 30
0.000000
  70
    32
  0
VERTEX
  8
SAPA_ANSLUTNING
  5
1DEE
 10
147.865
 20
15.9026
 30
0.000000
  70
    32
  0
VERTEX
  8
SAPA_ANSLUTNING
  5
1DEF
 10
148.016
 20
15.6851
 30
0.000000
  70
    32
  0
VERTEX
  8
SAPA_ANSLUTNING
  5
1DF0
 10
148.157
 20
15.4595
 30
0.000000
  70
    32
  0
VERTEX
  8
SAPA_ANSLUTNING
  5
1DF1
 10
148.289
 20
15.2265
 30
0.000000
  70
    32
  0
VERTEX
  8
SAPA_ANSLUTNING
  5
1DF2
 10
148.410
 20
14.9864
 30
0.000000
  70
    32
  0
VERTEX
  8
SAPA_ANSLUTNING
  5
1DF3
 10
148.520
 20
14.7400
 30
0.000000
  70
    32
  0
VERTEX
  8
SAPA_ANSLUTNING
  5
1DF4
 10
148.619
 20
14.4877
 30
0.000000
  70
    32
  0
VERTEX
  8
SAPA_ANSLUTNING
  5
1DF5
 10
148.708
 20
14.2303
 30
0.000000
  70
    32
  0
VERTEX
  8
SAPA_ANSLUTNING
  5
1DF6
 10
148.785
 20
13.9684
 30
0.000000
  70
    32
  0
VERTEX
  8
SAPA_ANSLUTNING
  5
1DF7
 10
148.850
 20
13.7025
 30
0.000000
  70
    32
  0
VERTEX
  8
SAPA_ANSLUTNING
  5
1DF8
 10
148.904
 20
13.4333
 30
0.000000
  70
    32
  0
VERTEX
  8
SAPA_ANSLUTNING
  5
1DF9
 10
148.946
 20
13.1614
 30
0.000000
  70
    32
  0
VERTEX
  8
SAPA_ANSLUTNING
  5
1DFA
 10
148.976
 20
12.8876
 30
0.000000
  70
    32
  0
VERTEX
  8
SAPA_ANSLUTNING
  5
1DFB
 10
148.994
 20
12.6125
 30
0.000000
  70
    32
  0
VERTEX
  8
SAPA_ANSLUTNING
  5
1DFC
 10
149.000
 20
12.3367
 30
0.000000
  70
    32
  0
VERTEX
  8
SAPA_ANSLUTNING
  5
1DFD
 10
148.994
 20
12.0608
 30
0.000000
  70
    32
  0
VERTEX
  8
SAPA_ANSLUTNING
  5
1DFE
 10
148.976
 20
11.7857
 30
0.000000
  70
    32
  0
VERTEX
  8
SAPA_ANSLUTNING
  5
1DFF
 10
148.946
 20
11.5119
 30
0.000000
  70
    32
  0
VERTEX
  8
SAPA_ANSLUTNING
  5
1E00
 10
148.904
 20
11.2400
 30
0.000000
  70
    32
  0
VERTEX
  8
SAPA_ANSLUTNING
  5
1E01
 10
148.850
 20
10.9708
 30
0.000000
  70
    32
  0
VERTEX
  8
SAPA_ANSLUTNING
  5
1E02
 10
148.785
 20
10.7049
 30
0.000000
  70
    32
  0
VERTEX
  8
SAPA_ANSLUTNING
  5
1E03
 10
148.708
 20
10.4430
 30
0.000000
  70
    32
  0
VERTEX
  8
SAPA_ANSLUTNING
  5
1E04
 10
148.619
 20
10.1856
 30
0.000000
  70
    32
  0
VERTEX
  8
SAPA_ANSLUTNING
  5
1E05
 10
148.520
 20
9.93334
 30
0.000000
  70
    32
  0
VERTEX
  8
SAPA_ANSLUTNING
  5
1E06
 10
148.410
 20
9.68690
 30
0.000000
  70
    32
  0
VERTEX
  8
SAPA_ANSLUTNING
  5
1E07
 10
148.289
 20
9.44685
 30
0.000000
  70
    32
  0
VERTEX
  8
SAPA_ANSLUTNING
  5
1E08
 10
148.157
 20
9.21376
 30
0.000000
  70
    32
  0
VERTEX
  8
SAPA_ANSLUTNING
  5
1E09
 10
148.016
 20
8.98819
 30
0.000000
  70
    32
  0
VERTEX
  8
SAPA_ANSLUTNING
  5
1E0A
 10
147.865
 20
8.77069
 30
0.000000
  70
    32
  0
VERTEX
  8
SAPA_ANSLUTNING
  5
1E0B
 10
147.705
 20
8.56178
 30
0.000000
  70
    32
  0
VERTEX
  8
SAPA_ANSLUTNING
  5
1E0C
 10
147.536
 20
8.36196
 30
0.000000
  70
    32
  0
VERTEX
  8
SAPA_ANSLUTNING
  5
1E0D
 10
147.358
 20
8.17172
 30
0.000000
  70
    32
  0
VERTEX
  8
SAPA_ANSLUTNING
  5
1E0E
 10
147.172
 20
7.99152
 30
0.000000
  70
    32
  0
VERTEX
  8
SAPA_ANSLUTNING
  5
1E0F
 10
146.978
 20
7.82178
 30
0.000000
  70
    32
  0
VERTEX
  8
SAPA_ANSLUTNING
  5
1E10
 10
146.778
 20
7.66291
 30
0.000000
  70
    32
  0
VERTEX
  8
SAPA_ANSLUTNING
  5
1E11
 10
146.571
 20
7.51531
 30
0.000000
  70
    32
  0
VERTEX
  8
SAPA_ANSLUTNING
  5
1E12
 10
146.357
 20
7.37932
 30
0.000000
  70
    32
  0
VERTEX
  8
SAPA_ANSLUTNING
  5
1E13
 10
146.138
 20
7.25528
 30
0.000000
  70
    32
  0
VERTEX
  8
SAPA_ANSLUTNING
  5
1E14
 10
145.913
 20
7.14347
 30
0.000000
  70
    32
  0
VERTEX
  8
SAPA_ANSLUTNING
  5
1E15
 10
145.684
 20
7.04418
 30
0.000000
  70
    32
  0
VERTEX
  8
SAPA_ANSLUTNING
  5
1E16
 10
145.451
 20
6.95763
 30
0.000000
  70
    32
  0
VERTEX
  8
SAPA_ANSLUTNING
  5
1E17
 10
145.215
 20
6.88405
 30
0.000000
  70
    32
  0
VERTEX
  8
SAPA_ANSLUTNING
  5
1E18
 10
144.975
 20
6.82360
 30
0.000000
  70
    32
  0
VERTEX
  8
SAPA_ANSLUTNING
  5
1E19
 10
144.734
 20
6.77643
 30
0.000000
  70
    32
  0
VERTEX
  8
SAPA_ANSLUTNING
  5
1E1A
 10
144.490
 20
6.74266
 30
0.000000
  70
    32
  0
VERTEX
  8
SAPA_ANSLUTNING
  5
1E1B
 10
144.245
 20
6.72236
 30
0.000000
  70
    32
  0
VERTEX
  8
SAPA_ANSLUTNING
  5
1E1C
 10
144.000
 20
6.71559
 30
0.000000
  70
    32
  0
VERTEX
  8
SAPA_ANSLUTNING
  5
1E1D
 10
143.755
 20
6.72236
 30
0.000000
  70
    32
  0
VERTEX
  8
SAPA_ANSLUTNING
  5
1E1E
 10
143.510
 20
6.74266
 30
0.000000
  70
    32
  0
VERTEX
  8
SAPA_ANSLUTNING
  5
1E1F
 10
143.266
 20
6.77643
 30
0.000000
  70
    32
  0
VERTEX
  8
SAPA_ANSLUTNING
  5
1E20
 10
143.025
 20
6.82360
 30
0.000000
  70
    32
  0
VERTEX
  8
SAPA_ANSLUTNING
  5
1E21
 10
142.785
 20
6.88405
 30
0.000000
  70
    32
  0
VERTEX
  8
SAPA_ANSLUTNING
  5
1E22
 10
142.549
 20
6.95763
 30
0.000000
  70
    32
  0
VERTEX
  8
SAPA_ANSLUTNING
  5
1E23
 10
142.316
 20
7.04418
 30
0.000000
  70
    32
  0
VERTEX
  8
SAPA_ANSLUTNING
  5
1E24
 10
142.087
 20
7.14347
 30
0.000000
  70
    32
  0
VERTEX
  8
SAPA_ANSLUTNING
  5
1E25
 10
141.862
 20
7.25528
 30
0.000000
  70
    32
  0
VERTEX
  8
SAPA_ANSLUTNING
  5
1E26
 10
141.643
 20
7.37932
 30
0.000000
  70
    32
  0
VERTEX
  8
SAPA_ANSLUTNING
  5
1E27
 10
141.429
 20
7.51531
 30
0.000000
  70
    32
  0
VERTEX
  8
SAPA_ANSLUTNING
  5
1E28
 10
141.222
 20
7.66291
 30
0.000000
  70
    32
  0
VERTEX
  8
SAPA_ANSLUTNING
  5
1E29
 10
141.022
 20
7.82178
 30
0.000000
  70
    32
  0
VERTEX
  8
SAPA_ANSLUTNING
  5
1E2A
 10
140.828
 20
7.99152
 30
0.000000
  70
    32
  0
VERTEX
  8
SAPA_ANSLUTNING
  5
1E2B
 10
140.642
 20
8.17172
 30
0.000000
  70
    32
  0
VERTEX
  8
SAPA_ANSLUTNING
  5
1E2C
 10
140.464
 20
8.36196
 30
0.000000
  70
    32
  0
VERTEX
  8
SAPA_ANSLUTNING
  5
1E2D
 10
140.295
 20
8.56178
 30
0.000000
  70
    32
  0
VERTEX
  8
SAPA_ANSLUTNING
  5
1E2E
 10
140.135
 20
8.77069
 30
0.000000
  70
    32
  0
VERTEX
  8
SAPA_ANSLUTNING
  5
1E2F
 10
139.984
 20
8.98819
 30
0.000000
  70
    32
  0
VERTEX
  8
SAPA_ANSLUTNING
  5
1E30
 10
139.843
 20
9.21376
 30
0.000000
  70
    32
  0
VERTEX
  8
SAPA_ANSLUTNING
  5
1E31
 10
139.711
 20
9.44685
 30
0.000000
  70
    32
  0
VERTEX
  8
SAPA_ANSLUTNING
  5
1E32
 10
139.590
 20
9.68690
 30
0.000000
  70
    32
  0
VERTEX
  8
SAPA_ANSLUTNING
  5
1E33
 10
139.480
 20
9.93334
 30
0.000000
  70
    32
  0
VERTEX
  8
SAPA_ANSLUTNING
  5
1E34
 10
139.381
 20
10.1856
 30
0.000000
  70
    32
  0
VERTEX
  8
SAPA_ANSLUTNING
  5
1E35
 10
139.292
 20
10.4430
 30
0.000000
  70
    32
  0
VERTEX
  8
SAPA_ANSLUTNING
  5
1E36
 10
139.215
 20
10.7049
 30
0.000000
  70
    32
  0
VERTEX
  8
SAPA_ANSLUTNING
  5
1E37
 10
139.150
 20
10.9708
 30
0.000000
  70
    32
  0
VERTEX
  8
SAPA_ANSLUTNING
  5
1E38
 10
139.096
 20
11.2400
 30
0.000000
  70
    32
  0
VERTEX
  8
SAPA_ANSLUTNING
  5
1E39
 10
139.054
 20
11.5119
 30
0.000000
  70
    32
  0
VERTEX
  8
SAPA_ANSLUTNING
  5
1E3A
 10
139.024
 20
11.7857
 30
0.000000
  70
    32
  0
VERTEX
  8
SAPA_ANSLUTNING
  5
1E3B
 10
139.006
 20
12.0608
 30
0.000000
  70
    32
  0
VERTEX
  8
SAPA_ANSLUTNING
  5
1E3C
 10
139.000
 20
12.3367
 30
0.000000
  70
    32
  0
VERTEX
  8
SAPA_ANSLUTNING
  5
1E3D
 10
139.006
 20
12.6125
 30
0.000000
  70
    32
  0
VERTEX
  8
SAPA_ANSLUTNING
  5
1E3E
 10
139.024
 20
12.8876
 30
0.000000
  70
    32
  0
VERTEX
  8
SAPA_ANSLUTNING
  5
1E3F
 10
139.054
 20
13.1614
 30
0.000000
  70
    32
  0
VERTEX
  8
SAPA_ANSLUTNING
  5
1E40
 10
139.096
 20
13.4333
 30
0.000000
  70
    32
  0
VERTEX
  8
SAPA_ANSLUTNING
  5
1E41
 10
139.150
 20
13.7025
 30
0.000000
  70
    32
  0
VERTEX
  8
SAPA_ANSLUTNING
  5
1E42
 10
139.215
 20
13.9684
 30
0.000000
  70
    32
  0
VERTEX
  8
SAPA_ANSLUTNING
  5
1E43
 10
139.292
 20
14.2303
 30
0.000000
  70
    32
  0
VERTEX
  8
SAPA_ANSLUTNING
  5
1E44
 10
139.381
 20
14.4877
 30
0.000000
  70
    32
  0
VERTEX
  8
SAPA_ANSLUTNING
  5
1E45
 10
139.480
 20
14.7400
 30
0.000000
  70
    32
  0
VERTEX
  8
SAPA_ANSLUTNING
  5
1E46
 10
139.590
 20
14.9864
 30
0.000000
  70
    32
  0
VERTEX
  8
SAPA_ANSLUTNING
  5
1E47
 10
139.711
 20
15.2265
 30
0.000000
  70
    32
  0
VERTEX
  8
SAPA_ANSLUTNING
  5
1E48
 10
139.843
 20
15.4595
 30
0.000000
  70
    32
  0
VERTEX
  8
SAPA_ANSLUTNING
  5
1E49
 10
139.984
 20
15.6851
 30
0.000000
  70
    32
  0
VERTEX
  8
SAPA_ANSLUTNING
  5
1E4A
 10
140.135
 20
15.9026
 30
0.000000
  70
    32
  0
VERTEX
  8
SAPA_ANSLUTNING
  5
1E4B
 10
140.295
 20
16.1115
 30
0.000000
  70
    32
  0
VERTEX
  8
SAPA_ANSLUTNING
  5
1E4C
 10
140.464
 20
16.3113
 30
0.000000
  70
    32
  0
VERTEX
  8
SAPA_ANSLUTNING
  5
1E4D
 10
140.642
 20
16.5016
 30
0.000000
  70
    32
  0
VERTEX
  8
SAPA_ANSLUTNING
  5
1E4E
 10
140.828
 20
16.6818
 30
0.000000
  70
    32
  0
VERTEX
  8
SAPA_ANSLUTNING
  5
1E4F
 10
141.022
 20
16.8515
 30
0.000000
  70
    32
  0
VERTEX
  8
SAPA_ANSLUTNING
  5
1E50
 10
141.222
 20
17.0104
 30
0.000000
  70
    32
  0
VERTEX
  8
SAPA_ANSLUTNING
  5
1E51
 10
141.429
 20
17.1580
 30
0.000000
  70
    32
  0
VERTEX
  8
SAPA_ANSLUTNING
  5
1E52
 10
141.643
 20
17.2940
 30
0.000000
  70
    32
  0
VERTEX
  8
SAPA_ANSLUTNING
  5
1E53
 10
141.862
 20
17.4180
 30
0.000000
  70
    32
  0
VERTEX
  8
SAPA_ANSLUTNING
  5
1E54
 10
142.087
 20
17.5298
 30
0.000000
  70
    32
  0
VERTEX
  8
SAPA_ANSLUTNING
  5
1E55
 10
142.316
 20
17.6291
 30
0.000000
  70
    32
  0
VERTEX
  8
SAPA_ANSLUTNING
  5
1E56
 10
142.549
 20
17.7157
 30
0.000000
  70
    32
  0
VERTEX
  8
SAPA_ANSLUTNING
  5
1E57
 10
142.785
 20
17.7893
 30
0.000000
  70
    32
  0
VERTEX
  8
SAPA_ANSLUTNING
  5
1E58
 10
143.025
 20
17.8497
 30
0.000000
  70
    32
  0
VERTEX
  8
SAPA_ANSLUTNING
  5
1E59
 10
143.266
 20
17.8969
 30
0.000000
  70
    32
  0
VERTEX
  8
SAPA_ANSLUTNING
  5
1E5A
 10
143.510
 20
17.9306
 30
0.000000
  70
    32
  0
VERTEX
  8
SAPA_ANSLUTNING
  5
1E5B
 10
143.755
 20
17.9509
 30
0.000000
  70
    32
  0
VERTEX
  8
SAPA_ANSLUTNING
  5
1E5C
 10
144.000
 20
17.9577
 30
0.000000
  70
    32
  0
SEQEND
  8
SAPA_ANSLUTNING
  5
1E5D
  0
POLYLINE
  5
13BD
  8
SAPA_ANSLUTNING
 66
     1
 10
0.0
 20
0.0
 30
0.0
  0
VERTEX
  5
17C7
  8
SAPA_ANSLUTNING
 10
140.5010714710956
 20
16.352069590546659
 30
0.0
 42
-0.8812634091771133
  0
VERTEX
  5
17C8
  8
SAPA_ANSLUTNING
 10
140.9999999277546
 20
20.28883761876682
 30
0.0
  0
VERTEX
  5
17C9
  8
SAPA_ANSLUTNING
 10
146.9999999277546
 20
20.28883761876682
 30
0.0
 42
0.9999999999999998
  0
VERTEX
  5
17CA
  8
SAPA_ANSLUTNING
 10
146.9999999277546
 20
24.28883761876682
 30
0.0
  0
VERTEX
  5
17CB
  8
SAPA_ANSLUTNING
 10
140.9999999277546
 20
24.288837618766809
 30
0.0
 42
-0.9999999999999998
  0
VERTEX
  5
17CC
  8
SAPA_ANSLUTNING
 10
140.9999999277546
 20
28.288837618766809
 30
0.0
  0
VERTEX
  5
17CD
  8
SAPA_ANSLUTNING
 10
146.9999999277546
 20
28.28883761876682
 30
0.0
 42
0.9999999999999998
  0
VERTEX
  5
17CE
  8
SAPA_ANSLUTNING
 10
146.9999999277546
 20
32.288837618766813
 30
0.0
  0
VERTEX
  5
17CF
  8
SAPA_ANSLUTNING
 10
140.9999999277546
 20
32.288837618766813
 30
0.0
 42
-0.9999999999999998
  0
VERTEX
  5
17D0
  8
SAPA_ANSLUTNING
 10
140.9999999277546
 20
36.288837618766813
 30
0.0
  0
VERTEX
  5
17D1
  8
SAPA_ANSLUTNING
 10
146.9999999277546
 20
36.288837618766813
 30
0.0
 42
0.9999999999999998
  0
VERTEX
  5
17D2
  8
SAPA_ANSLUTNING
 10
146.9999999277546
 20
40.288837618766799
 30
0.0
  0
VERTEX
  5
17D3
  8
SAPA_ANSLUTNING
 10
140.9999999277546
 20
40.288837618766799
 30
0.0
 42
-0.9999999999999998
  0
VERTEX
  5
17D4
  8
SAPA_ANSLUTNING
 10
140.9999999277546
 20
44.288837618766799
 30
0.0
  0
VERTEX
  5
17D5
  8
SAPA_ANSLUTNING
 10
146.9999999277546
 20
44.288837618766799
 30
0.0
 42
0.9999999999999998
  0
VERTEX
  5
17D6
  8
SAPA_ANSLUTNING
 10
146.9999999277546
 20
48.288837618766813
 30
0.0
  0
VERTEX
  5
17D7
  8
SAPA_ANSLUTNING
 10
140.9999999277546
 20
48.288837618766813
 30
0.0
 42
-0.9999999999999998
  0
VERTEX
  5
17D8
  8
SAPA_ANSLUTNING
 10
140.9999999277546
 20
52.288837618766799
 30
0.0
  0
VERTEX
  5
17D9
  8
SAPA_ANSLUTNING
 10
146.9999999277546
 20
52.288837618766799
 30
0.0
 42
0.9999999999999998
  0
VERTEX
  5
17DA
  8
SAPA_ANSLUTNING
 10
146.9999999277546
 20
56.288837618766799
 30
0.0
  0
VERTEX
  5
17DB
  8
SAPA_ANSLUTNING
 10
140.9999999277546
 20
56.288837618766799
 30
0.0
 42
-0.9999999999999998
  0
VERTEX
  5
17DC
  8
SAPA_ANSLUTNING
 10
140.9999999277546
 20
60.288837618766813
 30
0.0
  0
VERTEX
  5
17DD
  8
SAPA_ANSLUTNING
 10
146.9999999277546
 20
60.288837618766813
 30
0.0
 42
0.9999999999999998
  0
VERTEX
  5
17DE
  8
SAPA_ANSLUTNING
 10
146.9999999277546
 20
64.288837618766806
 30
0.0
  0
VERTEX
  5
17DF
  8
SAPA_ANSLUTNING
 10
140.9999999277546
 20
64.288837618766806
 30
0.0
 42
-0.9999999999999998
  0
VERTEX
  5
17E0
  8
SAPA_ANSLUTNING
 10
140.9999999277546
 20
68.288837618766806
 30
0.0
  0
VERTEX
  5
17E1
  8
SAPA_ANSLUTNING
 10
146.9999999277546
 20
68.288837618766806
 30
0.0
 42
0.9999999999999998
  0
VERTEX
  5
17E2
  8
SAPA_ANSLUTNING
 10
146.9999999277546
 20
72.288837618766806
 30
0.0
  0
VERTEX
  5
17E3
  8
SAPA_ANSLUTNING
 10
140.9999999277546
 20
72.288837618766806
 30
0.0
 42
-0.5251735434384823
  0
VERTEX
  5
17E4
  8
SAPA_ANSLUTNING
 10
139.13070913509799
 20
75.000000000005528
 30
0.0
 42
-0.5251735434384823
  0
SEQEND
  5
17E5
  8
SAPA_ANSLUTNING
  0
LINE
  5
13BE
  8
SAPA_ANSLUTNING
 10
13.99999999999986
 20
0.0000000000000711
 30
0.0
 11
-30.619466477046021
 21
0.0000000000000711
 31
0.0
  0
LINE
  5
13BF
  8
SAPA_ANSLUTNING
 10
13.99999999999986
 20
0.0000000000000711
 30
0.0
 11
13.99999999999986
 21
75.000000000005556
 31
0.0
  0
POLYLINE
  5
13C0
  8
SAPA_ANSLUTNING
 66
     1
 10
0.0
 20
0.0
 30
0.0
  0
VERTEX
  5
17E6
  8
SAPA_ANSLUTNING
 10
13.99999999999986
 20
73.498928456659115
 30
0.0
 42
-0.8812634091771133
  0
VERTEX
  5
17E7
  8
SAPA_ANSLUTNING
 10
17.936768028220008
 20
73.000000000000043
 30
0.0
  0
VERTEX
  5
17E8
  8
SAPA_ANSLUTNING
 10
17.936768028220008
 20
62.000000000000043
 30
0.0
 42
0.9999999999999998
  0
VERTEX
  5
17E9
  8
SAPA_ANSLUTNING
 10
21.936768028220019
 20
62.000000000000043
 30
0.0
  0
VERTEX
  5
17EA
  8
SAPA_ANSLUTNING
 10
21.936768028220001
 20
73.000000000000043
 30
0.0
 42
-0.9999999999999998
  0
VERTEX
  5
17EB
  8
SAPA_ANSLUTNING
 10
25.936768028220001
 20
73.000000000000043
 30
0.0
  0
VERTEX
  5
17EC
  8
SAPA_ANSLUTNING
 10
25.936768028220019
 20
62.000000000000043
 30
0.0
 42
0.9999999999999998
  0
VERTEX
  5
17ED
  8
SAPA_ANSLUTNING
 10
29.936768028220008
 20
62.000000000000043
 30
0.0
  0
VERTEX
  5
17EE
  8
SAPA_ANSLUTNING
 10
29.936768028220001
 20
73.000000000000043
 30
0.0
 42
-0.9999999999999998
  0
VERTEX
  5
17EF
  8
SAPA_ANSLUTNING
 10
33.936768028220001
 20
73.000000000000043
 30
0.0
  0
VERTEX
  5
17F0
  8
SAPA_ANSLUTNING
 10
33.936768028220001
 20
62.000000000000043
 30
0.0
 42
0.9999999999999998
  0
VERTEX
  5
17F1
  8
SAPA_ANSLUTNING
 10
37.936768028220001
 20
62.000000000000043
 30
0.0
  0
VERTEX
  5
17F2
  8
SAPA_ANSLUTNING
 10
37.936768028220001
 20
73.000000000000043
 30
0.0
 42
-0.9999999999999998
  0
VERTEX
  5
17F3
  8
SAPA_ANSLUTNING
 10
41.936768028219987
 20
73.000000000000043
 30
0.0
  0
VERTEX
  5
17F4
  8
SAPA_ANSLUTNING
 10
41.936768028219987
 20
62.000000000000043
 30
0.0
 42
0.9999999999999998
  0
VERTEX
  5
17F5
  8
SAPA_ANSLUTNING
 10
45.936768028220001
 20
62.000000000000043
 30
0.0
  0
VERTEX
  5
17F6
  8
SAPA_ANSLUTNING
 10
45.936768028220001
 20
73.000000000000043
 30
0.0
 42
-0.9999999999999998
  0
VERTEX
  5
17F7
  8
SAPA_ANSLUTNING
 10
49.936768028220001
 20
73.000000000000043
 30
0.0
  0
VERTEX
  5
17F8
  8
SAPA_ANSLUTNING
 10
49.936768028220001
 20
62.000000000000043
 30
0.0
 42
0.9999999999999998
  0
VERTEX
  5
17F9
  8
SAPA_ANSLUTNING
 10
53.936768028220001
 20
62.000000000000043
 30
0.0
  0
VERTEX
  5
17FA
  8
SAPA_ANSLUTNING
 10
53.936768028220001
 20
73.000000000000043
 30
0.0
 42
-0.9999999999999998
  0
VERTEX
  5
17FB
  8
SAPA_ANSLUTNING
 10
57.936768028220001
 20
73.000000000000043
 30
0.0
  0
VERTEX
  5
17FC
  8
SAPA_ANSLUTNING
 10
57.936768028220001
 20
62.000000000000043
 30
0.0
 42
0.9999999999999998
  0
VERTEX
  5
17FD
  8
SAPA_ANSLUTNING
 10
61.936768028220001
 20
62.000000000000043
 30
0.0
  0
VERTEX
  5
17FE
  8
SAPA_ANSLUTNING
 10
61.936768028220001
 20
73.000000000000043
 30
0.0
 42
-0.9999999999999998
  0
VERTEX
  5
17FF
  8
SAPA_ANSLUTNING
 10
65.936768028220001
 20
73.000000000000043
 30
0.0
  0
VERTEX
  5
1800
  8
SAPA_ANSLUTNING
 10
65.936768028220001
 20
62.000000000000043
 30
0.0
 42
0.9999999999999998
  0
VERTEX
  5
1801
  8
SAPA_ANSLUTNING
 10
69.936768028220001
 20
62.000000000000043
 30
0.0
  0
VERTEX
  5
1802
  8
SAPA_ANSLUTNING
 10
69.936768028220001
 20
73.000000000000043
 30
0.0
 42
-0.5251735434384823
  0
VERTEX
  5
1803
  8
SAPA_ANSLUTNING
 10
72.647930409458723
 20
74.869290792656656
 30
0.0
 42
-0.5251735434384823
  0
SEQEND
  5
1804
  8
SAPA_ANSLUTNING
  0
POLYLINE
  5
13C1
  8
SAPA_ANSLUTNING
 66
     1
 10
0.0
 20
0.0
 30
0.0
  0
VERTEX
  5
1805
  8
SAPA_ANSLUTNING
 10
61.999999999999851
 20
73.498928456659115
 30
0.0
 42
-0.8812634091771133
  0
VERTEX
  5
1806
  8
SAPA_ANSLUTNING
 10
65.936768028220001
 20
73.000000000000043
 30
0.0
  0
VERTEX
  5
1807
  8
SAPA_ANSLUTNING
 10
65.936768028220001
 20
62.000000000000043
 30
0.0
 42
0.9999999999999998
  0
VERTEX
  5
1808
  8
SAPA_ANSLUTNING
 10
69.936768028220001
 20
62.000000000000043
 30
0.0
  0
VERTEX
  5
1809
  8
SAPA_ANSLUTNING
 10
69.936768028219987
 20
73.000000000000043
 30
0.0
 42
-0.9999999999999998
  0
VERTEX
  5
180A
  8
SAPA_ANSLUTNING
 10
73.936768028219987
 20
73.000000000000043
 30
0.0
  0
VERTEX
  5
180B
  8
SAPA_ANSLUTNING
 10
73.936768028220001
 20
62.000000000000043
 30
0.0
 42
0.9999999999999998
  0
VERTEX
  5
180C
  8
SAPA_ANSLUTNING
 10
77.936768028220001
 20
62.000000000000043
 30
0.0
  0
VERTEX
  5
180D
  8
SAPA_ANSLUTNING
 10
77.936768028219987
 20
73.000000000000043
 30
0.0
 42
-0.9999999999999998
  0
VERTEX
  5
180E
  8
SAPA_ANSLUTNING
 10
81.936768028219987
 20
73.000000000000043
 30
0.0
  0
VERTEX
  5
180F
  8
SAPA_ANSLUTNING
 10
81.936768028219987
 20
62.000000000000043
 30
0.0
 42
0.9999999999999998
  0
VERTEX
  5
1810
  8
SAPA_ANSLUTNING
 10
85.936768028219987
 20
62.000000000000043
 30
0.0
  0
VERTEX
  5
1811
  8
SAPA_ANSLUTNING
 10
85.936768028219987
 20
73.000000000000043
 30
0.0
 42
-0.9999999999999998
  0
VERTEX
  5
1812
  8
SAPA_ANSLUTNING
 10
89.936768028219987
 20
73.000000000000043
 30
0.0
  0
VERTEX
  5
1813
  8
SAPA_ANSLUTNING
 10
89.936768028219987
 20
62.000000000000043
 30
0.0
 42
0.9999999999999998
  0
VERTEX
  5
1814
  8
SAPA_ANSLUTNING
 10
93.936768028219987
 20
62.000000000000043
 30
0.0
  0
VERTEX
  5
1815
  8
SAPA_ANSLUTNING
 10
93.936768028219987
 20
73.000000000000043
 30
0.0
 42
-0.9999999999999998
  0
VERTEX
  5
1816
  8
SAPA_ANSLUTNING
 10
97.936768028219987
 20
73.000000000000043
 30
0.0
  0
VERTEX
  5
1817
  8
SAPA_ANSLUTNING
 10
97.936768028219987
 20
62.000000000000043
 30
0.0
 42
0.9999999999999998
  0
VERTEX
  5
1818
  8
SAPA_ANSLUTNING
 10
101.93676802822
 20
62.000000000000043
 30
0.0
  0
VERTEX
  5
1819
  8
SAPA_ANSLUTNING
 10
101.93676802822
 20
73.000000000000043
 30
0.0
 42
-0.9999999999999998
  0
VERTEX
  5
181A
  8
SAPA_ANSLUTNING
 10
105.93676802822
 20
73.000000000000043
 30
0.0
  0
VERTEX
  5
181B
  8
SAPA_ANSLUTNING
 10
105.93676802822
 20
62.000000000000043
 30
0.0
 42
0.9999999999999998
  0
VERTEX
  5
181C
  8
SAPA_ANSLUTNING
 10
109.9367680282199
 20
62.000000000000043
 30
0.0
  0
VERTEX
  5
181D
  8
SAPA_ANSLUTNING
 10
109.9367680282199
 20
73.000000000000043
 30
0.0
 42
-0.9999999999999998
  0
VERTEX
  5
181E
  8
SAPA_ANSLUTNING
 10
113.9367680282199
 20
73.000000000000043
 30
0.0
  0
VERTEX
  5
181F
  8
SAPA_ANSLUTNING
 10
113.9367680282199
 20
62.000000000000043
 30
0.0
 42
0.9999999999999998
  0
VERTEX
  5
1820
  8
SAPA_ANSLUTNING
 10
117.9367680282199
 20
62.000000000000043
 30
0.0
  0
VERTEX
  5
1821
  8
SAPA_ANSLUTNING
 10
117.9367680282199
 20
73.000000000000043
 30
0.0
 42
-0.5251735434384823
  0
VERTEX
  5
1822
  8
SAPA_ANSLUTNING
 10
120.6479304094587
 20
74.869290792656656
 30
0.0
 42
-0.5251735434384823
  0
SEQEND
  5
1823
  8
SAPA_ANSLUTNING
  0
POLYLINE
  5
13C2
  8
SAPA_ANSLUTNING
 66
     1
 10
0.0
 20
0.0
 30
0.0
  0
VERTEX
  5
1824
  8
SAPA_ANSLUTNING
 10
109.9999999999998
 20
73.498928456659115
 30
0.0
 42
-0.8812634091771133
  0
VERTEX
  5
1825
  8
SAPA_ANSLUTNING
 10
113.9367680282199
 20
73.000000000000043
 30
0.0
  0
VERTEX
  5
1826
  8
SAPA_ANSLUTNING
 10
113.9367680282199
 20
62.000000000000043
 30
0.0
 42
0.9999999999999998
  0
VERTEX
  5
1827
  8
SAPA_ANSLUTNING
 10
117.9367680282199
 20
62.000000000000043
 30
0.0
  0
VERTEX
  5
1828
  8
SAPA_ANSLUTNING
 10
117.9367680282199
 20
73.000000000000043
 30
0.0
 42
-0.9999999999999998
  0
VERTEX
  5
1829
  8
SAPA_ANSLUTNING
 10
121.9367680282199
 20
73.000000000000043
 30
0.0
  0
VERTEX
  5
182A
  8
SAPA_ANSLUTNING
 10
121.9367680282199
 20
62.000000000000043
 30
0.0
 42
0.9999999999999998
  0
VERTEX
  5
182B
  8
SAPA_ANSLUTNING
 10
125.93676802822
 20
62.000000000000043
 30
0.0
  0
VERTEX
  5
182C
  8
SAPA_ANSLUTNING
 10
125.93676802822
 20
73.000000000000043
 30
0.0
 42
-0.9999999999999998
  0
VERTEX
  5
182D
  8
SAPA_ANSLUTNING
 10
129.93676802822
 20
73.000000000000043
 30
0.0
  0
VERTEX
  5
182E
  8
SAPA_ANSLUTNING
 10
129.93676802822
 20
62.000000000000043
 30
0.0
 42
0.9999999999999998
  0
VERTEX
  5
182F
  8
SAPA_ANSLUTNING
 10
133.93676802821989
 20
62.000000000000043
 30
0.0
  0
VERTEX
  5
1830
  8
SAPA_ANSLUTNING
 10
133.93676802821989
 20
73.000000000000043
 30
0.0
 42
-0.9999999999999998
  0
VERTEX
  5
1831
  8
SAPA_ANSLUTNING
 10
137.93676802821989
 20
73.000000000000043
 30
0.0
  0
VERTEX
  5
1832
  8
SAPA_ANSLUTNING
 10
137.93676802821989
 20
62.000000000000043
 30
0.0
 42
0.4183530514568368
  0
VERTEX
  5
1833
  8
SAPA_ANSLUTNING
 10
139.964991865803
 20
60.000199156167788
 30
0.0
 42
0.4183530514568368
  0
SEQEND
  5
1834
  8
SAPA_ANSLUTNING
  0
LINE
  5
15A9
  8
SAPA_PROFIL
 62
     4
 10
121.1437821453692
 20
14.64998799999441
 30
0.0
 11
96.856217710674244
 21
14.64998799999441
 31
0.0
  0
ARC
  5
15AA
  8
SAPA_PROFIL
 62
     4
 10
121.1437821453693
 20
15.449987999994431
 30
0.0
 40
0.8000000000000166
 50
269.99999999999761
 51
299.99999999999812
  0
LINE
  5
15AB
  8
SAPA_PROFIL
 62
     4
 10
123.26339738764329
 20
15.74998799999628
 30
0.0
 11
121.54378214536921
 21
14.75716767696685
 31
0.0
  0
LINE
  5
15AC
  8
SAPA_PROFIL
 62
     4
 10
123.6999999280217
 20
15.749987999996369
 30
0.0
 11
123.26339738764329
 21
15.74998799999628
 31
0.0
  0
ARC
  5
15AD
  8
SAPA_PROFIL
 62
     4
 10
123.6999999280217
 20
15.49998799999638
 30
0.0
 40
0.2499999999999892
 50
359.9999999999992
 51
90.0
  0
LINE
  5
15AE
  8
SAPA_PROFIL
 62
     4
 10
123.9499999280218
 20
11.899975999996309
 30
0.0
 11
123.9499999280217
 21
15.49998799999638
 31
0.0
  0
ARC
  5
15AF
  8
SAPA_PROFIL
 62
     4
 10
123.6999999280218
 20
11.899975999996309
 30
0.0
 40
0.2500000000000027
 50
270.0
 51
0.0000000000010178
  0
LINE
  5
15B0
  8
SAPA_PROFIL
 62
     4
 10
123.2633980064433
 20
11.64998764273167
 30
0.0
 11
123.6999999280218
 21
11.6499759999963
 31
0.0
  0
LINE
  5
15B1
  8
SAPA_PROFIL
 62
     4
 10
121.5437821453759
 20
12.64280832302194
 30
0.0
 11
123.2633980064433
 21
11.64998764273167
 31
0.0
  0
ARC
  5
15B2
  8
SAPA_PROFIL
 62
     4
 10
121.14378214537579
 20
11.949987999994439
 30
0.0
 40
0.8000000000000007
 50
59.999999999993307
 51
89.999999999997556
  0
LINE
  5
15B3
  8
SAPA_PROFIL
 62
     4
 10
96.856217710667593
 20
12.749987999994429
 30
0.0
 11
121.14378214537589
 21
12.74998799999444
 31
0.0
  0
ARC
  5
15B4
  8
SAPA_PROFIL
 62
     4
 10
96.856217710667636
 20
11.949987999994431
 30
0.0
 40
0.8000000000000019
 50
90.000000000002444
 51
120.00000000000659
  0
LINE
  5
15B5
  8
SAPA_PROFIL
 62
     4
 10
94.736601849600149
 20
11.649987642731659
 30
0.0
 11
96.456217710667545
 21
12.64280832302194
 31
0.0
  0
LINE
  5
15B6
  8
SAPA_PROFIL
 62
     4
 10
94.299999928021691
 20
11.6499759999963
 30
0.0
 11
94.736601849600149
 21
11.649987642731659
 31
0.0
  0
ARC
  5
15B7
  8
SAPA_PROFIL
 62
     4
 10
94.299999928021691
 20
11.8999759999963
 30
0.0
 40
0.2499999999999992
 50
179.99999999999821
 51
270.0
  0
LINE
  5
15B8
  8
SAPA_PROFIL
 62
     4
 10
94.049999928021734
 20
15.499987999996369
 30
0.0
 11
94.049999928021691
 21
11.899975999996309
 31
0.0
  0
ARC
  5
15B9
  8
SAPA_PROFIL
 62
     4
 10
94.299999928021734
 20
15.49998799999638
 30
0.0
 40
0.2499999999999893
 50
90.000000000000796
 51
180.0000000000008
  0
LINE
  5
15BA
  8
SAPA_PROFIL
 62
     4
 10
94.736602468400164
 20
15.74998799999628
 30
0.0
 11
94.299999928021705
 21
15.749987999996369
 31
0.0
  0
LINE
  5
15BB
  8
SAPA_PROFIL
 62
     4
 10
96.456217710674224
 20
14.75716767696685
 30
0.0
 11
94.736602468400164
 21
15.74998799999628
 31
0.0
  0
ARC
  5
15BC
  8
SAPA_PROFIL
 62
     4
 10
96.856217710674201
 20
15.44998799999442
 30
0.0
 40
0.8000000000000053
 50
240.0000000000019
 51
270.0000000000025
  0
POLYLINE
  5
15BD
  8
SAPA_PROFIL
 66
     1
 10
0.0
 20
0.0
 30
0.0
 70
     1
  0
VERTEX
  5
1A46
  8
SAPA_PROFIL
 10
123.7561308870679
 20
17.749444650056869
 30
0.0
  0
VERTEX
  5
1A47
  8
SAPA_PROFIL
 10
122.79999992803261
 20
17.749444650053231
 30
0.0
 42
-0.2418327667557183
  0
VERTEX
  5
1A48
  8
SAPA_PROFIL
 10
122.556130887066
 20
17.874722325030181
 30
0.0
 42
0.2418327667535164
  0
VERTEX
  5
1A49
  8
SAPA_PROFIL
 10
122.3122618461073
 20
18.000000000004391
 30
0.0
  0
VERTEX
  5
1A4A
  8
SAPA_PROFIL
 10
120.0884579684744
 20
17.999999999995929
 30
0.0
 42
0.0874886635239214
  0
VERTEX
  5
1A4B
  8
SAPA_PROFIL
 10
119.9858519254791
 20
17.981907786232131
 30
0.0
  0
VERTEX
  5
1A4C
  8
SAPA_PROFIL
 10
118.5584987554336
 20
17.462393718556779
 30
0.0
 42
0.4142135623698208
  0
VERTEX
  5
1A4D
  8
SAPA_PROFIL
 10
118.3791970121963
 20
17.077879889314609
 30
0.0
  0
VERTEX
  5
1A4E
  8
SAPA_PROFIL
 10
118.4476010408673
 20
16.88994136516591
 30
0.0
 42
0.4142135623730019
  0
VERTEX
  5
1A4F
  8
SAPA_PROFIL
 10
118.8321148700889
 20
16.710639621923381
 30
0.0
  0
VERTEX
  5
1A50
  8
SAPA_PROFIL
 10
119.8657767529581
 20
17.08686177959007
 30
0.0
 42
-0.41421356237947
  0
VERTEX
  5
1A51
  8
SAPA_PROFIL
 10
120.25029058218971
 20
16.907560036338921
 30
0.0
  0
VERTEX
  5
1A52
  8
SAPA_PROFIL
 10
120.9091458894254
 20
15.097369957
 30
0.0
 42
0.3152987888800591
  0
VERTEX
  5
1A53
  8
SAPA_PROFIL
 10
121.19105367566171
 20
14.899975999996659
 30
0.0
  0
VERTEX
  5
1A54
  8
SAPA_PROFIL
 10
121.610769443481
 20
14.899975999996769
 30
0.0
 42
0.1316524975873855
  0
VERTEX
  5
1A55
  8
SAPA_PROFIL
 10
121.7607694434809
 20
14.94016837886141
 30
0.0
  0
VERTEX
  5
1A56
  8
SAPA_PROFIL
 10
123.24999992802179
 20
15.799975999996709
 30
0.0
  0
VERTEX
  5
1A57
  8
SAPA_PROFIL
 10
123.6999999280218
 20
15.799987999996381
 30
0.0
 42
-0.4142135623731054
  0
VERTEX
  5
1A58
  8
SAPA_PROFIL
 10
123.99999992802179
 20
15.499987999996369
 30
0.0
  0
VERTEX
  5
1A59
  8
SAPA_PROFIL
 10
123.99999992802169
 20
11.899975999996309
 30
0.0
 42
-0.414213562373095
  0
VERTEX
  5
1A5A
  8
SAPA_PROFIL
 10
123.6999999280217
 20
11.59997599999631
 30
0.0
  0
VERTEX
  5
1A5B
  8
SAPA_PROFIL
 10
123.24999992802169
 20
11.59997599999641
 30
0.0
  0
VERTEX
  5
1A5C
  8
SAPA_PROFIL
 10
121.7607397969475
 20
12.4598007375654
 30
0.0
 42
0.1316363093594254
  0
VERTEX
  5
1A5D
  8
SAPA_PROFIL
 10
121.6107588919008
 20
12.49999311582236
 30
0.0
  0
VERTEX
  5
1A5E
  8
SAPA_PROFIL
 10
121.4999999280151
 20
12.500000165613169
 30
0.0
  0
VERTEX
  5
1A5F
  8
SAPA_PROFIL
 10
121.4999999280151
 20
10.500000000000041
 30
0.0
 42
0.4142135623730951
  0
VERTEX
  5
1A60
  8
SAPA_PROFIL
 10
121.9999999280151
 20
10.000000000000041
 30
0.0
  0
VERTEX
  5
1A61
  8
SAPA_PROFIL
 10
129.14999992829311
 20
10.000000000000041
 30
0.0
 42
0.4142135623730935
  0
VERTEX
  5
1A62
  8
SAPA_PROFIL
 10
129.44999992828869
 20
10.29999999999931
 30
0.0
  0
VERTEX
  5
1A63
  8
SAPA_PROFIL
 10
129.4499999282923
 20
10.95000000000077
 30
0.0
 42
-0.4142135623730951
  0
VERTEX
  5
1A64
  8
SAPA_PROFIL
 10
129.7499999282916
 20
11.25000000000003
 30
0.0
  0
VERTEX
  5
1A65
  8
SAPA_PROFIL
 10
130.44999992817961
 20
11.250000000003681
 30
0.0
 42
-0.4142135623730971
  0
VERTEX
  5
1A66
  8
SAPA_PROFIL
 10
130.74999992817521
 20
10.95000000000077
 30
0.0
  0
VERTEX
  5
1A67
  8
SAPA_PROFIL
 10
130.7499999281934
 20
-0.9500000000043122
 30
0.0
 42
-0.4142135623730881
  0
VERTEX
  5
1A68
  8
SAPA_PROFIL
 10
130.4499999281941
 20
-1.250000000003584
 30
0.0
  0
VERTEX
  5
1A69
  8
SAPA_PROFIL
 10
129.7499999277168
 20
-1.2500000000145119
 30
0.0
 42
-0.4142135623730968
  0
VERTEX
  5
1A6A
  8
SAPA_PROFIL
 10
129.44999992770661
 20
-0.9500000000043122
 30
0.0
  0
VERTEX
  5
1A6B
  8
SAPA_PROFIL
 10
129.44999992772119
 20
-0.2999999999919431
 30
0.0
 42
0.4142135623517844
  0
VERTEX
  5
1A6C
  8
SAPA_PROFIL
 10
129.14999992771831
 20
-0.0000000000035847
 30
0.0
  0
VERTEX
  5
1A6D
  8
SAPA_PROFIL
 10
127.1999999277066
 20
-0.0000000000035882
 30
0.0
 42
0.414213562373103
  0
VERTEX
  5
1A6E
  8
SAPA_PROFIL
 10
126.9999999277168
 20
-0.2000000000043158
 30
0.0
  0
VERTEX
  5
1A6F
  8
SAPA_PROFIL
 10
126.9999999277168
 20
-1.30000000000286
 30
0.0
 42
0.4142135623731049
  0
VERTEX
  5
1A70
  8
SAPA_PROFIL
 10
127.1999999277066
 20
-1.500000000003588
 30
0.0
  0
VERTEX
  5
1A71
  8
SAPA_PROFIL
 10
127.9999999277168
 20
-1.500000000003588
 30
0.0
 42
-0.414213562373094
  0
VERTEX
  5
1A72
  8
SAPA_PROFIL
 10
128.4999999277168
 20
-2.0000000000035878
 30
0.0
  0
VERTEX
  5
1A73
  8
SAPA_PROFIL
 10
128.49999992819701
 20
-3.0000000000145159
 30
0.0
 42
-0.4142135623730951
  0
VERTEX
  5
1A74
  8
SAPA_PROFIL
 10
127.999999928197
 20
-3.5000000000145022
 30
0.0
  0
VERTEX
  5
1A75
  8
SAPA_PROFIL
 10
127.1999999281941
 20
-3.5000000000035878
 30
0.0
 42
0.414213562373103
  0
VERTEX
  5
1A76
  8
SAPA_PROFIL
 10
126.999999928197
 20
-3.7000000000043149
 30
0.0
  0
VERTEX
  5
1A77
  8
SAPA_PROFIL
 10
126.9999999282043
 20
-4.800000000002874
 30
0.0
 42
0.4142135623731049
  0
VERTEX
  5
1A78
  8
SAPA_PROFIL
 10
127.1999999281941
 20
-5.0000000000036016
 30
0.0
  0
VERTEX
  5
1A79
  8
SAPA_PROFIL
 10
130.749999927695
 20
-5.000000000003598
 30
0.0
 42
0.3389652260127085
  0
VERTEX
  5
1A7A
  8
SAPA_PROFIL
 10
131.71547022723999
 20
-4.2605131488012189
 30
0.0
 42
0.0274862826960608
  0
VERTEX
  5
1A7B
  8
SAPA_PROFIL
 10
132.4999999276759
 20
10.00000000017465
 30
0.0
  0
VERTEX
  5
1A7C
  8
SAPA_PROFIL
 10
132.49999992783319
 20
14.99999999990181
 30
0.0
 42
0.4142135623816193
  0
VERTEX
  5
1A7D
  8
SAPA_PROFIL
 10
129.49999992783319
 20
17.999999999996401
 30
0.0
  0
VERTEX
  5
1A7E
  8
SAPA_PROFIL
 10
124.2438689689769
 20
17.999999999996401
 30
0.0
 42
0.2418327667412822
  0
VERTEX
  5
1A7F
  8
SAPA_PROFIL
 10
123.99999992802729
 20
17.874722325032849
 30
0.0
 42
-0.2418327667543803
  0
SEQEND
  5
1A80
  8
SAPA_PROFIL
  0
POLYLINE
  5
15BE
  8
SAPA_PROFIL
 66
     1
 10
0.0
 20
0.0
 30
0.0
 70
     1
  0
VERTEX
  5
1A81
  8
SAPA_PROFIL
 10
94.243868968975505
 20
17.74944465005693
 30
0.0
  0
VERTEX
  5
1A82
  8
SAPA_PROFIL
 10
95.199999928010868
 20
17.749444650053292
 30
0.0
 42
0.2418327667557183
  0
VERTEX
  5
1A83
  8
SAPA_PROFIL
 10
95.443868968977441
 20
17.874722325030231
 30
0.0
 42
-0.2418327667535164
  0
VERTEX
  5
1A84
  8
SAPA_PROFIL
 10
95.687738009936183
 20
18.000000000004441
 30
0.0
  0
VERTEX
  5
1A85
  8
SAPA_PROFIL
 10
97.911541887569001
 20
17.999999999995978
 30
0.0
 42
-0.0874886635239214
  0
VERTEX
  5
1A86
  8
SAPA_PROFIL
 10
98.014147930564391
 20
17.981907786232181
 30
0.0
  0
VERTEX
  5
1A87
  8
SAPA_PROFIL
 10
99.441501100609827
 20
17.462393718556829
 30
0.0
 42
-0.4142135623698208
  0
VERTEX
  5
1A88
  8
SAPA_PROFIL
 10
99.620802843847216
 20
17.077879889314659
 30
0.0
  0
VERTEX
  5
1A89
  8
SAPA_PROFIL
 10
99.552398815176161
 20
16.889941365165971
 30
0.0
 42
-0.4142135623730019
  0
VERTEX
  5
1A8A
  8
SAPA_PROFIL
 10
99.167884985954529
 20
16.710639621923441
 30
0.0
  0
VERTEX
  5
1A8B
  8
SAPA_PROFIL
 10
98.134223103085375
 20
17.08686177959013
 30
0.0
 42
0.41421356237947
  0
VERTEX
  5
1A8C
  8
SAPA_PROFIL
 10
97.749709273853824
 20
16.907560036338971
 30
0.0
  0
VERTEX
  5
1A8D
  8
SAPA_PROFIL
 10
97.090853966617999
 20
15.09736995700006
 30
0.0
 42
-0.3152987888800591
  0
VERTEX
  5
1A8E
  8
SAPA_PROFIL
 10
96.808946180381795
 20
14.89997599999672
 30
0.0
  0
VERTEX
  5
1A8F
  8
SAPA_PROFIL
 10
96.389230412562441
 20
14.899975999996821
 30
0.0
 42
-0.1316524975873855
  0
VERTEX
  5
1A90
  8
SAPA_PROFIL
 10
96.239230412562534
 20
14.94016837886147
 30
0.0
  0
VERTEX
  5
1A91
  8
SAPA_PROFIL
 10
94.749999928021637
 20
15.79997599999677
 30
0.0
  0
VERTEX
  5
1A92
  8
SAPA_PROFIL
 10
94.299999928021691
 20
15.79998799999643
 30
0.0
 42
0.4142135623731054
  0
VERTEX
  5
1A93
  8
SAPA_PROFIL
 10
93.99999992802168
 20
15.49998799999643
 30
0.0
  0
VERTEX
  5
1A94
  8
SAPA_PROFIL
 10
93.999999928021737
 20
11.89997599999637
 30
0.0
 42
0.414213562373095
  0
VERTEX
  5
1A95
  8
SAPA_PROFIL
 10
94.299999928021734
 20
11.599975999996371
 30
0.0
  0
VERTEX
  5
1A96
  8
SAPA_PROFIL
 10
94.749999928021737
 20
11.59997599999647
 30
0.0
  0
VERTEX
  5
1A97
  8
SAPA_PROFIL
 10
96.239260059095912
 20
12.45980073756545
 30
0.0
 42
-0.1316363093594254
  0
VERTEX
  5
1A98
  8
SAPA_PROFIL
 10
96.389240964142658
 20
12.49999311582242
 30
0.0
  0
VERTEX
  5
1A99
  8
SAPA_PROFIL
 10
96.49999992802833
 20
12.50000016561323
 30
0.0
  0
VERTEX
  5
1A9A
  8
SAPA_PROFIL
 10
96.499999928028345
 20
10.500000000000099
 30
0.0
 42
-0.4142135623730951
  0
VERTEX
  5
1A9B
  8
SAPA_PROFIL
 10
95.999999928028345
 20
10.000000000000099
 30
0.0
  0
VERTEX
  5
1A9C
  8
SAPA_PROFIL
 10
88.849999927750403
 20
10.000000000000099
 30
0.0
 42
-0.4142135623730935
  0
VERTEX
  5
1A9D
  8
SAPA_PROFIL
 10
88.549999927754754
 20
10.29999999999937
 30
0.0
  0
VERTEX
  5
1A9E
  8
SAPA_PROFIL
 10
88.549999927751131
 20
10.950000000000831
 30
0.0
 42
0.4142135623730951
  0
VERTEX
  5
1A9F
  8
SAPA_PROFIL
 10
88.249999927751858
 20
11.250000000000091
 30
0.0
  0
VERTEX
  5
1AA0
  8
SAPA_PROFIL
 10
87.549999927863908
 20
11.25000000000373
 30
0.0
 42
0.4142135623730971
  0
VERTEX
  5
1AA1
  8
SAPA_PROFIL
 10
87.249999927868245
 20
10.950000000000831
 30
0.0
  0
VERTEX
  5
1AA2
  8
SAPA_PROFIL
 10
87.249999927850084
 20
-0.9500000000042626
 30
0.0
 42
0.4142135623730881
  0
VERTEX
  5
1AA3
  8
SAPA_PROFIL
 10
87.549999927849356
 20
-1.2500000000035341
 30
0.0
  0
VERTEX
  5
1AA4
  8
SAPA_PROFIL
 10
88.249999928326645
 20
-1.2500000000144551
 30
0.0
 42
0.4142135623730968
  0
VERTEX
  5
1AA5
  8
SAPA_PROFIL
 10
88.549999928336845
 20
-0.9500000000042626
 30
0.0
  0
VERTEX
  5
1AA6
  8
SAPA_PROFIL
 10
88.549999928322293
 20
-0.2999999999918934
 30
0.0
 42
-0.4142135623517844
  0
VERTEX
  5
1AA7
  8
SAPA_PROFIL
 10
88.849999928325204
 20
-0.000000000003535
 30
0.0
  0
VERTEX
  5
1AA8
  8
SAPA_PROFIL
 10
90.799999928336845
 20
-0.000000000003535
 30
0.0
 42
-0.414213562373103
  0
VERTEX
  5
1AA9
  8
SAPA_PROFIL
 10
90.999999928326659
 20
-0.2000000000042625
 30
0.0
  0
VERTEX
  5
1AAA
  8
SAPA_PROFIL
 10
90.999999928326659
 20
-1.3000000000028069
 30
0.0
 42
-0.4142135623731049
  0
VERTEX
  5
1AAB
  8
SAPA_PROFIL
 10
90.799999928336845
 20
-1.5000000000035341
 30
0.0
  0
VERTEX
  5
1AAC
  8
SAPA_PROFIL
 10
89.999999928326659
 20
-1.5000000000035341
 30
0.0
 42
0.414213562373094
  0
VERTEX
  5
1AAD
  8
SAPA_PROFIL
 10
89.499999928326645
 20
-2.0000000000035341
 30
0.0
  0
VERTEX
  5
1AAE
  8
SAPA_PROFIL
 10
89.499999927846474
 20
-3.0000000000144551
 30
0.0
 42
0.4142135623730951
  0
VERTEX
  5
1AAF
  8
SAPA_PROFIL
 10
89.999999927846474
 20
-3.5000000000144409
 30
0.0
  0
VERTEX
  5
1AB0
  8
SAPA_PROFIL
 10
90.799999927849385
 20
-3.5000000000035341
 30
0.0
 42
-0.414213562373103
  0
VERTEX
  5
1AB1
  8
SAPA_PROFIL
 10
90.999999927846446
 20
-3.7000000000042621
 30
0.0
  0
VERTEX
  5
1AB2
  8
SAPA_PROFIL
 10
90.999999927839184
 20
-4.8000000000028136
 30
0.0
 42
-0.4142135623731049
  0
VERTEX
  5
1AB3
  8
SAPA_PROFIL
 10
90.799999927849385
 20
-5.0000000000035492
 30
0.0
  0
VERTEX
  5
1AB4
  8
SAPA_PROFIL
 10
87.249999928348515
 20
-5.0000000000035492
 30
0.0
 42
-0.3389652260127085
  0
VERTEX
  5
1AB5
  8
SAPA_PROFIL
 10
86.284529628803497
 20
-4.2605131488011621
 30
0.0
 42
-0.0274862826960608
  0
VERTEX
  5
1AB6
  8
SAPA_PROFIL
 10
85.4999999283676
 20
10.000000000174699
 30
0.0
  0
VERTEX
  5
1AB7
  8
SAPA_PROFIL
 10
85.499999928210244
 20
14.99999999990186
 30
0.0
 42
-0.4142135623816193
  0
VERTEX
  5
1AB8
  8
SAPA_PROFIL
 10
88.499999928210244
 20
17.999999999996451
 30
0.0
  0
VERTEX
  5
1AB9
  8
SAPA_PROFIL
 10
93.756130887066604
 20
17.999999999996461
 30
0.0
 42
-0.2418327667412822
  0
VERTEX
  5
1ABA
  8
SAPA_PROFIL
 10
93.999999928016194
 20
17.874722325032899
 30
0.0
 42
0.2418327667543803
  0
SEQEND
  5
1ABB
  8
SAPA_PROFIL
  0
POLYLINE
  5
15BF
  8
SAPA_PROFIL
 62
     4
 66
     1
 10
0.0
 20
0.0
 30
0.0
 70
     1
  0
VERTEX
  5
1ABC
  8
SAPA_PROFIL
 62
     4
 10
64.725833080859161
 20
54.509252303702233
 30
0.0
  0
VERTEX
  5
1ABD
  8
SAPA_PROFIL
 62
     4
 10
63.236602540013962
 20
53.649444650059898
 30
0.0
  0
VERTEX
  5
1ABE
  8
SAPA_PROFIL
 62
     4
 10
62.799999999635503
 20
53.649444650059813
 30
0.0
 42
-0.4142135623730946
  0
VERTEX
  5
1ABF
  8
SAPA_PROFIL
 62
     4
 10
62.549999999635531
 20
53.899444650059813
 30
0.0
  0
VERTEX
  5
1AC0
  8
SAPA_PROFIL
 62
     4
 10
62.549999999635482
 20
57.499456650059869
 30
0.0
 42
-0.414213562373107
  0
VERTEX
  5
1AC1
  8
SAPA_PROFIL
 62
     4
 10
62.799999999635467
 20
57.749456650059869
 30
0.0
  0
VERTEX
  5
1AC2
  8
SAPA_PROFIL
 62
     4
 10
63.236601921213939
 20
57.74944500732451
 30
0.0
  0
VERTEX
  5
1AC3
  8
SAPA_PROFIL
 62
     4
 10
64.725832968251623
 20
56.889637061431529
 30
0.0
 42
0.1316524975874248
  0
VERTEX
  5
1AC4
  8
SAPA_PROFIL
 62
     4
 10
64.875832968251672
 20
56.84944468256684
 30
0.0
  0
VERTEX
  5
1AC5
  8
SAPA_PROFIL
 62
     4
 10
88.124166959502929
 20
56.84944468256684
 30
0.0
 42
0.1316524975874248
  0
VERTEX
  5
1AC6
  8
SAPA_PROFIL
 62
     4
 10
88.274166959502949
 20
56.889637061431522
 30
0.0
  0
VERTEX
  5
1AC7
  8
SAPA_PROFIL
 62
     4
 10
89.763398006540655
 20
57.74944500732451
 30
0.0
  0
VERTEX
  5
1AC8
  8
SAPA_PROFIL
 62
     4
 10
90.199999928119084
 20
57.749456650059862
 30
0.0
 42
-0.4142135623731049
  0
VERTEX
  5
1AC9
  8
SAPA_PROFIL
 62
     4
 10
90.449999928119084
 20
57.499456650059869
 30
0.0
  0
VERTEX
  5
1ACA
  8
SAPA_PROFIL
 62
     4
 10
90.449999928119084
 20
53.899444650059813
 30
0.0
 42
-0.4142135623730951
  0
VERTEX
  5
1ACB
  8
SAPA_PROFIL
 62
     4
 10
90.19999992811907
 20
53.649444650059799
 30
0.0
  0
VERTEX
  5
1ACC
  8
SAPA_PROFIL
 62
     4
 10
89.763397387740611
 20
53.649444650059898
 30
0.0
  0
VERTEX
  5
1ACD
  8
SAPA_PROFIL
 62
     4
 10
88.274166846895497
 20
54.509252303702162
 30
0.0
 42
0.1316524975873867
  0
VERTEX
  5
1ACE
  8
SAPA_PROFIL
 62
     4
 10
88.124166846895506
 20
54.549444682566843
 30
0.0
  0
VERTEX
  5
1ACF
  8
SAPA_PROFIL
 62
     4
 10
64.875833080859124
 20
54.549444682566879
 30
0.0
 42
0.1316524975873873
  0
SEQEND
  5
1AD0
  8
SAPA_PROFIL
 62
     4
  0
POLYLINE
  5
15C0
  8
SAPA_PROFIL
 66
     1
 10
0.0
 20
0.0
 30
0.0
 70
     1
  0
VERTEX
  5
1AD1
  8
SAPA_PROFIL
 10
17.300000000010101
 20
10.000000000032751
 30
0.0
 42
0.4142135623624294
  0
VERTEX
  5
1AD2
  8
SAPA_PROFIL
 10
17.499999999999879
 20
10.200000000007989
 30
0.0
  0
VERTEX
  5
1AD3
  8
SAPA_PROFIL
 10
17.500000000014438
 20
11.05000000000655
 30
0.0
 42
-0.4142135623730744
  0
VERTEX
  5
1AD4
  8
SAPA_PROFIL
 10
17.7000000000188
 20
11.25000000000728
 30
0.0
  0
VERTEX
  5
1AD5
  8
SAPA_PROFIL
 10
17.999999999999911
 20
11.249999999999989
 30
0.0
 42
-0.4142135623731035
  0
VERTEX
  5
1AD6
  8
SAPA_PROFIL
 10
18.499999999999911
 20
10.749999999999989
 30
0.0
  0
VERTEX
  5
1AD7
  8
SAPA_PROFIL
 10
18.499999999999911
 20
7.749999999999992
 30
0.0
 42
-0.4142135623731035
  0
VERTEX
  5
1AD8
  8
SAPA_PROFIL
 10
17.999999999999911
 20
7.249999999999992
 30
0.0
  0
VERTEX
  5
1AD9
  8
SAPA_PROFIL
 10
17.700000000004248
 20
7.249999999999992
 30
0.0
 42
-0.4142135623730744
  0
VERTEX
  5
1ADA
  8
SAPA_PROFIL
 10
17.499999999999879
 20
7.4500000000007338
 30
0.0
  0
VERTEX
  5
1ADB
  8
SAPA_PROFIL
 10
17.500000000010829
 20
8.3000000000029175
 30
0.0
 42
0.4142135623730534
  0
VERTEX
  5
1ADC
  8
SAPA_PROFIL
 10
17.300000000010101
 20
8.4999999999999911
 30
0.0
  0
VERTEX
  5
1ADD
  8
SAPA_PROFIL
 10
16.300000000010101
 20
8.4999999999999911
 30
0.0
 42
0.4142135623731035
  0
VERTEX
  5
1ADE
  8
SAPA_PROFIL
 10
15.800000000010099
 20
7.999999999999992
 30
0.0
  0
VERTEX
  5
1ADF
  8
SAPA_PROFIL
 10
15.800000000010099
 20
2.0000000000000071
 30
0.0
 42
0.4142135623731033
  0
VERTEX
  5
1AE0
  8
SAPA_PROFIL
 10
16.30000000001009
 20
1.5000000000000071
 30
0.0
  0
VERTEX
  5
1AE1
  8
SAPA_PROFIL
 10
17.30000000001008
 20
1.500000000010921
 30
0.0
 42
0.414213562373064
  0
VERTEX
  5
1AE2
  8
SAPA_PROFIL
 10
17.499999999999869
 20
1.700000000000734
 30
0.0
  0
VERTEX
  5
1AE3
  8
SAPA_PROFIL
 10
17.499999999999879
 20
2.550000000002917
 30
0.0
 42
-0.414213562373064
  0
VERTEX
  5
1AE4
  8
SAPA_PROFIL
 10
17.700000000004248
 20
2.7500000000000071
 30
0.0
  0
VERTEX
  5
1AE5
  8
SAPA_PROFIL
 10
17.999999999999911
 20
2.7500000000000071
 30
0.0
 42
-0.4142135623731035
  0
VERTEX
  5
1AE6
  8
SAPA_PROFIL
 10
18.499999999999911
 20
2.2500000000000071
 30
0.0
  0
VERTEX
  5
1AE7
  8
SAPA_PROFIL
 10
18.499999999999901
 20
0.5000000000000071
 30
0.0
 42
-0.4142135623731035
  0
VERTEX
  5
1AE8
  8
SAPA_PROFIL
 10
17.999999999999901
 20
0.0000000000000071
 30
0.0
  0
VERTEX
  5
1AE9
  8
SAPA_PROFIL
 10
15.499999999999901
 20
0.0000000000000071
 30
0.0
 42
-0.4142135623730966
  0
VERTEX
  5
1AEA
  8
SAPA_PROFIL
 10
13.99999999999987
 20
1.5000000000000071
 30
0.0
  0
VERTEX
  5
1AEB
  8
SAPA_PROFIL
 10
13.99999999999989
 20
59.70000000000072
 30
0.0
 42
-0.4142135623730935
  0
VERTEX
  5
1AEC
  8
SAPA_PROFIL
 10
14.300000000010071
 20
60.0
 30
0.0
  0
VERTEX
  5
1AED
  8
SAPA_PROFIL
 10
62.256130958696183
 20
60.0
 30
0.0
 42
-0.2418327667378115
  0
VERTEX
  5
1AEE
  8
SAPA_PROFIL
 10
62.499999999634582
 20
59.874722325032899
 30
0.0
 42
0.2418327667509125
  0
VERTEX
  5
1AEF
  8
SAPA_PROFIL
 10
62.743869040590539
 20
59.749444650060461
 30
0.0
  0
VERTEX
  5
1AF0
  8
SAPA_PROFIL
 10
63.699999999640447
 20
59.74944465005683
 30
0.0
 42
0.2418327667448973
  0
VERTEX
  5
1AF1
  8
SAPA_PROFIL
 10
63.943869040595388
 20
59.874722325025253
 30
0.0
 42
-0.2418327667448979
  0
VERTEX
  5
1AF2
  8
SAPA_PROFIL
 10
64.187738081547991
 20
59.99999999999244
 30
0.0
  0
VERTEX
  5
1AF3
  8
SAPA_PROFIL
 10
66.285810437265951
 20
59.99999999999244
 30
0.0
 42
-0.6681786379192718
  0
VERTEX
  5
1AF4
  8
SAPA_PROFIL
 10
66.992917218452561
 20
58.292893218805943
 30
0.0
  0
VERTEX
  5
1AF5
  8
SAPA_PROFIL
 10
65.687867965283601
 20
56.98784396563677
 30
0.0
 42
-0.1989123673797335
  0
VERTEX
  5
1AF6
  8
SAPA_PROFIL
 10
65.475735930927527
 20
56.899975999992662
 30
0.0
  0
VERTEX
  5
1AF7
  8
SAPA_PROFIL
 10
64.889230484180331
 20
56.899975999992797
 30
0.0
 42
-0.1316524975873855
  0
VERTEX
  5
1AF8
  8
SAPA_PROFIL
 10
64.73923048418041
 20
56.940168378857443
 30
0.0
  0
VERTEX
  5
1AF9
  8
SAPA_PROFIL
 10
63.249999999639527
 20
57.799975999992753
 30
0.0
  0
VERTEX
  5
1AFA
  8
SAPA_PROFIL
 10
62.799999999639567
 20
57.79998799999241
 30
0.0
 42
0.4142135623731054
  0
VERTEX
  5
1AFB
  8
SAPA_PROFIL
 10
62.499999999639549
 20
57.499987999992413
 30
0.0
  0
VERTEX
  5
1AFC
  8
SAPA_PROFIL
 10
62.499999999639613
 20
53.89997599999235
 30
0.0
 42
0.4142135623730951
  0
VERTEX
  5
1AFD
  8
SAPA_PROFIL
 10
62.799999999639617
 20
53.599975999992353
 30
0.0
  0
VERTEX
  5
1AFE
  8
SAPA_PROFIL
 10
63.249999999639613
 20
53.599975999992452
 30
0.0
  0
VERTEX
  5
1AFF
  8
SAPA_PROFIL
 10
64.739260130713774
 20
54.45980073756143
 30
0.0
 42
-0.1316363093594257
  0
VERTEX
  5
1B00
  8
SAPA_PROFIL
 10
64.889241035760534
 20
54.499993115818398
 30
0.0
  0
VERTEX
  5
1B01
  8
SAPA_PROFIL
 10
64.999999999643364
 20
54.500000165609201
 30
0.0
  0
VERTEX
  5
1B02
  8
SAPA_PROFIL
 10
64.999999999643364
 20
52.914359353937471
 30
0.0
 42
-0.2679491924308306
  0
VERTEX
  5
1B03
  8
SAPA_PROFIL
 10
64.499999999643364
 20
52.048333950158849
 30
0.0
  0
VERTEX
  5
1B04
  8
SAPA_PROFIL
 10
62.74999999964291
 20
51.03797097908037
 30
0.0
 42
0.2679491924308306
  0
VERTEX
  5
1B05
  8
SAPA_PROFIL
 10
62.499999999643357
 20
50.604958277188423
 30
0.0
  0
VERTEX
  5
1B06
  8
SAPA_PROFIL
 10
62.499999999643357
 20
49.395041722807953
 30
0.0
 42
0.2679491924308304
  0
VERTEX
  5
1B07
  8
SAPA_PROFIL
 10
62.749999999643357
 20
48.962029020916809
 30
0.0
  0
VERTEX
  5
1B08
  8
SAPA_PROFIL
 10
64.499999999643364
 20
47.951666049841151
 30
0.0
 42
-0.2679491924308308
  0
VERTEX
  5
1B09
  8
SAPA_PROFIL
 10
64.999999999641489
 20
47.085640646055253
 30
0.0
  0
VERTEX
  5
1B0A
  8
SAPA_PROFIL
 10
64.999999999643649
 20
45.499999834387147
 30
0.0
  0
VERTEX
  5
1B0B
  8
SAPA_PROFIL
 10
64.889241035760534
 20
45.500006884177957
 30
0.0
 42
-0.1316363093594255
  0
VERTEX
  5
1B0C
  8
SAPA_PROFIL
 10
64.739260130713774
 20
45.540199262434932
 30
0.0
  0
VERTEX
  5
1B0D
  8
SAPA_PROFIL
 10
63.249999999639613
 20
46.400024000003903
 30
0.0
  0
VERTEX
  5
1B0E
  8
SAPA_PROFIL
 10
62.799999999639617
 20
46.400024000004002
 30
0.0
 42
0.4142135623730951
  0
VERTEX
  5
1B0F
  8
SAPA_PROFIL
 10
62.499999999639613
 20
46.100024000004019
 30
0.0
  0
VERTEX
  5
1B10
  8
SAPA_PROFIL
 10
62.499999999639549
 20
42.500012000003963
 30
0.0
 42
0.4142135623731054
  0
VERTEX
  5
1B11
  8
SAPA_PROFIL
 10
62.799999999639567
 20
42.200012000003952
 30
0.0
  0
VERTEX
  5
1B12
  8
SAPA_PROFIL
 10
63.249999999639527
 20
42.200024000003623
 30
0.0
  0
VERTEX
  5
1B13
  8
SAPA_PROFIL
 10
64.73923048418041
 20
43.059831621138919
 30
0.0
 42
-0.1316524975873855
  0
VERTEX
  5
1B14
  8
SAPA_PROFIL
 10
64.889230484180331
 20
43.100024000003572
 30
0.0
  0
VERTEX
  5
1B15
  8
SAPA_PROFIL
 10
65.475735930927527
 20
43.100024000003707
 30
0.0
 42
-0.1989123673797335
  0
VERTEX
  5
1B16
  8
SAPA_PROFIL
 10
65.687867965283601
 20
43.012156034359577
 30
0.0
  0
VERTEX
  5
1B17
  8
SAPA_PROFIL
 10
66.992917218452561
 20
41.707106781190419
 30
0.0
 42
-0.6681786379192716
  0
VERTEX
  5
1B18
  8
SAPA_PROFIL
 10
66.285810437265951
 20
40.000000000003922
 30
0.0
  0
VERTEX
  5
1B19
  8
SAPA_PROFIL
 10
64.187738081546243
 20
40.000000000003922
 30
0.0
 42
-0.2418327667433386
  0
VERTEX
  5
1B1A
  8
SAPA_PROFIL
 10
63.943869040594699
 20
40.125277674969681
 30
0.0
 42
0.2418327667449431
  0
VERTEX
  5
1B1B
  8
SAPA_PROFIL
 10
63.699999999640447
 20
40.250555349935887
 30
0.0
  0
VERTEX
  5
1B1C
  8
SAPA_PROFIL
 10
62.743869040590539
 20
40.250555349939532
 30
0.0
 42
0.2418327667509097
  0
VERTEX
  5
1B1D
  8
SAPA_PROFIL
 10
62.499999999643421
 20
40.125277674957111
 30
0.0
 42
-0.2418327667378167
  0
VERTEX
  5
1B1E
  8
SAPA_PROFIL
 10
62.256130958696183
 20
40.000000000003922
 30
0.0
  0
VERTEX
  5
1B1F
  8
SAPA_PROFIL
 10
60.443389324929619
 20
39.999999999985448
 30
0.0
 42
-0.1095178116817878
  0
VERTEX
  5
1B20
  8
SAPA_PROFIL
 10
59.598152801458639
 20
40.187384425907283
 30
0.0
  0
VERTEX
  5
1B21
  8
SAPA_PROFIL
 10
53.968326436319209
 20
42.812615574068332
 30
0.0
 42
0.1095178116855129
  0
VERTEX
  5
1B22
  8
SAPA_PROFIL
 10
53.123089912834871
 20
43.0
 30
0.0
  0
VERTEX
  5
1B23
  8
SAPA_PROFIL
 10
45.999999999657909
 20
43.000000000007283
 30
0.0
 42
0.4142135623730957
  0
VERTEX
  5
1B24
  8
SAPA_PROFIL
 10
45.499999999657909
 20
42.499999999985448
 30
0.0
  0
VERTEX
  5
1B25
  8
SAPA_PROFIL
 10
45.499999999657909
 20
41.499999999985441
 30
0.0
 42
0.4142135623730915
  0
VERTEX
  5
1B26
  8
SAPA_PROFIL
 10
45.999999999657909
 20
40.999999999985441
 30
0.0
  0
VERTEX
  5
1B27
  8
SAPA_PROFIL
 10
46.291287847139643
 20
40.999999999985441
 30
0.0
 42
-0.2982166266909514
  0
VERTEX
  5
1B28
  8
SAPA_PROFIL
 10
46.74954541662958
 20
40.69999999999834
 30
0.0
 42
-1.5275252316550829
  0
VERTEX
  5
1B29
  8
SAPA_PROFIL
 10
41.250454582702133
 20
40.699999999998433
 30
0.0
 42
-0.2982166266892446
  0
VERTEX
  5
1B2A
  8
SAPA_PROFIL
 10
41.708712152168907
 20
40.999999999976133
 30
0.0
  0
VERTEX
  5
1B2B
  8
SAPA_PROFIL
 10
41.999999999657909
 20
40.999999999985441
 30
0.0
 42
0.4142135623730915
  0
VERTEX
  5
1B2C
  8
SAPA_PROFIL
 10
42.499999999657909
 20
41.499999999985441
 30
0.0
  0
VERTEX
  5
1B2D
  8
SAPA_PROFIL
 10
42.499999999657909
 20
42.499999999985448
 30
0.0
 42
0.4142135623730918
  0
VERTEX
  5
1B2E
  8
SAPA_PROFIL
 10
41.999999999657909
 20
42.999999999985441
 30
0.0
  0
VERTEX
  5
1B2F
  8
SAPA_PROFIL
 10
23.076910086805469
 20
42.999999999985448
 30
0.0
 42
0.1095178116838485
  0
VERTEX
  5
1B30
  8
SAPA_PROFIL
 10
22.23167356331567
 20
42.812615574065539
 30
0.0
  0
VERTEX
  5
1B31
  8
SAPA_PROFIL
 10
17.354763476527179
 20
40.53847505247176
 30
0.0
 42
0.2914734195858569
  0
VERTEX
  5
1B32
  8
SAPA_PROFIL
 10
16.200000000004248
 20
38.725859478388891
 30
0.0
  0
VERTEX
  5
1B33
  8
SAPA_PROFIL
 10
16.200000000004248
 20
19.00000000000728
 30
0.0
 42
0.4142135623730951
  0
VERTEX
  5
1B34
  8
SAPA_PROFIL
 10
16.700000000004248
 20
18.50000000000728
 30
0.0
  0
VERTEX
  5
1B35
  8
SAPA_PROFIL
 10
17.000000000021711
 20
18.50000000000728
 30
0.0
 42
0.4142135623731035
  0
VERTEX
  5
1B36
  8
SAPA_PROFIL
 10
17.500000000021711
 20
19.00000000000728
 30
0.0
  0
VERTEX
  5
1B37
  8
SAPA_PROFIL
 10
17.500000000021711
 20
20.300000000006559
 30
0.0
 42
-0.4142135623730744
  0
VERTEX
  5
1B38
  8
SAPA_PROFIL
 10
17.7000000000188
 20
20.500000000010921
 30
0.0
  0
VERTEX
  5
1B39
  8
SAPA_PROFIL
 10
18.000000000021711
 20
20.500000000007269
 30
0.0
 42
-0.4142135623731035
  0
VERTEX
  5
1B3A
  8
SAPA_PROFIL
 10
18.500000000021711
 20
20.00000000000728
 30
0.0
  0
VERTEX
  5
1B3B
  8
SAPA_PROFIL
 10
18.499999999999911
 20
16.25000000000728
 30
0.0
 42
-0.4142135623731035
  0
VERTEX
  5
1B3C
  8
SAPA_PROFIL
 10
17.999999999999911
 20
15.75000000000728
 30
0.0
  0
VERTEX
  5
1B3D
  8
SAPA_PROFIL
 10
17.700000000004248
 20
15.75000000000728
 30
0.0
 42
-0.4142135623731159
  0
VERTEX
  5
1B3E
  8
SAPA_PROFIL
 10
17.49999999999628
 20
15.95000000002255
 30
0.0
  0
VERTEX
  5
1B3F
  8
SAPA_PROFIL
 10
17.499999999999879
 20
16.800000000006548
 30
0.0
 42
0.4142135623730951
  0
VERTEX
  5
1B40
  8
SAPA_PROFIL
 10
17.300000000010101
 20
17.00000000000728
 30
0.0
  0
VERTEX
  5
1B41
  8
SAPA_PROFIL
 10
16.300000000010101
 20
17.00000000000728
 30
0.0
 42
0.4142135623731035
  0
VERTEX
  5
1B42
  8
SAPA_PROFIL
 10
15.800000000010099
 20
16.50000000000728
 30
0.0
  0
VERTEX
  5
1B43
  8
SAPA_PROFIL
 10
15.800000000010099
 20
10.500000000007271
 30
0.0
 42
0.4142135623731033
  0
VERTEX
  5
1B44
  8
SAPA_PROFIL
 10
16.300000000010101
 20
10.00000000000728
 30
0.0
  0
SEQEND
  5
1B45
  8
SAPA_PROFIL
  0
POLYLINE
  5
15C1
  8
SAPA_PROFIL
 66
     1
 10
0.0
 20
0.0
 30
0.0
 70
     1
  0
VERTEX
  5
1B46
  8
SAPA_PROFIL
 10
59.999999999643357
 20
57.199999999986169
 30
0.0
  0
VERTEX
  5
1B47
  8
SAPA_PROFIL
 10
59.999999999643357
 20
45.600000000005821
 30
0.0
 42
-0.4142135623730951
  0
VERTEX
  5
1B48
  8
SAPA_PROFIL
 10
59.699999999640447
 20
45.30000000000291
 30
0.0
  0
VERTEX
  5
1B49
  8
SAPA_PROFIL
 10
16.800000000010069
 20
45.29999999998109
 30
0.0
 42
-0.4142135623730935
  0
VERTEX
  5
1B4A
  8
SAPA_PROFIL
 10
16.5000000000108
 20
45.599999999980362
 30
0.0
  0
VERTEX
  5
1B4B
  8
SAPA_PROFIL
 10
16.499999999999879
 20
57.20000000000072
 30
0.0
 42
-0.4142135623730935
  0
VERTEX
  5
1B4C
  8
SAPA_PROFIL
 10
16.800000000010069
 20
57.5
 30
0.0
  0
VERTEX
  5
1B4D
  8
SAPA_PROFIL
 10
59.699999999640447
 20
57.499999999985448
 30
0.0
 42
-0.4142135623730939
  0
SEQEND
  5
1B4E
  8
SAPA_PROFIL
  0
POLYLINE
  5
15C2
  8
SAPA_PROFIL
 66
     1
 10
0.0
 20
0.0
 30
0.0
 70
     1
  0
VERTEX
  5
1B4F
  8
SAPA_PROFIL
 10
135.69999992774439
 20
10.000000000032729
 30
0.0
 42
-0.4142135623624294
  0
VERTEX
  5
1B50
  8
SAPA_PROFIL
 10
135.49999992775469
 20
10.20000000000798
 30
0.0
  0
VERTEX
  5
1B51
  8
SAPA_PROFIL
 10
135.49999992774011
 20
11.050000000006539
 30
0.0
 42
0.4142135623730744
  0
VERTEX
  5
1B52
  8
SAPA_PROFIL
 10
135.2999999277358
 20
11.250000000007271
 30
0.0
  0
VERTEX
  5
1B53
  8
SAPA_PROFIL
 10
134.9999999277546
 20
11.24999999999998
 30
0.0
 42
0.4142135623731035
  0
VERTEX
  5
1B54
  8
SAPA_PROFIL
 10
134.4999999277546
 20
10.74999999999998
 30
0.0
  0
VERTEX
  5
1B55
  8
SAPA_PROFIL
 10
134.4999999277546
 20
7.7499999999999778
 30
0.0
 42
0.4142135623731035
  0
VERTEX
  5
1B56
  8
SAPA_PROFIL
 10
134.9999999277546
 20
7.2499999999999778
 30
0.0
  0
VERTEX
  5
1B57
  8
SAPA_PROFIL
 10
135.29999992775029
 20
7.2499999999999778
 30
0.0
 42
0.4142135623730744
  0
VERTEX
  5
1B58
  8
SAPA_PROFIL
 10
135.49999992775469
 20
7.4500000000007196
 30
0.0
  0
VERTEX
  5
1B59
  8
SAPA_PROFIL
 10
135.49999992774369
 20
8.3000000000029033
 30
0.0
 42
-0.4142135623730534
  0
VERTEX
  5
1B5A
  8
SAPA_PROFIL
 10
135.69999992774439
 20
8.4999999999999787
 30
0.0
  0
VERTEX
  5
1B5B
  8
SAPA_PROFIL
 10
136.69999992774439
 20
8.4999999999999787
 30
0.0
 42
-0.4142135623731035
  0
VERTEX
  5
1B5C
  8
SAPA_PROFIL
 10
137.19999992774439
 20
7.9999999999999778
 30
0.0
  0
VERTEX
  5
1B5D
  8
SAPA_PROFIL
 10
137.19999992774439
 20
1.999999999999992
 30
0.0
 42
-0.4142135623731033
  0
VERTEX
  5
1B5E
  8
SAPA_PROFIL
 10
136.69999992774439
 20
1.499999999999992
 30
0.0
  0
VERTEX
  5
1B5F
  8
SAPA_PROFIL
 10
135.69999992774439
 20
1.5000000000109059
 30
0.0
 42
-0.414213562373064
  0
VERTEX
  5
1B60
  8
SAPA_PROFIL
 10
135.49999992775469
 20
1.70000000000072
 30
0.0
  0
VERTEX
  5
1B61
  8
SAPA_PROFIL
 10
135.49999992775469
 20
2.5500000000029028
 30
0.0
 42
0.414213562373064
  0
VERTEX
  5
1B62
  8
SAPA_PROFIL
 10
135.29999992775029
 20
2.749999999999992
 30
0.0
  0
VERTEX
  5
1B63
  8
SAPA_PROFIL
 10
134.9999999277546
 20
2.749999999999992
 30
0.0
 42
0.4142135623731035
  0
VERTEX
  5
1B64
  8
SAPA_PROFIL
 10
134.4999999277546
 20
2.249999999999992
 30
0.0
  0
VERTEX
  5
1B65
  8
SAPA_PROFIL
 10
134.4999999277546
 20
0.4999999999999929
 30
0.0
 42
0.4142135623731035
  0
VERTEX
  5
1B66
  8
SAPA_PROFIL
 10
134.9999999277546
 20
-0.0000000000000071
 30
0.0
  0
VERTEX
  5
1B67
  8
SAPA_PROFIL
 10
137.4999999277546
 20
-0.0000000000000071
 30
0.0
 42
0.4142135623730966
  0
VERTEX
  5
1B68
  8
SAPA_PROFIL
 10
138.9999999277546
 20
1.499999999999992
 30
0.0
  0
VERTEX
  5
1B69
  8
SAPA_PROFIL
 10
138.99999992775469
 20
59.700000000000699
 30
0.0
 42
0.4142135623730935
  0
VERTEX
  5
1B6A
  8
SAPA_PROFIL
 10
138.6999999277445
 20
59.999999999999993
 30
0.0
  0
VERTEX
  5
1B6B
  8
SAPA_PROFIL
 10
90.743868969058383
 20
60.0
 30
0.0
 42
0.2418327667378115
  0
VERTEX
  5
1B6C
  8
SAPA_PROFIL
 10
90.49999992811999
 20
59.874722325032891
 30
0.0
 42
-0.2418327667509125
  0
VERTEX
  5
1B6D
  8
SAPA_PROFIL
 10
90.256130887164019
 20
59.749444650060461
 30
0.0
  0
VERTEX
  5
1B6E
  8
SAPA_PROFIL
 10
89.299999928114119
 20
59.74944465005683
 30
0.0
 42
-0.2418327667448973
  0
VERTEX
  5
1B6F
  8
SAPA_PROFIL
 10
89.056130887159185
 20
59.874722325025253
 30
0.0
 42
0.2418327667448979
  0
VERTEX
  5
1B70
  8
SAPA_PROFIL
 10
88.81226184620661
 20
59.99999999999244
 30
0.0
  0
VERTEX
  5
1B71
  8
SAPA_PROFIL
 10
86.714189490488607
 20
59.99999999999244
 30
0.0
 42
0.6681786379192718
  0
VERTEX
  5
1B72
  8
SAPA_PROFIL
 10
86.007082709302011
 20
58.292893218805943
 30
0.0
  0
VERTEX
  5
1B73
  8
SAPA_PROFIL
 10
87.312131962471
 20
56.98784396563677
 30
0.0
 42
0.1989123673797335
  0
VERTEX
  5
1B74
  8
SAPA_PROFIL
 10
87.524263996827074
 20
56.899975999992662
 30
0.0
  0
VERTEX
  5
1B75
  8
SAPA_PROFIL
 10
88.11076944357427
 20
56.899975999992797
 30
0.0
 42
0.1316524975873855
  0
VERTEX
  5
1B76
  8
SAPA_PROFIL
 10
88.260769443574191
 20
56.940168378857443
 30
0.0
  0
VERTEX
  5
1B77
  8
SAPA_PROFIL
 10
89.749999928115074
 20
57.799975999992753
 30
0.0
  0
VERTEX
  5
1B78
  8
SAPA_PROFIL
 10
90.199999928115005
 20
57.79998799999241
 30
0.0
 42
-0.4142135623731054
  0
VERTEX
  5
1B79
  8
SAPA_PROFIL
 10
90.499999928115017
 20
57.499987999992413
 30
0.0
  0
VERTEX
  5
1B7A
  8
SAPA_PROFIL
 10
90.49999992811496
 20
53.89997599999235
 30
0.0
 42
-0.4142135623730951
  0
VERTEX
  5
1B7B
  8
SAPA_PROFIL
 10
90.199999928114977
 20
53.599975999992353
 30
0.0
  0
VERTEX
  5
1B7C
  8
SAPA_PROFIL
 10
89.749999928114946
 20
53.599975999992452
 30
0.0
  0
VERTEX
  5
1B7D
  8
SAPA_PROFIL
 10
88.260739797040799
 20
54.45980073756143
 30
0.0
 42
0.1316363093594257
  0
VERTEX
  5
1B7E
  8
SAPA_PROFIL
 10
88.110758891994067
 20
54.499993115818398
 30
0.0
  0
VERTEX
  5
1B7F
  8
SAPA_PROFIL
 10
87.999999928111208
 20
54.500000165609201
 30
0.0
  0
VERTEX
  5
1B80
  8
SAPA_PROFIL
 10
87.999999928111208
 20
52.914359353937471
 30
0.0
 42
0.2679491924308306
  0
VERTEX
  5
1B81
  8
SAPA_PROFIL
 10
88.499999928111194
 20
52.048333950158849
 30
0.0
  0
VERTEX
  5
1B82
  8
SAPA_PROFIL
 10
90.249999928111649
 20
51.03797097908037
 30
0.0
 42
-0.2679491924308306
  0
VERTEX
  5
1B83
  8
SAPA_PROFIL
 10
90.499999928111208
 20
50.604958277188423
 30
0.0
  0
VERTEX
  5
1B84
  8
SAPA_PROFIL
 10
90.499999928111208
 20
49.395041722807953
 30
0.0
 42
-0.2679491924308304
  0
VERTEX
  5
1B85
  8
SAPA_PROFIL
 10
90.249999928111208
 20
48.962029020916809
 30
0.0
  0
VERTEX
  5
1B86
  8
SAPA_PROFIL
 10
88.499999928111194
 20
47.951666049841151
 30
0.0
 42
0.2679491924308308
  0
VERTEX
  5
1B87
  8
SAPA_PROFIL
 10
87.999999928113084
 20
47.085640646055253
 30
0.0
  0
VERTEX
  5
1B88
  8
SAPA_PROFIL
 10
87.999999928110952
 20
45.499999834387147
 30
0.0
  0
VERTEX
  5
1B89
  8
SAPA_PROFIL
 10
88.110758891994067
 20
45.500006884177957
 30
0.0
 42
0.1316363093594255
  0
VERTEX
  5
1B8A
  8
SAPA_PROFIL
 10
88.260739797040799
 20
45.540199262434932
 30
0.0
  0
VERTEX
  5
1B8B
  8
SAPA_PROFIL
 10
89.749999928114946
 20
46.400024000003903
 30
0.0
  0
VERTEX
  5
1B8C
  8
SAPA_PROFIL
 10
90.199999928114977
 20
46.400024000004002
 30
0.0
 42
-0.4142135623730951
  0
VERTEX
  5
1B8D
  8
SAPA_PROFIL
 10
90.49999992811496
 20
46.100024000004012
 30
0.0
  0
VERTEX
  5
1B8E
  8
SAPA_PROFIL
 10
90.499999928115017
 20
42.500012000003949
 30
0.0
 42
-0.4142135623731054
  0
VERTEX
  5
1B8F
  8
SAPA_PROFIL
 10
90.199999928115005
 20
42.200012000003952
 30
0.0
  0
VERTEX
  5
1B90
  8
SAPA_PROFIL
 10
89.749999928115074
 20
42.200024000003609
 30
0.0
  0
VERTEX
  5
1B91
  8
SAPA_PROFIL
 10
88.260769443574191
 20
43.059831621138912
 30
0.0
 42
0.1316524975873855
  0
VERTEX
  5
1B92
  8
SAPA_PROFIL
 10
88.11076944357427
 20
43.100024000003557
 30
0.0
  0
VERTEX
  5
1B93
  8
SAPA_PROFIL
 10
87.524263996827074
 20
43.1000240000037
 30
0.0
 42
0.1989123673797335
  0
VERTEX
  5
1B94
  8
SAPA_PROFIL
 10
87.312131962471
 20
43.012156034359577
 30
0.0
  0
VERTEX
  5
1B95
  8
SAPA_PROFIL
 10
86.007082709302011
 20
41.707106781190419
 30
0.0
 42
0.6681786379192716
  0
VERTEX
  5
1B96
  8
SAPA_PROFIL
 10
86.714189490488607
 20
40.000000000003922
 30
0.0
  0
VERTEX
  5
1B97
  8
SAPA_PROFIL
 10
88.812261846208315
 20
40.000000000003922
 30
0.0
 42
0.2418327667433386
  0
VERTEX
  5
1B98
  8
SAPA_PROFIL
 10
89.056130887159867
 20
40.125277674969681
 30
0.0
 42
-0.2418327667449431
  0
VERTEX
  5
1B99
  8
SAPA_PROFIL
 10
89.299999928114119
 20
40.250555349935887
 30
0.0
  0
VERTEX
  5
1B9A
  8
SAPA_PROFIL
 10
90.256130887164019
 20
40.250555349939532
 30
0.0
 42
-0.2418327667509097
  0
VERTEX
  5
1B9B
  8
SAPA_PROFIL
 10
90.499999928111137
 20
40.125277674957111
 30
0.0
 42
0.2418327667378167
  0
VERTEX
  5
1B9C
  8
SAPA_PROFIL
 10
90.743868969058383
 20
40.000000000003922
 30
0.0
  0
VERTEX
  5
1B9D
  8
SAPA_PROFIL
 10
92.556610602824946
 20
39.999999999985448
 30
0.0
 42
0.1095178116817878
  0
VERTEX
  5
1B9E
  8
SAPA_PROFIL
 10
93.401847126295934
 20
40.187384425907283
 30
0.0
  0
VERTEX
  5
1B9F
  8
SAPA_PROFIL
 10
99.03167349143537
 20
42.812615574068332
 30
0.0
 42
-0.1095178116855129
  0
VERTEX
  5
1BA0
  8
SAPA_PROFIL
 10
99.876910014919702
 20
43.0
 30
0.0
  0
VERTEX
  5
1BA1
  8
SAPA_PROFIL
 10
106.9999999280967
 20
43.000000000007283
 30
0.0
 42
-0.4142135623730957
  0
VERTEX
  5
1BA2
  8
SAPA_PROFIL
 10
107.4999999280966
 20
42.499999999985448
 30
0.0
  0
VERTEX
  5
1BA3
  8
SAPA_PROFIL
 10
107.4999999280966
 20
41.499999999985441
 30
0.0
 42
-0.4142135623730915
  0
VERTEX
  5
1BA4
  8
SAPA_PROFIL
 10
106.9999999280967
 20
40.999999999985441
 30
0.0
  0
VERTEX
  5
1BA5
  8
SAPA_PROFIL
 10
106.7087120806149
 20
40.999999999985441
 30
0.0
 42
0.2982166266909514
  0
VERTEX
  5
1BA6
  8
SAPA_PROFIL
 10
106.250454511125
 20
40.69999999999834
 30
0.0
 42
1.5275252316550829
  0
VERTEX
  5
1BA7
  8
SAPA_PROFIL
 10
111.7495453450524
 20
40.699999999998433
 30
0.0
 42
0.2982166266892446
  0
VERTEX
  5
1BA8
  8
SAPA_PROFIL
 10
111.2912877755856
 20
40.999999999976133
 30
0.0
  0
VERTEX
  5
1BA9
  8
SAPA_PROFIL
 10
110.9999999280967
 20
40.999999999985441
 30
0.0
 42
-0.4142135623730915
  0
VERTEX
  5
1BAA
  8
SAPA_PROFIL
 10
110.4999999280966
 20
41.499999999985441
 30
0.0
  0
VERTEX
  5
1BAB
  8
SAPA_PROFIL
 10
110.4999999280966
 20
42.499999999985448
 30
0.0
 42
-0.4142135623730918
  0
VERTEX
  5
1BAC
  8
SAPA_PROFIL
 10
110.9999999280967
 20
42.999999999985441
 30
0.0
  0
VERTEX
  5
1BAD
  8
SAPA_PROFIL
 10
129.9230898409491
 20
42.999999999985427
 30
0.0
 42
-0.1095178116838485
  0
VERTEX
  5
1BAE
  8
SAPA_PROFIL
 10
130.76832636443891
 20
42.812615574065511
 30
0.0
  0
VERTEX
  5
1BAF
  8
SAPA_PROFIL
 10
135.64523645122739
 20
40.538475052471753
 30
0.0
 42
-0.2914734195858569
  0
VERTEX
  5
1BB0
  8
SAPA_PROFIL
 10
136.79999992775029
 20
38.72585947838887
 30
0.0
  0
VERTEX
  5
1BB1
  8
SAPA_PROFIL
 10
136.79999992775029
 20
19.000000000007269
 30
0.0
 42
-0.4142135623730951
  0
VERTEX
  5
1BB2
  8
SAPA_PROFIL
 10
136.29999992775029
 20
18.500000000007269
 30
0.0
  0
VERTEX
  5
1BB3
  8
SAPA_PROFIL
 10
135.9999999277328
 20
18.500000000007269
 30
0.0
 42
-0.4142135623731035
  0
VERTEX
  5
1BB4
  8
SAPA_PROFIL
 10
135.4999999277328
 20
19.000000000007269
 30
0.0
  0
VERTEX
  5
1BB5
  8
SAPA_PROFIL
 10
135.4999999277328
 20
20.300000000006541
 30
0.0
 42
0.4142135623730744
  0
VERTEX
  5
1BB6
  8
SAPA_PROFIL
 10
135.2999999277358
 20
20.50000000001091
 30
0.0
  0
VERTEX
  5
1BB7
  8
SAPA_PROFIL
 10
134.9999999277328
 20
20.500000000007251
 30
0.0
 42
0.4142135623731035
  0
VERTEX
  5
1BB8
  8
SAPA_PROFIL
 10
134.4999999277328
 20
20.000000000007269
 30
0.0
  0
VERTEX
  5
1BB9
  8
SAPA_PROFIL
 10
134.4999999277546
 20
16.250000000007269
 30
0.0
 42
0.4142135623731035
  0
VERTEX
  5
1BBA
  8
SAPA_PROFIL
 10
134.9999999277546
 20
15.750000000007271
 30
0.0
  0
VERTEX
  5
1BBB
  8
SAPA_PROFIL
 10
135.29999992775029
 20
15.750000000007271
 30
0.0
 42
0.4142135623731159
  0
VERTEX
  5
1BBC
  8
SAPA_PROFIL
 10
135.4999999277583
 20
15.950000000022531
 30
0.0
  0
VERTEX
  5
1BBD
  8
SAPA_PROFIL
 10
135.49999992775469
 20
16.800000000006541
 30
0.0
 42
-0.4142135623730951
  0
VERTEX
  5
1BBE
  8
SAPA_PROFIL
 10
135.69999992774439
 20
17.000000000007269
 30
0.0
  0
VERTEX
  5
1BBF
  8
SAPA_PROFIL
 10
136.69999992774439
 20
17.000000000007269
 30
0.0
 42
-0.4142135623731035
  0
VERTEX
  5
1BC0
  8
SAPA_PROFIL
 10
137.19999992774439
 20
16.500000000007269
 30
0.0
  0
VERTEX
  5
1BC1
  8
SAPA_PROFIL
 10
137.19999992774439
 20
10.500000000007249
 30
0.0
 42
-0.4142135623731033
  0
VERTEX
  5
1BC2
  8
SAPA_PROFIL
 10
136.69999992774439
 20
10.000000000007271
 30
0.0
  0
SEQEND
  5
1BC3
  8
SAPA_PROFIL
  0
POLYLINE
  5
15C3
  8
SAPA_PROFIL
 66
     1
 10
0.0
 20
0.0
 30
0.0
 70
     1
  0
VERTEX
  5
1BC4
  8
SAPA_PROFIL
 10
92.999999928111208
 20
57.199999999986169
 30
0.0
  0
VERTEX
  5
1BC5
  8
SAPA_PROFIL
 10
92.999999928111208
 20
45.600000000005821
 30
0.0
 42
0.4142135623730951
  0
VERTEX
  5
1BC6
  8
SAPA_PROFIL
 10
93.299999928114119
 20
45.30000000000291
 30
0.0
  0
VERTEX
  5
1BC7
  8
SAPA_PROFIL
 10
136.1999999277445
 20
45.299999999981061
 30
0.0
 42
0.4142135623730935
  0
VERTEX
  5
1BC8
  8
SAPA_PROFIL
 10
136.49999992774369
 20
45.599999999980341
 30
0.0
  0
VERTEX
  5
1BC9
  8
SAPA_PROFIL
 10
136.49999992775469
 20
57.200000000000699
 30
0.0
 42
0.4142135623730935
  0
VERTEX
  5
1BCA
  8
SAPA_PROFIL
 10
136.1999999277445
 20
57.499999999999993
 30
0.0
  0
VERTEX
  5
1BCB
  8
SAPA_PROFIL
 10
93.299999928114119
 20
57.499999999985441
 30
0.0
 42
0.4142135623730939
  0
SEQEND
  5
1BCC
  8
SAPA_PROFIL
  0
POLYLINE
  5
15C4
  8
SAPA_PROFIL
 62
     4
 66
     1
 10
0.0
 20
0.0
 30
-0.2
 70
     1
1001
RC_PROFILE
1002
{
1000
Region
1002
}
  0
VERTEX
  5
1BCD
  8
SAPA_PROFIL
 62
     4
 10
78.999999996510326
 20
16.652820282319411
 30
-0.2
  0
VERTEX
  5
1BCE
  8
SAPA_PROFIL
 62
     4
 10
78.999999996510326
 20
2.4528202823173331
 30
-0.2
 42
-0.4142135623720297
  0
VERTEX
  5
1BCF
  8
SAPA_PROFIL
 62
     4
 10
78.499999996512145
 20
1.9528202823173331
 30
-0.2
  0
VERTEX
  5
1BD0
  8
SAPA_PROFIL
 62
     4
 10
74.499999995890946
 20
1.9528202823143621
 30
-0.2
 42
-0.4142135623730951
  0
VERTEX
  5
1BD1
  8
SAPA_PROFIL
 62
     4
 10
73.99999999589096
 20
2.4528202823143621
 30
-0.2
  0
VERTEX
  5
1BD2
  8
SAPA_PROFIL
 62
     4
 10
73.999999995883684
 20
16.65282028231827
 30
-0.2
 42
-0.414213562373761
  0
VERTEX
  5
1BD3
  8
SAPA_PROFIL
 62
     4
 10
74.499999995883684
 20
17.152820282319389
 30
-0.2
  0
VERTEX
  5
1BD4
  8
SAPA_PROFIL
 62
     4
 10
78.499999996510326
 20
17.152820282319389
 30
-0.2
 42
-0.4142135623730951
  0
SEQEND
  5
1BD5
  8
SAPA_PROFIL
 62
     4
  0
POLYLINE
  5
15C5
  8
SAPA_PROFIL
 62
     4
 66
     1
 10
0.0
 20
0.0
 30
0.0
1001
GENIUS_GENOBJ-N-FIL_13
1002
{
1000
OWNER
1000
GEN
1002
}
1001
GENIUS_GENODEF_13
1002
{
1000
HIER
1070
     0
1002
}
1002
{
1000
MANEDIT
1070
     0
1002
}
1002
{
1000
NOSEL
1070
     0
1002
}
1002
{
1000
BEHIND
1070
     0
1002
}
1002
{
1000
OTHER
1070
     0
1002
}
1002
{
1000
REACTOR
1002
}
  0
VERTEX
  5
1BD6
  8
SAPA_PROFIL
 62
     4
 10
65.577259926491877
 20
43.416293838728457
 30
0.0
 42
0.131652497587489
  0
VERTEX
  5
1BD7
  8
SAPA_PROFIL
 62
     4
 10
64.977259926491456
 20
43.255524323269718
 30
0.0
  0
VERTEX
  5
1BD8
  8
SAPA_PROFIL
 62
     4
 10
63.236601985847933
 20
42.250554992671852
 30
0.0
  0
VERTEX
  5
1BD9
  8
SAPA_PROFIL
 62
     4
 10
62.800000064269447
 20
42.250543349936493
 30
0.0
 42
-0.4142135623731046
  0
VERTEX
  5
1BDA
  8
SAPA_PROFIL
 62
     4
 10
62.550000064269447
 20
42.500543349936493
 30
0.0
  0
VERTEX
  5
1BDB
  8
SAPA_PROFIL
 62
     4
 10
62.550000064269511
 20
46.100555349936549
 30
0.0
 42
-0.4142135623730957
  0
VERTEX
  5
1BDC
  8
SAPA_PROFIL
 62
     4
 10
62.800000064269483
 20
46.350555349936549
 30
0.0
  0
VERTEX
  5
1BDD
  8
SAPA_PROFIL
 62
     4
 10
63.236602604647942
 20
46.350555349936457
 30
0.0
  0
VERTEX
  5
1BDE
  8
SAPA_PROFIL
 62
     4
 10
64.922740202048828
 20
45.37706335418639
 30
0.0
 42
0.1316524975873848
  0
VERTEX
  5
1BDF
  8
SAPA_PROFIL
 62
     4
 10
65.522740202048766
 20
45.216293838727729
 30
0.0
  0
VERTEX
  5
1BE0
  8
SAPA_PROFIL
 62
     4
 10
87.477259790339787
 20
45.216293838727729
 30
0.0
 42
0.1316524975873846
  0
VERTEX
  5
1BE1
  8
SAPA_PROFIL
 62
     4
 10
88.077259790339752
 20
45.37706335418639
 30
0.0
  0
VERTEX
  5
1BE2
  8
SAPA_PROFIL
 62
     4
 10
89.763397387740611
 20
46.350555349936457
 30
0.0
  0
VERTEX
  5
1BE3
  8
SAPA_PROFIL
 62
     4
 10
90.19999992811907
 20
46.350555349936549
 30
0.0
 42
-0.4142135623730951
  0
VERTEX
  5
1BE4
  8
SAPA_PROFIL
 62
     4
 10
90.449999928119084
 20
46.100555349936549
 30
0.0
  0
VERTEX
  5
1BE5
  8
SAPA_PROFIL
 62
     4
 10
90.449999928119084
 20
42.500543349936493
 30
0.0
 42
-0.4142135623731046
  0
VERTEX
  5
1BE6
  8
SAPA_PROFIL
 62
     4
 10
90.199999928119084
 20
42.250543349936493
 30
0.0
  0
VERTEX
  5
1BE7
  8
SAPA_PROFIL
 62
     4
 10
89.763398006540655
 20
42.250554992671852
 30
0.0
  0
VERTEX
  5
1BE8
  8
SAPA_PROFIL
 62
     4
 10
88.022740065897096
 20
43.255524323269718
 30
0.0
 42
0.1316524975874892
  0
VERTEX
  5
1BE9
  8
SAPA_PROFIL
 62
     4
 10
87.422740065896676
 20
43.416293838728457
 30
0.0
  0
VERTEX
  5
1BEA
  8
SAPA_PROFIL
 62
     4
 10
84.699999928368072
 20
43.416293838727782
 30
0.0
 42
0.414213562374094
  0
VERTEX
  5
1BEB
  8
SAPA_PROFIL
 62
     4
 10
83.499999928369164
 20
42.216293838723637
 30
0.0
  0
VERTEX
  5
1BEC
  8
SAPA_PROFIL
 62
     4
 10
83.499999928458294
 20
16.418558811801809
 30
0.0
 42
-0.4142135623730951
  0
VERTEX
  5
1BED
  8
SAPA_PROFIL
 62
     4
 10
82.999999928458294
 20
15.918558811801811
 30
0.0
  0
VERTEX
  5
1BEE
  8
SAPA_PROFIL
 62
     4
 10
82.799999928458476
 20
15.91855881180159
 30
0.0
 42
-0.4142135623730951
  0
VERTEX
  5
1BEF
  8
SAPA_PROFIL
 62
     4
 10
82.499999928458294
 20
16.218558811801749
 30
0.0
  0
VERTEX
  5
1BF0
  8
SAPA_PROFIL
 62
     4
 10
82.499999928458294
 20
16.868558811803659
 30
0.0
 42
0.4142135623730951
  0
VERTEX
  5
1BF1
  8
SAPA_PROFIL
 62
     4
 10
82.199999928457189
 20
17.168558811803631
 30
0.0
  0
VERTEX
  5
1BF2
  8
SAPA_PROFIL
 62
     4
 10
81.299999928461204
 20
17.168558811802718
 30
0.0
 42
0.4142135623730951
  0
VERTEX
  5
1BF3
  8
SAPA_PROFIL
 62
     4
 10
80.799999928461204
 20
16.668558811803631
 30
0.0
  0
VERTEX
  5
1BF4
  8
SAPA_PROFIL
 62
     4
 10
80.799999928461204
 20
10.6685588118018
 30
0.0
 42
0.4142135623730951
  0
VERTEX
  5
1BF5
  8
SAPA_PROFIL
 62
     4
 10
81.299999928461204
 20
10.1685588118018
 30
0.0
  0
VERTEX
  5
1BF6
  8
SAPA_PROFIL
 62
     4
 10
82.199999928459931
 20
10.1685588118018
 30
0.0
 42
0.4142135623710974
  0
VERTEX
  5
1BF7
  8
SAPA_PROFIL
 62
     4
 10
82.499999928459204
 20
10.468558811799721
 30
0.0
  0
VERTEX
  5
1BF8
  8
SAPA_PROFIL
 62
     4
 10
82.499999928463737
 20
11.11855881180162
 30
0.0
 42
-0.4142135623730951
  0
VERTEX
  5
1BF9
  8
SAPA_PROFIL
 62
     4
 10
82.799999928465738
 20
11.41855881179978
 30
0.0
  0
VERTEX
  5
1BFA
  8
SAPA_PROFIL
 62
     4
 10
82.999999928458294
 20
11.418558811798629
 30
0.0
 42
-0.4142135623730951
  0
VERTEX
  5
1BFB
  8
SAPA_PROFIL
 62
     4
 10
83.499999928458294
 20
10.918558811798629
 30
0.0
  0
VERTEX
  5
1BFC
  8
SAPA_PROFIL
 62
     4
 10
83.499999928458294
 20
7.9185588117986319
 30
0.0
 42
-0.4142135623730951
  0
VERTEX
  5
1BFD
  8
SAPA_PROFIL
 62
     4
 10
82.999999928458294
 20
7.4185588117986319
 30
0.0
  0
VERTEX
  5
1BFE
  8
SAPA_PROFIL
 62
     4
 10
82.799999928458476
 20
7.4185588117986319
 30
0.0
 42
-0.4142135623730951
  0
VERTEX
  5
1BFF
  8
SAPA_PROFIL
 62
     4
 10
82.499999928458294
 20
7.7185588117988138
 30
0.0
  0
VERTEX
  5
1C00
  8
SAPA_PROFIL
 62
     4
 10
82.499999928458294
 20
8.368558811798664
 30
0.0
 42
0.4142135623730951
  0
VERTEX
  5
1C01
  8
SAPA_PROFIL
 62
     4
 10
82.199999928457189
 20
8.6685588117986327
 30
0.0
  0
VERTEX
  5
1C02
  8
SAPA_PROFIL
 62
     4
 10
81.299999928461204
 20
8.6685588117986327
 30
0.0
 42
0.4142135623730951
  0
VERTEX
  5
1C03
  8
SAPA_PROFIL
 62
     4
 10
80.799999928461204
 20
8.1685588117986327
 30
0.0
  0
VERTEX
  5
1C04
  8
SAPA_PROFIL
 62
     4
 10
80.799999928461204
 20
2.1685588117986461
 30
0.0
 42
0.4142135623730951
  0
VERTEX
  5
1C05
  8
SAPA_PROFIL
 62
     4
 10
81.299999928461204
 20
1.6685588117986321
 30
0.0
  0
VERTEX
  5
1C06
  8
SAPA_PROFIL
 62
     4
 10
82.199999928457189
 20
1.6685588117986321
 30
0.0
 42
0.4142135623730951
  0
VERTEX
  5
1C07
  8
SAPA_PROFIL
 62
     4
 10
82.499999928458294
 20
1.968558811798828
 30
0.0
  0
VERTEX
  5
1C08
  8
SAPA_PROFIL
 62
     4
 10
82.499999928458294
 20
2.618558811798692
 30
0.0
 42
-0.4142135623730949
  0
VERTEX
  5
1C09
  8
SAPA_PROFIL
 62
     4
 10
82.799999928458476
 20
2.9185588117986319
 30
0.0
  0
VERTEX
  5
1C0A
  8
SAPA_PROFIL
 62
     4
 10
82.999999928458294
 20
2.9185588117986319
 30
0.0
 42
-0.4142135623730951
  0
VERTEX
  5
1C0B
  8
SAPA_PROFIL
 62
     4
 10
83.499999928458294
 20
2.4185588117986319
 30
0.0
  0
VERTEX
  5
1C0C
  8
SAPA_PROFIL
 62
     4
 10
83.499999928457385
 20
0.6685588117986328
 30
0.0
 42
-0.4142135623726955
  0
VERTEX
  5
1C0D
  8
SAPA_PROFIL
 62
     4
 10
82.9999999281236
 20
0.1685588117986327
 30
0.0
  0
VERTEX
  5
1C0E
  8
SAPA_PROFIL
 62
     4
 10
69.999999928116296
 20
0.1685588117984054
 30
0.0
 42
-0.4142135623732284
  0
VERTEX
  5
1C0F
  8
SAPA_PROFIL
 62
     4
 10
69.499999927839823
 20
0.6685588117968138
 30
0.0
  0
VERTEX
  5
1C10
  8
SAPA_PROFIL
 62
     4
 10
69.499999927839823
 20
2.4185588117968129
 30
0.0
 42
-0.4142135623730951
  0
VERTEX
  5
1C11
  8
SAPA_PROFIL
 62
     4
 10
69.999999927839823
 20
2.9185588117968271
 30
0.0
  0
VERTEX
  5
1C12
  8
SAPA_PROFIL
 62
     4
 10
70.199999927839656
 20
2.9185588117968271
 30
0.0
 42
-0.4142135623730951
  0
VERTEX
  5
1C13
  8
SAPA_PROFIL
 62
     4
 10
70.499999927839838
 20
2.618558811796631
 30
0.0
  0
VERTEX
  5
1C14
  8
SAPA_PROFIL
 62
     4
 10
70.499999927839823
 20
1.968558811796782
 30
0.0
 42
0.4142135623730951
  0
VERTEX
  5
1C15
  8
SAPA_PROFIL
 62
     4
 10
70.799999927839096
 20
1.6685588117968271
 30
0.0
  0
VERTEX
  5
1C16
  8
SAPA_PROFIL
 62
     4
 10
71.699999927836913
 20
1.6685588117968271
 30
0.0
 42
0.4142135623730951
  0
VERTEX
  5
1C17
  8
SAPA_PROFIL
 62
     4
 10
72.199999927836927
 20
2.1685588117968129
 30
0.0
  0
VERTEX
  5
1C18
  8
SAPA_PROFIL
 62
     4
 10
72.199999927836927
 20
8.1685588117968138
 30
0.0
 42
0.4142135623730951
  0
VERTEX
  5
1C19
  8
SAPA_PROFIL
 62
     4
 10
71.699999927836927
 20
8.6685588117968138
 30
0.0
  0
VERTEX
  5
1C1A
  8
SAPA_PROFIL
 62
     4
 10
70.79999992783911
 20
8.6685588117968138
 30
0.0
 42
0.4142135623730953
  0
VERTEX
  5
1C1B
  8
SAPA_PROFIL
 62
     4
 10
70.499999927839838
 20
8.3685588117966319
 30
0.0
  0
VERTEX
  5
1C1C
  8
SAPA_PROFIL
 62
     4
 10
70.499999927839838
 20
7.7185588117967683
 30
0.0
 42
-0.4142135623730951
  0
VERTEX
  5
1C1D
  8
SAPA_PROFIL
 62
     4
 10
70.199999927839656
 20
7.4185588117968129
 30
0.0
  0
VERTEX
  5
1C1E
  8
SAPA_PROFIL
 62
     4
 10
69.999999927839823
 20
7.4185588117968129
 30
0.0
 42
-0.4142135623730951
  0
VERTEX
  5
1C1F
  8
SAPA_PROFIL
 62
     4
 10
69.499999927839823
 20
7.9185588117968129
 30
0.0
  0
VERTEX
  5
1C20
  8
SAPA_PROFIL
 62
     4
 10
69.499999927839823
 20
10.91855881179681
 30
0.0
 42
-0.4142135623730951
  0
VERTEX
  5
1C21
  8
SAPA_PROFIL
 62
     4
 10
69.999999927839823
 20
11.41855881179681
 30
0.0
  0
VERTEX
  5
1C22
  8
SAPA_PROFIL
 62
     4
 10
70.19999992783238
 20
11.418558811797951
 30
0.0
 42
-0.414213562372873
  0
VERTEX
  5
1C23
  8
SAPA_PROFIL
 62
     4
 10
70.499999927834381
 20
11.11855881179981
 30
0.0
  0
VERTEX
  5
1C24
  8
SAPA_PROFIL
 62
     4
 10
70.499999927837095
 20
10.468558811798809
 30
0.0
 42
0.4142135623722071
  0
VERTEX
  5
1C25
  8
SAPA_PROFIL
 62
     4
 10
70.799999927838201
 20
10.16855881179978
 30
0.0
  0
VERTEX
  5
1C26
  8
SAPA_PROFIL
 62
     4
 10
71.699999927836927
 20
10.16855881179978
 30
0.0
 42
0.4142135623730951
  0
VERTEX
  5
1C27
  8
SAPA_PROFIL
 62
     4
 10
72.199999927836927
 20
10.66855881179975
 30
0.0
  0
VERTEX
  5
1C28
  8
SAPA_PROFIL
 62
     4
 10
72.199999927829651
 20
16.668558811801809
 30
0.0
 42
0.4142135623730951
  0
VERTEX
  5
1C29
  8
SAPA_PROFIL
 62
     4
 10
71.699999927829651
 20
17.168558811801809
 30
0.0
  0
VERTEX
  5
1C2A
  8
SAPA_PROFIL
 62
     4
 10
70.799999927832744
 20
17.168558811801809
 30
0.0
 42
0.4142135623730951
  0
VERTEX
  5
1C2B
  8
SAPA_PROFIL
 62
     4
 10
70.499999927832562
 20
16.868558811801631
 30
0.0
  0
VERTEX
  5
1C2C
  8
SAPA_PROFIL
 62
     4
 10
70.499999927832562
 20
16.218558811799721
 30
0.0
 42
-0.4142135623730951
  0
VERTEX
  5
1C2D
  8
SAPA_PROFIL
 62
     4
 10
70.19999992783238
 20
15.91855881179975
 30
0.0
  0
VERTEX
  5
1C2E
  8
SAPA_PROFIL
 62
     4
 10
69.999999927832562
 20
15.91855881179975
 30
0.0
 42
-0.4142135623730951
  0
VERTEX
  5
1C2F
  8
SAPA_PROFIL
 62
     4
 10
69.499999927832562
 20
16.41855881179977
 30
0.0
  0
VERTEX
  5
1C30
  8
SAPA_PROFIL
 62
     4
 10
69.499999927914416
 20
42.216293838723637
 30
0.0
 42
0.414213562374094
  0
VERTEX
  5
1C31
  8
SAPA_PROFIL
 62
     4
 10
68.299999927914598
 20
43.416293838727547
 30
0.0
  0
VERTEX
  5
1C32
  8
SAPA_PROFIL
 62
     4
 10
65.571518577834524
 20
43.416293838727782
 30
0.0
  0
SEQEND
  5
1C33
  8
SAPA_PROFIL
 62
     4
  0
POLYLINE
  5
15C6
  8
SAPA_PROFIL
 62
     4
 66
     1
 10
0.0
 20
0.0
 30
0.0
 70
     1
  0
VERTEX
  5
1C34
  8
SAPA_PROFIL
 62
     4
 10
73.199999995879864
 20
18.452820282317301
 30
0.0
  0
VERTEX
  5
1C35
  8
SAPA_PROFIL
 62
     4
 10
80.699999996438294
 20
18.452820282321412
 30
0.0
 42
0.4142135623730951
  0
VERTEX
  5
1C36
  8
SAPA_PROFIL
 62
     4
 10
81.699999996438294
 20
19.452820282321412
 30
0.0
  0
VERTEX
  5
1C37
  8
SAPA_PROFIL
 62
     4
 10
81.699999996453755
 20
42.600555309245188
 30
0.0
 42
0.4142135623730949
  0
VERTEX
  5
1C38
  8
SAPA_PROFIL
 62
     4
 10
80.899999996453573
 20
43.40055530924537
 30
0.0
  0
VERTEX
  5
1C39
  8
SAPA_PROFIL
 62
     4
 10
72.099999995934979
 20
43.40055530924537
 30
0.0
 42
0.414213562373428
  0
VERTEX
  5
1C3A
  8
SAPA_PROFIL
 62
     4
 10
71.299999995934783
 20
42.600555309244278
 30
0.0
  0
VERTEX
  5
1C3B
  8
SAPA_PROFIL
 62
     4
 10
71.299999995958444
 20
19.452820282317301
 30
0.0
 42
0.4142135623724957
  0
VERTEX
  5
1C3C
  8
SAPA_PROFIL
 62
     4
 10
72.299999995957535
 20
18.452820282319351
 30
0.0
  0
SEQEND
  5
1C3D
  8
SAPA_PROFIL
 62
     4
  0
LINE
  5
15E0
  8
SAPA_GLAS
 10
90.799999928688905
 20
-0.0000000000035882
 30
0.0
 11
90.71134660897728
 21
0.5027779603471539
 31
0.0
  0
LINE
  5
15E1
  8
SAPA_GLAS
 10
94.809538859322402
 20
1.9869697851015431
 30
0.0
 11
94.999999928200339
 21
1.9869697851015431
 31
0.0
  0
ARC
  5
15E2
  8
SAPA_GLAS
 10
92.999999928198534
 20
-14.584669372814821
 30
0.0
 40
9.9869792597787779
 50
78.447792354268614
 51
101.55220764573301
  0
LINE
  5
15E3
  8
SAPA_GLAS
 10
127.1999999277121
 20
-0.0000000000035882
 30
0.0
 11
127.2886532474237
 21
0.5027779603471539
 31
0.0
  0
LINE
  5
15E4
  8
SAPA_GLAS
 10
123.1904609970786
 20
1.9869697851015431
 30
0.0
 11
122.99999992820059
 21
1.9869697851015431
 31
0.0
  0
ARC
  5
15E5
  8
SAPA_GLAS
 10
124.9999999282024
 20
-14.584669372814821
 30
0.0
 40
9.9869792597787779
 50
78.447792354267023
 51
101.55220764573301
  0
POLYLINE
  5
15E6
  8
SAPA_GLAS
 66
     1
 10
0.0
 20
0.0
 30
0.0
 70
     1
  0
VERTEX
  5
1CA5
  8
SAPA_GLAS
 10
94.877211557761512
 20
2.7604722664102601
 30
0.0
 42
-0.1316524975872964
  0
VERTEX
  5
1CA6
  8
SAPA_GLAS
 10
94.809538859424407
 20
1.9869697849208661
 30
0.0
  0
VERTEX
  5
1CA7
  8
SAPA_GLAS
 10
94.257351072972881
 20
0.4698463102967452
 30
0.0
 42
-0.4142135623734131
  0
VERTEX
  5
1CA8
  8
SAPA_GLAS
 10
93.616494690919808
 20
0.1710100715623923
 30
0.0
  0
VERTEX
  5
1CA9
  8
SAPA_GLAS
 10
93.428556166760174
 20
0.2394141002270018
 30
0.0
 42
-0.4142135623732762
  0
VERTEX
  5
1CAA
  8
SAPA_GLAS
 10
93.249254423516021
 20
0.6239279294604785
 30
0.0
  0
VERTEX
  5
1CAB
  8
SAPA_GLAS
 10
93.257703431024396
 20
0.6471413867783867
 30
0.0
 42
0.5773502691875974
  0
VERTEX
  5
1CAC
  8
SAPA_GLAS
 10
93.035035271327814
 20
0.9125069660447238
 30
0.0
  0
VERTEX
  5
1CAD
  8
SAPA_GLAS
 10
88.719090431830935
 20
0.15148944356784
 30
0.0
 42
-0.4142135623736183
  0
VERTEX
  5
1CAE
  8
SAPA_GLAS
 10
88.371553652634731
 20
0.3948373161691663
 30
0.0
  0
VERTEX
  5
1CAF
  8
SAPA_GLAS
 10
88.302094381564615
 20
0.7887604173713357
 30
0.0
 42
-0.4142135623730951
  0
VERTEX
  5
1CB0
  8
SAPA_GLAS
 10
88.54544225416177
 20
1.136297196576499
 30
0.0
  0
VERTEX
  5
1CB1
  8
SAPA_GLAS
 10
93.486824017083165
 20
2.0075961233938169
 30
0.0
 42
0.4142135623725704
  0
VERTEX
  5
1CB2
  8
SAPA_GLAS
 10
93.892403804748014
 20
2.5868240887352338
 30
0.0
  0
VERTEX
  5
1CB3
  8
SAPA_GLAS
 10
92.688733798615175
 20
9.4131759110622966
 30
0.0
 42
-0.4663076581553405
  0
VERTEX
  5
1CB4
  8
SAPA_GLAS
 10
93.181137675120794
 20
9.9999999998993943
 30
0.0
  0
VERTEX
  5
1CB5
  8
SAPA_GLAS
 10
124.8188621812802
 20
10.000000000100799
 30
0.0
 42
-0.4663076581553401
  0
VERTEX
  5
1CB6
  8
SAPA_GLAS
 10
125.31126605778989
 20
9.4131759112699243
 30
0.0
  0
VERTEX
  5
1CB7
  8
SAPA_GLAS
 10
124.10759605174729
 20
2.586824088927592
 30
0.0
 42
0.4142135623725707
  0
VERTEX
  5
1CB8
  8
SAPA_GLAS
 10
124.5131758394196
 20
2.0075961235913331
 30
0.0
  0
VERTEX
  5
1CB9
  8
SAPA_GLAS
 10
129.45455760235211
 20
1.1362971968369351
 30
0.0
 42
-0.4142135623730951
  0
VERTEX
  5
1CBA
  8
SAPA_GLAS
 10
129.69790547495359
 20
0.7887604176348689
 30
0.0
  0
VERTEX
  5
1CBB
  8
SAPA_GLAS
 10
129.6284462038885
 20
0.3948373164318184
 30
0.0
 42
-0.4142135623736183
  0
VERTEX
  5
1CBC
  8
SAPA_GLAS
 10
129.28090942469549
 20
0.1514894438260583
 30
0.0
  0
VERTEX
  5
1CBD
  8
SAPA_GLAS
 10
124.96496458518889
 20
0.9125069662479958
 30
0.0
 42
0.5773502691875974
  0
VERTEX
  5
1CBE
  8
SAPA_GLAS
 10
124.7422964254957
 20
0.6471413869788237
 30
0.0
  0
VERTEX
  5
1CBF
  8
SAPA_GLAS
 10
124.7507454330043
 20
0.6239279296610221
 30
0.0
 42
-0.4142135623732762
  0
VERTEX
  5
1CC0
  8
SAPA_GLAS
 10
124.5714436897651
 20
0.2394141004252646
 30
0.0
  0
VERTEX
  5
1CC1
  8
SAPA_GLAS
 10
124.38350516560629
 20
0.1710100717582605
 30
0.0
 42
-0.4142135623734131
  0
VERTEX
  5
1CC2
  8
SAPA_GLAS
 10
123.7426487835494
 20
0.4698463104844493
 30
0.0
  0
VERTEX
  5
1CC3
  8
SAPA_GLAS
 10
123.1904609970786
 20
1.9869697851015431
 30
0.0
 42
-0.1316524975872963
  0
VERTEX
  5
1CC4
  8
SAPA_GLAS
 10
123.12278829873161
 20
2.760472266590078
 30
0.0
  0
VERTEX
  5
1CC5
  8
SAPA_GLAS
 10
124.1815962170589
 20
8.7652703645627668
 30
0.0
 42
0.4663076581547951
  0
VERTEX
  5
1CC6
  8
SAPA_GLAS
 10
123.98463466645499
 20
9.0000000000947651
 30
0.0
  0
VERTEX
  5
1CC7
  8
SAPA_GLAS
 10
94.015365189958729
 20
8.9999999999039773
 30
0.0
 42
0.466307658154795
  0
VERTEX
  5
1CC8
  8
SAPA_GLAS
 10
93.818403639357768
 20
8.7652703643694707
 30
0.0
  0
SEQEND
  5
1CC9
  8
SAPA_GLAS
  0
POLYLINE
  5
15E7
  8
SAPA_GLAS
 66
     1
 10
0.0
 20
0.0
 30
0.0
  0
VERTEX
  5
1CCA
  8
SAPA_GLAS
 10
122.99999992820059
 20
-23.99999999999989
 30
0.0
  0
VERTEX
  5
1CCB
  8
SAPA_GLAS
 10
122.99999992820059
 20
8.0000000000001101
 30
0.0
  0
VERTEX
  5
1CCC
  8
SAPA_GLAS
 10
118.99999992820059
 20
8.0000000000001101
 30
0.0
  0
VERTEX
  5
1CCD
  8
SAPA_GLAS
 10
118.99999992820059
 20
-23.99999999999989
 30
0.0
  0
SEQEND
  5
1CCE
  8
SAPA_GLAS
  0
POLYLINE
  5
15E8
  8
SAPA_GLAS
 66
     1
 10
0.0
 20
0.0
 30
0.0
  0
VERTEX
  5
1CCF
  8
SAPA_GLAS
 10
98.999999928200509
 20
-1.9999999999998961
 30
0.0
  0
VERTEX
  5
1CD0
  8
SAPA_GLAS
 10
118.99999992820049
 20
-1.999999999999893
 30
0.0
  0
VERTEX
  5
1CD1
  8
SAPA_GLAS
 10
118.99999992820049
 20
8.0000000000001172
 30
0.0
  0
VERTEX
  5
1CD2
  8
SAPA_GLAS
 10
98.999999928200495
 20
8.000000000000103
 30
0.0
  0
VERTEX
  5
1CD3
  8
SAPA_GLAS
 10
98.999999928200509
 20
-1.9999999999998961
 30
0.0
  0
SEQEND
  5
1CD4
  8
SAPA_GLAS
  0
POLYLINE
  5
15E9
  8
SAPA_GLAS
 66
     1
 10
0.0
 20
0.0
 30
0.0
  0
VERTEX
  5
1CD5
  8
SAPA_GLAS
 10
94.999999928200495
 20
-23.999999999999901
 30
0.0
  0
VERTEX
  5
1CD6
  8
SAPA_GLAS
 10
94.999999928200495
 20
8.000000000000103
 30
0.0
  0
VERTEX
  5
1CD7
  8
SAPA_GLAS
 10
98.999999928200495
 20
8.000000000000103
 30
0.0
  0
VERTEX
  5
1CD8
  8
SAPA_GLAS
 10
98.999999928200509
 20
-23.999999999999901
 30
0.0
  0
SEQEND
  5
1CD9
  8
SAPA_GLAS
  0
INSERT
  5
15EA
  8
SAPA_GLAS
  6
CONTINUOUS
  2
*X37
 10
0.0
 20
0.0
 30
0.0
1001
ACAD
1000
HATCH
1002
{
1070
    19
1000
ANSI37
1040
0.25
1040
0.0
1000
R14_HATCH_DATA
1000
15EA
1011
1.0
1021
0.0
1031
0.0
1021
0.0
1031
0.0
1011
0.0
1021
0.0
1031
0.0
1021
1.0
1031
0.0
1011
0.0
1021
0.0
1031
0.0
1021
0.0
1031
1.0
1040
0.0
1010
0.0
1020
0.0
1030
1.0
1000
ANSI37
1070
     0
1070
     0
1071
        1
1071
        7
1070
     1
1070
     1
1071
       21
1040
94.999999928200495
1040
-4.8000000000029051
1040
0.1011549434925542
1040
90.999999927839184
1040
-4.8000000000759542
1040
0.0
1040
90.999999927846446
1040
-3.7000000000042621
1040
0.4142135623731029
1040
90.79999992784937
1040
-3.5000000000035341
1040
0.0
1040
89.99999992784646
1040
-3.5000000000144409
1040
-0.4142135623730951
1040
89.499999927846446
1040
-3.0000000000144551
1040
0.0
1040
89.499999928326645
1040
-2.0000000000035341
1040
-0.414213562373094
1040
89.999999928326645
1040
-1.5000000000035341
1040
0.0
1040
90.799999928336817
1040
-1.5000000000035341
1040
0.4142135623731048
1040
90.999999928326645
1040
-1.3000000000028069
1040
0.0
1040
90.999999928326645
1040
-0.2000000000042625
1040
0.4142135618575339
1040
90.799999928688905
1040
-0.0000000000035349
1040
0.0
1040
90.711346609020751
1040
0.5027779601006395
1040
0.0
1040
93.035035271327814
1040
0.9125069660447238
1040
-0.5773502691875974
1040
93.257703431024396
1040
0.6471413867783867
1040
0.0
1040
93.249254423516021
1040
0.6239279294604785
1040
0.4142135623732763
1040
93.428556166760174
1040
0.2394141002270018
1040
0.0
1040
93.616494690919808
1040
0.1710100715623923
1040
0.4142135623734132
1040
94.257351072972881
1040
0.4698463102967452
1040
0.0
1040
94.809538859490161
1040
1.9869697851015431
1040
0.0
1040
94.999999928200495
1040
1.9869697851015431
1040
0.0
1071
        0
1070
     0
1070
     1
1040
0.0
1040
0.25
1070
     0
1070
     2
1040
0.7853981633974483
1040
20.50000000000011
1040
-5.0000000000036371
1040
-0.5612660075668221
1040
0.5612660075668221
1070
     0
1040
2.3561944901923439
1040
20.50000000000011
1040
-5.0000000000036371
1040
-0.5612660075668221
1040
-0.5612660075668221
1070
     0
1040
0.0554184978666472
1071
        1
1040
92.977469915190511
1040
-2.3851922194989612
1040
0.0
1002
}
  0
INSERT
  5
15EB
  8
SAPA_GLAS
  6
CONTINUOUS
  2
*X38
 10
0.0
 20
0.0
 30
0.0
1001
ACAD
1000
HATCH
1002
{
1070
    19
1000
ANSI37
1040
0.25
1040
0.0
1000
R14_HATCH_DATA
1000
15EB
1011
1.0
1021
0.0
1031
0.0
1021
0.0
1031
0.0
1011
0.0
1021
0.0
1031
0.0
1021
1.0
1031
0.0
1011
0.0
1021
0.0
1031
0.0
1021
0.0
1031
1.0
1040
0.0
1010
0.0
1020
0.0
1030
1.0
1000
ANSI37
1070
     0
1070
     0
1071
        1
1071
        7
1070
     1
1070
     1
1071
       21
1040
122.99999992820059
1040
1.9869697851015431
1040
0.0
1040
123.1904609970786
1040
1.9869697851015431
1040
0.0
1040
123.7426487835494
1040
0.4698463104844493
1040
0.4142135623734131
1040
124.38350516560629
1040
0.1710100717582605
1040
0.0
1040
124.5714436897651
1040
0.2394141004252646
1040
0.4142135623732763
1040
124.7507454330043
1040
0.6239279296610221
1040
0.0
1040
124.7422964254957
1040
0.6471413869788237
1040
-0.5773502691875974
1040
124.96496458518889
1040
0.9125069662479958
1040
0.0
1040
127.2886532474237
1040
0.5027779603471533
1040
0.0
1040
127.1999999277121
1040
-0.0000000000035882
1040
0.4142135623811048
1040
126.9999999277168
1040
-0.2000000000043158
1040
0.0
1040
126.9999999277168
1040
-1.30000000000286
1040
0.4142135623731048
1040
127.1999999277066
1040
-1.500000000003588
1040
0.0
1040
127.9999999277168
1040
-1.500000000003588
1040
-0.414213562373094
1040
128.4999999277168
1040
-2.0000000000035878
1040
0.0
1040
128.49999992819701
1040
-3.0000000000145159
1040
-0.4142135623730951
1040
127.999999928197
1040
-3.5000000000145022
1040
0.0
1040
127.1999999281941
1040
-3.5000000000035878
1040
0.4142135623731029
1040
126.999999928197
1040
-3.7000000000043149
1040
0.0
1040
126.9999999282043
1040
-4.800000000002874
1040
0.101154943483322
1040
122.99999992820059
1040
-4.800000000002874
1040
0.0
1071
        0
1070
     0
1070
     1
1040
0.0
1040
0.25
1070
     0
1070
     2
1040
0.7853981633974483
1040
20.50000000000011
1040
-5.0000000000036371
1040
-0.5612660075668221
1040
0.5612660075668221
1070
     0
1040
2.3561944901923439
1040
20.50000000000011
1040
-5.0000000000036371
1040
-0.5612660075668221
1040
-0.5612660075668221
1070
     0
1040
0.0245236365555031
1071
        1
1040
124.9429814047696
1040
-1.8094267628164711
1040
0.0
1002
}
  0
POLYLINE
  5
1600
  8
SAPA_FOGBAND
 66
     1
 10
0.0
 20
0.0
 30
0.0
 70
     1
  0
VERTEX
  5
1D5C
  8
SAPA_FOGBAND
 10
16.250000000023469
 20
1.850000000003035
 30
0.0
  0
VERTEX
  5
1D5D
  8
SAPA_FOGBAND
 10
17.050000000023658
 20
1.850000000003035
 30
0.0
  0
VERTEX
  5
1D5E
  8
SAPA_FOGBAND
 10
17.050000000023658
 20
8.1500000000001194
 30
0.0
  0
VERTEX
  5
1D5F
  8
SAPA_FOGBAND
 10
16.250000000023469
 20
8.1500000000001194
 30
0.0
  0
SEQEND
  5
1D60
  8
SAPA_FOGBAND
  0
POLYLINE
  5
1601
  8
SAPA_FOGBAND
 66
     1
 10
0.0
 20
0.0
 30
0.0
  0
VERTEX
  5
1D61
  8
SAPA_FOGBAND
 10
17.050000000023658
 20
6.572689603142619
 30
0.0
  0
VERTEX
  5
1D62
  8
SAPA_FOGBAND
 10
20.50000000002348
 20
7.6981362004585421
 30
0.0
  0
VERTEX
  5
1D63
  8
SAPA_FOGBAND
 10
20.50000000002348
 20
5.2599981539100042
 30
0.0
  0
VERTEX
  5
1D64
  8
SAPA_FOGBAND
 10
17.050000000023658
 20
5.1500000000030317
 30
0.0
  0
SEQEND
  5
1D65
  8
SAPA_FOGBAND
  0
POLYLINE
  5
1602
  8
SAPA_FOGBAND
 66
     1
 10
0.0
 20
0.0
 30
0.0
  0
VERTEX
  5
1D66
  8
SAPA_FOGBAND
 10
17.050000000023658
 20
5.075000000002305
 30
0.0
  0
VERTEX
  5
1D67
  8
SAPA_FOGBAND
 10
20.50000000002348
 20
5.0749999999990303
 30
0.0
  0
VERTEX
  5
1D68
  8
SAPA_FOGBAND
 10
20.50000000002348
 20
4.9250000000008427
 30
0.0
  0
VERTEX
  5
1D69
  8
SAPA_FOGBAND
 10
17.050000000023658
 20
4.9250000000008489
 30
0.0
  0
SEQEND
  5
1D6A
  8
SAPA_FOGBAND
  0
POLYLINE
  5
1603
  8
SAPA_FOGBAND
 66
     1
 10
0.0
 20
0.0
 30
0.0
  0
VERTEX
  5
1D6B
  8
SAPA_FOGBAND
 10
17.050000000023658
 20
4.8500000000001222
 30
0.0
  0
VERTEX
  5
1D6C
  8
SAPA_FOGBAND
 10
20.50000000002348
 20
4.7400026148178753
 30
0.0
  0
VERTEX
  5
1D6D
  8
SAPA_FOGBAND
 10
20.50000000002348
 20
2.3019092743957121
 30
0.0
  0
VERTEX
  5
1D6E
  8
SAPA_FOGBAND
 10
17.050000000023658
 20
3.4273103968605341
 30
0.0
  0
SEQEND
  5
1D6F
  8
SAPA_FOGBAND
  0
POLYLINE
  5
1604
  8
SAPA_FOGBAND
 66
     1
 10
0.0
 20
0.0
 30
0.0
 70
     1
  0
VERTEX
  5
1D70
  8
SAPA_FOGBAND
 10
16.250000000023469
 20
10.35000000001031
 30
0.0
  0
VERTEX
  5
1D71
  8
SAPA_FOGBAND
 10
17.050000000023658
 20
10.35000000001031
 30
0.0
  0
VERTEX
  5
1D72
  8
SAPA_FOGBAND
 10
17.050000000023658
 20
16.650000000007392
 30
0.0
  0
VERTEX
  5
1D73
  8
SAPA_FOGBAND
 10
16.250000000023469
 20
16.650000000007392
 30
0.0
  0
SEQEND
  5
1D74
  8
SAPA_FOGBAND
  0
POLYLINE
  5
1605
  8
SAPA_FOGBAND
 66
     1
 10
0.0
 20
0.0
 30
0.0
  0
VERTEX
  5
1D75
  8
SAPA_FOGBAND
 10
17.050000000023658
 20
15.0726896031499
 30
0.0
  0
VERTEX
  5
1D76
  8
SAPA_FOGBAND
 10
20.50000000002348
 20
16.198136200465811
 30
0.0
  0
VERTEX
  5
1D77
  8
SAPA_FOGBAND
 10
20.50000000002348
 20
13.75999815391728
 30
0.0
  0
VERTEX
  5
1D78
  8
SAPA_FOGBAND
 10
17.050000000023658
 20
13.65000000001031
 30
0.0
  0
SEQEND
  5
1D79
  8
SAPA_FOGBAND
  0
POLYLINE
  5
1606
  8
SAPA_FOGBAND
 66
     1
 10
0.0
 20
0.0
 30
0.0
  0
VERTEX
  5
1D7A
  8
SAPA_FOGBAND
 10
17.050000000023658
 20
13.575000000009579
 30
0.0
  0
VERTEX
  5
1D7B
  8
SAPA_FOGBAND
 10
20.50000000002348
 20
13.5750000000063
 30
0.0
  0
VERTEX
  5
1D7C
  8
SAPA_FOGBAND
 10
20.50000000002348
 20
13.42500000000812
 30
0.0
  0
VERTEX
  5
1D7D
  8
SAPA_FOGBAND
 10
17.050000000023658
 20
13.42500000000812
 30
0.0
  0
SEQEND
  5
1D7E
  8
SAPA_FOGBAND
  0
POLYLINE
  5
1607
  8
SAPA_FOGBAND
 66
     1
 10
0.0
 20
0.0
 30
0.0
  0
VERTEX
  5
1D7F
  8
SAPA_FOGBAND
 10
17.050000000023658
 20
13.3500000000074
 30
0.0
  0
VERTEX
  5
1D80
  8
SAPA_FOGBAND
 10
20.50000000002348
 20
13.24000261482515
 30
0.0
  0
VERTEX
  5
1D81
  8
SAPA_FOGBAND
 10
20.50000000002348
 20
10.801909274402981
 30
0.0
  0
VERTEX
  5
1D82
  8
SAPA_FOGBAND
 10
17.050000000023658
 20
11.92731039686781
 30
0.0
  0
SEQEND
  5
1D83
  8
SAPA_FOGBAND
  0
POLYLINE
  5
1608
  8
SAPA_FOGBAND
 66
     1
 10
0.0
 20
0.0
 30
0.0
 70
     1
  0
VERTEX
  5
1D84
  8
SAPA_FOGBAND
 10
71.749999927836939
 20
2.018558811792516
 30
0.0
  0
VERTEX
  5
1D85
  8
SAPA_FOGBAND
 10
70.949999927836757
 20
2.018558811792516
 30
0.0
  0
VERTEX
  5
1D86
  8
SAPA_FOGBAND
 10
70.949999927836757
 20
8.3185588117896003
 30
0.0
  0
VERTEX
  5
1D87
  8
SAPA_FOGBAND
 10
71.749999927836939
 20
8.3185588117896003
 30
0.0
  0
SEQEND
  5
1D88
  8
SAPA_FOGBAND
  0
POLYLINE
  5
1609
  8
SAPA_FOGBAND
 66
     1
 10
0.0
 20
0.0
 30
0.0
  0
VERTEX
  5
1D89
  8
SAPA_FOGBAND
 10
70.949999927836757
 20
6.7412484149320999
 30
0.0
  0
VERTEX
  5
1D8A
  8
SAPA_FOGBAND
 10
67.499999927836939
 20
7.866695012248023
 30
0.0
  0
VERTEX
  5
1D8B
  8
SAPA_FOGBAND
 10
67.499999927836939
 20
5.4285569656994861
 30
0.0
  0
VERTEX
  5
1D8C
  8
SAPA_FOGBAND
 10
70.949999927836757
 20
5.3185588117925127
 30
0.0
  0
SEQEND
  5
1D8D
  8
SAPA_FOGBAND
  0
POLYLINE
  5
160A
  8
SAPA_FOGBAND
 66
     1
 10
0.0
 20
0.0
 30
0.0
  0
VERTEX
  5
1D8E
  8
SAPA_FOGBAND
 10
70.949999927836757
 20
5.2435588117917851
 30
0.0
  0
VERTEX
  5
1D8F
  8
SAPA_FOGBAND
 10
67.499999927836939
 20
5.2435588117885121
 30
0.0
  0
VERTEX
  5
1D90
  8
SAPA_FOGBAND
 10
67.499999927836939
 20
5.0935588117903254
 30
0.0
  0
VERTEX
  5
1D91
  8
SAPA_FOGBAND
 10
70.949999927836757
 20
5.0935588117903299
 30
0.0
  0
SEQEND
  5
1D92
  8
SAPA_FOGBAND
  0
POLYLINE
  5
160B
  8
SAPA_FOGBAND
 66
     1
 10
0.0
 20
0.0
 30
0.0
  0
VERTEX
  5
1D93
  8
SAPA_FOGBAND
 10
70.949999927836757
 20
5.0185588117896032
 30
0.0
  0
VERTEX
  5
1D94
  8
SAPA_FOGBAND
 10
67.499999927836939
 20
4.9085614266073581
 30
0.0
  0
VERTEX
  5
1D95
  8
SAPA_FOGBAND
 10
67.499999927836939
 20
2.4704680861851949
 30
0.0
  0
VERTEX
  5
1D96
  8
SAPA_FOGBAND
 10
70.949999927836757
 20
3.595869208650015
 30
0.0
  0
SEQEND
  5
1D97
  8
SAPA_FOGBAND
  0
POLYLINE
  5
160C
  8
SAPA_FOGBAND
 66
     1
 10
0.0
 20
0.0
 30
0.0
 70
     1
  0
VERTEX
  5
1D98
  8
SAPA_FOGBAND
 10
71.749999927836939
 20
10.518558811799791
 30
0.0
  0
VERTEX
  5
1D99
  8
SAPA_FOGBAND
 10
70.949999927836757
 20
10.518558811799791
 30
0.0
  0
VERTEX
  5
1D9A
  8
SAPA_FOGBAND
 10
70.949999927836757
 20
16.818558811796869
 30
0.0
  0
VERTEX
  5
1D9B
  8
SAPA_FOGBAND
 10
71.749999927836939
 20
16.818558811796869
 30
0.0
  0
SEQEND
  5
1D9C
  8
SAPA_FOGBAND
  0
POLYLINE
  5
160D
  8
SAPA_FOGBAND
 66
     1
 10
0.0
 20
0.0
 30
0.0
  0
VERTEX
  5
1D9D
  8
SAPA_FOGBAND
 10
70.949999927836757
 20
15.241248414939379
 30
0.0
  0
VERTEX
  5
1D9E
  8
SAPA_FOGBAND
 10
67.499999927836939
 20
16.366695012255299
 30
0.0
  0
VERTEX
  5
1D9F
  8
SAPA_FOGBAND
 10
67.499999927836939
 20
13.928556965706759
 30
0.0
  0
VERTEX
  5
1DA0
  8
SAPA_FOGBAND
 10
70.949999927836757
 20
13.81855881179979
 30
0.0
  0
SEQEND
  5
1DA1
  8
SAPA_FOGBAND
  0
POLYLINE
  5
160E
  8
SAPA_FOGBAND
 66
     1
 10
0.0
 20
0.0
 30
0.0
  0
VERTEX
  5
1DA2
  8
SAPA_FOGBAND
 10
70.949999927836757
 20
13.74355881179906
 30
0.0
  0
VERTEX
  5
1DA3
  8
SAPA_FOGBAND
 10
67.499999927836939
 20
13.74355881179579
 30
0.0
  0
VERTEX
  5
1DA4
  8
SAPA_FOGBAND
 10
67.499999927836939
 20
13.5935588117976
 30
0.0
  0
VERTEX
  5
1DA5
  8
SAPA_FOGBAND
 10
70.949999927836757
 20
13.59355881179761
 30
0.0
  0
SEQEND
  5
1DA6
  8
SAPA_FOGBAND
  0
POLYLINE
  5
160F
  8
SAPA_FOGBAND
 66
     1
 10
0.0
 20
0.0
 30
0.0
  0
VERTEX
  5
1DA7
  8
SAPA_FOGBAND
 10
70.949999927836757
 20
13.518558811796879
 30
0.0
  0
VERTEX
  5
1DA8
  8
SAPA_FOGBAND
 10
67.499999927836939
 20
13.40856142661463
 30
0.0
  0
VERTEX
  5
1DA9
  8
SAPA_FOGBAND
 10
67.499999927836939
 20
10.97046808619247
 30
0.0
  0
VERTEX
  5
1DAA
  8
SAPA_FOGBAND
 10
70.949999927836757
 20
12.095869208657289
 30
0.0
  0
SEQEND
  5
1DAB
  8
SAPA_FOGBAND
  0
DIMENSION
  5
161B
  8
SAPA_MATT
  2
*D30
 10
180.99999985600721
 20
59.999999999999993
 30
0.0
 11
178.24999985600721
 21
27.499999999998209
 31
0.0
 70
     0
 13
130.749999927695
 23
-5.0000000000036087
 33
0.0
 14
138.69999985599699
 24
60.0
 34
0.0
 50
270.0
1001
ACAD
1000
DSTYLE
1002
{
1070
    40
1040
1.0
1002
}
  0
DIMENSION
  5
161C
  8
SAPA_MATT
  2
*D29
 10
168.99999985600721
 20
0.0000000000000906
 30
0.0
 11
166.24999985600721
 21
30.000000000000071
 31
0.0
 70
     0
 13
138.69999985599699
 23
60.0
 33
0.0
 14
137.49999985600709
 24
0.0000000000000995
 34
0.0
 50
270.0
1001
ACAD
1000
DSTYLE
1002
{
1070
    40
1040
1.0
1002
}
  0
DIMENSION
  5
161D
  8
SAPA_MATT
  2
*D28
 10
13.999999928252491
 20
-55.999999999999979
 30
0.0
 11
76.499999928003518
 21
-55.999999999999979
 31
0.0
 70
   128
 13
138.99999992775449
 23
1.500000000000099
 33
0.0
 14
13.999999928252491
 24
-0.4999999999998864
 34
0.0
 50
180.0
1001
ACAD
1000
DSTYLE
1002
{
1070
    40
1040
1.0
1002
}
  0
DIMENSION
  5
161E
  8
SAPA_MATT
  2
*D27
 10
13.999999928252491
 20
-44.000000000000021
 30
0.0
 11
50.142264778476253
 21
-43.239486851189767
 31
0.0
 70
   128
 13
85.4999999283676
 23
10.00000000017469
 33
0.0
 14
13.999999928252491
 24
-0.4999999999998864
 34
0.0
 50
180.0
1001
ACAD
1000
DSTYLE
1002
{
1070
   287
1070
     4
1070
    40
1040
1.0
1070
   279
1070
     1
1002
}
  0
DIMENSION
  5
161F
  8
SAPA_MATT
  2
*D26
 10
85.4999999283676
 20
-44.000000000000007
 30
0.0
 11
108.99999992802169
 21
-41.250000000000007
 31
0.0
 70
     0
 13
132.4999999276759
 23
10.00000000017465
 33
0.0
 14
85.4999999283676
 24
10.00000000017469
 34
0.0
 50
180.0
1001
ACAD
1000
DSTYLE
1002
{
1070
   287
1070
     4
1070
    40
1040
1.0
1070
   279
1070
     1
1002
}
  0
DIMENSION
  5
1620
  8
SAPA_MATT
  2
*D25
 10
132.4999999276759
 20
-44.000000000000007
 30
0.0
 11
135.74999992771521
 21
-44.000000000000007
 31
0.0
 70
   128
 13
138.99999992775449
 23
1.500000000000099
 33
0.0
 14
132.4999999276759
 24
10.00000000017465
 34
0.0
 50
180.0
1001
ACAD
1000
DSTYLE
1002
{
1070
    40
1040
1.0
1002
}
  0
DIMENSION
  5
1621
  8
SAPA_MATT
  2
*D24
 10
168.9999999277546
 20
-5.0000000000036202
 30
0.0
 11
166.2499999277546
 21
-2.5000000000017368
 31
0.0
 70
     0
 13
137.49999992775449
 23
0.0000000000000995
 33
0.0
 14
130.749999927695
 24
-5.0000000000036087
 34
0.0
 50
270.0
1001
ACAD
1000
DSTYLE
1002
{
1070
   287
1070
     4
1070
    40
1040
1.0
1070
   279
1070
     1
1002
}
  0
VIEWPORT
  5
C4
 67
     1
  8
0
 10
160.5543545598442
 20
116.00969601843509
 30
0.0
 40
404.96977709277462
 41
256.8421457311839
 68
     1
 69
     1
1001
ACAD
1000
MVIEW
1002
{
1070
    16
1010
0.0
1020
0.0
1030
0.0
1010
0.0
1020
0.0
1030
1.0
1040
0.0
1040
256.8421457311839
1040
99.206250190734863
1040
130.70624923706049
1040
50.0
1040
0.0
1040
0.0
1070
     0
1070
     0
1070
     1
1070
     1
1070
     0
1070
     0
1070
     0
1070
     0
1040
0.0
1040
0.0
1040
0.0
1040
10.0
1040
10.0
1040
10.0
1040
10.0
1070
     0
1002
{
1002
}
1002
}
  0
ENDSEC
  0
EOF
