  0
SECTION
  2
HEADER
  9
$ACADVER
  1
AC1009
  9
$INSBASE
 10
0.0
 20
0.0
 30
0.0
  9
$EXTMIN
 10
-30.619466477036841
 20
-57.499999999999972
 30
-0.2
  9
$EXTMAX
 10
194.0032559344221
 20
79.755365308950502
 30
0.0000000048844772
  9
$LIMMIN
 10
0.0
 20
0.0
  9
$LIMMAX
 10
790.0
 20
790.0
  9
$ORTHOMODE
 70
     1
  9
$REGENMODE
 70
     1
  9
$FILLMODE
 70
     1
  9
$QTEXTMODE
 70
     0
  9
$MIRRTEXT
 70
     1
  9
$DRAGMODE
 70
     2
  9
$LTSCALE
 40
4.0
  9
$OSMODE
 70
   167
  9
$ATTMODE
 70
     1
  9
$TEXTSIZE
 40
3.5
  9
$TRACEWID
 40
0.05
  9
$TEXTSTYLE
  7
ISO
  9
$CLAYER
  8
0
  9
$CELTYPE
  6
BYLAYER
  9
$CECOLOR
 62
   256
  9
$DIMSCALE
 40
0.0
  9
$DIMASZ
 40
3.0
  9
$DIMEXO
 40
1.5
  9
$DIMDLI
 40
10.0
  9
$DIMRND
 40
0.0
  9
$DIMDLE
 40
0.0
  9
$DIMEXE
 40
1.5
  9
$DIMTP
 40
0.0
  9
$DIMTM
 40
0.0
  9
$DIMTXT
 40
3.5
  9
$DIMCEN
 40
-5.0
  9
$DIMTSZ
 40
0.0
  9
$DIMTOL
 70
     0
  9
$DIMLIM
 70
     0
  9
$DIMTIH
 70
     0
  9
$DIMTOH
 70
     0
  9
$DIMSE1
 70
     0
  9
$DIMSE2
 70
     0
  9
$DIMTAD
 70
     1
  9
$DIMZIN
 70
     8
  9
$DIMBLK
  1

  9
$DIMASO
 70
     1
  9
$DIMSHO
 70
     1
  9
$DIMPOST
  1

  9
$DIMAPOST
  1

  9
$DIMALT
 70
     0
  9
$DIMALTD
 70
     0
  9
$DIMALTF
 40
25.399999999999999
  9
$DIMLFAC
 40
-1.0
  9
$DIMTOFL
 70
     1
  9
$DIMTVP
 40
0.0
  9
$DIMTIX
 70
     0
  9
$DIMSOXD
 70
     0
  9
$DIMSAH
 70
     0
  9
$DIMBLK1
  1

  9
$DIMBLK2
  1

  9
$DIMSTYLE
  2
MASKIN
  9
$DIMCLRD
 70
   256
  9
$DIMCLRE
 70
   256
  9
$DIMCLRT
 70
     2
  9
$DIMTFAC
 40
1.0
  9
$DIMGAP
 40
1.0
  9
$LUNITS
 70
     2
  9
$LUPREC
 70
     8
  9
$SKETCHINC
 40
0.1
  9
$FILLETRAD
 40
0.0
  9
$AUNITS
 70
     0
  9
$AUPREC
 70
     8
  9
$MENU
  1
ACAD
  9
$ELEVATION
 40
0.0
  9
$PELEVATION
 40
0.0
  9
$THICKNESS
 40
0.0
  9
$LIMCHECK
 70
     0
  9
$BLIPMODE
 70
     0
  9
$CHAMFERA
 40
0.0
  9
$CHAMFERB
 40
0.0
  9
$SKPOLY
 70
     0
  9
$TDCREATE
 40
2455734.518348461
  9
$TDUPDATE
 40
2455994.5017509949
  9
$TDINDWG
 40
1.1625499653
  9
$TDUSRTIMER
 40
1.1625497801
  9
$USRTIMER
 70
     1
  9
$ANGBASE
 50
0.0
  9
$ANGDIR
 70
     0
  9
$PDMODE
 70
     0
  9
$PDSIZE
 40
0.0
  9
$PLINEWID
 40
0.0
  9
$COORDS
 70
     1
  9
$SPLFRAME
 70
     0
  9
$SPLINETYPE
 70
     6
  9
$SPLINESEGS
 70
     8
  9
$ATTDIA
 70
     0
  9
$ATTREQ
 70
     1
  9
$HANDLING
 70
     1
  9
$HANDSEED
  5
19C9
  9
$SURFTAB1
 70
     6
  9
$SURFTAB2
 70
     6
  9
$SURFTYPE
 70
     6
  9
$SURFU
 70
     6
  9
$SURFV
 70
     6
  9
$UCSNAME
  2

  9
$UCSORG
 10
0.0
 20
0.0
 30
0.0
  9
$UCSXDIR
 10
1.0
 20
0.0
 30
0.0
  9
$UCSYDIR
 10
0.0
 20
1.0
 30
0.0
  9
$PUCSNAME
  2

  9
$PUCSORG
 10
0.0
 20
0.0
 30
0.0
  9
$PUCSXDIR
 10
1.0
 20
0.0
 30
0.0
  9
$PUCSYDIR
 10
0.0
 20
1.0
 30
0.0
  9
$USERI1
 70
     0
  9
$USERI2
 70
     0
  9
$USERI3
 70
     0
  9
$USERI4
 70
     0
  9
$USERI5
 70
     0
  9
$USERR1
 40
0.0
  9
$USERR2
 40
0.0
  9
$USERR3
 40
0.0
  9
$USERR4
 40
0.0
  9
$USERR5
 40
0.0
  9
$WORLDVIEW
 70
     1
  9
$SHADEDGE
 70
     3
  9
$SHADEDIF
 70
    70
  9
$TILEMODE
 70
     1
  9
$MAXACTVP
 70
    16
  9
$PLIMCHECK
 70
     0
  9
$PEXTMIN
 10
1.0000000000000000E+020
 20
1.0000000000000000E+020
 30
1.0000000000000000E+020
  9
$PEXTMAX
 10
-1.0000000000000000E+020
 20
-1.0000000000000000E+020
 30
-1.0000000000000000E+020
  9
$PLIMMIN
 10
-5.069427490234375
 20
-5.8737497329711914
  9
$PLIMMAX
 10
291.89889526367187
 20
204.0995779037475
  9
$UNITMODE
 70
     0
  9
$VISRETAIN
 70
     1
  9
$PLINEGEN
 70
     0
  9
$PSLTSCALE
 70
     1
  0
ENDSEC
  0
SECTION
  2
TABLES
  0
TABLE
  2
VPORT
 70
     1
  0
VPORT
  2
*ACTIVE
 70
     0
 10
0.0
 20
0.0
 11
1.0
 21
1.0
 12
85.186053327818399
 22
44.281750162051658
 13
0.0
 23
0.0
 14
1.0
 24
1.0
 15
0.0
 25
0.0
 16
0.0
 26
0.0
 36
1.0
 17
0.0
 27
0.0
 37
0.0
 40
133.09226542423261
 41
2.37391304347826
 42
50.0
 43
0.0
 44
0.0
 50
0.0
 51
0.0
 71
     0
 72
   100
 73
     1
 74
     1
 75
     0
 76
     0
 77
     0
 78
     0
  0
ENDTAB
  0
TABLE
  2
LTYPE
 70
     3
  0
LTYPE
  2
CONTINUOUS
 70
     0
  3
Solid line
 72
    65
 73
     0
 40
0.0
  0
LTYPE
  2
BYGG-027368$0$NEWDOT
 70
     0
  3
____ . ____ . ____ . ____ . ____ . ____ . ____
 72
    65
 73
     4
 40
2.0
 49
1.0
 49
-0.5
 49
0.0
 49
-0.5
  0
LTYPE
  2
BYGG-027378$0$NEWDOT
 70
     0
  3
____ . ____ . ____ . ____ . ____ . ____ . ____
 72
    65
 73
     4
 40
2.0
 49
1.0
 49
-0.5
 49
0.0
 49
-0.5
  0
ENDTAB
  0
TABLE
  2
LAYER
 70
    31
  0
LAYER
  2
0
 70
     0
 62
     7
  6
CONTINUOUS
  0
LAYER
  2
DEFPOINTS
 70
     0
 62
     7
  6
CONTINUOUS
  0
LAYER
  2
SAPA_ARTIKELNR
 70
     0
 62
     4
  6
CONTINUOUS
  0
LAYER
  2
SAPA_ANSLUTNING
 70
     0
 62
     6
  6
CONTINUOUS
  0
LAYER
  2
SAPA_MATT
 70
     0
 62
     1
  6
CONTINUOUS
  0
LAYER
  2
SAPA_GLAS
 70
     0
 62
     4
  6
CONTINUOUS
  0
LAYER
  2
SAPA_FOGBAND
 70
     0
 62
     2
  6
CONTINUOUS
  0
LAYER
  2
SAPA_PROFIL
 70
     0
 62
     7
  6
CONTINUOUS
  0
ENDTAB
  0
TABLE
  2
STYLE
 70
    12
  0
STYLE
  2
STANDARD
 70
     0
 40
0.0
 41
1.0
 50
0.0
 71
     0
 42
0.2
  3
txt
  4

  0
STYLE
  2
ISO
 70
     0
 40
0.0
 41
1.0
 50
0.0
 71
     0
 42
3.5
  3
txt
  4

  0
STYLE
  2
BYGG-027392$0$STANDARD
 70
     0
 40
0.0
 41
1.0
 50
0.0
 71
     0
 42
0.2
  3
txt
  4

  0
STYLE
  2
BYGG-027392$0$ISO
 70
     0
 40
0.0
 41
1.0
 50
0.0
 71
     0
 42
3.5
  3
txt
  4

  0
STYLE
  2
BYGG-027458$0$STANDARD
 70
     0
 40
0.0
 41
1.0
 50
0.0
 71
     0
 42
0.2
  3
txt
  4

  0
STYLE
  2
BYGG-027458$0$ISO
 70
     0
 40
0.0
 41
1.0
 50
0.0
 71
     0
 42
3.5
  3
txt
  4

  0
STYLE
  2
BYGG-027368$0$STANDARD
 70
     0
 40
0.0
 41
1.0
 50
0.0
 71
     0
 42
0.2
  3
txt
  4

  0
STYLE
  2
BYGG-027368$0$ISO
 70
     0
 40
0.0
 41
1.0
 50
0.0
 71
     0
 42
3.5
  3
txt
  4

  0
STYLE
  2
BYGG-027398$0$STANDARD
 70
     0
 40
0.0
 41
1.0
 50
0.0
 71
     0
 42
0.2
  3
txt
  4

  0
STYLE
  2
BYGG-027398$0$ISO
 70
     0
 40
0.0
 41
1.0
 50
0.0
 71
     0
 42
3.5
  3
txt
  4

  0
STYLE
  2
BYGG-027378$0$STANDARD
 70
     0
 40
0.0
 41
1.0
 50
0.0
 71
     0
 42
0.2
  3
txt
  4

  0
STYLE
  2
BYGG-027378$0$ISO
 70
     0
 40
0.0
 41
1.0
 50
0.0
 71
     0
 42
3.5
  3
txt
  4

  0
ENDTAB
  0
TABLE
  2
VIEW
 70
     0
  0
ENDTAB
  0
TABLE
  2
UCS
 70
     0
  0
ENDTAB
  0
TABLE
  2
APPID
 70
    28
  0
APPID
  2
ACAD
 70
     0
  0
APPID
  2
ACAD_DSTYLE_DIMTEXT_FILL
 70
     0
  0
APPID
  2
ACAD_DSTYLE_DIMEXT_LENGTH
 70
     0
  0
APPID
  2
ACAD_DSTYLE_DIMEXT_ENABLED
 70
     0
  0
APPID
  2
ACAD_DSTYLE_DIM_LINETYPE
 70
     0
  0
APPID
  2
ACAD_DSTYLE_DIM_EXT1_LINETYPE
 70
     0
  0
APPID
  2
ACAD_DSTYLE_DIM_EXT2_LINETYPE
 70
     0
  0
APPID
  2
ACAD_DSTYLE_DIMJOGGED_JOGA
 70
     0
  0
APPID
  2
ACAD_DSTYLE_DIMARC_LENGTH_
 70
     0
  0
APPID
  2
ACAD_PSEXT
 70
     0
  0
APPID
  2
ACAD_MLEADERVER
 70
     0
  0
APPID
  2
GENIUS_GENODEF_13
 70
     0
  0
APPID
  2
RC_PROFILE
 70
     0
  0
APPID
  2
ACAECLAYERSTANDARD
 70
     0
  0
APPID
  2
GENIUS_GENOBJ-N-FIL_13
 70
     0
  0
APPID
  2
ACADANNOTATIVE
 70
     0
  0
APPID
  2
ACAD_EXEMPT_FROM_CAD_STANDARDS
 70
     0
  0
APPID
  2
AEC_XDATA_BOUND_SPACE
 70
     0
  0
APPID
  2
ACAD_DSTYLE_DIMJAG
 70
     0
  0
APPID
  2
ACAD_DSTYLE_DIMTALN
 70
     0
  0
APPID
  2
GENIUS_GENREC_14
 70
     0
  0
APPID
  2
GENIUS_GENOBJ-N-REC_13
 70
     0
  0
APPID
  2
ACDBDYNAMICBLOCKTRUENAME
 70
     0
  0
APPID
  2
ACDBBLOCKREPETAG
 70
     0
  0
APPID
  2
ACDBDYNAMICBLOCKGUID
 70
     0
  0
APPID
  2
ACDBBLOCKREPBTAG
 70
     0
  0
APPID
  2
ACAD_NAV_VCDISPLAY
 70
     0
  0
APPID
  2
ACCMTRANSPARENCY
 70
     0
  0
ENDTAB
  0
TABLE
  2
DIMSTYLE
 70
     6
  0
DIMSTYLE
  2
MASKIN
 70
     0
  3

  4

  5

  6

  7

 40
0.0
 41
3.0
 42
1.5
 43
10.0
 44
1.5
 45
0.0
 46
0.0
 47
0.0
 48
0.0
140
3.5
141
-5.0
142
0.0
143
25.399999999999999
144
-1.0
145
0.0
146
1.0
147
1.0
 71
     0
 72
     0
 73
     0
 74
     0
 75
     0
 76
     0
 77
     1
 78
     8
170
     0
171
     0
172
     1
173
     0
174
     0
175
     0
176
   256
177
   256
178
     2
  0
DIMSTYLE
  2
BYGG-027392$0$MASKIN
 70
     0
  3

  4

  5

  6

  7

 40
0.0
 41
3.0
 42
1.5
 43
10.0
 44
1.5
 45
0.0
 46
0.0
 47
0.0
 48
0.0
140
3.0
141
-5.0
142
0.0
143
25.399999999999999
144
-1.0
145
0.0
146
1.0
147
1.0
 71
     0
 72
     0
 73
     0
 74
     0
 75
     0
 76
     0
 77
     1
 78
     8
170
     0
171
     0
172
     1
173
     0
174
     0
175
     0
176
   256
177
   256
178
     2
  0
DIMSTYLE
  2
BYGG-027458$0$MASKIN
 70
     0
  3

  4

  5

  6

  7

 40
0.0
 41
3.0
 42
1.5
 43
10.0
 44
1.5
 45
0.0
 46
0.0
 47
0.0
 48
0.0
140
3.0
141
-5.0
142
0.0
143
25.399999999999999
144
-1.0
145
0.0
146
1.0
147
1.0
 71
     0
 72
     0
 73
     0
 74
     0
 75
     0
 76
     0
 77
     1
 78
     8
170
     0
171
     0
172
     1
173
     0
174
     0
175
     0
176
   256
177
   256
178
     2
  0
DIMSTYLE
  2
BYGG-027368$0$MASKIN
 70
     0
  3

  4

  5

  6

  7

 40
0.0
 41
3.0
 42
1.5
 43
10.0
 44
1.5
 45
0.0
 46
0.0
 47
0.0
 48
0.0
140
3.0
141
-5.0
142
0.0
143
25.399999999999999
144
-1.0
145
0.0
146
1.0
147
1.0
 71
     0
 72
     0
 73
     0
 74
     0
 75
     0
 76
     0
 77
     1
 78
     8
170
     0
171
     0
172
     1
173
     0
174
     0
175
     0
176
   256
177
   256
178
     2
  0
DIMSTYLE
  2
BYGG-027398$0$MASKIN
 70
     0
  3

  4

  5

  6

  7

 40
0.0
 41
3.0
 42
1.5
 43
10.0
 44
1.5
 45
0.0
 46
0.0
 47
0.0
 48
0.0
140
3.0
141
-5.0
142
0.0
143
25.399999999999999
144
-1.0
145
0.0
146
1.0
147
1.0
 71
     0
 72
     0
 73
     0
 74
     0
 75
     0
 76
     0
 77
     1
 78
     8
170
     0
171
     0
172
     1
173
     0
174
     0
175
     0
176
   256
177
   256
178
     2
  0
DIMSTYLE
  2
BYGG-027378$0$MASKIN
 70
     0
  3

  4

  5

  6

  7

 40
0.0
 41
3.0
 42
1.5
 43
10.0
 44
1.5
 45
0.0
 46
0.0
 47
0.0
 48
0.0
140
3.0
141
-5.0
142
0.0
143
25.399999999999999
144
-1.0
145
0.0
146
1.0
147
1.0
 71
     0
 72
     0
 73
     0
 74
     0
 75
     0
 76
     0
 77
     1
 78
     8
170
     0
171
     0
172
     1
173
     0
174
     0
175
     0
176
   256
177
   256
178
     2
  0
ENDTAB
  0
ENDSEC
  0
SECTION
  2
BLOCKS
  0
BLOCK
  8
0
  2
$MODEL_SPACE
 70
     0
 10
0.0
 20
0.0
 30
0.0
  3
$MODEL_SPACE
  1

  0
ENDBLK
  5
37
  8
0
  0
BLOCK
 67
     1
  8
0
  2
$PAPER_SPACE
 70
     0
 10
0.0
 20
0.0
 30
0.0
  3
$PAPER_SPACE
  1

  0
ENDBLK
  5
35
 67
     1
  8
0
  0
BLOCK
  8
0
  2
*D24
 70
     1
 10
0.0
 20
0.0
 30
0.0
  3
*D24
  1

  0
LINE
  5
11BE
  8
SAPA_MATT
 10
14.00000000000907
 20
0.0000000000000995
 30
0.0
 11
14.000000000009059
 21
-45.499999999999993
 31
0.0
  0
LINE
  5
11BF
  8
SAPA_MATT
 10
85.500000000026176
 20
8.5000000001743903
 30
0.0
 11
85.500000000026176
 21
-45.499999999999993
 31
0.0
  0
LINE
  5
11C0
  8
SAPA_MATT
 10
17.000000000009059
 20
-44.0
 30
0.0
 11
82.500000000026176
 21
-44.0
 31
0.0
  0
SOLID
  5
11C1
  8
SAPA_MATT
 10
17.000000000009059
 20
-43.5
 30
0.0
 11
17.000000000009059
 21
-44.5
 31
0.0
 12
14.000000000009059
 22
-44.0
 32
0.0
 13
14.000000000009059
 23
-44.0
 33
0.0
  0
SOLID
  5
11C2
  8
SAPA_MATT
 10
82.500000000026176
 20
-43.5
 30
0.0
 11
82.500000000026176
 21
-44.5
 31
0.0
 12
85.500000000026176
 22
-44.0
 32
0.0
 13
85.500000000026176
 23
-44.0
 33
0.0
  0
INSERT
  5
11C3
  8
0
  2
*U40
 10
0.0
 20
0.0
 30
0.0
  0
POINT
  5
11C4
  8
DEFPOINTS
 62
     0
 10
14.00000000000907
 20
1.500000000000099
 30
0.0
  0
POINT
  5
11C5
  8
DEFPOINTS
 62
     0
 10
85.500000000026176
 20
10.00000000017439
 30
0.0
  0
POINT
  5
11C6
  8
DEFPOINTS
 62
     0
 10
85.500000000026176
 20
-44.0
 30
0.0
  0
ENDBLK
  5
112E
  8
0
  0
BLOCK
  8
0
  2
*D25
 70
     1
 10
0.0
 20
0.0
 30
0.0
  3
*D25
  1

  0
LINE
  5
192B
  8
SAPA_MATT
 10
85.500000000026176
 20
8.5000000001743903
 30
0.0
 11
85.500000000026176
 21
-45.499999999999993
 31
0.0
  0
LINE
  5
192C
  8
SAPA_MATT
 10
132.49999999933451
 20
8.5000000001596092
 30
0.0
 11
132.49999999933451
 21
-45.499999999999993
 31
0.0
  0
LINE
  5
192D
  8
SAPA_MATT
 10
88.500000000026176
 20
-44.0
 30
0.0
 11
129.49999999933451
 21
-44.0
 31
0.0
  0
SOLID
  5
192E
  8
SAPA_MATT
 10
88.500000000026176
 20
-43.5
 30
0.0
 11
88.500000000026176
 21
-44.5
 31
0.0
 12
85.500000000026176
 22
-44.0
 32
0.0
 13
85.500000000026176
 23
-44.0
 33
0.0
  0
SOLID
  5
192F
  8
SAPA_MATT
 10
129.49999999933451
 20
-43.5
 30
0.0
 11
129.49999999933451
 21
-44.5
 31
0.0
 12
132.49999999933451
 22
-44.0
 32
0.0
 13
132.49999999933451
 23
-44.0
 33
0.0
  0
TEXT
  8
SAPA_MATT
  40
3.5
  5
1944
  62
2
  72
0
  71
0
 10
102.000
 20
-47.4450
 30
0.000000
  1
47
  7
ISO
  0
POINT
  5
1931
  8
DEFPOINTS
 62
     0
 10
85.500000000026176
 20
10.00000000017439
 30
0.0
  0
POINT
  5
1932
  8
DEFPOINTS
 62
     0
 10
132.49999999933451
 20
10.000000000159609
 30
0.0
  0
POINT
  5
1933
  8
DEFPOINTS
 62
     0
 10
132.49999999933451
 20
-44.0
 30
0.0
  0
ENDBLK
  5
113A
  8
0
  0
BLOCK
  8
0
  2
*D26
 70
     1
 10
0.0
 20
0.0
 30
0.0
  3
*D26
  1

  0
LINE
  5
1920
  8
SAPA_MATT
 10
132.49999999933451
 20
8.5000000001596092
 30
0.0
 11
132.49999999933451
 21
-45.500000000000007
 31
0.0
  0
LINE
  5
1921
  8
SAPA_MATT
 10
138.9999999995112
 20
-1.9999999999998721
 30
0.0
 11
138.9999999995112
 21
-45.500000000000007
 31
0.0
  0
LINE
  5
1922
  8
SAPA_MATT
 10
129.49999999933451
 20
-44.000000000000007
 30
0.0
 11
126.49999999933451
 21
-44.000000000000007
 31
0.0
  0
LINE
  5
1923
  8
SAPA_MATT
 10
141.9999999995112
 20
-44.000000000000007
 30
0.0
 11
144.9999999995112
 21
-44.000000000000007
 31
0.0
  0
TEXT
  8
SAPA_MATT
  40
3.5
  5
1945
  62
2
  72
0
  71
0
 10
128.750
 20
-47.4450
 30
0.000000
  1
6.5
  7
ISO
  0
LINE
  5
1925
  8
SAPA_MATT
 10
132.49999999933451
 20
-44.000000000000007
 30
0.0
 11
138.9999999995112
 21
-44.000000000000007
 31
0.0
  0
SOLID
  5
1926
  8
SAPA_MATT
 10
129.49999999933451
 20
-43.500000000000007
 30
0.0
 11
129.49999999933451
 21
-44.500000000000007
 31
0.0
 12
132.49999999933451
 22
-44.000000000000007
 32
0.0
 13
132.49999999933451
 23
-44.000000000000007
 33
0.0
  0
SOLID
  5
1927
  8
SAPA_MATT
 10
141.9999999995112
 20
-43.500000000000007
 30
0.0
 11
141.9999999995112
 21
-44.500000000000007
 31
0.0
 12
138.9999999995112
 22
-44.000000000000007
 32
0.0
 13
138.9999999995112
 23
-44.000000000000007
 33
0.0
  0
POINT
  5
1928
  8
DEFPOINTS
 62
     0
 10
132.49999999933451
 20
10.000000000159609
 30
0.0
  0
POINT
  5
1929
  8
DEFPOINTS
 62
     0
 10
138.9999999995112
 20
-0.4999999999998721
 30
0.0
  0
POINT
  5
192A
  8
DEFPOINTS
 62
     0
 10
138.9999999995112
 20
-44.000000000000007
 30
0.0
  0
ENDBLK
  5
1146
  8
0
  0
BLOCK
  8
0
  2
*D27
 70
     1
 10
0.0
 20
0.0
 30
0.0
  3
*D27
  1

  0
LINE
  5
11A1
  8
SAPA_MATT
 10
14.00000000000907
 20
0.0000000000000995
 30
0.0
 11
14.000000000009059
 21
-57.499999999999972
 31
0.0
  0
LINE
  5
11A2
  8
SAPA_MATT
 10
138.9999999995112
 20
-1.9999999999998721
 30
0.0
 11
138.9999999995112
 21
-57.499999999999972
 31
0.0
  0
LINE
  5
11A3
  8
SAPA_MATT
 10
17.000000000009059
 20
-55.999999999999972
 30
0.0
 11
135.9999999995112
 21
-55.999999999999972
 31
0.0
  0
SOLID
  5
11A4
  8
SAPA_MATT
 10
17.000000000009059
 20
-55.499999999999972
 30
0.0
 11
17.000000000009059
 21
-56.499999999999972
 31
0.0
 12
14.000000000009059
 22
-55.999999999999972
 32
0.0
 13
14.000000000009059
 23
-55.999999999999972
 33
0.0
  0
SOLID
  5
11A5
  8
SAPA_MATT
 10
135.9999999995112
 20
-55.499999999999972
 30
0.0
 11
135.9999999995112
 21
-56.499999999999972
 31
0.0
 12
138.9999999995112
 22
-55.999999999999972
 32
0.0
 13
138.9999999995112
 23
-55.999999999999972
 33
0.0
  0
INSERT
  5
11A6
  8
0
  2
*U39
 10
0.0
 20
0.0
 30
0.0
  0
POINT
  5
11A7
  8
DEFPOINTS
 62
     0
 10
14.00000000000907
 20
1.500000000000099
 30
0.0
  0
POINT
  5
11A8
  8
DEFPOINTS
 62
     0
 10
138.9999999995112
 20
-0.4999999999998721
 30
0.0
  0
POINT
  5
11A9
  8
DEFPOINTS
 62
     0
 10
138.9999999995112
 20
-55.999999999999972
 30
0.0
  0
ENDBLK
  5
1154
  8
0
  0
BLOCK
  8
0
  2
*D28
 70
     1
 10
0.0
 20
0.0
 30
0.0
  3
*D28
  1

  0
LINE
  5
1915
  8
SAPA_MATT
 10
138.9999999277637
 20
0.0000000000000991
 30
0.0
 11
170.49999992776381
 21
0.0000000000000901
 31
0.0
  0
LINE
  5
1916
  8
SAPA_MATT
 10
132.24999992770421
 20
-5.0000000000038076
 30
0.0
 11
170.49999992776381
 21
-5.0000000000038201
 31
0.0
  0
LINE
  5
1917
  8
SAPA_MATT
 10
168.99999992776381
 20
3.0000000000000902
 30
0.0
 11
168.99999992776381
 21
6.0000000000000897
 31
0.0
  0
LINE
  5
1918
  8
SAPA_MATT
 10
168.99999992776381
 20
-8.0000000000038192
 30
0.0
 11
168.99999992776381
 21
-11.000000000003819
 31
0.0
  0
LINE
  5
1919
  8
SAPA_MATT
 10
168.99999992776381
 20
0.0000000000000906
 30
0.0
 11
168.99999992776381
 21
-5.0000000000038192
 31
0.0
  0
SOLID
  5
191A
  8
SAPA_MATT
 10
168.49999992776381
 20
3.0000000000000902
 30
0.0
 11
169.49999992776381
 21
3.0000000000000902
 31
0.0
 12
168.99999992776381
 22
0.0000000000000906
 32
0.0
 13
168.99999992776381
 23
0.0000000000000906
 33
0.0
  0
SOLID
  5
191B
  8
SAPA_MATT
 10
168.49999992776381
 20
-8.0000000000038192
 30
0.0
 11
169.49999992776381
 21
-8.0000000000038192
 31
0.0
 12
168.99999992776381
 22
-5.0000000000038192
 32
0.0
 13
168.99999992776381
 23
-5.0000000000038192
 33
0.0
  0
TEXT
  8
SAPA_MATT
  40
3.5
  5
1946
  62
2
  72
0
  71
0
 10
159.250
 20
-8.69500
 30
0.000000
  1
5
  7
ISO
  0
POINT
  5
191D
  8
DEFPOINTS
 62
     0
 10
137.4999999277637
 20
0.0000000000000995
 30
0.0
  0
POINT
  5
191E
  8
DEFPOINTS
 62
     0
 10
130.74999992770421
 20
-5.0000000000038076
 30
0.0
  0
POINT
  5
191F
  8
DEFPOINTS
 62
     0
 10
168.99999992776381
 20
-5.0000000000038192
 30
0.0
  0
ENDBLK
  5
1160
  8
0
  0
BLOCK
  8
0
  2
*D29
 70
     1
 10
0.0
 20
0.0
 30
0.0
  3
*D29
  1

  0
LINE
  5
118D
  8
SAPA_MATT
 10
140.1999998560062
 20
59.999999999999993
 30
0.0
 11
170.49999985601639
 21
59.999999999999979
 31
0.0
  0
LINE
  5
118E
  8
SAPA_MATT
 10
138.9999998560163
 20
0.0000000000000991
 30
0.0
 11
170.49999985601639
 21
0.0000000000000901
 31
0.0
  0
LINE
  5
118F
  8
SAPA_MATT
 10
168.99999985601639
 20
56.999999999999979
 30
0.0
 11
168.99999985601639
 21
3.0000000000000902
 31
0.0
  0
SOLID
  5
1190
  8
SAPA_MATT
 10
168.49999985601639
 20
56.999999999999979
 30
0.0
 11
169.49999985601639
 21
56.999999999999979
 31
0.0
 12
168.99999985601639
 22
59.999999999999979
 32
0.0
 13
168.99999985601639
 23
59.999999999999979
 33
0.0
  0
SOLID
  5
1191
  8
SAPA_MATT
 10
168.49999985601639
 20
3.0000000000000902
 30
0.0
 11
169.49999985601639
 21
3.0000000000000902
 31
0.0
 12
168.99999985601639
 22
0.0000000000000906
 32
0.0
 13
168.99999985601639
 23
0.0000000000000906
 33
0.0
  0
INSERT
  5
1192
  8
0
  2
*U38
 10
0.0
 20
0.0
 30
0.0
  0
POINT
  5
1193
  8
DEFPOINTS
 62
     0
 10
138.6999998560062
 20
59.999999999999993
 30
0.0
  0
POINT
  5
1194
  8
DEFPOINTS
 62
     0
 10
137.4999998560163
 20
0.0000000000000995
 30
0.0
  0
POINT
  5
1195
  8
DEFPOINTS
 62
     0
 10
168.99999985601639
 20
0.0000000000000906
 30
0.0
  0
ENDBLK
  5
116E
  8
0
  0
BLOCK
  8
0
  2
*D30
 70
     1
 10
0.0
 20
0.0
 30
0.0
  3
*D30
  1

  0
LINE
  5
1184
  8
SAPA_MATT
 10
132.24999992770421
 20
-5.0000000000038076
 30
0.0
 11
182.49999985601639
 21
-5.0000000000038227
 31
0.0
  0
LINE
  5
1185
  8
SAPA_MATT
 10
140.1999998560062
 20
59.999999999999993
 30
0.0
 11
182.49999985601639
 21
59.999999999999972
 31
0.0
  0
LINE
  5
1186
  8
SAPA_MATT
 10
180.9999998560163
 20
-2.0000000000038209
 30
0.0
 11
180.9999998560163
 21
56.999999999999972
 31
0.0
  0
SOLID
  5
1187
  8
SAPA_MATT
 10
180.49999985601639
 20
-2.0000000000038209
 30
0.0
 11
181.49999985601639
 21
-2.0000000000038218
 31
0.0
 12
180.9999998560163
 22
-5.0000000000038209
 32
0.0
 13
180.9999998560163
 23
-5.0000000000038209
 33
0.0
  0
SOLID
  5
1188
  8
SAPA_MATT
 10
180.49999985601639
 20
56.999999999999972
 30
0.0
 11
181.49999985601639
 21
56.999999999999972
 31
0.0
 12
180.9999998560163
 22
59.999999999999972
 32
0.0
 13
180.9999998560163
 23
59.999999999999972
 33
0.0
  0
INSERT
  5
1189
  8
0
  2
*U37
 10
0.0
 20
0.0
 30
0.0
  0
POINT
  5
118A
  8
DEFPOINTS
 62
     0
 10
130.74999992770421
 20
-5.0000000000038076
 30
0.0
  0
POINT
  5
118B
  8
DEFPOINTS
 62
     0
 10
138.6999998560062
 20
59.999999999999993
 30
0.0
  0
POINT
  5
118C
  8
DEFPOINTS
 62
     0
 10
180.9999998560163
 20
59.999999999999972
 30
0.0
  0
ENDBLK
  5
117A
  8
0
  0
BLOCK
  8
0
  2
*X31
 70
     1
 10
0.0
 20
0.0
 30
0.0
  3
*X31
  1

  0
LINE
  5
1208
  8
0
 62
     0
 10
139.0452203417243
 20
11.582373814368291
 30
0.0
 11
138.9999999277637
 21
11.537153400407689
 31
0.0
  0
LINE
  5
1209
  8
0
 62
     0
 10
139.2314874681926
 20
10.64610892570291
 30
0.0
 11
138.9999999277637
 21
10.414621385274049
 31
0.0
  0
LINE
  5
120A
  8
0
 62
     0
 10
139.52875225444521
 20
9.8208416968218781
 30
0.0
 11
138.9999999277637
 21
9.2920893701404221
 31
0.0
  0
LINE
  5
120B
  8
0
 62
     0
 10
139.9191616399898
 20
9.0887190672328302
 30
0.0
 11
138.9999999277637
 21
8.1695573550067948
 31
0.0
  0
LINE
  5
120C
  8
0
 62
     0
 10
140.39481471666281
 20
8.4418401287722347
 30
0.0
 11
138.9999999277637
 21
7.0470253398731577
 31
0.0
  0
LINE
  5
120D
  8
0
 62
     0
 10
140.95430362487451
 20
7.8787970218503096
 30
0.0
 11
138.9999999277637
 21
5.9244933247395153
 31
0.0
  0
LINE
  5
120E
  8
0
 62
     0
 10
141.60217573134469
 20
7.4041371131868274
 30
0.0
 11
138.99999992776381
 21
4.8019613096059066
 31
0.0
  0
LINE
  5
120F
  8
0
 62
     0
 10
142.3507544107749
 20
7.0301837774833578
 30
0.0
 11
138.99999992776381
 21
3.6794292944722571
 31
0.0
  0
LINE
  5
1210
  8
0
 62
     0
 10
143.22638571837109
 20
6.7832830699458952
 30
0.0
 11
138.99999992776381
 21
2.5568972793386422
 31
0.0
  0
LINE
  5
1211
  8
0
 62
     0
 10
144.29073942841941
 20
6.7251047648605669
 30
0.0
 11
138.99849667116339
 21
1.4328620076045691
 31
0.0
  0
LINE
  5
1212
  8
0
 62
     0
 10
148.99999992776381
 20
11.434365264204979
 30
0.0
 11
148.92363608603009
 21
11.3580014224713
 31
0.0
  0
LINE
  5
1213
  8
0
 62
     0
 10
145.76608656590429
 20
7.0779198872117908
 30
0.0
 11
139.2593802864728
 21
0.5712136077803294
 31
0.0
  0
LINE
  5
1214
  8
0
 62
     0
 10
148.99999992776381
 20
10.31183324907135
 30
0.0
 11
148.43999006966581
 21
9.7518233909733354
 31
0.0
  0
LINE
  5
1215
  8
0
 62
     0
 10
148.99999992776381
 20
9.189301233937698
 30
0.0
 11
140.56511907181951
 21
0.7544203779933767
 31
0.0
  0
LINE
  5
1216
  8
0
 62
     0
 10
148.99999992776381
 20
8.0667692188040547
 30
0.0
 11
141.7859199086096
 21
0.8526891996498093
 31
0.0
  0
LINE
  5
1217
  8
0
 62
     0
 10
148.99999992776381
 20
6.9442372036704043
 30
0.0
 11
142.93738136334051
 21
0.8816186392471082
 31
0.0
  0
LINE
  5
1218
  8
0
 62
     0
 10
148.99999992776381
 20
5.8217051885367601
 30
0.0
 11
144.03036041299131
 21
0.8520656737642084
 31
0.0
  0
LINE
  5
1219
  8
0
 62
     0
 10
148.99999992776381
 20
4.6991731734031097
 30
0.0
 11
145.07276903547569
 21
0.7719422811150523
 31
0.0
  0
LINE
  5
121A
  8
0
 62
     0
 10
148.99999992776381
 20
3.5766411582694739
 30
0.0
 11
146.0705766151506
 21
0.6472178456562503
 31
0.0
  0
LINE
  5
121B
  8
0
 62
     0
 10
148.99999992776381
 20
2.4541091431358231
 30
0.0
 11
147.02840957962371
 21
0.4825187949957624
 31
0.0
  0
LINE
  5
121C
  8
0
 62
     0
 10
148.99999992776381
 20
1.33157712800218
 30
0.0
 11
147.94993012141171
 21
0.2815073216500892
 31
0.0
  0
LINE
  5
121D
  8
0
 62
     0
 10
148.99999992776381
 20
0.2090451128685444
 30
0.0
 11
148.83808603074911
 21
0.0471312158538737
 31
0.0
  0
LINE
  5
121E
  8
0
 62
     0
 10
138.85117536344089
 20
0.848597711055433
 30
0.0
 11
139.14798551124301
 21
0.551787563253356
 31
0.0
  0
LINE
  5
121F
  8
0
 62
     0
 10
138.99999992776381
 20
1.8223051618661821
 30
0.0
 11
140.12105103647801
 21
0.7012540531520273
 31
0.0
  0
LINE
  5
1220
  8
0
 62
     0
 10
138.99999992776381
 20
2.9448371769998398
 30
0.0
 11
141.1357776586666
 21
0.809059446097038
 31
0.0
  0
LINE
  5
1221
  8
0
 62
     0
 10
138.99999992776381
 20
4.0673691921334694
 30
0.0
 11
142.1972650709543
 21
0.8701040489429914
 31
0.0
  0
LINE
  5
1222
  8
0
 62
     0
 10
138.99999992776381
 20
5.1899012072671118
 30
0.0
 11
143.3121580202849
 21
0.8777431147459537
 31
0.0
  0
LINE
  5
1223
  8
0
 62
     0
 10
138.9999999277637
 20
6.3124332224007977
 30
0.0
 11
144.48937491649269
 21
0.8230582336718441
 31
0.0
  0
LINE
  5
1224
  8
0
 62
     0
 10
138.9999999277637
 20
7.4349652375344411
 30
0.0
 11
145.741356947447
 21
0.6936082178511782
 31
0.0
  0
LINE
  5
1225
  8
0
 62
     0
 10
138.9999999277637
 20
8.5574972526681137
 30
0.0
 11
147.08638223334381
 21
0.4711149470880116
 31
0.0
  0
LINE
  5
1226
  8
0
 62
     0
 10
138.9999999277637
 20
9.6800292678017428
 30
0.0
 11
148.55332920464321
 21
0.1266999909222477
 31
0.0
  0
LINE
  5
1227
  8
0
 62
     0
 10
142.96528944011101
 20
6.8372717705880879
 30
0.0
 11
148.99999992776381
 21
0.8025612829353008
 31
0.0
  0
LINE
  5
1228
  8
0
 62
     0
 10
138.9999999277637
 20
10.8025612829354
 30
0.0
 11
139.26216740972291
 21
10.540393800976229
 31
0.0
  0
LINE
  5
1229
  8
0
 62
     0
 10
144.20478292540929
 20
6.7203103004234492
 30
0.0
 11
148.99999992776381
 21
1.9250932980689439
 31
0.0
  0
LINE
  5
122A
  8
0
 62
     0
 10
138.9999999277637
 20
11.925093298069079
 30
0.0
 11
139.01437504554511
 21
11.91071818028764
 31
0.0
  0
LINE
  5
122B
  8
0
 62
     0
 10
145.1746978766997
 20
6.8729273642667428
 30
0.0
 11
148.99999992776381
 21
3.047625313202587
 31
0.0
  0
LINE
  5
122C
  8
0
 62
     0
 10
145.99012238387871
 20
7.1800348722213547
 30
0.0
 11
148.99999992776381
 21
4.1701573283362592
 31
0.0
  0
LINE
  5
122D
  8
0
 62
     0
 10
146.69249089582519
 20
7.6001983754085236
 30
0.0
 11
148.99999992776381
 21
5.2926893434699016
 31
0.0
  0
LINE
  5
122E
  8
0
 62
     0
 10
147.3007430413183
 20
8.1144782450489998
 30
0.0
 11
148.99999992776381
 21
6.4152213586035307
 31
0.0
  0
LINE
  5
122F
  8
0
 62
     0
 10
147.82338657537349
 20
8.7143667261274658
 30
0.0
 11
148.99999992776381
 21
7.537753373737174
 31
0.0
  0
LINE
  5
1230
  8
0
 62
     0
 10
148.26229306072111
 20
9.3979922559135218
 30
0.0
 11
148.99999992776381
 21
8.6602853888708182
 31
0.0
  0
LINE
  5
1231
  8
0
 62
     0
 10
148.61341571773039
 20
10.169401614037881
 30
0.0
 11
148.99999992776381
 21
9.7828174040044757
 31
0.0
  0
LINE
  5
1232
  8
0
 62
     0
 10
148.86518577863779
 20
11.040163568264131
 30
0.0
 11
148.99999992776381
 21
10.9053494191381
 31
0.0
  0
LINE
  5
1233
  8
0
 62
     0
 10
148.99279897803379
 20
12.03508238400177
 30
0.0
 11
148.99999992776381
 21
12.02788143427173
 31
0.0
  0
ENDBLK
  5
1235
  8
0
  0
BLOCK
  8
0
  2
*X32
 70
     1
 10
0.0
 20
0.0
 30
0.0
  3
*X32
  1

  0
LINE
  5
1237
  8
0
 62
     0
 10
142.47810508529571
 20
7.0695983546621068
 30
0.0
 11
142.54131339094411
 21
6.9601183578186969
 31
0.0
  0
LINE
  5
1238
  8
0
 62
     0
 10
141.2874800852957
 20
9.1318213474238021
 30
0.0
 11
141.68435508529569
 21
8.4444136831699037
 31
0.0
  0
LINE
  5
1239
  8
0
 62
     0
 10
140.09685508529569
 20
11.194044340185499
 30
0.0
 11
140.49373008529571
 21
10.506636675931601
 31
0.0
  0
LINE
  5
123A
  8
0
 62
     0
 10
139.03797136427031
 20
13.028084744309121
 30
0.0
 11
139.3031050852957
 21
12.568859668693291
 31
0.0
  0
LINE
  5
123B
  8
0
 62
     0
 10
143.66872980079961
 20
7.7570058546621059
 30
0.0
 11
144.0656048007996
 21
7.0695981904082084
 31
0.0
  0
LINE
  5
123C
  8
0
 62
     0
 10
142.4781048007996
 20
9.8192288474238012
 30
0.0
 11
142.87497980079959
 21
9.1318211831699028
 31
0.0
  0
LINE
  5
123D
  8
0
 62
     0
 10
141.28747980079959
 20
11.881451840185489
 30
0.0
 11
141.68435480079961
 21
11.1940441759316
 31
0.0
  0
LINE
  5
123E
  8
0
 62
     0
 10
140.09685480079969
 20
13.94367483294719
 30
0.0
 11
140.49372980079971
 21
13.25626716869329
 31
0.0
  0
LINE
  5
123F
  8
0
 62
     0
 10
144.85935451630351
 20
8.4444133546621014
 30
0.0
 11
145.25622951630351
 21
7.7570056904082021
 31
0.0
  0
LINE
  5
1240
  8
0
 62
     0
 10
143.6687295163035
 20
10.50663634742379
 30
0.0
 11
144.06560451630349
 21
9.8192286831698983
 31
0.0
  0
LINE
  5
1241
  8
0
 62
     0
 10
142.47810451630349
 20
12.56885934018549
 30
0.0
 11
142.87497951630351
 21
11.88145167593159
 31
0.0
  0
LINE
  5
1242
  8
0
 62
     0
 10
141.28747951630351
 20
14.63108233294718
 30
0.0
 11
141.6843545163035
 21
13.943674668693291
 31
0.0
  0
LINE
  5
1243
  8
0
 62
     0
 10
140.37616464358109
 20
16.209525994195701
 30
0.0
 11
140.49372951630349
 21
16.005897661454981
 31
0.0
  0
LINE
  5
1244
  8
0
 62
     0
 10
146.04997923180741
 20
9.1318208546620863
 30
0.0
 11
146.44685423180741
 21
8.4444131904081878
 31
0.0
  0
LINE
  5
1245
  8
0
 62
     0
 10
144.8593542318074
 20
11.19404384742378
 30
0.0
 11
145.2562292318074
 21
10.50663618316988
 31
0.0
  0
LINE
  5
1246
  8
0
 62
     0
 10
143.66872923180739
 20
13.25626684018547
 30
0.0
 11
144.06560423180741
 21
12.56885917593158
 31
0.0
  0
LINE
  5
1247
  8
0
 62
     0
 10
142.47810423180741
 20
15.31848983294717
 30
0.0
 11
142.8749792318074
 21
14.63108216869327
 31
0.0
  0
LINE
  5
1248
  8
0
 62
     0
 10
141.41983199669451
 20
17.151471112402259
 30
0.0
 11
141.68435423180739
 21
16.693305161454969
 31
0.0
  0
LINE
  5
1249
  8
0
 62
     0
 10
147.24060394731131
 20
9.8192283546620942
 30
0.0
 11
147.63747894731131
 21
9.1318206904081975
 31
0.0
  0
LINE
  5
124A
  8
0
 62
     0
 10
146.0499789473113
 20
11.881451347423789
 30
0.0
 11
146.4468539473113
 21
11.194043683169889
 31
0.0
  0
LINE
  5
124B
  8
0
 62
     0
 10
144.85935394731129
 20
13.94367434018549
 30
0.0
 11
145.25622894731131
 21
13.25626667593159
 31
0.0
  0
LINE
  5
124C
  8
0
 62
     0
 10
143.66872894731131
 20
16.005897332947178
 30
0.0
 11
144.0656039473113
 21
15.31848966869328
 31
0.0
  0
LINE
  5
124D
  8
0
 62
     0
 10
142.66048067274031
 20
17.752234571147881
 30
0.0
 11
142.8749789473114
 21
17.380712661454979
 31
0.0
  0
LINE
  5
124E
  8
0
 62
     0
 10
148.43122866281519
 20
10.5066358546621
 30
0.0
 11
148.6183066741705
 21
10.18260723401581
 31
0.0
  0
LINE
  5
124F
  8
0
 62
     0
 10
147.2406036628152
 20
12.568858847423799
 30
0.0
 11
147.6374786628152
 21
11.881451183169901
 31
0.0
  0
LINE
  5
1250
  8
0
 62
     0
 10
146.04997866281519
 20
14.631081840185489
 30
0.0
 11
146.44685366281519
 21
13.943674175931591
 31
0.0
  0
LINE
  5
1251
  8
0
 62
     0
 10
144.85935366281521
 20
16.693304832947192
 30
0.0
 11
145.2562286628152
 21
16.005897168693291
 31
0.0
  0
LINE
  5
1252
  8
0
 62
     0
 10
148.4312283783191
 20
13.2562663474238
 30
0.0
 11
148.8281033783191
 21
12.5688586831699
 31
0.0
  0
LINE
  5
1253
  8
0
 62
     0
 10
147.24060337831921
 20
15.31848934018549
 30
0.0
 11
147.63747837831909
 21
14.63108167593159
 31
0.0
  0
LINE
  5
1254
  8
0
 62
     0
 10
146.0499783783192
 20
17.380712332947191
 30
0.0
 11
146.44685337831919
 21
16.69330466869329
 31
0.0
  0
LINE
  5
1255
  8
0
 62
     0
 10
139.30309512793229
 20
12.56888841312548
 30
0.0
 11
139.00628919787539
 21
12.05480546227921
 31
0.0
  0
LINE
  5
1256
  8
0
 62
     0
 10
140.49372012793231
 20
14.631111405887181
 30
0.0
 11
140.09684512793231
 21
13.94370374163328
 31
0.0
  0
LINE
  5
1257
  8
0
 62
     0
 10
141.68434512793229
 20
16.693334398648869
 30
0.0
 11
141.28747012793229
 21
16.005926734394968
 31
0.0
  0
LINE
  5
1258
  8
0
 62
     0
 10
140.49371984343631
 20
11.881480913125481
 30
0.0
 11
140.09684484343629
 21
11.194073248871581
 31
0.0
  0
LINE
  5
1259
  8
0
 62
     0
 10
141.68434484343621
 20
13.943703905887171
 30
0.0
 11
141.2874698434363
 21
13.256296241633271
 31
0.0
  0
LINE
  5
125A
  8
0
 62
     0
 10
142.87496984343619
 20
16.005926898648859
 30
0.0
 11
142.4780948434362
 21
15.318519234394969
 31
0.0
  0
LINE
  5
125B
  8
0
 62
     0
 10
144.0018313472967
 20
17.957708276428662
 30
0.0
 11
143.66871984343621
 21
17.380742227156659
 31
0.0
  0
LINE
  5
125C
  8
0
 62
     0
 10
140.4937195589402
 20
9.131850420363774
 30
0.0
 11
140.21983906125971
 21
8.6574754831790202
 31
0.0
  0
LINE
  5
125D
  8
0
 62
     0
 10
141.68434455894021
 20
11.19407341312546
 30
0.0
 11
141.28746955894019
 21
10.506665748871569
 31
0.0
  0
LINE
  5
125E
  8
0
 62
     0
 10
142.87496955894011
 20
13.256296405887159
 30
0.0
 11
142.4780945589402
 21
12.568888741633261
 31
0.0
  0
LINE
  5
125F
  8
0
 62
     0
 10
144.06559455894009
 20
15.318519398648849
 30
0.0
 11
143.6687195589401
 21
14.631111734394951
 31
0.0
  0
LINE
  5
1260
  8
0
 62
     0
 10
145.2562195589401
 20
17.380742391410539
 30
0.0
 11
144.85934455894011
 21
16.69333472715665
 31
0.0
  0
LINE
  5
1261
  8
0
 62
     0
 10
141.6843442744441
 20
8.4444429203637785
 30
0.0
 11
141.28746927444411
 21
7.7570352561098801
 31
0.0
  0
LINE
  5
1262
  8
0
 62
     0
 10
142.87496927444411
 20
10.50666591312547
 30
0.0
 11
142.47809427444409
 21
9.8192582488715736
 31
0.0
  0
LINE
  5
1263
  8
0
 62
     0
 10
144.06559427444409
 20
12.56888890588716
 30
0.0
 11
143.66871927444399
 21
11.88148124163326
 31
0.0
  0
LINE
  5
1264
  8
0
 62
     0
 10
145.25621927444399
 20
14.631111898648861
 30
0.0
 11
144.859344274444
 21
13.943704234394961
 31
0.0
  0
LINE
  5
1265
  8
0
 62
     0
 10
146.446844274444
 20
16.693334891410551
 30
0.0
 11
146.04996927444401
 21
16.005927227156651
 31
0.0
  0
LINE
  5
1266
  8
0
 62
     0
 10
142.874968989948
 20
7.7570354203637697
 30
0.0
 11
142.47809398994801
 21
7.0696277561098739
 31
0.0
  0
LINE
  5
1267
  8
0
 62
     0
 10
144.06559398994801
 20
9.8192584131254641
 30
0.0
 11
143.66871898994799
 21
9.1318507488715674
 31
0.0
  0
LINE
  5
1268
  8
0
 62
     0
 10
145.25621898994791
 20
11.881481405887151
 30
0.0
 11
144.859343989948
 21
11.194073741633259
 31
0.0
  0
LINE
  5
1269
  8
0
 62
     0
 10
146.44684398994789
 20
13.943704398648849
 30
0.0
 11
146.0499689899479
 21
13.256296734394949
 31
0.0
  0
LINE
  5
126A
  8
0
 62
     0
 10
147.63746898994791
 20
16.005927391410541
 30
0.0
 11
147.24059398994791
 21
15.31851972715665
 31
0.0
  0
LINE
  5
126B
  8
0
 62
     0
 10
144.0655937054519
 20
7.0696279203637831
 30
0.0
 11
143.86242080380859
 21
6.7177221319964451
 31
0.0
  0
LINE
  5
126C
  8
0
 62
     0
 10
145.25621870545189
 20
9.1318509131254775
 30
0.0
 11
144.85934370545189
 21
8.444443248871579
 31
0.0
  0
LINE
  5
126D
  8
0
 62
     0
 10
146.44684370545181
 20
11.194073905887169
 30
0.0
 11
146.0499687054519
 21
10.506666241633271
 31
0.0
  0
LINE
  5
126E
  8
0
 62
     0
 10
147.63746870545179
 20
13.256296898648859
 30
0.0
 11
147.2405937054518
 21
12.568889234394961
 31
0.0
  0
LINE
  5
126F
  8
0
 62
     0
 10
148.50899461835439
 20
14.765824059908979
 30
0.0
 11
148.43121870545181
 21
14.63111222715666
 31
0.0
  0
LINE
  5
1270
  8
0
 62
     0
 10
146.4468434209557
 20
8.4444434131254784
 30
0.0
 11
146.04996842095571
 21
7.75703574887158
 31
0.0
  0
LINE
  5
1271
  8
0
 62
     0
 10
147.63746842095571
 20
10.50666640588717
 30
0.0
 11
147.24059342095569
 21
9.8192587416332735
 31
0.0
  0
LINE
  5
1272
  8
0
 62
     0
 10
148.8280934209557
 20
12.56888939864886
 30
0.0
 11
148.4312184209557
 21
11.88148173439496
 31
0.0
  0
LINE
  5
1273
  8
0
 62
     0
 10
145.2562500000225
 20
7.7570299999851073
 30
0.0
 11
146.05000000002249
 21
7.7570299999851073
 31
0.0
  0
LINE
  5
1274
  8
0
 62
     0
 10
142.87500000002251
 20
7.7570299999851073
 30
0.0
 11
143.6687500000225
 21
7.7570299999851073
 31
0.0
  0
LINE
  5
1275
  8
0
 62
     0
 10
141.10076874742271
 20
7.7570299999851073
 30
0.0
 11
141.2875000000225
 21
7.7570299999851073
 31
0.0
  0
LINE
  5
1276
  8
0
 62
     0
 10
147.6375000000225
 20
9.1318449999851126
 30
0.0
 11
148.10772746509161
 21
9.1318449999851126
 31
0.0
  0
LINE
  5
1277
  8
0
 62
     0
 10
145.2562500000225
 20
9.1318449999851126
 30
0.0
 11
146.05000000002249
 21
9.1318449999851126
 31
0.0
  0
LINE
  5
1278
  8
0
 62
     0
 10
142.87500000002251
 20
9.1318449999851126
 30
0.0
 11
143.6687500000225
 21
9.1318449999851126
 31
0.0
  0
LINE
  5
1279
  8
0
 62
     0
 10
140.49375000002249
 20
9.1318449999851126
 30
0.0
 11
141.2875000000225
 21
9.1318449999851126
 31
0.0
  0
LINE
  5
127A
  8
0
 62
     0
 10
147.6375000000225
 20
10.506659999985111
 30
0.0
 11
148.43125000002249
 21
10.506659999985111
 31
0.0
  0
LINE
  5
127B
  8
0
 62
     0
 10
145.2562500000225
 20
10.506659999985111
 30
0.0
 11
146.05000000002249
 21
10.506659999985111
 31
0.0
  0
LINE
  5
127C
  8
0
 62
     0
 10
142.87500000002251
 20
10.506659999985111
 30
0.0
 11
143.6687500000225
 21
10.506659999985111
 31
0.0
  0
LINE
  5
127D
  8
0
 62
     0
 10
140.49375000002249
 20
10.506659999985111
 30
0.0
 11
141.2875000000225
 21
10.506659999985111
 31
0.0
  0
LINE
  5
127E
  8
0
 62
     0
 10
147.6375000000225
 20
11.881474999985111
 30
0.0
 11
148.43125000002249
 21
11.881474999985111
 31
0.0
  0
LINE
  5
127F
  8
0
 62
     0
 10
145.2562500000225
 20
11.881474999985111
 30
0.0
 11
146.05000000002249
 21
11.881474999985111
 31
0.0
  0
LINE
  5
1280
  8
0
 62
     0
 10
142.87500000002251
 20
11.881474999985111
 30
0.0
 11
143.6687500000225
 21
11.881474999985111
 31
0.0
  0
LINE
  5
1281
  8
0
 62
     0
 10
140.49375000002249
 20
11.881474999985111
 30
0.0
 11
141.2875000000225
 21
11.881474999985111
 31
0.0
  0
LINE
  5
1282
  8
0
 62
     0
 10
147.6375000000225
 20
13.25628999998511
 30
0.0
 11
148.43125000002249
 21
13.25628999998511
 31
0.0
  0
LINE
  5
1283
  8
0
 62
     0
 10
145.2562500000225
 20
13.25628999998511
 30
0.0
 11
146.05000000002249
 21
13.25628999998511
 31
0.0
  0
LINE
  5
1284
  8
0
 62
     0
 10
142.87500000002251
 20
13.25628999998511
 30
0.0
 11
143.6687500000225
 21
13.25628999998511
 31
0.0
  0
LINE
  5
1285
  8
0
 62
     0
 10
140.49375000002249
 20
13.25628999998511
 30
0.0
 11
141.2875000000225
 21
13.25628999998511
 31
0.0
  0
LINE
  5
1286
  8
0
 62
     0
 10
147.6375000000225
 20
14.63110499998511
 30
0.0
 11
148.43125000002249
 21
14.63110499998511
 31
0.0
  0
LINE
  5
1287
  8
0
 62
     0
 10
145.2562500000225
 20
14.63110499998511
 30
0.0
 11
146.05000000002249
 21
14.63110499998511
 31
0.0
  0
LINE
  5
1288
  8
0
 62
     0
 10
142.87500000002251
 20
14.63110499998511
 30
0.0
 11
143.6687500000225
 21
14.63110499998511
 31
0.0
  0
LINE
  5
1289
  8
0
 62
     0
 10
140.49375000002249
 20
14.63110499998511
 30
0.0
 11
141.2875000000225
 21
14.63110499998511
 31
0.0
  0
LINE
  5
128A
  8
0
 62
     0
 10
147.6375000000225
 20
16.00591999998511
 30
0.0
 11
147.78777218176671
 21
16.00591999998511
 31
0.0
  0
LINE
  5
128B
  8
0
 62
     0
 10
145.2562500000225
 20
16.00591999998511
 30
0.0
 11
146.05000000002249
 21
16.00591999998511
 31
0.0
  0
LINE
  5
128C
  8
0
 62
     0
 10
142.87500000002251
 20
16.00591999998511
 30
0.0
 11
143.6687500000225
 21
16.00591999998511
 31
0.0
  0
LINE
  5
128D
  8
0
 62
     0
 10
140.49375000002249
 20
16.00591999998511
 30
0.0
 11
141.2875000000225
 21
16.00591999998511
 31
0.0
  0
LINE
  5
128E
  8
0
 62
     0
 10
145.2562500000225
 20
17.380734999985108
 30
0.0
 11
146.05000000002249
 21
17.380734999985108
 31
0.0
  0
LINE
  5
128F
  8
0
 62
     0
 10
142.87500000002251
 20
17.380734999985108
 30
0.0
 11
143.6687500000225
 21
17.380734999985108
 31
0.0
  0
ENDBLK
  5
1291
  8
0
  0
BLOCK
  8
0
  2
*X33
 70
     1
 10
0.0
 20
0.0
 30
0.0
  3
*X33
  1

  0
LINE
  5
173F
  8
0
 62
     0
 10
127.26690537770941
 20
0.3794392578472951
 30
0.0
 11
127.11250739690431
 21
0.5338372386524064
 31
0.0
  0
LINE
  5
1740
  8
0
 62
     0
 10
126.9999999993754
 20
-0.4761873789523179
 30
0.0
 11
125.7496704593696
 21
0.77414216105349
 31
0.0
  0
LINE
  5
1741
  8
0
 62
     0
 10
128.49940385621861
 20
-1.975591235795473
 30
0.0
 11
128.02440876358369
 21
-1.500596143160642
 31
0.0
  0
LINE
  5
1742
  8
0
 62
     0
 10
128.49174761771079
 20
-3.0904670124213101
 30
0.0
 11
124.73688687637831
 21
0.6643937289111435
 31
0.0
  0
LINE
  5
1743
  8
0
 62
     0
 10
123.7047351029467
 20
0.5740134872091254
 30
0.0
 11
122.9999999995015
 21
1.2787485906542491
 31
0.0
  0
LINE
  5
1744
  8
0
 62
     0
 10
127.7787485901675
 20
-3.5000000000116911
 30
0.0
 11
124.1312467392321
 21
0.1475018509237671
 31
0.0
  0
LINE
  5
1745
  8
0
 62
     0
 10
126.9999999998565
 20
-3.8437834248343812
 30
0.0
 11
122.9999999995015
 21
0.156216575520606
 31
0.0
  0
LINE
  5
1746
  8
0
 62
     0
 10
126.7937890224113
 20
-4.7601044625227678
 30
0.0
 11
122.9999999995015
 21
-0.9663154396130408
 31
0.0
  0
LINE
  5
1747
  8
0
 62
     0
 10
125.522521246176
 20
-4.61136870142112
 30
0.0
 11
122.9999999995015
 21
-2.0888474547466731
 31
0.0
  0
LINE
  5
1748
  8
0
 62
     0
 10
124.4041042302068
 20
-4.6154837005855951
 30
0.0
 11
122.9999999995015
 21
-3.211379469880316
 31
0.0
  0
LINE
  5
1749
  8
0
 62
     0
 10
123.3937887681676
 20
-4.7277002536800401
 30
0.0
 11
122.9999999995015
 21
-4.3339114850139557
 31
0.0
  0
LINE
  5
174A
  8
0
 62
     0
 10
127.41115254475579
 20
-3.5000000000066711
 30
0.0
 11
128.49999999957279
 21
-2.411152545189633
 31
0.0
  0
LINE
  5
174B
  8
0
 62
     0
 10
126.2366071603268
 20
-4.6745453844357128
 30
0.0
 11
126.999999999857
 21
-3.9111525449054758
 31
0.0
  0
LINE
  5
174C
  8
0
 62
     0
 10
125.189139241295
 20
-4.5994812883338438
 30
0.0
 11
128.23169680830719
 21
-1.556923721321638
 31
0.0
  0
LINE
  5
174D
  8
0
 62
     0
 10
124.0202213051918
 20
-4.645867209303411
 30
0.0
 11
127.1685730759017
 21
-1.4975154385934279
 31
0.0
  0
LINE
  5
174E
  8
0
 62
     0
 10
122.9999999995015
 20
-4.5435564998599922
 30
0.0
 11
126.9999999993754
 21
-0.5435564999861207
 31
0.0
  0
LINE
  5
174F
  8
0
 62
     0
 10
122.9999999995015
 20
-3.421024484726348
 30
0.0
 11
126.9784922152341
 21
0.5574677310061666
 31
0.0
  0
LINE
  5
1750
  8
0
 62
     0
 10
122.9999999995015
 20
-2.2984924695927051
 30
0.0
 11
126.0242235182326
 21
0.7257310491383642
 31
0.0
  0
LINE
  5
1751
  8
0
 62
     0
 10
124.7618147874888
 20
0.5858543335282392
 30
0.0
 11
125.06995482123121
 21
0.8939943672705688
 31
0.0
  0
LINE
  5
1752
  8
0
 62
     0
 10
122.9999999995015
 20
-1.175960454459051
 30
0.0
 11
124.3310835909585
 21
0.1551231369978936
 31
0.0
  0
LINE
  5
1753
  8
0
 62
     0
 10
122.9999999995015
 20
-0.0534284393254083
 30
0.0
 11
123.68410971465021
 21
0.6306812758231893
 31
0.0
  0
LINE
  5
1754
  8
0
 62
     0
 10
122.9999999995015
 20
1.0691035758082419
 30
0.0
 11
123.38456634468101
 21
1.4536699209877351
 31
0.0
  0
ENDBLK
  5
1756
  8
0
  0
BLOCK
  8
0
  2
*X34
 70
     1
 10
0.0
 20
0.0
 30
0.0
  3
*X34
  1

  0
LINE
  5
1758
  8
0
 62
     0
 10
94.999999999501384
 20
1.2154482123133119
 30
0.0
 11
94.654485160080014
 21
1.5609630517347119
 31
0.0
  0
LINE
  5
1759
  8
0
 62
     0
 10
94.999999999501412
 20
0.0929161971796697
 30
0.0
 11
94.354941790102217
 21
0.7379744065788654
 31
0.0
  0
LINE
  5
175A
  8
0
 62
     0
 10
93.269245423732727
 20
0.7011387578147027
 30
0.0
 11
93.055358320218289
 21
0.9150258613291313
 31
0.0
  0
LINE
  5
175B
  8
0
 62
     0
 10
94.999999999501412
 20
-1.0296158179539749
 30
0.0
 11
93.827893856472443
 21
0.1424903250749812
 31
0.0
  0
LINE
  5
175C
  8
0
 62
     0
 10
94.999999999501412
 20
-2.1521478330876191
 30
0.0
 11
92.100184607650476
 21
0.7476675587633394
 31
0.0
  0
LINE
  5
175D
  8
0
 62
     0
 10
94.999999999501412
 20
-3.274679848221262
 30
0.0
 11
91.145915910638351
 21
0.5794042406417918
 31
0.0
  0
LINE
  5
175E
  8
0
 62
     0
 10
94.999999999501412
 20
-4.3972118633549071
 30
0.0
 11
90.999999999985249
 21
-0.3972118638387432
 31
0.0
  0
LINE
  5
175F
  8
0
 62
     0
 10
94.143643620877612
 20
-4.663387499864748
 30
0.0
 11
90.931204439853474
 21
-1.4509483188406089
 31
0.0
  0
LINE
  5
1760
  8
0
 62
     0
 10
92.955513301733461
 20
-4.5977891958542427
 30
0.0
 11
89.873889322981285
 21
-1.516165217102077
 31
0.0
  0
LINE
  5
1761
  8
0
 62
     0
 10
90.735192090750303
 20
-3.500000000004738
 30
0.0
 11
89.499999999858076
 21
-2.2648079091125108
 31
0.0
  0
LINE
  5
1762
  8
0
 62
     0
 10
91.894281331294593
 20
-4.6590892405490374
 30
0.0
 11
90.999999999504624
 21
-3.7648079087590558
 31
0.0
  0
LINE
  5
1763
  8
0
 62
     0
 10
94.731347543278716
 20
-4.7489085777417506
 30
0.0
 11
94.999999999501412
 21
-4.4802561215190417
 31
0.0
  0
LINE
  5
1764
  8
0
 62
     0
 10
93.733091462058937
 20
-4.62463264382788
 30
0.0
 11
94.999999999501412
 21
-3.3577241063854002
 31
0.0
  0
LINE
  5
1765
  8
0
 62
     0
 10
92.630670536638689
 20
-4.6045215541144842
 30
0.0
 11
94.999999999501412
 21
-2.2351920912517551
 31
0.0
  0
LINE
  5
1766
  8
0
 62
     0
 10
91.383234120847305
 20
-4.7294259547722231
 30
0.0
 11
94.999999999501412
 21
-1.11266007611811
 31
0.0
  0
LINE
  5
1767
  8
0
 62
     0
 10
90.999999999503146
 20
-3.9901280609827281
 30
0.0
 11
94.999999999501412
 21
0.0098719390155324
 31
0.0
  0
LINE
  5
1768
  8
0
 62
     0
 10
90.367596045342495
 20
-3.5000000000097509
 30
0.0
 11
94.999999999501412
 21
1.1324039541491751
 31
0.0
  0
LINE
  5
1769
  8
0
 62
     0
 10
89.542756465595389
 20
-3.2023075646231982
 30
0.0
 11
93.233023173540815
 21
0.4879591433222421
 31
0.0
  0
LINE
  5
176A
  8
0
 62
     0
 10
90.999999999985249
 20
-0.6225320150996989
 30
0.0
 11
92.428002758629361
 21
0.805470743544408
 31
0.0
  0
LINE
  5
176B
  8
0
 62
     0
 10
89.49999999992643
 20
-2.1225320151585261
 30
0.0
 11
90.122532015081106
 21
-1.500000000003852
 31
0.0
  0
LINE
  5
176C
  8
0
 62
     0
 10
90.755031130716674
 20
0.2550311307653867
 30
0.0
 11
91.065165821116366
 21
0.565165821165043
 31
0.0
  0
ENDBLK
  5
176E
  8
0
  0
BLOCK
  8
0
  2
*X35
 70
     1
 10
0.0
 20
0.0
 30
0.0
  3
*X35
  1

  0
LINE
  5
17A5
  8
0
 62
     0
 10
127.26690537770941
 20
0.3794392578472951
 30
0.0
 11
127.11250739690431
 21
0.5338372386524064
 31
0.0
  0
LINE
  5
17A6
  8
0
 62
     0
 10
126.9999999993754
 20
-0.4761873789523179
 30
0.0
 11
125.7496704593696
 21
0.77414216105349
 31
0.0
  0
LINE
  5
17A7
  8
0
 62
     0
 10
128.49940385621861
 20
-1.975591235795473
 30
0.0
 11
128.02440876358369
 21
-1.500596143160642
 31
0.0
  0
LINE
  5
17A8
  8
0
 62
     0
 10
128.49174761771079
 20
-3.0904670124213101
 30
0.0
 11
124.73688687637831
 21
0.6643937289111435
 31
0.0
  0
LINE
  5
17A9
  8
0
 62
     0
 10
123.7047351029467
 20
0.5740134872091254
 30
0.0
 11
122.9999999995015
 21
1.2787485906542491
 31
0.0
  0
LINE
  5
17AA
  8
0
 62
     0
 10
127.7787485901675
 20
-3.5000000000116911
 30
0.0
 11
124.1312467392321
 21
0.1475018509237671
 31
0.0
  0
LINE
  5
17AB
  8
0
 62
     0
 10
126.9999999998565
 20
-3.8437834248343812
 30
0.0
 11
122.9999999995015
 21
0.156216575520606
 31
0.0
  0
LINE
  5
17AC
  8
0
 62
     0
 10
126.7937890224113
 20
-4.7601044625227678
 30
0.0
 11
122.9999999995015
 21
-0.9663154396130408
 31
0.0
  0
LINE
  5
17AD
  8
0
 62
     0
 10
125.522521246176
 20
-4.61136870142112
 30
0.0
 11
122.9999999995015
 21
-2.0888474547466731
 31
0.0
  0
LINE
  5
17AE
  8
0
 62
     0
 10
124.4041042302068
 20
-4.6154837005855951
 30
0.0
 11
122.9999999995015
 21
-3.211379469880316
 31
0.0
  0
LINE
  5
17AF
  8
0
 62
     0
 10
123.3937887681676
 20
-4.7277002536800401
 30
0.0
 11
122.9999999995015
 21
-4.3339114850139557
 31
0.0
  0
LINE
  5
17B0
  8
0
 62
     0
 10
127.41115254475579
 20
-3.5000000000066711
 30
0.0
 11
128.49999999957279
 21
-2.411152545189633
 31
0.0
  0
LINE
  5
17B1
  8
0
 62
     0
 10
126.2366071603268
 20
-4.6745453844357128
 30
0.0
 11
126.999999999857
 21
-3.9111525449054758
 31
0.0
  0
LINE
  5
17B2
  8
0
 62
     0
 10
125.189139241295
 20
-4.5994812883338438
 30
0.0
 11
128.23169680830719
 21
-1.556923721321638
 31
0.0
  0
LINE
  5
17B3
  8
0
 62
     0
 10
124.0202213051918
 20
-4.645867209303411
 30
0.0
 11
127.1685730759017
 21
-1.4975154385934279
 31
0.0
  0
LINE
  5
17B4
  8
0
 62
     0
 10
122.9999999995015
 20
-4.5435564998599922
 30
0.0
 11
126.9999999993754
 21
-0.5435564999861207
 31
0.0
  0
LINE
  5
17B5
  8
0
 62
     0
 10
122.9999999995015
 20
-3.421024484726348
 30
0.0
 11
126.9784922152341
 21
0.5574677310061666
 31
0.0
  0
LINE
  5
17B6
  8
0
 62
     0
 10
122.9999999995015
 20
-2.2984924695927051
 30
0.0
 11
126.0242235182326
 21
0.7257310491383642
 31
0.0
  0
LINE
  5
17B7
  8
0
 62
     0
 10
124.7618147874888
 20
0.5858543335282392
 30
0.0
 11
125.06995482123121
 21
0.8939943672705688
 31
0.0
  0
LINE
  5
17B8
  8
0
 62
     0
 10
122.9999999995015
 20
-1.175960454459051
 30
0.0
 11
124.3310835909585
 21
0.1551231369978936
 31
0.0
  0
LINE
  5
17B9
  8
0
 62
     0
 10
122.9999999995015
 20
-0.0534284393254083
 30
0.0
 11
123.68410971465021
 21
0.6306812758231893
 31
0.0
  0
LINE
  5
17BA
  8
0
 62
     0
 10
122.9999999995015
 20
1.0691035758082419
 30
0.0
 11
123.38456634468101
 21
1.4536699209877351
 31
0.0
  0
ENDBLK
  5
17BC
  8
0
  0
BLOCK
  8
0
  2
*X36
 70
     1
 10
0.0
 20
0.0
 30
0.0
  3
*X36
  1

  0
LINE
  5
17BE
  8
0
 62
     0
 10
94.999999999501384
 20
1.2154482123133119
 30
0.0
 11
94.654485160080014
 21
1.5609630517347119
 31
0.0
  0
LINE
  5
17BF
  8
0
 62
     0
 10
94.999999999501412
 20
0.0929161971796697
 30
0.0
 11
94.354941790102217
 21
0.7379744065788655
 31
0.0
  0
LINE
  5
17C0
  8
0
 62
     0
 10
93.269245423732727
 20
0.7011387578147027
 30
0.0
 11
93.055358320218289
 21
0.9150258613291316
 31
0.0
  0
LINE
  5
17C1
  8
0
 62
     0
 10
94.999999999501412
 20
-1.0296158179539749
 30
0.0
 11
93.827893856472443
 21
0.1424903250749813
 31
0.0
  0
LINE
  5
17C2
  8
0
 62
     0
 10
94.999999999501412
 20
-2.1521478330876191
 30
0.0
 11
92.100184607650476
 21
0.7476675587633394
 31
0.0
  0
LINE
  5
17C3
  8
0
 62
     0
 10
94.999999999501412
 20
-3.274679848221262
 30
0.0
 11
91.145915910638351
 21
0.5794042406417919
 31
0.0
  0
LINE
  5
17C4
  8
0
 62
     0
 10
94.999999999501412
 20
-4.3972118633549071
 30
0.0
 11
90.999999999985249
 21
-0.3972118638387432
 31
0.0
  0
LINE
  5
17C5
  8
0
 62
     0
 10
94.143643620877612
 20
-4.663387499864748
 30
0.0
 11
90.931204439853474
 21
-1.4509483188406089
 31
0.0
  0
LINE
  5
17C6
  8
0
 62
     0
 10
92.955513301733461
 20
-4.5977891958542427
 30
0.0
 11
89.873889322981285
 21
-1.516165217102077
 31
0.0
  0
LINE
  5
17C7
  8
0
 62
     0
 10
90.735192090750303
 20
-3.500000000004738
 30
0.0
 11
89.499999999858076
 21
-2.2648079091125108
 31
0.0
  0
LINE
  5
17C8
  8
0
 62
     0
 10
91.894281331294593
 20
-4.6590892405490374
 30
0.0
 11
90.999999999504624
 21
-3.7648079087590558
 31
0.0
  0
LINE
  5
17C9
  8
0
 62
     0
 10
94.731347543278716
 20
-4.7489085777417506
 30
0.0
 11
94.999999999501412
 21
-4.4802561215190417
 31
0.0
  0
LINE
  5
17CA
  8
0
 62
     0
 10
93.733091462058937
 20
-4.62463264382788
 30
0.0
 11
94.999999999501412
 21
-3.3577241063854002
 31
0.0
  0
LINE
  5
17CB
  8
0
 62
     0
 10
92.630670536638689
 20
-4.6045215541144842
 30
0.0
 11
94.999999999501412
 21
-2.2351920912517551
 31
0.0
  0
LINE
  5
17CC
  8
0
 62
     0
 10
91.383234120847305
 20
-4.7294259547722231
 30
0.0
 11
94.999999999501412
 21
-1.11266007611811
 31
0.0
  0
LINE
  5
17CD
  8
0
 62
     0
 10
90.999999999503146
 20
-3.9901280609827281
 30
0.0
 11
94.999999999501412
 21
0.0098719390155324
 31
0.0
  0
LINE
  5
17CE
  8
0
 62
     0
 10
90.367596045342495
 20
-3.5000000000097509
 30
0.0
 11
94.999999999501412
 21
1.1324039541491751
 31
0.0
  0
LINE
  5
17CF
  8
0
 62
     0
 10
89.542756465595389
 20
-3.2023075646231982
 30
0.0
 11
93.233023173540815
 21
0.4879591433222421
 31
0.0
  0
LINE
  5
17D0
  8
0
 62
     0
 10
90.999999999985249
 20
-0.6225320150996989
 30
0.0
 11
92.428002758629361
 21
0.805470743544408
 31
0.0
  0
LINE
  5
17D1
  8
0
 62
     0
 10
89.49999999992643
 20
-2.1225320151585261
 30
0.0
 11
90.122532015081106
 21
-1.500000000003852
 31
0.0
  0
LINE
  5
17D2
  8
0
 62
     0
 10
90.755031130716674
 20
0.2550311307653867
 30
0.0
 11
91.065165821116366
 21
0.565165821165043
 31
0.0
  0
ENDBLK
  5
17D4
  8
0
  0
BLOCK
  8
0
  2
*U37
 70
     1
 10
0.0
 20
0.0
 30
0.0
  3
*U37
  1

  0
TEXT
  5
1935
  8
SAPA_MATT
 62
     2
 10
179.99999985601639
 20
25.049999999998111
 30
0.0
 40
3.5
  1
65
 50
90.0
  7
ISO
  0
ENDBLK
  5
1937
  8
0
  0
BLOCK
  8
0
  2
*U38
 70
     1
 10
0.0
 20
0.0
 30
0.0
  3
*U38
  1

  0
TEXT
  5
1939
  8
SAPA_MATT
 62
     2
 10
167.99999985601639
 20
27.550000000000061
 30
0.0
 40
3.5
  1
60
 50
90.0
  7
ISO
  0
ENDBLK
  5
193B
  8
0
  0
BLOCK
  8
0
  2
*U39
 70
     1
 10
0.0
 20
0.0
 30
0.0
  3
*U39
  1

  0
TEXT
  5
193D
  8
SAPA_MATT
 62
     2
 10
73.174999999760246
 20
-54.999999999999972
 30
0.0
 40
3.5
  1
125
  7
ISO
  0
ENDBLK
  5
193F
  8
0
  0
BLOCK
  8
0
  2
*U40
 70
     1
 10
0.0
 20
0.0
 30
0.0
  3
*U40
  1

  0
TEXT
  5
1941
  8
SAPA_MATT
 62
     2
 10
45.90000000001762
 20
-43.0
 30
0.0
 40
3.5
  1
71.5
  7
ISO
  0
ENDBLK
  5
1943
  8
0
  0
ENDSEC
  0
SECTION
  2
ENTITIES
  0
TEXT
  5
70A
  8
SAPA_ARTIKELNR
 10
12.34545063752333
 20
24.188039105301709
 30
0.0000000048844772
 40
3.5
  1
D8K025
 50
90.0
  7
ISO
  0
TEXT
  5
722
  8
SAPA_ARTIKELNR
 10
130.3220656595048
 20
-22.485790610471859
 30
0.0000000048844772
 40
3.5
  1
D8V001
 50
90.0
  7
ISO
  0
INSERT
  5
EA6
  8
SAPA_ANSLUTNING
  6
CONTINUOUS
  2
*X31
 10
0.0
 20
0.0
 30
0.0
1001
ACAD
1000
HATCH
1002
{
1070
    19
1000
ANSI37
1040
0.25
1040
0.0
1000
R14_HATCH_DATA
1000
EA6
1011
1.0
1021
0.0
1031
0.0
1021
0.0
1031
0.0
1011
0.0
1021
0.0
1031
0.0
1021
1.0
1031
0.0
1011
0.0
1021
0.0
1031
0.0
1021
0.0
1031
1.0
1040
0.0
1010
0.0
1020
0.0
1030
1.0
1000
ANSI37
1070
     0
1070
     0
1071
        1
1071
        5
1071
        6
1070
     2
1040
137.49999992776381
1040
1.499999999985163
1040
1.4999999999999989
1040
5.49778714378209
1040
6.2831853071795569
1070
     1
1070
     1
1040
138.99999992776381
1040
1.499999999985121
1040
138.9999999277637
1040
12.33665123667565
1070
     3
1040
143.99999992776381
1040
12.33665123667596
1040
0.0
1040
5.6210574168242138
1040
0.8895123513655372
1040
1.5707963267948959
1040
2.144309431217978
1070
     1
1070
     3
1040
143.99999992776381
1040
12.33665123667596
1040
0.0
1040
5.6210574168242138
1040
0.8895123513655372
1040
2.144309431217978
1040
4.7123889803846888
1070
     1
1070
     1
1040
148.99999992776381
1040
12.336651236675319
1040
148.99999992776381
1040
0.0000000000001137
1070
     2
1040
142.90216751659219
1040
-20.646721299902289
1040
21.528368738726542
1040
1.2836189008757071
1040
1.773853352005716
1070
     1
1071
        0
1070
     0
1070
     1
1040
0.0
1040
0.25
1070
     0
1070
     2
1040
5.4977871437821371
1040
0.0000000000225686
1040
59.999999999985107
1040
-0.5612660075668221
1040
-0.5612660075668221
1070
     0
1040
3.926990816987241
1040
0.0000000000225686
1040
59.999999999985107
1040
-0.5612660075668221
1040
0.5612660075668221
1070
     0
1040
0.0591690278051155
1071
        1
1040
142.99867634701221
1040
3.5796352870592179
1040
0.0
1002
}
  0
LINE
  5
EA7
  8
SAPA_ANSLUTNING
 10
14.00000000000904
 20
75.000000000005571
 30
0.0
 11
148.99999992776381
 21
75.000000000005542
 31
0.0
  0
LINE
  5
EA8
  8
SAPA_ANSLUTNING
 10
148.99999992776381
 20
0.0000000000001137
 30
0.0
 11
194.0032559344221
 21
0.0000000000000995
 31
0.0
  0
LINE
  5
EA9
  8
SAPA_ANSLUTNING
 10
148.99999992776381
 20
75.000000000005542
 30
0.0
 11
148.99999992776381
 21
0.0000000000001137
 31
0.0
  0
ARC
  5
EAA
  8
SAPA_ANSLUTNING
 10
142.90216751659219
 20
-20.646721299902421
 30
0.0
 40
21.52836873872667
 50
73.545945523399851
 51
101.6343105450598
  0
INSERT
  5
EAB
  8
SAPA_ANSLUTNING
  6
CONTINUOUS
  2
*X32
 10
0.0
 20
0.0
 30
0.0
1001
ACAD
1000
HATCH
1002
{
1070
    19
1000
HEX
1040
0.25
1040
0.0
1000
ASC_BOUNDS
1070
     1
1070
     1
1070
     1
1005
EAC
1000
ASC_SEEDPOINT
1011
144.24210993783839
1021
0.0
1031
0.0
1021
12.218313547619241
1031
0.0
1000
R14_HATCH_DATA
1000
EAB
1011
1.0
1021
0.0
1031
0.0
1021
0.0
1031
0.0
1011
0.0
1021
0.0
1031
0.0
1021
1.0
1031
0.0
1011
0.0
1021
0.0
1031
0.0
1021
0.0
1031
1.0
1040
0.0
1010
0.0
1020
0.0
1030
1.0
1000
HEX
1070
     0
1070
     1
1071
        1
1071
        5
1071
        1
1070
     3
1040
143.99999992776381
1040
12.33665123667596
1040
0.0
1040
5.6210574168242138
1040
0.8895123513655372
1040
0.0
1040
6.2831853071795862
1070
     0
1071
        1
1005
EAC
1070
     0
1070
     1
1040
0.0
1040
0.25
1070
     0
1070
     3
1040
0.0
1040
0.0000000000225686
1040
59.999999999985107
1040
0.0
1040
-1.374814999999999
1070
     2
1040
0.79375
1040
-1.587499999999999
1040
4.1887902047863914
1040
0.0000000000225686
1040
59.999999999985107
1040
-1.190624715503902
1040
0.6874074999999996
1070
     2
1040
0.7937499999999993
1040
-1.5874999999999979
1040
5.2359877559829879
1040
0.7937500000225572
1040
59.999999999985107
1040
-1.190624715503902
1040
-0.6874075000000001
1070
     2
1040
0.79375
1040
-1.587499999999999
1040
0.0591690278051155
1071
        1
1040
144.24210993783839
1040
12.218313547619241
1040
0.0
1002
}
  0
POLYLINE
  5
EAC
  8
SAPA_ANSLUTNING
 10
143.99999992776381
 20
17.957708653500173
 30
0.0
 66
     1
 70
     8
  0
VERTEX
  8
SAPA_ANSLUTNING
  5
1947
 10
144.000
 20
17.9577
 30
0.000000
  70
    32
  0
VERTEX
  8
SAPA_ANSLUTNING
  5
1948
 10
144.245
 20
17.9509
 30
0.000000
  70
    32
  0
VERTEX
  8
SAPA_ANSLUTNING
  5
1949
 10
144.490
 20
17.9306
 30
0.000000
  70
    32
  0
VERTEX
  8
SAPA_ANSLUTNING
  5
194A
 10
144.734
 20
17.8969
 30
0.000000
  70
    32
  0
VERTEX
  8
SAPA_ANSLUTNING
  5
194B
 10
144.975
 20
17.8497
 30
0.000000
  70
    32
  0
VERTEX
  8
SAPA_ANSLUTNING
  5
194C
 10
145.215
 20
17.7893
 30
0.000000
  70
    32
  0
VERTEX
  8
SAPA_ANSLUTNING
  5
194D
 10
145.451
 20
17.7157
 30
0.000000
  70
    32
  0
VERTEX
  8
SAPA_ANSLUTNING
  5
194E
 10
145.684
 20
17.6291
 30
0.000000
  70
    32
  0
VERTEX
  8
SAPA_ANSLUTNING
  5
194F
 10
145.913
 20
17.5298
 30
0.000000
  70
    32
  0
VERTEX
  8
SAPA_ANSLUTNING
  5
1950
 10
146.138
 20
17.4180
 30
0.000000
  70
    32
  0
VERTEX
  8
SAPA_ANSLUTNING
  5
1951
 10
146.357
 20
17.2940
 30
0.000000
  70
    32
  0
VERTEX
  8
SAPA_ANSLUTNING
  5
1952
 10
146.571
 20
17.1580
 30
0.000000
  70
    32
  0
VERTEX
  8
SAPA_ANSLUTNING
  5
1953
 10
146.778
 20
17.0104
 30
0.000000
  70
    32
  0
VERTEX
  8
SAPA_ANSLUTNING
  5
1954
 10
146.978
 20
16.8515
 30
0.000000
  70
    32
  0
VERTEX
  8
SAPA_ANSLUTNING
  5
1955
 10
147.172
 20
16.6818
 30
0.000000
  70
    32
  0
VERTEX
  8
SAPA_ANSLUTNING
  5
1956
 10
147.358
 20
16.5016
 30
0.000000
  70
    32
  0
VERTEX
  8
SAPA_ANSLUTNING
  5
1957
 10
147.536
 20
16.3113
 30
0.000000
  70
    32
  0
VERTEX
  8
SAPA_ANSLUTNING
  5
1958
 10
147.705
 20
16.1115
 30
0.000000
  70
    32
  0
VERTEX
  8
SAPA_ANSLUTNING
  5
1959
 10
147.865
 20
15.9026
 30
0.000000
  70
    32
  0
VERTEX
  8
SAPA_ANSLUTNING
  5
195A
 10
148.016
 20
15.6851
 30
0.000000
  70
    32
  0
VERTEX
  8
SAPA_ANSLUTNING
  5
195B
 10
148.157
 20
15.4595
 30
0.000000
  70
    32
  0
VERTEX
  8
SAPA_ANSLUTNING
  5
195C
 10
148.289
 20
15.2265
 30
0.000000
  70
    32
  0
VERTEX
  8
SAPA_ANSLUTNING
  5
195D
 10
148.410
 20
14.9864
 30
0.000000
  70
    32
  0
VERTEX
  8
SAPA_ANSLUTNING
  5
195E
 10
148.520
 20
14.7400
 30
0.000000
  70
    32
  0
VERTEX
  8
SAPA_ANSLUTNING
  5
195F
 10
148.619
 20
14.4877
 30
0.000000
  70
    32
  0
VERTEX
  8
SAPA_ANSLUTNING
  5
1960
 10
148.708
 20
14.2303
 30
0.000000
  70
    32
  0
VERTEX
  8
SAPA_ANSLUTNING
  5
1961
 10
148.785
 20
13.9684
 30
0.000000
  70
    32
  0
VERTEX
  8
SAPA_ANSLUTNING
  5
1962
 10
148.850
 20
13.7025
 30
0.000000
  70
    32
  0
VERTEX
  8
SAPA_ANSLUTNING
  5
1963
 10
148.904
 20
13.4333
 30
0.000000
  70
    32
  0
VERTEX
  8
SAPA_ANSLUTNING
  5
1964
 10
148.946
 20
13.1614
 30
0.000000
  70
    32
  0
VERTEX
  8
SAPA_ANSLUTNING
  5
1965
 10
148.976
 20
12.8876
 30
0.000000
  70
    32
  0
VERTEX
  8
SAPA_ANSLUTNING
  5
1966
 10
148.994
 20
12.6125
 30
0.000000
  70
    32
  0
VERTEX
  8
SAPA_ANSLUTNING
  5
1967
 10
149.000
 20
12.3367
 30
0.000000
  70
    32
  0
VERTEX
  8
SAPA_ANSLUTNING
  5
1968
 10
148.994
 20
12.0608
 30
0.000000
  70
    32
  0
VERTEX
  8
SAPA_ANSLUTNING
  5
1969
 10
148.976
 20
11.7857
 30
0.000000
  70
    32
  0
VERTEX
  8
SAPA_ANSLUTNING
  5
196A
 10
148.946
 20
11.5119
 30
0.000000
  70
    32
  0
VERTEX
  8
SAPA_ANSLUTNING
  5
196B
 10
148.904
 20
11.2400
 30
0.000000
  70
    32
  0
VERTEX
  8
SAPA_ANSLUTNING
  5
196C
 10
148.850
 20
10.9708
 30
0.000000
  70
    32
  0
VERTEX
  8
SAPA_ANSLUTNING
  5
196D
 10
148.785
 20
10.7049
 30
0.000000
  70
    32
  0
VERTEX
  8
SAPA_ANSLUTNING
  5
196E
 10
148.708
 20
10.4430
 30
0.000000
  70
    32
  0
VERTEX
  8
SAPA_ANSLUTNING
  5
196F
 10
148.619
 20
10.1856
 30
0.000000
  70
    32
  0
VERTEX
  8
SAPA_ANSLUTNING
  5
1970
 10
148.520
 20
9.93334
 30
0.000000
  70
    32
  0
VERTEX
  8
SAPA_ANSLUTNING
  5
1971
 10
148.410
 20
9.68690
 30
0.000000
  70
    32
  0
VERTEX
  8
SAPA_ANSLUTNING
  5
1972
 10
148.289
 20
9.44685
 30
0.000000
  70
    32
  0
VERTEX
  8
SAPA_ANSLUTNING
  5
1973
 10
148.157
 20
9.21376
 30
0.000000
  70
    32
  0
VERTEX
  8
SAPA_ANSLUTNING
  5
1974
 10
148.016
 20
8.98819
 30
0.000000
  70
    32
  0
VERTEX
  8
SAPA_ANSLUTNING
  5
1975
 10
147.865
 20
8.77069
 30
0.000000
  70
    32
  0
VERTEX
  8
SAPA_ANSLUTNING
  5
1976
 10
147.705
 20
8.56178
 30
0.000000
  70
    32
  0
VERTEX
  8
SAPA_ANSLUTNING
  5
1977
 10
147.536
 20
8.36196
 30
0.000000
  70
    32
  0
VERTEX
  8
SAPA_ANSLUTNING
  5
1978
 10
147.358
 20
8.17172
 30
0.000000
  70
    32
  0
VERTEX
  8
SAPA_ANSLUTNING
  5
1979
 10
147.172
 20
7.99152
 30
0.000000
  70
    32
  0
VERTEX
  8
SAPA_ANSLUTNING
  5
197A
 10
146.978
 20
7.82178
 30
0.000000
  70
    32
  0
VERTEX
  8
SAPA_ANSLUTNING
  5
197B
 10
146.778
 20
7.66291
 30
0.000000
  70
    32
  0
VERTEX
  8
SAPA_ANSLUTNING
  5
197C
 10
146.571
 20
7.51531
 30
0.000000
  70
    32
  0
VERTEX
  8
SAPA_ANSLUTNING
  5
197D
 10
146.357
 20
7.37932
 30
0.000000
  70
    32
  0
VERTEX
  8
SAPA_ANSLUTNING
  5
197E
 10
146.138
 20
7.25528
 30
0.000000
  70
    32
  0
VERTEX
  8
SAPA_ANSLUTNING
  5
197F
 10
145.913
 20
7.14347
 30
0.000000
  70
    32
  0
VERTEX
  8
SAPA_ANSLUTNING
  5
1980
 10
145.684
 20
7.04418
 30
0.000000
  70
    32
  0
VERTEX
  8
SAPA_ANSLUTNING
  5
1981
 10
145.451
 20
6.95763
 30
0.000000
  70
    32
  0
VERTEX
  8
SAPA_ANSLUTNING
  5
1982
 10
145.215
 20
6.88405
 30
0.000000
  70
    32
  0
VERTEX
  8
SAPA_ANSLUTNING
  5
1983
 10
144.975
 20
6.82360
 30
0.000000
  70
    32
  0
VERTEX
  8
SAPA_ANSLUTNING
  5
1984
 10
144.734
 20
6.77643
 30
0.000000
  70
    32
  0
VERTEX
  8
SAPA_ANSLUTNING
  5
1985
 10
144.490
 20
6.74266
 30
0.000000
  70
    32
  0
VERTEX
  8
SAPA_ANSLUTNING
  5
1986
 10
144.245
 20
6.72236
 30
0.000000
  70
    32
  0
VERTEX
  8
SAPA_ANSLUTNING
  5
1987
 10
144.000
 20
6.71559
 30
0.000000
  70
    32
  0
VERTEX
  8
SAPA_ANSLUTNING
  5
1988
 10
143.755
 20
6.72236
 30
0.000000
  70
    32
  0
VERTEX
  8
SAPA_ANSLUTNING
  5
1989
 10
143.510
 20
6.74266
 30
0.000000
  70
    32
  0
VERTEX
  8
SAPA_ANSLUTNING
  5
198A
 10
143.266
 20
6.77643
 30
0.000000
  70
    32
  0
VERTEX
  8
SAPA_ANSLUTNING
  5
198B
 10
143.025
 20
6.82360
 30
0.000000
  70
    32
  0
VERTEX
  8
SAPA_ANSLUTNING
  5
198C
 10
142.785
 20
6.88405
 30
0.000000
  70
    32
  0
VERTEX
  8
SAPA_ANSLUTNING
  5
198D
 10
142.549
 20
6.95763
 30
0.000000
  70
    32
  0
VERTEX
  8
SAPA_ANSLUTNING
  5
198E
 10
142.316
 20
7.04418
 30
0.000000
  70
    32
  0
VERTEX
  8
SAPA_ANSLUTNING
  5
198F
 10
142.087
 20
7.14347
 30
0.000000
  70
    32
  0
VERTEX
  8
SAPA_ANSLUTNING
  5
1990
 10
141.862
 20
7.25528
 30
0.000000
  70
    32
  0
VERTEX
  8
SAPA_ANSLUTNING
  5
1991
 10
141.643
 20
7.37932
 30
0.000000
  70
    32
  0
VERTEX
  8
SAPA_ANSLUTNING
  5
1992
 10
141.429
 20
7.51531
 30
0.000000
  70
    32
  0
VERTEX
  8
SAPA_ANSLUTNING
  5
1993
 10
141.222
 20
7.66291
 30
0.000000
  70
    32
  0
VERTEX
  8
SAPA_ANSLUTNING
  5
1994
 10
141.022
 20
7.82178
 30
0.000000
  70
    32
  0
VERTEX
  8
SAPA_ANSLUTNING
  5
1995
 10
140.828
 20
7.99152
 30
0.000000
  70
    32
  0
VERTEX
  8
SAPA_ANSLUTNING
  5
1996
 10
140.642
 20
8.17172
 30
0.000000
  70
    32
  0
VERTEX
  8
SAPA_ANSLUTNING
  5
1997
 10
140.464
 20
8.36196
 30
0.000000
  70
    32
  0
VERTEX
  8
SAPA_ANSLUTNING
  5
1998
 10
140.295
 20
8.56178
 30
0.000000
  70
    32
  0
VERTEX
  8
SAPA_ANSLUTNING
  5
1999
 10
140.135
 20
8.77069
 30
0.000000
  70
    32
  0
VERTEX
  8
SAPA_ANSLUTNING
  5
199A
 10
139.984
 20
8.98819
 30
0.000000
  70
    32
  0
VERTEX
  8
SAPA_ANSLUTNING
  5
199B
 10
139.843
 20
9.21376
 30
0.000000
  70
    32
  0
VERTEX
  8
SAPA_ANSLUTNING
  5
199C
 10
139.711
 20
9.44685
 30
0.000000
  70
    32
  0
VERTEX
  8
SAPA_ANSLUTNING
  5
199D
 10
139.590
 20
9.68690
 30
0.000000
  70
    32
  0
VERTEX
  8
SAPA_ANSLUTNING
  5
199E
 10
139.480
 20
9.93334
 30
0.000000
  70
    32
  0
VERTEX
  8
SAPA_ANSLUTNING
  5
199F
 10
139.381
 20
10.1856
 30
0.000000
  70
    32
  0
VERTEX
  8
SAPA_ANSLUTNING
  5
19A0
 10
139.292
 20
10.4430
 30
0.000000
  70
    32
  0
VERTEX
  8
SAPA_ANSLUTNING
  5
19A1
 10
139.215
 20
10.7049
 30
0.000000
  70
    32
  0
VERTEX
  8
SAPA_ANSLUTNING
  5
19A2
 10
139.150
 20
10.9708
 30
0.000000
  70
    32
  0
VERTEX
  8
SAPA_ANSLUTNING
  5
19A3
 10
139.096
 20
11.2400
 30
0.000000
  70
    32
  0
VERTEX
  8
SAPA_ANSLUTNING
  5
19A4
 10
139.054
 20
11.5119
 30
0.000000
  70
    32
  0
VERTEX
  8
SAPA_ANSLUTNING
  5
19A5
 10
139.024
 20
11.7857
 30
0.000000
  70
    32
  0
VERTEX
  8
SAPA_ANSLUTNING
  5
19A6
 10
139.006
 20
12.0608
 30
0.000000
  70
    32
  0
VERTEX
  8
SAPA_ANSLUTNING
  5
19A7
 10
139.000
 20
12.3367
 30
0.000000
  70
    32
  0
VERTEX
  8
SAPA_ANSLUTNING
  5
19A8
 10
139.006
 20
12.6125
 30
0.000000
  70
    32
  0
VERTEX
  8
SAPA_ANSLUTNING
  5
19A9
 10
139.024
 20
12.8876
 30
0.000000
  70
    32
  0
VERTEX
  8
SAPA_ANSLUTNING
  5
19AA
 10
139.054
 20
13.1614
 30
0.000000
  70
    32
  0
VERTEX
  8
SAPA_ANSLUTNING
  5
19AB
 10
139.096
 20
13.4333
 30
0.000000
  70
    32
  0
VERTEX
  8
SAPA_ANSLUTNING
  5
19AC
 10
139.150
 20
13.7025
 30
0.000000
  70
    32
  0
VERTEX
  8
SAPA_ANSLUTNING
  5
19AD
 10
139.215
 20
13.9684
 30
0.000000
  70
    32
  0
VERTEX
  8
SAPA_ANSLUTNING
  5
19AE
 10
139.292
 20
14.2303
 30
0.000000
  70
    32
  0
VERTEX
  8
SAPA_ANSLUTNING
  5
19AF
 10
139.381
 20
14.4877
 30
0.000000
  70
    32
  0
VERTEX
  8
SAPA_ANSLUTNING
  5
19B0
 10
139.480
 20
14.7400
 30
0.000000
  70
    32
  0
VERTEX
  8
SAPA_ANSLUTNING
  5
19B1
 10
139.590
 20
14.9864
 30
0.000000
  70
    32
  0
VERTEX
  8
SAPA_ANSLUTNING
  5
19B2
 10
139.711
 20
15.2265
 30
0.000000
  70
    32
  0
VERTEX
  8
SAPA_ANSLUTNING
  5
19B3
 10
139.843
 20
15.4595
 30
0.000000
  70
    32
  0
VERTEX
  8
SAPA_ANSLUTNING
  5
19B4
 10
139.984
 20
15.6851
 30
0.000000
  70
    32
  0
VERTEX
  8
SAPA_ANSLUTNING
  5
19B5
 10
140.135
 20
15.9026
 30
0.000000
  70
    32
  0
VERTEX
  8
SAPA_ANSLUTNING
  5
19B6
 10
140.295
 20
16.1115
 30
0.000000
  70
    32
  0
VERTEX
  8
SAPA_ANSLUTNING
  5
19B7
 10
140.464
 20
16.3113
 30
0.000000
  70
    32
  0
VERTEX
  8
SAPA_ANSLUTNING
  5
19B8
 10
140.642
 20
16.5016
 30
0.000000
  70
    32
  0
VERTEX
  8
SAPA_ANSLUTNING
  5
19B9
 10
140.828
 20
16.6818
 30
0.000000
  70
    32
  0
VERTEX
  8
SAPA_ANSLUTNING
  5
19BA
 10
141.022
 20
16.8515
 30
0.000000
  70
    32
  0
VERTEX
  8
SAPA_ANSLUTNING
  5
19BB
 10
141.222
 20
17.0104
 30
0.000000
  70
    32
  0
VERTEX
  8
SAPA_ANSLUTNING
  5
19BC
 10
141.429
 20
17.1580
 30
0.000000
  70
    32
  0
VERTEX
  8
SAPA_ANSLUTNING
  5
19BD
 10
141.643
 20
17.2940
 30
0.000000
  70
    32
  0
VERTEX
  8
SAPA_ANSLUTNING
  5
19BE
 10
141.862
 20
17.4180
 30
0.000000
  70
    32
  0
VERTEX
  8
SAPA_ANSLUTNING
  5
19BF
 10
142.087
 20
17.5298
 30
0.000000
  70
    32
  0
VERTEX
  8
SAPA_ANSLUTNING
  5
19C0
 10
142.316
 20
17.6291
 30
0.000000
  70
    32
  0
VERTEX
  8
SAPA_ANSLUTNING
  5
19C1
 10
142.549
 20
17.7157
 30
0.000000
  70
    32
  0
VERTEX
  8
SAPA_ANSLUTNING
  5
19C2
 10
142.785
 20
17.7893
 30
0.000000
  70
    32
  0
VERTEX
  8
SAPA_ANSLUTNING
  5
19C3
 10
143.025
 20
17.8497
 30
0.000000
  70
    32
  0
VERTEX
  8
SAPA_ANSLUTNING
  5
19C4
 10
143.266
 20
17.8969
 30
0.000000
  70
    32
  0
VERTEX
  8
SAPA_ANSLUTNING
  5
19C5
 10
143.510
 20
17.9306
 30
0.000000
  70
    32
  0
VERTEX
  8
SAPA_ANSLUTNING
  5
19C6
 10
143.755
 20
17.9509
 30
0.000000
  70
    32
  0
VERTEX
  8
SAPA_ANSLUTNING
  5
19C7
 10
144.000
 20
17.9577
 30
0.000000
  70
    32
  0
SEQEND
  8
SAPA_ANSLUTNING
  5
19C8
  0
POLYLINE
  5
EAD
  8
SAPA_ANSLUTNING
 66
     1
 10
0.0
 20
0.0
 30
0.0
  0
VERTEX
  5
1292
  8
SAPA_ANSLUTNING
 10
140.50107147110469
 20
16.35206959054668
 30
0.0
 42
-0.8812634091771133
  0
VERTEX
  5
1293
  8
SAPA_ANSLUTNING
 10
140.99999992776381
 20
20.28883761876682
 30
0.0
  0
VERTEX
  5
1294
  8
SAPA_ANSLUTNING
 10
146.99999992776381
 20
20.28883761876682
 30
0.0
 42
0.9999999999999998
  0
VERTEX
  5
1295
  8
SAPA_ANSLUTNING
 10
146.99999992776381
 20
24.28883761876682
 30
0.0
  0
VERTEX
  5
1296
  8
SAPA_ANSLUTNING
 10
140.99999992776381
 20
24.28883761876682
 30
0.0
 42
-0.9999999999999998
  0
VERTEX
  5
1297
  8
SAPA_ANSLUTNING
 10
140.99999992776381
 20
28.28883761876682
 30
0.0
  0
VERTEX
  5
1298
  8
SAPA_ANSLUTNING
 10
146.99999992776381
 20
28.28883761876682
 30
0.0
 42
0.9999999999999998
  0
VERTEX
  5
1299
  8
SAPA_ANSLUTNING
 10
146.99999992776381
 20
32.28883761876682
 30
0.0
  0
VERTEX
  5
129A
  8
SAPA_ANSLUTNING
 10
140.99999992776381
 20
32.28883761876682
 30
0.0
 42
-0.9999999999999998
  0
VERTEX
  5
129B
  8
SAPA_ANSLUTNING
 10
140.99999992776381
 20
36.28883761876682
 30
0.0
  0
VERTEX
  5
129C
  8
SAPA_ANSLUTNING
 10
146.99999992776381
 20
36.28883761876682
 30
0.0
 42
0.9999999999999998
  0
VERTEX
  5
129D
  8
SAPA_ANSLUTNING
 10
146.99999992776381
 20
40.28883761876682
 30
0.0
  0
VERTEX
  5
129E
  8
SAPA_ANSLUTNING
 10
140.99999992776381
 20
40.28883761876682
 30
0.0
 42
-0.9999999999999998
  0
VERTEX
  5
129F
  8
SAPA_ANSLUTNING
 10
140.99999992776381
 20
44.28883761876682
 30
0.0
  0
VERTEX
  5
12A0
  8
SAPA_ANSLUTNING
 10
146.99999992776381
 20
44.28883761876682
 30
0.0
 42
0.9999999999999998
  0
VERTEX
  5
12A1
  8
SAPA_ANSLUTNING
 10
146.99999992776381
 20
48.28883761876682
 30
0.0
  0
VERTEX
  5
12A2
  8
SAPA_ANSLUTNING
 10
140.99999992776381
 20
48.28883761876682
 30
0.0
 42
-0.9999999999999998
  0
VERTEX
  5
12A3
  8
SAPA_ANSLUTNING
 10
140.99999992776381
 20
52.28883761876682
 30
0.0
  0
VERTEX
  5
12A4
  8
SAPA_ANSLUTNING
 10
146.99999992776381
 20
52.28883761876682
 30
0.0
 42
0.9999999999999998
  0
VERTEX
  5
12A5
  8
SAPA_ANSLUTNING
 10
146.99999992776381
 20
56.28883761876682
 30
0.0
  0
VERTEX
  5
12A6
  8
SAPA_ANSLUTNING
 10
140.99999992776381
 20
56.28883761876682
 30
0.0
 42
-0.9999999999999998
  0
VERTEX
  5
12A7
  8
SAPA_ANSLUTNING
 10
140.99999992776381
 20
60.28883761876682
 30
0.0
  0
VERTEX
  5
12A8
  8
SAPA_ANSLUTNING
 10
146.99999992776381
 20
60.28883761876682
 30
0.0
 42
0.9999999999999998
  0
VERTEX
  5
12A9
  8
SAPA_ANSLUTNING
 10
146.99999992776381
 20
64.28883761876682
 30
0.0
  0
VERTEX
  5
12AA
  8
SAPA_ANSLUTNING
 10
140.99999992776381
 20
64.28883761876682
 30
0.0
 42
-0.9999999999999998
  0
VERTEX
  5
12AB
  8
SAPA_ANSLUTNING
 10
140.99999992776381
 20
68.28883761876682
 30
0.0
  0
VERTEX
  5
12AC
  8
SAPA_ANSLUTNING
 10
146.99999992776381
 20
68.28883761876682
 30
0.0
 42
0.9999999999999998
  0
VERTEX
  5
12AD
  8
SAPA_ANSLUTNING
 10
146.99999992776381
 20
72.28883761876682
 30
0.0
  0
VERTEX
  5
12AE
  8
SAPA_ANSLUTNING
 10
140.99999992776381
 20
72.28883761876682
 30
0.0
 42
-0.5251735434384823
  0
VERTEX
  5
12AF
  8
SAPA_ANSLUTNING
 10
139.1307091351072
 20
75.000000000005542
 30
0.0
 42
-0.5251735434384823
  0
SEQEND
  5
12B0
  8
SAPA_ANSLUTNING
  0
LINE
  5
EAE
  8
SAPA_ANSLUTNING
 10
14.00000000000904
 20
0.0000000000000853
 30
0.0
 11
-30.619466477036841
 21
0.0000000000000853
 31
0.0
  0
LINE
  5
EAF
  8
SAPA_ANSLUTNING
 10
14.00000000000904
 20
0.0000000000000853
 30
0.0
 11
14.00000000000904
 21
75.000000000005571
 31
0.0
  0
POLYLINE
  5
EB0
  8
SAPA_ANSLUTNING
 66
     1
 10
0.0
 20
0.0
 30
0.0
  0
VERTEX
  5
12B1
  8
SAPA_ANSLUTNING
 10
14.00000000000904
 20
73.498928456659144
 30
0.0
 42
-0.8812634091771133
  0
VERTEX
  5
12B2
  8
SAPA_ANSLUTNING
 10
17.936768028229189
 20
73.000000000000057
 30
0.0
  0
VERTEX
  5
12B3
  8
SAPA_ANSLUTNING
 10
17.936768028229189
 20
62.000000000000057
 30
0.0
 42
0.9999999999999998
  0
VERTEX
  5
12B4
  8
SAPA_ANSLUTNING
 10
21.936768028229199
 20
62.000000000000057
 30
0.0
  0
VERTEX
  5
12B5
  8
SAPA_ANSLUTNING
 10
21.936768028229181
 20
73.000000000000057
 30
0.0
 42
-0.9999999999999998
  0
VERTEX
  5
12B6
  8
SAPA_ANSLUTNING
 10
25.936768028229181
 20
73.000000000000057
 30
0.0
  0
VERTEX
  5
12B7
  8
SAPA_ANSLUTNING
 10
25.936768028229199
 20
62.000000000000057
 30
0.0
 42
0.9999999999999998
  0
VERTEX
  5
12B8
  8
SAPA_ANSLUTNING
 10
29.936768028229199
 20
62.000000000000057
 30
0.0
  0
VERTEX
  5
12B9
  8
SAPA_ANSLUTNING
 10
29.936768028229181
 20
73.000000000000057
 30
0.0
 42
-0.9999999999999998
  0
VERTEX
  5
12BA
  8
SAPA_ANSLUTNING
 10
33.936768028229181
 20
73.000000000000057
 30
0.0
  0
VERTEX
  5
12BB
  8
SAPA_ANSLUTNING
 10
33.936768028229181
 20
62.000000000000057
 30
0.0
 42
0.9999999999999998
  0
VERTEX
  5
12BC
  8
SAPA_ANSLUTNING
 10
37.936768028229181
 20
62.000000000000057
 30
0.0
  0
VERTEX
  5
12BD
  8
SAPA_ANSLUTNING
 10
37.936768028229181
 20
73.000000000000057
 30
0.0
 42
-0.9999999999999998
  0
VERTEX
  5
12BE
  8
SAPA_ANSLUTNING
 10
41.936768028229181
 20
73.000000000000057
 30
0.0
  0
VERTEX
  5
12BF
  8
SAPA_ANSLUTNING
 10
41.936768028229181
 20
62.000000000000057
 30
0.0
 42
0.9999999999999998
  0
VERTEX
  5
12C0
  8
SAPA_ANSLUTNING
 10
45.936768028229181
 20
62.000000000000057
 30
0.0
  0
VERTEX
  5
12C1
  8
SAPA_ANSLUTNING
 10
45.936768028229181
 20
73.000000000000057
 30
0.0
 42
-0.9999999999999998
  0
VERTEX
  5
12C2
  8
SAPA_ANSLUTNING
 10
49.936768028229181
 20
73.000000000000057
 30
0.0
  0
VERTEX
  5
12C3
  8
SAPA_ANSLUTNING
 10
49.936768028229181
 20
62.000000000000057
 30
0.0
 42
0.9999999999999998
  0
VERTEX
  5
12C4
  8
SAPA_ANSLUTNING
 10
53.936768028229181
 20
62.000000000000057
 30
0.0
  0
VERTEX
  5
12C5
  8
SAPA_ANSLUTNING
 10
53.936768028229181
 20
73.000000000000057
 30
0.0
 42
-0.9999999999999998
  0
VERTEX
  5
12C6
  8
SAPA_ANSLUTNING
 10
57.936768028229181
 20
73.000000000000057
 30
0.0
  0
VERTEX
  5
12C7
  8
SAPA_ANSLUTNING
 10
57.936768028229181
 20
62.000000000000057
 30
0.0
 42
0.9999999999999998
  0
VERTEX
  5
12C8
  8
SAPA_ANSLUTNING
 10
61.936768028229181
 20
62.000000000000057
 30
0.0
  0
VERTEX
  5
12C9
  8
SAPA_ANSLUTNING
 10
61.936768028229181
 20
73.000000000000057
 30
0.0
 42
-0.9999999999999998
  0
VERTEX
  5
12CA
  8
SAPA_ANSLUTNING
 10
65.936768028229181
 20
73.000000000000057
 30
0.0
  0
VERTEX
  5
12CB
  8
SAPA_ANSLUTNING
 10
65.936768028229181
 20
62.000000000000057
 30
0.0
 42
0.9999999999999998
  0
VERTEX
  5
12CC
  8
SAPA_ANSLUTNING
 10
69.936768028229181
 20
62.000000000000057
 30
0.0
  0
VERTEX
  5
12CD
  8
SAPA_ANSLUTNING
 10
69.936768028229181
 20
73.000000000000057
 30
0.0
 42
-0.5251735434384823
  0
VERTEX
  5
12CE
  8
SAPA_ANSLUTNING
 10
72.647930409467904
 20
74.86929079265667
 30
0.0
 42
-0.5251735434384823
  0
SEQEND
  5
12CF
  8
SAPA_ANSLUTNING
  0
POLYLINE
  5
EB1
  8
SAPA_ANSLUTNING
 66
     1
 10
0.0
 20
0.0
 30
0.0
  0
VERTEX
  5
12D0
  8
SAPA_ANSLUTNING
 10
62.000000000009017
 20
73.498928456659144
 30
0.0
 42
-0.8812634091771133
  0
VERTEX
  5
12D1
  8
SAPA_ANSLUTNING
 10
65.936768028229181
 20
73.000000000000057
 30
0.0
  0
VERTEX
  5
12D2
  8
SAPA_ANSLUTNING
 10
65.936768028229181
 20
62.000000000000057
 30
0.0
 42
0.9999999999999998
  0
VERTEX
  5
12D3
  8
SAPA_ANSLUTNING
 10
69.936768028229181
 20
62.000000000000057
 30
0.0
  0
VERTEX
  5
12D4
  8
SAPA_ANSLUTNING
 10
69.936768028229167
 20
73.000000000000057
 30
0.0
 42
-0.9999999999999998
  0
VERTEX
  5
12D5
  8
SAPA_ANSLUTNING
 10
73.936768028229153
 20
73.000000000000057
 30
0.0
  0
VERTEX
  5
12D6
  8
SAPA_ANSLUTNING
 10
73.936768028229181
 20
62.000000000000057
 30
0.0
 42
0.9999999999999998
  0
VERTEX
  5
12D7
  8
SAPA_ANSLUTNING
 10
77.936768028229181
 20
62.000000000000057
 30
0.0
  0
VERTEX
  5
12D8
  8
SAPA_ANSLUTNING
 10
77.936768028229167
 20
73.000000000000057
 30
0.0
 42
-0.9999999999999998
  0
VERTEX
  5
12D9
  8
SAPA_ANSLUTNING
 10
81.936768028229167
 20
73.000000000000057
 30
0.0
  0
VERTEX
  5
12DA
  8
SAPA_ANSLUTNING
 10
81.936768028229167
 20
62.000000000000057
 30
0.0
 42
0.9999999999999998
  0
VERTEX
  5
12DB
  8
SAPA_ANSLUTNING
 10
85.936768028229167
 20
62.000000000000057
 30
0.0
  0
VERTEX
  5
12DC
  8
SAPA_ANSLUTNING
 10
85.936768028229167
 20
73.000000000000057
 30
0.0
 42
-0.9999999999999998
  0
VERTEX
  5
12DD
  8
SAPA_ANSLUTNING
 10
89.936768028229153
 20
73.000000000000057
 30
0.0
  0
VERTEX
  5
12DE
  8
SAPA_ANSLUTNING
 10
89.936768028229153
 20
62.000000000000057
 30
0.0
 42
0.9999999999999998
  0
VERTEX
  5
12DF
  8
SAPA_ANSLUTNING
 10
93.936768028229153
 20
62.000000000000057
 30
0.0
  0
VERTEX
  5
12E0
  8
SAPA_ANSLUTNING
 10
93.936768028229153
 20
73.000000000000057
 30
0.0
 42
-0.9999999999999998
  0
VERTEX
  5
12E1
  8
SAPA_ANSLUTNING
 10
97.936768028229153
 20
73.000000000000057
 30
0.0
  0
VERTEX
  5
12E2
  8
SAPA_ANSLUTNING
 10
97.936768028229153
 20
62.000000000000057
 30
0.0
 42
0.9999999999999998
  0
VERTEX
  5
12E3
  8
SAPA_ANSLUTNING
 10
101.9367680282291
 20
62.000000000000057
 30
0.0
  0
VERTEX
  5
12E4
  8
SAPA_ANSLUTNING
 10
101.9367680282291
 20
73.000000000000057
 30
0.0
 42
-0.9999999999999998
  0
VERTEX
  5
12E5
  8
SAPA_ANSLUTNING
 10
105.9367680282291
 20
73.000000000000057
 30
0.0
  0
VERTEX
  5
12E6
  8
SAPA_ANSLUTNING
 10
105.9367680282291
 20
62.000000000000057
 30
0.0
 42
0.9999999999999998
  0
VERTEX
  5
12E7
  8
SAPA_ANSLUTNING
 10
109.9367680282291
 20
62.000000000000057
 30
0.0
  0
VERTEX
  5
12E8
  8
SAPA_ANSLUTNING
 10
109.9367680282291
 20
73.000000000000057
 30
0.0
 42
-0.9999999999999998
  0
VERTEX
  5
12E9
  8
SAPA_ANSLUTNING
 10
113.9367680282291
 20
73.000000000000057
 30
0.0
  0
VERTEX
  5
12EA
  8
SAPA_ANSLUTNING
 10
113.9367680282291
 20
62.000000000000057
 30
0.0
 42
0.9999999999999998
  0
VERTEX
  5
12EB
  8
SAPA_ANSLUTNING
 10
117.9367680282291
 20
62.000000000000057
 30
0.0
  0
VERTEX
  5
12EC
  8
SAPA_ANSLUTNING
 10
117.9367680282291
 20
73.000000000000057
 30
0.0
 42
-0.5251735434384823
  0
VERTEX
  5
12ED
  8
SAPA_ANSLUTNING
 10
120.6479304094679
 20
74.86929079265667
 30
0.0
 42
-0.5251735434384823
  0
SEQEND
  5
12EE
  8
SAPA_ANSLUTNING
  0
POLYLINE
  5
EB2
  8
SAPA_ANSLUTNING
 66
     1
 10
0.0
 20
0.0
 30
0.0
  0
VERTEX
  5
12EF
  8
SAPA_ANSLUTNING
 10
110.000000000009
 20
73.498928456659144
 30
0.0
 42
-0.8812634091771133
  0
VERTEX
  5
12F0
  8
SAPA_ANSLUTNING
 10
113.9367680282291
 20
73.000000000000057
 30
0.0
  0
VERTEX
  5
12F1
  8
SAPA_ANSLUTNING
 10
113.9367680282291
 20
62.000000000000057
 30
0.0
 42
0.9999999999999998
  0
VERTEX
  5
12F2
  8
SAPA_ANSLUTNING
 10
117.9367680282291
 20
62.000000000000057
 30
0.0
  0
VERTEX
  5
12F3
  8
SAPA_ANSLUTNING
 10
117.9367680282291
 20
73.000000000000057
 30
0.0
 42
-0.9999999999999998
  0
VERTEX
  5
12F4
  8
SAPA_ANSLUTNING
 10
121.9367680282291
 20
73.000000000000057
 30
0.0
  0
VERTEX
  5
12F5
  8
SAPA_ANSLUTNING
 10
121.9367680282291
 20
62.000000000000057
 30
0.0
 42
0.9999999999999998
  0
VERTEX
  5
12F6
  8
SAPA_ANSLUTNING
 10
125.9367680282291
 20
62.000000000000057
 30
0.0
  0
VERTEX
  5
12F7
  8
SAPA_ANSLUTNING
 10
125.9367680282291
 20
73.000000000000057
 30
0.0
 42
-0.9999999999999998
  0
VERTEX
  5
12F8
  8
SAPA_ANSLUTNING
 10
129.9367680282291
 20
73.000000000000057
 30
0.0
  0
VERTEX
  5
12F9
  8
SAPA_ANSLUTNING
 10
129.9367680282291
 20
62.000000000000057
 30
0.0
 42
0.9999999999999998
  0
VERTEX
  5
12FA
  8
SAPA_ANSLUTNING
 10
133.9367680282291
 20
62.000000000000057
 30
0.0
  0
VERTEX
  5
12FB
  8
SAPA_ANSLUTNING
 10
133.9367680282291
 20
73.000000000000057
 30
0.0
 42
-0.9999999999999998
  0
VERTEX
  5
12FC
  8
SAPA_ANSLUTNING
 10
137.9367680282291
 20
73.000000000000057
 30
0.0
  0
VERTEX
  5
12FD
  8
SAPA_ANSLUTNING
 10
137.9367680282291
 20
62.000000000000057
 30
0.0
 42
0.4183530514568368
  0
VERTEX
  5
12FE
  8
SAPA_ANSLUTNING
 10
139.96499186581221
 20
60.00019915616781
 30
0.0
 42
0.4183530514568368
  0
SEQEND
  5
12FF
  8
SAPA_ANSLUTNING
  0
POLYLINE
  5
1091
  8
SAPA_PROFIL
 62
     4
 66
     1
 10
0.0
 20
0.0
 30
0.0
 70
     1
  0
VERTEX
  5
1092
  8
SAPA_PROFIL
 62
     4
 10
121.14378221702781
 20
14.649987999994149
 30
0.0
 42
0.1316524975873979
  0
VERTEX
  5
1093
  8
SAPA_PROFIL
 62
     4
 10
121.5437822170278
 20
14.75716767696659
 30
0.0
  0
VERTEX
  5
1094
  8
SAPA_PROFIL
 62
     4
 10
123.2633974593019
 20
15.749987999996019
 30
0.0
  0
VERTEX
  5
1095
  8
SAPA_PROFIL
 62
     4
 10
123.6999999996803
 20
15.74998799999611
 30
0.0
 42
-0.4142135623730951
  0
VERTEX
  5
1096
  8
SAPA_PROFIL
 62
     4
 10
123.9499999996803
 20
15.49998799999611
 30
0.0
  0
VERTEX
  5
1097
  8
SAPA_PROFIL
 62
     4
 10
123.9499999996803
 20
11.89997599999605
 30
0.0
 42
-0.4142135623731053
  0
VERTEX
  5
1098
  8
SAPA_PROFIL
 62
     4
 10
123.6999999996803
 20
11.649975999996039
 30
0.0
  0
VERTEX
  5
1099
  8
SAPA_PROFIL
 62
     4
 10
123.2633980781019
 20
11.6499876427314
 30
0.0
  0
VERTEX
  5
109A
  8
SAPA_PROFIL
 62
     4
 10
121.5437822170345
 20
12.642808323021679
 30
0.0
 42
0.1316524975874149
  0
VERTEX
  5
109B
  8
SAPA_PROFIL
 62
     4
 10
121.1437822170345
 20
12.749987999994181
 30
0.0
  0
VERTEX
  5
109C
  8
SAPA_PROFIL
 62
     4
 10
96.856217782326169
 20
12.749987999994181
 30
0.0
 42
0.1316524975874151
  0
VERTEX
  5
109D
  8
SAPA_PROFIL
 62
     4
 10
96.456217782326121
 20
12.642808323021679
 30
0.0
  0
VERTEX
  5
109E
  8
SAPA_PROFIL
 62
     4
 10
94.736601921258739
 20
11.649987642731411
 30
0.0
  0
VERTEX
  5
109F
  8
SAPA_PROFIL
 62
     4
 10
94.299999999680267
 20
11.64997599999605
 30
0.0
 42
-0.4142135623731054
  0
VERTEX
  5
10A0
  8
SAPA_PROFIL
 62
     4
 10
94.049999999680253
 20
11.89997599999605
 30
0.0
  0
VERTEX
  5
10A1
  8
SAPA_PROFIL
 62
     4
 10
94.049999999680324
 20
15.499987999996121
 30
0.0
 42
-0.4142135623730953
  0
VERTEX
  5
10A2
  8
SAPA_PROFIL
 62
     4
 10
94.299999999680296
 20
15.74998799999611
 30
0.0
  0
VERTEX
  5
10A3
  8
SAPA_PROFIL
 62
     4
 10
94.736602540058755
 20
15.749987999996019
 30
0.0
  0
VERTEX
  5
10A4
  8
SAPA_PROFIL
 62
     4
 10
96.4562177823328
 20
14.75716767696659
 30
0.0
 42
0.1316524975873982
  0
VERTEX
  5
10A5
  8
SAPA_PROFIL
 62
     4
 10
96.856217782332806
 20
14.649987999994149
 30
0.0
  0
SEQEND
  5
10A6
  8
SAPA_PROFIL
 62
     4
  0
POLYLINE
  5
10A7
  8
SAPA_PROFIL
 66
     1
 10
0.0
 20
0.0
 30
0.0
 70
     1
  0
VERTEX
  5
1511
  8
SAPA_PROFIL
 10
94.243869040634095
 20
17.74944465005661
 30
0.0
  0
VERTEX
  5
1512
  8
SAPA_PROFIL
 10
95.199999999669444
 20
17.749444650052968
 30
0.0
 42
0.2418327667557183
  0
VERTEX
  5
1513
  8
SAPA_PROFIL
 10
95.443869040636017
 20
17.874722325029921
 30
0.0
 42
-0.2418327667535164
  0
VERTEX
  5
1514
  8
SAPA_PROFIL
 10
95.687738081594773
 20
18.000000000004128
 30
0.0
  0
VERTEX
  5
1515
  8
SAPA_PROFIL
 10
97.911541959227577
 20
17.999999999995669
 30
0.0
 42
-0.0874886635239214
  0
VERTEX
  5
1516
  8
SAPA_PROFIL
 10
98.014148002222981
 20
17.981907786231869
 30
0.0
  0
VERTEX
  5
1517
  8
SAPA_PROFIL
 10
99.441501172268403
 20
17.46239371855652
 30
0.0
 42
-0.4142135623698208
  0
VERTEX
  5
1518
  8
SAPA_PROFIL
 10
99.620802915505791
 20
17.07787988931435
 30
0.0
  0
VERTEX
  5
1519
  8
SAPA_PROFIL
 10
99.552398886834737
 20
16.889941365165651
 30
0.0
 42
-0.4142135623730019
  0
VERTEX
  5
151A
  8
SAPA_PROFIL
 10
99.167885057613105
 20
16.710639621923121
 30
0.0
  0
VERTEX
  5
151B
  8
SAPA_PROFIL
 10
98.134223174743966
 20
17.08686177958981
 30
0.0
 42
0.41421356237947
  0
VERTEX
  5
151C
  8
SAPA_PROFIL
 10
97.749709345512414
 20
16.907560036338658
 30
0.0
  0
VERTEX
  5
151D
  8
SAPA_PROFIL
 10
97.090854038276575
 20
15.09736995699974
 30
0.0
 42
-0.3152987888800591
  0
VERTEX
  5
151E
  8
SAPA_PROFIL
 10
96.808946252040357
 20
14.899975999996411
 30
0.0
  0
VERTEX
  5
151F
  8
SAPA_PROFIL
 10
96.389230484221031
 20
14.89997599999651
 30
0.0
 42
-0.1316524975873855
  0
VERTEX
  5
1520
  8
SAPA_PROFIL
 10
96.239230484221125
 20
14.94016837886115
 30
0.0
  0
VERTEX
  5
1521
  8
SAPA_PROFIL
 10
94.749999999680227
 20
15.799975999996461
 30
0.0
  0
VERTEX
  5
1522
  8
SAPA_PROFIL
 10
94.299999999680267
 20
15.799987999996119
 30
0.0
 42
0.4142135623731054
  0
VERTEX
  5
1523
  8
SAPA_PROFIL
 10
93.999999999680256
 20
15.499987999996121
 30
0.0
  0
VERTEX
  5
1524
  8
SAPA_PROFIL
 10
93.999999999680313
 20
11.89997599999605
 30
0.0
 42
0.414213562373095
  0
VERTEX
  5
1525
  8
SAPA_PROFIL
 10
94.299999999680324
 20
11.59997599999606
 30
0.0
  0
VERTEX
  5
1526
  8
SAPA_PROFIL
 10
94.749999999680327
 20
11.59997599999615
 30
0.0
  0
VERTEX
  5
1527
  8
SAPA_PROFIL
 10
96.239260130754488
 20
12.459800737565139
 30
0.0
 42
-0.1316363093594254
  0
VERTEX
  5
1528
  8
SAPA_PROFIL
 10
96.389241035801234
 20
12.4999931158221
 30
0.0
  0
VERTEX
  5
1529
  8
SAPA_PROFIL
 10
96.499999999686921
 20
12.50000016561291
 30
0.0
  0
VERTEX
  5
152A
  8
SAPA_PROFIL
 10
96.499999999686921
 20
10.49999999999978
 30
0.0
 42
-0.4142135623730951
  0
VERTEX
  5
152B
  8
SAPA_PROFIL
 10
95.999999999686906
 20
9.9999999999997833
 30
0.0
  0
VERTEX
  5
152C
  8
SAPA_PROFIL
 10
88.849999999408965
 20
9.9999999999997851
 30
0.0
 42
-0.4142135623730935
  0
VERTEX
  5
152D
  8
SAPA_PROFIL
 10
88.549999999413316
 20
10.299999999999059
 30
0.0
  0
VERTEX
  5
152E
  8
SAPA_PROFIL
 10
88.549999999409707
 20
10.950000000000511
 30
0.0
 42
0.4142135623730951
  0
VERTEX
  5
152F
  8
SAPA_PROFIL
 10
88.24999999941042
 20
11.24999999999978
 30
0.0
  0
VERTEX
  5
1530
  8
SAPA_PROFIL
 10
87.549999999522456
 20
11.250000000003419
 30
0.0
 42
0.4142135623730971
  0
VERTEX
  5
1531
  8
SAPA_PROFIL
 10
87.249999999526835
 20
10.950000000000511
 30
0.0
  0
VERTEX
  5
1532
  8
SAPA_PROFIL
 10
87.249999999508645
 20
-0.9500000000045716
 30
0.0
 42
0.4142135623730881
  0
VERTEX
  5
1533
  8
SAPA_PROFIL
 10
87.549999999507918
 20
-1.250000000003844
 30
0.0
  0
VERTEX
  5
1534
  8
SAPA_PROFIL
 10
88.249999999985235
 20
-1.250000000014772
 30
0.0
 42
0.4142135623730968
  0
VERTEX
  5
1535
  8
SAPA_PROFIL
 10
88.549999999995407
 20
-0.9500000000045716
 30
0.0
  0
VERTEX
  5
1536
  8
SAPA_PROFIL
 10
88.549999999980855
 20
-0.2999999999922025
 30
0.0
 42
-0.4142135623517844
  0
VERTEX
  5
1537
  8
SAPA_PROFIL
 10
88.849999999983766
 20
-0.000000000003844
 30
0.0
  0
VERTEX
  5
1538
  8
SAPA_PROFIL
 10
90.799999999995407
 20
-0.0000000000038476
 30
0.0
 42
-0.414213562373103
  0
VERTEX
  5
1539
  8
SAPA_PROFIL
 10
90.999999999985207
 20
-0.2000000000045752
 30
0.0
  0
VERTEX
  5
153A
  8
SAPA_PROFIL
 10
90.999999999985207
 20
-1.3000000000031191
 30
0.0
 42
-0.4142135623731049
  0
VERTEX
  5
153B
  8
SAPA_PROFIL
 10
90.799999999995407
 20
-1.5000000000038469
 30
0.0
  0
VERTEX
  5
153C
  8
SAPA_PROFIL
 10
89.999999999985221
 20
-1.5000000000038469
 30
0.0
 42
0.414213562373094
  0
VERTEX
  5
153D
  8
SAPA_PROFIL
 10
89.499999999985235
 20
-2.0000000000038471
 30
0.0
  0
VERTEX
  5
153E
  8
SAPA_PROFIL
 10
89.499999999505036
 20
-3.0000000000147748
 30
0.0
 42
0.4142135623730951
  0
VERTEX
  5
153F
  8
SAPA_PROFIL
 10
89.999999999505036
 20
-3.5000000000147611
 30
0.0
  0
VERTEX
  5
1540
  8
SAPA_PROFIL
 10
90.799999999507946
 20
-3.5000000000038471
 30
0.0
 42
-0.414213562373103
  0
VERTEX
  5
1541
  8
SAPA_PROFIL
 10
90.999999999505036
 20
-3.7000000000045752
 30
0.0
  0
VERTEX
  5
1542
  8
SAPA_PROFIL
 10
90.99999999949776
 20
-4.8000000000031342
 30
0.0
 42
-0.4142135623731049
  0
VERTEX
  5
1543
  8
SAPA_PROFIL
 10
90.799999999507946
 20
-5.0000000000038609
 30
0.0
  0
VERTEX
  5
1544
  8
SAPA_PROFIL
 10
87.250000000007077
 20
-5.0000000000038582
 30
0.0
 42
-0.3389652260127085
  0
VERTEX
  5
1545
  8
SAPA_PROFIL
 10
86.284529700462087
 20
-4.2605131488014791
 30
0.0
 42
-0.0274862826960608
  0
VERTEX
  5
1546
  8
SAPA_PROFIL
 10
85.500000000026176
 20
10.00000000017439
 30
0.0
  0
VERTEX
  5
1547
  8
SAPA_PROFIL
 10
85.499999999868805
 20
14.999999999901551
 30
0.0
 42
-0.4142135623816193
  0
VERTEX
  5
1548
  8
SAPA_PROFIL
 10
88.499999999868805
 20
17.999999999996142
 30
0.0
  0
VERTEX
  5
1549
  8
SAPA_PROFIL
 10
93.75613095872518
 20
17.999999999996142
 30
0.0
 42
-0.2418327667412822
  0
VERTEX
  5
154A
  8
SAPA_PROFIL
 10
93.99999999967477
 20
17.87472232503259
 30
0.0
 42
0.2418327667543803
  0
SEQEND
  5
154B
  8
SAPA_PROFIL
  0
POLYLINE
  5
10A8
  8
SAPA_PROFIL
 66
     1
 10
0.0
 20
0.0
 30
0.0
 70
     1
  0
VERTEX
  5
154C
  8
SAPA_PROFIL
 10
123.7561309587265
 20
17.74944465005667
 30
0.0
  0
VERTEX
  5
154D
  8
SAPA_PROFIL
 10
122.7999999996912
 20
17.749444650053029
 30
0.0
 42
-0.2418327667557183
  0
VERTEX
  5
154E
  8
SAPA_PROFIL
 10
122.55613095872459
 20
17.874722325029971
 30
0.0
 42
0.2418327667535164
  0
VERTEX
  5
154F
  8
SAPA_PROFIL
 10
122.3122619177658
 20
18.000000000004182
 30
0.0
  0
VERTEX
  5
1550
  8
SAPA_PROFIL
 10
120.08845804013301
 20
17.999999999995719
 30
0.0
 42
0.0874886635239214
  0
VERTEX
  5
1551
  8
SAPA_PROFIL
 10
119.9858519971376
 20
17.981907786231918
 30
0.0
  0
VERTEX
  5
1552
  8
SAPA_PROFIL
 10
118.55849882709219
 20
17.462393718556569
 30
0.0
 42
0.4142135623698208
  0
VERTEX
  5
1553
  8
SAPA_PROFIL
 10
118.37919708385481
 20
17.07787988931441
 30
0.0
  0
VERTEX
  5
1554
  8
SAPA_PROFIL
 10
118.4476011125259
 20
16.889941365165701
 30
0.0
 42
0.4142135623730019
  0
VERTEX
  5
1555
  8
SAPA_PROFIL
 10
118.83211494174751
 20
16.710639621923178
 30
0.0
  0
VERTEX
  5
1556
  8
SAPA_PROFIL
 10
119.8657768246167
 20
17.086861779589871
 30
0.0
 42
-0.41421356237947
  0
VERTEX
  5
1557
  8
SAPA_PROFIL
 10
120.2502906538482
 20
16.907560036338712
 30
0.0
  0
VERTEX
  5
1558
  8
SAPA_PROFIL
 10
120.90914596108399
 20
15.09736995699979
 30
0.0
 42
0.3152987888800591
  0
VERTEX
  5
1559
  8
SAPA_PROFIL
 10
121.1910537473203
 20
14.89997599999646
 30
0.0
  0
VERTEX
  5
155A
  8
SAPA_PROFIL
 10
121.61076951513959
 20
14.89997599999656
 30
0.0
 42
0.1316524975873855
  0
VERTEX
  5
155B
  8
SAPA_PROFIL
 10
121.7607695151395
 20
14.940168378861211
 30
0.0
  0
VERTEX
  5
155C
  8
SAPA_PROFIL
 10
123.2499999996804
 20
15.79997599999651
 30
0.0
  0
VERTEX
  5
155D
  8
SAPA_PROFIL
 10
123.6999999996803
 20
15.799987999996169
 30
0.0
 42
-0.4142135623731054
  0
VERTEX
  5
155E
  8
SAPA_PROFIL
 10
123.9999999996803
 20
15.49998799999617
 30
0.0
  0
VERTEX
  5
155F
  8
SAPA_PROFIL
 10
123.9999999996803
 20
11.89997599999611
 30
0.0
 42
-0.414213562373095
  0
VERTEX
  5
1560
  8
SAPA_PROFIL
 10
123.6999999996803
 20
11.59997599999611
 30
0.0
  0
VERTEX
  5
1561
  8
SAPA_PROFIL
 10
123.2499999996803
 20
11.599975999996211
 30
0.0
  0
VERTEX
  5
1562
  8
SAPA_PROFIL
 10
121.76073986860609
 20
12.459800737565191
 30
0.0
 42
0.1316363093594254
  0
VERTEX
  5
1563
  8
SAPA_PROFIL
 10
121.61075896355941
 20
12.499993115822161
 30
0.0
  0
VERTEX
  5
1564
  8
SAPA_PROFIL
 10
121.4999999996737
 20
12.50000016561297
 30
0.0
  0
VERTEX
  5
1565
  8
SAPA_PROFIL
 10
121.4999999996737
 20
10.49999999999984
 30
0.0
 42
0.4142135623730951
  0
VERTEX
  5
1566
  8
SAPA_PROFIL
 10
121.9999999996737
 20
9.9999999999998401
 30
0.0
  0
VERTEX
  5
1567
  8
SAPA_PROFIL
 10
129.1499999999516
 20
9.9999999999998401
 30
0.0
 42
0.4142135623730935
  0
VERTEX
  5
1568
  8
SAPA_PROFIL
 10
129.44999999994729
 20
10.299999999999111
 30
0.0
  0
VERTEX
  5
1569
  8
SAPA_PROFIL
 10
129.4499999999509
 20
10.95000000000057
 30
0.0
 42
-0.4142135623730951
  0
VERTEX
  5
156A
  8
SAPA_PROFIL
 10
129.74999999995021
 20
11.249999999999829
 30
0.0
  0
VERTEX
  5
156B
  8
SAPA_PROFIL
 10
130.4499999998381
 20
11.25000000000348
 30
0.0
 42
-0.4142135623730971
  0
VERTEX
  5
156C
  8
SAPA_PROFIL
 10
130.74999999983379
 20
10.95000000000057
 30
0.0
  0
VERTEX
  5
156D
  8
SAPA_PROFIL
 10
130.74999999985189
 20
-0.9500000000045218
 30
0.0
 42
-0.4142135623730881
  0
VERTEX
  5
156E
  8
SAPA_PROFIL
 10
130.44999999985271
 20
-1.2500000000037941
 30
0.0
  0
VERTEX
  5
156F
  8
SAPA_PROFIL
 10
129.7499999993754
 20
-1.2500000000147149
 30
0.0
 42
-0.4142135623730968
  0
VERTEX
  5
1570
  8
SAPA_PROFIL
 10
129.44999999936519
 20
-0.9500000000045218
 30
0.0
  0
VERTEX
  5
1571
  8
SAPA_PROFIL
 10
129.4499999993798
 20
-0.2999999999921528
 30
0.0
 42
0.4142135623517844
  0
VERTEX
  5
1572
  8
SAPA_PROFIL
 10
129.1499999993768
 20
-0.0000000000037943
 30
0.0
  0
VERTEX
  5
1573
  8
SAPA_PROFIL
 10
127.1999999993652
 20
-0.0000000000037943
 30
0.0
 42
0.414213562373103
  0
VERTEX
  5
1574
  8
SAPA_PROFIL
 10
126.9999999993754
 20
-0.2000000000045219
 30
0.0
  0
VERTEX
  5
1575
  8
SAPA_PROFIL
 10
126.9999999993754
 20
-1.300000000003066
 30
0.0
 42
0.4142135623731049
  0
VERTEX
  5
1576
  8
SAPA_PROFIL
 10
127.1999999993652
 20
-1.5000000000037941
 30
0.0
  0
VERTEX
  5
1577
  8
SAPA_PROFIL
 10
127.9999999993754
 20
-1.5000000000037941
 30
0.0
 42
-0.414213562373094
  0
VERTEX
  5
1578
  8
SAPA_PROFIL
 10
128.4999999993754
 20
-2.0000000000037939
 30
0.0
  0
VERTEX
  5
1579
  8
SAPA_PROFIL
 10
128.49999999985559
 20
-3.0000000000147149
 30
0.0
 42
-0.4142135623730951
  0
VERTEX
  5
157A
  8
SAPA_PROFIL
 10
127.9999999998556
 20
-3.5000000000147011
 30
0.0
  0
VERTEX
  5
157B
  8
SAPA_PROFIL
 10
127.19999999985259
 20
-3.5000000000037939
 30
0.0
 42
0.414213562373103
  0
VERTEX
  5
157C
  8
SAPA_PROFIL
 10
126.9999999998556
 20
-3.700000000004521
 30
0.0
  0
VERTEX
  5
157D
  8
SAPA_PROFIL
 10
126.99999999986279
 20
-4.8000000000030729
 30
0.0
 42
0.4142135623731049
  0
VERTEX
  5
157E
  8
SAPA_PROFIL
 10
127.19999999985259
 20
-5.0000000000038076
 30
0.0
  0
VERTEX
  5
157F
  8
SAPA_PROFIL
 10
130.74999999935349
 20
-5.0000000000038076
 30
0.0
 42
0.3389652260127085
  0
VERTEX
  5
1580
  8
SAPA_PROFIL
 10
131.71547029889851
 20
-4.2605131488014223
 30
0.0
 42
0.0274862826960608
  0
VERTEX
  5
1581
  8
SAPA_PROFIL
 10
132.49999999933451
 20
10.00000000017444
 30
0.0
  0
VERTEX
  5
1582
  8
SAPA_PROFIL
 10
132.49999999949179
 20
14.9999999999016
 30
0.0
 42
0.4142135623816193
  0
VERTEX
  5
1583
  8
SAPA_PROFIL
 10
129.49999999949179
 20
17.999999999996191
 30
0.0
  0
VERTEX
  5
1584
  8
SAPA_PROFIL
 10
124.2438690406354
 20
17.999999999996199
 30
0.0
 42
0.2418327667412822
  0
VERTEX
  5
1585
  8
SAPA_PROFIL
 10
123.9999999996858
 20
17.874722325032639
 30
0.0
 42
-0.2418327667543803
  0
SEQEND
  5
1586
  8
SAPA_PROFIL
  0
POLYLINE
  5
10A9
  8
SAPA_PROFIL
 62
     4
 66
     1
 10
0.0
 20
0.0
 30
0.0
 70
     1
  0
VERTEX
  5
1587
  8
SAPA_PROFIL
 62
     4
 10
88.274166846904606
 20
54.509252303702212
 30
0.0
  0
VERTEX
  5
1588
  8
SAPA_PROFIL
 62
     4
 10
89.763397387749805
 20
53.649444650059891
 30
0.0
  0
VERTEX
  5
1589
  8
SAPA_PROFIL
 62
     4
 10
90.199999928128264
 20
53.649444650059792
 30
0.0
 42
0.4142135623730946
  0
VERTEX
  5
158A
  8
SAPA_PROFIL
 62
     4
 10
90.449999928128221
 20
53.899444650059792
 30
0.0
  0
VERTEX
  5
158B
  8
SAPA_PROFIL
 62
     4
 10
90.449999928128278
 20
57.499456650059848
 30
0.0
 42
0.414213562373107
  0
VERTEX
  5
158C
  8
SAPA_PROFIL
 62
     4
 10
90.199999928128264
 20
57.749456650059862
 30
0.0
  0
VERTEX
  5
158D
  8
SAPA_PROFIL
 62
     4
 10
89.763398006549806
 20
57.749445007324489
 30
0.0
  0
VERTEX
  5
158E
  8
SAPA_PROFIL
 62
     4
 10
88.274166959512115
 20
56.889637061431522
 30
0.0
 42
-0.1316524975874248
  0
VERTEX
  5
158F
  8
SAPA_PROFIL
 62
     4
 10
88.124166959512081
 20
56.849444682566819
 30
0.0
  0
VERTEX
  5
1590
  8
SAPA_PROFIL
 62
     4
 10
64.875832968260823
 20
56.849444682566819
 30
0.0
 42
-0.1316524975874248
  0
VERTEX
  5
1591
  8
SAPA_PROFIL
 62
     4
 10
64.725832968260789
 20
56.889637061431507
 30
0.0
  0
VERTEX
  5
1592
  8
SAPA_PROFIL
 62
     4
 10
63.236601921223112
 20
57.749445007324489
 30
0.0
  0
VERTEX
  5
1593
  8
SAPA_PROFIL
 62
     4
 10
62.799999999644648
 20
57.749456650059862
 30
0.0
 42
0.4142135623731049
  0
VERTEX
  5
1594
  8
SAPA_PROFIL
 62
     4
 10
62.549999999644641
 20
57.499456650059848
 30
0.0
  0
VERTEX
  5
1595
  8
SAPA_PROFIL
 62
     4
 10
62.54999999964469
 20
53.899444650059792
 30
0.0
 42
0.4142135623730951
  0
VERTEX
  5
1596
  8
SAPA_PROFIL
 62
     4
 10
62.799999999644669
 20
53.649444650059792
 30
0.0
  0
VERTEX
  5
1597
  8
SAPA_PROFIL
 62
     4
 10
63.236602540023128
 20
53.649444650059891
 30
0.0
  0
VERTEX
  5
1598
  8
SAPA_PROFIL
 62
     4
 10
64.725833080868256
 20
54.509252303702162
 30
0.0
 42
-0.1316524975873867
  0
VERTEX
  5
1599
  8
SAPA_PROFIL
 62
     4
 10
64.875833080868233
 20
54.549444682566822
 30
0.0
  0
VERTEX
  5
159A
  8
SAPA_PROFIL
 62
     4
 10
88.124166846904615
 20
54.549444682566872
 30
0.0
 42
-0.1316524975873873
  0
SEQEND
  5
159B
  8
SAPA_PROFIL
 62
     4
  0
POLYLINE
  5
10AA
  8
SAPA_PROFIL
 66
     1
 10
0.0
 20
0.0
 30
0.0
 70
     1
  0
VERTEX
  5
159C
  8
SAPA_PROFIL
 10
135.69999992775359
 20
10.000000000032729
 30
0.0
 42
-0.4142135623624294
  0
VERTEX
  5
159D
  8
SAPA_PROFIL
 10
135.49999992776381
 20
10.20000000000798
 30
0.0
  0
VERTEX
  5
159E
  8
SAPA_PROFIL
 10
135.49999992774929
 20
11.050000000006539
 30
0.0
 42
0.4142135623730744
  0
VERTEX
  5
159F
  8
SAPA_PROFIL
 10
135.29999992774489
 20
11.250000000007271
 30
0.0
  0
VERTEX
  5
15A0
  8
SAPA_PROFIL
 10
134.99999992776381
 20
11.24999999999998
 30
0.0
 42
0.4142135623731035
  0
VERTEX
  5
15A1
  8
SAPA_PROFIL
 10
134.49999992776381
 20
10.74999999999998
 30
0.0
  0
VERTEX
  5
15A2
  8
SAPA_PROFIL
 10
134.49999992776381
 20
7.7499999999999778
 30
0.0
 42
0.4142135623731035
  0
VERTEX
  5
15A3
  8
SAPA_PROFIL
 10
134.99999992776381
 20
7.2499999999999778
 30
0.0
  0
VERTEX
  5
15A4
  8
SAPA_PROFIL
 10
135.2999999277595
 20
7.2499999999999778
 30
0.0
 42
0.4142135623730744
  0
VERTEX
  5
15A5
  8
SAPA_PROFIL
 10
135.49999992776381
 20
7.4500000000007196
 30
0.0
  0
VERTEX
  5
15A6
  8
SAPA_PROFIL
 10
135.4999999277529
 20
8.3000000000029033
 30
0.0
 42
-0.4142135623730534
  0
VERTEX
  5
15A7
  8
SAPA_PROFIL
 10
135.69999992775359
 20
8.4999999999999787
 30
0.0
  0
VERTEX
  5
15A8
  8
SAPA_PROFIL
 10
136.69999992775359
 20
8.4999999999999787
 30
0.0
 42
-0.4142135623731035
  0
VERTEX
  5
15A9
  8
SAPA_PROFIL
 10
137.19999992775359
 20
7.9999999999999778
 30
0.0
  0
VERTEX
  5
15AA
  8
SAPA_PROFIL
 10
137.19999992775359
 20
1.999999999999992
 30
0.0
 42
-0.4142135623731033
  0
VERTEX
  5
15AB
  8
SAPA_PROFIL
 10
136.69999992775359
 20
1.499999999999992
 30
0.0
  0
VERTEX
  5
15AC
  8
SAPA_PROFIL
 10
135.69999992775359
 20
1.5000000000109059
 30
0.0
 42
-0.414213562373064
  0
VERTEX
  5
15AD
  8
SAPA_PROFIL
 10
135.49999992776389
 20
1.70000000000072
 30
0.0
  0
VERTEX
  5
15AE
  8
SAPA_PROFIL
 10
135.49999992776381
 20
2.5500000000029028
 30
0.0
 42
0.414213562373064
  0
VERTEX
  5
15AF
  8
SAPA_PROFIL
 10
135.2999999277595
 20
2.749999999999992
 30
0.0
  0
VERTEX
  5
15B0
  8
SAPA_PROFIL
 10
134.99999992776381
 20
2.749999999999992
 30
0.0
 42
0.4142135623731035
  0
VERTEX
  5
15B1
  8
SAPA_PROFIL
 10
134.49999992776381
 20
2.249999999999992
 30
0.0
  0
VERTEX
  5
15B2
  8
SAPA_PROFIL
 10
134.49999992776381
 20
0.4999999999999929
 30
0.0
 42
0.4142135623731035
  0
VERTEX
  5
15B3
  8
SAPA_PROFIL
 10
134.99999992776381
 20
-0.0000000000000071
 30
0.0
  0
VERTEX
  5
15B4
  8
SAPA_PROFIL
 10
137.49999992776381
 20
-0.0000000000000071
 30
0.0
 42
0.4142135623730966
  0
VERTEX
  5
15B5
  8
SAPA_PROFIL
 10
138.99999992776389
 20
1.499999999999992
 30
0.0
  0
VERTEX
  5
15B6
  8
SAPA_PROFIL
 10
138.99999992776381
 20
59.700000000000699
 30
0.0
 42
0.4142135623730935
  0
VERTEX
  5
15B7
  8
SAPA_PROFIL
 10
138.69999992775371
 20
59.999999999999993
 30
0.0
  0
VERTEX
  5
15B8
  8
SAPA_PROFIL
 10
90.743868969067563
 20
60.0
 30
0.0
 42
0.2418327667378115
  0
VERTEX
  5
15B9
  8
SAPA_PROFIL
 10
90.499999928129171
 20
59.874722325032891
 30
0.0
 42
-0.2418327667509125
  0
VERTEX
  5
15BA
  8
SAPA_PROFIL
 10
90.256130887173214
 20
59.749444650060447
 30
0.0
  0
VERTEX
  5
15BB
  8
SAPA_PROFIL
 10
89.299999928123299
 20
59.749444650056809
 30
0.0
 42
-0.2418327667448973
  0
VERTEX
  5
15BC
  8
SAPA_PROFIL
 10
89.056130887168365
 20
59.874722325025232
 30
0.0
 42
0.2418327667448979
  0
VERTEX
  5
15BD
  8
SAPA_PROFIL
 10
88.812261846215762
 20
59.999999999992433
 30
0.0
  0
VERTEX
  5
15BE
  8
SAPA_PROFIL
 10
86.714189490497802
 20
59.999999999992433
 30
0.0
 42
0.6681786379192718
  0
VERTEX
  5
15BF
  8
SAPA_PROFIL
 10
86.007082709311206
 20
58.292893218805929
 30
0.0
  0
VERTEX
  5
15C0
  8
SAPA_PROFIL
 10
87.312131962480152
 20
56.987843965636749
 30
0.0
 42
0.1989123673797335
  0
VERTEX
  5
15C1
  8
SAPA_PROFIL
 10
87.524263996836225
 20
56.899975999992648
 30
0.0
  0
VERTEX
  5
15C2
  8
SAPA_PROFIL
 10
88.110769443583422
 20
56.89997599999279
 30
0.0
 42
0.1316524975873855
  0
VERTEX
  5
15C3
  8
SAPA_PROFIL
 10
88.260769443583342
 20
56.940168378857429
 30
0.0
  0
VERTEX
  5
15C4
  8
SAPA_PROFIL
 10
89.749999928124225
 20
57.799975999992739
 30
0.0
  0
VERTEX
  5
15C5
  8
SAPA_PROFIL
 10
90.199999928124186
 20
57.799987999992403
 30
0.0
 42
-0.4142135623731054
  0
VERTEX
  5
15C6
  8
SAPA_PROFIL
 10
90.499999928124197
 20
57.499987999992392
 30
0.0
  0
VERTEX
  5
15C7
  8
SAPA_PROFIL
 10
90.499999928124154
 20
53.899975999992328
 30
0.0
 42
-0.4142135623730951
  0
VERTEX
  5
15C8
  8
SAPA_PROFIL
 10
90.199999928124129
 20
53.599975999992338
 30
0.0
  0
VERTEX
  5
15C9
  8
SAPA_PROFIL
 10
89.74999992812414
 20
53.599975999992431
 30
0.0
  0
VERTEX
  5
15CA
  8
SAPA_PROFIL
 10
88.260739797049979
 20
54.45980073756143
 30
0.0
 42
0.1316363093594257
  0
VERTEX
  5
15CB
  8
SAPA_PROFIL
 10
88.110758892003219
 20
54.499993115818377
 30
0.0
  0
VERTEX
  5
15CC
  8
SAPA_PROFIL
 10
87.999999928120374
 20
54.500000165609187
 30
0.0
  0
VERTEX
  5
15CD
  8
SAPA_PROFIL
 10
87.999999928120374
 20
52.914359353937463
 30
0.0
 42
0.2679491924308306
  0
VERTEX
  5
15CE
  8
SAPA_PROFIL
 10
88.499999928120388
 20
52.048333950158828
 30
0.0
  0
VERTEX
  5
15CF
  8
SAPA_PROFIL
 10
90.249999928120843
 20
51.037970979080349
 30
0.0
 42
-0.2679491924308306
  0
VERTEX
  5
15D0
  8
SAPA_PROFIL
 10
90.499999928120374
 20
50.604958277188402
 30
0.0
  0
VERTEX
  5
15D1
  8
SAPA_PROFIL
 10
90.499999928120374
 20
49.395041722807932
 30
0.0
 42
-0.2679491924308304
  0
VERTEX
  5
15D2
  8
SAPA_PROFIL
 10
90.249999928120388
 20
48.962029020916802
 30
0.0
  0
VERTEX
  5
15D3
  8
SAPA_PROFIL
 10
88.499999928120388
 20
47.95166604984113
 30
0.0
 42
0.2679491924308308
  0
VERTEX
  5
15D4
  8
SAPA_PROFIL
 10
87.999999928122264
 20
47.085640646055239
 30
0.0
  0
VERTEX
  5
15D5
  8
SAPA_PROFIL
 10
87.999999928120104
 20
45.499999834387147
 30
0.0
  0
VERTEX
  5
15D6
  8
SAPA_PROFIL
 10
88.110758892003219
 20
45.500006884177949
 30
0.0
 42
0.1316363093594255
  0
VERTEX
  5
15D7
  8
SAPA_PROFIL
 10
88.260739797049979
 20
45.540199262434911
 30
0.0
  0
VERTEX
  5
15D8
  8
SAPA_PROFIL
 10
89.74999992812414
 20
46.400024000003903
 30
0.0
  0
VERTEX
  5
15D9
  8
SAPA_PROFIL
 10
90.199999928124129
 20
46.400024000003988
 30
0.0
 42
-0.4142135623730951
  0
VERTEX
  5
15DA
  8
SAPA_PROFIL
 10
90.499999928124154
 20
46.100024000003998
 30
0.0
  0
VERTEX
  5
15DB
  8
SAPA_PROFIL
 10
90.499999928124197
 20
42.500012000003949
 30
0.0
 42
-0.4142135623731054
  0
VERTEX
  5
15DC
  8
SAPA_PROFIL
 10
90.199999928124186
 20
42.20001200000393
 30
0.0
  0
VERTEX
  5
15DD
  8
SAPA_PROFIL
 10
89.749999928124225
 20
42.200024000003602
 30
0.0
  0
VERTEX
  5
15DE
  8
SAPA_PROFIL
 10
88.260769443583342
 20
43.059831621138912
 30
0.0
 42
0.1316524975873855
  0
VERTEX
  5
15DF
  8
SAPA_PROFIL
 10
88.110769443583422
 20
43.100024000003557
 30
0.0
  0
VERTEX
  5
15E0
  8
SAPA_PROFIL
 10
87.524263996836225
 20
43.1000240000037
 30
0.0
 42
0.1989123673797335
  0
VERTEX
  5
15E1
  8
SAPA_PROFIL
 10
87.312131962480152
 20
43.012156034359577
 30
0.0
  0
VERTEX
  5
15E2
  8
SAPA_PROFIL
 10
86.007082709311206
 20
41.707106781190397
 30
0.0
 42
0.6681786379192716
  0
VERTEX
  5
15E3
  8
SAPA_PROFIL
 10
86.714189490497802
 20
40.000000000003901
 30
0.0
  0
VERTEX
  5
15E4
  8
SAPA_PROFIL
 10
88.812261846217496
 20
40.000000000003901
 30
0.0
 42
0.2418327667433386
  0
VERTEX
  5
15E5
  8
SAPA_PROFIL
 10
89.056130887169033
 20
40.125277674969659
 30
0.0
 42
-0.2418327667449431
  0
VERTEX
  5
15E6
  8
SAPA_PROFIL
 10
89.299999928123299
 20
40.25055534993588
 30
0.0
  0
VERTEX
  5
15E7
  8
SAPA_PROFIL
 10
90.256130887173214
 20
40.250555349939518
 30
0.0
 42
-0.2418327667509097
  0
VERTEX
  5
15E8
  8
SAPA_PROFIL
 10
90.499999928120332
 20
40.125277674957097
 30
0.0
 42
0.2418327667378167
  0
VERTEX
  5
15E9
  8
SAPA_PROFIL
 10
90.743868969067563
 20
40.000000000003901
 30
0.0
  0
VERTEX
  5
15EA
  8
SAPA_PROFIL
 10
92.556610602834127
 20
39.999999999985427
 30
0.0
 42
0.1095178116817878
  0
VERTEX
  5
15EB
  8
SAPA_PROFIL
 10
93.401847126305114
 20
40.187384425907261
 30
0.0
  0
VERTEX
  5
15EC
  8
SAPA_PROFIL
 10
99.031673491444536
 20
42.81261557406831
 30
0.0
 42
-0.1095178116855129
  0
VERTEX
  5
15ED
  8
SAPA_PROFIL
 10
99.876910014928896
 20
42.999999999999979
 30
0.0
  0
VERTEX
  5
15EE
  8
SAPA_PROFIL
 10
106.99999992810579
 20
43.000000000007262
 30
0.0
 42
-0.4142135623730957
  0
VERTEX
  5
15EF
  8
SAPA_PROFIL
 10
107.49999992810579
 20
42.499999999985427
 30
0.0
  0
VERTEX
  5
15F0
  8
SAPA_PROFIL
 10
107.49999992810579
 20
41.499999999985427
 30
0.0
 42
-0.4142135623730915
  0
VERTEX
  5
15F1
  8
SAPA_PROFIL
 10
106.99999992810579
 20
40.999999999985427
 30
0.0
  0
VERTEX
  5
15F2
  8
SAPA_PROFIL
 10
106.7087120806241
 20
40.999999999985427
 30
0.0
 42
0.2982166266909514
  0
VERTEX
  5
15F3
  8
SAPA_PROFIL
 10
106.25045451113409
 20
40.699999999998319
 30
0.0
 42
1.5275252316550829
  0
VERTEX
  5
15F4
  8
SAPA_PROFIL
 10
111.74954534506161
 20
40.699999999998433
 30
0.0
 42
0.2982166266892446
  0
VERTEX
  5
15F5
  8
SAPA_PROFIL
 10
111.2912877755948
 20
40.999999999976112
 30
0.0
  0
VERTEX
  5
15F6
  8
SAPA_PROFIL
 10
110.99999992810579
 20
40.999999999985427
 30
0.0
 42
-0.4142135623730915
  0
VERTEX
  5
15F7
  8
SAPA_PROFIL
 10
110.49999992810579
 20
41.499999999985427
 30
0.0
  0
VERTEX
  5
15F8
  8
SAPA_PROFIL
 10
110.49999992810579
 20
42.499999999985427
 30
0.0
 42
-0.4142135623730918
  0
VERTEX
  5
15F9
  8
SAPA_PROFIL
 10
110.99999992810579
 20
42.999999999985427
 30
0.0
  0
VERTEX
  5
15FA
  8
SAPA_PROFIL
 10
129.92308984095831
 20
42.999999999985441
 30
0.0
 42
-0.1095178116838485
  0
VERTEX
  5
15FB
  8
SAPA_PROFIL
 10
130.76832636444809
 20
42.812615574065518
 30
0.0
  0
VERTEX
  5
15FC
  8
SAPA_PROFIL
 10
135.6452364512366
 20
40.538475052471753
 30
0.0
 42
-0.2914734195858569
  0
VERTEX
  5
15FD
  8
SAPA_PROFIL
 10
136.7999999277595
 20
38.72585947838887
 30
0.0
  0
VERTEX
  5
15FE
  8
SAPA_PROFIL
 10
136.7999999277595
 20
19.000000000007269
 30
0.0
 42
-0.4142135623730951
  0
VERTEX
  5
15FF
  8
SAPA_PROFIL
 10
136.2999999277595
 20
18.500000000007269
 30
0.0
  0
VERTEX
  5
1600
  8
SAPA_PROFIL
 10
135.99999992774201
 20
18.500000000007269
 30
0.0
 42
-0.4142135623731035
  0
VERTEX
  5
1601
  8
SAPA_PROFIL
 10
135.49999992774201
 20
19.000000000007269
 30
0.0
  0
VERTEX
  5
1602
  8
SAPA_PROFIL
 10
135.49999992774201
 20
20.300000000006541
 30
0.0
 42
0.4142135623730744
  0
VERTEX
  5
1603
  8
SAPA_PROFIL
 10
135.29999992774489
 20
20.50000000001091
 30
0.0
  0
VERTEX
  5
1604
  8
SAPA_PROFIL
 10
134.99999992774201
 20
20.500000000007251
 30
0.0
 42
0.4142135623731035
  0
VERTEX
  5
1605
  8
SAPA_PROFIL
 10
134.49999992774201
 20
20.000000000007269
 30
0.0
  0
VERTEX
  5
1606
  8
SAPA_PROFIL
 10
134.49999992776381
 20
16.250000000007269
 30
0.0
 42
0.4142135623731035
  0
VERTEX
  5
1607
  8
SAPA_PROFIL
 10
134.99999992776381
 20
15.750000000007271
 30
0.0
  0
VERTEX
  5
1608
  8
SAPA_PROFIL
 10
135.2999999277595
 20
15.750000000007271
 30
0.0
 42
0.4142135623731159
  0
VERTEX
  5
1609
  8
SAPA_PROFIL
 10
135.4999999277675
 20
15.950000000022531
 30
0.0
  0
VERTEX
  5
160A
  8
SAPA_PROFIL
 10
135.49999992776381
 20
16.800000000006541
 30
0.0
 42
-0.4142135623730951
  0
VERTEX
  5
160B
  8
SAPA_PROFIL
 10
135.69999992775359
 20
17.000000000007269
 30
0.0
  0
VERTEX
  5
160C
  8
SAPA_PROFIL
 10
136.69999992775359
 20
17.000000000007269
 30
0.0
 42
-0.4142135623731035
  0
VERTEX
  5
160D
  8
SAPA_PROFIL
 10
137.19999992775359
 20
16.500000000007269
 30
0.0
  0
VERTEX
  5
160E
  8
SAPA_PROFIL
 10
137.19999992775359
 20
10.500000000007249
 30
0.0
 42
-0.4142135623731033
  0
VERTEX
  5
160F
  8
SAPA_PROFIL
 10
136.69999992775359
 20
10.000000000007271
 30
0.0
  0
SEQEND
  5
1610
  8
SAPA_PROFIL
  0
POLYLINE
  5
10AB
  8
SAPA_PROFIL
 66
     1
 10
0.0
 20
0.0
 30
0.0
 70
     1
  0
VERTEX
  5
1611
  8
SAPA_PROFIL
 10
92.999999928120374
 20
57.199999999986161
 30
0.0
  0
VERTEX
  5
1612
  8
SAPA_PROFIL
 10
92.999999928120374
 20
45.600000000005799
 30
0.0
 42
0.4142135623730951
  0
VERTEX
  5
1613
  8
SAPA_PROFIL
 10
93.299999928123299
 20
45.300000000002889
 30
0.0
  0
VERTEX
  5
1614
  8
SAPA_PROFIL
 10
136.19999992775371
 20
45.299999999981068
 30
0.0
 42
0.4142135623730935
  0
VERTEX
  5
1615
  8
SAPA_PROFIL
 10
136.4999999277529
 20
45.599999999980341
 30
0.0
  0
VERTEX
  5
1616
  8
SAPA_PROFIL
 10
136.49999992776381
 20
57.200000000000699
 30
0.0
 42
0.4142135623730935
  0
VERTEX
  5
1617
  8
SAPA_PROFIL
 10
136.19999992775371
 20
57.499999999999993
 30
0.0
  0
VERTEX
  5
1618
  8
SAPA_PROFIL
 10
93.299999928123299
 20
57.499999999985427
 30
0.0
 42
0.4142135623730939
  0
SEQEND
  5
1619
  8
SAPA_PROFIL
  0
POLYLINE
  5
10AC
  8
SAPA_PROFIL
 66
     1
 10
0.0
 20
0.0
 30
0.0
 70
     1
  0
VERTEX
  5
161A
  8
SAPA_PROFIL
 10
17.300000000019271
 20
10.00000000003272
 30
0.0
 42
0.4142135623624294
  0
VERTEX
  5
161B
  8
SAPA_PROFIL
 10
17.500000000009081
 20
10.20000000000797
 30
0.0
  0
VERTEX
  5
161C
  8
SAPA_PROFIL
 10
17.500000000023629
 20
11.050000000006531
 30
0.0
 42
-0.4142135623730744
  0
VERTEX
  5
161D
  8
SAPA_PROFIL
 10
17.700000000027998
 20
11.250000000007249
 30
0.0
  0
VERTEX
  5
161E
  8
SAPA_PROFIL
 10
18.000000000009091
 20
11.249999999999959
 30
0.0
 42
-0.4142135623731035
  0
VERTEX
  5
161F
  8
SAPA_PROFIL
 10
18.500000000009091
 20
10.749999999999959
 30
0.0
  0
VERTEX
  5
1620
  8
SAPA_PROFIL
 10
18.500000000009091
 20
7.7499999999999636
 30
0.0
 42
-0.4142135623731035
  0
VERTEX
  5
1621
  8
SAPA_PROFIL
 10
18.000000000009091
 20
7.2499999999999636
 30
0.0
  0
VERTEX
  5
1622
  8
SAPA_PROFIL
 10
17.700000000013439
 20
7.2499999999999636
 30
0.0
 42
-0.4142135623730744
  0
VERTEX
  5
1623
  8
SAPA_PROFIL
 10
17.500000000009081
 20
7.4500000000007063
 30
0.0
  0
VERTEX
  5
1624
  8
SAPA_PROFIL
 10
17.500000000019998
 20
8.3000000000028891
 30
0.0
 42
0.4142135623730534
  0
VERTEX
  5
1625
  8
SAPA_PROFIL
 10
17.300000000019271
 20
8.4999999999999645
 30
0.0
  0
VERTEX
  5
1626
  8
SAPA_PROFIL
 10
16.300000000019271
 20
8.4999999999999645
 30
0.0
 42
0.4142135623731035
  0
VERTEX
  5
1627
  8
SAPA_PROFIL
 10
15.800000000019271
 20
7.9999999999999636
 30
0.0
  0
VERTEX
  5
1628
  8
SAPA_PROFIL
 10
15.800000000019271
 20
1.999999999999978
 30
0.0
 42
0.4142135623731033
  0
VERTEX
  5
1629
  8
SAPA_PROFIL
 10
16.300000000019271
 20
1.499999999999978
 30
0.0
  0
VERTEX
  5
162A
  8
SAPA_PROFIL
 10
17.300000000019271
 20
1.500000000010892
 30
0.0
 42
0.414213562373064
  0
VERTEX
  5
162B
  8
SAPA_PROFIL
 10
17.500000000009081
 20
1.7000000000007061
 30
0.0
  0
VERTEX
  5
162C
  8
SAPA_PROFIL
 10
17.500000000009081
 20
2.5500000000028891
 30
0.0
 42
-0.414213562373064
  0
VERTEX
  5
162D
  8
SAPA_PROFIL
 10
17.700000000013439
 20
2.7499999999999778
 30
0.0
  0
VERTEX
  5
162E
  8
SAPA_PROFIL
 10
18.000000000009091
 20
2.7499999999999778
 30
0.0
 42
-0.4142135623731035
  0
VERTEX
  5
162F
  8
SAPA_PROFIL
 10
18.500000000009091
 20
2.2499999999999778
 30
0.0
  0
VERTEX
  5
1630
  8
SAPA_PROFIL
 10
18.500000000009091
 20
0.4999999999999787
 30
0.0
 42
-0.4142135623731035
  0
VERTEX
  5
1631
  8
SAPA_PROFIL
 10
18.000000000009091
 20
-0.0000000000000213
 30
0.0
  0
VERTEX
  5
1632
  8
SAPA_PROFIL
 10
15.50000000000909
 20
-0.0000000000000213
 30
0.0
 42
-0.4142135623730966
  0
VERTEX
  5
1633
  8
SAPA_PROFIL
 10
14.000000000009081
 20
1.499999999999978
 30
0.0
  0
VERTEX
  5
1634
  8
SAPA_PROFIL
 10
14.00000000000907
 20
59.700000000000692
 30
0.0
 42
-0.4142135623730935
  0
VERTEX
  5
1635
  8
SAPA_PROFIL
 10
14.30000000001926
 20
59.999999999999972
 30
0.0
  0
VERTEX
  5
1636
  8
SAPA_PROFIL
 10
62.256130958705363
 20
59.999999999999993
 30
0.0
 42
-0.2418327667378115
  0
VERTEX
  5
1637
  8
SAPA_PROFIL
 10
62.499999999643762
 20
59.874722325032877
 30
0.0
 42
0.2418327667509125
  0
VERTEX
  5
1638
  8
SAPA_PROFIL
 10
62.743869040599712
 20
59.749444650060447
 30
0.0
  0
VERTEX
  5
1639
  8
SAPA_PROFIL
 10
63.699999999649627
 20
59.749444650056809
 30
0.0
 42
0.2418327667448973
  0
VERTEX
  5
163A
  8
SAPA_PROFIL
 10
63.943869040604561
 20
59.874722325025232
 30
0.0
 42
-0.2418327667448979
  0
VERTEX
  5
163B
  8
SAPA_PROFIL
 10
64.187738081557143
 20
59.999999999992433
 30
0.0
  0
VERTEX
  5
163C
  8
SAPA_PROFIL
 10
66.285810437275131
 20
59.999999999992433
 30
0.0
 42
-0.6681786379192718
  0
VERTEX
  5
163D
  8
SAPA_PROFIL
 10
66.992917218461741
 20
58.292893218805929
 30
0.0
  0
VERTEX
  5
163E
  8
SAPA_PROFIL
 10
65.687867965292753
 20
56.987843965636749
 30
0.0
 42
-0.1989123673797335
  0
VERTEX
  5
163F
  8
SAPA_PROFIL
 10
65.475735930936679
 20
56.899975999992648
 30
0.0
  0
VERTEX
  5
1640
  8
SAPA_PROFIL
 10
64.889230484189483
 20
56.89997599999279
 30
0.0
 42
-0.1316524975873855
  0
VERTEX
  5
1641
  8
SAPA_PROFIL
 10
64.739230484189562
 20
56.940168378857429
 30
0.0
  0
VERTEX
  5
1642
  8
SAPA_PROFIL
 10
63.249999999648672
 20
57.799975999992739
 30
0.0
  0
VERTEX
  5
1643
  8
SAPA_PROFIL
 10
62.79999999964874
 20
57.799987999992403
 30
0.0
 42
0.4142135623731054
  0
VERTEX
  5
1644
  8
SAPA_PROFIL
 10
62.499999999648729
 20
57.499987999992392
 30
0.0
  0
VERTEX
  5
1645
  8
SAPA_PROFIL
 10
62.499999999648779
 20
53.899975999992328
 30
0.0
 42
0.4142135623730951
  0
VERTEX
  5
1646
  8
SAPA_PROFIL
 10
62.799999999648769
 20
53.599975999992338
 30
0.0
  0
VERTEX
  5
1647
  8
SAPA_PROFIL
 10
63.249999999648779
 20
53.599975999992431
 30
0.0
  0
VERTEX
  5
1648
  8
SAPA_PROFIL
 10
64.739260130722954
 20
54.459800737561423
 30
0.0
 42
-0.1316363093594257
  0
VERTEX
  5
1649
  8
SAPA_PROFIL
 10
64.889241035769686
 20
54.499993115818377
 30
0.0
  0
VERTEX
  5
164A
  8
SAPA_PROFIL
 10
64.999999999652545
 20
54.500000165609187
 30
0.0
  0
VERTEX
  5
164B
  8
SAPA_PROFIL
 10
64.999999999652545
 20
52.914359353937463
 30
0.0
 42
-0.2679491924308306
  0
VERTEX
  5
164C
  8
SAPA_PROFIL
 10
64.499999999652545
 20
52.048333950158828
 30
0.0
  0
VERTEX
  5
164D
  8
SAPA_PROFIL
 10
62.749999999652083
 20
51.037970979080349
 30
0.0
 42
0.2679491924308306
  0
VERTEX
  5
164E
  8
SAPA_PROFIL
 10
62.499999999652537
 20
50.604958277188402
 30
0.0
  0
VERTEX
  5
164F
  8
SAPA_PROFIL
 10
62.499999999652537
 20
49.395041722807932
 30
0.0
 42
0.2679491924308304
  0
VERTEX
  5
1650
  8
SAPA_PROFIL
 10
62.74999999965253
 20
48.962029020916802
 30
0.0
  0
VERTEX
  5
1651
  8
SAPA_PROFIL
 10
64.499999999652545
 20
47.95166604984113
 30
0.0
 42
-0.2679491924308308
  0
VERTEX
  5
1652
  8
SAPA_PROFIL
 10
64.999999999650669
 20
47.085640646055239
 30
0.0
  0
VERTEX
  5
1653
  8
SAPA_PROFIL
 10
64.9999999996528
 20
45.499999834387147
 30
0.0
  0
VERTEX
  5
1654
  8
SAPA_PROFIL
 10
64.889241035769686
 20
45.500006884177949
 30
0.0
 42
-0.1316363093594255
  0
VERTEX
  5
1655
  8
SAPA_PROFIL
 10
64.739260130722954
 20
45.540199262434911
 30
0.0
  0
VERTEX
  5
1656
  8
SAPA_PROFIL
 10
63.249999999648779
 20
46.400024000003903
 30
0.0
  0
VERTEX
  5
1657
  8
SAPA_PROFIL
 10
62.799999999648769
 20
46.400024000003988
 30
0.0
 42
0.4142135623730951
  0
VERTEX
  5
1658
  8
SAPA_PROFIL
 10
62.499999999648779
 20
46.100024000003991
 30
0.0
  0
VERTEX
  5
1659
  8
SAPA_PROFIL
 10
62.499999999648729
 20
42.500012000003942
 30
0.0
 42
0.4142135623731054
  0
VERTEX
  5
165A
  8
SAPA_PROFIL
 10
62.79999999964874
 20
42.20001200000393
 30
0.0
  0
VERTEX
  5
165B
  8
SAPA_PROFIL
 10
63.249999999648672
 20
42.200024000003587
 30
0.0
  0
VERTEX
  5
165C
  8
SAPA_PROFIL
 10
64.739230484189562
 20
43.059831621138891
 30
0.0
 42
-0.1316524975873855
  0
VERTEX
  5
165D
  8
SAPA_PROFIL
 10
64.889230484189483
 20
43.100024000003543
 30
0.0
  0
VERTEX
  5
165E
  8
SAPA_PROFIL
 10
65.475735930936679
 20
43.100024000003678
 30
0.0
 42
-0.1989123673797335
  0
VERTEX
  5
165F
  8
SAPA_PROFIL
 10
65.687867965292753
 20
43.01215603435957
 30
0.0
  0
VERTEX
  5
1660
  8
SAPA_PROFIL
 10
66.992917218461741
 20
41.707106781190397
 30
0.0
 42
-0.6681786379192716
  0
VERTEX
  5
1661
  8
SAPA_PROFIL
 10
66.285810437275131
 20
40.000000000003901
 30
0.0
  0
VERTEX
  5
1662
  8
SAPA_PROFIL
 10
64.187738081555437
 20
40.000000000003901
 30
0.0
 42
-0.2418327667433386
  0
VERTEX
  5
1663
  8
SAPA_PROFIL
 10
63.943869040603879
 20
40.125277674969659
 30
0.0
 42
0.2418327667449431
  0
VERTEX
  5
1664
  8
SAPA_PROFIL
 10
63.699999999649627
 20
40.25055534993588
 30
0.0
  0
VERTEX
  5
1665
  8
SAPA_PROFIL
 10
62.743869040599712
 20
40.250555349939518
 30
0.0
 42
0.2418327667509097
  0
VERTEX
  5
1666
  8
SAPA_PROFIL
 10
62.499999999652587
 20
40.125277674957097
 30
0.0
 42
-0.2418327667378167
  0
VERTEX
  5
1667
  8
SAPA_PROFIL
 10
62.256130958705363
 20
40.000000000003901
 30
0.0
  0
VERTEX
  5
1668
  8
SAPA_PROFIL
 10
60.443389324938799
 20
39.999999999985427
 30
0.0
 42
-0.1095178116817878
  0
VERTEX
  5
1669
  8
SAPA_PROFIL
 10
59.598152801467812
 20
40.187384425907261
 30
0.0
  0
VERTEX
  5
166A
  8
SAPA_PROFIL
 10
53.96832643632839
 20
42.81261557406831
 30
0.0
 42
0.1095178116855129
  0
VERTEX
  5
166B
  8
SAPA_PROFIL
 10
53.123089912844037
 20
42.999999999999979
 30
0.0
  0
VERTEX
  5
166C
  8
SAPA_PROFIL
 10
45.999999999667082
 20
43.000000000007262
 30
0.0
 42
0.4142135623730957
  0
VERTEX
  5
166D
  8
SAPA_PROFIL
 10
45.499999999667082
 20
42.499999999985427
 30
0.0
  0
VERTEX
  5
166E
  8
SAPA_PROFIL
 10
45.499999999667082
 20
41.499999999985427
 30
0.0
 42
0.4142135623730915
  0
VERTEX
  5
166F
  8
SAPA_PROFIL
 10
45.999999999667082
 20
40.999999999985427
 30
0.0
  0
VERTEX
  5
1670
  8
SAPA_PROFIL
 10
46.291287847148823
 20
40.999999999985427
 30
0.0
 42
-0.2982166266909514
  0
VERTEX
  5
1671
  8
SAPA_PROFIL
 10
46.74954541663876
 20
40.699999999998319
 30
0.0
 42
-1.5275252316550829
  0
VERTEX
  5
1672
  8
SAPA_PROFIL
 10
41.250454582711313
 20
40.699999999998411
 30
0.0
 42
-0.2982166266892446
  0
VERTEX
  5
1673
  8
SAPA_PROFIL
 10
41.708712152178087
 20
40.999999999976112
 30
0.0
  0
VERTEX
  5
1674
  8
SAPA_PROFIL
 10
41.999999999667082
 20
40.999999999985427
 30
0.0
 42
0.4142135623730915
  0
VERTEX
  5
1675
  8
SAPA_PROFIL
 10
42.499999999667082
 20
41.499999999985427
 30
0.0
  0
VERTEX
  5
1676
  8
SAPA_PROFIL
 10
42.499999999667082
 20
42.499999999985427
 30
0.0
 42
0.4142135623730918
  0
VERTEX
  5
1677
  8
SAPA_PROFIL
 10
41.999999999667082
 20
42.999999999985427
 30
0.0
  0
VERTEX
  5
1678
  8
SAPA_PROFIL
 10
23.076910086814639
 20
42.99999999998542
 30
0.0
 42
0.1095178116838485
  0
VERTEX
  5
1679
  8
SAPA_PROFIL
 10
22.231673563324829
 20
42.812615574065497
 30
0.0
  0
VERTEX
  5
167A
  8
SAPA_PROFIL
 10
17.354763476536359
 20
40.538475052471739
 30
0.0
 42
0.2914734195858569
  0
VERTEX
  5
167B
  8
SAPA_PROFIL
 10
16.200000000013429
 20
38.725859478388848
 30
0.0
  0
VERTEX
  5
167C
  8
SAPA_PROFIL
 10
16.200000000013429
 20
19.000000000007251
 30
0.0
 42
0.4142135623730951
  0
VERTEX
  5
167D
  8
SAPA_PROFIL
 10
16.700000000013439
 20
18.500000000007251
 30
0.0
  0
VERTEX
  5
167E
  8
SAPA_PROFIL
 10
17.000000000030902
 20
18.500000000007251
 30
0.0
 42
0.4142135623731035
  0
VERTEX
  5
167F
  8
SAPA_PROFIL
 10
17.50000000003088
 20
19.000000000007251
 30
0.0
  0
VERTEX
  5
1680
  8
SAPA_PROFIL
 10
17.50000000003088
 20
20.300000000006531
 30
0.0
 42
-0.4142135623730744
  0
VERTEX
  5
1681
  8
SAPA_PROFIL
 10
17.700000000027991
 20
20.500000000010889
 30
0.0
  0
VERTEX
  5
1682
  8
SAPA_PROFIL
 10
18.000000000030891
 20
20.50000000000724
 30
0.0
 42
-0.4142135623731035
  0
VERTEX
  5
1683
  8
SAPA_PROFIL
 10
18.500000000030902
 20
20.000000000007262
 30
0.0
  0
VERTEX
  5
1684
  8
SAPA_PROFIL
 10
18.500000000009091
 20
16.250000000007251
 30
0.0
 42
-0.4142135623731035
  0
VERTEX
  5
1685
  8
SAPA_PROFIL
 10
18.000000000009091
 20
15.750000000007249
 30
0.0
  0
VERTEX
  5
1686
  8
SAPA_PROFIL
 10
17.700000000013439
 20
15.750000000007249
 30
0.0
 42
-0.4142135623731159
  0
VERTEX
  5
1687
  8
SAPA_PROFIL
 10
17.50000000000545
 20
15.95000000002252
 30
0.0
  0
VERTEX
  5
1688
  8
SAPA_PROFIL
 10
17.500000000009081
 20
16.80000000000652
 30
0.0
 42
0.4142135623730951
  0
VERTEX
  5
1689
  8
SAPA_PROFIL
 10
17.300000000019271
 20
17.000000000007251
 30
0.0
  0
VERTEX
  5
168A
  8
SAPA_PROFIL
 10
16.300000000019271
 20
17.000000000007251
 30
0.0
 42
0.4142135623731035
  0
VERTEX
  5
168B
  8
SAPA_PROFIL
 10
15.800000000019271
 20
16.500000000007251
 30
0.0
  0
VERTEX
  5
168C
  8
SAPA_PROFIL
 10
15.800000000019271
 20
10.50000000000724
 30
0.0
 42
0.4142135623731033
  0
VERTEX
  5
168D
  8
SAPA_PROFIL
 10
16.300000000019271
 20
10.000000000007249
 30
0.0
  0
SEQEND
  5
168E
  8
SAPA_PROFIL
  0
POLYLINE
  5
10AD
  8
SAPA_PROFIL
 66
     1
 10
0.0
 20
0.0
 30
0.0
 70
     1
  0
VERTEX
  5
168F
  8
SAPA_PROFIL
 10
59.999999999652537
 20
57.199999999986161
 30
0.0
  0
VERTEX
  5
1690
  8
SAPA_PROFIL
 10
59.999999999652537
 20
45.600000000005799
 30
0.0
 42
-0.4142135623730951
  0
VERTEX
  5
1691
  8
SAPA_PROFIL
 10
59.69999999964962
 20
45.300000000002889
 30
0.0
  0
VERTEX
  5
1692
  8
SAPA_PROFIL
 10
16.80000000001926
 20
45.299999999981047
 30
0.0
 42
-0.4142135623730935
  0
VERTEX
  5
1693
  8
SAPA_PROFIL
 10
16.50000000001997
 20
45.599999999980326
 30
0.0
  0
VERTEX
  5
1694
  8
SAPA_PROFIL
 10
16.50000000000907
 20
57.200000000000692
 30
0.0
 42
-0.4142135623730935
  0
VERTEX
  5
1695
  8
SAPA_PROFIL
 10
16.80000000001926
 20
57.499999999999972
 30
0.0
  0
VERTEX
  5
1696
  8
SAPA_PROFIL
 10
59.69999999964962
 20
57.499999999985427
 30
0.0
 42
-0.4142135623730939
  0
SEQEND
  5
1697
  8
SAPA_PROFIL
  0
POLYLINE
  5
10AE
  8
SAPA_PROFIL
 62
     4
 66
     1
 10
0.0
 20
0.0
 30
-0.2
 70
     1
1001
RC_PROFILE
1002
{
1000
Region
1002
}
  0
VERTEX
  5
1698
  8
SAPA_PROFIL
 62
     4
 10
73.999999931253427
 20
16.6528202823194
 30
-0.2
  0
VERTEX
  5
1699
  8
SAPA_PROFIL
 62
     4
 10
73.999999931253427
 20
2.452820282317318
 30
-0.2
 42
0.4142135623720297
  0
VERTEX
  5
169A
  8
SAPA_PROFIL
 62
     4
 10
74.499999931251594
 20
1.952820282317318
 30
-0.2
  0
VERTEX
  5
169B
  8
SAPA_PROFIL
 62
     4
 10
78.499999931872807
 20
1.9528202823143479
 30
-0.2
 42
0.4142135623730951
  0
VERTEX
  5
169C
  8
SAPA_PROFIL
 62
     4
 10
78.999999931872793
 20
2.4528202823143479
 30
-0.2
  0
VERTEX
  5
169D
  8
SAPA_PROFIL
 62
     4
 10
78.999999931880069
 20
16.65282028231826
 30
-0.2
 42
0.414213562373761
  0
VERTEX
  5
169E
  8
SAPA_PROFIL
 62
     4
 10
78.499999931880055
 20
17.152820282319379
 30
-0.2
  0
VERTEX
  5
169F
  8
SAPA_PROFIL
 62
     4
 10
74.499999931253413
 20
17.152820282319379
 30
-0.2
 42
0.4142135623730951
  0
SEQEND
  5
16A0
  8
SAPA_PROFIL
 62
     4
  0
POLYLINE
  5
10AF
  8
SAPA_PROFIL
 62
     4
 66
     1
 10
0.0
 20
0.0
 30
0.0
1001
GENIUS_GENOBJ-N-FIL_13
1002
{
1000
OWNER
1000
GEN
1002
}
1001
GENIUS_GENODEF_13
1002
{
1000
HIER
1070
     0
1002
}
1002
{
1000
MANEDIT
1070
     0
1002
}
1002
{
1000
NOSEL
1070
     0
1002
}
1002
{
1000
BEHIND
1070
     0
1002
}
1002
{
1000
OTHER
1070
     0
1002
}
1002
{
1000
REACTOR
1002
}
  0
VERTEX
  5
16A1
  8
SAPA_PROFIL
 62
     4
 10
87.422740001271876
 20
43.416293838728443
 30
0.0
 42
-0.131652497587489
  0
VERTEX
  5
16A2
  8
SAPA_PROFIL
 62
     4
 10
88.022740001272297
 20
43.255524323269711
 30
0.0
  0
VERTEX
  5
16A3
  8
SAPA_PROFIL
 62
     4
 10
89.763397941915827
 20
42.250554992671837
 30
0.0
  0
VERTEX
  5
16A4
  8
SAPA_PROFIL
 62
     4
 10
90.199999863494298
 20
42.250543349936478
 30
0.0
 42
0.4142135623731046
  0
VERTEX
  5
16A5
  8
SAPA_PROFIL
 62
     4
 10
90.449999863494284
 20
42.500543349936478
 30
0.0
  0
VERTEX
  5
16A6
  8
SAPA_PROFIL
 62
     4
 10
90.449999863494241
 20
46.100555349936542
 30
0.0
 42
0.4142135623730957
  0
VERTEX
  5
16A7
  8
SAPA_PROFIL
 62
     4
 10
90.19999986349427
 20
46.350555349936542
 30
0.0
  0
VERTEX
  5
16A8
  8
SAPA_PROFIL
 62
     4
 10
89.763397323115811
 20
46.350555349936442
 30
0.0
  0
VERTEX
  5
16A9
  8
SAPA_PROFIL
 62
     4
 10
88.077259725714924
 20
45.377063354186369
 30
0.0
 42
-0.1316524975873848
  0
VERTEX
  5
16AA
  8
SAPA_PROFIL
 62
     4
 10
87.477259725714987
 20
45.216293838727722
 30
0.0
  0
VERTEX
  5
16AB
  8
SAPA_PROFIL
 62
     4
 10
65.522740137423966
 20
45.216293838727722
 30
0.0
 42
-0.1316524975873846
  0
VERTEX
  5
16AC
  8
SAPA_PROFIL
 62
     4
 10
64.922740137424
 20
45.377063354186369
 30
0.0
  0
VERTEX
  5
16AD
  8
SAPA_PROFIL
 62
     4
 10
63.236602540023128
 20
46.350555349936442
 30
0.0
  0
VERTEX
  5
16AE
  8
SAPA_PROFIL
 62
     4
 10
62.799999999644669
 20
46.350555349936542
 30
0.0
 42
0.4142135623730951
  0
VERTEX
  5
16AF
  8
SAPA_PROFIL
 62
     4
 10
62.54999999964469
 20
46.100555349936542
 30
0.0
  0
VERTEX
  5
16B0
  8
SAPA_PROFIL
 62
     4
 10
62.549999999644641
 20
42.500543349936478
 30
0.0
 42
0.4142135623731046
  0
VERTEX
  5
16B1
  8
SAPA_PROFIL
 62
     4
 10
62.799999999644648
 20
42.250543349936478
 30
0.0
  0
VERTEX
  5
16B2
  8
SAPA_PROFIL
 62
     4
 10
63.236601921223112
 20
42.250554992671837
 30
0.0
  0
VERTEX
  5
16B3
  8
SAPA_PROFIL
 62
     4
 10
64.977259861866656
 20
43.255524323269711
 30
0.0
 42
-0.1316524975874892
  0
VERTEX
  5
16B4
  8
SAPA_PROFIL
 62
     4
 10
65.577259861867077
 20
43.416293838728443
 30
0.0
  0
VERTEX
  5
16B5
  8
SAPA_PROFIL
 62
     4
 10
68.299999999395681
 20
43.416293838727768
 30
0.0
 42
-0.414213562374094
  0
VERTEX
  5
16B6
  8
SAPA_PROFIL
 62
     4
 10
69.499999999394589
 20
42.21629383872363
 30
0.0
  0
VERTEX
  5
16B7
  8
SAPA_PROFIL
 62
     4
 10
69.499999999305459
 20
16.418558811801802
 30
0.0
 42
0.4142135623730951
  0
VERTEX
  5
16B8
  8
SAPA_PROFIL
 62
     4
 10
69.999999999305459
 20
15.9185588118018
 30
0.0
  0
VERTEX
  5
16B9
  8
SAPA_PROFIL
 62
     4
 10
70.199999999305277
 20
15.918558811801571
 30
0.0
 42
0.4142135623730951
  0
VERTEX
  5
16BA
  8
SAPA_PROFIL
 62
     4
 10
70.499999999305459
 20
16.218558811801739
 30
0.0
  0
VERTEX
  5
16BB
  8
SAPA_PROFIL
 62
     4
 10
70.499999999305459
 20
16.868558811803648
 30
0.0
 42
-0.4142135623730951
  0
VERTEX
  5
16BC
  8
SAPA_PROFIL
 62
     4
 10
70.79999999930655
 20
17.168558811803621
 30
0.0
  0
VERTEX
  5
16BD
  8
SAPA_PROFIL
 62
     4
 10
71.699999999302534
 20
17.168558811802711
 30
0.0
 42
-0.4142135623730951
  0
VERTEX
  5
16BE
  8
SAPA_PROFIL
 62
     4
 10
72.199999999302548
 20
16.668558811803621
 30
0.0
  0
VERTEX
  5
16BF
  8
SAPA_PROFIL
 62
     4
 10
72.199999999302548
 20
10.66855881180178
 30
0.0
 42
-0.4142135623730951
  0
VERTEX
  5
16C0
  8
SAPA_PROFIL
 62
     4
 10
71.699999999302534
 20
10.168558811801789
 30
0.0
  0
VERTEX
  5
16C1
  8
SAPA_PROFIL
 62
     4
 10
70.799999999303822
 20
10.168558811801789
 30
0.0
 42
-0.4142135623710974
  0
VERTEX
  5
16C2
  8
SAPA_PROFIL
 62
     4
 10
70.499999999304549
 20
10.46855881179971
 30
0.0
  0
VERTEX
  5
16C3
  8
SAPA_PROFIL
 62
     4
 10
70.499999999300002
 20
11.1185588118016
 30
0.0
 42
0.4142135623730951
  0
VERTEX
  5
16C4
  8
SAPA_PROFIL
 62
     4
 10
70.199999999298001
 20
11.41855881179977
 30
0.0
  0
VERTEX
  5
16C5
  8
SAPA_PROFIL
 62
     4
 10
69.999999999305459
 20
11.41855881179862
 30
0.0
 42
0.4142135623730951
  0
VERTEX
  5
16C6
  8
SAPA_PROFIL
 62
     4
 10
69.499999999305459
 20
10.91855881179862
 30
0.0
  0
VERTEX
  5
16C7
  8
SAPA_PROFIL
 62
     4
 10
69.499999999305459
 20
7.9185588117986176
 30
0.0
 42
0.4142135623730951
  0
VERTEX
  5
16C8
  8
SAPA_PROFIL
 62
     4
 10
69.999999999305459
 20
7.4185588117986176
 30
0.0
  0
VERTEX
  5
16C9
  8
SAPA_PROFIL
 62
     4
 10
70.199999999305277
 20
7.4185588117986176
 30
0.0
 42
0.4142135623730951
  0
VERTEX
  5
16CA
  8
SAPA_PROFIL
 62
     4
 10
70.499999999305459
 20
7.7185588117988004
 30
0.0
  0
VERTEX
  5
16CB
  8
SAPA_PROFIL
 62
     4
 10
70.499999999305459
 20
8.3685588117986498
 30
0.0
 42
-0.4142135623730951
  0
VERTEX
  5
16CC
  8
SAPA_PROFIL
 62
     4
 10
70.79999999930655
 20
8.6685588117986185
 30
0.0
  0
VERTEX
  5
16CD
  8
SAPA_PROFIL
 62
     4
 10
71.699999999302534
 20
8.6685588117986185
 30
0.0
 42
-0.4142135623730951
  0
VERTEX
  5
16CE
  8
SAPA_PROFIL
 62
     4
 10
72.199999999302548
 20
8.1685588117986185
 30
0.0
  0
VERTEX
  5
16CF
  8
SAPA_PROFIL
 62
     4
 10
72.199999999302548
 20
2.1685588117986319
 30
0.0
 42
-0.4142135623730951
  0
VERTEX
  5
16D0
  8
SAPA_PROFIL
 62
     4
 10
71.699999999302534
 20
1.6685588117986181
 30
0.0
  0
VERTEX
  5
16D1
  8
SAPA_PROFIL
 62
     4
 10
70.79999999930655
 20
1.6685588117986181
 30
0.0
 42
-0.4142135623730951
  0
VERTEX
  5
16D2
  8
SAPA_PROFIL
 62
     4
 10
70.499999999305459
 20
1.968558811798814
 30
0.0
  0
VERTEX
  5
16D3
  8
SAPA_PROFIL
 62
     4
 10
70.499999999305459
 20
2.6185588117986782
 30
0.0
 42
0.4142135623730949
  0
VERTEX
  5
16D4
  8
SAPA_PROFIL
 62
     4
 10
70.199999999305277
 20
2.9185588117986181
 30
0.0
  0
VERTEX
  5
16D5
  8
SAPA_PROFIL
 62
     4
 10
69.999999999305459
 20
2.9185588117986181
 30
0.0
 42
0.4142135623730951
  0
VERTEX
  5
16D6
  8
SAPA_PROFIL
 62
     4
 10
69.499999999305459
 20
2.4185588117986181
 30
0.0
  0
VERTEX
  5
16D7
  8
SAPA_PROFIL
 62
     4
 10
69.499999999306354
 20
0.6685588117986187
 30
0.0
 42
0.4142135623726955
  0
VERTEX
  5
16D8
  8
SAPA_PROFIL
 62
     4
 10
69.999999999640153
 20
0.1685588117986185
 30
0.0
  0
VERTEX
  5
16D9
  8
SAPA_PROFIL
 62
     4
 10
82.999999999647443
 20
0.1685588117983912
 30
0.0
 42
0.4142135623732284
  0
VERTEX
  5
16DA
  8
SAPA_PROFIL
 62
     4
 10
83.499999999923929
 20
0.6685588117967996
 30
0.0
  0
VERTEX
  5
16DB
  8
SAPA_PROFIL
 62
     4
 10
83.499999999923915
 20
2.4185588117967991
 30
0.0
 42
0.4142135623730951
  0
VERTEX
  5
16DC
  8
SAPA_PROFIL
 62
     4
 10
82.999999999923915
 20
2.9185588117968129
 30
0.0
  0
VERTEX
  5
16DD
  8
SAPA_PROFIL
 62
     4
 10
82.799999999924097
 20
2.9185588117968129
 30
0.0
 42
0.4142135623730951
  0
VERTEX
  5
16DE
  8
SAPA_PROFIL
 62
     4
 10
82.499999999923915
 20
2.6185588117966172
 30
0.0
  0
VERTEX
  5
16DF
  8
SAPA_PROFIL
 62
     4
 10
82.499999999923929
 20
1.9685588117967681
 30
0.0
 42
-0.4142135623730951
  0
VERTEX
  5
16E0
  8
SAPA_PROFIL
 62
     4
 10
82.199999999924657
 20
1.6685588117968131
 30
0.0
  0
VERTEX
  5
16E1
  8
SAPA_PROFIL
 62
     4
 10
81.299999999926825
 20
1.6685588117968131
 30
0.0
 42
-0.4142135623730951
  0
VERTEX
  5
16E2
  8
SAPA_PROFIL
 62
     4
 10
80.799999999926825
 20
2.1685588117967991
 30
0.0
  0
VERTEX
  5
16E3
  8
SAPA_PROFIL
 62
     4
 10
80.799999999926825
 20
8.1685588117967995
 30
0.0
 42
-0.4142135623730951
  0
VERTEX
  5
16E4
  8
SAPA_PROFIL
 62
     4
 10
81.299999999926825
 20
8.6685588117967995
 30
0.0
  0
VERTEX
  5
16E5
  8
SAPA_PROFIL
 62
     4
 10
82.199999999924657
 20
8.6685588117967995
 30
0.0
 42
-0.4142135623730953
  0
VERTEX
  5
16E6
  8
SAPA_PROFIL
 62
     4
 10
82.499999999923915
 20
8.3685588117966176
 30
0.0
  0
VERTEX
  5
16E7
  8
SAPA_PROFIL
 62
     4
 10
82.499999999923915
 20
7.7185588117967541
 30
0.0
 42
0.4142135623730951
  0
VERTEX
  5
16E8
  8
SAPA_PROFIL
 62
     4
 10
82.799999999924097
 20
7.4185588117967987
 30
0.0
  0
VERTEX
  5
16E9
  8
SAPA_PROFIL
 62
     4
 10
82.999999999923915
 20
7.4185588117967987
 30
0.0
 42
0.4142135623730951
  0
VERTEX
  5
16EA
  8
SAPA_PROFIL
 62
     4
 10
83.499999999923915
 20
7.9185588117967987
 30
0.0
  0
VERTEX
  5
16EB
  8
SAPA_PROFIL
 62
     4
 10
83.499999999923915
 20
10.9185588117968
 30
0.0
 42
0.4142135623730951
  0
VERTEX
  5
16EC
  8
SAPA_PROFIL
 62
     4
 10
82.999999999923915
 20
11.4185588117968
 30
0.0
  0
VERTEX
  5
16ED
  8
SAPA_PROFIL
 62
     4
 10
82.799999999931373
 20
11.418558811797929
 30
0.0
 42
0.414213562372873
  0
VERTEX
  5
16EE
  8
SAPA_PROFIL
 62
     4
 10
82.499999999929372
 20
11.118558811799801
 30
0.0
  0
VERTEX
  5
16EF
  8
SAPA_PROFIL
 62
     4
 10
82.499999999926644
 20
10.4685588117988
 30
0.0
 42
-0.4142135623722071
  0
VERTEX
  5
16F0
  8
SAPA_PROFIL
 62
     4
 10
82.199999999925552
 20
10.16855881179977
 30
0.0
  0
VERTEX
  5
16F1
  8
SAPA_PROFIL
 62
     4
 10
81.299999999926825
 20
10.16855881179977
 30
0.0
 42
-0.4142135623730951
  0
VERTEX
  5
16F2
  8
SAPA_PROFIL
 62
     4
 10
80.799999999926825
 20
10.668558811799739
 30
0.0
  0
VERTEX
  5
16F3
  8
SAPA_PROFIL
 62
     4
 10
80.799999999934087
 20
16.668558811801802
 30
0.0
 42
-0.4142135623730951
  0
VERTEX
  5
16F4
  8
SAPA_PROFIL
 62
     4
 10
81.299999999934101
 20
17.168558811801802
 30
0.0
  0
VERTEX
  5
16F5
  8
SAPA_PROFIL
 62
     4
 10
82.199999999931009
 20
17.168558811801802
 30
0.0
 42
-0.4142135623730951
  0
VERTEX
  5
16F6
  8
SAPA_PROFIL
 62
     4
 10
82.499999999931205
 20
16.86855881180162
 30
0.0
  0
VERTEX
  5
16F7
  8
SAPA_PROFIL
 62
     4
 10
82.499999999931205
 20
16.21855881179971
 30
0.0
 42
0.4142135623730951
  0
VERTEX
  5
16F8
  8
SAPA_PROFIL
 62
     4
 10
82.799999999931373
 20
15.918558811799739
 30
0.0
  0
VERTEX
  5
16F9
  8
SAPA_PROFIL
 62
     4
 10
82.999999999931191
 20
15.918558811799739
 30
0.0
 42
0.4142135623730951
  0
VERTEX
  5
16FA
  8
SAPA_PROFIL
 62
     4
 10
83.499999999931191
 20
16.418558811799748
 30
0.0
  0
VERTEX
  5
16FB
  8
SAPA_PROFIL
 62
     4
 10
83.499999999849337
 20
42.21629383872363
 30
0.0
 42
-0.414213562374094
  0
VERTEX
  5
16FC
  8
SAPA_PROFIL
 62
     4
 10
84.699999999849155
 20
43.41629383872754
 30
0.0
  0
VERTEX
  5
16FD
  8
SAPA_PROFIL
 62
     4
 10
87.428481349929228
 20
43.416293838727768
 30
0.0
  0
SEQEND
  5
16FE
  8
SAPA_PROFIL
 62
     4
  0
POLYLINE
  5
10B0
  8
SAPA_PROFIL
 62
     4
 66
     1
 10
0.0
 20
0.0
 30
0.0
 70
     1
  0
VERTEX
  5
16FF
  8
SAPA_PROFIL
 62
     4
 10
79.799999931883889
 20
18.45282028231729
 30
0.0
  0
VERTEX
  5
1700
  8
SAPA_PROFIL
 62
     4
 10
72.299999931325459
 20
18.452820282321401
 30
0.0
 42
-0.4142135623730951
  0
VERTEX
  5
1701
  8
SAPA_PROFIL
 62
     4
 10
71.299999931325459
 20
19.452820282321401
 30
0.0
  0
VERTEX
  5
1702
  8
SAPA_PROFIL
 62
     4
 10
71.299999931309998
 20
42.600555309245181
 30
0.0
 42
-0.4142135623730949
  0
VERTEX
  5
1703
  8
SAPA_PROFIL
 62
     4
 10
72.09999993131018
 20
43.400555309245362
 30
0.0
  0
VERTEX
  5
1704
  8
SAPA_PROFIL
 62
     4
 10
80.899999931828759
 20
43.400555309245362
 30
0.0
 42
-0.414213562373428
  0
VERTEX
  5
1705
  8
SAPA_PROFIL
 62
     4
 10
81.699999931828955
 20
42.600555309244271
 30
0.0
  0
VERTEX
  5
1706
  8
SAPA_PROFIL
 62
     4
 10
81.699999931805294
 20
19.45282028231729
 30
0.0
 42
-0.4142135623724957
  0
VERTEX
  5
1707
  8
SAPA_PROFIL
 62
     4
 10
80.699999931806204
 20
18.45282028231934
 30
0.0
  0
SEQEND
  5
1708
  8
SAPA_PROFIL
 62
     4
  0
LINE
  5
10CA
  8
SAPA_GLAS
 10
127.1999999990132
 20
-0.0000000000038476
 30
0.0
 11
127.2886533187248
 21
0.5027779603468945
 31
0.0
  0
LINE
  5
10CB
  8
SAPA_GLAS
 10
123.19046106837961
 20
1.9869697851012831
 30
0.0
 11
122.9999999995017
 21
1.9869697851012831
 31
0.0
  0
ARC
  5
10CC
  8
SAPA_GLAS
 10
124.9999999995035
 20
-14.58466937281508
 30
0.0
 40
9.9869792597787779
 50
78.447792354267833
 51
101.5522076457321
  0
LINE
  5
10CD
  8
SAPA_GLAS
 10
90.799999999989964
 20
-0.0000000000038476
 30
0.0
 11
90.711346680278353
 21
0.5027779603468945
 31
0.0
  0
LINE
  5
10CE
  8
SAPA_GLAS
 10
94.809538930623475
 20
1.9869697851012831
 30
0.0
 11
94.999999999501412
 21
1.9869697851012831
 31
0.0
  0
ARC
  5
10CF
  8
SAPA_GLAS
 10
92.999999999499579
 20
-14.58466937281508
 30
0.0
 40
9.9869792597787779
 50
78.447792354267833
 51
101.5522076457321
  0
POLYLINE
  5
10D0
  8
SAPA_GLAS
 66
     1
 10
0.0
 20
0.0
 30
0.0
 70
     1
  0
VERTEX
  5
176F
  8
SAPA_GLAS
 10
123.12278836994049
 20
2.7604722664100012
 30
0.0
 42
0.1316524975872964
  0
VERTEX
  5
1770
  8
SAPA_GLAS
 10
123.1904610682776
 20
1.9869697849206061
 30
0.0
  0
VERTEX
  5
1771
  8
SAPA_GLAS
 10
123.7426488547292
 20
0.4698463102964859
 30
0.0
 42
0.4142135623734131
  0
VERTEX
  5
1772
  8
SAPA_GLAS
 10
124.3835052367822
 20
0.171010071562133
 30
0.0
  0
VERTEX
  5
1773
  8
SAPA_GLAS
 10
124.5714437609419
 20
0.2394141002267425
 30
0.0
 42
0.4142135623732762
  0
VERTEX
  5
1774
  8
SAPA_GLAS
 10
124.750745504186
 20
0.6239279294602192
 30
0.0
  0
VERTEX
  5
1775
  8
SAPA_GLAS
 10
124.7422964966776
 20
0.6471413867781273
 30
0.0
 42
-0.5773502691875974
  0
VERTEX
  5
1776
  8
SAPA_GLAS
 10
124.96496465637421
 20
0.9125069660444644
 30
0.0
  0
VERTEX
  5
1777
  8
SAPA_GLAS
 10
129.2809094958711
 20
0.1514894435675806
 30
0.0
 42
0.4142135623736183
  0
VERTEX
  5
1778
  8
SAPA_GLAS
 10
129.62844627506729
 20
0.3948373161689069
 30
0.0
  0
VERTEX
  5
1779
  8
SAPA_GLAS
 10
129.69790554613741
 20
0.7887604173710763
 30
0.0
 42
0.4142135623730951
  0
VERTEX
  5
177A
  8
SAPA_GLAS
 10
129.45455767354031
 20
1.1362971965762401
 30
0.0
  0
VERTEX
  5
177B
  8
SAPA_GLAS
 10
124.5131759106189
 20
2.0075961233935571
 30
0.0
 42
-0.4142135623725704
  0
VERTEX
  5
177C
  8
SAPA_GLAS
 10
124.10759612295401
 20
2.586824088734974
 30
0.0
  0
VERTEX
  5
177D
  8
SAPA_GLAS
 10
125.3112661290869
 20
9.4131759110620372
 30
0.0
 42
0.4663076581553405
  0
VERTEX
  5
177E
  8
SAPA_GLAS
 10
124.8188622525812
 20
9.9999999998991331
 30
0.0
  0
VERTEX
  5
177F
  8
SAPA_GLAS
 10
93.181137746421868
 20
10.00000000010054
 30
0.0
 42
0.4663076581553401
  0
VERTEX
  5
1780
  8
SAPA_GLAS
 10
92.688733869912113
 20
9.4131759112696631
 30
0.0
  0
VERTEX
  5
1781
  8
SAPA_GLAS
 10
93.892403875954727
 20
2.5868240889273331
 30
0.0
 42
-0.4142135623725707
  0
VERTEX
  5
1782
  8
SAPA_GLAS
 10
93.486824088282475
 20
2.0075961235910742
 30
0.0
  0
VERTEX
  5
1783
  8
SAPA_GLAS
 10
88.545442325349995
 20
1.1362971968366751
 30
0.0
 42
0.4142135623730951
  0
VERTEX
  5
1784
  8
SAPA_GLAS
 10
88.302094452748406
 20
0.7887604176346095
 30
0.0
  0
VERTEX
  5
1785
  8
SAPA_GLAS
 10
88.371553723813534
 20
0.394837316431559
 30
0.0
 42
0.4142135623736183
  0
VERTEX
  5
1786
  8
SAPA_GLAS
 10
88.719090503006584
 20
0.151489443825799
 30
0.0
  0
VERTEX
  5
1787
  8
SAPA_GLAS
 10
93.035035342513197
 20
0.9125069662477365
 30
0.0
 42
-0.5773502691875974
  0
VERTEX
  5
1788
  8
SAPA_GLAS
 10
93.257703502206382
 20
0.6471413869785643
 30
0.0
  0
VERTEX
  5
1789
  8
SAPA_GLAS
 10
93.249254494697709
 20
0.6239279296607628
 30
0.0
 42
0.4142135623732762
  0
VERTEX
  5
178A
  8
SAPA_GLAS
 10
93.428556237936988
 20
0.2394141004250052
 30
0.0
  0
VERTEX
  5
178B
  8
SAPA_GLAS
 10
93.616494762095755
 20
0.1710100717580012
 30
0.0
 42
0.4142135623734131
  0
VERTEX
  5
178C
  8
SAPA_GLAS
 10
94.257351144152636
 20
0.4698463104841899
 30
0.0
  0
VERTEX
  5
178D
  8
SAPA_GLAS
 10
94.809538930623475
 20
1.9869697851012831
 30
0.0
 42
0.1316524975872963
  0
VERTEX
  5
178E
  8
SAPA_GLAS
 10
94.877211628970429
 20
2.7604722665898178
 30
0.0
  0
VERTEX
  5
178F
  8
SAPA_GLAS
 10
93.818403710643125
 20
8.7652703645625074
 30
0.0
 42
-0.4663076581547951
  0
VERTEX
  5
1790
  8
SAPA_GLAS
 10
94.015365261247084
 20
9.0000000000945057
 30
0.0
  0
VERTEX
  5
1791
  8
SAPA_GLAS
 10
123.98463473774331
 20
8.9999999999037161
 30
0.0
 42
-0.466307658154795
  0
VERTEX
  5
1792
  8
SAPA_GLAS
 10
124.18159628834429
 20
8.7652703643692114
 30
0.0
  0
SEQEND
  5
1793
  8
SAPA_GLAS
  0
POLYLINE
  5
10D1
  8
SAPA_GLAS
 66
     1
 10
0.0
 20
0.0
 30
0.0
  0
VERTEX
  5
1794
  8
SAPA_GLAS
 10
94.999999999501412
 20
-24.000000000000149
 30
0.0
  0
VERTEX
  5
1795
  8
SAPA_GLAS
 10
94.999999999501412
 20
7.9999999999998499
 30
0.0
  0
VERTEX
  5
1796
  8
SAPA_GLAS
 10
98.999999999501412
 20
7.9999999999998499
 30
0.0
  0
VERTEX
  5
1797
  8
SAPA_GLAS
 10
98.999999999501412
 20
-24.000000000000149
 30
0.0
  0
SEQEND
  5
1798
  8
SAPA_GLAS
  0
POLYLINE
  5
10D2
  8
SAPA_GLAS
 66
     1
 10
0.0
 20
0.0
 30
0.0
  0
VERTEX
  5
1799
  8
SAPA_GLAS
 10
118.9999999995015
 20
-2.0000000000001559
 30
0.0
  0
VERTEX
  5
179A
  8
SAPA_GLAS
 10
98.999999999501568
 20
-2.0000000000001519
 30
0.0
  0
VERTEX
  5
179B
  8
SAPA_GLAS
 10
98.999999999501568
 20
7.999999999999857
 30
0.0
  0
VERTEX
  5
179C
  8
SAPA_GLAS
 10
118.9999999995016
 20
7.9999999999998428
 30
0.0
  0
VERTEX
  5
179D
  8
SAPA_GLAS
 10
118.9999999995015
 20
-2.0000000000001559
 30
0.0
  0
SEQEND
  5
179E
  8
SAPA_GLAS
  0
POLYLINE
  5
10D3
  8
SAPA_GLAS
 66
     1
 10
0.0
 20
0.0
 30
0.0
  0
VERTEX
  5
179F
  8
SAPA_GLAS
 10
122.9999999995015
 20
-24.00000000000016
 30
0.0
  0
VERTEX
  5
17A0
  8
SAPA_GLAS
 10
122.9999999995015
 20
7.9999999999998428
 30
0.0
  0
VERTEX
  5
17A1
  8
SAPA_GLAS
 10
118.9999999995016
 20
7.9999999999998428
 30
0.0
  0
VERTEX
  5
17A2
  8
SAPA_GLAS
 10
118.9999999995015
 20
-24.00000000000016
 30
0.0
  0
SEQEND
  5
17A3
  8
SAPA_GLAS
  0
INSERT
  5
10D4
  8
SAPA_GLAS
  6
CONTINUOUS
  2
*X35
 10
0.0
 20
0.0
 30
0.0
1001
ACAD
1000
HATCH
1002
{
1070
    19
1000
ANSI37
1040
0.25
1040
0.0
1000
R14_HATCH_DATA
1000
10D4
1011
1.0
1021
0.0
1031
0.0
1021
0.0
1031
0.0
1011
0.0
1021
0.0
1031
0.0
1021
1.0
1031
0.0
1011
0.0
1021
0.0
1031
0.0
1021
0.0
1031
1.0
1040
0.0
1010
0.0
1020
0.0
1030
1.0
1000
ANSI37
1070
     0
1070
     0
1071
        1
1071
        7
1070
     1
1070
     1
1071
       21
1040
122.9999999995015
1040
-4.8000000000031644
1040
-0.1011549434925542
1040
126.99999999986289
1040
-4.8000000000762126
1040
0.0
1040
126.9999999998556
1040
-3.700000000004521
1040
-0.4142135623731029
1040
127.19999999985269
1040
-3.5000000000037939
1040
0.0
1040
127.9999999998556
1040
-3.5000000000147011
1040
0.4142135623730951
1040
128.49999999985559
1040
-3.0000000000147149
1040
0.0
1040
128.4999999993754
1040
-2.0000000000037939
1040
0.414213562373094
1040
127.9999999993754
1040
-1.5000000000037941
1040
0.0
1040
127.1999999993652
1040
-1.5000000000037941
1040
-0.4142135623731048
1040
126.9999999993754
1040
-1.300000000003066
1040
0.0
1040
126.9999999993754
1040
-0.2000000000045219
1040
-0.4142135618575339
1040
127.1999999990132
1040
-0.0000000000037942
1040
0.0
1040
127.2886533186813
1040
0.5027779601003802
1040
0.0
1040
124.96496465637421
1040
0.9125069660444644
1040
0.5773502691875974
1040
124.7422964966776
1040
0.6471413867781273
1040
0.0
1040
124.750745504186
1040
0.6239279294602192
1040
-0.4142135623732763
1040
124.5714437609419
1040
0.2394141002267425
1040
0.0
1040
124.3835052367822
1040
0.171010071562133
1040
-0.4142135623734132
1040
123.7426488547292
1040
0.4698463102964859
1040
0.0
1040
123.1904610682119
1040
1.9869697851012831
1040
0.0
1040
122.9999999995015
1040
1.9869697851012831
1040
0.0
1071
        0
1070
     0
1070
     1
1040
0.0
1040
0.25
1070
     0
1070
     2
1040
0.7853981633974483
1040
85.499999999947505
1040
-5.000000000003797
1040
-0.5612660075668221
1040
0.5612660075668221
1070
     0
1040
2.3561944901923439
1040
85.499999999947505
1040
-5.000000000003797
1040
-0.5612660075668221
1040
-0.5612660075668221
1070
     0
1040
0.0554184978666472
1071
        1
1040
125.0225300125116
1040
-2.3851922194992201
1040
0.0
1002
}
  0
INSERT
  5
10D5
  8
SAPA_GLAS
  6
CONTINUOUS
  2
*X36
 10
0.0
 20
0.0
 30
0.0
1001
ACAD
1000
HATCH
1002
{
1070
    19
1000
ANSI37
1040
0.25
1040
0.0
1000
R14_HATCH_DATA
1000
10D5
1011
1.0
1021
0.0
1031
0.0
1021
0.0
1031
0.0
1011
0.0
1021
0.0
1031
0.0
1021
1.0
1031
0.0
1011
0.0
1021
0.0
1031
0.0
1021
0.0
1031
1.0
1040
0.0
1010
0.0
1020
0.0
1030
1.0
1000
ANSI37
1070
     0
1070
     0
1071
        1
1071
        7
1070
     1
1070
     1
1071
       21
1040
94.999999999501412
1040
1.9869697851012831
1040
0.0
1040
94.809538930623475
1040
1.9869697851012831
1040
0.0
1040
94.257351144152636
1040
0.4698463104841899
1040
-0.4142135623734131
1040
93.616494762095755
1040
0.1710100717580012
1040
0.0
1040
93.428556237936988
1040
0.2394141004250052
1040
-0.4142135623732763
1040
93.249254494697709
1040
0.6239279296607628
1040
0.0
1040
93.257703502206382
1040
0.6471413869785643
1040
0.5773502691875974
1040
93.035035342513197
1040
0.9125069662477365
1040
0.0
1040
90.711346680278353
1040
0.502777960346894
1040
0.0
1040
90.799999999989964
1040
-0.0000000000038476
1040
-0.4142135623811048
1040
90.999999999985249
1040
-0.2000000000045752
1040
0.0
1040
90.999999999985249
1040
-1.3000000000031191
1040
-0.4142135623731048
1040
90.799999999995435
1040
-1.5000000000038469
1040
0.0
1040
89.999999999985249
1040
-1.5000000000038469
1040
0.414213562373094
1040
89.499999999985235
1040
-2.0000000000038471
1040
0.0
1040
89.499999999505064
1040
-3.0000000000147748
1040
0.4142135623730951
1040
89.999999999505064
1040
-3.5000000000147611
1040
0.0
1040
90.799999999507975
1040
-3.5000000000038471
1040
-0.4142135623731029
1040
90.999999999505064
1040
-3.7000000000045752
1040
0.0
1040
90.999999999497774
1040
-4.8000000000031342
1040
-0.101154943483322
1040
94.999999999501412
1040
-4.8000000000031342
1040
0.0
1071
        0
1070
     0
1070
     1
1040
0.0
1040
0.25
1070
     0
1070
     2
1040
0.7853981633974483
1040
85.499999999947505
1040
-5.000000000003797
1040
-0.5612660075668221
1040
0.5612660075668221
1070
     0
1040
2.3561944901923439
1040
85.499999999947505
1040
-5.000000000003797
1040
-0.5612660075668221
1040
-0.5612660075668221
1070
     0
1040
0.0245236365555031
1071
        1
1040
93.057018522932509
1040
-1.80942676281673
1040
0.0
1002
}
  0
POLYLINE
  5
10FA
  8
SAPA_FOGBAND
 66
     1
 10
0.0
 20
0.0
 30
0.0
 70
     1
  0
VERTEX
  5
1875
  8
SAPA_FOGBAND
 10
16.25000000001938
 20
10.35000000001757
 30
0.0
  0
VERTEX
  5
1876
  8
SAPA_FOGBAND
 10
17.050000000019558
 20
10.35000000001757
 30
0.0
  0
VERTEX
  5
1877
  8
SAPA_FOGBAND
 10
17.050000000019558
 20
16.65000000001465
 30
0.0
  0
VERTEX
  5
1878
  8
SAPA_FOGBAND
 10
16.25000000001938
 20
16.65000000001465
 30
0.0
  0
SEQEND
  5
1879
  8
SAPA_FOGBAND
  0
POLYLINE
  5
10FB
  8
SAPA_FOGBAND
 66
     1
 10
0.0
 20
0.0
 30
0.0
  0
VERTEX
  5
187A
  8
SAPA_FOGBAND
 10
17.050000000019558
 20
15.07268960315716
 30
0.0
  0
VERTEX
  5
187B
  8
SAPA_FOGBAND
 10
20.50000000001938
 20
16.19813620047308
 30
0.0
  0
VERTEX
  5
187C
  8
SAPA_FOGBAND
 10
20.50000000001938
 20
13.75999815392454
 30
0.0
  0
VERTEX
  5
187D
  8
SAPA_FOGBAND
 10
17.050000000019558
 20
13.65000000001757
 30
0.0
  0
SEQEND
  5
187E
  8
SAPA_FOGBAND
  0
POLYLINE
  5
10FC
  8
SAPA_FOGBAND
 66
     1
 10
0.0
 20
0.0
 30
0.0
  0
VERTEX
  5
187F
  8
SAPA_FOGBAND
 10
17.050000000019558
 20
13.575000000016839
 30
0.0
  0
VERTEX
  5
1880
  8
SAPA_FOGBAND
 10
20.50000000001938
 20
13.575000000013571
 30
0.0
  0
VERTEX
  5
1881
  8
SAPA_FOGBAND
 10
20.50000000001938
 20
13.42500000001538
 30
0.0
  0
VERTEX
  5
1882
  8
SAPA_FOGBAND
 10
17.050000000019558
 20
13.425000000015389
 30
0.0
  0
SEQEND
  5
1883
  8
SAPA_FOGBAND
  0
POLYLINE
  5
10FD
  8
SAPA_FOGBAND
 66
     1
 10
0.0
 20
0.0
 30
0.0
  0
VERTEX
  5
1884
  8
SAPA_FOGBAND
 10
17.050000000019558
 20
13.35000000001466
 30
0.0
  0
VERTEX
  5
1885
  8
SAPA_FOGBAND
 10
20.50000000001938
 20
13.240002614832409
 30
0.0
  0
VERTEX
  5
1886
  8
SAPA_FOGBAND
 10
20.50000000001938
 20
10.801909274410249
 30
0.0
  0
VERTEX
  5
1887
  8
SAPA_FOGBAND
 10
17.050000000019558
 20
11.92731039687507
 30
0.0
  0
SEQEND
  5
1888
  8
SAPA_FOGBAND
  0
POLYLINE
  5
10FE
  8
SAPA_FOGBAND
 66
     1
 10
0.0
 20
0.0
 30
0.0
 70
     1
  0
VERTEX
  5
1889
  8
SAPA_FOGBAND
 10
16.25000000001938
 20
1.850000000003021
 30
0.0
  0
VERTEX
  5
188A
  8
SAPA_FOGBAND
 10
17.050000000019558
 20
1.850000000003021
 30
0.0
  0
VERTEX
  5
188B
  8
SAPA_FOGBAND
 10
17.050000000019558
 20
8.1500000000001052
 30
0.0
  0
VERTEX
  5
188C
  8
SAPA_FOGBAND
 10
16.25000000001938
 20
8.1500000000001052
 30
0.0
  0
SEQEND
  5
188D
  8
SAPA_FOGBAND
  0
POLYLINE
  5
10FF
  8
SAPA_FOGBAND
 66
     1
 10
0.0
 20
0.0
 30
0.0
  0
VERTEX
  5
188E
  8
SAPA_FOGBAND
 10
17.050000000019558
 20
6.5726896031426048
 30
0.0
  0
VERTEX
  5
188F
  8
SAPA_FOGBAND
 10
20.50000000001938
 20
7.698136200458527
 30
0.0
  0
VERTEX
  5
1890
  8
SAPA_FOGBAND
 10
20.50000000001938
 20
5.25999815390999
 30
0.0
  0
VERTEX
  5
1891
  8
SAPA_FOGBAND
 10
17.050000000019558
 20
5.1500000000030184
 30
0.0
  0
SEQEND
  5
1892
  8
SAPA_FOGBAND
  0
POLYLINE
  5
1100
  8
SAPA_FOGBAND
 66
     1
 10
0.0
 20
0.0
 30
0.0
  0
VERTEX
  5
1893
  8
SAPA_FOGBAND
 10
17.050000000019558
 20
5.0750000000022899
 30
0.0
  0
VERTEX
  5
1894
  8
SAPA_FOGBAND
 10
20.50000000001938
 20
5.0749999999990161
 30
0.0
  0
VERTEX
  5
1895
  8
SAPA_FOGBAND
 10
20.50000000001938
 20
4.9250000000008294
 30
0.0
  0
VERTEX
  5
1896
  8
SAPA_FOGBAND
 10
17.050000000019558
 20
4.9250000000008347
 30
0.0
  0
SEQEND
  5
1897
  8
SAPA_FOGBAND
  0
POLYLINE
  5
1101
  8
SAPA_FOGBAND
 66
     1
 10
0.0
 20
0.0
 30
0.0
  0
VERTEX
  5
1898
  8
SAPA_FOGBAND
 10
17.050000000019558
 20
4.850000000000108
 30
0.0
  0
VERTEX
  5
1899
  8
SAPA_FOGBAND
 10
20.50000000001938
 20
4.7400026148178611
 30
0.0
  0
VERTEX
  5
189A
  8
SAPA_FOGBAND
 10
20.50000000001938
 20
2.3019092743956979
 30
0.0
  0
VERTEX
  5
189B
  8
SAPA_FOGBAND
 10
17.050000000019558
 20
3.427310396860519
 30
0.0
  0
SEQEND
  5
189C
  8
SAPA_FOGBAND
  0
POLYLINE
  5
1102
  8
SAPA_FOGBAND
 66
     1
 10
0.0
 20
0.0
 30
0.0
 70
     1
  0
VERTEX
  5
189D
  8
SAPA_FOGBAND
 10
71.749999999681705
 20
10.56855881185332
 30
0.0
  0
VERTEX
  5
189E
  8
SAPA_FOGBAND
 10
70.949999999681538
 20
10.56855881185332
 30
0.0
  0
VERTEX
  5
189F
  8
SAPA_FOGBAND
 10
70.949999999681538
 20
16.868558811850399
 30
0.0
  0
VERTEX
  5
18A0
  8
SAPA_FOGBAND
 10
71.749999999681705
 20
16.868558811850399
 30
0.0
  0
SEQEND
  5
18A1
  8
SAPA_FOGBAND
  0
POLYLINE
  5
1103
  8
SAPA_FOGBAND
 66
     1
 10
0.0
 20
0.0
 30
0.0
  0
VERTEX
  5
18A2
  8
SAPA_FOGBAND
 10
70.949999999681538
 20
15.291248414992911
 30
0.0
  0
VERTEX
  5
18A3
  8
SAPA_FOGBAND
 10
67.499999999681719
 20
16.416695012308828
 30
0.0
  0
VERTEX
  5
18A4
  8
SAPA_FOGBAND
 10
67.499999999681719
 20
13.978556965760291
 30
0.0
  0
VERTEX
  5
18A5
  8
SAPA_FOGBAND
 10
70.949999999681538
 20
13.868558811853321
 30
0.0
  0
SEQEND
  5
18A6
  8
SAPA_FOGBAND
  0
POLYLINE
  5
1104
  8
SAPA_FOGBAND
 66
     1
 10
0.0
 20
0.0
 30
0.0
  0
VERTEX
  5
18A7
  8
SAPA_FOGBAND
 10
70.949999999681538
 20
13.79355881185259
 30
0.0
  0
VERTEX
  5
18A8
  8
SAPA_FOGBAND
 10
67.499999999681719
 20
13.793558811849319
 30
0.0
  0
VERTEX
  5
18A9
  8
SAPA_FOGBAND
 10
67.499999999681719
 20
13.643558811851131
 30
0.0
  0
VERTEX
  5
18AA
  8
SAPA_FOGBAND
 10
70.949999999681538
 20
13.643558811851131
 30
0.0
  0
SEQEND
  5
18AB
  8
SAPA_FOGBAND
  0
POLYLINE
  5
1105
  8
SAPA_FOGBAND
 66
     1
 10
0.0
 20
0.0
 30
0.0
  0
VERTEX
  5
18AC
  8
SAPA_FOGBAND
 10
70.949999999681538
 20
13.56855881185041
 30
0.0
  0
VERTEX
  5
18AD
  8
SAPA_FOGBAND
 10
67.499999999681719
 20
13.45856142666816
 30
0.0
  0
VERTEX
  5
18AE
  8
SAPA_FOGBAND
 10
67.499999999681719
 20
11.020468086246
 30
0.0
  0
VERTEX
  5
18AF
  8
SAPA_FOGBAND
 10
70.949999999681538
 20
12.14586920871082
 30
0.0
  0
SEQEND
  5
18B0
  8
SAPA_FOGBAND
  0
POLYLINE
  5
1106
  8
SAPA_FOGBAND
 66
     1
 10
0.0
 20
0.0
 30
0.0
 70
     1
  0
VERTEX
  5
18B1
  8
SAPA_FOGBAND
 10
71.749999999681705
 20
2.068558811838769
 30
0.0
  0
VERTEX
  5
18B2
  8
SAPA_FOGBAND
 10
70.949999999681538
 20
2.068558811838769
 30
0.0
  0
VERTEX
  5
18B3
  8
SAPA_FOGBAND
 10
70.949999999681538
 20
8.3685588118358538
 30
0.0
  0
VERTEX
  5
18B4
  8
SAPA_FOGBAND
 10
71.749999999681705
 20
8.3685588118358538
 30
0.0
  0
SEQEND
  5
18B5
  8
SAPA_FOGBAND
  0
POLYLINE
  5
1107
  8
SAPA_FOGBAND
 66
     1
 10
0.0
 20
0.0
 30
0.0
  0
VERTEX
  5
18B6
  8
SAPA_FOGBAND
 10
70.949999999681538
 20
6.7912484149783543
 30
0.0
  0
VERTEX
  5
18B7
  8
SAPA_FOGBAND
 10
67.499999999681719
 20
7.9166950122942774
 30
0.0
  0
VERTEX
  5
18B8
  8
SAPA_FOGBAND
 10
67.499999999681719
 20
5.4785569657457396
 30
0.0
  0
VERTEX
  5
18B9
  8
SAPA_FOGBAND
 10
70.949999999681538
 20
5.368558811838767
 30
0.0
  0
SEQEND
  5
18BA
  8
SAPA_FOGBAND
  0
POLYLINE
  5
1108
  8
SAPA_FOGBAND
 66
     1
 10
0.0
 20
0.0
 30
0.0
  0
VERTEX
  5
18BB
  8
SAPA_FOGBAND
 10
70.949999999681538
 20
5.2935588118380386
 30
0.0
  0
VERTEX
  5
18BC
  8
SAPA_FOGBAND
 10
67.499999999681719
 20
5.2935588118347647
 30
0.0
  0
VERTEX
  5
18BD
  8
SAPA_FOGBAND
 10
67.499999999681719
 20
5.143558811836578
 30
0.0
  0
VERTEX
  5
18BE
  8
SAPA_FOGBAND
 10
70.949999999681538
 20
5.1435588118365843
 30
0.0
  0
SEQEND
  5
18BF
  8
SAPA_FOGBAND
  0
POLYLINE
  5
1109
  8
SAPA_FOGBAND
 66
     1
 10
0.0
 20
0.0
 30
0.0
  0
VERTEX
  5
18C0
  8
SAPA_FOGBAND
 10
70.949999999681538
 20
5.0685588118358558
 30
0.0
  0
VERTEX
  5
18C1
  8
SAPA_FOGBAND
 10
67.499999999681719
 20
4.9585614266536107
 30
0.0
  0
VERTEX
  5
18C2
  8
SAPA_FOGBAND
 10
67.499999999681719
 20
2.5204680862314479
 30
0.0
  0
VERTEX
  5
18C3
  8
SAPA_FOGBAND
 10
70.949999999681538
 20
3.6458692086962681
 30
0.0
  0
SEQEND
  5
18C4
  8
SAPA_FOGBAND
  0
POLYLINE
  5
110A
  8
SAPA_FOGBAND
 66
     1
 10
0.0
 20
0.0
 30
0.0
 70
     1
  0
VERTEX
  5
18C5
  8
SAPA_FOGBAND
 10
136.7499999277403
 20
1.850000000003049
 30
0.0
  0
VERTEX
  5
18C6
  8
SAPA_FOGBAND
 10
135.94999992774009
 20
1.850000000003049
 30
0.0
  0
VERTEX
  5
18C7
  8
SAPA_FOGBAND
 10
135.94999992774009
 20
8.1500000000001336
 30
0.0
  0
VERTEX
  5
18C8
  8
SAPA_FOGBAND
 10
136.7499999277403
 20
8.1500000000001336
 30
0.0
  0
SEQEND
  5
18C9
  8
SAPA_FOGBAND
  0
POLYLINE
  5
110B
  8
SAPA_FOGBAND
 66
     1
 10
0.0
 20
0.0
 30
0.0
  0
VERTEX
  5
18CA
  8
SAPA_FOGBAND
 10
135.94999992774009
 20
6.5726896031426341
 30
0.0
  0
VERTEX
  5
18CB
  8
SAPA_FOGBAND
 10
132.4999999277403
 20
7.6981362004585572
 30
0.0
  0
VERTEX
  5
18CC
  8
SAPA_FOGBAND
 10
132.4999999277403
 20
5.2599981539100202
 30
0.0
  0
VERTEX
  5
18CD
  8
SAPA_FOGBAND
 10
135.94999992774009
 20
5.1500000000030459
 30
0.0
  0
SEQEND
  5
18CE
  8
SAPA_FOGBAND
  0
POLYLINE
  5
110C
  8
SAPA_FOGBAND
 66
     1
 10
0.0
 20
0.0
 30
0.0
  0
VERTEX
  5
18CF
  8
SAPA_FOGBAND
 10
135.94999992774009
 20
5.0750000000023192
 30
0.0
  0
VERTEX
  5
18D0
  8
SAPA_FOGBAND
 10
132.4999999277403
 20
5.0749999999990454
 30
0.0
  0
VERTEX
  5
18D1
  8
SAPA_FOGBAND
 10
132.4999999277403
 20
4.9250000000008578
 30
0.0
  0
VERTEX
  5
18D2
  8
SAPA_FOGBAND
 10
135.94999992774009
 20
4.925000000000864
 30
0.0
  0
SEQEND
  5
18D3
  8
SAPA_FOGBAND
  0
POLYLINE
  5
110D
  8
SAPA_FOGBAND
 66
     1
 10
0.0
 20
0.0
 30
0.0
  0
VERTEX
  5
18D4
  8
SAPA_FOGBAND
 10
135.94999992774009
 20
4.8500000000001364
 30
0.0
  0
VERTEX
  5
18D5
  8
SAPA_FOGBAND
 10
132.4999999277403
 20
4.7400026148178913
 30
0.0
  0
VERTEX
  5
18D6
  8
SAPA_FOGBAND
 10
132.4999999277403
 20
2.3019092743957281
 30
0.0
  0
VERTEX
  5
18D7
  8
SAPA_FOGBAND
 10
135.94999992774009
 20
3.4273103968605478
 30
0.0
  0
SEQEND
  5
18D8
  8
SAPA_FOGBAND
  0
POLYLINE
  5
110E
  8
SAPA_FOGBAND
 66
     1
 10
0.0
 20
0.0
 30
0.0
 70
     1
  0
VERTEX
  5
18D9
  8
SAPA_FOGBAND
 10
81.249999999932953
 20
10.56855881185332
 30
0.0
  0
VERTEX
  5
18DA
  8
SAPA_FOGBAND
 10
82.049999999933135
 20
10.56855881185332
 30
0.0
  0
VERTEX
  5
18DB
  8
SAPA_FOGBAND
 10
82.049999999933135
 20
16.868558811850399
 30
0.0
  0
VERTEX
  5
18DC
  8
SAPA_FOGBAND
 10
81.249999999932953
 20
16.868558811850399
 30
0.0
  0
SEQEND
  5
18DD
  8
SAPA_FOGBAND
  0
POLYLINE
  5
110F
  8
SAPA_FOGBAND
 66
     1
 10
0.0
 20
0.0
 30
0.0
  0
VERTEX
  5
18DE
  8
SAPA_FOGBAND
 10
82.049999999933135
 20
15.291248414992911
 30
0.0
  0
VERTEX
  5
18DF
  8
SAPA_FOGBAND
 10
85.499999999932939
 20
16.416695012308828
 30
0.0
  0
VERTEX
  5
18E0
  8
SAPA_FOGBAND
 10
85.499999999932939
 20
13.978556965760291
 30
0.0
  0
VERTEX
  5
18E1
  8
SAPA_FOGBAND
 10
82.049999999933135
 20
13.868558811853321
 30
0.0
  0
SEQEND
  5
18E2
  8
SAPA_FOGBAND
  0
POLYLINE
  5
1110
  8
SAPA_FOGBAND
 66
     1
 10
0.0
 20
0.0
 30
0.0
  0
VERTEX
  5
18E3
  8
SAPA_FOGBAND
 10
82.049999999933135
 20
13.79355881185259
 30
0.0
  0
VERTEX
  5
18E4
  8
SAPA_FOGBAND
 10
85.499999999932939
 20
13.79355881184931
 30
0.0
  0
VERTEX
  5
18E5
  8
SAPA_FOGBAND
 10
85.499999999932939
 20
13.643558811851131
 30
0.0
  0
VERTEX
  5
18E6
  8
SAPA_FOGBAND
 10
82.049999999933135
 20
13.643558811851131
 30
0.0
  0
SEQEND
  5
18E7
  8
SAPA_FOGBAND
  0
POLYLINE
  5
1111
  8
SAPA_FOGBAND
 66
     1
 10
0.0
 20
0.0
 30
0.0
  0
VERTEX
  5
18E8
  8
SAPA_FOGBAND
 10
82.049999999933135
 20
13.56855881185041
 30
0.0
  0
VERTEX
  5
18E9
  8
SAPA_FOGBAND
 10
85.499999999932939
 20
13.45856142666816
 30
0.0
  0
VERTEX
  5
18EA
  8
SAPA_FOGBAND
 10
85.499999999932939
 20
11.020468086246
 30
0.0
  0
VERTEX
  5
18EB
  8
SAPA_FOGBAND
 10
82.049999999933135
 20
12.14586920871082
 30
0.0
  0
SEQEND
  5
18EC
  8
SAPA_FOGBAND
  0
POLYLINE
  5
1112
  8
SAPA_FOGBAND
 66
     1
 10
0.0
 20
0.0
 30
0.0
 70
     1
  0
VERTEX
  5
18ED
  8
SAPA_FOGBAND
 10
81.249999999932953
 20
2.068558811838769
 30
0.0
  0
VERTEX
  5
18EE
  8
SAPA_FOGBAND
 10
82.049999999933135
 20
2.068558811838769
 30
0.0
  0
VERTEX
  5
18EF
  8
SAPA_FOGBAND
 10
82.049999999933135
 20
8.3685588118358538
 30
0.0
  0
VERTEX
  5
18F0
  8
SAPA_FOGBAND
 10
81.249999999932953
 20
8.3685588118358538
 30
0.0
  0
SEQEND
  5
18F1
  8
SAPA_FOGBAND
  0
POLYLINE
  5
1113
  8
SAPA_FOGBAND
 66
     1
 10
0.0
 20
0.0
 30
0.0
  0
VERTEX
  5
18F2
  8
SAPA_FOGBAND
 10
82.049999999933135
 20
6.7912484149783543
 30
0.0
  0
VERTEX
  5
18F3
  8
SAPA_FOGBAND
 10
85.499999999932939
 20
7.9166950122942756
 30
0.0
  0
VERTEX
  5
18F4
  8
SAPA_FOGBAND
 10
85.499999999932939
 20
5.4785569657457378
 30
0.0
  0
VERTEX
  5
18F5
  8
SAPA_FOGBAND
 10
82.049999999933135
 20
5.368558811838767
 30
0.0
  0
SEQEND
  5
18F6
  8
SAPA_FOGBAND
  0
POLYLINE
  5
1114
  8
SAPA_FOGBAND
 66
     1
 10
0.0
 20
0.0
 30
0.0
  0
VERTEX
  5
18F7
  8
SAPA_FOGBAND
 10
82.049999999933135
 20
5.2935588118380386
 30
0.0
  0
VERTEX
  5
18F8
  8
SAPA_FOGBAND
 10
85.499999999932939
 20
5.2935588118347638
 30
0.0
  0
VERTEX
  5
18F9
  8
SAPA_FOGBAND
 10
85.499999999932939
 20
5.143558811836578
 30
0.0
  0
VERTEX
  5
18FA
  8
SAPA_FOGBAND
 10
82.049999999933135
 20
5.1435588118365843
 30
0.0
  0
SEQEND
  5
18FB
  8
SAPA_FOGBAND
  0
POLYLINE
  5
1115
  8
SAPA_FOGBAND
 66
     1
 10
0.0
 20
0.0
 30
0.0
  0
VERTEX
  5
18FC
  8
SAPA_FOGBAND
 10
82.049999999933135
 20
5.0685588118358558
 30
0.0
  0
VERTEX
  5
18FD
  8
SAPA_FOGBAND
 10
85.499999999932939
 20
4.9585614266536089
 30
0.0
  0
VERTEX
  5
18FE
  8
SAPA_FOGBAND
 10
85.499999999932939
 20
2.520468086231447
 30
0.0
  0
VERTEX
  5
18FF
  8
SAPA_FOGBAND
 10
82.049999999933135
 20
3.6458692086962681
 30
0.0
  0
SEQEND
  5
1900
  8
SAPA_FOGBAND
  0
POLYLINE
  5
1116
  8
SAPA_FOGBAND
 66
     1
 10
0.0
 20
0.0
 30
0.0
 70
     1
  0
VERTEX
  5
1901
  8
SAPA_FOGBAND
 10
136.7499999277403
 20
10.3500000000176
 30
0.0
  0
VERTEX
  5
1902
  8
SAPA_FOGBAND
 10
135.94999992774009
 20
10.3500000000176
 30
0.0
  0
VERTEX
  5
1903
  8
SAPA_FOGBAND
 10
135.94999992774009
 20
16.650000000014678
 30
0.0
  0
VERTEX
  5
1904
  8
SAPA_FOGBAND
 10
136.7499999277403
 20
16.650000000014678
 30
0.0
  0
SEQEND
  5
1905
  8
SAPA_FOGBAND
  0
POLYLINE
  5
1117
  8
SAPA_FOGBAND
 66
     1
 10
0.0
 20
0.0
 30
0.0
  0
VERTEX
  5
1906
  8
SAPA_FOGBAND
 10
135.94999992774009
 20
15.07268960315719
 30
0.0
  0
VERTEX
  5
1907
  8
SAPA_FOGBAND
 10
132.4999999277403
 20
16.198136200473112
 30
0.0
  0
VERTEX
  5
1908
  8
SAPA_FOGBAND
 10
132.4999999277403
 20
13.75999815392457
 30
0.0
  0
VERTEX
  5
1909
  8
SAPA_FOGBAND
 10
135.94999992774009
 20
13.6500000000176
 30
0.0
  0
SEQEND
  5
190A
  8
SAPA_FOGBAND
  0
POLYLINE
  5
1118
  8
SAPA_FOGBAND
 66
     1
 10
0.0
 20
0.0
 30
0.0
  0
VERTEX
  5
190B
  8
SAPA_FOGBAND
 10
135.94999992774009
 20
13.575000000016869
 30
0.0
  0
VERTEX
  5
190C
  8
SAPA_FOGBAND
 10
132.4999999277403
 20
13.57500000001359
 30
0.0
  0
VERTEX
  5
190D
  8
SAPA_FOGBAND
 10
132.4999999277403
 20
13.425000000015411
 30
0.0
  0
VERTEX
  5
190E
  8
SAPA_FOGBAND
 10
135.94999992774009
 20
13.425000000015411
 30
0.0
  0
SEQEND
  5
190F
  8
SAPA_FOGBAND
  0
POLYLINE
  5
1119
  8
SAPA_FOGBAND
 66
     1
 10
0.0
 20
0.0
 30
0.0
  0
VERTEX
  5
1910
  8
SAPA_FOGBAND
 10
135.94999992774009
 20
13.35000000001469
 30
0.0
  0
VERTEX
  5
1911
  8
SAPA_FOGBAND
 10
132.4999999277403
 20
13.24000261483244
 30
0.0
  0
VERTEX
  5
1912
  8
SAPA_FOGBAND
 10
132.4999999277403
 20
10.80190927441028
 30
0.0
  0
VERTEX
  5
1913
  8
SAPA_FOGBAND
 10
135.94999992774009
 20
11.9273103968751
 30
0.0
  0
SEQEND
  5
1914
  8
SAPA_FOGBAND
  0
DIMENSION
  5
1125
  8
SAPA_MATT
  2
*D30
 10
180.9999998560163
 20
59.999999999999972
 30
0.0
 11
178.24999985601639
 21
27.49999999999811
 31
0.0
 70
     0
 13
130.74999992770421
 23
-5.0000000000038076
 33
0.0
 14
138.6999998560062
 24
59.999999999999993
 34
0.0
 50
270.0
1001
ACAD
1000
DSTYLE
1002
{
1070
    40
1040
1.0
1002
}
  0
DIMENSION
  5
1126
  8
SAPA_MATT
  2
*D29
 10
168.99999985601639
 20
0.0000000000000906
 30
0.0
 11
166.24999985601639
 21
30.00000000000006
 31
0.0
 70
     0
 13
138.6999998560062
 23
59.999999999999993
 33
0.0
 14
137.4999998560163
 24
0.0000000000000995
 34
0.0
 50
270.0
1001
ACAD
1000
DSTYLE
1002
{
1070
    40
1040
1.0
1002
}
  0
DIMENSION
  5
1127
  8
SAPA_MATT
  2
*D28
 10
168.99999992776381
 20
-5.0000000000038192
 30
0.0
 11
166.24999992776381
 21
-2.5000000000018372
 31
0.0
 70
     0
 13
137.4999999277637
 23
0.0000000000000995
 33
0.0
 14
130.74999992770421
 24
-5.0000000000038076
 34
0.0
 50
270.0
1001
ACAD
1000
DSTYLE
1002
{
1070
   287
1070
     4
1070
    40
1040
1.0
1070
   279
1070
     1
1002
}
  0
DIMENSION
  5
1128
  8
SAPA_MATT
  2
*D27
 10
138.9999999995112
 20
-55.999999999999972
 30
0.0
 11
76.499999999760234
 21
-55.999999999999972
 31
0.0
 70
   128
 13
14.00000000000907
 23
1.500000000000099
 33
0.0
 14
138.9999999995112
 24
-0.4999999999998721
 34
0.0
1001
ACAD
1000
DSTYLE
1002
{
1070
    40
1040
1.0
1002
}
  0
DIMENSION
  5
1129
  8
SAPA_MATT
  2
*D26
 10
138.9999999995112
 20
-44.000000000000007
 30
0.0
 11
135.74999996359821
 21
-44.000000000000007
 31
0.0
 70
   128
 13
132.49999999933451
 23
10.000000000159609
 33
0.0
 14
138.9999999995112
 24
-0.4999999999998721
 34
0.0
1001
ACAD
1000
DSTYLE
1002
{
1070
   287
1070
     4
1070
    40
1040
1.0
1070
   279
1070
     1
1002
}
  0
DIMENSION
  5
112A
  8
SAPA_MATT
  2
*D25
 10
132.49999999933451
 20
-44.0
 30
0.0
 11
108.9999999996803
 21
-41.25
 31
0.0
 70
     0
 13
85.500000000026176
 23
10.00000000017439
 33
0.0
 14
132.49999999933451
 24
10.000000000159609
 34
0.0
1001
ACAD
1000
DSTYLE
1002
{
1070
   287
1070
     4
1070
    40
1040
1.0
1070
   279
1070
     1
1002
}
  0
DIMENSION
  5
112B
  8
SAPA_MATT
  2
*D24
 10
85.500000000026176
 20
-44.0
 30
0.0
 11
49.750000000017621
 21
-44.0
 31
0.0
 70
   128
 13
14.00000000000907
 23
1.500000000000099
 33
0.0
 14
85.500000000026176
 24
10.00000000017439
 34
0.0
1001
ACAD
1000
DSTYLE
1002
{
1070
    40
1040
1.0
1002
}
  0
VIEWPORT
  5
C4
 67
     1
  8
0
 10
160.5543545598442
 20
116.00969601843509
 30
0.0
 40
404.96977709277462
 41
256.8421457311839
 68
     1
 69
     1
1001
ACAD
1000
MVIEW
1002
{
1070
    16
1010
0.0
1020
0.0
1030
0.0
1010
0.0
1020
0.0
1030
1.0
1040
0.0
1040
256.8421457311839
1040
99.206250190734863
1040
130.70624923706049
1040
50.0
1040
0.0
1040
0.0
1070
     0
1070
     0
1070
     1
1070
     1
1070
     0
1070
     0
1070
     0
1070
     0
1040
0.0
1040
0.0
1040
0.0
1040
10.0
1040
10.0
1040
10.0
1040
10.0
1070
     0
1002
{
1002
}
1002
}
  0
ENDSEC
  0
EOF
