  0
SECTION
  2
HEADER
  9
$ACADVER
  1
AC1009
  9
$INSBASE
 10
0.0
 20
0.0
 30
0.0
  9
$EXTMIN
 10
-36.491479059085243
 20
-111.29283270961361
 30
-0.2
  9
$EXTMAX
 10
194.0032559343997
 20
119.2500000000001
 30
0.0000000048844772
  9
$LIMMIN
 10
0.0
 20
0.0
  9
$LIMMAX
 10
790.0
 20
790.0
  9
$ORTHOMODE
 70
     1
  9
$REGENMODE
 70
     1
  9
$FILLMODE
 70
     1
  9
$QTEXTMODE
 70
     0
  9
$MIRRTEXT
 70
     1
  9
$DRAGMODE
 70
     2
  9
$LTSCALE
 40
4.0
  9
$OSMODE
 70
    37
  9
$ATTMODE
 70
     1
  9
$TEXTSIZE
 40
3.5
  9
$TRACEWID
 40
0.05
  9
$TEXTSTYLE
  7
ISO
  9
$CLAYER
  8
0
  9
$CELTYPE
  6
BYLAYER
  9
$CECOLOR
 62
   256
  9
$DIMSCALE
 40
0.0
  9
$DIMASZ
 40
3.0
  9
$DIMEXO
 40
1.5
  9
$DIMDLI
 40
10.0
  9
$DIMRND
 40
0.0
  9
$DIMDLE
 40
0.0
  9
$DIMEXE
 40
1.5
  9
$DIMTP
 40
0.0
  9
$DIMTM
 40
0.0
  9
$DIMTXT
 40
3.5
  9
$DIMCEN
 40
-5.0
  9
$DIMTSZ
 40
0.0
  9
$DIMTOL
 70
     0
  9
$DIMLIM
 70
     0
  9
$DIMTIH
 70
     0
  9
$DIMTOH
 70
     0
  9
$DIMSE1
 70
     0
  9
$DIMSE2
 70
     0
  9
$DIMTAD
 70
     1
  9
$DIMZIN
 70
     8
  9
$DIMBLK
  1

  9
$DIMASO
 70
     1
  9
$DIMSHO
 70
     1
  9
$DIMPOST
  1

  9
$DIMAPOST
  1

  9
$DIMALT
 70
     0
  9
$DIMALTD
 70
     0
  9
$DIMALTF
 40
25.399999999999999
  9
$DIMLFAC
 40
-1.0
  9
$DIMTOFL
 70
     1
  9
$DIMTVP
 40
0.0
  9
$DIMTIX
 70
     0
  9
$DIMSOXD
 70
     0
  9
$DIMSAH
 70
     0
  9
$DIMBLK1
  1

  9
$DIMBLK2
  1

  9
$DIMSTYLE
  2
MASKIN
  9
$DIMCLRD
 70
   256
  9
$DIMCLRE
 70
   256
  9
$DIMCLRT
 70
     2
  9
$DIMTFAC
 40
1.0
  9
$DIMGAP
 40
1.0
  9
$LUNITS
 70
     2
  9
$LUPREC
 70
     8
  9
$SKETCHINC
 40
0.1
  9
$FILLETRAD
 40
0.0
  9
$AUNITS
 70
     0
  9
$AUPREC
 70
     8
  9
$MENU
  1
ACAD
  9
$ELEVATION
 40
0.0
  9
$PELEVATION
 40
0.0
  9
$THICKNESS
 40
0.0
  9
$LIMCHECK
 70
     0
  9
$BLIPMODE
 70
     0
  9
$CHAMFERA
 40
0.0
  9
$CHAMFERB
 40
0.0
  9
$SKPOLY
 70
     0
  9
$TDCREATE
 40
2455734.560015128
  9
$TDUPDATE
 40
2455782.4829637269
  9
$TDINDWG
 40
1.115398669
  9
$TDUSRTIMER
 40
1.1153984838
  9
$USRTIMER
 70
     1
  9
$ANGBASE
 50
0.0
  9
$ANGDIR
 70
     0
  9
$PDMODE
 70
     0
  9
$PDSIZE
 40
0.0
  9
$PLINEWID
 40
0.0
  9
$COORDS
 70
     1
  9
$SPLFRAME
 70
     0
  9
$SPLINETYPE
 70
     6
  9
$SPLINESEGS
 70
     8
  9
$ATTDIA
 70
     0
  9
$ATTREQ
 70
     1
  9
$HANDLING
 70
     1
  9
$HANDSEED
  5
1C99
  9
$SURFTAB1
 70
     6
  9
$SURFTAB2
 70
     6
  9
$SURFTYPE
 70
     6
  9
$SURFU
 70
     6
  9
$SURFV
 70
     6
  9
$UCSNAME
  2

  9
$UCSORG
 10
0.0
 20
0.0
 30
0.0
  9
$UCSXDIR
 10
1.0
 20
0.0
 30
0.0
  9
$UCSYDIR
 10
0.0
 20
1.0
 30
0.0
  9
$PUCSNAME
  2

  9
$PUCSORG
 10
0.0
 20
0.0
 30
0.0
  9
$PUCSXDIR
 10
1.0
 20
0.0
 30
0.0
  9
$PUCSYDIR
 10
0.0
 20
1.0
 30
0.0
  9
$USERI1
 70
     0
  9
$USERI2
 70
     0
  9
$USERI3
 70
     0
  9
$USERI4
 70
     0
  9
$USERI5
 70
     0
  9
$USERR1
 40
0.0
  9
$USERR2
 40
0.0
  9
$USERR3
 40
0.0
  9
$USERR4
 40
0.0
  9
$USERR5
 40
0.0
  9
$WORLDVIEW
 70
     1
  9
$SHADEDGE
 70
     3
  9
$SHADEDIF
 70
    70
  9
$TILEMODE
 70
     1
  9
$MAXACTVP
 70
    16
  9
$PLIMCHECK
 70
     0
  9
$PEXTMIN
 10
1.0000000000000000E+020
 20
1.0000000000000000E+020
 30
1.0000000000000000E+020
  9
$PEXTMAX
 10
-1.0000000000000000E+020
 20
-1.0000000000000000E+020
 30
-1.0000000000000000E+020
  9
$PLIMMIN
 10
-5.069427490234375
 20
-5.8737497329711914
  9
$PLIMMAX
 10
291.89889526367187
 20
204.0995779037475
  9
$UNITMODE
 70
     0
  9
$VISRETAIN
 70
     1
  9
$PLINEGEN
 70
     0
  9
$PSLTSCALE
 70
     1
  0
ENDSEC
  0
SECTION
  2
TABLES
  0
TABLE
  2
VPORT
 70
     1
  0
VPORT
  2
*ACTIVE
 70
     0
 10
0.0
 20
0.0
 11
1.0
 21
1.0
 12
84.840127480286924
 22
3.991820113743187
 13
0.0
 23
0.0
 14
1.0
 24
1.0
 15
0.0
 25
0.0
 16
0.0
 26
0.0
 36
1.0
 17
0.0
 27
0.0
 37
0.0
 40
232.3584250793923
 41
2.362397820163487
 42
50.0
 43
0.0
 44
0.0
 50
0.0
 51
0.0
 71
     0
 72
   100
 73
     1
 74
     1
 75
     0
 76
     0
 77
     0
 78
     0
  0
ENDTAB
  0
TABLE
  2
LTYPE
 70
     3
  0
LTYPE
  2
CONTINUOUS
 70
     0
  3
Solid line
 72
    65
 73
     0
 40
0.0
  0
LTYPE
  2
BYGG-027377$0$NEWDOT
 70
     0
  3
____ . ____ . ____ . ____ . ____ . ____ . ____
 72
    65
 73
     4
 40
2.0
 49
1.0
 49
-0.5
 49
0.0
 49
-0.5
  0
LTYPE
  2
BYGG-027379$0$NEWDOT
 70
     0
  3
____ . ____ . ____ . ____ . ____ . ____ . ____
 72
    65
 73
     4
 40
2.0
 49
1.0
 49
-0.5
 49
0.0
 49
-0.5
  0
ENDTAB
  0
TABLE
  2
LAYER
 70
    31
  0
LAYER
  2
0
 70
     0
 62
     7
  6
CONTINUOUS
  0
LAYER
  2
DEFPOINTS
 70
     0
 62
     7
  6
CONTINUOUS
  0
LAYER
  2
SAPA_ARTIKELNR
 70
     0
 62
     4
  6
CONTINUOUS
  0
LAYER
  2
SAPA_GLAS
 70
     0
 62
     4
  6
CONTINUOUS
  0
LAYER
  2
SAPA_ANSLUTNING
 70
     0
 62
     6
  6
CONTINUOUS
  0
LAYER
  2
SAPA_MATT
 70
     0
 62
     1
  6
CONTINUOUS
  0
LAYER
  2
SAPA_FOGBAND
 70
     0
 62
     2
  6
CONTINUOUS
  0
LAYER
  2
SAPA_PROFIL
 70
     0
 62
     7
  6
CONTINUOUS
  0
ENDTAB
  0
TABLE
  2
STYLE
 70
    12
  0
STYLE
  2
STANDARD
 70
     0
 40
0.0
 41
1.0
 50
0.0
 71
     0
 42
0.2
  3
txt
  4

  0
STYLE
  2
ISO
 70
     0
 40
0.0
 41
1.0
 50
0.0
 71
     0
 42
3.5
  3
txt
  4

  0
STYLE
  2
BYGG-027459$0$STANDARD
 70
     0
 40
0.0
 41
1.0
 50
0.0
 71
     0
 42
0.2
  3
txt
  4

  0
STYLE
  2
BYGG-027459$0$ISO
 70
     0
 40
0.0
 41
1.0
 50
0.0
 71
     0
 42
3.5
  3
txt
  4

  0
STYLE
  2
BYGG-027377$0$STANDARD
 70
     0
 40
0.0
 41
1.0
 50
0.0
 71
     0
 42
0.2
  3
txt
  4

  0
STYLE
  2
BYGG-027377$0$ISO
 70
     0
 40
0.0
 41
1.0
 50
0.0
 71
     0
 42
3.5
  3
txt
  4

  0
STYLE
  2
BYGG-027396$0$STANDARD
 70
     0
 40
0.0
 41
1.0
 50
0.0
 71
     0
 42
0.2
  3
txt
  4

  0
STYLE
  2
BYGG-027396$0$ISO
 70
     0
 40
0.0
 41
1.0
 50
0.0
 71
     0
 42
3.5
  3
txt
  4

  0
STYLE
  2
BYGG-027379$0$STANDARD
 70
     0
 40
0.0
 41
1.0
 50
0.0
 71
     0
 42
0.2
  3
txt
  4

  0
STYLE
  2
BYGG-027379$0$ISO
 70
     0
 40
0.0
 41
1.0
 50
0.0
 71
     0
 42
3.5
  3
txt
  4

  0
STYLE
  2
BYGG-027392$0$STANDARD
 70
     0
 40
0.0
 41
1.0
 50
0.0
 71
     0
 42
0.2
  3
txt
  4

  0
STYLE
  2
BYGG-027392$0$ISO
 70
     0
 40
0.0
 41
1.0
 50
0.0
 71
     0
 42
3.5
  3
txt
  4

  0
ENDTAB
  0
TABLE
  2
VIEW
 70
     0
  0
ENDTAB
  0
TABLE
  2
UCS
 70
     0
  0
ENDTAB
  0
TABLE
  2
APPID
 70
    23
  0
APPID
  2
ACAD
 70
     0
  0
APPID
  2
ACAD_DSTYLE_DIMTEXT_FILL
 70
     0
  0
APPID
  2
ACAD_DSTYLE_DIMEXT_LENGTH
 70
     0
  0
APPID
  2
ACAD_DSTYLE_DIMEXT_ENABLED
 70
     0
  0
APPID
  2
ACAD_DSTYLE_DIM_LINETYPE
 70
     0
  0
APPID
  2
ACAD_DSTYLE_DIM_EXT1_LINETYPE
 70
     0
  0
APPID
  2
ACAD_DSTYLE_DIM_EXT2_LINETYPE
 70
     0
  0
APPID
  2
ACAD_DSTYLE_DIMJOGGED_JOGA
 70
     0
  0
APPID
  2
ACAD_DSTYLE_DIMARC_LENGTH_
 70
     0
  0
APPID
  2
ACAD_PSEXT
 70
     0
  0
APPID
  2
ACAD_MLEADERVER
 70
     0
  0
APPID
  2
GENIUS_GENODEF_13
 70
     0
  0
APPID
  2
RC_PROFILE
 70
     0
  0
APPID
  2
ACAECLAYERSTANDARD
 70
     0
  0
APPID
  2
GENIUS_GENOBJ-N-FIL_13
 70
     0
  0
APPID
  2
ACADANNOTATIVE
 70
     0
  0
APPID
  2
ACAD_EXEMPT_FROM_CAD_STANDARDS
 70
     0
  0
APPID
  2
AEC_XDATA_BOUND_SPACE
 70
     0
  0
APPID
  2
ACAD_DSTYLE_DIMJAG
 70
     0
  0
APPID
  2
ACAD_DSTYLE_DIMTALN
 70
     0
  0
APPID
  2
GENIUS_GENREC_14
 70
     0
  0
APPID
  2
GENIUS_GENOBJ-N-REC_13
 70
     0
  0
APPID
  2
GENIUS_GENOREF_13
 70
     0
  0
ENDTAB
  0
TABLE
  2
DIMSTYLE
 70
     6
  0
DIMSTYLE
  2
MASKIN
 70
     0
  3

  4

  5

  6

  7

 40
0.0
 41
3.0
 42
1.5
 43
10.0
 44
1.5
 45
0.0
 46
0.0
 47
0.0
 48
0.0
140
3.5
141
-5.0
142
0.0
143
25.399999999999999
144
-1.0
145
0.0
146
1.0
147
1.0
 71
     0
 72
     0
 73
     0
 74
     0
 75
     0
 76
     0
 77
     1
 78
     8
170
     0
171
     0
172
     1
173
     0
174
     0
175
     0
176
   256
177
   256
178
     2
  0
DIMSTYLE
  2
BYGG-027459$0$MASKIN
 70
     0
  3

  4

  5

  6

  7

 40
0.0
 41
3.0
 42
1.5
 43
10.0
 44
1.5
 45
0.0
 46
0.0
 47
0.0
 48
0.0
140
3.0
141
-5.0
142
0.0
143
25.399999999999999
144
-1.0
145
0.0
146
1.0
147
1.0
 71
     0
 72
     0
 73
     0
 74
     0
 75
     0
 76
     0
 77
     1
 78
     8
170
     0
171
     0
172
     1
173
     0
174
     0
175
     0
176
   256
177
   256
178
     2
  0
DIMSTYLE
  2
BYGG-027377$0$MASKIN
 70
     0
  3

  4

  5

  6

  7

 40
0.0
 41
3.0
 42
1.5
 43
10.0
 44
1.5
 45
0.0
 46
0.0
 47
0.0
 48
0.0
140
3.0
141
-5.0
142
0.0
143
25.399999999999999
144
-1.0
145
0.0
146
1.0
147
1.0
 71
     0
 72
     0
 73
     0
 74
     0
 75
     0
 76
     0
 77
     1
 78
     8
170
     0
171
     0
172
     1
173
     0
174
     0
175
     0
176
   256
177
   256
178
     2
  0
DIMSTYLE
  2
BYGG-027396$0$MASKIN
 70
     0
  3

  4

  5

  6

  7

 40
0.0
 41
3.0
 42
1.5
 43
10.0
 44
1.5
 45
0.0
 46
0.0
 47
0.0
 48
0.0
140
3.0
141
-5.0
142
0.0
143
25.399999999999999
144
-1.0
145
0.0
146
1.0
147
1.0
 71
     0
 72
     0
 73
     0
 74
     0
 75
     0
 76
     0
 77
     1
 78
     8
170
     0
171
     0
172
     1
173
     0
174
     0
175
     0
176
   256
177
   256
178
     2
  0
DIMSTYLE
  2
BYGG-027379$0$MASKIN
 70
     0
  3

  4

  5

  6

  7

 40
0.0
 41
3.0
 42
1.5
 43
10.0
 44
1.5
 45
0.0
 46
0.0
 47
0.0
 48
0.0
140
3.0
141
-5.0
142
0.0
143
25.399999999999999
144
-1.0
145
0.0
146
1.0
147
1.0
 71
     0
 72
     0
 73
     0
 74
     0
 75
     0
 76
     0
 77
     1
 78
     8
170
     0
171
     0
172
     1
173
     0
174
     0
175
     0
176
   256
177
   256
178
     2
  0
DIMSTYLE
  2
BYGG-027392$0$MASKIN
 70
     0
  3

  4

  5

  6

  7

 40
0.0
 41
3.0
 42
1.5
 43
10.0
 44
1.5
 45
0.0
 46
0.0
 47
0.0
 48
0.0
140
3.0
141
-5.0
142
0.0
143
25.399999999999999
144
-1.0
145
0.0
146
1.0
147
1.0
 71
     0
 72
     0
 73
     0
 74
     0
 75
     0
 76
     0
 77
     1
 78
     8
170
     0
171
     0
172
     1
173
     0
174
     0
175
     0
176
   256
177
   256
178
     2
  0
ENDTAB
  0
ENDSEC
  0
SECTION
  2
BLOCKS
  0
BLOCK
  8
0
  2
$MODEL_SPACE
 70
     0
 10
0.0
 20
0.0
 30
0.0
  3
$MODEL_SPACE
  1

  0
ENDBLK
  5
37
  8
0
  0
BLOCK
 67
     1
  8
0
  2
$PAPER_SPACE
 70
     0
 10
0.0
 20
0.0
 30
0.0
  3
$PAPER_SPACE
  1

  0
ENDBLK
  5
35
 67
     1
  8
0
  0
BLOCK
  8
0
  2
*D24
 70
     1
 10
0.0
 20
0.0
 30
0.0
  3
*D24
  1

  0
LINE
  5
101A
  8
SAPA_MATT
 10
139.12499999950211
 20
-56.999999999999972
 30
0.0
 11
170.49999999950211
 21
-56.999999999999979
 31
0.0
  0
LINE
  5
101B
  8
SAPA_MATT
 10
138.99999999950211
 20
60.0
 30
0.0
 11
170.49999999950211
 21
60.0
 31
0.0
  0
LINE
  5
101C
  8
SAPA_MATT
 10
168.99999999950211
 20
-53.999999999999979
 30
0.0
 11
168.99999999950211
 21
56.999999999999993
 31
0.0
  0
SOLID
  5
101D
  8
SAPA_MATT
 10
168.49999999950211
 20
-53.999999999999979
 30
0.0
 11
169.49999999950211
 21
-53.999999999999979
 31
0.0
 12
168.99999999950211
 22
-56.999999999999979
 32
0.0
 13
168.99999999950211
 23
-56.999999999999979
 33
0.0
  0
SOLID
  5
101E
  8
SAPA_MATT
 10
168.49999999950211
 20
56.999999999999993
 30
0.0
 11
169.49999999950211
 21
56.999999999999993
 31
0.0
 12
168.99999999950211
 22
60.0
 32
0.0
 13
168.99999999950211
 23
60.0
 33
0.0
  0
INSERT
  5
101F
  8
0
  2
*U62
 10
0.0
 20
0.0
 30
0.0
  0
POINT
  5
1020
  8
DEFPOINTS
 62
     0
 10
137.62499999950211
 20
-56.999999999999972
 30
0.0
  0
POINT
  5
1021
  8
DEFPOINTS
 62
     0
 10
137.49999999950211
 20
60.0
 30
0.0
  0
POINT
  5
1022
  8
DEFPOINTS
 62
     0
 10
168.99999999950211
 20
60.0
 30
0.0
  0
ENDBLK
  5
F8E
  8
0
  0
BLOCK
  8
0
  2
*D25
 70
     1
 10
0.0
 20
0.0
 30
0.0
  3
*D25
  1

  0
LINE
  5
1BFB
  8
SAPA_MATT
 10
138.99999999950211
 20
60.0
 30
0.0
 11
170.49999999950211
 21
60.0
 31
0.0
  0
LINE
  5
1BFC
  8
SAPA_MATT
 10
132.2499999995072
 20
70.000000000011042
 30
0.0
 11
170.49999999950211
 21
70.000000000011028
 31
0.0
  0
LINE
  5
1BFD
  8
SAPA_MATT
 10
168.99999999950211
 20
62.999999999999993
 30
0.0
 11
168.99999999950211
 21
67.000000000011028
 31
0.0
  0
SOLID
  5
1BFE
  8
SAPA_MATT
 10
168.49999999950211
 20
62.999999999999993
 30
0.0
 11
169.49999999950211
 21
62.999999999999993
 31
0.0
 12
168.99999999950211
 22
60.0
 32
0.0
 13
168.99999999950211
 23
60.0
 33
0.0
  0
SOLID
  5
1BFF
  8
SAPA_MATT
 10
168.49999999950211
 20
67.000000000011028
 30
0.0
 11
169.49999999950211
 21
67.000000000011028
 31
0.0
 12
168.99999999950211
 22
70.000000000011028
 32
0.0
 13
168.99999999950211
 23
70.000000000011028
 33
0.0
  0
TEXT
  8
SAPA_MATT
  40
3.5
  5
1C14
  62
2
  72
0
  71
0
 10
159.250
 20
58.8050
 30
0.000000
  1
10
  7
ISO
  0
POINT
  5
1C01
  8
DEFPOINTS
 62
     0
 10
137.49999999950211
 20
60.0
 30
0.0
  0
POINT
  5
1C02
  8
DEFPOINTS
 62
     0
 10
130.7499999995072
 20
70.000000000011042
 30
0.0
  0
POINT
  5
1C03
  8
DEFPOINTS
 62
     0
 10
168.99999999950211
 20
70.000000000011028
 30
0.0
  0
ENDBLK
  5
F9A
  8
0
  0
BLOCK
  8
0
  2
*D26
 70
     1
 10
0.0
 20
0.0
 30
0.0
  3
*D26
  1

  0
LINE
  5
1008
  8
SAPA_MATT
 10
14.00000000000003
 20
60.0
 30
0.0
 11
14.00000000000003
 21
102.5000000000001
 31
0.0
  0
LINE
  5
1009
  8
SAPA_MATT
 10
85.500000000180634
 20
56.500000000019853
 30
0.0
 11
85.500000000180634
 21
102.5000000000001
 31
0.0
  0
LINE
  5
100A
  8
SAPA_MATT
 10
17.000000000000028
 20
101.0000000000001
 30
0.0
 11
82.500000000180648
 21
101.0000000000001
 31
0.0
  0
SOLID
  5
100B
  8
SAPA_MATT
 10
17.000000000000028
 20
101.5000000000001
 30
0.0
 11
17.000000000000028
 21
100.5000000000001
 31
0.0
 12
14.00000000000003
 22
101.0000000000001
 32
0.0
 13
14.00000000000003
 23
101.0000000000001
 33
0.0
  0
SOLID
  5
100C
  8
SAPA_MATT
 10
82.500000000180648
 20
101.5000000000001
 30
0.0
 11
82.500000000180648
 21
100.5000000000001
 31
0.0
 12
85.500000000180634
 22
101.0000000000001
 32
0.0
 13
85.500000000180634
 23
101.0000000000001
 33
0.0
  0
INSERT
  5
100D
  8
0
  2
*U61
 10
0.0
 20
0.0
 30
0.0
  0
POINT
  5
100E
  8
DEFPOINTS
 62
     0
 10
14.00000000000003
 20
58.5
 30
0.0
  0
POINT
  5
100F
  8
DEFPOINTS
 62
     0
 10
85.500000000180634
 20
55.000000000019853
 30
0.0
  0
POINT
  5
1010
  8
DEFPOINTS
 62
     0
 10
85.500000000180634
 20
101.0000000000001
 30
0.0
  0
ENDBLK
  5
FA6
  8
0
  0
BLOCK
  8
0
  2
*D27
 70
     1
 10
0.0
 20
0.0
 30
0.0
  3
*D27
  1

  0
LINE
  5
1BF2
  8
SAPA_MATT
 10
85.500000000180634
 20
56.500000000019853
 30
0.0
 11
85.500000000180634
 21
102.5000000000005
 31
0.0
  0
LINE
  5
1BF3
  8
SAPA_MATT
 10
132.49999999950211
 20
56.500000000019853
 30
0.0
 11
132.49999999950211
 21
102.5000000000005
 31
0.0
  0
LINE
  5
1BF4
  8
SAPA_MATT
 10
88.500000000180648
 20
101.0000000000005
 30
0.0
 11
129.49999999950211
 21
101.0000000000005
 31
0.0
  0
SOLID
  5
1BF5
  8
SAPA_MATT
 10
88.500000000180648
 20
101.5000000000005
 30
0.0
 11
88.500000000180648
 21
100.5000000000005
 31
0.0
 12
85.500000000180634
 22
101.0000000000005
 32
0.0
 13
85.500000000180634
 23
101.0000000000005
 33
0.0
  0
SOLID
  5
1BF6
  8
SAPA_MATT
 10
129.49999999950211
 20
101.5000000000005
 30
0.0
 11
129.49999999950211
 21
100.5000000000005
 31
0.0
 12
132.49999999950211
 22
101.0000000000005
 32
0.0
 13
132.49999999950211
 23
101.0000000000005
 33
0.0
  0
TEXT
  8
SAPA_MATT
  40
3.5
  5
1C15
  62
2
  72
0
  71
0
 10
102.000
 20
97.5550
 30
0.000000
  1
47
  7
ISO
  0
POINT
  5
1BF8
  8
DEFPOINTS
 62
     0
 10
85.500000000180634
 20
55.000000000019853
 30
0.0
  0
POINT
  5
1BF9
  8
DEFPOINTS
 62
     0
 10
132.49999999950211
 20
55.000000000019853
 30
0.0
  0
POINT
  5
1BFA
  8
DEFPOINTS
 62
     0
 10
132.49999999950211
 20
101.0000000000005
 30
0.0
  0
ENDBLK
  5
FB2
  8
0
  0
BLOCK
  8
0
  2
*D28
 70
     1
 10
0.0
 20
0.0
 30
0.0
  3
*D28
  1

  0
LINE
  5
1BE7
  8
SAPA_MATT
 10
132.49999999950211
 20
56.500000000018979
 30
0.0
 11
132.49999999950211
 21
102.5000000000001
 31
0.0
  0
LINE
  5
1BE8
  8
SAPA_MATT
 10
139.0
 20
60.000792081048303
 30
0.0
 11
139.0
 21
102.5000000000001
 31
0.0
  0
LINE
  5
1BE9
  8
SAPA_MATT
 10
129.49999999950211
 20
101.0000000000001
 30
0.0
 11
126.49999999950209
 21
101.0000000000001
 31
0.0
  0
LINE
  5
1BEA
  8
SAPA_MATT
 10
142.0
 20
101.0000000000001
 30
0.0
 11
145.0
 21
101.0000000000001
 31
0.0
  0
TEXT
  8
SAPA_MATT
  40
3.5
  5
1C16
  62
2
  72
0
  71
0
 10
128.750
 20
97.5550
 30
0.000000
  1
6.5
  7
ISO
  0
LINE
  5
1BEC
  8
SAPA_MATT
 10
132.49999999950211
 20
101.0000000000001
 30
0.0
 11
139.0
 21
101.0000000000001
 31
0.0
  0
SOLID
  5
1BED
  8
SAPA_MATT
 10
129.49999999950211
 20
101.5000000000001
 30
0.0
 11
129.49999999950211
 21
100.5000000000001
 31
0.0
 12
132.49999999950211
 22
101.0000000000001
 32
0.0
 13
132.49999999950211
 23
101.0000000000001
 33
0.0
  0
SOLID
  5
1BEE
  8
SAPA_MATT
 10
142.0
 20
101.5000000000001
 30
0.0
 11
142.0
 21
100.5000000000001
 31
0.0
 12
139.0
 22
101.0000000000001
 32
0.0
 13
139.0
 23
101.0000000000001
 33
0.0
  0
POINT
  5
1BEF
  8
DEFPOINTS
 62
     0
 10
132.49999999950211
 20
55.000000000018979
 30
0.0
  0
POINT
  5
1BF0
  8
DEFPOINTS
 62
     0
 10
139.0
 20
58.500792081048303
 30
0.0
  0
POINT
  5
1BF1
  8
DEFPOINTS
 62
     0
 10
139.0
 20
101.0000000000001
 30
0.0
  0
ENDBLK
  5
FBE
  8
0
  0
BLOCK
  8
0
  2
*D29
 70
     1
 10
0.0
 20
0.0
 30
0.0
  3
*D29
  1

  0
LINE
  5
FEB
  8
SAPA_MATT
 10
14.00000000000003
 20
60.0
 30
0.0
 11
14.00000000000003
 21
114.5000000000001
 31
0.0
  0
LINE
  5
FEC
  8
SAPA_MATT
 10
139.0
 20
60.000792081048303
 30
0.0
 11
139.0
 21
114.5000000000001
 31
0.0
  0
LINE
  5
FED
  8
SAPA_MATT
 10
17.000000000000028
 20
113.0000000000001
 30
0.0
 11
136.0
 21
113.0000000000001
 31
0.0
  0
SOLID
  5
FEE
  8
SAPA_MATT
 10
17.000000000000028
 20
113.5000000000001
 30
0.0
 11
17.000000000000028
 21
112.5000000000001
 31
0.0
 12
14.00000000000003
 22
113.0000000000001
 32
0.0
 13
14.00000000000003
 23
113.0000000000001
 33
0.0
  0
SOLID
  5
FEF
  8
SAPA_MATT
 10
136.0
 20
113.5000000000001
 30
0.0
 11
136.0
 21
112.5000000000001
 31
0.0
 12
139.0
 22
113.0000000000001
 32
0.0
 13
139.0
 23
113.0000000000001
 33
0.0
  0
INSERT
  5
FF0
  8
0
  2
*U60
 10
0.0
 20
0.0
 30
0.0
  0
POINT
  5
FF1
  8
DEFPOINTS
 62
     0
 10
14.00000000000003
 20
58.5
 30
0.0
  0
POINT
  5
FF2
  8
DEFPOINTS
 62
     0
 10
139.0
 20
58.500792081048303
 30
0.0
  0
POINT
  5
FF3
  8
DEFPOINTS
 62
     0
 10
139.0
 20
113.0000000000001
 30
0.0
  0
ENDBLK
  5
FCC
  8
0
  0
BLOCK
  8
0
  2
*D30
 70
     1
 10
0.0
 20
0.0
 30
0.0
  3
*D30
  1

  0
LINE
  5
FE2
  8
SAPA_MATT
 10
150.49999992774141
 20
-70.000000000005429
 30
0.0
 11
182.4999999277415
 21
-70.000000000005443
 31
0.0
  0
LINE
  5
FE3
  8
SAPA_MATT
 10
167.49999992773959
 20
60.000000000015881
 30
0.0
 11
182.4999999277415
 21
60.000000000015881
 31
0.0
  0
LINE
  5
FE4
  8
SAPA_MATT
 10
180.9999999277415
 20
-67.000000000005443
 30
0.0
 11
180.9999999277415
 21
57.000000000015881
 31
0.0
  0
SOLID
  5
FE5
  8
SAPA_MATT
 10
180.4999999277415
 20
-67.000000000005443
 30
0.0
 11
181.4999999277415
 21
-67.000000000005443
 31
0.0
 12
180.9999999277415
 22
-70.000000000005443
 32
0.0
 13
180.9999999277415
 23
-70.000000000005443
 33
0.0
  0
SOLID
  5
FE6
  8
SAPA_MATT
 10
180.4999999277415
 20
57.000000000015881
 30
0.0
 11
181.4999999277415
 21
57.000000000015881
 31
0.0
 12
180.9999999277415
 22
60.000000000015881
 32
0.0
 13
180.9999999277415
 23
60.000000000015881
 33
0.0
  0
INSERT
  5
FE7
  8
0
  2
*U59
 10
0.0
 20
0.0
 30
0.0
  0
POINT
  5
FE8
  8
DEFPOINTS
 62
     0
 10
148.9999999277413
 20
-70.000000000005429
 30
0.0
  0
POINT
  5
FE9
  8
DEFPOINTS
 62
     0
 10
165.99999992773959
 20
60.000000000015881
 30
0.0
  0
POINT
  5
FEA
  8
DEFPOINTS
 62
     0
 10
180.9999999277415
 20
60.000000000015881
 30
0.0
  0
ENDBLK
  5
FD8
  8
0
  0
BLOCK
  8
0
  2
*X31
 70
     1
 10
0.0
 20
0.0
 30
0.0
  3
*X31
  1

  0
LINE
  5
105A
  8
0
 62
     0
 10
85.569082987631433
 20
59.237546964608669
 30
0.0
 11
84.685267908996934
 21
60.121362043243167
 31
0.0
  0
LINE
  5
105B
  8
0
 62
     0
 10
85.538072784031954
 20
58.146025153074483
 30
0.0
 11
83.751148968801957
 21
59.93294896830448
 31
0.0
  0
LINE
  5
105C
  8
0
 62
     0
 10
85.51609314582609
 20
57.045472776146703
 30
0.0
 11
83.499999999908169
 21
59.061565922064609
 31
0.0
  0
LINE
  5
105D
  8
0
 62
     0
 10
85.503367244189107
 20
55.935666662650043
 30
0.0
 11
83.499999999908169
 21
57.939033906930987
 31
0.0
  0
LINE
  5
105E
  8
0
 62
     0
 10
82.499999999908155
 20
57.816501891797337
 30
0.0
 11
82.035060703542356
 21
58.281441188163157
 31
0.0
  0
LINE
  5
105F
  8
0
 62
     0
 10
85.500000000175447
 20
54.816501891530038
 30
0.0
 11
83.229354155396294
 21
57.087147736309177
 31
0.0
  0
LINE
  5
1060
  8
0
 62
     0
 10
85.5000000001438
 20
53.693969876428064
 30
0.0
 11
81.007216605925919
 21
58.186753270645951
 31
0.0
  0
LINE
  5
1061
  8
0
 62
     0
 10
85.500000000112124
 20
52.571437861326082
 30
0.0
 11
80.799999999911066
 21
57.271437861527133
 31
0.0
  0
LINE
  5
1062
  8
0
 62
     0
 10
85.048374496384497
 20
51.900531349920101
 30
0.0
 11
80.799999999911066
 21
56.148905846393511
 31
0.0
  0
LINE
  5
1063
  8
0
 62
     0
 10
83.925842481250839
 20
51.900531349920087
 30
0.0
 11
80.799999999911066
 21
55.026373831259853
 31
0.0
  0
LINE
  5
1064
  8
0
 62
     0
 10
82.499999999908184
 20
52.203841816129128
 30
0.0
 11
80.799999999911066
 21
53.90384181612621
 31
0.0
  0
LINE
  5
1065
  8
0
 62
     0
 10
82.286982046133176
 20
51.29432775477045
 30
0.0
 11
80.799999999911066
 21
52.781309800992553
 31
0.0
  0
LINE
  5
1066
  8
0
 62
     0
 10
81.156217013638326
 20
51.30256077213167
 30
0.0
 11
80.821119583879579
 21
51.637658201890417
 31
0.0
  0
LINE
  5
1067
  8
0
 62
     0
 10
84.453959788795785
 20
51.900531349920087
 30
0.0
 11
85.500000000122711
 21
52.946571561247019
 31
0.0
  0
LINE
  5
1068
  8
0
 62
     0
 10
83.49867765273838
 20
52.067781228996317
 30
0.0
 11
85.500000000154387
 21
54.069103576412331
 31
0.0
  0
LINE
  5
1069
  8
0
 62
     0
 10
82.839805596771569
 20
52.531441188163157
 30
0.0
 11
85.500141455780224
 21
55.191777047171833
 31
0.0
  0
LINE
  5
106A
  8
0
 62
     0
 10
81.589805596771583
 20
51.281441188163178
 30
0.0
 11
82.499999999908184
 21
52.191635591299757
 31
0.0
  0
LINE
  5
106B
  8
0
 62
     0
 10
80.821669993429353
 20
51.635837599954598
 30
0.0
 11
85.506710632314466
 21
56.320878238839697
 31
0.0
  0
LINE
  5
106C
  8
0
 62
     0
 10
80.799999999911066
 20
52.736699621569969
 30
0.0
 11
85.523277026841157
 21
57.459976648500053
 31
0.0
  0
LINE
  5
106D
  8
0
 62
     0
 10
80.799999999911066
 20
53.859231636703591
 30
0.0
 11
85.550114979046469
 21
58.609346615839002
 31
0.0
  0
LINE
  5
106E
  8
0
 62
     0
 10
83.499999999908169
 20
57.681763651834352
 30
0.0
 11
85.587514112147915
 21
59.769277764074069
 31
0.0
  0
LINE
  5
106F
  8
0
 62
     0
 10
80.799999999911066
 20
54.981763651837248
 30
0.0
 11
82.849677536236996
 21
57.031441188163178
 31
0.0
  0
LINE
  5
1070
  8
0
 62
     0
 10
83.499999999908169
 20
58.804295666967967
 30
0.0
 11
84.850367112615487
 21
60.154662779675292
 31
0.0
  0
LINE
  5
1071
  8
0
 62
     0
 10
80.799999999911066
 20
56.104295666970891
 30
0.0
 11
82.499999999908184
 21
57.804295666967988
 31
0.0
  0
LINE
  5
1072
  8
0
 62
     0
 10
83.273306307588996
 20
59.700133989782451
 30
0.0
 11
83.444211595853957
 21
59.871039278047419
 31
0.0
  0
LINE
  5
1073
  8
0
 62
     0
 10
80.799999999911066
 20
57.226827682104542
 30
0.0
 11
81.854613505969709
 21
58.281441188163178
 31
0.0
  0
ENDBLK
  5
1075
  8
0
  0
BLOCK
  8
0
  2
*X32
 70
     1
 10
0.0
 20
0.0
 30
0.0
  3
*X32
  1

  0
LINE
  5
1077
  8
0
 62
     0
 10
137.17976389230449
 20
58.140806740949543
 30
0.0
 11
136.8408066686807
 21
58.479763964573358
 31
0.0
  0
LINE
  5
1078
  8
0
 62
     0
 10
134.52932435293209
 20
59.668714265188306
 30
0.0
 11
134.2107957464703
 21
59.987242871650132
 31
0.0
  0
LINE
  5
1079
  8
0
 62
     0
 10
137.19999992773111
 20
56.998038690389279
 30
0.0
 11
135.69804814202669
 21
58.499990476093721
 31
0.0
  0
LINE
  5
107A
  8
0
 62
     0
 10
134.4999999277413
 20
58.57550667524545
 30
0.0
 11
132.85150324247641
 21
60.224003360510387
 31
0.0
  0
LINE
  5
107B
  8
0
 62
     0
 10
137.19999992773111
 20
55.875506675255643
 30
0.0
 11
135.4999999277475
 21
57.575506675239247
 31
0.0
  0
LINE
  5
107C
  8
0
 62
     0
 10
137.19999992773111
 20
54.752974660122
 30
0.0
 11
132.42097992329909
 21
59.531994664553977
 31
0.0
  0
LINE
  5
107D
  8
0
 62
     0
 10
137.19999992773111
 20
53.630442644988349
 30
0.0
 11
132.4562022455425
 21
58.374240327176992
 31
0.0
  0
LINE
  5
107E
  8
0
 62
     0
 10
137.19999992773111
 20
52.507910629854699
 30
0.0
 11
132.48092371370191
 21
57.226986843883928
 31
0.0
  0
LINE
  5
107F
  8
0
 62
     0
 10
136.99156669855009
 20
51.593811843902103
 30
0.0
 11
132.49543074147411
 21
56.089947800978059
 31
0.0
  0
LINE
  5
1080
  8
0
 62
     0
 10
134.7692673566599
 20
52.693579170658587
 30
0.0
 11
132.49999999950319
 21
54.96284652781533
 31
0.0
  0
LINE
  5
1081
  8
0
 62
     0
 10
135.9628465273185
 20
51.499999999999979
 30
0.0
 11
135.4999999277338
 21
51.962846599584751
 31
0.0
  0
LINE
  5
1082
  8
0
 62
     0
 10
134.4999999277413
 20
51.840314584443583
 30
0.0
 11
132.49999999953491
 21
53.840314512650039
 31
0.0
  0
LINE
  5
1083
  8
0
 62
     0
 10
133.48580995892789
 20
51.731972538123379
 30
0.0
 11
132.49999999956651
 21
52.717782497484713
 31
0.0
  0
LINE
  5
1084
  8
0
 62
     0
 10
136.829492496954
 20
51.517059346797069
 30
0.0
 11
137.182940580934
 21
51.870507430777067
 31
0.0
  0
LINE
  5
1085
  8
0
 62
     0
 10
135.69014412476369
 20
51.500242989740379
 30
0.0
 11
137.19999992773111
 21
53.010098792707787
 31
0.0
  0
LINE
  5
1086
  8
0
 62
     0
 10
135.49999992773979
 20
52.432630807850138
 30
0.0
 11
137.19999992773111
 21
54.132630807841458
 31
0.0
  0
LINE
  5
1087
  8
0
 62
     0
 10
133.67680964287939
 20
51.731972538123401
 30
0.0
 11
137.19999992773111
 21
55.255162822975088
 31
0.0
  0
LINE
  5
1088
  8
0
 62
     0
 10
132.55427762774571
 20
51.731972538123387
 30
0.0
 11
137.19999992773111
 21
56.377694838108752
 31
0.0
  0
LINE
  5
1089
  8
0
 62
     0
 10
132.49999999956421
 20
52.800226925075457
 30
0.0
 11
137.19999992773111
 21
57.500226853242388
 31
0.0
  0
LINE
  5
108A
  8
0
 62
     0
 10
132.49999999953249
 20
53.922758940177438
 30
0.0
 11
136.986805164456
 21
58.409564105100969
 31
0.0
  0
LINE
  5
108B
  8
0
 62
     0
 10
135.49999992774349
 20
58.04529088352205
 30
0.0
 11
135.9547090442133
 21
58.499999999991871
 31
0.0
  0
LINE
  5
108C
  8
0
 62
     0
 10
132.49999211274681
 20
55.0452830685254
 30
0.0
 11
134.763941211408
 21
57.309232167186558
 31
0.0
  0
LINE
  5
108D
  8
0
 62
     0
 10
132.49480106992701
 20
56.162624040839198
 30
0.0
 11
134.4999999277413
 21
58.167822898653512
 31
0.0
  0
LINE
  5
108E
  8
0
 62
     0
 10
132.4801704647569
 20
57.270525450802772
 30
0.0
 11
134.4999999277413
 21
59.290354913787148
 31
0.0
  0
LINE
  5
108F
  8
0
 62
     0
 10
132.4563325111464
 20
58.369219512325877
 30
0.0
 11
134.09459553161369
 21
60.00748253279319
 31
0.0
  0
LINE
  5
1090
  8
0
 62
     0
 10
132.423508144018
 20
59.458927160331122
 30
0.0
 11
133.13858131372999
 21
60.174000330043157
 31
0.0
  0
ENDBLK
  5
1092
  8
0
  0
BLOCK
  8
0
  2
*X33
 70
     1
 10
0.0
 20
0.0
 30
0.0
  3
*X33
  1

  0
LINE
  5
1094
  8
0
 62
     0
 10
148.99999992774141
 20
59.790954887131498
 30
0.0
 11
148.83808603072671
 21
59.952868784146212
 31
0.0
  0
LINE
  5
1095
  8
0
 62
     0
 10
148.9999999277413
 20
58.668422871997869
 30
0.0
 11
147.94993012138929
 21
59.71849267835001
 31
0.0
  0
LINE
  5
1096
  8
0
 62
     0
 10
148.99999992774141
 20
57.545890856864212
 30
0.0
 11
147.02840957960129
 21
59.51748120500433
 31
0.0
  0
LINE
  5
1097
  8
0
 62
     0
 10
148.99999992774141
 20
56.423358841730582
 30
0.0
 11
146.07057661512809
 21
59.352782154343828
 31
0.0
  0
LINE
  5
1098
  8
0
 62
     0
 10
148.99999992774141
 20
55.300826826596932
 30
0.0
 11
145.07276903545329
 21
59.228057718885033
 31
0.0
  0
LINE
  5
1099
  8
0
 62
     0
 10
148.9999999277413
 20
54.178294811463303
 30
0.0
 11
144.0303604129688
 21
59.147934326235877
 31
0.0
  0
LINE
  5
109A
  8
0
 62
     0
 10
148.9999999277413
 20
53.055762796329653
 30
0.0
 11
142.93738136331811
 21
59.118381360752977
 31
0.0
  0
LINE
  5
109B
  8
0
 62
     0
 10
148.99999992774141
 20
51.933230781196002
 30
0.0
 11
141.78591990858709
 21
59.14731080035029
 31
0.0
  0
LINE
  5
109C
  8
0
 62
     0
 10
148.99999992774141
 20
50.810698766062352
 30
0.0
 11
140.565119071797
 21
59.245579622006723
 31
0.0
  0
LINE
  5
109D
  8
0
 62
     0
 10
145.76608656588181
 20
52.922080112788286
 30
0.0
 11
139.25938028645029
 21
59.428786392219777
 31
0.0
  0
LINE
  5
109E
  8
0
 62
     0
 10
148.9999999277413
 20
49.688166750928723
 30
0.0
 11
148.43999006964339
 21
50.248176609026743
 31
0.0
  0
LINE
  5
109F
  8
0
 62
     0
 10
144.29073942839699
 20
53.274895235139503
 30
0.0
 11
138.998496671141
 21
58.567137992395473
 31
0.0
  0
LINE
  5
10A0
  8
0
 62
     0
 10
148.99999992774141
 20
48.565634735795058
 30
0.0
 11
148.92363608600769
 21
48.64199857752876
 31
0.0
  0
LINE
  5
10A1
  8
0
 62
     0
 10
143.22638571834861
 20
53.21671693005419
 30
0.0
 11
138.99999992774141
 21
57.443102720661422
 31
0.0
  0
LINE
  5
10A2
  8
0
 62
     0
 10
142.35075441075239
 20
52.969816222516712
 30
0.0
 11
138.99999992774141
 21
56.320570705527793
 31
0.0
  0
LINE
  5
10A3
  8
0
 62
     0
 10
141.60217573132229
 20
52.595862886813258
 30
0.0
 11
138.99999992774141
 21
55.198038690394164
 31
0.0
  0
LINE
  5
10A4
  8
0
 62
     0
 10
140.95430362485209
 20
52.121202978149761
 30
0.0
 11
138.9999999277413
 21
54.075506675260542
 31
0.0
  0
LINE
  5
10A5
  8
0
 62
     0
 10
140.39481471664041
 20
51.558159871227843
 30
0.0
 11
138.99999992774141
 21
52.952974660126912
 31
0.0
  0
LINE
  5
10A6
  8
0
 62
     0
 10
139.9191616399674
 20
50.911280932767241
 30
0.0
 11
138.9999999277413
 21
51.830442644993262
 31
0.0
  0
LINE
  5
10A7
  8
0
 62
     0
 10
139.52875225442281
 20
50.179158303178191
 30
0.0
 11
138.9999999277413
 21
50.707910629859633
 31
0.0
  0
LINE
  5
10A8
  8
0
 62
     0
 10
139.2314874681702
 20
49.353891074297159
 30
0.0
 11
138.9999999277413
 21
49.585378614725997
 31
0.0
  0
LINE
  5
10A9
  8
0
 62
     0
 10
139.04522034170191
 20
48.417626185631761
 30
0.0
 11
138.9999999277413
 21
48.462846599592382
 31
0.0
  0
LINE
  5
10AA
  8
0
 62
     0
 10
148.99279897801131
 20
47.96491761599821
 30
0.0
 11
148.99999992774141
 21
47.972118565728252
 31
0.0
  0
LINE
  5
10AB
  8
0
 62
     0
 10
148.8651857786154
 20
48.959836431735859
 30
0.0
 11
148.9999999277413
 21
49.094650580861888
 31
0.0
  0
LINE
  5
10AC
  8
0
 62
     0
 10
148.61341571770799
 20
49.830598385962134
 30
0.0
 11
148.99999992774141
 21
50.217182595995538
 31
0.0
  0
LINE
  5
10AD
  8
0
 62
     0
 10
148.26229306069871
 20
50.602007744086507
 30
0.0
 11
148.9999999277413
 21
51.339714611129182
 31
0.0
  0
LINE
  5
10AE
  8
0
 62
     0
 10
147.82338657535109
 20
51.28563327387257
 30
0.0
 11
148.99999992774141
 21
52.462246626262832
 31
0.0
  0
LINE
  5
10AF
  8
0
 62
     0
 10
147.3007430412959
 20
51.885521754951043
 30
0.0
 11
148.9999999277413
 21
53.584778641396468
 31
0.0
  0
LINE
  5
10B0
  8
0
 62
     0
 10
146.69249089580279
 20
52.399801624591547
 30
0.0
 11
148.9999999277413
 21
54.707310656530098
 31
0.0
  0
LINE
  5
10B1
  8
0
 62
     0
 10
145.99012238385629
 20
52.819965127778701
 30
0.0
 11
148.99999992774141
 21
55.829842671663769
 31
0.0
  0
LINE
  5
10B2
  8
0
 62
     0
 10
145.1746978766773
 20
53.127072635733327
 30
0.0
 11
148.99999992774141
 21
56.952374686797398
 31
0.0
  0
LINE
  5
10B3
  8
0
 62
     0
 10
144.20478292538701
 20
53.279689699576629
 30
0.0
 11
148.99999992774141
 21
58.074906701931049
 31
0.0
  0
LINE
  5
10B4
  8
0
 62
     0
 10
138.9999999277413
 20
48.074906701930963
 30
0.0
 11
139.01437504552271
 21
48.089281819712362
 31
0.0
  0
LINE
  5
10B5
  8
0
 62
     0
 10
142.9652894400887
 20
53.162728229412032
 30
0.0
 11
148.99999992774141
 21
59.197438717064692
 31
0.0
  0
LINE
  5
10B6
  8
0
 62
     0
 10
138.9999999277413
 20
49.197438717064607
 30
0.0
 11
139.2621674097004
 21
49.459606199023732
 31
0.0
  0
LINE
  5
10B7
  8
0
 62
     0
 10
138.9999999277413
 20
50.319970732198271
 30
0.0
 11
148.55332920462089
 21
59.87330000907788
 31
0.0
  0
LINE
  5
10B8
  8
0
 62
     0
 10
138.9999999277413
 20
51.442502747331908
 30
0.0
 11
147.0863822333215
 21
59.528885052912131
 31
0.0
  0
LINE
  5
10B9
  8
0
 62
     0
 10
138.9999999277413
 20
52.565034762465558
 30
0.0
 11
145.74135694742469
 21
59.306391782148928
 31
0.0
  0
LINE
  5
10BA
  8
0
 62
     0
 10
138.9999999277413
 20
53.687566777599208
 30
0.0
 11
144.48937491647041
 21
59.176941766328241
 31
0.0
  0
LINE
  5
10BB
  8
0
 62
     0
 10
138.99999992774141
 20
54.810098792732887
 30
0.0
 11
143.31215802026259
 21
59.122256885254131
 31
0.0
  0
LINE
  5
10BC
  8
0
 62
     0
 10
138.99999992774141
 20
55.932630807866552
 30
0.0
 11
142.19726507093191
 21
59.129895951057101
 31
0.0
  0
LINE
  5
10BD
  8
0
 62
     0
 10
138.99999992774141
 20
57.055162823000188
 30
0.0
 11
141.13577765864429
 21
59.190940553903062
 31
0.0
  0
LINE
  5
10BE
  8
0
 62
     0
 10
138.99999992774141
 20
58.177694838133853
 30
0.0
 11
140.12105103645561
 21
59.298745946848072
 31
0.0
  0
LINE
  5
10BF
  8
0
 62
     0
 10
138.85117536341849
 20
59.15140228894461
 30
0.0
 11
139.14798551122061
 21
59.448212436746722
 31
0.0
  0
ENDBLK
  5
10C1
  8
0
  0
BLOCK
  8
0
  2
*X34
 70
     1
 10
0.0
 20
0.0
 30
0.0
  3
*X34
  1

  0
LINE
  5
10D7
  8
0
 62
     0
 10
148.43122837829671
 20
46.74373365257626
 30
0.0
 11
148.8281033782967
 21
47.431141316830157
 31
0.0
  0
LINE
  5
10D8
  8
0
 62
     0
 10
147.2406033782967
 20
44.681510659814577
 30
0.0
 11
147.63747837829669
 21
45.368918324068467
 31
0.0
  0
LINE
  5
10D9
  8
0
 62
     0
 10
146.04997837829669
 20
42.61928766705288
 30
0.0
 11
146.44685337829671
 21
43.306695331306777
 31
0.0
  0
LINE
  5
10DA
  8
0
 62
     0
 10
148.43122866279279
 20
49.493364145337956
 30
0.0
 11
148.6183066741481
 21
49.817392765984231
 31
0.0
  0
LINE
  5
10DB
  8
0
 62
     0
 10
147.24060366279281
 20
47.431141152576267
 30
0.0
 11
147.6374786627928
 21
48.11854881683017
 31
0.0
  0
LINE
  5
10DC
  8
0
 62
     0
 10
146.0499786627928
 20
45.368918159814577
 30
0.0
 11
146.44685366279279
 21
46.05632582406848
 31
0.0
  0
LINE
  5
10DD
  8
0
 62
     0
 10
144.8593536627929
 20
43.306695167052887
 30
0.0
 11
145.25622866279281
 21
43.99410283130679
 31
0.0
  0
LINE
  5
10DE
  8
0
 62
     0
 10
147.24060394728889
 20
50.180771645337977
 30
0.0
 11
147.63747894728891
 21
50.868179309591874
 31
0.0
  0
LINE
  5
10DF
  8
0
 62
     0
 10
146.04997894728891
 20
48.118548652576287
 30
0.0
 11
146.4468539472889
 21
48.805956316830184
 31
0.0
  0
LINE
  5
10E0
  8
0
 62
     0
 10
144.85935394728889
 20
46.05632565981459
 30
0.0
 11
145.25622894728889
 21
46.743733324068486
 31
0.0
  0
LINE
  5
10E1
  8
0
 62
     0
 10
143.66872894728891
 20
43.994102667052907
 30
0.0
 11
144.06560394728891
 21
44.681510331306797
 31
0.0
  0
LINE
  5
10E2
  8
0
 62
     0
 10
142.66048067271791
 20
42.247765428852183
 30
0.0
 11
142.87497894728889
 21
42.619287338545107
 31
0.0
  0
LINE
  5
10E3
  8
0
 62
     0
 10
146.04997923178499
 20
50.868179145337962
 30
0.0
 11
146.44685423178501
 21
51.555586809591851
 31
0.0
  0
LINE
  5
10E4
  8
0
 62
     0
 10
144.85935423178501
 20
48.805956152576258
 30
0.0
 11
145.256229231785
 21
49.493363816830161
 31
0.0
  0
LINE
  5
10E5
  8
0
 62
     0
 10
143.66872923178499
 20
46.743733159814568
 30
0.0
 11
144.06560423178499
 21
47.431140824068457
 31
0.0
  0
LINE
  5
10E6
  8
0
 62
     0
 10
142.47810423178501
 20
44.681510167052878
 30
0.0
 11
142.87497923178501
 21
45.368917831306781
 31
0.0
  0
LINE
  5
10E7
  8
0
 62
     0
 10
141.41983199667209
 20
42.84852888759778
 30
0.0
 11
141.68435423178499
 21
43.306694838545091
 31
0.0
  0
LINE
  5
10E8
  8
0
 62
     0
 10
144.85935451628109
 20
51.555586645337961
 30
0.0
 11
145.256229516281
 21
52.24299430959185
 31
0.0
  0
LINE
  5
10E9
  8
0
 62
     0
 10
143.6687295162811
 20
49.493363652576271
 30
0.0
 11
144.0656045162811
 21
50.180771316830167
 31
0.0
  0
LINE
  5
10EA
  8
0
 62
     0
 10
142.47810451628109
 20
47.431140659814567
 30
0.0
 11
142.87497951628109
 21
48.11854832406847
 31
0.0
  0
LINE
  5
10EB
  8
0
 62
     0
 10
141.28747951628111
 20
45.368917667052891
 30
0.0
 11
141.6843545162811
 21
46.056325331306788
 31
0.0
  0
LINE
  5
10EC
  8
0
 62
     0
 10
140.37616464355861
 20
43.79047400580437
 30
0.0
 11
140.49372951628109
 21
43.99410233854509
 31
0.0
  0
LINE
  5
10ED
  8
0
 62
     0
 10
143.66872980077719
 20
52.24299414533796
 30
0.0
 11
144.06560480077721
 21
52.930401809591856
 31
0.0
  0
LINE
  5
10EE
  8
0
 62
     0
 10
142.4781048007772
 20
50.180771152576277
 30
0.0
 11
142.8749798007772
 21
50.868178816830181
 31
0.0
  0
LINE
  5
10EF
  8
0
 62
     0
 10
141.28747980077719
 20
48.11854815981458
 30
0.0
 11
141.68435480077719
 21
48.805955824068477
 31
0.0
  0
LINE
  5
10F0
  8
0
 62
     0
 10
140.09685480077721
 20
46.056325167052897
 30
0.0
 11
140.4937298007772
 21
46.743732831306787
 31
0.0
  0
LINE
  5
10F1
  8
0
 62
     0
 10
142.4781050852732
 20
52.930401645337959
 30
0.0
 11
142.54131339092169
 21
53.039881642181363
 31
0.0
  0
LINE
  5
10F2
  8
0
 62
     0
 10
141.2874800852733
 20
50.868178652576283
 30
0.0
 11
141.6843550852733
 21
51.555586316830173
 31
0.0
  0
LINE
  5
10F3
  8
0
 62
     0
 10
140.09685508527329
 20
48.805955659814579
 30
0.0
 11
140.49373008527331
 21
49.493363324068483
 31
0.0
  0
LINE
  5
10F4
  8
0
 62
     0
 10
139.03797136424791
 20
46.971915255690952
 30
0.0
 11
139.3031050852733
 21
47.431140331306793
 31
0.0
  0
LINE
  5
10F5
  8
0
 62
     0
 10
146.44684342093331
 20
51.555556586874637
 30
0.0
 11
146.04996842093331
 21
52.242964251128541
 31
0.0
  0
LINE
  5
10F6
  8
0
 62
     0
 10
147.63746842093329
 20
49.49333359411294
 30
0.0
 11
147.24059342093329
 21
50.180741258366837
 31
0.0
  0
LINE
  5
10F7
  8
0
 62
     0
 10
148.8280934209333
 20
47.431110601351257
 30
0.0
 11
148.43121842093331
 21
48.118518265605147
 31
0.0
  0
LINE
  5
10F8
  8
0
 62
     0
 10
144.06559370542951
 20
52.930372079636328
 30
0.0
 11
143.86242080378619
 21
53.282277868003654
 31
0.0
  0
LINE
  5
10F9
  8
0
 62
     0
 10
145.25621870542949
 20
50.868149086874652
 30
0.0
 11
144.8593437054295
 21
51.555556751128542
 31
0.0
  0
LINE
  5
10FA
  8
0
 62
     0
 10
146.4468437054295
 20
48.805926094112948
 30
0.0
 11
146.04996870542939
 21
49.493333758366852
 31
0.0
  0
LINE
  5
10FB
  8
0
 62
     0
 10
147.6374687054294
 20
46.743703101351272
 30
0.0
 11
147.2405937054294
 21
47.431110765605162
 31
0.0
  0
LINE
  5
10FC
  8
0
 62
     0
 10
148.508994618332
 20
45.23417594009107
 30
0.0
 11
148.43121870542939
 21
45.368887772843472
 31
0.0
  0
LINE
  5
10FD
  8
0
 62
     0
 10
142.87496898992561
 20
52.242964579636329
 30
0.0
 11
142.47809398992561
 21
52.930372243890218
 31
0.0
  0
LINE
  5
10FE
  8
0
 62
     0
 10
144.06559398992559
 20
50.180741586874639
 30
0.0
 11
143.66871898992559
 21
50.868149251128543
 31
0.0
  0
LINE
  5
10FF
  8
0
 62
     0
 10
145.25621898992549
 20
48.118518594112942
 30
0.0
 11
144.85934398992549
 21
48.805926258366839
 31
0.0
  0
LINE
  5
1100
  8
0
 62
     0
 10
146.4468439899255
 20
46.056295601351259
 30
0.0
 11
146.0499689899255
 21
46.743703265605163
 31
0.0
  0
LINE
  5
1101
  8
0
 62
     0
 10
147.63746898992551
 20
43.994072608589562
 30
0.0
 11
147.24059398992549
 21
44.681480272843459
 31
0.0
  0
LINE
  5
1102
  8
0
 62
     0
 10
141.68434427442159
 20
51.55555707963633
 30
0.0
 11
141.28746927442171
 21
52.242964743890226
 31
0.0
  0
LINE
  5
1103
  8
0
 62
     0
 10
142.8749692744216
 20
49.49333408687464
 30
0.0
 11
142.47809427442161
 21
50.180741751128537
 31
0.0
  0
LINE
  5
1104
  8
0
 62
     0
 10
144.06559427442161
 20
47.431111094112943
 30
0.0
 11
143.66871927442159
 21
48.118518758366839
 31
0.0
  0
LINE
  5
1105
  8
0
 62
     0
 10
145.2562192744216
 20
45.36888810135126
 30
0.0
 11
144.8593442744216
 21
46.056295765605157
 31
0.0
  0
LINE
  5
1106
  8
0
 62
     0
 10
146.44684427442161
 20
43.306665108589563
 30
0.0
 11
146.04996927442161
 21
43.99407277284346
 31
0.0
  0
LINE
  5
1107
  8
0
 62
     0
 10
140.4937195589178
 20
50.868149579636331
 30
0.0
 11
140.21983906123739
 21
51.342524516821051
 31
0.0
  0
LINE
  5
1108
  8
0
 62
     0
 10
141.68434455891779
 20
48.805926586874641
 30
0.0
 11
141.28746955891779
 21
49.493334251128537
 31
0.0
  0
LINE
  5
1109
  8
0
 62
     0
 10
142.87496955891771
 20
46.743703594112951
 30
0.0
 11
142.47809455891769
 21
47.43111125836684
 31
0.0
  0
LINE
  5
110A
  8
0
 62
     0
 10
144.0655945589177
 20
44.681480601351261
 30
0.0
 11
143.6687195589177
 21
45.368888265605158
 31
0.0
  0
LINE
  5
110B
  8
0
 62
     0
 10
145.25621955891771
 20
42.619257608589557
 30
0.0
 11
144.85934455891771
 21
43.30666527284346
 31
0.0
  0
LINE
  5
110C
  8
0
 62
     0
 10
140.4937198434138
 20
48.118519086874628
 30
0.0
 11
140.09684484341389
 21
48.805926751128531
 31
0.0
  0
LINE
  5
110D
  8
0
 62
     0
 10
141.68434484341381
 20
46.056296094112938
 30
0.0
 11
141.28746984341379
 21
46.743703758366841
 31
0.0
  0
LINE
  5
110E
  8
0
 62
     0
 10
142.87496984341379
 20
43.994073101351248
 30
0.0
 11
142.4780948434138
 21
44.681480765605151
 31
0.0
  0
LINE
  5
110F
  8
0
 62
     0
 10
144.0018313472743
 20
42.042291723571438
 30
0.0
 11
143.66871984341381
 21
42.619257772843447
 31
0.0
  0
LINE
  5
1110
  8
0
 62
     0
 10
139.3030951279099
 20
47.431111586874643
 30
0.0
 11
139.00628919785311
 21
47.945194537720838
 31
0.0
  0
LINE
  5
1111
  8
0
 62
     0
 10
140.49372012790991
 20
45.36888859411296
 30
0.0
 11
140.09684512790989
 21
46.056296258366856
 31
0.0
  0
LINE
  5
1112
  8
0
 62
     0
 10
141.68434512790989
 20
43.30666560135127
 30
0.0
 11
141.2874701279099
 21
43.994073265605159
 31
0.0
  0
LINE
  5
1113
  8
0
 62
     0
 10
145.25625000000011
 20
42.61926500001497
 30
0.0
 11
146.0500000000001
 21
42.61926500001497
 31
0.0
  0
LINE
  5
1114
  8
0
 62
     0
 10
142.87500000000011
 20
42.61926500001497
 30
0.0
 11
143.6687500000001
 21
42.61926500001497
 31
0.0
  0
LINE
  5
1115
  8
0
 62
     0
 10
147.6375000000001
 20
43.994080000014968
 30
0.0
 11
147.78777218174429
 21
43.994080000014968
 31
0.0
  0
LINE
  5
1116
  8
0
 62
     0
 10
145.25625000000011
 20
43.994080000014968
 30
0.0
 11
146.0500000000001
 21
43.994080000014968
 31
0.0
  0
LINE
  5
1117
  8
0
 62
     0
 10
142.87500000000011
 20
43.994080000014968
 30
0.0
 11
143.6687500000001
 21
43.994080000014968
 31
0.0
  0
LINE
  5
1118
  8
0
 62
     0
 10
140.49375000000009
 20
43.994080000014968
 30
0.0
 11
141.28750000000011
 21
43.994080000014968
 31
0.0
  0
LINE
  5
1119
  8
0
 62
     0
 10
147.6375000000001
 20
45.368895000014973
 30
0.0
 11
148.43125000000009
 21
45.368895000014973
 31
0.0
  0
LINE
  5
111A
  8
0
 62
     0
 10
145.25625000000011
 20
45.368895000014973
 30
0.0
 11
146.0500000000001
 21
45.368895000014973
 31
0.0
  0
LINE
  5
111B
  8
0
 62
     0
 10
142.87500000000011
 20
45.368895000014973
 30
0.0
 11
143.6687500000001
 21
45.368895000014973
 31
0.0
  0
LINE
  5
111C
  8
0
 62
     0
 10
140.49375000000009
 20
45.368895000014973
 30
0.0
 11
141.28750000000011
 21
45.368895000014973
 31
0.0
  0
LINE
  5
111D
  8
0
 62
     0
 10
147.6375000000001
 20
46.743710000014971
 30
0.0
 11
148.43125000000009
 21
46.743710000014971
 31
0.0
  0
LINE
  5
111E
  8
0
 62
     0
 10
145.25625000000011
 20
46.743710000014971
 30
0.0
 11
146.0500000000001
 21
46.743710000014971
 31
0.0
  0
LINE
  5
111F
  8
0
 62
     0
 10
142.87500000000011
 20
46.743710000014971
 30
0.0
 11
143.6687500000001
 21
46.743710000014971
 31
0.0
  0
LINE
  5
1120
  8
0
 62
     0
 10
140.49375000000009
 20
46.743710000014971
 30
0.0
 11
141.28750000000011
 21
46.743710000014971
 31
0.0
  0
LINE
  5
1121
  8
0
 62
     0
 10
147.6375000000001
 20
48.118525000014976
 30
0.0
 11
148.43125000000009
 21
48.118525000014976
 31
0.0
  0
LINE
  5
1122
  8
0
 62
     0
 10
145.25625000000011
 20
48.118525000014976
 30
0.0
 11
146.0500000000001
 21
48.118525000014976
 31
0.0
  0
LINE
  5
1123
  8
0
 62
     0
 10
142.87500000000011
 20
48.118525000014976
 30
0.0
 11
143.6687500000001
 21
48.118525000014976
 31
0.0
  0
LINE
  5
1124
  8
0
 62
     0
 10
140.49375000000009
 20
48.118525000014976
 30
0.0
 11
141.28750000000011
 21
48.118525000014976
 31
0.0
  0
LINE
  5
1125
  8
0
 62
     0
 10
147.6375000000001
 20
49.493340000014967
 30
0.0
 11
148.43125000000009
 21
49.493340000014967
 31
0.0
  0
LINE
  5
1126
  8
0
 62
     0
 10
145.25625000000011
 20
49.493340000014967
 30
0.0
 11
146.0500000000001
 21
49.493340000014967
 31
0.0
  0
LINE
  5
1127
  8
0
 62
     0
 10
142.87500000000011
 20
49.493340000014967
 30
0.0
 11
143.6687500000001
 21
49.493340000014967
 31
0.0
  0
LINE
  5
1128
  8
0
 62
     0
 10
140.49375000000009
 20
49.493340000014967
 30
0.0
 11
141.28750000000011
 21
49.493340000014967
 31
0.0
  0
LINE
  5
1129
  8
0
 62
     0
 10
147.6375000000001
 20
50.868155000014973
 30
0.0
 11
148.10772746506919
 21
50.868155000014973
 31
0.0
  0
LINE
  5
112A
  8
0
 62
     0
 10
145.25625000000011
 20
50.868155000014973
 30
0.0
 11
146.0500000000001
 21
50.868155000014973
 31
0.0
  0
LINE
  5
112B
  8
0
 62
     0
 10
142.87500000000011
 20
50.868155000014973
 30
0.0
 11
143.6687500000001
 21
50.868155000014973
 31
0.0
  0
LINE
  5
112C
  8
0
 62
     0
 10
140.49375000000009
 20
50.868155000014973
 30
0.0
 11
141.28750000000011
 21
50.868155000014973
 31
0.0
  0
LINE
  5
112D
  8
0
 62
     0
 10
145.25625000000011
 20
52.242970000014978
 30
0.0
 11
146.0500000000001
 21
52.242970000014978
 31
0.0
  0
LINE
  5
112E
  8
0
 62
     0
 10
142.87500000000011
 20
52.242970000014978
 30
0.0
 11
143.6687500000001
 21
52.242970000014978
 31
0.0
  0
LINE
  5
112F
  8
0
 62
     0
 10
141.1007687474002
 20
52.242970000014978
 30
0.0
 11
141.28750000000011
 21
52.242970000014978
 31
0.0
  0
ENDBLK
  5
1131
  8
0
  0
BLOCK
  8
0
  2
*U35
 70
     1
 10
0.0
 20
0.0
 30
0.0
  3
*U35
  1

  0
TEXT
  5
117D
  8
0
 62
     2
 10
167.99999999950211
 20
62.900000000005527
 30
0.0
 40
3.5
  1
10
 50
90.0
  7
ISO
  0
ENDBLK
  5
117F
  8
0
  0
BLOCK
  8
0
  2
*U36
 70
     1
 10
0.0
 20
0.0
 30
0.0
  3
*U36
  1

  0
TEXT
  5
1181
  8
0
 62
     2
 10
167.99999999950211
 20
-1.4749999999999679
 30
0.0
 40
3.5
  1
117
 50
90.0
  7
ISO
  0
ENDBLK
  5
1183
  8
0
  0
BLOCK
  8
0
  2
*U37
 70
     1
 10
0.0
 20
0.0
 30
0.0
  3
*U37
  1

  0
TEXT
  5
1185
  8
0
 62
     2
 10
179.99734841258999
 20
-13.224999999994751
 30
0.0
 40
3.5
  1
min. 130
 50
90.0
  7
ISO
  0
ENDBLK
  5
1187
  8
0
  0
BLOCK
  8
0
  2
*U38
 70
     1
 10
0.0
 20
0.0
 30
0.0
  3
*U38
  1

  0
TEXT
  5
1309
  8
0
 62
     2
 10
59.174999963870683
 20
-11.46275614065862
 30
0.0
 40
3.5
  1
125
  7
BYGG-027377$0$ISO
  0
ENDBLK
  5
130B
  8
0
  0
BLOCK
  8
0
  2
*U39
 70
     1
 10
0.0
 20
0.0
 30
0.0
  3
*U39
  1

  0
TEXT
  5
130D
  8
0
 62
     2
 10
138.9070189266192
 20
55.525000000000013
 30
0.0
 40
3.5
  1
117
 50
90.0
  7
BYGG-027377$0$ISO
  0
ENDBLK
  5
130F
  8
0
  0
BLOCK
  8
0
  2
*X40
 70
     1
 10
0.0
 20
0.0
 30
0.0
  3
*X40
  1

  0
LINE
  5
1311
  8
0
 62
     0
 10
76.199999999999989
 20
70.599975999985048
 30
0.0
 11
76.199999999999989
 21
74.699456650023421
 31
0.0
  0
LINE
  5
1312
  8
0
 62
     0
 10
74.612499999999983
 20
71.26391552932489
 30
0.0
 11
74.612499999999983
 21
74.034973770722118
 31
0.0
  0
LINE
  5
1313
  8
0
 62
     0
 10
73.024999999999991
 20
71.73370616123222
 30
0.0
 11
73.024999999999991
 21
73.533706161232203
 31
0.0
  0
LINE
  5
1314
  8
0
 62
     0
 10
71.4375
 20
71.73370616123222
 30
0.0
 11
71.4375
 21
73.533706161232345
 31
0.0
  0
LINE
  5
1315
  8
0
 62
     0
 10
69.849999999999994
 20
71.73370616123222
 30
0.0
 11
69.849999999999994
 21
73.88665244376044
 31
0.0
  0
LINE
  5
1316
  8
0
 62
     0
 10
68.262500000000003
 20
106.77485855299869
 30
0.0
 11
68.262500000000003
 21
108.28802382332501
 31
0.0
  0
LINE
  5
1317
  8
0
 62
     0
 10
68.262500000000003
 20
115.27485855300129
 30
0.0
 11
68.262500000000017
 21
116.78144118816149
 31
0.0
  0
LINE
  5
1318
  8
0
 62
     0
 10
68.262500000000003
 20
71.73370616123222
 30
0.0
 11
68.262500000000003
 21
99.788023823318554
 31
0.0
  0
LINE
  5
1319
  8
0
 62
     0
 10
66.674999999999997
 20
98.497179717640634
 30
0.0
 11
66.675000000000011
 21
116.78144118816149
 31
0.0
  0
LINE
  5
131A
  8
0
 62
     0
 10
66.674999999999997
 20
71.73370616123222
 30
0.0
 11
66.674999999999997
 21
73.54944469071458
 31
0.0
  0
LINE
  5
131B
  8
0
 62
     0
 10
65.087499999999991
 20
98.497179717642254
 30
0.0
 11
65.087500000000006
 21
116.78144118816139
 31
0.0
  0
LINE
  5
131C
  8
0
 62
     0
 10
65.087499999999991
 20
71.73370616123222
 30
0.0
 11
65.087499999999991
 21
73.54944469071458
 31
0.0
  0
LINE
  5
131D
  8
0
 62
     0
 10
63.500000000000007
 20
98.497179717641387
 30
0.0
 11
63.500000000000007
 21
99.797179717640546
 31
0.0
  0
LINE
  5
131E
  8
0
 62
     0
 10
63.500000000000007
 20
114.9971797176448
 30
0.0
 11
63.500000000000007
 21
116.78144118816139
 31
0.0
  0
LINE
  5
131F
  8
0
 62
     0
 10
63.500000000000007
 20
71.73370616123222
 30
0.0
 11
63.500000000000007
 21
73.54944469071458
 31
0.0
  0
LINE
  5
1320
  8
0
 62
     0
 10
61.912500000000001
 20
98.49717971764052
 30
0.0
 11
61.912500000000001
 21
99.797179717640546
 31
0.0
  0
LINE
  5
1321
  8
0
 62
     0
 10
61.912500000000001
 20
114.9971797176436
 30
0.0
 11
61.912500000000001
 21
116.78144118816139
 31
0.0
  0
LINE
  5
1322
  8
0
 62
     0
 10
61.912500000000001
 20
71.73370616123222
 30
0.0
 11
61.912500000000001
 21
73.54944469071458
 31
0.0
  0
LINE
  5
1323
  8
0
 62
     0
 10
60.325000000000003
 20
98.497179717639654
 30
0.0
 11
60.325000000000003
 21
99.828804842068848
 31
0.0
  0
LINE
  5
1324
  8
0
 62
     0
 10
60.325000000000003
 20
114.96555459321431
 30
0.0
 11
60.325000000000003
 21
116.78144118816139
 31
0.0
  0
LINE
  5
1325
  8
0
 62
     0
 10
60.325000000000003
 20
71.73370616123222
 30
0.0
 11
60.325000000000003
 21
73.54944469071458
 31
0.0
  0
LINE
  5
1326
  8
0
 62
     0
 10
58.737500000000011
 20
98.497179717638801
 30
0.0
 11
58.737500000000011
 21
116.7814411881613
 31
0.0
  0
LINE
  5
1327
  8
0
 62
     0
 10
58.737500000000011
 20
71.73370616123222
 30
0.0
 11
58.737500000000011
 21
73.54944469071458
 31
0.0
  0
LINE
  5
1328
  8
0
 62
     0
 10
57.149999999999999
 20
106.7814411881581
 30
0.0
 11
57.149999999999999
 21
108.2814411881613
 31
0.0
  0
LINE
  5
1329
  8
0
 62
     0
 10
57.149999999999999
 20
115.2814411881613
 30
0.0
 11
57.149999999999999
 21
116.7814411881613
 31
0.0
  0
LINE
  5
132A
  8
0
 62
     0
 10
57.149999999999999
 20
71.73370616123222
 30
0.0
 11
57.149999999999999
 21
99.781441188156677
 31
0.0
  0
LINE
  5
132B
  8
0
 62
     0
 10
55.562500000000007
 20
105.7893797277396
 30
0.0
 11
55.562500000000007
 21
109.273502648583
 31
0.0
  0
LINE
  5
132C
  8
0
 62
     0
 10
55.562500000000007
 20
114.2893797277396
 30
0.0
 11
55.562500000000007
 21
116.5235026484573
 31
0.0
  0
LINE
  5
132D
  8
0
 62
     0
 10
55.562500000000007
 20
71.73370616123222
 30
0.0
 11
55.562500000000007
 21
100.77350264857979
 31
0.0
  0
LINE
  5
132E
  8
0
 62
     0
 10
53.975000000000001
 20
71.73370616123222
 30
0.0
 11
53.975000000000001
 21
73.533706161232089
 31
0.0
  0
LINE
  5
132F
  8
0
 62
     0
 10
52.387500000000003
 20
71.73370616123222
 30
0.0
 11
52.387500000000003
 21
73.533706161231692
 31
0.0
  0
LINE
  5
1330
  8
0
 62
     0
 10
50.799999999999997
 20
71.502072594400531
 30
0.0
 11
50.799999999999997
 21
73.796816705646393
 31
0.0
  0
LINE
  5
1331
  8
0
 62
     0
 10
49.212499999999999
 20
70.599975999985134
 30
0.0
 11
49.212499999999999
 21
74.69944565000695
 31
0.0
  0
ENDBLK
  5
1333
  8
0
  0
BLOCK
  8
0
  2
*X41
 70
     1
 10
0.0
 20
0.0
 30
0.0
  3
*X41
  1

  0
LINE
  5
1335
  8
0
 62
     0
 10
76.199999999999989
 20
59.299444650023403
 30
0.0
 11
76.199999999999989
 21
63.39945665002346
 31
0.0
  0
LINE
  5
1336
  8
0
 62
     0
 10
74.612499999999983
 20
59.963915566641319
 30
0.0
 11
74.612499999999983
 21
62.734973733405681
 31
0.0
  0
LINE
  5
1337
  8
0
 62
     0
 10
73.024999999999991
 20
60.199444682530469
 30
0.0
 11
73.024999999999991
 21
62.499444682530417
 31
0.0
  0
LINE
  5
1338
  8
0
 62
     0
 10
71.4375
 20
60.199444682530462
 30
0.0
 11
71.4375
 21
62.499444682530417
 31
0.0
  0
LINE
  5
1339
  8
0
 62
     0
 10
69.849999999999994
 20
60.199444682530462
 30
0.0
 11
69.849999999999994
 21
62.499444682530417
 31
0.0
  0
LINE
  5
133A
  8
0
 62
     0
 10
68.262500000000003
 20
60.199444682530448
 30
0.0
 11
68.262500000000003
 21
62.499444682530417
 31
0.0
  0
LINE
  5
133B
  8
0
 62
     0
 10
66.674999999999997
 20
60.199444682530448
 30
0.0
 11
66.674999999999997
 21
62.499444682530417
 31
0.0
  0
LINE
  5
133C
  8
0
 62
     0
 10
65.087499999999991
 20
60.199444682530448
 30
0.0
 11
65.087499999999991
 21
62.499444682530417
 31
0.0
  0
LINE
  5
133D
  8
0
 62
     0
 10
63.500000000000007
 20
60.199444682530441
 30
0.0
 11
63.500000000000007
 21
62.499444682530417
 31
0.0
  0
LINE
  5
133E
  8
0
 62
     0
 10
61.912500000000001
 20
60.199444682530441
 30
0.0
 11
61.912500000000001
 21
62.499444682530417
 31
0.0
  0
LINE
  5
133F
  8
0
 62
     0
 10
60.325000000000003
 20
60.199444682530441
 30
0.0
 11
60.325000000000003
 21
62.499444682530417
 31
0.0
  0
LINE
  5
1340
  8
0
 62
     0
 10
58.737500000000011
 20
60.199444682530441
 30
0.0
 11
58.737500000000011
 21
62.499444682530417
 31
0.0
  0
LINE
  5
1341
  8
0
 62
     0
 10
57.149999999999999
 20
60.199444682530441
 30
0.0
 11
57.149999999999999
 21
62.499444682530417
 31
0.0
  0
LINE
  5
1342
  8
0
 62
     0
 10
55.562500000000007
 20
60.199444682530441
 30
0.0
 11
55.562500000000007
 21
62.499444682530417
 31
0.0
  0
LINE
  5
1343
  8
0
 62
     0
 10
53.975000000000001
 20
60.199444682530441
 30
0.0
 11
53.975000000000001
 21
62.499444682530417
 31
0.0
  0
LINE
  5
1344
  8
0
 62
     0
 10
52.387500000000003
 20
60.199444682530427
 30
0.0
 11
52.387500000000003
 21
62.499444682530417
 31
0.0
  0
LINE
  5
1345
  8
0
 62
     0
 10
50.799999999999997
 20
60.18970205771393
 30
0.0
 11
50.799999999999997
 21
62.509187277926962
 31
0.0
  0
LINE
  5
1346
  8
0
 62
     0
 10
49.212499999999999
 20
59.299444650023482
 30
0.0
 11
49.212499999999999
 21
63.39944565000696
 31
0.0
  0
ENDBLK
  5
1348
  8
0
  0
BLOCK
  8
0
  2
*X42
 70
     1
 10
0.0
 20
0.0
 30
0.0
  3
*X42
  1

  0
LINE
  5
1380
  8
0
 62
     0
 10
30.000000000144279
 20
9.5435564980156862
 30
0.0
 11
29.785044591094451
 21
9.7585119070655093
 31
0.0
  0
LINE
  5
1381
  8
0
 62
     0
 10
30.000000000144279
 20
8.4210244828820446
 30
0.0
 11
28.791889535733919
 21
9.6291349472923944
 31
0.0
  0
LINE
  5
1382
  8
0
 62
     0
 10
30.000000000144279
 20
7.2984924677484013
 30
0.0
 11
27.696179936233221
 21
9.6023125316594591
 31
0.0
  0
LINE
  5
1383
  8
0
 62
     0
 10
30.000000000144279
 20
6.175960452614758
 30
0.0
 11
26.458603330105699
 21
9.7173571226533326
 31
0.0
  0
LINE
  5
1384
  8
0
 62
     0
 10
30.000000000144279
 20
5.0534284374811138
 30
0.0
 11
25.999999999665711
 21
9.0534284379596741
 31
0.0
  0
LINE
  5
1385
  8
0
 62
     0
 10
30.000000000144279
 20
3.9308964223474661
 30
0.0
 11
25.43089642247649
 21
8.50000000001525
 31
0.0
  0
LINE
  5
1386
  8
0
 62
     0
 10
28.243737768197231
 20
4.5646266391608687
 30
0.0
 11
24.563860370612751
 21
8.2445040367453561
 31
0.0
  0
LINE
  5
1387
  8
0
 62
     0
 10
25.18583239221595
 20
6.5000000000084981
 30
0.0
 11
24.500000000050491
 21
7.1858323921739551
 31
0.0
  0
LINE
  5
1388
  8
0
 62
     0
 10
27.50485410063979
 20
4.1809782915846601
 30
0.0
 11
26.000000000144802
 21
5.6858323920796439
 31
0.0
  0
LINE
  5
1389
  8
0
 62
     0
 10
26.142017163115931
 20
4.4212832139748857
 30
0.0
 11
25.76451961880031
 21
4.798780758290504
 31
0.0
  0
LINE
  5
138A
  8
0
 62
     0
 10
29.637593697385569
 20
3.4854458626051388
 30
0.0
 11
30.000000000144279
 21
3.847852165363848
 31
0.0
  0
LINE
  5
138B
  8
0
 62
     0
 10
29.338050327412109
 20
4.3084345077653303
 30
0.0
 11
30.000000000144279
 21
4.9703841804974882
 31
0.0
  0
LINE
  5
138C
  8
0
 62
     0
 10
28.765754104161111
 20
4.8586702996479607
 30
0.0
 11
30.000000000144279
 21
6.0929161956311351
 31
0.0
  0
LINE
  5
138D
  8
0
 62
     0
 10
28.00064141575114
 20
4.0935576112380021
 30
0.0
 11
28.258294972524499
 21
4.3512111680113597
 31
0.0
  0
LINE
  5
138E
  8
0
 62
     0
 10
27.046372718744379
 20
4.2618209293648777
 30
0.0
 11
30.000000000144279
 21
7.2154482107647828
 31
0.0
  0
LINE
  5
138F
  8
0
 62
     0
 10
26.092104021737601
 20
4.4300842474917523
 30
0.0
 11
30.000000000144279
 21
8.3379802258984235
 31
0.0
  0
LINE
  5
1390
  8
0
 62
     0
 10
26.00000000014667
 20
5.4605122410344631
 30
0.0
 11
30.000000000144279
 21
9.4605122410320703
 31
0.0
  0
LINE
  5
1391
  8
0
 62
     0
 10
25.893666306773039
 20
6.4767105627944801
 30
0.0
 11
29.072388621534511
 21
9.6554328775559455
 31
0.0
  0
LINE
  5
1392
  8
0
 62
     0
 10
24.825764097368861
 20
6.5313403685239448
 30
0.0
 11
27.892690376955638
 21
9.5982666481107142
 31
0.0
  0
LINE
  5
1393
  8
0
 62
     0
 10
25.99999999966759
 20
8.8281082859563096
 30
0.0
 11
26.837474026840582
 21
9.6655823131293044
 31
0.0
  0
LINE
  5
1394
  8
0
 62
     0
 10
24.49999999998218
 20
7.3281082862709086
 30
0.0
 11
25.671891713723781
 21
8.5000000000125002
 31
0.0
  0
ENDBLK
  5
1396
  8
0
  0
BLOCK
  8
0
  2
*X43
 70
     1
 10
0.0
 20
0.0
 30
0.0
  3
*X43
  1

  0
LINE
  5
1398
  8
0
 62
     0
 10
62.000000000016399
 20
8.9744529218855842
 30
0.0
 11
61.292741409379012
 21
9.681711512522984
 31
0.0
  0
LINE
  5
1399
  8
0
 62
     0
 10
63.499999999770871
 20
7.4744529221311238
 30
0.0
 11
62.474452921887817
 21
8.5000000000141718
 31
0.0
  0
LINE
  5
139A
  8
0
 62
     0
 10
63.27167441811244
 20
6.5802464886559022
 30
0.0
 11
60.251074271029843
 21
9.6008466357385114
 31
0.0
  0
LINE
  5
139B
  8
0
 62
     0
 10
62.229388891634201
 20
6.5000000000005018
 30
0.0
 11
59.09016882870268
 21
9.6392200629320186
 31
0.0
  0
LINE
  5
139C
  8
0
 62
     0
 10
61.999999999537323
 20
5.606856876963751
 30
0.0
 11
58.000000000144432
 21
9.6068568763566304
 31
0.0
  0
LINE
  5
139D
  8
0
 62
     0
 10
62.032304104628871
 20
4.4520207567385457
 30
0.0
 11
58.000000000144439
 21
8.48432486122298
 31
0.0
  0
LINE
  5
139E
  8
0
 62
     0
 10
61.078035407622089
 20
4.2837574386116737
 30
0.0
 11
58.000000000144432
 21
7.3617928460893367
 31
0.0
  0
LINE
  5
139F
  8
0
 62
     0
 10
59.425587647328541
 20
4.8136731837715816
 30
0.0
 11
58.000000000144439
 21
6.2392608309556943
 31
0.0
  0
LINE
  5
13A0
  8
0
 62
     0
 10
60.123766710615328
 20
4.1154941204847999
 30
0.0
 11
59.768727145435207
 21
4.4705336856649156
 31
0.0
  0
LINE
  5
13A1
  8
0
 62
     0
 10
58.701001178447513
 20
4.4157276375189713
 30
0.0
 11
58.000000000144432
 21
5.1167288158220501
 31
0.0
  0
LINE
  5
13A2
  8
0
 62
     0
 10
58.401457808474063
 20
3.592738992358782
 30
0.0
 11
58.000000000144439
 21
3.994196800688405
 31
0.0
  0
LINE
  5
13A3
  8
0
 62
     0
 10
62.035656054452978
 20
4.452611795930518
 30
0.0
 11
62.25741688991679
 21
4.6743726313943368
 31
0.0
  0
LINE
  5
13A4
  8
0
 62
     0
 10
62.960512243399322
 20
6.5000000000104983
 30
0.0
 11
63.499999999562
 21
7.039487756173183
 31
0.0
  0
LINE
  5
13A5
  8
0
 62
     0
 10
60.672819116929119
 20
4.2123068735402951
 30
0.0
 11
61.999999999536762
 21
5.5394877561479383
 31
0.0
  0
LINE
  5
13A6
  8
0
 62
     0
 10
59.76421902896228
 20
4.426238800707103
 30
0.0
 11
63.479541786705823
 21
8.1415615584506433
 31
0.0
  0
LINE
  5
13A7
  8
0
 62
     0
 10
59.04608802924534
 20
4.8306398161238064
 30
0.0
 11
62.715448213138451
 21
8.5000000000169216
 31
0.0
  0
LINE
  5
13A8
  8
0
 62
     0
 10
58.000000000144418
 20
3.7845517870228949
 30
0.0
 11
58.740958963897668
 21
4.5255107507761423
 31
0.0
  0
LINE
  5
13A9
  8
0
 62
     0
 10
58.000000000144418
 20
4.9070838021565448
 30
0.0
 11
62.000000000015838
 21
8.9070838020279623
 31
0.0
  0
LINE
  5
13AA
  8
0
 62
     0
 10
58.000000000144432
 20
6.0296158172901917
 30
0.0
 11
61.716731080143859
 21
9.7463468972896194
 31
0.0
  0
LINE
  5
13AB
  8
0
 62
     0
 10
58.000000000144439
 20
7.152147832423835
 30
0.0
 11
60.455956059016017
 21
9.6081038912954142
 31
0.0
  0
LINE
  5
13AC
  8
0
 62
     0
 10
58.000000000144432
 20
8.2746798475574792
 30
0.0
 11
59.344542698422529
 21
9.6192225458355765
 31
0.0
  0
LINE
  5
13AD
  8
0
 62
     0
 10
58.000000000144418
 20
9.3972118626911154
 30
0.0
 11
58.339490121961418
 21
9.7367019845081089
 31
0.0
  0
ENDBLK
  5
13AF
  8
0
  0
BLOCK
  8
0
  2
*U44
 70
     1
 10
0.0
 20
0.0
 30
0.0
  3
*U44
  1

  0
TEXT
  5
14EE
  8
0
 62
     2
 10
57.551991686137953
 20
11.550000000630281
 30
0.0
 40
3.5
  1
28
 50
90.0
  7
BYGG-027379$0$ISO
  0
ENDBLK
  5
14F0
  8
0
  0
BLOCK
  8
0
  2
*U45
 70
     1
 10
0.0
 20
0.0
 30
0.0
  3
*U45
  1

  0
TEXT
  5
14F2
  8
0
 62
     2
 10
20.874999999841279
 20
-6.9002964607942188
 30
0.0
 40
3.5
  1
47
  7
BYGG-027379$0$ISO
  0
ENDBLK
  5
14F4
  8
0
  0
BLOCK
  8
0
  2
*X46
 70
     1
 10
0.0
 20
0.0
 30
0.0
  3
*X46
  1

  0
LINE
  5
14F6
  8
0
 62
     0
 10
38.100000000000001
 20
7.2500120012615357
 30
0.0
 11
38.100000000000001
 21
11.35002133459092
 31
0.0
  0
LINE
  5
14F7
  8
0
 62
     0
 10
36.512500000000003
 20
7.9722179862110449
 30
0.0
 11
36.512500000000003
 21
10.62780601631216
 31
0.0
  0
LINE
  5
14F8
  8
0
 62
     0
 10
34.924999999999997
 20
8.3500120012634689
 30
0.0
 11
34.924999999999997
 21
10.250012001263441
 31
0.0
  0
LINE
  5
14F9
  8
0
 62
     0
 10
33.337499999999999
 20
8.3500120012634689
 30
0.0
 11
33.337499999999999
 21
10.250012001263441
 31
0.0
  0
LINE
  5
14FA
  8
0
 62
     0
 10
31.75
 20
8.3500120012634689
 30
0.0
 11
31.75
 21
10.250012001263441
 31
0.0
  0
LINE
  5
14FB
  8
0
 62
     0
 10
30.162500000000001
 20
8.3500120012634689
 30
0.0
 11
30.162500000000001
 21
10.250012001263441
 31
0.0
  0
LINE
  5
14FC
  8
0
 62
     0
 10
28.574999999999999
 20
8.3500120012634689
 30
0.0
 11
28.574999999999999
 21
10.250012001263441
 31
0.0
  0
LINE
  5
14FD
  8
0
 62
     0
 10
26.987500000000001
 20
8.3500120012634689
 30
0.0
 11
26.987500000000001
 21
10.250012001263441
 31
0.0
  0
LINE
  5
14FE
  8
0
 62
     0
 10
25.399999999999999
 20
8.3500120012634689
 30
0.0
 11
25.399999999999999
 21
10.250012001263441
 31
0.0
  0
LINE
  5
14FF
  8
0
 62
     0
 10
23.8125
 20
8.3500120012634689
 30
0.0
 11
23.8125
 21
10.250012001263441
 31
0.0
  0
LINE
  5
1500
  8
0
 62
     0
 10
22.225000000000001
 20
8.3500120012634689
 30
0.0
 11
22.225000000000001
 21
10.250012001263441
 31
0.0
  0
LINE
  5
1501
  8
0
 62
     0
 10
20.637499999999999
 20
8.3500120012634689
 30
0.0
 11
20.637499999999999
 21
10.250012001263441
 31
0.0
  0
LINE
  5
1502
  8
0
 62
     0
 10
19.050000000000001
 20
8.3500120012634689
 30
0.0
 11
19.050000000000001
 21
10.250012001263441
 31
0.0
  0
LINE
  5
1503
  8
0
 62
     0
 10
17.462499999999999
 20
8.3500120012634689
 30
0.0
 11
17.462499999999999
 21
10.250012001263441
 31
0.0
  0
LINE
  5
1504
  8
0
 62
     0
 10
15.875
 20
8.3500120012634689
 30
0.0
 11
15.875
 21
10.250012001263441
 31
0.0
  0
LINE
  5
1505
  8
0
 62
     0
 10
14.2875
 20
8.3500120012634689
 30
0.0
 11
14.2875
 21
10.250012001263441
 31
0.0
  0
LINE
  5
1506
  8
0
 62
     0
 10
12.699999999999999
 20
8.3500120012634689
 30
0.0
 11
12.699999999999999
 21
10.250012001263441
 31
0.0
  0
LINE
  5
1507
  8
0
 62
     0
 10
11.112500000000001
 20
8.3119842071189947
 30
0.0
 11
11.112500000000001
 21
10.28803979540581
 31
0.0
  0
LINE
  5
1508
  8
0
 62
     0
 10
9.5249999999999986
 20
7.4165183522993479
 30
0.0
 11
9.5249999999999986
 21
11.18350565022406
 31
0.0
  0
ENDBLK
  5
150A
  8
0
  0
BLOCK
  8
0
  2
*U47
 70
     1
 10
0.0
 20
0.0
 30
0.0
  3
*U47
  1

  0
TEXT
  5
1522
  8
0
 62
     2
 10
45.900000000090387
 20
102.0000000000001
 30
0.0
 40
3.5
  1
71.5
  7
ISO
  0
ENDBLK
  5
1524
  8
0
  0
BLOCK
  8
0
  2
*U48
 70
     1
 10
0.0
 20
0.0
 30
0.0
  3
*U48
  1

  0
TEXT
  5
1526
  8
0
 62
     2
 10
106.37499999984141
 20
102.0000000000005
 30
0.0
 40
3.5
  1
47
  7
ISO
  0
ENDBLK
  5
1528
  8
0
  0
BLOCK
  8
0
  2
*U49
 70
     1
 10
0.0
 20
0.0
 30
0.0
  3
*U49
  1

  0
TEXT
  5
152A
  8
0
 62
     2
 10
132.77499999950211
 20
102.0000000000001
 30
0.0
 40
3.5
  1
6.5
  7
ISO
  0
ENDBLK
  5
152C
  8
0
  0
BLOCK
  8
0
  2
*U50
 70
     1
 10
0.0
 20
0.0
 30
0.0
  3
*U50
  1

  0
TEXT
  5
152E
  8
0
 62
     2
 10
73.17500000000004
 20
114.0000000000001
 30
0.0
 40
3.5
  1
125
  7
ISO
  0
ENDBLK
  5
1530
  8
0
  0
BLOCK
  8
0
  2
*U51
 70
     1
 10
0.0
 20
0.0
 30
0.0
  3
*U51
  1

  0
TEXT
  5
1532
  8
0
 62
     2
 10
73.174999963870675
 20
-68.462756140658584
 30
0.0
 40
3.5
  1
125
  7
BYGG-027377$0$ISO
  0
ENDBLK
  5
1534
  8
0
  0
BLOCK
  8
0
  2
*U52
 70
     1
 10
0.0
 20
0.0
 30
0.0
  3
*U52
  1

  0
TEXT
  5
1A70
  8
0
 62
     2
 10
143.051991686138
 20
53.549999999379892
 30
0.0
 40
3.5
  1
28
 50
90.0
  7
BYGG-027379$0$ISO
  0
ENDBLK
  5
1A72
  8
0
  0
BLOCK
  8
0
  2
*U53
 70
     1
 10
0.0
 20
0.0
 30
0.0
  3
*U53
  1

  0
TEXT
  5
1A74
  8
0
 62
     2
 10
106.37499999984141
 20
35.099703537955378
 30
0.0
 40
3.5
  1
47
  7
BYGG-027379$0$ISO
  0
ENDBLK
  5
1A76
  8
0
  0
BLOCK
  8
0
  2
*U54
 70
     1
 10
0.0
 20
0.0
 30
0.0
  3
*U54
  1

  0
TEXT
  5
1A78
  8
0
 62
     2
 10
152.90701892661929
 20
-1.474999999999967
 30
0.0
 40
3.5
  1
117
 50
90.0
  7
BYGG-027377$0$ISO
  0
ENDBLK
  5
1A7A
  8
0
  0
BLOCK
  8
0
  2
*X55
 70
     1
 10
0.0
 20
0.0
 30
0.0
  3
*X55
  1

  0
LINE
  5
1AB1
  8
0
 62
     0
 10
127.0000000000164
 20
68.974452921885586
 30
0.0
 11
126.292741409379
 21
69.68171151252298
 31
0.0
  0
LINE
  5
1AB2
  8
0
 62
     0
 10
128.49999999977081
 20
67.474452922131135
 30
0.0
 11
127.4744529218878
 21
68.500000000014182
 31
0.0
  0
LINE
  5
1AB3
  8
0
 62
     0
 10
128.27167441811241
 20
66.580246488655902
 30
0.0
 11
125.25107427102979
 21
69.600846635738506
 31
0.0
  0
LINE
  5
1AB4
  8
0
 62
     0
 10
127.2293888916342
 20
66.500000000000512
 30
0.0
 11
124.0901688287027
 21
69.639220062932026
 31
0.0
  0
LINE
  5
1AB5
  8
0
 62
     0
 10
126.99999999953729
 20
65.606856876963761
 30
0.0
 11
123.0000000001444
 21
69.60685687635663
 31
0.0
  0
LINE
  5
1AB6
  8
0
 62
     0
 10
127.03230410462881
 20
64.452020756738577
 30
0.0
 11
123.0000000001444
 21
68.484324861222973
 31
0.0
  0
LINE
  5
1AB7
  8
0
 62
     0
 10
126.0780354076221
 20
64.283757438611673
 30
0.0
 11
123.0000000001444
 21
67.36179284608933
 31
0.0
  0
LINE
  5
1AB8
  8
0
 62
     0
 10
124.4255876473285
 20
64.813673183771613
 30
0.0
 11
123.0000000001444
 21
66.2392608309557
 31
0.0
  0
LINE
  5
1AB9
  8
0
 62
     0
 10
125.1237667106153
 20
64.115494120484811
 30
0.0
 11
124.76872714543519
 21
64.470533685664947
 31
0.0
  0
LINE
  5
1ABA
  8
0
 62
     0
 10
123.7010011784475
 20
64.415727637518984
 30
0.0
 11
123.0000000001444
 21
65.116728815822057
 31
0.0
  0
LINE
  5
1ABB
  8
0
 62
     0
 10
123.40145780847401
 20
63.59273899235879
 30
0.0
 11
123.0000000001444
 21
63.994196800688421
 31
0.0
  0
LINE
  5
1ABC
  8
0
 62
     0
 10
127.035656054453
 20
64.452611795930522
 30
0.0
 11
127.2574168899168
 21
64.674372631394334
 31
0.0
  0
LINE
  5
1ABD
  8
0
 62
     0
 10
127.96051224339929
 20
66.500000000010502
 30
0.0
 11
128.49999999956199
 21
67.039487756173173
 31
0.0
  0
LINE
  5
1ABE
  8
0
 62
     0
 10
125.67281911692911
 20
64.2123068735403
 30
0.0
 11
126.9999999995367
 21
65.539487756147921
 31
0.0
  0
LINE
  5
1ABF
  8
0
 62
     0
 10
124.7642190289622
 20
64.426238800707083
 30
0.0
 11
128.47954178670579
 21
68.141561558450633
 31
0.0
  0
LINE
  5
1AC0
  8
0
 62
     0
 10
124.0460880292453
 20
64.830639816123821
 30
0.0
 11
127.7154482131384
 21
68.500000000016911
 31
0.0
  0
LINE
  5
1AC1
  8
0
 62
     0
 10
123.0000000001444
 20
63.784551787022899
 30
0.0
 11
123.7409589638976
 21
64.525510750776121
 31
0.0
  0
LINE
  5
1AC2
  8
0
 62
     0
 10
123.0000000001444
 20
64.907083802156549
 30
0.0
 11
127.0000000000158
 21
68.907083802027955
 31
0.0
  0
LINE
  5
1AC3
  8
0
 62
     0
 10
123.0000000001444
 20
66.029615817290193
 30
0.0
 11
126.7167310801438
 21
69.746346897289612
 31
0.0
  0
LINE
  5
1AC4
  8
0
 62
     0
 10
123.0000000001444
 20
67.152147832423836
 30
0.0
 11
125.455956059016
 21
69.608103891295414
 31
0.0
  0
LINE
  5
1AC5
  8
0
 62
     0
 10
123.0000000001444
 20
68.274679847557479
 30
0.0
 11
124.3445426984225
 21
69.619222545835584
 31
0.0
  0
LINE
  5
1AC6
  8
0
 62
     0
 10
123.0000000001444
 20
69.397211862691094
 30
0.0
 11
123.3394901219614
 21
69.736701984508102
 31
0.0
  0
ENDBLK
  5
1AC8
  8
0
  0
BLOCK
  8
0
  2
*X56
 70
     1
 10
0.0
 20
0.0
 30
0.0
  3
*X56
  1

  0
LINE
  5
1ACA
  8
0
 62
     0
 10
95.000000000144297
 20
69.54355649801569
 30
0.0
 11
94.785044591094461
 21
69.758511907065511
 31
0.0
  0
LINE
  5
1ACB
  8
0
 62
     0
 10
95.000000000144297
 20
68.421024482882046
 30
0.0
 11
93.79188953573393
 21
69.6291349472924
 31
0.0
  0
LINE
  5
1ACC
  8
0
 62
     0
 10
95.000000000144269
 20
67.298492467748403
 30
0.0
 11
92.696179936233221
 21
69.60231253165945
 31
0.0
  0
LINE
  5
1ACD
  8
0
 62
     0
 10
95.000000000144297
 20
66.17596045261476
 30
0.0
 11
91.458603330105717
 21
69.71735712265334
 31
0.0
  0
LINE
  5
1ACE
  8
0
 62
     0
 10
95.000000000144297
 20
65.053428437481102
 30
0.0
 11
90.999999999665732
 21
69.053428437959667
 31
0.0
  0
LINE
  5
1ACF
  8
0
 62
     0
 10
95.000000000144297
 20
63.930896422347459
 30
0.0
 11
90.430896422476479
 21
68.500000000015262
 31
0.0
  0
LINE
  5
1AD0
  8
0
 62
     0
 10
93.243737768197207
 20
64.564626639160892
 30
0.0
 11
89.563860370612744
 21
68.244504036745354
 31
0.0
  0
LINE
  5
1AD1
  8
0
 62
     0
 10
90.185832392215957
 20
66.500000000008512
 30
0.0
 11
89.500000000050505
 21
67.185832392173936
 31
0.0
  0
LINE
  5
1AD2
  8
0
 62
     0
 10
92.504854100639776
 20
64.18097829158468
 30
0.0
 11
91.000000000144794
 21
65.685832392079647
 31
0.0
  0
LINE
  5
1AD3
  8
0
 62
     0
 10
91.142017163115923
 20
64.421283213974903
 30
0.0
 11
90.764519618800307
 21
64.798780758290519
 31
0.0
  0
LINE
  5
1AD4
  8
0
 62
     0
 10
94.637593697385554
 20
63.485445862605133
 30
0.0
 11
95.000000000144269
 21
63.84785216536384
 31
0.0
  0
LINE
  5
1AD5
  8
0
 62
     0
 10
94.338050327412105
 20
64.308434507765327
 30
0.0
 11
95.000000000144269
 21
64.970384180497476
 31
0.0
  0
LINE
  5
1AD6
  8
0
 62
     0
 10
93.765754104161104
 20
64.858670299647969
 30
0.0
 11
95.000000000144269
 21
66.092916195631119
 31
0.0
  0
LINE
  5
1AD7
  8
0
 62
     0
 10
93.000641415751147
 20
64.093557611238012
 30
0.0
 11
93.25829497252451
 21
64.351211168011361
 31
0.0
  0
LINE
  5
1AD8
  8
0
 62
     0
 10
92.046372718744365
 20
64.261820929364887
 30
0.0
 11
95.000000000144269
 21
67.215448210764762
 31
0.0
  0
LINE
  5
1AD9
  8
0
 62
     0
 10
91.092104021737612
 20
64.430084247491749
 30
0.0
 11
95.000000000144269
 21
68.337980225898406
 31
0.0
  0
LINE
  5
1ADA
  8
0
 62
     0
 10
91.000000000146684
 20
65.460512241034465
 30
0.0
 11
95.000000000144269
 21
69.460512241032063
 31
0.0
  0
LINE
  5
1ADB
  8
0
 62
     0
 10
90.893666306773042
 20
66.47671056279448
 30
0.0
 11
94.072388621534515
 21
69.655432877555924
 31
0.0
  0
LINE
  5
1ADC
  8
0
 62
     0
 10
89.825764097368875
 20
66.531340368523942
 30
0.0
 11
92.892690376955642
 21
69.598266648110723
 31
0.0
  0
LINE
  5
1ADD
  8
0
 62
     0
 10
90.99999999966758
 20
68.828108285956304
 30
0.0
 11
91.837474026840582
 21
69.665582313129306
 31
0.0
  0
LINE
  5
1ADE
  8
0
 62
     0
 10
89.499999999982165
 20
67.328108286270904
 30
0.0
 11
90.671891713723781
 21
68.500000000012506
 31
0.0
  0
ENDBLK
  5
1AE0
  8
0
  0
BLOCK
  8
0
  2
*X57
 70
     1
 10
0.0
 20
0.0
 30
0.0
  3
*X57
  1

  0
LINE
  5
1B17
  8
0
 62
     0
 10
127.0000000000164
 20
68.974452921885586
 30
0.0
 11
126.292741409379
 21
69.68171151252298
 31
0.0
  0
LINE
  5
1B18
  8
0
 62
     0
 10
128.49999999977081
 20
67.474452922131135
 30
0.0
 11
127.4744529218878
 21
68.500000000014182
 31
0.0
  0
LINE
  5
1B19
  8
0
 62
     0
 10
128.27167441811241
 20
66.580246488655902
 30
0.0
 11
125.25107427102979
 21
69.600846635738506
 31
0.0
  0
LINE
  5
1B1A
  8
0
 62
     0
 10
127.2293888916342
 20
66.500000000000512
 30
0.0
 11
124.0901688287027
 21
69.639220062932026
 31
0.0
  0
LINE
  5
1B1B
  8
0
 62
     0
 10
126.99999999953729
 20
65.606856876963761
 30
0.0
 11
123.0000000001444
 21
69.60685687635663
 31
0.0
  0
LINE
  5
1B1C
  8
0
 62
     0
 10
127.03230410462881
 20
64.452020756738577
 30
0.0
 11
123.0000000001444
 21
68.484324861222973
 31
0.0
  0
LINE
  5
1B1D
  8
0
 62
     0
 10
126.0780354076221
 20
64.283757438611673
 30
0.0
 11
123.0000000001444
 21
67.36179284608933
 31
0.0
  0
LINE
  5
1B1E
  8
0
 62
     0
 10
124.4255876473285
 20
64.813673183771613
 30
0.0
 11
123.0000000001444
 21
66.2392608309557
 31
0.0
  0
LINE
  5
1B1F
  8
0
 62
     0
 10
125.1237667106153
 20
64.115494120484811
 30
0.0
 11
124.76872714543519
 21
64.470533685664947
 31
0.0
  0
LINE
  5
1B20
  8
0
 62
     0
 10
123.7010011784475
 20
64.415727637518984
 30
0.0
 11
123.0000000001444
 21
65.116728815822057
 31
0.0
  0
LINE
  5
1B21
  8
0
 62
     0
 10
123.40145780847401
 20
63.59273899235879
 30
0.0
 11
123.0000000001444
 21
63.994196800688421
 31
0.0
  0
LINE
  5
1B22
  8
0
 62
     0
 10
127.035656054453
 20
64.452611795930522
 30
0.0
 11
127.2574168899168
 21
64.674372631394334
 31
0.0
  0
LINE
  5
1B23
  8
0
 62
     0
 10
127.96051224339929
 20
66.500000000010502
 30
0.0
 11
128.49999999956199
 21
67.039487756173173
 31
0.0
  0
LINE
  5
1B24
  8
0
 62
     0
 10
125.67281911692911
 20
64.2123068735403
 30
0.0
 11
126.9999999995367
 21
65.539487756147921
 31
0.0
  0
LINE
  5
1B25
  8
0
 62
     0
 10
124.7642190289622
 20
64.426238800707083
 30
0.0
 11
128.47954178670579
 21
68.141561558450633
 31
0.0
  0
LINE
  5
1B26
  8
0
 62
     0
 10
124.0460880292453
 20
64.830639816123821
 30
0.0
 11
127.7154482131384
 21
68.500000000016911
 31
0.0
  0
LINE
  5
1B27
  8
0
 62
     0
 10
123.0000000001444
 20
63.784551787022899
 30
0.0
 11
123.7409589638976
 21
64.525510750776121
 31
0.0
  0
LINE
  5
1B28
  8
0
 62
     0
 10
123.0000000001444
 20
64.907083802156549
 30
0.0
 11
127.0000000000158
 21
68.907083802027955
 31
0.0
  0
LINE
  5
1B29
  8
0
 62
     0
 10
123.0000000001444
 20
66.029615817290193
 30
0.0
 11
126.7167310801438
 21
69.746346897289612
 31
0.0
  0
LINE
  5
1B2A
  8
0
 62
     0
 10
123.0000000001444
 20
67.152147832423836
 30
0.0
 11
125.455956059016
 21
69.608103891295414
 31
0.0
  0
LINE
  5
1B2B
  8
0
 62
     0
 10
123.0000000001444
 20
68.274679847557479
 30
0.0
 11
124.3445426984225
 21
69.619222545835584
 31
0.0
  0
LINE
  5
1B2C
  8
0
 62
     0
 10
123.0000000001444
 20
69.397211862691094
 30
0.0
 11
123.3394901219614
 21
69.736701984508102
 31
0.0
  0
ENDBLK
  5
1B2E
  8
0
  0
BLOCK
  8
0
  2
*X58
 70
     1
 10
0.0
 20
0.0
 30
0.0
  3
*X58
  1

  0
LINE
  5
1B30
  8
0
 62
     0
 10
95.000000000144297
 20
69.54355649801569
 30
0.0
 11
94.785044591094461
 21
69.758511907065511
 31
0.0
  0
LINE
  5
1B31
  8
0
 62
     0
 10
95.000000000144297
 20
68.421024482882046
 30
0.0
 11
93.79188953573393
 21
69.6291349472924
 31
0.0
  0
LINE
  5
1B32
  8
0
 62
     0
 10
95.000000000144269
 20
67.298492467748403
 30
0.0
 11
92.696179936233221
 21
69.60231253165945
 31
0.0
  0
LINE
  5
1B33
  8
0
 62
     0
 10
95.000000000144297
 20
66.17596045261476
 30
0.0
 11
91.458603330105717
 21
69.71735712265334
 31
0.0
  0
LINE
  5
1B34
  8
0
 62
     0
 10
95.000000000144297
 20
65.053428437481102
 30
0.0
 11
90.999999999665732
 21
69.053428437959667
 31
0.0
  0
LINE
  5
1B35
  8
0
 62
     0
 10
95.000000000144297
 20
63.930896422347459
 30
0.0
 11
90.430896422476479
 21
68.500000000015262
 31
0.0
  0
LINE
  5
1B36
  8
0
 62
     0
 10
93.243737768197207
 20
64.564626639160892
 30
0.0
 11
89.563860370612744
 21
68.244504036745354
 31
0.0
  0
LINE
  5
1B37
  8
0
 62
     0
 10
90.185832392215957
 20
66.500000000008512
 30
0.0
 11
89.500000000050505
 21
67.185832392173936
 31
0.0
  0
LINE
  5
1B38
  8
0
 62
     0
 10
92.504854100639776
 20
64.18097829158468
 30
0.0
 11
91.000000000144794
 21
65.685832392079647
 31
0.0
  0
LINE
  5
1B39
  8
0
 62
     0
 10
91.142017163115923
 20
64.421283213974903
 30
0.0
 11
90.764519618800307
 21
64.798780758290519
 31
0.0
  0
LINE
  5
1B3A
  8
0
 62
     0
 10
94.637593697385554
 20
63.485445862605133
 30
0.0
 11
95.000000000144269
 21
63.84785216536384
 31
0.0
  0
LINE
  5
1B3B
  8
0
 62
     0
 10
94.338050327412105
 20
64.308434507765327
 30
0.0
 11
95.000000000144269
 21
64.970384180497476
 31
0.0
  0
LINE
  5
1B3C
  8
0
 62
     0
 10
93.765754104161104
 20
64.858670299647969
 30
0.0
 11
95.000000000144269
 21
66.092916195631119
 31
0.0
  0
LINE
  5
1B3D
  8
0
 62
     0
 10
93.000641415751147
 20
64.093557611238012
 30
0.0
 11
93.25829497252451
 21
64.351211168011361
 31
0.0
  0
LINE
  5
1B3E
  8
0
 62
     0
 10
92.046372718744365
 20
64.261820929364887
 30
0.0
 11
95.000000000144269
 21
67.215448210764762
 31
0.0
  0
LINE
  5
1B3F
  8
0
 62
     0
 10
91.092104021737612
 20
64.430084247491749
 30
0.0
 11
95.000000000144269
 21
68.337980225898406
 31
0.0
  0
LINE
  5
1B40
  8
0
 62
     0
 10
91.000000000146684
 20
65.460512241034465
 30
0.0
 11
95.000000000144269
 21
69.460512241032063
 31
0.0
  0
LINE
  5
1B41
  8
0
 62
     0
 10
90.893666306773042
 20
66.47671056279448
 30
0.0
 11
94.072388621534515
 21
69.655432877555924
 31
0.0
  0
LINE
  5
1B42
  8
0
 62
     0
 10
89.825764097368875
 20
66.531340368523942
 30
0.0
 11
92.892690376955642
 21
69.598266648110723
 31
0.0
  0
LINE
  5
1B43
  8
0
 62
     0
 10
90.99999999966758
 20
68.828108285956304
 30
0.0
 11
91.837474026840582
 21
69.665582313129306
 31
0.0
  0
LINE
  5
1B44
  8
0
 62
     0
 10
89.499999999982165
 20
67.328108286270904
 30
0.0
 11
90.671891713723781
 21
68.500000000012506
 31
0.0
  0
ENDBLK
  5
1B46
  8
0
  0
BLOCK
  8
0
  2
*U59
 70
     1
 10
0.0
 20
0.0
 30
0.0
  3
*U59
  1

  0
TEXT
  5
1C05
  8
SAPA_MATT
 62
     2
 10
179.99734841258999
 20
-13.224999999994751
 30
0.0
 40
3.5
  1
min. 130
 50
90.0
  7
ISO
  0
ENDBLK
  5
1C07
  8
0
  0
BLOCK
  8
0
  2
*U60
 70
     1
 10
0.0
 20
0.0
 30
0.0
  3
*U60
  1

  0
TEXT
  5
1C09
  8
SAPA_MATT
 62
     2
 10
73.17500000000004
 20
114.0000000000001
 30
0.0
 40
3.5
  1
125
  7
ISO
  0
ENDBLK
  5
1C0B
  8
0
  0
BLOCK
  8
0
  2
*U61
 70
     1
 10
0.0
 20
0.0
 30
0.0
  3
*U61
  1

  0
TEXT
  5
1C0D
  8
SAPA_MATT
 62
     2
 10
45.900000000090387
 20
102.0000000000001
 30
0.0
 40
3.5
  1
71.5
  7
ISO
  0
ENDBLK
  5
1C0F
  8
0
  0
BLOCK
  8
0
  2
*U62
 70
     1
 10
0.0
 20
0.0
 30
0.0
  3
*U62
  1

  0
TEXT
  5
1C11
  8
SAPA_MATT
 62
     2
 10
167.99999999950211
 20
-1.4749999999999679
 30
0.0
 40
3.5
  1
117
 50
90.0
  7
ISO
  0
ENDBLK
  5
1C13
  8
0
  0
ENDSEC
  0
SECTION
  2
ENTITIES
  0
TEXT
  5
70A
  8
SAPA_ARTIKELNR
 10
12.345450637514279
 20
-32.243587403564142
 30
0.0000000048844772
 40
3.5
  1
D8K029
 50
90.0
  7
ISO
  0
TEXT
  5
722
  8
SAPA_ARTIKELNR
 10
130.4490282467404
 20
71.432510928874734
 30
0.0000000048844772
 40
3.5
  1
D8V002
 50
90.0
  7
ISO
  0
POLYLINE
  5
9BB
  8
SAPA_GLAS
 66
     1
 10
0.0
 20
0.0
 30
0.0
 70
     1
  0
VERTEX
  5
1040
  8
SAPA_GLAS
 10
132.49999992774141
 20
51.731972538123401
 30
0.0
  0
VERTEX
  5
1041
  8
SAPA_GLAS
 10
132.49999992774141
 20
39.731972538123401
 30
0.0
  0
VERTEX
  5
1042
  8
SAPA_GLAS
 10
134.49999992774141
 20
39.731972538123401
 30
0.0
  0
VERTEX
  5
1043
  8
SAPA_GLAS
 10
134.49999992774141
 20
51.731972538123401
 30
0.0
  0
SEQEND
  5
1044
  8
SAPA_GLAS
  0
POLYLINE
  5
9BD
  8
SAPA_GLAS
 66
     1
 10
0.0
 20
0.0
 30
0.0
 70
     1
  0
VERTEX
  5
1045
  8
SAPA_GLAS
 10
83.500000000090196
 20
51.900531349920101
 30
0.0
  0
VERTEX
  5
1046
  8
SAPA_GLAS
 10
83.500000000090196
 20
39.900531349920101
 30
0.0
  0
VERTEX
  5
1047
  8
SAPA_GLAS
 10
85.500000000090196
 20
39.900531349920101
 30
0.0
  0
VERTEX
  5
1048
  8
SAPA_GLAS
 10
85.500000000090424
 20
51.900531349920101
 30
0.0
  0
SEQEND
  5
1049
  8
SAPA_GLAS
  0
POLYLINE
  5
9C3
  8
SAPA_GLAS
 66
     1
 10
0.0
 20
0.0
 30
0.0
 70
     1
  0
VERTEX
  5
104A
  8
SAPA_GLAS
 10
118.9999999273319
 20
49.49999999999882
 30
0.0
  0
VERTEX
  5
104B
  8
SAPA_GLAS
 10
118.9999999273319
 20
46.999999999991537
 30
0.0
  0
VERTEX
  5
104C
  8
SAPA_GLAS
 10
130.49999992776119
 20
46.999999999991537
 30
0.0
  0
VERTEX
  5
104D
  8
SAPA_GLAS
 10
130.4999999277685
 20
17.000000000006089
 30
0.0
  0
VERTEX
  5
104E
  8
SAPA_GLAS
 10
112.0999999280872
 20
17.000000000002451
 30
0.0
  0
VERTEX
  5
104F
  8
SAPA_GLAS
 10
112.0999999280872
 20
23.999999999995179
 30
0.0
  0
VERTEX
  5
1050
  8
SAPA_GLAS
 10
105.8999999280901
 20
23.999999999995179
 30
0.0
  0
VERTEX
  5
1051
  8
SAPA_GLAS
 10
105.8999999280755
 20
16.999999999989718
 30
0.0
  0
VERTEX
  5
1052
  8
SAPA_GLAS
 10
99.99999992733197
 20
16.999999999995179
 30
0.0
  0
VERTEX
  5
1053
  8
SAPA_GLAS
 10
99.99999992733197
 20
19.99999999999882
 30
0.0
  0
VERTEX
  5
1054
  8
SAPA_GLAS
 10
87.499999928437916
 20
19.99999999999882
 30
0.0
  0
VERTEX
  5
1055
  8
SAPA_GLAS
 10
87.499999928437916
 20
46.999999999992447
 30
0.0
  0
VERTEX
  5
1056
  8
SAPA_GLAS
 10
98.999999928845384
 20
46.999999999991537
 30
0.0
  0
VERTEX
  5
1057
  8
SAPA_GLAS
 10
98.999999928845384
 20
49.49999999999882
 30
0.0
  0
SEQEND
  5
1058
  8
SAPA_GLAS
  0
LINE
  5
9C5
  8
SAPA_GLAS
 10
82.999999999631669
 20
59.78144118816158
 30
0.0
 11
85.608391980101416
 21
60.307557437964959
 31
0.0
  0
LINE
  5
9C6
  8
SAPA_GLAS
 10
134.7022107357586
 20
59.901648599074271
 30
0.0
 11
132.391749950752
 21
60.30408282374875
 31
0.0
  0
INSERT
  5
A78
  8
SAPA_GLAS
  6
CONTINUOUS
  2
*X31
 10
0.0
 20
0.0
 30
0.0
1001
ACAD
1000
HATCH
1002
{
1070
    19
1000
ANSI37
1040
0.25
1040
0.0
1000
R14_HATCH_DATA
1000
A78
1011
1.0
1021
0.0
1031
0.0
1021
0.0
1031
0.0
1011
0.0
1021
0.0
1031
0.0
1021
1.0
1031
0.0
1011
0.0
1021
0.0
1031
0.0
1021
0.0
1031
1.0
1040
0.0
1010
0.0
1020
0.0
1030
1.0
1000
ANSI37
1070
     0
1070
     0
1071
        1
1071
        7
1070
     1
1070
     1
1071
       22
1040
82.999999999908155
1040
57.031441188163171
1040
0.0
1040
82.799999999908351
1040
57.031441188163171
1040
-0.4142135623730951
1040
82.499999999908184
1040
57.331441188163353
1040
0.0
1040
82.499999999908184
1040
57.98144118816321
1040
0.4142135623730951
1040
82.199999999908897
1040
58.281441188163171
1040
0.0
1040
81.29999999991108
1040
58.281441188163171
1040
0.4142135623730951
1040
80.799999999911066
1040
57.781441188163171
1040
0.0
1040
80.799999999911066
1040
51.781441188163171
1040
0.4142135623730951
1040
81.29999999991108
1040
51.281441188163171
1040
0.0
1040
82.199999999908897
1040
51.281441188163171
1040
0.4142135623730951
1040
82.499999999908184
1040
51.581441188163353
1040
0.0
1040
82.499999999908184
1040
52.23144118816321
1040
-0.4142135623730951
1040
82.799999999908351
1040
52.531441188163171
1040
0.0
1040
82.999999999908155
1040
52.531441188163171
1040
-0.4142135623730951
1040
83.499999999908169
1040
52.031441188163171
1040
0.0
1040
83.499999999908169
1040
51.900531349920101
1040
0.0
1040
85.500000000093223
1040
51.900531349920101
1040
0.0
1040
85.500000000180634
1040
55.000000000019412
1040
-0.0102100337002159
1040
85.60839198010143
1040
60.307557437964959
1040
0.0
1040
82.999999999631669
1040
59.78144118816158
1040
-0.4142135623732285
1040
83.499999999908169
1040
59.281441188163171
1040
0.0
1040
83.499999999908169
1040
57.531441188163171
1040
-0.4142135623730951
1071
        0
1070
     0
1070
     1
1040
0.0
1040
0.25
1070
     0
1070
     2
1040
0.7853981633974483
1040
0.0
1040
0.0
1040
-0.5612660075668221
1040
0.5612660075668221
1070
     0
1040
2.3561944901923439
1040
0.0
1040
0.0
1040
-0.5612660075668221
1040
-0.5612660075668221
1070
     0
1040
0.0187891028622905
1071
        1
1040
83.069876732154853
1040
54.860964283475589
1040
0.0
1002
}
  0
INSERT
  5
BB3
  8
SAPA_GLAS
  6
CONTINUOUS
  2
*X32
 10
0.0
 20
0.0
 30
0.0
1001
ACAD
1000
HATCH
1002
{
1070
    19
1000
ANSI37
1040
0.25
1040
0.0
1000
R14_HATCH_DATA
1000
BB3
1011
1.0
1021
0.0
1031
0.0
1021
0.0
1031
0.0
1011
0.0
1021
0.0
1031
0.0
1021
1.0
1031
0.0
1011
0.0
1021
0.0
1031
0.0
1021
0.0
1031
1.0
1040
0.0
1010
0.0
1020
0.0
1030
1.0
1000
ANSI37
1070
     0
1070
     0
1071
        1
1071
        7
1070
     1
1070
     1
1071
       22
1040
134.4999999277413
1040
57.75
1040
0.0
1040
134.4999999277413
1040
59.5
1040
-0.2375242063862277
1040
134.7022107357586
1040
59.901648599074271
1040
0.0
1040
132.391749950752
1040
60.30408282374875
1040
-0.0102033454808161
1040
132.49999999950211
1040
55.000000000019412
1040
0.0
1040
132.49999999959431
1040
51.731972538123401
1040
0.0
1040
134.4999999277413
1040
51.731972538123401
1040
0.0
1040
134.4999999277413
1040
52.25
1040
-0.4142135623731036
1040
134.9999999277413
1040
52.75
1040
0.0
1040
135.29999992774421
1040
52.75
1040
-0.4142135623730744
1040
135.4999999277413
1040
52.549999999999272
1040
0.0
1040
135.49999992773041
1040
51.70000000000072
1040
0.4142135623730534
1040
135.69999992773111
1040
51.5
1040
0.0
1040
136.69999992773111
1040
51.5
1040
0.4142135623731036
1040
137.19999992773111
1040
52.0
1040
0.0
1040
137.19999992773111
1040
58.0
1040
0.4142135623730868
1040
136.69999992773111
1040
58.5
1040
0.0
1040
135.69999992773111
1040
58.499999999989079
1040
0.4142135623730533
1040
135.4999999277413
1040
58.299999999999272
1040
0.0
1040
135.4999999277486
1040
57.45000000000072
1040
-0.4142135623730744
1040
135.29999992774421
1040
57.25
1040
0.0
1040
134.9999999277413
1040
57.25
1040
-0.4142135623731036
1071
        0
1070
     0
1070
     1
1040
0.0
1040
0.25
1070
     0
1070
     2
1040
0.7853981633974483
1040
0.0
1040
0.0
1040
-0.5612660075668221
1040
0.5612660075668221
1070
     0
1040
2.3561944901923439
1040
0.0
1040
0.0
1040
-0.5612660075668221
1040
-0.5612660075668221
1070
     0
1040
0.0679243982816846
1071
        1
1040
134.59740313766949
1040
55.46648737866883
1040
0.0
1002
}
  0
LINE
  5
C8F
  8
SAPA_ANSLUTNING
 10
4.0000000000002203
 20
60.000000000015881
 30
0.0
 11
-36.491479059085243
 21
60.000000000015881
 31
0.0
  0
LINE
  5
C90
  8
SAPA_ANSLUTNING
 10
4.0000000000002203
 20
30.99999999999989
 30
0.0
 11
-36.491479059085243
 21
30.99999999999989
 31
0.0
1001
GENIUS_GENREC_14
1002
{
1000
PYDIR
1011
-38.500000036128888
1021
0.0
1031
0.0
1021
30.99999999999989
1031
0.0
1002
}
1002
{
1000
PXDIR
1011
31.999999999992941
1021
0.0
1031
0.0
1021
-70.000000000000114
1031
0.0
1002
}
1002
{
1000
PORI
1011
-28.500000036128888
1021
0.0
1031
0.0
1021
-70.000000000000114
1031
0.0
1002
}
1002
{
1000
PINS
1011
-28.500000036128888
1021
0.0
1031
0.0
1021
-70.000000000000114
1031
0.0
1002
}
1002
{
1000
PINS2
1011
3.999999999978491
1021
0.0
1031
0.0
1021
30.99999999999989
1031
0.0
1002
}
1002
{
1000
C
1070
     1
1002
}
1001
GENIUS_GENOBJ-N-REC_13
1002
{
1000
OWNER
1000
GEN
1002
}
1001
GENIUS_GENODEF_13
1002
{
1000
HIER
1070
     0
1002
}
1002
{
1000
MANEDIT
1070
     0
1002
}
1002
{
1000
NOSEL
1070
     0
1002
}
1002
{
1000
BEHIND
1070
     0
1002
}
1002
{
1000
OTHER
1070
     0
1002
}
1002
{
1000
REACTOR
1002
}
  0
INSERT
  5
C91
  8
SAPA_ANSLUTNING
  6
CONTINUOUS
  2
*X33
 10
0.0
 20
0.0
 30
0.0
1001
ACAD
1000
HATCH
1002
{
1070
    19
1000
ANSI37
1040
0.25
1040
0.0
1000
R14_HATCH_DATA
1000
C91
1011
1.0
1021
0.0
1031
0.0
1021
0.0
1031
0.0
1011
0.0
1021
0.0
1031
0.0
1021
1.0
1031
0.0
1011
0.0
1021
0.0
1031
0.0
1021
0.0
1031
1.0
1040
0.0
1010
0.0
1020
0.0
1030
1.0
1000
ANSI37
1070
     0
1070
     0
1071
        1
1071
        5
1071
        6
1070
     2
1040
137.49999992774141
1040
58.50000000001495
1040
1.4999999999999989
1040
5.49778714378209
1040
6.2831853071795569
1070
     0
1070
     1
1040
138.99999992774141
1040
58.500000000014978
1040
138.9999999277413
1040
47.66334876332445
1070
     3
1040
143.99999992774141
1040
47.663348763324137
1040
0.0
1040
-5.6210574168242138
1040
0.8895123513655372
1040
1.5707963267948959
1040
2.144309431217978
1070
     0
1070
     3
1040
143.99999992774141
1040
47.663348763324137
1040
0.0
1040
-5.6210574168242138
1040
0.8895123513655372
1040
2.144309431217978
1040
4.7123889803846888
1070
     0
1070
     1
1040
148.99999992774141
1040
47.663348763324791
1040
148.99999992774141
1040
60.0
1070
     2
1040
142.90216751656979
1040
80.646721299902396
1040
21.528368738726542
1040
1.2836189008757071
1040
1.773853352005716
1070
     0
1071
        0
1070
     0
1070
     1
1040
0.0
1040
0.25
1070
     0
1070
     2
1040
0.7853981633974483
1040
0.0000000000001492
1040
0.0000000000149782
1040
-0.5612660075668221
1040
0.5612660075668221
1070
     0
1040
2.3561944901923439
1040
0.0000000000001492
1040
0.0000000000149782
1040
-0.5612660075668221
1040
-0.5612660075668221
1070
     0
1040
0.0591690278051155
1071
        1
1040
142.9986763469897
1040
56.420364712940881
1040
0.0
1002
}
  0
LINE
  5
C92
  8
SAPA_ANSLUTNING
 10
4.000000000000262
 20
-70.000000000005429
 30
0.0
 11
148.99999992774141
 21
-70.000000000005429
 31
0.0
  0
LINE
  5
C93
  8
SAPA_ANSLUTNING
 10
4.0000000000002549
 20
-111.29283270961361
 30
0.0
 11
4.0000000000002771
 21
60.00000000001603
 31
0.0
  0
POLYLINE
  5
C94
  8
SAPA_ANSLUTNING
 66
     1
 10
0.0
 20
0.0
 30
0.0
 70
     1
  0
VERTEX
  5
10C2
  8
SAPA_ANSLUTNING
 10
69.749999999999972
 20
-67.000000000005414
 30
0.0
 42
-0.4142135623730951
  0
VERTEX
  5
10C3
  8
SAPA_ANSLUTNING
 10
71.749999999999972
 20
-69.000000000005429
 30
0.0
  0
VERTEX
  5
10C4
  8
SAPA_ANSLUTNING
 10
71.749999999999972
 20
-70.000000000005429
 30
0.0
  0
VERTEX
  5
10C5
  8
SAPA_ANSLUTNING
 10
16.750000000000089
 20
-70.000000000005429
 30
0.0
  0
VERTEX
  5
10C6
  8
SAPA_ANSLUTNING
 10
16.749999999999979
 20
-10.00000000000543
 30
0.0
  0
VERTEX
  5
10C7
  8
SAPA_ANSLUTNING
 10
17.749999999999979
 20
-10.00000000000543
 30
0.0
 42
-0.4142135623730951
  0
VERTEX
  5
10C8
  8
SAPA_ANSLUTNING
 10
19.749999999999979
 20
-12.00000000000543
 30
0.0
  0
VERTEX
  5
10C9
  8
SAPA_ANSLUTNING
 10
19.750000000000089
 20
-65.000000000005429
 30
0.0
 42
0.4142135623730951
  0
VERTEX
  5
10CA
  8
SAPA_ANSLUTNING
 10
21.750000000000089
 20
-67.000000000005414
 30
0.0
  0
SEQEND
  5
10CB
  8
SAPA_ANSLUTNING
  0
POLYLINE
  5
C95
  8
SAPA_ANSLUTNING
 66
     1
 10
0.0
 20
0.0
 30
0.0
 70
     1
1001
GENIUS_GENOREF_13
1005
0
  0
VERTEX
  5
10CC
  8
SAPA_ANSLUTNING
 10
133.24999992774141
 20
-12.00000000000543
 30
0.0
  0
VERTEX
  5
10CD
  8
SAPA_ANSLUTNING
 10
133.24999992774141
 20
-65.000000000005429
 30
0.0
 42
-0.4142135623730951
  0
VERTEX
  5
10CE
  8
SAPA_ANSLUTNING
 10
131.24999992774141
 20
-67.000000000005414
 30
0.0
  0
VERTEX
  5
10CF
  8
SAPA_ANSLUTNING
 10
83.249999927741413
 20
-67.000000000005414
 30
0.0
 42
0.4142135623730951
  0
VERTEX
  5
10D0
  8
SAPA_ANSLUTNING
 10
81.249999927741399
 20
-69.000000000005429
 30
0.0
  0
VERTEX
  5
10D1
  8
SAPA_ANSLUTNING
 10
81.249999927741399
 20
-70.000000000005429
 30
0.0
  0
VERTEX
  5
10D2
  8
SAPA_ANSLUTNING
 10
136.24999992774141
 20
-70.000000000005429
 30
0.0
  0
VERTEX
  5
10D3
  8
SAPA_ANSLUTNING
 10
136.24999992774141
 20
-10.00000000000543
 30
0.0
  0
VERTEX
  5
10D4
  8
SAPA_ANSLUTNING
 10
135.24999992774141
 20
-10.00000000000543
 30
0.0
 42
0.4142135623730951
  0
SEQEND
  5
10D5
  8
SAPA_ANSLUTNING
  0
LINE
  5
C96
  8
SAPA_ANSLUTNING
 10
148.99999992774141
 20
60.0
 30
0.0
 11
194.0032559343997
 21
60.000000000000028
 31
0.0
  0
LINE
  5
C97
  8
SAPA_ANSLUTNING
 10
194.0032559343995
 20
31.0
 30
0.0
 11
148.9999999277413
 21
31.000000000000028
 31
0.0
  0
LINE
  5
C98
  8
SAPA_ANSLUTNING
 10
148.99999992774141
 20
-70.000000000005429
 30
0.0
 11
148.99999992774141
 21
60.0
 31
0.0
  0
ARC
  5
C99
  8
SAPA_ANSLUTNING
 10
142.90216751656979
 20
80.646721299902538
 30
0.0
 40
21.52836873872667
 50
258.3656894549398
 51
286.45405447659971
  0
INSERT
  5
C9A
  8
SAPA_ANSLUTNING
  6
CONTINUOUS
  2
*X34
 10
0.0
 20
0.0
 30
0.0
1001
ACAD
1000
HATCH
1002
{
1070
    19
1000
HEX
1040
0.25
1040
0.0
1000
ASC_BOUNDS
1070
     1
1070
     1
1070
     1
1005
C9B
1000
ASC_SEEDPOINT
1011
144.242109937816
1021
0.0
1031
0.0
1021
47.781686452380853
1031
0.0
1000
R14_HATCH_DATA
1000
C9A
1011
1.0
1021
0.0
1031
0.0
1021
0.0
1031
0.0
1011
0.0
1021
0.0
1031
0.0
1021
1.0
1031
0.0
1011
0.0
1021
0.0
1031
0.0
1021
0.0
1031
1.0
1040
0.0
1010
0.0
1020
0.0
1030
1.0
1000
HEX
1070
     0
1070
     1
1071
        1
1071
        5
1071
        1
1070
     3
1040
143.99999992774141
1040
47.663348763324137
1040
0.0
1040
-5.6210574168242138
1040
0.8895123513655372
1040
0.0
1040
6.2831853071795862
1070
     1
1071
        1
1005
C9B
1070
     0
1070
     1
1040
0.0
1040
0.25
1070
     0
1070
     3
1040
0.0
1040
0.0000000000001492
1040
0.0000000000149782
1040
0.0
1040
1.374814999999999
1070
     2
1040
0.79375
1040
-1.587499999999999
1040
2.0943951023931948
1040
0.0000000000001492
1040
0.0000000000149782
1040
-1.190624715503902
1040
-0.6874074999999996
1070
     2
1040
0.7937499999999989
1040
-1.587499999999997
1040
1.047197551196597
1040
0.7937500000001379
1040
0.0000000000149782
1040
-1.190624715503902
1040
0.6874075000000001
1070
     2
1040
0.79375
1040
-1.587499999999999
1040
0.0591690278051155
1071
        1
1040
144.242109937816
1040
47.781686452380853
1040
0.0
1002
}
  0
POLYLINE
  5
C9B
  8
SAPA_ANSLUTNING
 10
143.99999992774141
 20
42.042291346499923
 30
0.0
 66
     1
 70
     8
  0
VERTEX
  8
SAPA_ANSLUTNING
  5
1C17
 10
144.000
 20
42.0423
 30
0.000000
  70
    32
  0
VERTEX
  8
SAPA_ANSLUTNING
  5
1C18
 10
144.245
 20
42.0491
 30
0.000000
  70
    32
  0
VERTEX
  8
SAPA_ANSLUTNING
  5
1C19
 10
144.490
 20
42.0694
 30
0.000000
  70
    32
  0
VERTEX
  8
SAPA_ANSLUTNING
  5
1C1A
 10
144.734
 20
42.1031
 30
0.000000
  70
    32
  0
VERTEX
  8
SAPA_ANSLUTNING
  5
1C1B
 10
144.975
 20
42.1503
 30
0.000000
  70
    32
  0
VERTEX
  8
SAPA_ANSLUTNING
  5
1C1C
 10
145.215
 20
42.2107
 30
0.000000
  70
    32
  0
VERTEX
  8
SAPA_ANSLUTNING
  5
1C1D
 10
145.451
 20
42.2843
 30
0.000000
  70
    32
  0
VERTEX
  8
SAPA_ANSLUTNING
  5
1C1E
 10
145.684
 20
42.3709
 30
0.000000
  70
    32
  0
VERTEX
  8
SAPA_ANSLUTNING
  5
1C1F
 10
145.913
 20
42.4702
 30
0.000000
  70
    32
  0
VERTEX
  8
SAPA_ANSLUTNING
  5
1C20
 10
146.138
 20
42.5820
 30
0.000000
  70
    32
  0
VERTEX
  8
SAPA_ANSLUTNING
  5
1C21
 10
146.357
 20
42.7060
 30
0.000000
  70
    32
  0
VERTEX
  8
SAPA_ANSLUTNING
  5
1C22
 10
146.571
 20
42.8420
 30
0.000000
  70
    32
  0
VERTEX
  8
SAPA_ANSLUTNING
  5
1C23
 10
146.778
 20
42.9896
 30
0.000000
  70
    32
  0
VERTEX
  8
SAPA_ANSLUTNING
  5
1C24
 10
146.978
 20
43.1485
 30
0.000000
  70
    32
  0
VERTEX
  8
SAPA_ANSLUTNING
  5
1C25
 10
147.172
 20
43.3182
 30
0.000000
  70
    32
  0
VERTEX
  8
SAPA_ANSLUTNING
  5
1C26
 10
147.358
 20
43.4984
 30
0.000000
  70
    32
  0
VERTEX
  8
SAPA_ANSLUTNING
  5
1C27
 10
147.536
 20
43.6887
 30
0.000000
  70
    32
  0
VERTEX
  8
SAPA_ANSLUTNING
  5
1C28
 10
147.705
 20
43.8885
 30
0.000000
  70
    32
  0
VERTEX
  8
SAPA_ANSLUTNING
  5
1C29
 10
147.865
 20
44.0974
 30
0.000000
  70
    32
  0
VERTEX
  8
SAPA_ANSLUTNING
  5
1C2A
 10
148.016
 20
44.3149
 30
0.000000
  70
    32
  0
VERTEX
  8
SAPA_ANSLUTNING
  5
1C2B
 10
148.157
 20
44.5405
 30
0.000000
  70
    32
  0
VERTEX
  8
SAPA_ANSLUTNING
  5
1C2C
 10
148.289
 20
44.7735
 30
0.000000
  70
    32
  0
VERTEX
  8
SAPA_ANSLUTNING
  5
1C2D
 10
148.410
 20
45.0136
 30
0.000000
  70
    32
  0
VERTEX
  8
SAPA_ANSLUTNING
  5
1C2E
 10
148.520
 20
45.2600
 30
0.000000
  70
    32
  0
VERTEX
  8
SAPA_ANSLUTNING
  5
1C2F
 10
148.619
 20
45.5123
 30
0.000000
  70
    32
  0
VERTEX
  8
SAPA_ANSLUTNING
  5
1C30
 10
148.708
 20
45.7697
 30
0.000000
  70
    32
  0
VERTEX
  8
SAPA_ANSLUTNING
  5
1C31
 10
148.785
 20
46.0316
 30
0.000000
  70
    32
  0
VERTEX
  8
SAPA_ANSLUTNING
  5
1C32
 10
148.850
 20
46.2975
 30
0.000000
  70
    32
  0
VERTEX
  8
SAPA_ANSLUTNING
  5
1C33
 10
148.904
 20
46.5667
 30
0.000000
  70
    32
  0
VERTEX
  8
SAPA_ANSLUTNING
  5
1C34
 10
148.946
 20
46.8386
 30
0.000000
  70
    32
  0
VERTEX
  8
SAPA_ANSLUTNING
  5
1C35
 10
148.976
 20
47.1124
 30
0.000000
  70
    32
  0
VERTEX
  8
SAPA_ANSLUTNING
  5
1C36
 10
148.994
 20
47.3875
 30
0.000000
  70
    32
  0
VERTEX
  8
SAPA_ANSLUTNING
  5
1C37
 10
149.000
 20
47.6633
 30
0.000000
  70
    32
  0
VERTEX
  8
SAPA_ANSLUTNING
  5
1C38
 10
148.994
 20
47.9392
 30
0.000000
  70
    32
  0
VERTEX
  8
SAPA_ANSLUTNING
  5
1C39
 10
148.976
 20
48.2143
 30
0.000000
  70
    32
  0
VERTEX
  8
SAPA_ANSLUTNING
  5
1C3A
 10
148.946
 20
48.4881
 30
0.000000
  70
    32
  0
VERTEX
  8
SAPA_ANSLUTNING
  5
1C3B
 10
148.904
 20
48.7600
 30
0.000000
  70
    32
  0
VERTEX
  8
SAPA_ANSLUTNING
  5
1C3C
 10
148.850
 20
49.0292
 30
0.000000
  70
    32
  0
VERTEX
  8
SAPA_ANSLUTNING
  5
1C3D
 10
148.785
 20
49.2951
 30
0.000000
  70
    32
  0
VERTEX
  8
SAPA_ANSLUTNING
  5
1C3E
 10
148.708
 20
49.5570
 30
0.000000
  70
    32
  0
VERTEX
  8
SAPA_ANSLUTNING
  5
1C3F
 10
148.619
 20
49.8144
 30
0.000000
  70
    32
  0
VERTEX
  8
SAPA_ANSLUTNING
  5
1C40
 10
148.520
 20
50.0667
 30
0.000000
  70
    32
  0
VERTEX
  8
SAPA_ANSLUTNING
  5
1C41
 10
148.410
 20
50.3131
 30
0.000000
  70
    32
  0
VERTEX
  8
SAPA_ANSLUTNING
  5
1C42
 10
148.289
 20
50.5531
 30
0.000000
  70
    32
  0
VERTEX
  8
SAPA_ANSLUTNING
  5
1C43
 10
148.157
 20
50.7862
 30
0.000000
  70
    32
  0
VERTEX
  8
SAPA_ANSLUTNING
  5
1C44
 10
148.016
 20
51.0118
 30
0.000000
  70
    32
  0
VERTEX
  8
SAPA_ANSLUTNING
  5
1C45
 10
147.865
 20
51.2293
 30
0.000000
  70
    32
  0
VERTEX
  8
SAPA_ANSLUTNING
  5
1C46
 10
147.705
 20
51.4382
 30
0.000000
  70
    32
  0
VERTEX
  8
SAPA_ANSLUTNING
  5
1C47
 10
147.536
 20
51.6380
 30
0.000000
  70
    32
  0
VERTEX
  8
SAPA_ANSLUTNING
  5
1C48
 10
147.358
 20
51.8283
 30
0.000000
  70
    32
  0
VERTEX
  8
SAPA_ANSLUTNING
  5
1C49
 10
147.172
 20
52.0085
 30
0.000000
  70
    32
  0
VERTEX
  8
SAPA_ANSLUTNING
  5
1C4A
 10
146.978
 20
52.1782
 30
0.000000
  70
    32
  0
VERTEX
  8
SAPA_ANSLUTNING
  5
1C4B
 10
146.778
 20
52.3371
 30
0.000000
  70
    32
  0
VERTEX
  8
SAPA_ANSLUTNING
  5
1C4C
 10
146.571
 20
52.4847
 30
0.000000
  70
    32
  0
VERTEX
  8
SAPA_ANSLUTNING
  5
1C4D
 10
146.357
 20
52.6207
 30
0.000000
  70
    32
  0
VERTEX
  8
SAPA_ANSLUTNING
  5
1C4E
 10
146.138
 20
52.7447
 30
0.000000
  70
    32
  0
VERTEX
  8
SAPA_ANSLUTNING
  5
1C4F
 10
145.913
 20
52.8565
 30
0.000000
  70
    32
  0
VERTEX
  8
SAPA_ANSLUTNING
  5
1C50
 10
145.684
 20
52.9558
 30
0.000000
  70
    32
  0
VERTEX
  8
SAPA_ANSLUTNING
  5
1C51
 10
145.451
 20
53.0424
 30
0.000000
  70
    32
  0
VERTEX
  8
SAPA_ANSLUTNING
  5
1C52
 10
145.215
 20
53.1160
 30
0.000000
  70
    32
  0
VERTEX
  8
SAPA_ANSLUTNING
  5
1C53
 10
144.975
 20
53.1764
 30
0.000000
  70
    32
  0
VERTEX
  8
SAPA_ANSLUTNING
  5
1C54
 10
144.734
 20
53.2236
 30
0.000000
  70
    32
  0
VERTEX
  8
SAPA_ANSLUTNING
  5
1C55
 10
144.490
 20
53.2573
 30
0.000000
  70
    32
  0
VERTEX
  8
SAPA_ANSLUTNING
  5
1C56
 10
144.245
 20
53.2776
 30
0.000000
  70
    32
  0
VERTEX
  8
SAPA_ANSLUTNING
  5
1C57
 10
144.000
 20
53.2844
 30
0.000000
  70
    32
  0
VERTEX
  8
SAPA_ANSLUTNING
  5
1C58
 10
143.755
 20
53.2776
 30
0.000000
  70
    32
  0
VERTEX
  8
SAPA_ANSLUTNING
  5
1C59
 10
143.510
 20
53.2573
 30
0.000000
  70
    32
  0
VERTEX
  8
SAPA_ANSLUTNING
  5
1C5A
 10
143.266
 20
53.2236
 30
0.000000
  70
    32
  0
VERTEX
  8
SAPA_ANSLUTNING
  5
1C5B
 10
143.025
 20
53.1764
 30
0.000000
  70
    32
  0
VERTEX
  8
SAPA_ANSLUTNING
  5
1C5C
 10
142.785
 20
53.1160
 30
0.000000
  70
    32
  0
VERTEX
  8
SAPA_ANSLUTNING
  5
1C5D
 10
142.549
 20
53.0424
 30
0.000000
  70
    32
  0
VERTEX
  8
SAPA_ANSLUTNING
  5
1C5E
 10
142.316
 20
52.9558
 30
0.000000
  70
    32
  0
VERTEX
  8
SAPA_ANSLUTNING
  5
1C5F
 10
142.087
 20
52.8565
 30
0.000000
  70
    32
  0
VERTEX
  8
SAPA_ANSLUTNING
  5
1C60
 10
141.862
 20
52.7447
 30
0.000000
  70
    32
  0
VERTEX
  8
SAPA_ANSLUTNING
  5
1C61
 10
141.643
 20
52.6207
 30
0.000000
  70
    32
  0
VERTEX
  8
SAPA_ANSLUTNING
  5
1C62
 10
141.429
 20
52.4847
 30
0.000000
  70
    32
  0
VERTEX
  8
SAPA_ANSLUTNING
  5
1C63
 10
141.222
 20
52.3371
 30
0.000000
  70
    32
  0
VERTEX
  8
SAPA_ANSLUTNING
  5
1C64
 10
141.022
 20
52.1782
 30
0.000000
  70
    32
  0
VERTEX
  8
SAPA_ANSLUTNING
  5
1C65
 10
140.828
 20
52.0085
 30
0.000000
  70
    32
  0
VERTEX
  8
SAPA_ANSLUTNING
  5
1C66
 10
140.642
 20
51.8283
 30
0.000000
  70
    32
  0
VERTEX
  8
SAPA_ANSLUTNING
  5
1C67
 10
140.464
 20
51.6380
 30
0.000000
  70
    32
  0
VERTEX
  8
SAPA_ANSLUTNING
  5
1C68
 10
140.295
 20
51.4382
 30
0.000000
  70
    32
  0
VERTEX
  8
SAPA_ANSLUTNING
  5
1C69
 10
140.135
 20
51.2293
 30
0.000000
  70
    32
  0
VERTEX
  8
SAPA_ANSLUTNING
  5
1C6A
 10
139.984
 20
51.0118
 30
0.000000
  70
    32
  0
VERTEX
  8
SAPA_ANSLUTNING
  5
1C6B
 10
139.843
 20
50.7862
 30
0.000000
  70
    32
  0
VERTEX
  8
SAPA_ANSLUTNING
  5
1C6C
 10
139.711
 20
50.5531
 30
0.000000
  70
    32
  0
VERTEX
  8
SAPA_ANSLUTNING
  5
1C6D
 10
139.590
 20
50.3131
 30
0.000000
  70
    32
  0
VERTEX
  8
SAPA_ANSLUTNING
  5
1C6E
 10
139.480
 20
50.0667
 30
0.000000
  70
    32
  0
VERTEX
  8
SAPA_ANSLUTNING
  5
1C6F
 10
139.381
 20
49.8144
 30
0.000000
  70
    32
  0
VERTEX
  8
SAPA_ANSLUTNING
  5
1C70
 10
139.292
 20
49.5570
 30
0.000000
  70
    32
  0
VERTEX
  8
SAPA_ANSLUTNING
  5
1C71
 10
139.215
 20
49.2951
 30
0.000000
  70
    32
  0
VERTEX
  8
SAPA_ANSLUTNING
  5
1C72
 10
139.150
 20
49.0292
 30
0.000000
  70
    32
  0
VERTEX
  8
SAPA_ANSLUTNING
  5
1C73
 10
139.096
 20
48.7600
 30
0.000000
  70
    32
  0
VERTEX
  8
SAPA_ANSLUTNING
  5
1C74
 10
139.054
 20
48.4881
 30
0.000000
  70
    32
  0
VERTEX
  8
SAPA_ANSLUTNING
  5
1C75
 10
139.024
 20
48.2143
 30
0.000000
  70
    32
  0
VERTEX
  8
SAPA_ANSLUTNING
  5
1C76
 10
139.006
 20
47.9392
 30
0.000000
  70
    32
  0
VERTEX
  8
SAPA_ANSLUTNING
  5
1C77
 10
139.000
 20
47.6633
 30
0.000000
  70
    32
  0
VERTEX
  8
SAPA_ANSLUTNING
  5
1C78
 10
139.006
 20
47.3875
 30
0.000000
  70
    32
  0
VERTEX
  8
SAPA_ANSLUTNING
  5
1C79
 10
139.024
 20
47.1124
 30
0.000000
  70
    32
  0
VERTEX
  8
SAPA_ANSLUTNING
  5
1C7A
 10
139.054
 20
46.8386
 30
0.000000
  70
    32
  0
VERTEX
  8
SAPA_ANSLUTNING
  5
1C7B
 10
139.096
 20
46.5667
 30
0.000000
  70
    32
  0
VERTEX
  8
SAPA_ANSLUTNING
  5
1C7C
 10
139.150
 20
46.2975
 30
0.000000
  70
    32
  0
VERTEX
  8
SAPA_ANSLUTNING
  5
1C7D
 10
139.215
 20
46.0316
 30
0.000000
  70
    32
  0
VERTEX
  8
SAPA_ANSLUTNING
  5
1C7E
 10
139.292
 20
45.7697
 30
0.000000
  70
    32
  0
VERTEX
  8
SAPA_ANSLUTNING
  5
1C7F
 10
139.381
 20
45.5123
 30
0.000000
  70
    32
  0
VERTEX
  8
SAPA_ANSLUTNING
  5
1C80
 10
139.480
 20
45.2600
 30
0.000000
  70
    32
  0
VERTEX
  8
SAPA_ANSLUTNING
  5
1C81
 10
139.590
 20
45.0136
 30
0.000000
  70
    32
  0
VERTEX
  8
SAPA_ANSLUTNING
  5
1C82
 10
139.711
 20
44.7735
 30
0.000000
  70
    32
  0
VERTEX
  8
SAPA_ANSLUTNING
  5
1C83
 10
139.843
 20
44.5405
 30
0.000000
  70
    32
  0
VERTEX
  8
SAPA_ANSLUTNING
  5
1C84
 10
139.984
 20
44.3149
 30
0.000000
  70
    32
  0
VERTEX
  8
SAPA_ANSLUTNING
  5
1C85
 10
140.135
 20
44.0974
 30
0.000000
  70
    32
  0
VERTEX
  8
SAPA_ANSLUTNING
  5
1C86
 10
140.295
 20
43.8885
 30
0.000000
  70
    32
  0
VERTEX
  8
SAPA_ANSLUTNING
  5
1C87
 10
140.464
 20
43.6887
 30
0.000000
  70
    32
  0
VERTEX
  8
SAPA_ANSLUTNING
  5
1C88
 10
140.642
 20
43.4984
 30
0.000000
  70
    32
  0
VERTEX
  8
SAPA_ANSLUTNING
  5
1C89
 10
140.828
 20
43.3182
 30
0.000000
  70
    32
  0
VERTEX
  8
SAPA_ANSLUTNING
  5
1C8A
 10
141.022
 20
43.1485
 30
0.000000
  70
    32
  0
VERTEX
  8
SAPA_ANSLUTNING
  5
1C8B
 10
141.222
 20
42.9896
 30
0.000000
  70
    32
  0
VERTEX
  8
SAPA_ANSLUTNING
  5
1C8C
 10
141.429
 20
42.8420
 30
0.000000
  70
    32
  0
VERTEX
  8
SAPA_ANSLUTNING
  5
1C8D
 10
141.643
 20
42.7060
 30
0.000000
  70
    32
  0
VERTEX
  8
SAPA_ANSLUTNING
  5
1C8E
 10
141.862
 20
42.5820
 30
0.000000
  70
    32
  0
VERTEX
  8
SAPA_ANSLUTNING
  5
1C8F
 10
142.087
 20
42.4702
 30
0.000000
  70
    32
  0
VERTEX
  8
SAPA_ANSLUTNING
  5
1C90
 10
142.316
 20
42.3709
 30
0.000000
  70
    32
  0
VERTEX
  8
SAPA_ANSLUTNING
  5
1C91
 10
142.549
 20
42.2843
 30
0.000000
  70
    32
  0
VERTEX
  8
SAPA_ANSLUTNING
  5
1C92
 10
142.785
 20
42.2107
 30
0.000000
  70
    32
  0
VERTEX
  8
SAPA_ANSLUTNING
  5
1C93
 10
143.025
 20
42.1503
 30
0.000000
  70
    32
  0
VERTEX
  8
SAPA_ANSLUTNING
  5
1C94
 10
143.266
 20
42.1031
 30
0.000000
  70
    32
  0
VERTEX
  8
SAPA_ANSLUTNING
  5
1C95
 10
143.510
 20
42.0694
 30
0.000000
  70
    32
  0
VERTEX
  8
SAPA_ANSLUTNING
  5
1C96
 10
143.755
 20
42.0491
 30
0.000000
  70
    32
  0
VERTEX
  8
SAPA_ANSLUTNING
  5
1C97
 10
144.000
 20
42.0423
 30
0.000000
  70
    32
  0
SEQEND
  8
SAPA_ANSLUTNING
  5
1C98
  0
POLYLINE
  5
C9C
  8
SAPA_ANSLUTNING
 66
     1
 10
0.0
 20
0.0
 30
0.0
  0
VERTEX
  5
1132
  8
SAPA_ANSLUTNING
 10
140.5010714710823
 20
43.64793040945343
 30
0.0
 42
0.8812634091771057
  0
VERTEX
  5
1133
  8
SAPA_ANSLUTNING
 10
140.99999992774141
 20
39.711162381233272
 30
0.0
  0
VERTEX
  5
1134
  8
SAPA_ANSLUTNING
 10
146.99999992774141
 20
39.711162381233272
 30
0.0
 42
-0.9999999999999998
  0
VERTEX
  5
1135
  8
SAPA_ANSLUTNING
 10
146.99999992774141
 20
35.711162381233272
 30
0.0
  0
VERTEX
  5
1136
  8
SAPA_ANSLUTNING
 10
140.99999992774141
 20
35.711162381233287
 30
0.0
 42
0.9999999999999998
  0
VERTEX
  5
1137
  8
SAPA_ANSLUTNING
 10
140.99999992774141
 20
31.71116238123329
 30
0.0
  0
VERTEX
  5
1138
  8
SAPA_ANSLUTNING
 10
146.99999992774141
 20
31.711162381233269
 30
0.0
 42
-0.9999999999999998
  0
VERTEX
  5
1139
  8
SAPA_ANSLUTNING
 10
146.99999992774141
 20
27.711162381233262
 30
0.0
  0
VERTEX
  5
113A
  8
SAPA_ANSLUTNING
 10
140.99999992774141
 20
27.711162381233301
 30
0.0
 42
0.9999999999999998
  0
VERTEX
  5
113B
  8
SAPA_ANSLUTNING
 10
140.99999992774141
 20
23.71116238123329
 30
0.0
  0
VERTEX
  5
113C
  8
SAPA_ANSLUTNING
 10
146.99999992774141
 20
23.711162381233269
 30
0.0
 42
-0.9999999999999998
  0
VERTEX
  5
113D
  8
SAPA_ANSLUTNING
 10
146.99999992774141
 20
19.711162381233262
 30
0.0
  0
VERTEX
  5
113E
  8
SAPA_ANSLUTNING
 10
140.99999992774141
 20
19.71116238123329
 30
0.0
 42
0.9999999999999998
  0
VERTEX
  5
113F
  8
SAPA_ANSLUTNING
 10
140.99999992774141
 20
15.71116238123329
 30
0.0
  0
VERTEX
  5
1140
  8
SAPA_ANSLUTNING
 10
146.99999992774141
 20
15.71116238123326
 30
0.0
 42
-0.9999999999999998
  0
VERTEX
  5
1141
  8
SAPA_ANSLUTNING
 10
146.99999992774141
 20
11.71116238123326
 30
0.0
  0
VERTEX
  5
1142
  8
SAPA_ANSLUTNING
 10
140.99999992774141
 20
11.71116238123329
 30
0.0
 42
0.9999999999999998
  0
VERTEX
  5
1143
  8
SAPA_ANSLUTNING
 10
140.99999992774141
 20
7.7111623812332928
 30
0.0
  0
VERTEX
  5
1144
  8
SAPA_ANSLUTNING
 10
146.99999992774141
 20
7.7111623812332653
 30
0.0
 42
-0.9999999999999998
  0
VERTEX
  5
1145
  8
SAPA_ANSLUTNING
 10
146.99999992774141
 20
3.7111623812332648
 30
0.0
  0
VERTEX
  5
1146
  8
SAPA_ANSLUTNING
 10
140.99999992774141
 20
3.7111623812332928
 30
0.0
 42
0.9999999999999998
  0
VERTEX
  5
1147
  8
SAPA_ANSLUTNING
 10
140.99999992774141
 20
-0.2888376187667063
 30
0.0
  0
VERTEX
  5
1148
  8
SAPA_ANSLUTNING
 10
146.99999992774141
 20
-0.2888376187667347
 30
0.0
 42
-0.9999999999999998
  0
VERTEX
  5
1149
  8
SAPA_ANSLUTNING
 10
146.99999992774141
 20
-4.2888376187667339
 30
0.0
  0
VERTEX
  5
114A
  8
SAPA_ANSLUTNING
 10
140.99999992774141
 20
-4.2888376187667063
 30
0.0
 42
0.9999999999999998
  0
VERTEX
  5
114B
  8
SAPA_ANSLUTNING
 10
140.99999992774141
 20
-8.2888376187667063
 30
0.0
  0
VERTEX
  5
114C
  8
SAPA_ANSLUTNING
 10
146.99999992774141
 20
-8.2888376187667347
 30
0.0
 42
-0.9999999999999998
  0
VERTEX
  5
114D
  8
SAPA_ANSLUTNING
 10
146.99999992774141
 20
-12.288837618766729
 30
0.0
  0
VERTEX
  5
114E
  8
SAPA_ANSLUTNING
 10
140.99999992774141
 20
-12.28883761876671
 30
0.0
 42
0.9999999999999998
  0
VERTEX
  5
114F
  8
SAPA_ANSLUTNING
 10
140.99999992774141
 20
-16.288837618766699
 30
0.0
  0
VERTEX
  5
1150
  8
SAPA_ANSLUTNING
 10
146.99999992774141
 20
-16.288837618766731
 30
0.0
 42
-0.9999999999999998
  0
VERTEX
  5
1151
  8
SAPA_ANSLUTNING
 10
146.9999999277413
 20
-20.288837618766738
 30
0.0
  0
VERTEX
  5
1152
  8
SAPA_ANSLUTNING
 10
140.9999999277413
 20
-20.28883761876671
 30
0.0
 42
0.9999999999999998
  0
VERTEX
  5
1153
  8
SAPA_ANSLUTNING
 10
140.9999999277413
 20
-24.28883761876671
 30
0.0
  0
VERTEX
  5
1154
  8
SAPA_ANSLUTNING
 10
146.9999999277413
 20
-24.288837618766738
 30
0.0
 42
-0.9999999999999998
  0
VERTEX
  5
1155
  8
SAPA_ANSLUTNING
 10
146.9999999277413
 20
-28.288837618766738
 30
0.0
  0
VERTEX
  5
1156
  8
SAPA_ANSLUTNING
 10
140.9999999277413
 20
-28.28883761876671
 30
0.0
 42
0.9999999999999998
  0
VERTEX
  5
1157
  8
SAPA_ANSLUTNING
 10
140.9999999277413
 20
-32.288837618766713
 30
0.0
  0
VERTEX
  5
1158
  8
SAPA_ANSLUTNING
 10
146.9999999277413
 20
-32.288837618766728
 30
0.0
 42
-0.9999999999999998
  0
VERTEX
  5
1159
  8
SAPA_ANSLUTNING
 10
146.9999999277413
 20
-36.288837618766742
 30
0.0
  0
VERTEX
  5
115A
  8
SAPA_ANSLUTNING
 10
140.9999999277413
 20
-36.288837618766713
 30
0.0
 42
0.9999999999999998
  0
VERTEX
  5
115B
  8
SAPA_ANSLUTNING
 10
140.9999999277413
 20
-40.288837618766699
 30
0.0
  0
VERTEX
  5
115C
  8
SAPA_ANSLUTNING
 10
146.9999999277413
 20
-40.288837618766728
 30
0.0
 42
-0.9999999999999998
  0
VERTEX
  5
115D
  8
SAPA_ANSLUTNING
 10
146.9999999277413
 20
-44.288837618766728
 30
0.0
  0
VERTEX
  5
115E
  8
SAPA_ANSLUTNING
 10
140.9999999277413
 20
-44.288837618766699
 30
0.0
 42
0.9999999999999998
  0
VERTEX
  5
115F
  8
SAPA_ANSLUTNING
 10
140.9999999277413
 20
-48.288837618766713
 30
0.0
  0
VERTEX
  5
1160
  8
SAPA_ANSLUTNING
 10
146.9999999277413
 20
-48.288837618766742
 30
0.0
 42
-0.9999999999999998
  0
VERTEX
  5
1161
  8
SAPA_ANSLUTNING
 10
146.9999999277413
 20
-52.288837618766728
 30
0.0
  0
VERTEX
  5
1162
  8
SAPA_ANSLUTNING
 10
140.9999999277413
 20
-52.288837618766699
 30
0.0
 42
0.9999999999999998
  0
VERTEX
  5
1163
  8
SAPA_ANSLUTNING
 10
140.9999999277413
 20
-56.288837618766713
 30
0.0
  0
VERTEX
  5
1164
  8
SAPA_ANSLUTNING
 10
146.9999999277413
 20
-56.288837618766728
 30
0.0
 42
-0.9999999999999998
  0
VERTEX
  5
1165
  8
SAPA_ANSLUTNING
 10
146.9999999277413
 20
-60.288837618766742
 30
0.0
  0
VERTEX
  5
1166
  8
SAPA_ANSLUTNING
 10
138.24999992774141
 20
-60.288837618766699
 30
0.0
 42
0.9999999999999998
  0
VERTEX
  5
1167
  8
SAPA_ANSLUTNING
 10
138.24999992774141
 20
-64.288837618766735
 30
0.0
  0
VERTEX
  5
1168
  8
SAPA_ANSLUTNING
 10
146.9999999277413
 20
-64.288837618766735
 30
0.0
 42
-0.9999999999999998
  0
VERTEX
  5
1169
  8
SAPA_ANSLUTNING
 10
146.9999999277413
 20
-68.288837618766735
 30
0.0
  0
VERTEX
  5
116A
  8
SAPA_ANSLUTNING
 10
138.24999992774141
 20
-68.288837618766735
 30
0.0
 42
0.3723754158642647
  0
VERTEX
  5
116B
  8
SAPA_ANSLUTNING
 10
136.27096662079879
 20
-70.000000000005429
 30
0.0
  0
SEQEND
  5
116C
  8
SAPA_ANSLUTNING
  0
POLYLINE
  5
C9D
  8
SAPA_ANSLUTNING
 66
     1
 10
0.0
 20
0.0
 30
0.0
  0
VERTEX
  5
116D
  8
SAPA_ANSLUTNING
 10
21.094751612380811
 20
-66.889616244249538
 30
0.0
 42
0.4609155493572824
  0
VERTEX
  5
116E
  8
SAPA_ANSLUTNING
 10
31.499999999714738
 20
-58.000000000007297
 30
0.0
  0
VERTEX
  5
116F
  8
SAPA_ANSLUTNING
 10
31.499999999714738
 20
-8.9999999999901945
 30
0.0
 42
-0.9999999999999998
  0
VERTEX
  5
1170
  8
SAPA_ANSLUTNING
 10
49.499999999714738
 20
-8.9999999999901945
 30
0.0
  0
VERTEX
  5
1171
  8
SAPA_ANSLUTNING
 10
49.499999999714738
 20
-58.000000000007297
 30
0.0
 42
0.9999999999999998
  0
VERTEX
  5
1172
  8
SAPA_ANSLUTNING
 10
67.499999999714731
 20
-58.000000000007297
 30
0.0
  0
VERTEX
  5
1173
  8
SAPA_ANSLUTNING
 10
67.499999999714731
 20
-5.8005553174544948
 30
0.0
 42
-0.9999999999999998
  0
VERTEX
  5
1174
  8
SAPA_ANSLUTNING
 10
85.499999999714845
 20
-5.8005553174544948
 30
0.0
  0
VERTEX
  5
1175
  8
SAPA_ANSLUTNING
 10
85.499999999714845
 20
-58.000000000007297
 30
0.0
 42
0.9999999999999998
  0
VERTEX
  5
1176
  8
SAPA_ANSLUTNING
 10
103.4999999997148
 20
-58.000000000007297
 30
0.0
  0
VERTEX
  5
1177
  8
SAPA_ANSLUTNING
 10
103.4999999997148
 20
-8.9999999999901945
 30
0.0
 42
-0.9999999999999998
  0
VERTEX
  5
1178
  8
SAPA_ANSLUTNING
 10
121.4999999997148
 20
-8.9999999999901945
 30
0.0
  0
VERTEX
  5
1179
  8
SAPA_ANSLUTNING
 10
121.4999999997148
 20
-58.000000000007297
 30
0.0
 42
0.4609155448655906
  0
VERTEX
  5
117A
  8
SAPA_ANSLUTNING
 10
131.90524825531659
 20
-66.889616265073442
 30
0.0
 42
0.4609155448655906
  0
SEQEND
  5
117B
  8
SAPA_ANSLUTNING
  0
POLYLINE
  5
EE7
  8
SAPA_PROFIL
 66
     1
 10
0.0
 20
0.0
 30
0.0
 70
     1
  0
VERTEX
  5
17D2
  8
SAPA_PROFIL
 10
128.00000000002319
 20
68.500000000020165
 30
0.0
  0
VERTEX
  5
17D3
  8
SAPA_PROFIL
 10
127.20000000001311
 20
68.500000000011042
 30
0.0
 42
-0.4142135623731159
  0
VERTEX
  5
17D4
  8
SAPA_PROFIL
 10
127.0000000000141
 20
68.70000000000995
 30
0.0
  0
VERTEX
  5
17D5
  8
SAPA_PROFIL
 10
127.00000000002321
 20
69.800000000010343
 30
0.0
 42
-0.4142135623730744
  0
VERTEX
  5
17D6
  8
SAPA_PROFIL
 10
127.20000000001311
 20
70.000000000000171
 30
0.0
  0
VERTEX
  5
17D7
  8
SAPA_PROFIL
 10
130.74999999951029
 20
70.000000000011042
 30
0.0
 42
-0.3389652260119365
  0
VERTEX
  5
17D8
  8
SAPA_PROFIL
 10
131.7154702990546
 20
69.260513148811256
 30
0.0
 42
-0.0274862826956062
  0
VERTEX
  5
17D9
  8
SAPA_PROFIL
 10
132.49999999950211
 20
55.000000000019412
 30
0.0
  0
VERTEX
  5
17DA
  8
SAPA_PROFIL
 10
132.49999999986309
 20
42.199999998760319
 30
0.0
 42
-0.4142135623889429
  0
VERTEX
  5
17DB
  8
SAPA_PROFIL
 10
132.29999999986239
 20
41.999999998748699
 30
0.0
  0
VERTEX
  5
17DC
  8
SAPA_PROFIL
 10
131.96547005360259
 20
41.999999998750489
 30
0.0
 42
-0.2679491924396797
  0
VERTEX
  5
17DD
  8
SAPA_PROFIL
 10
131.79226497284341
 20
42.099999998755493
 30
0.0
  0
VERTEX
  5
17DE
  8
SAPA_PROFIL
 10
130.77679491925079
 20
43.858845725149983
 30
0.0
 42
-0.1316524975842002
  0
VERTEX
  5
17DF
  8
SAPA_PROFIL
 10
130.75000000000821
 20
43.958845725150347
 30
0.0
  0
VERTEX
  5
17E0
  8
SAPA_PROFIL
 10
130.75000000001231
 20
46.80000000001035
 30
0.0
 42
0.4142135623731472
  0
VERTEX
  5
17E1
  8
SAPA_PROFIL
 10
130.55000000001161
 20
47.000000000011099
 30
0.0
  0
VERTEX
  5
17E2
  8
SAPA_PROFIL
 10
124.24386904080311
 20
47.000000000011021
 30
0.0
 42
-0.2418327667441306
  0
VERTEX
  5
17E3
  8
SAPA_PROFIL
 10
123.9999999998516
 20
47.125277674977262
 30
0.0
 42
0.2418327667529517
  0
VERTEX
  5
17E4
  8
SAPA_PROFIL
 10
123.75613095889049
 20
47.250555349950581
 30
0.0
  0
VERTEX
  5
17E5
  8
SAPA_PROFIL
 10
122.79999999985149
 20
47.250555349950552
 30
0.0
 42
0.2418327667504456
  0
VERTEX
  5
17E6
  8
SAPA_PROFIL
 10
122.5561309588888
 20
47.125277674979607
 30
0.0
 42
-0.2418327667464157
  0
VERTEX
  5
17E7
  8
SAPA_PROFIL
 10
122.3122619179352
 20
47.000000000011021
 30
0.0
  0
VERTEX
  5
17E8
  8
SAPA_PROFIL
 10
120.214189562215
 20
47.000000000011021
 30
0.0
 42
-0.6681786379192718
  0
VERTEX
  5
17E9
  8
SAPA_PROFIL
 10
119.5070827810284
 20
48.70710678119751
 30
0.0
  0
VERTEX
  5
17EA
  8
SAPA_PROFIL
 10
120.8121320341974
 20
50.012156034366683
 30
0.0
 42
-0.1989123673797335
  0
VERTEX
  5
17EB
  8
SAPA_PROFIL
 10
121.02426406855341
 20
50.100024000010812
 30
0.0
  0
VERTEX
  5
17EC
  8
SAPA_PROFIL
 10
121.6107695153006
 20
50.10002400001067
 30
0.0
 42
-0.1316524975873855
  0
VERTEX
  5
17ED
  8
SAPA_PROFIL
 10
121.7607695153005
 20
50.059831621146017
 30
0.0
  0
VERTEX
  5
17EE
  8
SAPA_PROFIL
 10
123.24999999984141
 20
49.200024000010707
 30
0.0
  0
VERTEX
  5
17EF
  8
SAPA_PROFIL
 10
123.6999999998414
 20
49.200012000011043
 30
0.0
 42
0.4142135623731054
  0
VERTEX
  5
17F0
  8
SAPA_PROFIL
 10
123.99999999984141
 20
49.500012000011047
 30
0.0
  0
VERTEX
  5
17F1
  8
SAPA_PROFIL
 10
123.99999999984129
 20
53.100024000011118
 30
0.0
 42
0.4142135623730951
  0
VERTEX
  5
17F2
  8
SAPA_PROFIL
 10
123.6999999998413
 20
53.400024000011108
 30
0.0
  0
VERTEX
  5
17F3
  8
SAPA_PROFIL
 10
123.24999999984129
 20
53.400024000011001
 30
0.0
  0
VERTEX
  5
17F4
  8
SAPA_PROFIL
 10
121.7607398687672
 20
52.54019926244203
 30
0.0
 42
-0.1316363093594254
  0
VERTEX
  5
17F5
  8
SAPA_PROFIL
 10
121.6107589637204
 20
52.500006884185062
 30
0.0
  0
VERTEX
  5
17F6
  8
SAPA_PROFIL
 10
121.50099999983929
 20
52.499999898044088
 30
0.0
  0
VERTEX
  5
17F7
  8
SAPA_PROFIL
 10
121.49999999984129
 20
52.50099983439425
 30
0.0
  0
VERTEX
  5
17F8
  8
SAPA_PROFIL
 10
121.49999999984129
 20
54.500000000000128
 30
0.0
 42
-0.4142135623731035
  0
VERTEX
  5
17F9
  8
SAPA_PROFIL
 10
121.99999999984129
 20
55.000000000000099
 30
0.0
  0
VERTEX
  5
17FA
  8
SAPA_PROFIL
 10
129.15000000011199
 20
55.000000000000128
 30
0.0
 42
-0.4142135623731022
  0
VERTEX
  5
17FB
  8
SAPA_PROFIL
 10
129.45000000011129
 20
54.700000000000848
 30
0.0
  0
VERTEX
  5
17FC
  8
SAPA_PROFIL
 10
129.45000000011129
 20
54.049999999999429
 30
0.0
 42
0.4142135623730534
  0
VERTEX
  5
17FD
  8
SAPA_PROFIL
 10
129.7500000001105
 20
53.750000000000099
 30
0.0
  0
VERTEX
  5
17FE
  8
SAPA_PROFIL
 10
130.45000000000209
 20
53.750000000000149
 30
0.0
 42
0.4142135623730884
  0
VERTEX
  5
17FF
  8
SAPA_PROFIL
 10
130.75000000000139
 20
54.049999999999429
 30
0.0
  0
VERTEX
  5
1800
  8
SAPA_PROFIL
 10
130.7500000000214
 20
65.950000000009979
 30
0.0
 42
0.4142135623730466
  0
VERTEX
  5
1801
  8
SAPA_PROFIL
 10
130.45000000002031
 20
66.25000000001107
 30
0.0
  0
VERTEX
  5
1802
  8
SAPA_PROFIL
 10
129.74999999954301
 20
66.250000000020165
 30
0.0
 42
0.4142135623731437
  0
VERTEX
  5
1803
  8
SAPA_PROFIL
 10
129.44999999953279
 20
65.950000000009979
 30
0.0
  0
VERTEX
  5
1804
  8
SAPA_PROFIL
 10
129.4499999995401
 20
65.2999999999994
 30
0.0
 42
-0.4142135623535671
  0
VERTEX
  5
1805
  8
SAPA_PROFIL
 10
129.1499999995408
 20
65.000000000011042
 30
0.0
  0
VERTEX
  5
1806
  8
SAPA_PROFIL
 10
127.19999999953281
 20
65.000000000011042
 30
0.0
 42
-0.4142135623731159
  0
VERTEX
  5
1807
  8
SAPA_PROFIL
 10
126.9999999995339
 20
65.200000000009965
 30
0.0
  0
VERTEX
  5
1808
  8
SAPA_PROFIL
 10
126.99999999954299
 20
66.300000000010314
 30
0.0
 42
-0.4142135623730326
  0
VERTEX
  5
1809
  8
SAPA_PROFIL
 10
127.19999999953281
 20
66.500000000000099
 30
0.0
  0
VERTEX
  5
180A
  8
SAPA_PROFIL
 10
127.99999999954299
 20
66.500000000011042
 30
0.0
 42
0.4142135623730991
  0
VERTEX
  5
180B
  8
SAPA_PROFIL
 10
128.49999999954301
 20
67.000000000011042
 30
0.0
  0
VERTEX
  5
180C
  8
SAPA_PROFIL
 10
128.50000000002319
 20
68.000000000020165
 30
0.0
 42
0.4142135623730992
  0
SEQEND
  5
180D
  8
SAPA_PROFIL
  0
POLYLINE
  5
EE8
  8
SAPA_PROFIL
 66
     1
 10
0.0
 20
0.0
 30
0.0
 70
     1
  0
VERTEX
  5
180E
  8
SAPA_PROFIL
 10
89.999999999659565
 20
68.500000000020165
 30
0.0
  0
VERTEX
  5
180F
  8
SAPA_PROFIL
 10
90.799999999669694
 20
68.500000000011042
 30
0.0
 42
0.4142135623731159
  0
VERTEX
  5
1810
  8
SAPA_PROFIL
 10
90.999999999668646
 20
68.70000000000995
 30
0.0
  0
VERTEX
  5
1811
  8
SAPA_PROFIL
 10
90.999999999659522
 20
69.800000000010343
 30
0.0
 42
0.4142135623730744
  0
VERTEX
  5
1812
  8
SAPA_PROFIL
 10
90.799999999669694
 20
70.000000000000171
 30
0.0
  0
VERTEX
  5
1813
  8
SAPA_PROFIL
 10
87.250000000172477
 20
70.000000000011042
 30
0.0
 42
0.3389652260119365
  0
VERTEX
  5
1814
  8
SAPA_PROFIL
 10
86.284529700628184
 20
69.260513148811256
 30
0.0
 42
0.0274862826956062
  0
VERTEX
  5
1815
  8
SAPA_PROFIL
 10
85.500000000180634
 20
55.000000000019412
 30
0.0
  0
VERTEX
  5
1816
  8
SAPA_PROFIL
 10
85.499999999819593
 20
42.199999998760319
 30
0.0
 42
0.4142135623889429
  0
VERTEX
  5
1817
  8
SAPA_PROFIL
 10
85.699999999820321
 20
41.999999998748699
 30
0.0
  0
VERTEX
  5
1818
  8
SAPA_PROFIL
 10
86.034529946080184
 20
41.999999998750489
 30
0.0
 42
0.2679491924396797
  0
VERTEX
  5
1819
  8
SAPA_PROFIL
 10
86.20773502683933
 20
42.099999998755493
 30
0.0
  0
VERTEX
  5
181A
  8
SAPA_PROFIL
 10
87.223205080431981
 20
43.858845725149983
 30
0.0
 42
0.1316524975842002
  0
VERTEX
  5
181B
  8
SAPA_PROFIL
 10
87.249999999674557
 20
43.958845725150347
 30
0.0
  0
VERTEX
  5
181C
  8
SAPA_PROFIL
 10
87.249999999670436
 20
46.80000000001035
 30
0.0
 42
-0.4142135623731472
  0
VERTEX
  5
181D
  8
SAPA_PROFIL
 10
87.449999999671164
 20
47.000000000011099
 30
0.0
  0
VERTEX
  5
181E
  8
SAPA_PROFIL
 10
93.756130958879695
 20
47.000000000011021
 30
0.0
 42
0.2418327667441306
  0
VERTEX
  5
181F
  8
SAPA_PROFIL
 10
93.999999999831189
 20
47.125277674977262
 30
0.0
 42
-0.2418327667529517
  0
VERTEX
  5
1820
  8
SAPA_PROFIL
 10
94.243869040792234
 20
47.250555349950581
 30
0.0
  0
VERTEX
  5
1821
  8
SAPA_PROFIL
 10
95.199999999831235
 20
47.250555349950552
 30
0.0
 42
-0.2418327667504456
  0
VERTEX
  5
1822
  8
SAPA_PROFIL
 10
95.443869040793956
 20
47.125277674979607
 30
0.0
 42
0.2418327667464157
  0
VERTEX
  5
1823
  8
SAPA_PROFIL
 10
95.687738081747526
 20
47.000000000011021
 30
0.0
  0
VERTEX
  5
1824
  8
SAPA_PROFIL
 10
97.785810437467788
 20
47.000000000011021
 30
0.0
 42
0.6681786379192718
  0
VERTEX
  5
1825
  8
SAPA_PROFIL
 10
98.492917218654412
 20
48.70710678119751
 30
0.0
  0
VERTEX
  5
1826
  8
SAPA_PROFIL
 10
97.187867965485424
 20
50.012156034366683
 30
0.0
 42
0.1989123673797335
  0
VERTEX
  5
1827
  8
SAPA_PROFIL
 10
96.975735931129336
 20
50.100024000010812
 30
0.0
  0
VERTEX
  5
1828
  8
SAPA_PROFIL
 10
96.389230484382153
 20
50.10002400001067
 30
0.0
 42
0.1316524975873855
  0
VERTEX
  5
1829
  8
SAPA_PROFIL
 10
96.239230484382233
 20
50.059831621146017
 30
0.0
  0
VERTEX
  5
182A
  8
SAPA_PROFIL
 10
94.74999999984135
 20
49.200024000010707
 30
0.0
  0
VERTEX
  5
182B
  8
SAPA_PROFIL
 10
94.299999999841404
 20
49.200012000011043
 30
0.0
 42
-0.4142135623731054
  0
VERTEX
  5
182C
  8
SAPA_PROFIL
 10
93.999999999841393
 20
49.500012000011047
 30
0.0
  0
VERTEX
  5
182D
  8
SAPA_PROFIL
 10
93.999999999841435
 20
53.100024000011118
 30
0.0
 42
-0.4142135623730951
  0
VERTEX
  5
182E
  8
SAPA_PROFIL
 10
94.299999999841447
 20
53.400024000011108
 30
0.0
  0
VERTEX
  5
182F
  8
SAPA_PROFIL
 10
94.749999999841449
 20
53.400024000011001
 30
0.0
  0
VERTEX
  5
1830
  8
SAPA_PROFIL
 10
96.239260130915625
 20
52.54019926244203
 30
0.0
 42
0.1316363093594254
  0
VERTEX
  5
1831
  8
SAPA_PROFIL
 10
96.389241035962357
 20
52.500006884185062
 30
0.0
  0
VERTEX
  5
1832
  8
SAPA_PROFIL
 10
96.498999999843491
 20
52.499999898044088
 30
0.0
  0
VERTEX
  5
1833
  8
SAPA_PROFIL
 10
96.499999999841464
 20
52.50099983439425
 30
0.0
  0
VERTEX
  5
1834
  8
SAPA_PROFIL
 10
96.499999999841421
 20
54.500000000000128
 30
0.0
 42
0.4142135623731035
  0
VERTEX
  5
1835
  8
SAPA_PROFIL
 10
95.999999999841421
 20
55.000000000000099
 30
0.0
  0
VERTEX
  5
1836
  8
SAPA_PROFIL
 10
88.849999999570755
 20
55.000000000000128
 30
0.0
 42
0.4142135623731022
  0
VERTEX
  5
1837
  8
SAPA_PROFIL
 10
88.549999999571483
 20
54.700000000000848
 30
0.0
  0
VERTEX
  5
1838
  8
SAPA_PROFIL
 10
88.549999999571511
 20
54.049999999999429
 30
0.0
 42
-0.4142135623730534
  0
VERTEX
  5
1839
  8
SAPA_PROFIL
 10
88.249999999572211
 20
53.750000000000099
 30
0.0
  0
VERTEX
  5
183A
  8
SAPA_PROFIL
 10
87.549999999680608
 20
53.750000000000149
 30
0.0
 42
-0.4142135623730884
  0
VERTEX
  5
183B
  8
SAPA_PROFIL
 10
87.249999999681378
 20
54.049999999999429
 30
0.0
  0
VERTEX
  5
183C
  8
SAPA_PROFIL
 10
87.249999999661355
 20
65.950000000009979
 30
0.0
 42
-0.4142135623730466
  0
VERTEX
  5
183D
  8
SAPA_PROFIL
 10
87.549999999662461
 20
66.25000000001107
 30
0.0
  0
VERTEX
  5
183E
  8
SAPA_PROFIL
 10
88.250000000139764
 20
66.250000000020165
 30
0.0
 42
-0.4142135623731437
  0
VERTEX
  5
183F
  8
SAPA_PROFIL
 10
88.550000000149922
 20
65.950000000009979
 30
0.0
  0
VERTEX
  5
1840
  8
SAPA_PROFIL
 10
88.550000000142646
 20
65.2999999999994
 30
0.0
 42
0.4142135623535671
  0
VERTEX
  5
1841
  8
SAPA_PROFIL
 10
88.850000000141918
 20
65.000000000011042
 30
0.0
  0
VERTEX
  5
1842
  8
SAPA_PROFIL
 10
90.800000000149922
 20
65.000000000011042
 30
0.0
 42
0.4142135623731159
  0
VERTEX
  5
1843
  8
SAPA_PROFIL
 10
91.00000000014883
 20
65.200000000009965
 30
0.0
  0
VERTEX
  5
1844
  8
SAPA_PROFIL
 10
91.000000000139735
 20
66.300000000010314
 30
0.0
 42
0.4142135623730326
  0
VERTEX
  5
1845
  8
SAPA_PROFIL
 10
90.800000000149922
 20
66.500000000000099
 30
0.0
  0
VERTEX
  5
1846
  8
SAPA_PROFIL
 10
90.000000000139764
 20
66.500000000011042
 30
0.0
 42
-0.4142135623730991
  0
VERTEX
  5
1847
  8
SAPA_PROFIL
 10
89.500000000139735
 20
67.000000000011042
 30
0.0
  0
VERTEX
  5
1848
  8
SAPA_PROFIL
 10
89.499999999659551
 20
68.000000000020165
 30
0.0
 42
-0.4142135623730992
  0
SEQEND
  5
1849
  8
SAPA_PROFIL
  0
POLYLINE
  5
EE9
  8
SAPA_PROFIL
 66
     1
 10
0.0
 20
0.0
 30
0.0
 70
     1
  0
VERTEX
  5
184A
  8
SAPA_PROFIL
 10
89.999999999659565
 20
68.500000000020165
 30
0.0
  0
VERTEX
  5
184B
  8
SAPA_PROFIL
 10
90.799999999669694
 20
68.500000000011042
 30
0.0
 42
0.4142135623731159
  0
VERTEX
  5
184C
  8
SAPA_PROFIL
 10
90.999999999668646
 20
68.70000000000995
 30
0.0
  0
VERTEX
  5
184D
  8
SAPA_PROFIL
 10
90.999999999659522
 20
69.800000000010343
 30
0.0
 42
0.4142135623730744
  0
VERTEX
  5
184E
  8
SAPA_PROFIL
 10
90.799999999669694
 20
70.000000000000171
 30
0.0
  0
VERTEX
  5
184F
  8
SAPA_PROFIL
 10
87.250000000172477
 20
70.000000000011042
 30
0.0
 42
0.3389652260119365
  0
VERTEX
  5
1850
  8
SAPA_PROFIL
 10
86.284529700628184
 20
69.260513148811256
 30
0.0
 42
0.0274862826956062
  0
VERTEX
  5
1851
  8
SAPA_PROFIL
 10
85.500000000180634
 20
55.000000000019412
 30
0.0
  0
VERTEX
  5
1852
  8
SAPA_PROFIL
 10
85.499999999819593
 20
42.199999998760319
 30
0.0
 42
0.4142135623889429
  0
VERTEX
  5
1853
  8
SAPA_PROFIL
 10
85.699999999820321
 20
41.999999998748699
 30
0.0
  0
VERTEX
  5
1854
  8
SAPA_PROFIL
 10
86.034529946080184
 20
41.999999998750489
 30
0.0
 42
0.2679491924396797
  0
VERTEX
  5
1855
  8
SAPA_PROFIL
 10
86.20773502683933
 20
42.099999998755493
 30
0.0
  0
VERTEX
  5
1856
  8
SAPA_PROFIL
 10
87.223205080431981
 20
43.858845725149983
 30
0.0
 42
0.1316524975842002
  0
VERTEX
  5
1857
  8
SAPA_PROFIL
 10
87.249999999674557
 20
43.958845725150347
 30
0.0
  0
VERTEX
  5
1858
  8
SAPA_PROFIL
 10
87.249999999670436
 20
46.80000000001035
 30
0.0
 42
-0.4142135623731472
  0
VERTEX
  5
1859
  8
SAPA_PROFIL
 10
87.449999999671164
 20
47.000000000011099
 30
0.0
  0
VERTEX
  5
185A
  8
SAPA_PROFIL
 10
93.756130958879695
 20
47.000000000011021
 30
0.0
 42
0.2418327667441306
  0
VERTEX
  5
185B
  8
SAPA_PROFIL
 10
93.999999999831189
 20
47.125277674977262
 30
0.0
 42
-0.2418327667529517
  0
VERTEX
  5
185C
  8
SAPA_PROFIL
 10
94.243869040792234
 20
47.250555349950581
 30
0.0
  0
VERTEX
  5
185D
  8
SAPA_PROFIL
 10
95.199999999831235
 20
47.250555349950552
 30
0.0
 42
-0.2418327667504456
  0
VERTEX
  5
185E
  8
SAPA_PROFIL
 10
95.443869040793956
 20
47.125277674979607
 30
0.0
 42
0.2418327667464157
  0
VERTEX
  5
185F
  8
SAPA_PROFIL
 10
95.687738081747526
 20
47.000000000011021
 30
0.0
  0
VERTEX
  5
1860
  8
SAPA_PROFIL
 10
97.785810437467788
 20
47.000000000011021
 30
0.0
 42
0.6681786379192718
  0
VERTEX
  5
1861
  8
SAPA_PROFIL
 10
98.492917218654412
 20
48.70710678119751
 30
0.0
  0
VERTEX
  5
1862
  8
SAPA_PROFIL
 10
97.187867965485424
 20
50.012156034366683
 30
0.0
 42
0.1989123673797335
  0
VERTEX
  5
1863
  8
SAPA_PROFIL
 10
96.975735931129336
 20
50.100024000010812
 30
0.0
  0
VERTEX
  5
1864
  8
SAPA_PROFIL
 10
96.389230484382153
 20
50.10002400001067
 30
0.0
 42
0.1316524975873855
  0
VERTEX
  5
1865
  8
SAPA_PROFIL
 10
96.239230484382233
 20
50.059831621146017
 30
0.0
  0
VERTEX
  5
1866
  8
SAPA_PROFIL
 10
94.74999999984135
 20
49.200024000010707
 30
0.0
  0
VERTEX
  5
1867
  8
SAPA_PROFIL
 10
94.299999999841404
 20
49.200012000011043
 30
0.0
 42
-0.4142135623731054
  0
VERTEX
  5
1868
  8
SAPA_PROFIL
 10
93.999999999841393
 20
49.500012000011047
 30
0.0
  0
VERTEX
  5
1869
  8
SAPA_PROFIL
 10
93.999999999841435
 20
53.100024000011118
 30
0.0
 42
-0.4142135623730951
  0
VERTEX
  5
186A
  8
SAPA_PROFIL
 10
94.299999999841447
 20
53.400024000011108
 30
0.0
  0
VERTEX
  5
186B
  8
SAPA_PROFIL
 10
94.749999999841449
 20
53.400024000011001
 30
0.0
  0
VERTEX
  5
186C
  8
SAPA_PROFIL
 10
96.239260130915625
 20
52.54019926244203
 30
0.0
 42
0.1316363093594254
  0
VERTEX
  5
186D
  8
SAPA_PROFIL
 10
96.389241035962357
 20
52.500006884185062
 30
0.0
  0
VERTEX
  5
186E
  8
SAPA_PROFIL
 10
96.498999999843491
 20
52.499999898044088
 30
0.0
  0
VERTEX
  5
186F
  8
SAPA_PROFIL
 10
96.499999999841464
 20
52.50099983439425
 30
0.0
  0
VERTEX
  5
1870
  8
SAPA_PROFIL
 10
96.499999999841421
 20
54.500000000000128
 30
0.0
 42
0.4142135623731035
  0
VERTEX
  5
1871
  8
SAPA_PROFIL
 10
95.999999999841421
 20
55.000000000000099
 30
0.0
  0
VERTEX
  5
1872
  8
SAPA_PROFIL
 10
88.849999999570755
 20
55.000000000000128
 30
0.0
 42
0.4142135623731022
  0
VERTEX
  5
1873
  8
SAPA_PROFIL
 10
88.549999999571483
 20
54.700000000000848
 30
0.0
  0
VERTEX
  5
1874
  8
SAPA_PROFIL
 10
88.549999999571511
 20
54.049999999999429
 30
0.0
 42
-0.4142135623730534
  0
VERTEX
  5
1875
  8
SAPA_PROFIL
 10
88.249999999572211
 20
53.750000000000099
 30
0.0
  0
VERTEX
  5
1876
  8
SAPA_PROFIL
 10
87.549999999680608
 20
53.750000000000149
 30
0.0
 42
-0.4142135623730884
  0
VERTEX
  5
1877
  8
SAPA_PROFIL
 10
87.249999999681378
 20
54.049999999999429
 30
0.0
  0
VERTEX
  5
1878
  8
SAPA_PROFIL
 10
87.249999999661355
 20
65.950000000009979
 30
0.0
 42
-0.4142135623730466
  0
VERTEX
  5
1879
  8
SAPA_PROFIL
 10
87.549999999662461
 20
66.25000000001107
 30
0.0
  0
VERTEX
  5
187A
  8
SAPA_PROFIL
 10
88.250000000139764
 20
66.250000000020165
 30
0.0
 42
-0.4142135623731437
  0
VERTEX
  5
187B
  8
SAPA_PROFIL
 10
88.550000000149922
 20
65.950000000009979
 30
0.0
  0
VERTEX
  5
187C
  8
SAPA_PROFIL
 10
88.550000000142646
 20
65.2999999999994
 30
0.0
 42
0.4142135623535671
  0
VERTEX
  5
187D
  8
SAPA_PROFIL
 10
88.850000000141918
 20
65.000000000011042
 30
0.0
  0
VERTEX
  5
187E
  8
SAPA_PROFIL
 10
90.800000000149922
 20
65.000000000011042
 30
0.0
 42
0.4142135623731159
  0
VERTEX
  5
187F
  8
SAPA_PROFIL
 10
91.00000000014883
 20
65.200000000009965
 30
0.0
  0
VERTEX
  5
1880
  8
SAPA_PROFIL
 10
91.000000000139735
 20
66.300000000010314
 30
0.0
 42
0.4142135623730326
  0
VERTEX
  5
1881
  8
SAPA_PROFIL
 10
90.800000000149922
 20
66.500000000000099
 30
0.0
  0
VERTEX
  5
1882
  8
SAPA_PROFIL
 10
90.000000000139764
 20
66.500000000011042
 30
0.0
 42
-0.4142135623730991
  0
VERTEX
  5
1883
  8
SAPA_PROFIL
 10
89.500000000139735
 20
67.000000000011042
 30
0.0
  0
VERTEX
  5
1884
  8
SAPA_PROFIL
 10
89.499999999659551
 20
68.000000000020165
 30
0.0
 42
-0.4142135623730992
  0
SEQEND
  5
1885
  8
SAPA_PROFIL
  0
POLYLINE
  5
EEA
  8
SAPA_PROFIL
 66
     1
 10
0.0
 20
0.0
 30
0.0
 70
     1
  0
VERTEX
  5
1886
  8
SAPA_PROFIL
 10
128.00000000002319
 20
68.500000000020165
 30
0.0
  0
VERTEX
  5
1887
  8
SAPA_PROFIL
 10
127.20000000001311
 20
68.500000000011042
 30
0.0
 42
-0.4142135623731159
  0
VERTEX
  5
1888
  8
SAPA_PROFIL
 10
127.0000000000141
 20
68.70000000000995
 30
0.0
  0
VERTEX
  5
1889
  8
SAPA_PROFIL
 10
127.00000000002321
 20
69.800000000010343
 30
0.0
 42
-0.4142135623730744
  0
VERTEX
  5
188A
  8
SAPA_PROFIL
 10
127.20000000001311
 20
70.000000000000171
 30
0.0
  0
VERTEX
  5
188B
  8
SAPA_PROFIL
 10
130.74999999951029
 20
70.000000000011042
 30
0.0
 42
-0.3389652260119365
  0
VERTEX
  5
188C
  8
SAPA_PROFIL
 10
131.7154702990546
 20
69.260513148811256
 30
0.0
 42
-0.0274862826956062
  0
VERTEX
  5
188D
  8
SAPA_PROFIL
 10
132.49999999950211
 20
55.000000000019412
 30
0.0
  0
VERTEX
  5
188E
  8
SAPA_PROFIL
 10
132.49999999986309
 20
42.199999998760319
 30
0.0
 42
-0.4142135623889429
  0
VERTEX
  5
188F
  8
SAPA_PROFIL
 10
132.29999999986239
 20
41.999999998748699
 30
0.0
  0
VERTEX
  5
1890
  8
SAPA_PROFIL
 10
131.96547005360259
 20
41.999999998750489
 30
0.0
 42
-0.2679491924396797
  0
VERTEX
  5
1891
  8
SAPA_PROFIL
 10
131.79226497284341
 20
42.099999998755493
 30
0.0
  0
VERTEX
  5
1892
  8
SAPA_PROFIL
 10
130.77679491925079
 20
43.858845725149983
 30
0.0
 42
-0.1316524975842002
  0
VERTEX
  5
1893
  8
SAPA_PROFIL
 10
130.75000000000821
 20
43.958845725150347
 30
0.0
  0
VERTEX
  5
1894
  8
SAPA_PROFIL
 10
130.75000000001231
 20
46.80000000001035
 30
0.0
 42
0.4142135623731472
  0
VERTEX
  5
1895
  8
SAPA_PROFIL
 10
130.55000000001161
 20
47.000000000011099
 30
0.0
  0
VERTEX
  5
1896
  8
SAPA_PROFIL
 10
124.24386904080311
 20
47.000000000011021
 30
0.0
 42
-0.2418327667441306
  0
VERTEX
  5
1897
  8
SAPA_PROFIL
 10
123.9999999998516
 20
47.125277674977262
 30
0.0
 42
0.2418327667529517
  0
VERTEX
  5
1898
  8
SAPA_PROFIL
 10
123.75613095889049
 20
47.250555349950581
 30
0.0
  0
VERTEX
  5
1899
  8
SAPA_PROFIL
 10
122.79999999985149
 20
47.250555349950552
 30
0.0
 42
0.2418327667504456
  0
VERTEX
  5
189A
  8
SAPA_PROFIL
 10
122.5561309588888
 20
47.125277674979607
 30
0.0
 42
-0.2418327667464157
  0
VERTEX
  5
189B
  8
SAPA_PROFIL
 10
122.3122619179352
 20
47.000000000011021
 30
0.0
  0
VERTEX
  5
189C
  8
SAPA_PROFIL
 10
120.214189562215
 20
47.000000000011021
 30
0.0
 42
-0.6681786379192718
  0
VERTEX
  5
189D
  8
SAPA_PROFIL
 10
119.5070827810284
 20
48.70710678119751
 30
0.0
  0
VERTEX
  5
189E
  8
SAPA_PROFIL
 10
120.8121320341974
 20
50.012156034366683
 30
0.0
 42
-0.1989123673797335
  0
VERTEX
  5
189F
  8
SAPA_PROFIL
 10
121.02426406855341
 20
50.100024000010812
 30
0.0
  0
VERTEX
  5
18A0
  8
SAPA_PROFIL
 10
121.6107695153006
 20
50.10002400001067
 30
0.0
 42
-0.1316524975873855
  0
VERTEX
  5
18A1
  8
SAPA_PROFIL
 10
121.7607695153005
 20
50.059831621146017
 30
0.0
  0
VERTEX
  5
18A2
  8
SAPA_PROFIL
 10
123.24999999984141
 20
49.200024000010707
 30
0.0
  0
VERTEX
  5
18A3
  8
SAPA_PROFIL
 10
123.6999999998414
 20
49.200012000011043
 30
0.0
 42
0.4142135623731054
  0
VERTEX
  5
18A4
  8
SAPA_PROFIL
 10
123.99999999984141
 20
49.500012000011047
 30
0.0
  0
VERTEX
  5
18A5
  8
SAPA_PROFIL
 10
123.99999999984129
 20
53.100024000011118
 30
0.0
 42
0.4142135623730951
  0
VERTEX
  5
18A6
  8
SAPA_PROFIL
 10
123.6999999998413
 20
53.400024000011108
 30
0.0
  0
VERTEX
  5
18A7
  8
SAPA_PROFIL
 10
123.24999999984129
 20
53.400024000011001
 30
0.0
  0
VERTEX
  5
18A8
  8
SAPA_PROFIL
 10
121.7607398687672
 20
52.54019926244203
 30
0.0
 42
-0.1316363093594254
  0
VERTEX
  5
18A9
  8
SAPA_PROFIL
 10
121.6107589637204
 20
52.500006884185062
 30
0.0
  0
VERTEX
  5
18AA
  8
SAPA_PROFIL
 10
121.50099999983929
 20
52.499999898044088
 30
0.0
  0
VERTEX
  5
18AB
  8
SAPA_PROFIL
 10
121.49999999984129
 20
52.50099983439425
 30
0.0
  0
VERTEX
  5
18AC
  8
SAPA_PROFIL
 10
121.49999999984129
 20
54.500000000000128
 30
0.0
 42
-0.4142135623731035
  0
VERTEX
  5
18AD
  8
SAPA_PROFIL
 10
121.99999999984129
 20
55.000000000000099
 30
0.0
  0
VERTEX
  5
18AE
  8
SAPA_PROFIL
 10
129.15000000011199
 20
55.000000000000128
 30
0.0
 42
-0.4142135623731022
  0
VERTEX
  5
18AF
  8
SAPA_PROFIL
 10
129.45000000011129
 20
54.700000000000848
 30
0.0
  0
VERTEX
  5
18B0
  8
SAPA_PROFIL
 10
129.45000000011129
 20
54.049999999999429
 30
0.0
 42
0.4142135623730534
  0
VERTEX
  5
18B1
  8
SAPA_PROFIL
 10
129.7500000001105
 20
53.750000000000099
 30
0.0
  0
VERTEX
  5
18B2
  8
SAPA_PROFIL
 10
130.45000000000209
 20
53.750000000000149
 30
0.0
 42
0.4142135623730884
  0
VERTEX
  5
18B3
  8
SAPA_PROFIL
 10
130.75000000000139
 20
54.049999999999429
 30
0.0
  0
VERTEX
  5
18B4
  8
SAPA_PROFIL
 10
130.7500000000214
 20
65.950000000009979
 30
0.0
 42
0.4142135623730466
  0
VERTEX
  5
18B5
  8
SAPA_PROFIL
 10
130.45000000002031
 20
66.25000000001107
 30
0.0
  0
VERTEX
  5
18B6
  8
SAPA_PROFIL
 10
129.74999999954301
 20
66.250000000020165
 30
0.0
 42
0.4142135623731437
  0
VERTEX
  5
18B7
  8
SAPA_PROFIL
 10
129.44999999953279
 20
65.950000000009979
 30
0.0
  0
VERTEX
  5
18B8
  8
SAPA_PROFIL
 10
129.4499999995401
 20
65.2999999999994
 30
0.0
 42
-0.4142135623535671
  0
VERTEX
  5
18B9
  8
SAPA_PROFIL
 10
129.1499999995408
 20
65.000000000011042
 30
0.0
  0
VERTEX
  5
18BA
  8
SAPA_PROFIL
 10
127.19999999953281
 20
65.000000000011042
 30
0.0
 42
-0.4142135623731159
  0
VERTEX
  5
18BB
  8
SAPA_PROFIL
 10
126.9999999995339
 20
65.200000000009965
 30
0.0
  0
VERTEX
  5
18BC
  8
SAPA_PROFIL
 10
126.99999999954299
 20
66.300000000010314
 30
0.0
 42
-0.4142135623730326
  0
VERTEX
  5
18BD
  8
SAPA_PROFIL
 10
127.19999999953281
 20
66.500000000000099
 30
0.0
  0
VERTEX
  5
18BE
  8
SAPA_PROFIL
 10
127.99999999954299
 20
66.500000000011042
 30
0.0
 42
0.4142135623730991
  0
VERTEX
  5
18BF
  8
SAPA_PROFIL
 10
128.49999999954301
 20
67.000000000011042
 30
0.0
  0
VERTEX
  5
18C0
  8
SAPA_PROFIL
 10
128.50000000002319
 20
68.000000000020165
 30
0.0
 42
0.4142135623730992
  0
SEQEND
  5
18C1
  8
SAPA_PROFIL
  0
POLYLINE
  5
EEB
  8
SAPA_PROFIL
 66
     1
 10
0.0
 20
0.0
 30
0.0
 70
     1
  0
VERTEX
  5
18C2
  8
SAPA_PROFIL
 10
89.999999999659565
 20
68.500000000020165
 30
0.0
  0
VERTEX
  5
18C3
  8
SAPA_PROFIL
 10
90.799999999669694
 20
68.500000000011042
 30
0.0
 42
0.4142135623731159
  0
VERTEX
  5
18C4
  8
SAPA_PROFIL
 10
90.999999999668646
 20
68.70000000000995
 30
0.0
  0
VERTEX
  5
18C5
  8
SAPA_PROFIL
 10
90.999999999659522
 20
69.800000000010343
 30
0.0
 42
0.4142135623730744
  0
VERTEX
  5
18C6
  8
SAPA_PROFIL
 10
90.799999999669694
 20
70.000000000000171
 30
0.0
  0
VERTEX
  5
18C7
  8
SAPA_PROFIL
 10
87.250000000172477
 20
70.000000000011042
 30
0.0
 42
0.3389652260119365
  0
VERTEX
  5
18C8
  8
SAPA_PROFIL
 10
86.284529700628184
 20
69.260513148811256
 30
0.0
 42
0.0274862826956062
  0
VERTEX
  5
18C9
  8
SAPA_PROFIL
 10
85.500000000180634
 20
55.000000000019412
 30
0.0
  0
VERTEX
  5
18CA
  8
SAPA_PROFIL
 10
85.499999999819593
 20
42.199999998760319
 30
0.0
 42
0.4142135623889429
  0
VERTEX
  5
18CB
  8
SAPA_PROFIL
 10
85.699999999820321
 20
41.999999998748699
 30
0.0
  0
VERTEX
  5
18CC
  8
SAPA_PROFIL
 10
86.034529946080184
 20
41.999999998750489
 30
0.0
 42
0.2679491924396797
  0
VERTEX
  5
18CD
  8
SAPA_PROFIL
 10
86.20773502683933
 20
42.099999998755493
 30
0.0
  0
VERTEX
  5
18CE
  8
SAPA_PROFIL
 10
87.223205080431981
 20
43.858845725149983
 30
0.0
 42
0.1316524975842002
  0
VERTEX
  5
18CF
  8
SAPA_PROFIL
 10
87.249999999674557
 20
43.958845725150347
 30
0.0
  0
VERTEX
  5
18D0
  8
SAPA_PROFIL
 10
87.249999999670436
 20
46.80000000001035
 30
0.0
 42
-0.4142135623731472
  0
VERTEX
  5
18D1
  8
SAPA_PROFIL
 10
87.449999999671164
 20
47.000000000011099
 30
0.0
  0
VERTEX
  5
18D2
  8
SAPA_PROFIL
 10
93.756130958879695
 20
47.000000000011021
 30
0.0
 42
0.2418327667441306
  0
VERTEX
  5
18D3
  8
SAPA_PROFIL
 10
93.999999999831189
 20
47.125277674977262
 30
0.0
 42
-0.2418327667529517
  0
VERTEX
  5
18D4
  8
SAPA_PROFIL
 10
94.243869040792234
 20
47.250555349950581
 30
0.0
  0
VERTEX
  5
18D5
  8
SAPA_PROFIL
 10
95.199999999831235
 20
47.250555349950552
 30
0.0
 42
-0.2418327667504456
  0
VERTEX
  5
18D6
  8
SAPA_PROFIL
 10
95.443869040793956
 20
47.125277674979607
 30
0.0
 42
0.2418327667464157
  0
VERTEX
  5
18D7
  8
SAPA_PROFIL
 10
95.687738081747526
 20
47.000000000011021
 30
0.0
  0
VERTEX
  5
18D8
  8
SAPA_PROFIL
 10
97.785810437467788
 20
47.000000000011021
 30
0.0
 42
0.6681786379192718
  0
VERTEX
  5
18D9
  8
SAPA_PROFIL
 10
98.492917218654412
 20
48.70710678119751
 30
0.0
  0
VERTEX
  5
18DA
  8
SAPA_PROFIL
 10
97.187867965485424
 20
50.012156034366683
 30
0.0
 42
0.1989123673797335
  0
VERTEX
  5
18DB
  8
SAPA_PROFIL
 10
96.975735931129336
 20
50.100024000010812
 30
0.0
  0
VERTEX
  5
18DC
  8
SAPA_PROFIL
 10
96.389230484382153
 20
50.10002400001067
 30
0.0
 42
0.1316524975873855
  0
VERTEX
  5
18DD
  8
SAPA_PROFIL
 10
96.239230484382233
 20
50.059831621146017
 30
0.0
  0
VERTEX
  5
18DE
  8
SAPA_PROFIL
 10
94.74999999984135
 20
49.200024000010707
 30
0.0
  0
VERTEX
  5
18DF
  8
SAPA_PROFIL
 10
94.299999999841404
 20
49.200012000011043
 30
0.0
 42
-0.4142135623731054
  0
VERTEX
  5
18E0
  8
SAPA_PROFIL
 10
93.999999999841393
 20
49.500012000011047
 30
0.0
  0
VERTEX
  5
18E1
  8
SAPA_PROFIL
 10
93.999999999841435
 20
53.100024000011118
 30
0.0
 42
-0.4142135623730951
  0
VERTEX
  5
18E2
  8
SAPA_PROFIL
 10
94.299999999841447
 20
53.400024000011108
 30
0.0
  0
VERTEX
  5
18E3
  8
SAPA_PROFIL
 10
94.749999999841449
 20
53.400024000011001
 30
0.0
  0
VERTEX
  5
18E4
  8
SAPA_PROFIL
 10
96.239260130915625
 20
52.54019926244203
 30
0.0
 42
0.1316363093594254
  0
VERTEX
  5
18E5
  8
SAPA_PROFIL
 10
96.389241035962357
 20
52.500006884185062
 30
0.0
  0
VERTEX
  5
18E6
  8
SAPA_PROFIL
 10
96.498999999843491
 20
52.499999898044088
 30
0.0
  0
VERTEX
  5
18E7
  8
SAPA_PROFIL
 10
96.499999999841464
 20
52.50099983439425
 30
0.0
  0
VERTEX
  5
18E8
  8
SAPA_PROFIL
 10
96.499999999841421
 20
54.500000000000128
 30
0.0
 42
0.4142135623731035
  0
VERTEX
  5
18E9
  8
SAPA_PROFIL
 10
95.999999999841421
 20
55.000000000000099
 30
0.0
  0
VERTEX
  5
18EA
  8
SAPA_PROFIL
 10
88.849999999570755
 20
55.000000000000128
 30
0.0
 42
0.4142135623731022
  0
VERTEX
  5
18EB
  8
SAPA_PROFIL
 10
88.549999999571483
 20
54.700000000000848
 30
0.0
  0
VERTEX
  5
18EC
  8
SAPA_PROFIL
 10
88.549999999571511
 20
54.049999999999429
 30
0.0
 42
-0.4142135623730534
  0
VERTEX
  5
18ED
  8
SAPA_PROFIL
 10
88.249999999572211
 20
53.750000000000099
 30
0.0
  0
VERTEX
  5
18EE
  8
SAPA_PROFIL
 10
87.549999999680608
 20
53.750000000000149
 30
0.0
 42
-0.4142135623730884
  0
VERTEX
  5
18EF
  8
SAPA_PROFIL
 10
87.249999999681378
 20
54.049999999999429
 30
0.0
  0
VERTEX
  5
18F0
  8
SAPA_PROFIL
 10
87.249999999661355
 20
65.950000000009979
 30
0.0
 42
-0.4142135623730466
  0
VERTEX
  5
18F1
  8
SAPA_PROFIL
 10
87.549999999662461
 20
66.25000000001107
 30
0.0
  0
VERTEX
  5
18F2
  8
SAPA_PROFIL
 10
88.250000000139764
 20
66.250000000020165
 30
0.0
 42
-0.4142135623731437
  0
VERTEX
  5
18F3
  8
SAPA_PROFIL
 10
88.550000000149922
 20
65.950000000009979
 30
0.0
  0
VERTEX
  5
18F4
  8
SAPA_PROFIL
 10
88.550000000142646
 20
65.2999999999994
 30
0.0
 42
0.4142135623535671
  0
VERTEX
  5
18F5
  8
SAPA_PROFIL
 10
88.850000000141918
 20
65.000000000011042
 30
0.0
  0
VERTEX
  5
18F6
  8
SAPA_PROFIL
 10
90.800000000149922
 20
65.000000000011042
 30
0.0
 42
0.4142135623731159
  0
VERTEX
  5
18F7
  8
SAPA_PROFIL
 10
91.00000000014883
 20
65.200000000009965
 30
0.0
  0
VERTEX
  5
18F8
  8
SAPA_PROFIL
 10
91.000000000139735
 20
66.300000000010314
 30
0.0
 42
0.4142135623730326
  0
VERTEX
  5
18F9
  8
SAPA_PROFIL
 10
90.800000000149922
 20
66.500000000000099
 30
0.0
  0
VERTEX
  5
18FA
  8
SAPA_PROFIL
 10
90.000000000139764
 20
66.500000000011042
 30
0.0
 42
-0.4142135623730991
  0
VERTEX
  5
18FB
  8
SAPA_PROFIL
 10
89.500000000139735
 20
67.000000000011042
 30
0.0
  0
VERTEX
  5
18FC
  8
SAPA_PROFIL
 10
89.499999999659551
 20
68.000000000020165
 30
0.0
 42
-0.4142135623730992
  0
SEQEND
  5
18FD
  8
SAPA_PROFIL
  0
POLYLINE
  5
EEC
  8
SAPA_PROFIL
 62
     4
 66
     1
 10
0.0
 20
0.0
 30
0.0
 70
     1
  0
VERTEX
  5
EED
  8
SAPA_PROFIL
 62
     4
 10
96.856217782493886
 20
50.350012000013074
 30
0.0
 42
0.1316524975873979
  0
VERTEX
  5
EEE
  8
SAPA_PROFIL
 62
     4
 10
96.45621778249388
 20
50.242832323040631
 30
0.0
  0
VERTEX
  5
EEF
  8
SAPA_PROFIL
 62
     4
 10
94.736602540219835
 20
49.25001200001121
 30
0.0
  0
VERTEX
  5
EF0
  8
SAPA_PROFIL
 62
     4
 10
94.299999999841376
 20
49.250012000011111
 30
0.0
 42
-0.4142135623730951
  0
VERTEX
  5
EF1
  8
SAPA_PROFIL
 62
     4
 10
94.049999999841404
 20
49.500012000011111
 30
0.0
  0
VERTEX
  5
EF2
  8
SAPA_PROFIL
 62
     4
 10
94.049999999841333
 20
53.100024000011167
 30
0.0
 42
-0.4142135623731053
  0
VERTEX
  5
EF3
  8
SAPA_PROFIL
 62
     4
 10
94.299999999841347
 20
53.350024000011167
 30
0.0
  0
VERTEX
  5
EF4
  8
SAPA_PROFIL
 62
     4
 10
94.736601921419805
 20
53.350012357275808
 30
0.0
  0
VERTEX
  5
EF5
  8
SAPA_PROFIL
 62
     4
 10
96.456217782487201
 20
52.357191676985543
 30
0.0
 42
0.1316524975874149
  0
VERTEX
  5
EF6
  8
SAPA_PROFIL
 62
     4
 10
96.856217782487249
 20
52.250012000013051
 30
0.0
  0
VERTEX
  5
EF7
  8
SAPA_PROFIL
 62
     4
 10
121.14378221719549
 20
52.250012000013051
 30
0.0
 42
0.1316524975874151
  0
VERTEX
  5
EF8
  8
SAPA_PROFIL
 62
     4
 10
121.5437822171956
 20
52.357191676985543
 30
0.0
  0
VERTEX
  5
EF9
  8
SAPA_PROFIL
 62
     4
 10
123.26339807826299
 20
53.350012357275808
 30
0.0
  0
VERTEX
  5
EFA
  8
SAPA_PROFIL
 62
     4
 10
123.6999999998414
 20
53.350024000011167
 30
0.0
 42
-0.4142135623731054
  0
VERTEX
  5
EFB
  8
SAPA_PROFIL
 62
     4
 10
123.9499999998414
 20
53.100024000011167
 30
0.0
  0
VERTEX
  5
EFC
  8
SAPA_PROFIL
 62
     4
 10
123.9499999998414
 20
49.500012000011111
 30
0.0
 42
-0.4142135623730953
  0
VERTEX
  5
EFD
  8
SAPA_PROFIL
 62
     4
 10
123.6999999998414
 20
49.250012000011111
 30
0.0
  0
VERTEX
  5
EFE
  8
SAPA_PROFIL
 62
     4
 10
123.26339745946289
 20
49.25001200001121
 30
0.0
  0
VERTEX
  5
EFF
  8
SAPA_PROFIL
 62
     4
 10
121.54378221718891
 20
50.242832323040631
 30
0.0
 42
0.1316524975873982
  0
VERTEX
  5
F00
  8
SAPA_PROFIL
 62
     4
 10
121.1437822171889
 20
50.350012000013074
 30
0.0
  0
SEQEND
  5
F01
  8
SAPA_PROFIL
 62
     4
  0
POLYLINE
  5
F02
  8
SAPA_PROFIL
 66
     1
 10
0.0
 20
0.0
 30
0.0
 70
     1
  0
VERTEX
  5
18FE
  8
SAPA_PROFIL
 10
135.64523645122861
 20
19.46152494752096
 30
0.0
 42
0.2914734195858593
  0
VERTEX
  5
18FF
  8
SAPA_PROFIL
 10
136.79999992774421
 20
21.274140521607482
 30
0.0
  0
VERTEX
  5
1900
  8
SAPA_PROFIL
 10
136.79999992774421
 20
40.999999999985441
 30
0.0
 42
0.4142135623731033
  0
VERTEX
  5
1901
  8
SAPA_PROFIL
 10
136.29999992774421
 20
41.499999999985441
 30
0.0
  0
VERTEX
  5
1902
  8
SAPA_PROFIL
 10
135.999999927734
 20
41.499999999985441
 30
0.0
 42
0.4142135623731035
  0
VERTEX
  5
1903
  8
SAPA_PROFIL
 10
135.499999927734
 20
40.999999999985441
 30
0.0
  0
VERTEX
  5
1904
  8
SAPA_PROFIL
 10
135.499999927734
 20
39.699999999986183
 30
0.0
 42
-0.4142135623731159
  0
VERTEX
  5
1905
  8
SAPA_PROFIL
 10
135.29999992771511
 20
39.499999999974541
 30
0.0
  0
VERTEX
  5
1906
  8
SAPA_PROFIL
 10
134.999999927734
 20
39.499999999985448
 30
0.0
 42
-0.4142135623731035
  0
VERTEX
  5
1907
  8
SAPA_PROFIL
 10
134.499999927734
 20
39.999999999985448
 30
0.0
  0
VERTEX
  5
1908
  8
SAPA_PROFIL
 10
134.4999999277413
 20
43.749999999985448
 30
0.0
 42
-0.4142135623731035
  0
VERTEX
  5
1909
  8
SAPA_PROFIL
 10
134.9999999277413
 20
44.249999999985441
 30
0.0
  0
VERTEX
  5
190A
  8
SAPA_PROFIL
 10
135.29999992774421
 20
44.249999999985441
 30
0.0
 42
-0.4142135623731159
  0
VERTEX
  5
190B
  8
SAPA_PROFIL
 10
135.49999992775221
 20
44.049999999973807
 30
0.0
  0
VERTEX
  5
190C
  8
SAPA_PROFIL
 10
135.4999999277413
 20
43.199999999986169
 30
0.0
 42
0.4142135623730951
  0
VERTEX
  5
190D
  8
SAPA_PROFIL
 10
135.69999992773111
 20
42.999999999985441
 30
0.0
  0
VERTEX
  5
190E
  8
SAPA_PROFIL
 10
136.69999992773111
 20
42.999999999985441
 30
0.0
 42
0.4142135623731035
  0
VERTEX
  5
190F
  8
SAPA_PROFIL
 10
137.19999992773111
 20
43.499999999985441
 30
0.0
  0
VERTEX
  5
1910
  8
SAPA_PROFIL
 10
137.19999992773111
 20
49.499999999985448
 30
0.0
 42
0.4142135623731033
  0
VERTEX
  5
1911
  8
SAPA_PROFIL
 10
136.69999992773111
 20
49.999999999985448
 30
0.0
  0
VERTEX
  5
1912
  8
SAPA_PROFIL
 10
135.69999992773111
 20
49.999999999985448
 30
0.0
 42
0.4142135623731054
  0
VERTEX
  5
1913
  8
SAPA_PROFIL
 10
135.4999999277413
 20
49.799999999973807
 30
0.0
  0
VERTEX
  5
1914
  8
SAPA_PROFIL
 10
135.499999927734
 20
48.949999999986169
 30
0.0
 42
-0.4142135623731159
  0
VERTEX
  5
1915
  8
SAPA_PROFIL
 10
135.29999992771511
 20
48.749999999974527
 30
0.0
  0
VERTEX
  5
1916
  8
SAPA_PROFIL
 10
134.9999999277413
 20
48.75
 30
0.0
 42
-0.4142135623731035
  0
VERTEX
  5
1917
  8
SAPA_PROFIL
 10
134.4999999277413
 20
49.25
 30
0.0
  0
VERTEX
  5
1918
  8
SAPA_PROFIL
 10
134.4999999277413
 20
52.25
 30
0.0
 42
-0.4142135623731035
  0
VERTEX
  5
1919
  8
SAPA_PROFIL
 10
134.9999999277413
 20
52.75
 30
0.0
  0
VERTEX
  5
191A
  8
SAPA_PROFIL
 10
135.29999992774421
 20
52.75
 30
0.0
 42
-0.4142135623730744
  0
VERTEX
  5
191B
  8
SAPA_PROFIL
 10
135.4999999277413
 20
52.549999999999272
 30
0.0
  0
VERTEX
  5
191C
  8
SAPA_PROFIL
 10
135.49999992773041
 20
51.70000000000072
 30
0.0
 42
0.4142135623730534
  0
VERTEX
  5
191D
  8
SAPA_PROFIL
 10
135.69999992773111
 20
51.5
 30
0.0
  0
VERTEX
  5
191E
  8
SAPA_PROFIL
 10
136.69999992773111
 20
51.5
 30
0.0
 42
0.4142135623731035
  0
VERTEX
  5
191F
  8
SAPA_PROFIL
 10
137.19999992773111
 20
52.0
 30
0.0
  0
VERTEX
  5
1920
  8
SAPA_PROFIL
 10
137.19999992773111
 20
58.0
 30
0.0
 42
0.4142135623730869
  0
VERTEX
  5
1921
  8
SAPA_PROFIL
 10
136.69999992773111
 20
58.5
 30
0.0
  0
VERTEX
  5
1922
  8
SAPA_PROFIL
 10
135.69999992773111
 20
58.499999999989079
 30
0.0
 42
0.4142135623730534
  0
VERTEX
  5
1923
  8
SAPA_PROFIL
 10
135.4999999277413
 20
58.299999999999272
 30
0.0
  0
VERTEX
  5
1924
  8
SAPA_PROFIL
 10
135.4999999277486
 20
57.45000000000072
 30
0.0
 42
-0.4142135623730744
  0
VERTEX
  5
1925
  8
SAPA_PROFIL
 10
135.29999992774421
 20
57.25
 30
0.0
  0
VERTEX
  5
1926
  8
SAPA_PROFIL
 10
134.9999999277413
 20
57.25
 30
0.0
 42
-0.4142135623731035
  0
VERTEX
  5
1927
  8
SAPA_PROFIL
 10
134.4999999277413
 20
57.75
 30
0.0
  0
VERTEX
  5
1928
  8
SAPA_PROFIL
 10
134.4999999277413
 20
59.5
 30
0.0
 42
-0.4142135623731035
  0
VERTEX
  5
1929
  8
SAPA_PROFIL
 10
134.9999999277413
 20
60.0
 30
0.0
  0
VERTEX
  5
192A
  8
SAPA_PROFIL
 10
137.4999999277413
 20
60.0
 30
0.0
 42
-0.4142135623730951
  0
VERTEX
  5
192B
  8
SAPA_PROFIL
 10
138.9999999277413
 20
58.5
 30
0.0
  0
VERTEX
  5
192C
  8
SAPA_PROFIL
 10
138.9999999277413
 20
-55.625
 30
0.0
 42
-0.9999999999999792
  0
VERTEX
  5
192D
  8
SAPA_PROFIL
 10
136.2499999277413
 20
-55.625
 30
0.0
  0
VERTEX
  5
192E
  8
SAPA_PROFIL
 10
136.2499999277413
 20
-3.9999999999999849
 30
0.0
 42
0.4142135623730959
  0
VERTEX
  5
192F
  8
SAPA_PROFIL
 10
132.2499999277413
 20
0.0000000000000142
 30
0.0
  0
VERTEX
  5
1930
  8
SAPA_PROFIL
 10
90.743868969062234
 20
-0.0000000000109139
 30
0.0
 42
-0.2418327667378102
  0
VERTEX
  5
1931
  8
SAPA_PROFIL
 10
90.499999928123856
 20
0.1252776749561804
 30
0.0
 42
0.2418327667509117
  0
VERTEX
  5
1932
  8
SAPA_PROFIL
 10
90.256130887167899
 20
0.2505553499286179
 30
0.0
  0
VERTEX
  5
1933
  8
SAPA_PROFIL
 10
89.299999928117984
 20
0.2505553499322559
 30
0.0
 42
0.2418327667448982
  0
VERTEX
  5
1934
  8
SAPA_PROFIL
 10
89.056130887163064
 20
0.12527767496384
 30
0.0
 42
-0.2418327667448982
  0
VERTEX
  5
1935
  8
SAPA_PROFIL
 10
88.812261846210475
 20
-0.0000000000033538
 30
0.0
  0
VERTEX
  5
1936
  8
SAPA_PROFIL
 10
86.714189490492487
 20
-0.0000000000033538
 30
0.0
 42
-0.6681786379192726
  0
VERTEX
  5
1937
  8
SAPA_PROFIL
 10
86.007082709305891
 20
1.707106781183142
 30
0.0
  0
VERTEX
  5
1938
  8
SAPA_PROFIL
 10
87.312131962474865
 20
3.0121560343523011
 30
0.0
 42
-0.1989123673797352
  0
VERTEX
  5
1939
  8
SAPA_PROFIL
 10
87.524263996830925
 20
3.100023999996437
 30
0.0
  0
VERTEX
  5
193A
  8
SAPA_PROFIL
 10
88.110769443578135
 20
3.1000239999962811
 30
0.0
 42
-0.1316524975873824
  0
VERTEX
  5
193B
  8
SAPA_PROFIL
 10
88.260769443578056
 20
3.059831621131635
 30
0.0
  0
VERTEX
  5
193C
  8
SAPA_PROFIL
 10
89.749999928118925
 20
2.2000239999963318
 30
0.0
  0
VERTEX
  5
193D
  8
SAPA_PROFIL
 10
90.199999928118885
 20
2.2000119999966752
 30
0.0
 42
0.4142135623731039
  0
VERTEX
  5
193E
  8
SAPA_PROFIL
 10
90.499999928118896
 20
2.5000119999966719
 30
0.0
  0
VERTEX
  5
193F
  8
SAPA_PROFIL
 10
90.499999928118825
 20
6.1000239999967363
 30
0.0
 42
0.4142135623730826
  0
VERTEX
  5
1940
  8
SAPA_PROFIL
 10
90.199999928118842
 20
6.4000239999967334
 30
0.0
  0
VERTEX
  5
1941
  8
SAPA_PROFIL
 10
89.749999928118839
 20
6.4000239999966331
 30
0.0
  0
VERTEX
  5
1942
  8
SAPA_PROFIL
 10
88.260739797044664
 20
5.5401992624276479
 30
0.0
 42
-0.1316363093594268
  0
VERTEX
  5
1943
  8
SAPA_PROFIL
 10
88.110758891997904
 20
5.5000068841706868
 30
0.0
  0
VERTEX
  5
1944
  8
SAPA_PROFIL
 10
87.999999928115074
 20
5.4999998343798771
 30
0.0
  0
VERTEX
  5
1945
  8
SAPA_PROFIL
 10
87.999999928115074
 20
7.0856406460516146
 30
0.0
 42
-0.2679491924308297
  0
VERTEX
  5
1946
  8
SAPA_PROFIL
 10
88.499999928115074
 20
7.9516660498302372
 30
0.0
  0
VERTEX
  5
1947
  8
SAPA_PROFIL
 10
90.249999928115528
 20
8.9620290209087141
 30
0.0
 42
0.2679491924308301
  0
VERTEX
  5
1948
  8
SAPA_PROFIL
 10
90.499999928115074
 20
9.3950417228006682
 30
0.0
  0
VERTEX
  5
1949
  8
SAPA_PROFIL
 10
90.499999928115074
 20
10.60495827718114
 30
0.0
 42
0.267949192430829
  0
VERTEX
  5
194A
  8
SAPA_PROFIL
 10
90.249999928115059
 20
11.03797097907227
 30
0.0
  0
VERTEX
  5
194B
  8
SAPA_PROFIL
 10
88.499999928115074
 20
12.04833395014793
 30
0.0
 42
-0.2679491924308297
  0
VERTEX
  5
194C
  8
SAPA_PROFIL
 10
87.999999928116949
 20
12.914359353933831
 30
0.0
  0
VERTEX
  5
194D
  8
SAPA_PROFIL
 10
87.999999928114818
 20
14.50000016560193
 30
0.0
  0
VERTEX
  5
194E
  8
SAPA_PROFIL
 10
88.110758891997904
 20
14.499993115811121
 30
0.0
 42
-0.1316363093594264
  0
VERTEX
  5
194F
  8
SAPA_PROFIL
 10
88.260739797044664
 20
14.45980073755416
 30
0.0
  0
VERTEX
  5
1950
  8
SAPA_PROFIL
 10
89.749999928118839
 20
13.599975999985171
 30
0.0
  0
VERTEX
  5
1951
  8
SAPA_PROFIL
 10
90.199999928118842
 20
13.59997599998507
 30
0.0
 42
0.4142135623730951
  0
VERTEX
  5
1952
  8
SAPA_PROFIL
 10
90.499999928118825
 20
13.89997599998507
 30
0.0
  0
VERTEX
  5
1953
  8
SAPA_PROFIL
 10
90.499999928118896
 20
17.499987999985141
 30
0.0
 42
0.4142135623731165
  0
VERTEX
  5
1954
  8
SAPA_PROFIL
 10
90.199999928118885
 20
17.799987999985131
 30
0.0
  0
VERTEX
  5
1955
  8
SAPA_PROFIL
 10
89.749999928118925
 20
17.799975999985481
 30
0.0
  0
VERTEX
  5
1956
  8
SAPA_PROFIL
 10
88.260769443578056
 20
16.940168378850171
 30
0.0
 42
-0.1316524975873824
  0
VERTEX
  5
1957
  8
SAPA_PROFIL
 10
88.110769443578135
 20
16.899975999985529
 30
0.0
  0
VERTEX
  5
1958
  8
SAPA_PROFIL
 10
87.524263996830925
 20
16.89997599998539
 30
0.0
 42
-0.1989123673797351
  0
VERTEX
  5
1959
  8
SAPA_PROFIL
 10
87.312131962474865
 20
16.987843965629509
 30
0.0
  0
VERTEX
  5
195A
  8
SAPA_PROFIL
 10
86.007082709305891
 20
18.292893218798671
 30
0.0
 42
-0.6681786379192719
  0
VERTEX
  5
195B
  8
SAPA_PROFIL
 10
86.714189490492487
 20
19.99999999998516
 30
0.0
  0
VERTEX
  5
195C
  8
SAPA_PROFIL
 10
88.812261846212166
 20
19.99999999998516
 30
0.0
 42
-0.2418327667433408
  0
VERTEX
  5
195D
  8
SAPA_PROFIL
 10
89.056130887163732
 20
19.874722325019398
 30
0.0
 42
0.2418327667449424
  0
VERTEX
  5
195E
  8
SAPA_PROFIL
 10
89.299999928117984
 20
19.749444650053189
 30
0.0
  0
VERTEX
  5
195F
  8
SAPA_PROFIL
 10
90.256130887167899
 20
19.749444650049551
 30
0.0
 42
0.2418327667509086
  0
VERTEX
  5
1960
  8
SAPA_PROFIL
 10
90.499999928115017
 20
19.874722325031971
 30
0.0
 42
-0.2418327667378184
  0
VERTEX
  5
1961
  8
SAPA_PROFIL
 10
90.743868969052286
 20
19.999999999993801
 30
0.0
  0
VERTEX
  5
1962
  8
SAPA_PROFIL
 10
92.556610602811588
 20
20.000000000003642
 30
0.0
 42
-0.1095178116817878
  0
VERTEX
  5
1963
  8
SAPA_PROFIL
 10
93.401847126282576
 20
19.8126155740818
 30
0.0
  0
VERTEX
  5
1964
  8
SAPA_PROFIL
 10
99.031673491414722
 20
17.187384425924389
 30
0.0
 42
0.1095178116855124
  0
VERTEX
  5
1965
  8
SAPA_PROFIL
 10
99.876910014920895
 20
17.0
 30
0.0
  0
VERTEX
  5
1966
  8
SAPA_PROFIL
 10
106.9999999280833
 20
16.999999999985452
 30
0.0
 42
0.414213562373099
  0
VERTEX
  5
1967
  8
SAPA_PROFIL
 10
107.4999999280833
 20
17.500000000003642
 30
0.0
  0
VERTEX
  5
1968
  8
SAPA_PROFIL
 10
107.4999999280833
 20
18.500000000003631
 30
0.0
 42
0.4142135623730951
  0
VERTEX
  5
1969
  8
SAPA_PROFIL
 10
106.9999999280833
 20
19.000000000003642
 30
0.0
  0
VERTEX
  5
196A
  8
SAPA_PROFIL
 10
106.7087120806161
 20
19.000000000003642
 30
0.0
 42
-0.2982166266909471
  0
VERTEX
  5
196B
  8
SAPA_PROFIL
 10
106.25045451112619
 20
19.299999999990739
 30
0.0
 42
-1.5275252316550949
  0
VERTEX
  5
196C
  8
SAPA_PROFIL
 10
111.74954534504521
 20
19.299999999998899
 30
0.0
 42
-0.2982166266892463
  0
VERTEX
  5
196D
  8
SAPA_PROFIL
 10
111.291287775565
 20
19.00000000001296
 30
0.0
  0
VERTEX
  5
196E
  8
SAPA_PROFIL
 10
110.9999999280833
 20
19.000000000003642
 30
0.0
 42
0.4142135623730951
  0
VERTEX
  5
196F
  8
SAPA_PROFIL
 10
110.4999999280833
 20
18.500000000003631
 30
0.0
  0
VERTEX
  5
1970
  8
SAPA_PROFIL
 10
110.4999999280833
 20
17.500000000003642
 30
0.0
 42
0.4142135623730946
  0
VERTEX
  5
1971
  8
SAPA_PROFIL
 10
110.9999999280833
 20
17.000000000003642
 30
0.0
  0
VERTEX
  5
1972
  8
SAPA_PROFIL
 10
129.92308984094299
 20
17.000000000003642
 30
0.0
 42
0.1095178116834561
  0
VERTEX
  5
1973
  8
SAPA_PROFIL
 10
130.7683263644287
 20
17.18738442592506
 30
0.0
  0
SEQEND
  5
1974
  8
SAPA_PROFIL
  0
POLYLINE
  5
F03
  8
SAPA_PROFIL
 66
     1
 10
0.0
 20
0.0
 30
0.0
 70
     1
  0
VERTEX
  5
1975
  8
SAPA_PROFIL
 10
136.4999999277413
 20
2.7999999999992862
 30
0.0
 42
-0.4142135623730916
  0
VERTEX
  5
1976
  8
SAPA_PROFIL
 10
136.19999992773111
 20
2.5000000000000142
 30
0.0
  0
VERTEX
  5
1977
  8
SAPA_PROFIL
 10
93.299999928115355
 20
2.5000000000036371
 30
0.0
 42
-0.4142135623730959
  0
VERTEX
  5
1978
  8
SAPA_PROFIL
 10
92.999999928116054
 20
2.8000000000029099
 30
0.0
  0
VERTEX
  5
1979
  8
SAPA_PROFIL
 10
92.999999928112402
 20
14.3999999999869
 30
0.0
 42
-0.4142135623730951
  0
VERTEX
  5
197A
  8
SAPA_PROFIL
 10
93.299999928115312
 20
14.69999999998981
 30
0.0
  0
VERTEX
  5
197B
  8
SAPA_PROFIL
 10
136.19999992773111
 20
14.70000000001165
 30
0.0
 42
-0.4142135623730946
  0
VERTEX
  5
197C
  8
SAPA_PROFIL
 10
136.4999999277413
 20
14.400000000019659
 30
0.0
  0
SEQEND
  5
197D
  8
SAPA_PROFIL
  0
POLYLINE
  5
F04
  8
SAPA_PROFIL
 62
     4
 66
     1
 10
0.0
 20
0.0
 30
0.0
 70
     1
  0
VERTEX
  5
F05
  8
SAPA_PROFIL
 62
     4
 10
88.124166846888869
 20
3.1994446825304972
 30
0.0
 42
-0.1316524975873876
  0
VERTEX
  5
F06
  8
SAPA_PROFIL
 62
     4
 10
88.274166846888846
 20
3.1592523036658369
 30
0.0
  0
VERTEX
  5
F07
  8
SAPA_PROFIL
 62
     4
 10
89.763397387734059
 20
2.2994446500235171
 30
0.0
  0
VERTEX
  5
F08
  8
SAPA_PROFIL
 62
     4
 10
90.199999928112504
 20
2.2994446500234309
 30
0.0
 42
0.4142135623730934
  0
VERTEX
  5
F09
  8
SAPA_PROFIL
 62
     4
 10
90.449999928112476
 20
2.5494446500234171
 30
0.0
  0
VERTEX
  5
F0A
  8
SAPA_PROFIL
 62
     4
 10
90.449999928112547
 20
6.1494566500234811
 30
0.0
 42
0.4142135623731066
  0
VERTEX
  5
F0B
  8
SAPA_PROFIL
 62
     4
 10
90.199999928112533
 20
6.3994566500234953
 30
0.0
  0
VERTEX
  5
F0C
  8
SAPA_PROFIL
 62
     4
 10
89.763398006534075
 20
6.3994450072881364
 30
0.0
  0
VERTEX
  5
F0D
  8
SAPA_PROFIL
 62
     4
 10
88.274166959496384
 20
5.5396370613951396
 30
0.0
 42
-0.131652497587425
  0
VERTEX
  5
F0E
  8
SAPA_PROFIL
 62
     4
 10
88.124166959496335
 20
5.4994446825304522
 30
0.0
  0
VERTEX
  5
F0F
  8
SAPA_PROFIL
 62
     4
 10
64.875832968245092
 20
5.4994446825304522
 30
0.0
 42
-0.1316524975874248
  0
VERTEX
  5
F10
  8
SAPA_PROFIL
 62
     4
 10
64.725832968245058
 20
5.5396370613951396
 30
0.0
  0
VERTEX
  5
F11
  8
SAPA_PROFIL
 62
     4
 10
63.236601921207367
 20
6.3994450072881364
 30
0.0
  0
VERTEX
  5
F12
  8
SAPA_PROFIL
 62
     4
 10
62.799999999628909
 20
6.3994566500234953
 30
0.0
 42
0.4142135623731049
  0
VERTEX
  5
F13
  8
SAPA_PROFIL
 62
     4
 10
62.549999999628902
 20
6.1494566500234811
 30
0.0
  0
VERTEX
  5
F14
  8
SAPA_PROFIL
 62
     4
 10
62.549999999628952
 20
2.5494446500234171
 30
0.0
 42
0.4142135623730951
  0
VERTEX
  5
F15
  8
SAPA_PROFIL
 62
     4
 10
62.79999999962893
 20
2.2994446500234309
 30
0.0
  0
VERTEX
  5
F16
  8
SAPA_PROFIL
 62
     4
 10
63.236602540007389
 20
2.2994446500235171
 30
0.0
  0
VERTEX
  5
F17
  8
SAPA_PROFIL
 62
     4
 10
64.72583308085251
 20
3.1592523036657951
 30
0.0
 42
-0.1316524975873866
  0
VERTEX
  5
F18
  8
SAPA_PROFIL
 62
     4
 10
64.875833080852473
 20
3.1994446825304541
 30
0.0
  0
SEQEND
  5
F19
  8
SAPA_PROFIL
 62
     4
  0
POLYLINE
  5
F1A
  8
SAPA_PROFIL
 66
     1
 10
0.0
 20
0.0
 30
0.0
 70
     1
  0
VERTEX
  5
197E
  8
SAPA_PROFIL
 10
17.354763476512758
 20
19.46152494752096
 30
0.0
 42
-0.2914734195858593
  0
VERTEX
  5
197F
  8
SAPA_PROFIL
 10
16.199999999997111
 20
21.274140521607482
 30
0.0
  0
VERTEX
  5
1980
  8
SAPA_PROFIL
 10
16.199999999997111
 20
40.999999999985441
 30
0.0
 42
-0.4142135623731033
  0
VERTEX
  5
1981
  8
SAPA_PROFIL
 10
16.6999999999971
 20
41.499999999985441
 30
0.0
  0
VERTEX
  5
1982
  8
SAPA_PROFIL
 10
17.000000000007301
 20
41.499999999985441
 30
0.0
 42
-0.4142135623731035
  0
VERTEX
  5
1983
  8
SAPA_PROFIL
 10
17.500000000007301
 20
40.999999999985441
 30
0.0
  0
VERTEX
  5
1984
  8
SAPA_PROFIL
 10
17.500000000007301
 20
39.699999999986183
 30
0.0
 42
0.4142135623731159
  0
VERTEX
  5
1985
  8
SAPA_PROFIL
 10
17.700000000026211
 20
39.499999999974541
 30
0.0
  0
VERTEX
  5
1986
  8
SAPA_PROFIL
 10
18.000000000007301
 20
39.499999999985448
 30
0.0
 42
0.4142135623731035
  0
VERTEX
  5
1987
  8
SAPA_PROFIL
 10
18.50000000000729
 20
39.999999999985448
 30
0.0
  0
VERTEX
  5
1988
  8
SAPA_PROFIL
 10
18.500000000000028
 20
43.749999999985448
 30
0.0
 42
0.4142135623731035
  0
VERTEX
  5
1989
  8
SAPA_PROFIL
 10
18.000000000000028
 20
44.249999999985441
 30
0.0
  0
VERTEX
  5
198A
  8
SAPA_PROFIL
 10
17.699999999997129
 20
44.249999999985441
 30
0.0
 42
0.4142135623731159
  0
VERTEX
  5
198B
  8
SAPA_PROFIL
 10
17.499999999989111
 20
44.049999999973807
 30
0.0
  0
VERTEX
  5
198C
  8
SAPA_PROFIL
 10
17.500000000000028
 20
43.199999999986169
 30
0.0
 42
-0.4142135623730951
  0
VERTEX
  5
198D
  8
SAPA_PROFIL
 10
17.300000000010211
 20
42.999999999985441
 30
0.0
  0
VERTEX
  5
198E
  8
SAPA_PROFIL
 10
16.300000000010211
 20
42.999999999985441
 30
0.0
 42
-0.4142135623731035
  0
VERTEX
  5
198F
  8
SAPA_PROFIL
 10
15.80000000001022
 20
43.499999999985441
 30
0.0
  0
VERTEX
  5
1990
  8
SAPA_PROFIL
 10
15.80000000001022
 20
49.499999999985448
 30
0.0
 42
-0.4142135623731033
  0
VERTEX
  5
1991
  8
SAPA_PROFIL
 10
16.300000000010211
 20
49.999999999985448
 30
0.0
  0
VERTEX
  5
1992
  8
SAPA_PROFIL
 10
17.300000000010211
 20
49.999999999985448
 30
0.0
 42
-0.4142135623731054
  0
VERTEX
  5
1993
  8
SAPA_PROFIL
 10
17.500000000000028
 20
49.799999999973807
 30
0.0
  0
VERTEX
  5
1994
  8
SAPA_PROFIL
 10
17.500000000007301
 20
48.949999999986169
 30
0.0
 42
0.4142135623731159
  0
VERTEX
  5
1995
  8
SAPA_PROFIL
 10
17.700000000026229
 20
48.749999999974527
 30
0.0
  0
VERTEX
  5
1996
  8
SAPA_PROFIL
 10
18.000000000000028
 20
48.75
 30
0.0
 42
0.4142135623731035
  0
VERTEX
  5
1997
  8
SAPA_PROFIL
 10
18.500000000000028
 20
49.25
 30
0.0
  0
VERTEX
  5
1998
  8
SAPA_PROFIL
 10
18.500000000000028
 20
52.25
 30
0.0
 42
0.4142135623731035
  0
VERTEX
  5
1999
  8
SAPA_PROFIL
 10
18.000000000000028
 20
52.75
 30
0.0
  0
VERTEX
  5
199A
  8
SAPA_PROFIL
 10
17.699999999997129
 20
52.75
 30
0.0
 42
0.4142135623730744
  0
VERTEX
  5
199B
  8
SAPA_PROFIL
 10
17.500000000000028
 20
52.549999999999272
 30
0.0
  0
VERTEX
  5
199C
  8
SAPA_PROFIL
 10
17.500000000010949
 20
51.70000000000072
 30
0.0
 42
-0.4142135623730534
  0
VERTEX
  5
199D
  8
SAPA_PROFIL
 10
17.300000000010211
 20
51.5
 30
0.0
  0
VERTEX
  5
199E
  8
SAPA_PROFIL
 10
16.300000000010211
 20
51.5
 30
0.0
 42
-0.4142135623731035
  0
VERTEX
  5
199F
  8
SAPA_PROFIL
 10
15.80000000001022
 20
52.0
 30
0.0
  0
VERTEX
  5
19A0
  8
SAPA_PROFIL
 10
15.80000000001022
 20
58.0
 30
0.0
 42
-0.4142135623730869
  0
VERTEX
  5
19A1
  8
SAPA_PROFIL
 10
16.300000000010211
 20
58.5
 30
0.0
  0
VERTEX
  5
19A2
  8
SAPA_PROFIL
 10
17.300000000010211
 20
58.499999999989079
 30
0.0
 42
-0.4142135623730534
  0
VERTEX
  5
19A3
  8
SAPA_PROFIL
 10
17.500000000000028
 20
58.299999999999272
 30
0.0
  0
VERTEX
  5
19A4
  8
SAPA_PROFIL
 10
17.499999999992749
 20
57.45000000000072
 30
0.0
 42
0.4142135623730744
  0
VERTEX
  5
19A5
  8
SAPA_PROFIL
 10
17.699999999997129
 20
57.25
 30
0.0
  0
VERTEX
  5
19A6
  8
SAPA_PROFIL
 10
18.000000000000028
 20
57.25
 30
0.0
 42
0.4142135623731035
  0
VERTEX
  5
19A7
  8
SAPA_PROFIL
 10
18.500000000000028
 20
57.75
 30
0.0
  0
VERTEX
  5
19A8
  8
SAPA_PROFIL
 10
18.500000000000028
 20
59.5
 30
0.0
 42
0.4142135623731035
  0
VERTEX
  5
19A9
  8
SAPA_PROFIL
 10
18.000000000000028
 20
60.0
 30
0.0
  0
VERTEX
  5
19AA
  8
SAPA_PROFIL
 10
15.50000000000003
 20
60.0
 30
0.0
 42
0.4142135623730951
  0
VERTEX
  5
19AB
  8
SAPA_PROFIL
 10
14.00000000000003
 20
58.5
 30
0.0
  0
VERTEX
  5
19AC
  8
SAPA_PROFIL
 10
14.0
 20
-55.625
 30
0.0
 42
0.9999999999999792
  0
VERTEX
  5
19AD
  8
SAPA_PROFIL
 10
16.75
 20
-55.625
 30
0.0
  0
VERTEX
  5
19AE
  8
SAPA_PROFIL
 10
16.750000000000028
 20
-3.9999999999999849
 30
0.0
 42
-0.4142135623730959
  0
VERTEX
  5
19AF
  8
SAPA_PROFIL
 10
20.750000000000011
 20
0.0000000000000142
 30
0.0
  0
VERTEX
  5
19B0
  8
SAPA_PROFIL
 10
62.256130958679108
 20
-0.0000000000109139
 30
0.0
 42
0.2418327667378102
  0
VERTEX
  5
19B1
  8
SAPA_PROFIL
 10
62.499999999617501
 20
0.1252776749561804
 30
0.0
 42
-0.2418327667509117
  0
VERTEX
  5
19B2
  8
SAPA_PROFIL
 10
62.743869040573458
 20
0.2505553499286179
 30
0.0
  0
VERTEX
  5
19B3
  8
SAPA_PROFIL
 10
63.699999999623373
 20
0.2505553499322559
 30
0.0
 42
-0.2418327667448982
  0
VERTEX
  5
19B4
  8
SAPA_PROFIL
 10
63.943869040578313
 20
0.12527767496384
 30
0.0
 42
0.2418327667448982
  0
VERTEX
  5
19B5
  8
SAPA_PROFIL
 10
64.187738081530881
 20
-0.0000000000033538
 30
0.0
  0
VERTEX
  5
19B6
  8
SAPA_PROFIL
 10
66.28581043724887
 20
-0.0000000000033538
 30
0.0
 42
0.6681786379192726
  0
VERTEX
  5
19B7
  8
SAPA_PROFIL
 10
66.992917218435466
 20
1.707106781183142
 30
0.0
  0
VERTEX
  5
19B8
  8
SAPA_PROFIL
 10
65.687867965266491
 20
3.0121560343523011
 30
0.0
 42
0.1989123673797352
  0
VERTEX
  5
19B9
  8
SAPA_PROFIL
 10
65.475735930910403
 20
3.100023999996437
 30
0.0
  0
VERTEX
  5
19BA
  8
SAPA_PROFIL
 10
64.889230484163221
 20
3.1000239999962811
 30
0.0
 42
0.1316524975873824
  0
VERTEX
  5
19BB
  8
SAPA_PROFIL
 10
64.739230484163301
 20
3.059831621131635
 30
0.0
  0
VERTEX
  5
19BC
  8
SAPA_PROFIL
 10
63.24999999962241
 20
2.2000239999963318
 30
0.0
  0
VERTEX
  5
19BD
  8
SAPA_PROFIL
 10
62.799999999622472
 20
2.2000119999966752
 30
0.0
 42
-0.4142135623731039
  0
VERTEX
  5
19BE
  8
SAPA_PROFIL
 10
62.499999999622467
 20
2.5000119999966719
 30
0.0
  0
VERTEX
  5
19BF
  8
SAPA_PROFIL
 10
62.499999999622517
 20
6.1000239999967363
 30
0.0
 42
-0.4142135623730826
  0
VERTEX
  5
19C0
  8
SAPA_PROFIL
 10
62.799999999622507
 20
6.4000239999967334
 30
0.0
  0
VERTEX
  5
19C1
  8
SAPA_PROFIL
 10
63.24999999962251
 20
6.4000239999966331
 30
0.0
  0
VERTEX
  5
19C2
  8
SAPA_PROFIL
 10
64.739260130696692
 20
5.5401992624276479
 30
0.0
 42
0.1316363093594268
  0
VERTEX
  5
19C3
  8
SAPA_PROFIL
 10
64.889241035743424
 20
5.5000068841706868
 30
0.0
  0
VERTEX
  5
19C4
  8
SAPA_PROFIL
 10
64.999999999626283
 20
5.4999998343798771
 30
0.0
  0
VERTEX
  5
19C5
  8
SAPA_PROFIL
 10
64.999999999626283
 20
7.0856406460516146
 30
0.0
 42
0.2679491924308297
  0
VERTEX
  5
19C6
  8
SAPA_PROFIL
 10
64.499999999626283
 20
7.9516660498302372
 30
0.0
  0
VERTEX
  5
19C7
  8
SAPA_PROFIL
 10
62.749999999625828
 20
8.9620290209087141
 30
0.0
 42
-0.2679491924308301
  0
VERTEX
  5
19C8
  8
SAPA_PROFIL
 10
62.49999999962629
 20
9.3950417228006682
 30
0.0
  0
VERTEX
  5
19C9
  8
SAPA_PROFIL
 10
62.49999999962629
 20
10.60495827718114
 30
0.0
 42
-0.267949192430829
  0
VERTEX
  5
19CA
  8
SAPA_PROFIL
 10
62.749999999626283
 20
11.03797097907227
 30
0.0
  0
VERTEX
  5
19CB
  8
SAPA_PROFIL
 10
64.499999999626283
 20
12.04833395014793
 30
0.0
 42
0.2679491924308297
  0
VERTEX
  5
19CC
  8
SAPA_PROFIL
 10
64.999999999624393
 20
12.914359353933831
 30
0.0
  0
VERTEX
  5
19CD
  8
SAPA_PROFIL
 10
64.999999999626525
 20
14.50000016560193
 30
0.0
  0
VERTEX
  5
19CE
  8
SAPA_PROFIL
 10
64.889241035743424
 20
14.499993115811121
 30
0.0
 42
0.1316363093594264
  0
VERTEX
  5
19CF
  8
SAPA_PROFIL
 10
64.739260130696692
 20
14.45980073755416
 30
0.0
  0
VERTEX
  5
19D0
  8
SAPA_PROFIL
 10
63.24999999962251
 20
13.599975999985171
 30
0.0
  0
VERTEX
  5
19D1
  8
SAPA_PROFIL
 10
62.799999999622507
 20
13.59997599998507
 30
0.0
 42
-0.4142135623730951
  0
VERTEX
  5
19D2
  8
SAPA_PROFIL
 10
62.499999999622517
 20
13.89997599998507
 30
0.0
  0
VERTEX
  5
19D3
  8
SAPA_PROFIL
 10
62.499999999622467
 20
17.499987999985141
 30
0.0
 42
-0.4142135623731165
  0
VERTEX
  5
19D4
  8
SAPA_PROFIL
 10
62.799999999622472
 20
17.799987999985131
 30
0.0
  0
VERTEX
  5
19D5
  8
SAPA_PROFIL
 10
63.24999999962241
 20
17.799975999985481
 30
0.0
  0
VERTEX
  5
19D6
  8
SAPA_PROFIL
 10
64.739230484163301
 20
16.940168378850171
 30
0.0
 42
0.1316524975873824
  0
VERTEX
  5
19D7
  8
SAPA_PROFIL
 10
64.889230484163221
 20
16.899975999985529
 30
0.0
  0
VERTEX
  5
19D8
  8
SAPA_PROFIL
 10
65.475735930910403
 20
16.89997599998539
 30
0.0
 42
0.1989123673797351
  0
VERTEX
  5
19D9
  8
SAPA_PROFIL
 10
65.687867965266491
 20
16.987843965629509
 30
0.0
  0
VERTEX
  5
19DA
  8
SAPA_PROFIL
 10
66.992917218435466
 20
18.292893218798671
 30
0.0
 42
0.6681786379192719
  0
VERTEX
  5
19DB
  8
SAPA_PROFIL
 10
66.28581043724887
 20
19.99999999998516
 30
0.0
  0
VERTEX
  5
19DC
  8
SAPA_PROFIL
 10
64.187738081529176
 20
19.99999999998516
 30
0.0
 42
0.2418327667433408
  0
VERTEX
  5
19DD
  8
SAPA_PROFIL
 10
63.943869040577617
 20
19.874722325019398
 30
0.0
 42
-0.2418327667449424
  0
VERTEX
  5
19DE
  8
SAPA_PROFIL
 10
63.699999999623373
 20
19.749444650053189
 30
0.0
  0
VERTEX
  5
19DF
  8
SAPA_PROFIL
 10
62.743869040573458
 20
19.749444650049551
 30
0.0
 42
-0.2418327667509086
  0
VERTEX
  5
19E0
  8
SAPA_PROFIL
 10
62.49999999962634
 20
19.874722325031971
 30
0.0
 42
0.2418327667378184
  0
VERTEX
  5
19E1
  8
SAPA_PROFIL
 10
62.256130958689049
 20
19.999999999993801
 30
0.0
  0
VERTEX
  5
19E2
  8
SAPA_PROFIL
 10
60.443389324929761
 20
20.000000000003642
 30
0.0
 42
0.1095178116817878
  0
VERTEX
  5
19E3
  8
SAPA_PROFIL
 10
59.598152801458781
 20
19.8126155740818
 30
0.0
  0
VERTEX
  5
19E4
  8
SAPA_PROFIL
 10
53.968326436326628
 20
17.187384425924389
 30
0.0
 42
-0.1095178116855124
  0
VERTEX
  5
19E5
  8
SAPA_PROFIL
 10
53.123089912820461
 20
17.0
 30
0.0
  0
VERTEX
  5
19E6
  8
SAPA_PROFIL
 10
45.999999999658051
 20
16.999999999985452
 30
0.0
 42
-0.414213562373099
  0
VERTEX
  5
19E7
  8
SAPA_PROFIL
 10
45.499999999658051
 20
17.500000000003642
 30
0.0
  0
VERTEX
  5
19E8
  8
SAPA_PROFIL
 10
45.499999999658051
 20
18.500000000003631
 30
0.0
 42
-0.4142135623730951
  0
VERTEX
  5
19E9
  8
SAPA_PROFIL
 10
45.999999999658051
 20
19.000000000003642
 30
0.0
  0
VERTEX
  5
19EA
  8
SAPA_PROFIL
 10
46.291287847125233
 20
19.000000000003642
 30
0.0
 42
0.2982166266909471
  0
VERTEX
  5
19EB
  8
SAPA_PROFIL
 10
46.74954541661517
 20
19.299999999990739
 30
0.0
 42
1.5275252316550949
  0
VERTEX
  5
19EC
  8
SAPA_PROFIL
 10
41.250454582696158
 20
19.299999999998899
 30
0.0
 42
0.2982166266892463
  0
VERTEX
  5
19ED
  8
SAPA_PROFIL
 10
41.708712152176332
 20
19.00000000001296
 30
0.0
  0
VERTEX
  5
19EE
  8
SAPA_PROFIL
 10
41.999999999658058
 20
19.000000000003642
 30
0.0
 42
-0.4142135623730951
  0
VERTEX
  5
19EF
  8
SAPA_PROFIL
 10
42.499999999658058
 20
18.500000000003631
 30
0.0
  0
VERTEX
  5
19F0
  8
SAPA_PROFIL
 10
42.499999999658058
 20
17.500000000003642
 30
0.0
 42
-0.4142135623730946
  0
VERTEX
  5
19F1
  8
SAPA_PROFIL
 10
41.999999999658058
 20
17.000000000003642
 30
0.0
  0
VERTEX
  5
19F2
  8
SAPA_PROFIL
 10
23.076910086798321
 20
17.000000000003642
 30
0.0
 42
-0.1095178116834561
  0
VERTEX
  5
19F3
  8
SAPA_PROFIL
 10
22.23167356331259
 20
17.18738442592506
 30
0.0
  0
SEQEND
  5
19F4
  8
SAPA_PROFIL
  0
POLYLINE
  5
F1B
  8
SAPA_PROFIL
 66
     1
 10
0.0
 20
0.0
 30
0.0
 70
     1
  0
VERTEX
  5
19F5
  8
SAPA_PROFIL
 10
16.500000000000021
 20
2.7999999999992862
 30
0.0
 42
0.4142135623730916
  0
VERTEX
  5
19F6
  8
SAPA_PROFIL
 10
16.800000000010211
 20
2.5000000000000142
 30
0.0
  0
VERTEX
  5
19F7
  8
SAPA_PROFIL
 10
59.699999999626023
 20
2.5000000000036371
 30
0.0
 42
0.4142135623730959
  0
VERTEX
  5
19F8
  8
SAPA_PROFIL
 10
59.999999999625288
 20
2.8000000000029099
 30
0.0
  0
VERTEX
  5
19F9
  8
SAPA_PROFIL
 10
59.999999999628947
 20
14.3999999999869
 30
0.0
 42
0.4142135623730951
  0
VERTEX
  5
19FA
  8
SAPA_PROFIL
 10
59.699999999626037
 20
14.69999999998981
 30
0.0
  0
VERTEX
  5
19FB
  8
SAPA_PROFIL
 10
16.800000000010211
 20
14.70000000001165
 30
0.0
 42
0.4142135623730946
  0
VERTEX
  5
19FC
  8
SAPA_PROFIL
 10
16.500000000000021
 20
14.400000000019659
 30
0.0
  0
SEQEND
  5
19FD
  8
SAPA_PROFIL
  0
POLYLINE
  5
F1C
  8
SAPA_PROFIL
 62
     4
 66
     1
 10
0.0
 20
0.0
 30
-0.2
 70
     1
1001
RC_PROFILE
1002
{
1000
Region
1002
}
  0
VERTEX
  5
19FE
  8
SAPA_PROFIL
 62
     4
 10
73.999999931237681
 20
43.297179717640567
 30
-0.2
  0
VERTEX
  5
19FF
  8
SAPA_PROFIL
 62
     4
 10
73.999999931237681
 20
57.497179717642659
 30
-0.2
 42
-0.4142135623720297
  0
VERTEX
  5
1A00
  8
SAPA_PROFIL
 62
     4
 10
74.499999931235863
 20
57.997179717642659
 30
-0.2
  0
VERTEX
  5
1A01
  8
SAPA_PROFIL
 62
     4
 10
78.499999931857033
 20
57.997179717645622
 30
-0.2
 42
-0.4142135623730951
  0
VERTEX
  5
1A02
  8
SAPA_PROFIL
 62
     4
 10
78.999999931857047
 20
57.497179717645622
 30
-0.2
  0
VERTEX
  5
1A03
  8
SAPA_PROFIL
 62
     4
 10
78.999999931864323
 20
43.297179717641697
 30
-0.2
 42
-0.414213562373761
  0
VERTEX
  5
1A04
  8
SAPA_PROFIL
 62
     4
 10
78.499999931864323
 20
42.797179717640567
 30
-0.2
  0
VERTEX
  5
1A05
  8
SAPA_PROFIL
 62
     4
 10
74.499999931237681
 20
42.797179717640567
 30
-0.2
 42
-0.4142135623730951
  0
SEQEND
  5
1A06
  8
SAPA_PROFIL
 62
     4
  0
POLYLINE
  5
F1D
  8
SAPA_PROFIL
 62
     4
 66
     1
 10
0.0
 20
0.0
 30
0.0
1001
GENIUS_GENOBJ-N-FIL_13
1002
{
1000
OWNER
1000
GEN
1002
}
1001
GENIUS_GENODEF_13
1002
{
1000
HIER
1070
     0
1002
}
1002
{
1000
MANEDIT
1070
     0
1002
}
1002
{
1000
NOSEL
1070
     0
1002
}
1002
{
1000
BEHIND
1070
     0
1002
}
1002
{
1000
OTHER
1070
     0
1002
}
1002
{
1000
REACTOR
1002
}
  0
VERTEX
  5
1A07
  8
SAPA_PROFIL
 62
     4
 10
87.42274000125613
 20
16.533706161231521
 30
0.0
 42
0.131652497587489
  0
VERTEX
  5
1A08
  8
SAPA_PROFIL
 62
     4
 10
88.022740001256565
 20
16.69447567669026
 30
0.0
  0
VERTEX
  5
1A09
  8
SAPA_PROFIL
 62
     4
 10
89.763397941900095
 20
17.69944500728813
 30
0.0
  0
VERTEX
  5
1A0A
  8
SAPA_PROFIL
 62
     4
 10
90.199999863478567
 20
17.699456650023489
 30
0.0
 42
-0.4142135623731046
  0
VERTEX
  5
1A0B
  8
SAPA_PROFIL
 62
     4
 10
90.449999863478567
 20
17.449456650023489
 30
0.0
  0
VERTEX
  5
1A0C
  8
SAPA_PROFIL
 62
     4
 10
90.449999863478524
 20
13.849444650023431
 30
0.0
 42
-0.4142135623730957
  0
VERTEX
  5
1A0D
  8
SAPA_PROFIL
 62
     4
 10
90.199999863478524
 20
13.599444650023431
 30
0.0
  0
VERTEX
  5
1A0E
  8
SAPA_PROFIL
 62
     4
 10
89.763397323100065
 20
13.59944465002353
 30
0.0
  0
VERTEX
  5
1A0F
  8
SAPA_PROFIL
 62
     4
 10
88.077259725699193
 20
14.57293664577359
 30
0.0
 42
0.1316524975873848
  0
VERTEX
  5
1A10
  8
SAPA_PROFIL
 62
     4
 10
87.477259725699241
 20
14.73370616123225
 30
0.0
  0
VERTEX
  5
1A11
  8
SAPA_PROFIL
 62
     4
 10
65.522740137408221
 20
14.73370616123225
 30
0.0
 42
0.1316524975873846
  0
VERTEX
  5
1A12
  8
SAPA_PROFIL
 62
     4
 10
64.922740137408269
 20
14.57293664577359
 30
0.0
  0
VERTEX
  5
1A13
  8
SAPA_PROFIL
 62
     4
 10
63.236602540007389
 20
13.59944465002353
 30
0.0
  0
VERTEX
  5
1A14
  8
SAPA_PROFIL
 62
     4
 10
62.79999999962893
 20
13.599444650023431
 30
0.0
 42
-0.4142135623730951
  0
VERTEX
  5
1A15
  8
SAPA_PROFIL
 62
     4
 10
62.549999999628952
 20
13.849444650023431
 30
0.0
  0
VERTEX
  5
1A16
  8
SAPA_PROFIL
 62
     4
 10
62.549999999628902
 20
17.449456650023489
 30
0.0
 42
-0.4142135623731046
  0
VERTEX
  5
1A17
  8
SAPA_PROFIL
 62
     4
 10
62.799999999628909
 20
17.699456650023489
 30
0.0
  0
VERTEX
  5
1A18
  8
SAPA_PROFIL
 62
     4
 10
63.236601921207367
 20
17.69944500728813
 30
0.0
  0
VERTEX
  5
1A19
  8
SAPA_PROFIL
 62
     4
 10
64.977259861850911
 20
16.69447567669026
 30
0.0
 42
0.1316524975874892
  0
VERTEX
  5
1A1A
  8
SAPA_PROFIL
 62
     4
 10
65.577259861851331
 20
16.533706161231521
 30
0.0
  0
VERTEX
  5
1A1B
  8
SAPA_PROFIL
 62
     4
 10
68.299999999379935
 20
16.5337061612322
 30
0.0
 42
0.414213562374094
  0
VERTEX
  5
1A1C
  8
SAPA_PROFIL
 62
     4
 10
69.499999999378844
 20
17.733706161236341
 30
0.0
  0
VERTEX
  5
1A1D
  8
SAPA_PROFIL
 62
     4
 10
69.499999999289713
 20
43.531441188158169
 30
0.0
 42
-0.4142135623730951
  0
VERTEX
  5
1A1E
  8
SAPA_PROFIL
 62
     4
 10
69.999999999289713
 20
44.031441188158162
 30
0.0
  0
VERTEX
  5
1A1F
  8
SAPA_PROFIL
 62
     4
 10
70.199999999289531
 20
44.031441188158396
 30
0.0
 42
-0.4142135623730951
  0
VERTEX
  5
1A20
  8
SAPA_PROFIL
 62
     4
 10
70.499999999289713
 20
43.731441188158207
 30
0.0
  0
VERTEX
  5
1A21
  8
SAPA_PROFIL
 62
     4
 10
70.499999999289713
 20
43.081441188156298
 30
0.0
 42
0.4142135623730951
  0
VERTEX
  5
1A22
  8
SAPA_PROFIL
 62
     4
 10
70.799999999290804
 20
42.781441188156343
 30
0.0
  0
VERTEX
  5
1A23
  8
SAPA_PROFIL
 62
     4
 10
71.699999999286803
 20
42.78144118815726
 30
0.0
 42
0.4142135623730951
  0
VERTEX
  5
1A24
  8
SAPA_PROFIL
 62
     4
 10
72.199999999286803
 20
43.28144118815635
 30
0.0
  0
VERTEX
  5
1A25
  8
SAPA_PROFIL
 62
     4
 10
72.199999999286803
 20
49.281441188158169
 30
0.0
 42
0.4142135623730951
  0
VERTEX
  5
1A26
  8
SAPA_PROFIL
 62
     4
 10
71.699999999286803
 20
49.781441188158169
 30
0.0
  0
VERTEX
  5
1A27
  8
SAPA_PROFIL
 62
     4
 10
70.799999999288076
 20
49.781441188158169
 30
0.0
 42
0.4142135623710974
  0
VERTEX
  5
1A28
  8
SAPA_PROFIL
 62
     4
 10
70.499999999288804
 20
49.481441188160261
 30
0.0
  0
VERTEX
  5
1A29
  8
SAPA_PROFIL
 62
     4
 10
70.499999999284256
 20
48.831441188158351
 30
0.0
 42
-0.4142135623730951
  0
VERTEX
  5
1A2A
  8
SAPA_PROFIL
 62
     4
 10
70.199999999282255
 20
48.531441188160223
 30
0.0
  0
VERTEX
  5
1A2B
  8
SAPA_PROFIL
 62
     4
 10
69.999999999289713
 20
48.531441188161352
 30
0.0
 42
-0.4142135623730951
  0
VERTEX
  5
1A2C
  8
SAPA_PROFIL
 62
     4
 10
69.499999999289713
 20
49.031441188161352
 30
0.0
  0
VERTEX
  5
1A2D
  8
SAPA_PROFIL
 62
     4
 10
69.499999999289713
 20
52.031441188161352
 30
0.0
 42
-0.4142135623730951
  0
VERTEX
  5
1A2E
  8
SAPA_PROFIL
 62
     4
 10
69.999999999289713
 20
52.531441188161352
 30
0.0
  0
VERTEX
  5
1A2F
  8
SAPA_PROFIL
 62
     4
 10
70.199999999289531
 20
52.531441188161352
 30
0.0
 42
-0.4142135623730951
  0
VERTEX
  5
1A30
  8
SAPA_PROFIL
 62
     4
 10
70.499999999289713
 20
52.23144118816117
 30
0.0
  0
VERTEX
  5
1A31
  8
SAPA_PROFIL
 62
     4
 10
70.499999999289713
 20
51.581441188161307
 30
0.0
 42
0.4142135623730951
  0
VERTEX
  5
1A32
  8
SAPA_PROFIL
 62
     4
 10
70.799999999290804
 20
51.281441188161352
 30
0.0
  0
VERTEX
  5
1A33
  8
SAPA_PROFIL
 62
     4
 10
71.699999999286803
 20
51.281441188161352
 30
0.0
 42
0.4142135623730951
  0
VERTEX
  5
1A34
  8
SAPA_PROFIL
 62
     4
 10
72.199999999286803
 20
51.781441188161352
 30
0.0
  0
VERTEX
  5
1A35
  8
SAPA_PROFIL
 62
     4
 10
72.199999999286803
 20
57.781441188161352
 30
0.0
 42
0.4142135623730951
  0
VERTEX
  5
1A36
  8
SAPA_PROFIL
 62
     4
 10
71.699999999286803
 20
58.281441188161352
 30
0.0
  0
VERTEX
  5
1A37
  8
SAPA_PROFIL
 62
     4
 10
70.799999999290804
 20
58.281441188161352
 30
0.0
 42
0.4142135623730951
  0
VERTEX
  5
1A38
  8
SAPA_PROFIL
 62
     4
 10
70.499999999289713
 20
57.98144118816117
 30
0.0
  0
VERTEX
  5
1A39
  8
SAPA_PROFIL
 62
     4
 10
70.499999999289713
 20
57.331441188161307
 30
0.0
 42
-0.4142135623730949
  0
VERTEX
  5
1A3A
  8
SAPA_PROFIL
 62
     4
 10
70.199999999289531
 20
57.031441188161352
 30
0.0
  0
VERTEX
  5
1A3B
  8
SAPA_PROFIL
 62
     4
 10
69.999999999289713
 20
57.031441188161352
 30
0.0
 42
-0.4142135623730951
  0
VERTEX
  5
1A3C
  8
SAPA_PROFIL
 62
     4
 10
69.499999999289713
 20
57.531441188161352
 30
0.0
  0
VERTEX
  5
1A3D
  8
SAPA_PROFIL
 62
     4
 10
69.499999999290623
 20
59.281441188161352
 30
0.0
 42
-0.4142135623726955
  0
VERTEX
  5
1A3E
  8
SAPA_PROFIL
 62
     4
 10
69.999999999624393
 20
59.781441188161352
 30
0.0
  0
VERTEX
  5
1A3F
  8
SAPA_PROFIL
 62
     4
 10
82.999999999631669
 20
59.78144118816158
 30
0.0
 42
-0.4142135623732284
  0
VERTEX
  5
1A40
  8
SAPA_PROFIL
 62
     4
 10
83.499999999908169
 20
59.281441188163171
 30
0.0
  0
VERTEX
  5
1A41
  8
SAPA_PROFIL
 62
     4
 10
83.499999999908169
 20
57.531441188163171
 30
0.0
 42
-0.4142135623730951
  0
VERTEX
  5
1A42
  8
SAPA_PROFIL
 62
     4
 10
82.999999999908155
 20
57.031441188163171
 30
0.0
  0
VERTEX
  5
1A43
  8
SAPA_PROFIL
 62
     4
 10
82.799999999908351
 20
57.031441188163171
 30
0.0
 42
-0.4142135623730951
  0
VERTEX
  5
1A44
  8
SAPA_PROFIL
 62
     4
 10
82.499999999908184
 20
57.331441188163353
 30
0.0
  0
VERTEX
  5
1A45
  8
SAPA_PROFIL
 62
     4
 10
82.499999999908184
 20
57.98144118816321
 30
0.0
 42
0.4142135623730951
  0
VERTEX
  5
1A46
  8
SAPA_PROFIL
 62
     4
 10
82.199999999908897
 20
58.281441188163171
 30
0.0
  0
VERTEX
  5
1A47
  8
SAPA_PROFIL
 62
     4
 10
81.29999999991108
 20
58.281441188163171
 30
0.0
 42
0.4142135623730951
  0
VERTEX
  5
1A48
  8
SAPA_PROFIL
 62
     4
 10
80.799999999911066
 20
57.781441188163171
 30
0.0
  0
VERTEX
  5
1A49
  8
SAPA_PROFIL
 62
     4
 10
80.799999999911066
 20
51.781441188163171
 30
0.0
 42
0.4142135623730951
  0
VERTEX
  5
1A4A
  8
SAPA_PROFIL
 62
     4
 10
81.29999999991108
 20
51.281441188163171
 30
0.0
  0
VERTEX
  5
1A4B
  8
SAPA_PROFIL
 62
     4
 10
82.199999999908897
 20
51.281441188163171
 30
0.0
 42
0.4142135623730953
  0
VERTEX
  5
1A4C
  8
SAPA_PROFIL
 62
     4
 10
82.499999999908184
 20
51.581441188163353
 30
0.0
  0
VERTEX
  5
1A4D
  8
SAPA_PROFIL
 62
     4
 10
82.499999999908184
 20
52.23144118816321
 30
0.0
 42
-0.4142135623730951
  0
VERTEX
  5
1A4E
  8
SAPA_PROFIL
 62
     4
 10
82.799999999908351
 20
52.531441188163171
 30
0.0
  0
VERTEX
  5
1A4F
  8
SAPA_PROFIL
 62
     4
 10
82.999999999908155
 20
52.531441188163171
 30
0.0
 42
-0.4142135623730951
  0
VERTEX
  5
1A50
  8
SAPA_PROFIL
 62
     4
 10
83.499999999908169
 20
52.031441188163171
 30
0.0
  0
VERTEX
  5
1A51
  8
SAPA_PROFIL
 62
     4
 10
83.499999999908169
 20
49.031441188163171
 30
0.0
 42
-0.4142135623730951
  0
VERTEX
  5
1A52
  8
SAPA_PROFIL
 62
     4
 10
82.999999999908155
 20
48.531441188163171
 30
0.0
  0
VERTEX
  5
1A53
  8
SAPA_PROFIL
 62
     4
 10
82.799999999915627
 20
48.531441188162027
 30
0.0
 42
-0.414213562372873
  0
VERTEX
  5
1A54
  8
SAPA_PROFIL
 62
     4
 10
82.499999999913626
 20
48.83144118816017
 30
0.0
  0
VERTEX
  5
1A55
  8
SAPA_PROFIL
 62
     4
 10
82.499999999910884
 20
49.48144118816117
 30
0.0
 42
0.4142135623722071
  0
VERTEX
  5
1A56
  8
SAPA_PROFIL
 62
     4
 10
82.199999999909807
 20
49.781441188160223
 30
0.0
  0
VERTEX
  5
1A57
  8
SAPA_PROFIL
 62
     4
 10
81.29999999991108
 20
49.781441188160223
 30
0.0
 42
0.4142135623730951
  0
VERTEX
  5
1A58
  8
SAPA_PROFIL
 62
     4
 10
80.799999999911066
 20
49.281441188160208
 30
0.0
  0
VERTEX
  5
1A59
  8
SAPA_PROFIL
 62
     4
 10
80.799999999918356
 20
43.281441188158162
 30
0.0
 42
0.4142135623730951
  0
VERTEX
  5
1A5A
  8
SAPA_PROFIL
 62
     4
 10
81.299999999918356
 20
42.781441188158162
 30
0.0
  0
VERTEX
  5
1A5B
  8
SAPA_PROFIL
 62
     4
 10
82.199999999915264
 20
42.781441188158162
 30
0.0
 42
0.4142135623730951
  0
VERTEX
  5
1A5C
  8
SAPA_PROFIL
 62
     4
 10
82.499999999915445
 20
43.081441188158337
 30
0.0
  0
VERTEX
  5
1A5D
  8
SAPA_PROFIL
 62
     4
 10
82.499999999915445
 20
43.731441188160261
 30
0.0
 42
-0.4142135623730951
  0
VERTEX
  5
1A5E
  8
SAPA_PROFIL
 62
     4
 10
82.799999999915627
 20
44.031441188160223
 30
0.0
  0
VERTEX
  5
1A5F
  8
SAPA_PROFIL
 62
     4
 10
82.999999999915445
 20
44.031441188160223
 30
0.0
 42
-0.4142135623730951
  0
VERTEX
  5
1A60
  8
SAPA_PROFIL
 62
     4
 10
83.499999999915445
 20
43.531441188160208
 30
0.0
  0
VERTEX
  5
1A61
  8
SAPA_PROFIL
 62
     4
 10
83.499999999833577
 20
17.733706161236341
 30
0.0
 42
0.414213562374094
  0
VERTEX
  5
1A62
  8
SAPA_PROFIL
 62
     4
 10
84.699999999833409
 20
16.533706161232431
 30
0.0
  0
VERTEX
  5
1A63
  8
SAPA_PROFIL
 62
     4
 10
87.428481349913483
 20
16.5337061612322
 30
0.0
  0
SEQEND
  5
1A64
  8
SAPA_PROFIL
 62
     4
  0
POLYLINE
  5
F1E
  8
SAPA_PROFIL
 62
     4
 66
     1
 10
0.0
 20
0.0
 30
0.0
 70
     1
  0
VERTEX
  5
1A65
  8
SAPA_PROFIL
 62
     4
 10
79.799999931868143
 20
41.497179717642673
 30
0.0
  0
VERTEX
  5
1A66
  8
SAPA_PROFIL
 62
     4
 10
72.299999931309713
 20
41.497179717638573
 30
0.0
 42
0.4142135623730951
  0
VERTEX
  5
1A67
  8
SAPA_PROFIL
 62
     4
 10
71.299999931309713
 20
40.497179717638573
 30
0.0
  0
VERTEX
  5
1A68
  8
SAPA_PROFIL
 62
     4
 10
71.299999931294252
 20
17.34944469071479
 30
0.0
 42
0.4142135623730949
  0
VERTEX
  5
1A69
  8
SAPA_PROFIL
 62
     4
 10
72.099999931294434
 20
16.549444690714608
 30
0.0
  0
VERTEX
  5
1A6A
  8
SAPA_PROFIL
 62
     4
 10
80.899999931813028
 20
16.549444690714608
 30
0.0
 42
0.414213562373428
  0
VERTEX
  5
1A6B
  8
SAPA_PROFIL
 62
     4
 10
81.699999931813196
 20
17.3494446907157
 30
0.0
  0
VERTEX
  5
1A6C
  8
SAPA_PROFIL
 62
     4
 10
81.699999931789563
 20
40.497179717642659
 30
0.0
 42
0.4142135623724957
  0
VERTEX
  5
1A6D
  8
SAPA_PROFIL
 62
     4
 10
80.699999931790472
 20
41.497179717640613
 30
0.0
  0
SEQEND
  5
1A6E
  8
SAPA_PROFIL
 62
     4
  0
LINE
  5
F4A
  8
SAPA_GLAS
 10
90.800000000151798
 20
65.000000000011028
 30
0.0
 11
90.711346680440187
 21
64.497222039660301
 31
0.0
  0
LINE
  5
F4B
  8
SAPA_GLAS
 10
94.809538930785337
 20
63.013030214905903
 30
0.0
 11
94.999999999663245
 21
63.013030214905903
 31
0.0
  0
ARC
  5
F4C
  8
SAPA_GLAS
 10
92.999999999661455
 20
79.584669372822276
 30
0.0
 40
9.9869792597787779
 50
258.44779235426699
 51
281.55220764573301
  0
LINE
  5
F4D
  8
SAPA_GLAS
 10
127.19999999917501
 20
65.000000000011028
 30
0.0
 11
127.2886533188866
 21
64.497222039660286
 31
0.0
  0
LINE
  5
F4E
  8
SAPA_GLAS
 10
123.1904610685415
 20
63.013030214905889
 30
0.0
 11
122.9999999996636
 21
63.013030214905889
 31
0.0
  0
ARC
  5
F4F
  8
SAPA_GLAS
 10
124.99999999966541
 20
79.584669372822262
 30
0.0
 40
9.9869792597787779
 50
258.44779235426699
 51
281.55220764573301
  0
POLYLINE
  5
F50
  8
SAPA_GLAS
 66
     1
 10
0.0
 20
0.0
 30
0.0
 70
     1
  0
VERTEX
  5
1AE1
  8
SAPA_GLAS
 10
123.12278837062929
 20
62.23952773350004
 30
0.0
 42
-0.1316524975872964
  0
VERTEX
  5
1AE2
  8
SAPA_GLAS
 10
123.1904610689714
 20
63.013030214989008
 30
0.0
  0
VERTEX
  5
1AE3
  8
SAPA_GLAS
 10
123.74264885543251
 20
64.530153689609605
 30
0.0
 42
-0.4142135623734131
  0
VERTEX
  5
1AE4
  8
SAPA_GLAS
 10
124.3835052374875
 20
64.828989928339894
 30
0.0
  0
VERTEX
  5
1AE5
  8
SAPA_GLAS
 10
124.57144376164671
 20
64.760585899674084
 30
0.0
 42
-0.4142135623732762
  0
VERTEX
  5
1AE6
  8
SAPA_GLAS
 10
124.7507455048884
 20
64.376072070439463
 30
0.0
  0
VERTEX
  5
1AE7
  8
SAPA_GLAS
 10
124.7422964973799
 20
64.352858613121612
 30
0.0
 42
0.5773502691875974
  0
VERTEX
  5
1AE8
  8
SAPA_GLAS
 10
124.9649646570748
 20
64.08749303385386
 30
0.0
  0
VERTEX
  5
1AE9
  8
SAPA_GLAS
 10
129.2809094965765
 20
64.848510556303253
 30
0.0
 42
-0.4142135623736183
  0
VERTEX
  5
1AEA
  8
SAPA_GLAS
 10
129.62844627577121
 20
64.605162683699703
 30
0.0
  0
VERTEX
  5
1AEB
  8
SAPA_GLAS
 10
129.6979055468388
 20
64.211239582497114
 30
0.0
 42
-0.4142135623730951
  0
VERTEX
  5
1AEC
  8
SAPA_GLAS
 10
129.4545576742394
 20
63.863702803293499
 30
0.0
  0
VERTEX
  5
1AED
  8
SAPA_GLAS
 10
124.5131759113125
 20
62.992403876507638
 30
0.0
 42
0.4142135623725704
  0
VERTEX
  5
1AEE
  8
SAPA_GLAS
 10
124.1075961236439
 20
62.4131759111688
 30
0.0
  0
VERTEX
  5
1AEF
  8
SAPA_GLAS
 10
125.3112661297333
 20
55.586824088834078
 30
0.0
 42
-0.4663076581553405
  0
VERTEX
  5
1AF0
  8
SAPA_GLAS
 10
124.818862253224
 20
55.000000000000107
 30
0.0
  0
VERTEX
  5
1AF1
  8
SAPA_GLAS
 10
93.181137747064554
 20
55.000000000000107
 30
0.0
 42
-0.4663076581553401
  0
VERTEX
  5
1AF2
  8
SAPA_GLAS
 10
92.688733870558565
 20
55.586824088834128
 30
0.0
  0
VERTEX
  5
1AF3
  8
SAPA_GLAS
 10
93.892403876644636
 20
62.4131759111688
 30
0.0
 42
0.4142135623725707
  0
VERTEX
  5
1AF4
  8
SAPA_GLAS
 10
93.48682408897605
 20
62.992403876507638
 30
0.0
  0
VERTEX
  5
1AF5
  8
SAPA_GLAS
 10
88.545442326049113
 20
63.863702803293499
 30
0.0
 42
-0.4142135623730951
  0
VERTEX
  5
1AF6
  8
SAPA_GLAS
 10
88.302094453449754
 20
64.211239582497114
 30
0.0
  0
VERTEX
  5
1AF7
  8
SAPA_GLAS
 10
88.371553724517369
 20
64.605162683699703
 30
0.0
 42
-0.4142135623736183
  0
VERTEX
  5
1AF8
  8
SAPA_GLAS
 10
88.719090503711996
 20
64.848510556303253
 30
0.0
  0
VERTEX
  5
1AF9
  8
SAPA_GLAS
 10
93.035035343213735
 20
64.08749303385386
 30
0.0
 42
0.5773502691875974
  0
VERTEX
  5
1AFA
  8
SAPA_GLAS
 10
93.257703502908612
 20
64.352858613121612
 30
0.0
  0
VERTEX
  5
1AFB
  8
SAPA_GLAS
 10
93.249254495400095
 20
64.376072070439463
 30
0.0
 42
-0.4142135623732762
  0
VERTEX
  5
1AFC
  8
SAPA_GLAS
 10
93.428556238641804
 20
64.760585899674084
 30
0.0
  0
VERTEX
  5
1AFD
  8
SAPA_GLAS
 10
93.616494762801011
 20
64.828989928339894
 30
0.0
 42
-0.4142135623734131
  0
VERTEX
  5
1AFE
  8
SAPA_GLAS
 10
94.257351144855988
 20
64.530153689609605
 30
0.0
  0
VERTEX
  5
1AFF
  8
SAPA_GLAS
 10
94.809538931317164
 20
63.013030214989008
 30
0.0
 42
-0.1316524975872963
  0
VERTEX
  5
1B00
  8
SAPA_GLAS
 10
94.8772116296592
 20
62.23952773350004
 30
0.0
  0
VERTEX
  5
1B01
  8
SAPA_GLAS
 10
93.818403711293684
 20
56.234729635534087
 30
0.0
 42
0.4663076581547951
  0
VERTEX
  5
1B02
  8
SAPA_GLAS
 10
94.015365261896136
 20
56.000000000000838
 30
0.0
  0
VERTEX
  5
1B03
  8
SAPA_GLAS
 10
123.9846347383924
 20
56.000000000000838
 30
0.0
 42
0.466307658154795
  0
VERTEX
  5
1B04
  8
SAPA_GLAS
 10
124.1815962889948
 20
56.234729635534087
 30
0.0
  0
SEQEND
  5
1B05
  8
SAPA_GLAS
  0
POLYLINE
  5
F51
  8
SAPA_GLAS
 66
     1
 10
0.0
 20
0.0
 30
0.0
  0
VERTEX
  5
1B06
  8
SAPA_GLAS
 10
123.0000000001444
 20
89.000000000000114
 30
0.0
  0
VERTEX
  5
1B07
  8
SAPA_GLAS
 10
123.0000000001444
 20
57.000000000000092
 30
0.0
  0
VERTEX
  5
1B08
  8
SAPA_GLAS
 10
119.0000000001444
 20
57.000000000000092
 30
0.0
  0
VERTEX
  5
1B09
  8
SAPA_GLAS
 10
119.0000000001444
 20
89.000000000000114
 30
0.0
  0
SEQEND
  5
1B0A
  8
SAPA_GLAS
  0
POLYLINE
  5
F52
  8
SAPA_GLAS
 66
     1
 10
0.0
 20
0.0
 30
0.0
  0
VERTEX
  5
1B0B
  8
SAPA_GLAS
 10
99.000000000144269
 20
67.000000000000085
 30
0.0
  0
VERTEX
  5
1B0C
  8
SAPA_GLAS
 10
119.0000000001443
 20
67.000000000000085
 30
0.0
  0
VERTEX
  5
1B0D
  8
SAPA_GLAS
 10
119.0000000001443
 20
57.000000000000092
 30
0.0
  0
VERTEX
  5
1B0E
  8
SAPA_GLAS
 10
99.000000000144269
 20
57.000000000000092
 30
0.0
  0
VERTEX
  5
1B0F
  8
SAPA_GLAS
 10
99.000000000144269
 20
67.000000000000085
 30
0.0
  0
SEQEND
  5
1B10
  8
SAPA_GLAS
  0
POLYLINE
  5
F53
  8
SAPA_GLAS
 66
     1
 10
0.0
 20
0.0
 30
0.0
  0
VERTEX
  5
1B11
  8
SAPA_GLAS
 10
95.000000000144269
 20
89.000000000000114
 30
0.0
  0
VERTEX
  5
1B12
  8
SAPA_GLAS
 10
95.000000000144269
 20
57.000000000000092
 30
0.0
  0
VERTEX
  5
1B13
  8
SAPA_GLAS
 10
99.000000000144269
 20
57.000000000000092
 30
0.0
  0
VERTEX
  5
1B14
  8
SAPA_GLAS
 10
99.000000000144269
 20
89.000000000000114
 30
0.0
  0
SEQEND
  5
1B15
  8
SAPA_GLAS
  0
INSERT
  5
F54
  8
SAPA_GLAS
  6
CONTINUOUS
  2
*X57
 10
0.0
 20
0.0
 30
0.0
1001
ACAD
1000
HATCH
1002
{
1070
    19
1000
ANSI37
1040
0.25
1040
0.0
1000
R14_HATCH_DATA
1000
F54
1011
1.0
1021
0.0
1031
0.0
1021
0.0
1031
0.0
1011
0.0
1021
0.0
1031
0.0
1021
1.0
1031
0.0
1011
0.0
1021
0.0
1031
0.0
1021
0.0
1031
1.0
1040
0.0
1010
0.0
1020
0.0
1030
1.0
1000
ANSI37
1070
     0
1070
     0
1071
        1
1071
        7
1070
     1
1070
     1
1071
       21
1040
123.0000000001444
1040
63.013030214905903
1040
0.0
1040
123.1904610689411
1040
63.013030214905889
1040
0.0
1040
123.74264885543251
1040
64.530153689609605
1040
-0.4142135623734131
1040
124.3835052374875
1040
64.828989928339894
1040
0.0
1040
124.57144376164671
1040
64.760585899674084
1040
-0.4142135623732763
1040
124.7507455048884
1040
64.376072070439463
1040
0.0
1040
124.7422964973799
1040
64.352858613121612
1040
0.5773502691875974
1040
124.9649646570748
1040
64.08749303385386
1040
0.0
1040
127.28865331888061
1040
64.497222039694307
1040
0.0
1040
127.19999999917501
1040
65.000000000011042
1040
-0.4142135618490765
1040
126.9999999995339
1040
65.200000000009965
1040
0.0
1040
126.99999999954299
1040
66.300000000010314
1040
-0.4142135623730326
1040
127.19999999953281
1040
66.500000000000099
1040
0.0
1040
127.99999999954299
1040
66.500000000011042
1040
0.4142135623730991
1040
128.49999999954301
1040
67.000000000011042
1040
0.0
1040
128.50000000002319
1040
68.000000000020165
1040
0.4142135623730991
1040
128.00000000002319
1040
68.500000000020165
1040
0.0
1040
127.20000000001301
1040
68.500000000011042
1040
-0.414213562373116
1040
127.0000000000141
1040
68.70000000000995
1040
0.0
1040
127.00000000002321
1040
69.800000000083088
1040
-0.1011549434801005
1040
123.0000000001444
1040
69.799999999912018
1040
0.0
1071
        0
1070
     0
1070
     1
1040
0.0
1040
0.25
1070
     0
1070
     2
1040
0.7853981633974483
1040
85.500000000000114
1040
41.999999998749601
1040
-0.5612660075668221
1040
0.5612660075668221
1070
     0
1040
2.3561944901923439
1040
85.500000000000114
1040
41.999999998749601
1040
-0.5612660075668221
1040
-0.5612660075668221
1070
     0
1040
0.0366580744024772
1071
        1
1040
124.74894753189309
1040
67.619373451306743
1040
0.0
1002
}
  0
INSERT
  5
F55
  8
SAPA_GLAS
  6
CONTINUOUS
  2
*X58
 10
0.0
 20
0.0
 30
0.0
1001
ACAD
1000
HATCH
1002
{
1070
    19
1000
ANSI37
1040
0.25
1040
0.0
1000
R14_HATCH_DATA
1000
F55
1011
1.0
1021
0.0
1031
0.0
1021
0.0
1031
0.0
1011
0.0
1021
0.0
1031
0.0
1021
1.0
1031
0.0
1011
0.0
1021
0.0
1031
0.0
1021
0.0
1031
1.0
1040
0.0
1010
0.0
1020
0.0
1030
1.0
1000
ANSI37
1070
     0
1070
     0
1071
        1
1071
        7
1070
     1
1070
     1
1071
       21
1040
90.799999999669694
1040
68.500000000011042
1040
0.0
1040
89.999999999659565
1040
68.500000000020165
1040
0.4142135623730991
1040
89.499999999659551
1040
68.000000000020165
1040
0.0
1040
89.500000000139735
1040
67.000000000011042
1040
0.4142135623730991
1040
90.000000000139764
1040
66.500000000011042
1040
0.0
1040
90.800000000149922
1040
66.500000000000099
1040
-0.4142135623730326
1040
91.000000000139735
1040
66.300000000010314
1040
0.0
1040
91.000000000148816
1040
65.200000000009965
1040
-0.4142135623703427
1040
90.800000000151798
1040
65.000000000011028
1040
0.0
1040
90.711346680475174
1040
64.497222039858769
1040
0.0
1040
93.035035343213735
1040
64.08749303385386
1040
0.5773502691875974
1040
93.257703502908612
1040
64.352858613121612
1040
0.0
1040
93.249254495400095
1040
64.376072070439463
1040
-0.4142135623732763
1040
93.428556238641804
1040
64.760585899674084
1040
0.0
1040
93.616494762801011
1040
64.828989928339894
1040
-0.4142135623734131
1040
94.257351144855988
1040
64.530153689609605
1040
0.0
1040
94.809538931347419
1040
63.013030214905903
1040
0.0
1040
95.000000000144269
1040
63.013030214905903
1040
0.0
1040
95.000000000144269
1040
69.800000000108639
1040
-0.1011549434957405
1040
90.999999999659522
1040
69.800000000010343
1040
0.0
1040
90.999999999668646
1040
68.70000000000995
1040
-0.414213562373116
1071
        0
1070
     0
1070
     1
1040
0.0
1040
0.25
1070
     0
1070
     2
1040
0.7853981633974483
1040
85.500000000000114
1040
41.999999998749601
1040
-0.5612660075668221
1040
0.5612660075668221
1070
     0
1040
2.3561944901923439
1040
85.500000000000114
1040
41.999999998749601
1040
-0.5612660075668221
1040
-0.5612660075668221
1070
     0
1040
0.0366580744024772
1071
        1
1040
92.357500560328447
1040
67.509399136627394
1040
0.0
1002
}
  0
POLYLINE
  5
F6A
  8
SAPA_FOGBAND
 66
     1
 10
0.0
 20
0.0
 30
0.0
 70
     1
  0
VERTEX
  5
1B97
  8
SAPA_FOGBAND
 10
16.250000000010221
 20
49.649999999982533
 30
0.0
  0
VERTEX
  5
1B98
  8
SAPA_FOGBAND
 10
17.0500000000104
 20
49.649999999982533
 30
0.0
  0
VERTEX
  5
1B99
  8
SAPA_FOGBAND
 10
17.0500000000104
 20
43.34999999998545
 30
0.0
  0
VERTEX
  5
1B9A
  8
SAPA_FOGBAND
 10
16.250000000010221
 20
43.34999999998545
 30
0.0
  0
SEQEND
  5
1B9B
  8
SAPA_FOGBAND
  0
POLYLINE
  5
F6B
  8
SAPA_FOGBAND
 66
     1
 10
0.0
 20
0.0
 30
0.0
  0
VERTEX
  5
1B9C
  8
SAPA_FOGBAND
 10
17.0500000000104
 20
44.927310396842941
 30
0.0
  0
VERTEX
  5
1B9D
  8
SAPA_FOGBAND
 10
20.500000000010221
 20
43.801863799527027
 30
0.0
  0
VERTEX
  5
1B9E
  8
SAPA_FOGBAND
 10
20.500000000010221
 20
46.240001846075558
 30
0.0
  0
VERTEX
  5
1B9F
  8
SAPA_FOGBAND
 10
17.0500000000104
 20
46.349999999982529
 30
0.0
  0
SEQEND
  5
1BA0
  8
SAPA_FOGBAND
  0
POLYLINE
  5
F6C
  8
SAPA_FOGBAND
 66
     1
 10
0.0
 20
0.0
 30
0.0
  0
VERTEX
  5
1BA1
  8
SAPA_FOGBAND
 10
17.0500000000104
 20
46.424999999983257
 30
0.0
  0
VERTEX
  5
1BA2
  8
SAPA_FOGBAND
 10
20.500000000010221
 20
46.424999999986539
 30
0.0
  0
VERTEX
  5
1BA3
  8
SAPA_FOGBAND
 10
20.500000000010221
 20
46.574999999984719
 30
0.0
  0
VERTEX
  5
1BA4
  8
SAPA_FOGBAND
 10
17.0500000000104
 20
46.574999999984719
 30
0.0
  0
SEQEND
  5
1BA5
  8
SAPA_FOGBAND
  0
POLYLINE
  5
F6D
  8
SAPA_FOGBAND
 66
     1
 10
0.0
 20
0.0
 30
0.0
  0
VERTEX
  5
1BA6
  8
SAPA_FOGBAND
 10
17.0500000000104
 20
46.649999999985447
 30
0.0
  0
VERTEX
  5
1BA7
  8
SAPA_FOGBAND
 10
20.500000000010221
 20
46.759997385167694
 30
0.0
  0
VERTEX
  5
1BA8
  8
SAPA_FOGBAND
 10
20.500000000010221
 20
49.198090725589857
 30
0.0
  0
VERTEX
  5
1BA9
  8
SAPA_FOGBAND
 10
17.0500000000104
 20
48.072689603125028
 30
0.0
  0
SEQEND
  5
1BAA
  8
SAPA_FOGBAND
  0
POLYLINE
  5
F6E
  8
SAPA_FOGBAND
 66
     1
 10
0.0
 20
0.0
 30
0.0
 70
     1
  0
VERTEX
  5
1BAB
  8
SAPA_FOGBAND
 10
16.250000000010221
 20
58.149999999997092
 30
0.0
  0
VERTEX
  5
1BAC
  8
SAPA_FOGBAND
 10
17.0500000000104
 20
58.149999999997092
 30
0.0
  0
VERTEX
  5
1BAD
  8
SAPA_FOGBAND
 10
17.0500000000104
 20
51.850000000000001
 30
0.0
  0
VERTEX
  5
1BAE
  8
SAPA_FOGBAND
 10
16.250000000010221
 20
51.850000000000001
 30
0.0
  0
SEQEND
  5
1BAF
  8
SAPA_FOGBAND
  0
POLYLINE
  5
F6F
  8
SAPA_FOGBAND
 66
     1
 10
0.0
 20
0.0
 30
0.0
  0
VERTEX
  5
1BB0
  8
SAPA_FOGBAND
 10
17.0500000000104
 20
53.4273103968575
 30
0.0
  0
VERTEX
  5
1BB1
  8
SAPA_FOGBAND
 10
20.500000000010221
 20
52.301863799541579
 30
0.0
  0
VERTEX
  5
1BB2
  8
SAPA_FOGBAND
 10
20.500000000010221
 20
54.740001846090109
 30
0.0
  0
VERTEX
  5
1BB3
  8
SAPA_FOGBAND
 10
17.0500000000104
 20
54.849999999997081
 30
0.0
  0
SEQEND
  5
1BB4
  8
SAPA_FOGBAND
  0
POLYLINE
  5
F70
  8
SAPA_FOGBAND
 66
     1
 10
0.0
 20
0.0
 30
0.0
  0
VERTEX
  5
1BB5
  8
SAPA_FOGBAND
 10
17.0500000000104
 20
54.924999999997823
 30
0.0
  0
VERTEX
  5
1BB6
  8
SAPA_FOGBAND
 10
20.500000000010221
 20
54.925000000001091
 30
0.0
  0
VERTEX
  5
1BB7
  8
SAPA_FOGBAND
 10
20.500000000010221
 20
55.074999999999278
 30
0.0
  0
VERTEX
  5
1BB8
  8
SAPA_FOGBAND
 10
17.0500000000104
 20
55.074999999999271
 30
0.0
  0
SEQEND
  5
1BB9
  8
SAPA_FOGBAND
  0
POLYLINE
  5
F71
  8
SAPA_FOGBAND
 66
     1
 10
0.0
 20
0.0
 30
0.0
  0
VERTEX
  5
1BBA
  8
SAPA_FOGBAND
 10
17.0500000000104
 20
55.149999999999999
 30
0.0
  0
VERTEX
  5
1BBB
  8
SAPA_FOGBAND
 10
20.500000000010221
 20
55.259997385182238
 30
0.0
  0
VERTEX
  5
1BBC
  8
SAPA_FOGBAND
 10
20.500000000010221
 20
57.698090725604409
 30
0.0
  0
VERTEX
  5
1BBD
  8
SAPA_FOGBAND
 10
17.0500000000104
 20
56.572689603139587
 30
0.0
  0
SEQEND
  5
1BBE
  8
SAPA_FOGBAND
  0
POLYLINE
  5
F72
  8
SAPA_FOGBAND
 66
     1
 10
0.0
 20
0.0
 30
0.0
 70
     1
  0
VERTEX
  5
1BBF
  8
SAPA_FOGBAND
 10
71.749999999672553
 20
49.431441188146799
 30
0.0
  0
VERTEX
  5
1BC0
  8
SAPA_FOGBAND
 10
70.949999999672372
 20
49.431441188146799
 30
0.0
  0
VERTEX
  5
1BC1
  8
SAPA_FOGBAND
 10
70.949999999672372
 20
43.131441188149708
 30
0.0
  0
VERTEX
  5
1BC2
  8
SAPA_FOGBAND
 10
71.749999999672553
 20
43.131441188149708
 30
0.0
  0
SEQEND
  5
1BC3
  8
SAPA_FOGBAND
  0
POLYLINE
  5
F73
  8
SAPA_FOGBAND
 66
     1
 10
0.0
 20
0.0
 30
0.0
  0
VERTEX
  5
1BC4
  8
SAPA_FOGBAND
 10
70.949999999672372
 20
44.708751585007207
 30
0.0
  0
VERTEX
  5
1BC5
  8
SAPA_FOGBAND
 10
67.499999999672553
 20
43.583304987691292
 30
0.0
  0
VERTEX
  5
1BC6
  8
SAPA_FOGBAND
 10
67.499999999672553
 20
46.021443034239823
 30
0.0
  0
VERTEX
  5
1BC7
  8
SAPA_FOGBAND
 10
70.949999999672372
 20
46.131441188146802
 30
0.0
  0
SEQEND
  5
1BC8
  8
SAPA_FOGBAND
  0
POLYLINE
  5
F74
  8
SAPA_FOGBAND
 66
     1
 10
0.0
 20
0.0
 30
0.0
  0
VERTEX
  5
1BC9
  8
SAPA_FOGBAND
 10
70.949999999672372
 20
46.206441188147529
 30
0.0
  0
VERTEX
  5
1BCA
  8
SAPA_FOGBAND
 10
67.499999999672553
 20
46.206441188150798
 30
0.0
  0
VERTEX
  5
1BCB
  8
SAPA_FOGBAND
 10
67.499999999672553
 20
46.356441188148992
 30
0.0
  0
VERTEX
  5
1BCC
  8
SAPA_FOGBAND
 10
70.949999999672372
 20
46.356441188148978
 30
0.0
  0
SEQEND
  5
1BCD
  8
SAPA_FOGBAND
  0
POLYLINE
  5
F75
  8
SAPA_FOGBAND
 66
     1
 10
0.0
 20
0.0
 30
0.0
  0
VERTEX
  5
1BCE
  8
SAPA_FOGBAND
 10
70.949999999672372
 20
46.431441188149712
 30
0.0
  0
VERTEX
  5
1BCF
  8
SAPA_FOGBAND
 10
67.499999999672553
 20
46.541438573331952
 30
0.0
  0
VERTEX
  5
1BD0
  8
SAPA_FOGBAND
 10
67.499999999672553
 20
48.979531913754123
 30
0.0
  0
VERTEX
  5
1BD1
  8
SAPA_FOGBAND
 10
70.949999999672372
 20
47.8541307912893
 30
0.0
  0
SEQEND
  5
1BD2
  8
SAPA_FOGBAND
  0
POLYLINE
  5
F76
  8
SAPA_FOGBAND
 66
     1
 10
0.0
 20
0.0
 30
0.0
 70
     1
  0
VERTEX
  5
1BD3
  8
SAPA_FOGBAND
 10
71.749999999672553
 20
57.931441188161351
 30
0.0
  0
VERTEX
  5
1BD4
  8
SAPA_FOGBAND
 10
70.949999999672372
 20
57.931441188161351
 30
0.0
  0
VERTEX
  5
1BD5
  8
SAPA_FOGBAND
 10
70.949999999672372
 20
51.63144118816426
 30
0.0
  0
VERTEX
  5
1BD6
  8
SAPA_FOGBAND
 10
71.749999999672553
 20
51.63144118816426
 30
0.0
  0
SEQEND
  5
1BD7
  8
SAPA_FOGBAND
  0
POLYLINE
  5
F77
  8
SAPA_FOGBAND
 66
     1
 10
0.0
 20
0.0
 30
0.0
  0
VERTEX
  5
1BD8
  8
SAPA_FOGBAND
 10
70.949999999672372
 20
53.208751585021759
 30
0.0
  0
VERTEX
  5
1BD9
  8
SAPA_FOGBAND
 10
67.499999999672553
 20
52.083304987705837
 30
0.0
  0
VERTEX
  5
1BDA
  8
SAPA_FOGBAND
 10
67.499999999672553
 20
54.521443034254382
 30
0.0
  0
VERTEX
  5
1BDB
  8
SAPA_FOGBAND
 10
70.949999999672372
 20
54.631441188161347
 30
0.0
  0
SEQEND
  5
1BDC
  8
SAPA_FOGBAND
  0
POLYLINE
  5
F78
  8
SAPA_FOGBAND
 66
     1
 10
0.0
 20
0.0
 30
0.0
  0
VERTEX
  5
1BDD
  8
SAPA_FOGBAND
 10
70.949999999672372
 20
54.706441188162081
 30
0.0
  0
VERTEX
  5
1BDE
  8
SAPA_FOGBAND
 10
67.499999999672553
 20
54.706441188165357
 30
0.0
  0
VERTEX
  5
1BDF
  8
SAPA_FOGBAND
 10
67.499999999672553
 20
54.856441188163537
 30
0.0
  0
VERTEX
  5
1BE0
  8
SAPA_FOGBAND
 10
70.949999999672372
 20
54.856441188163529
 30
0.0
  0
SEQEND
  5
1BE1
  8
SAPA_FOGBAND
  0
POLYLINE
  5
F79
  8
SAPA_FOGBAND
 66
     1
 10
0.0
 20
0.0
 30
0.0
  0
VERTEX
  5
1BE2
  8
SAPA_FOGBAND
 10
70.949999999672372
 20
54.931441188164257
 30
0.0
  0
VERTEX
  5
1BE3
  8
SAPA_FOGBAND
 10
67.499999999672553
 20
55.041438573346511
 30
0.0
  0
VERTEX
  5
1BE4
  8
SAPA_FOGBAND
 10
67.499999999672553
 20
57.479531913768668
 30
0.0
  0
VERTEX
  5
1BE5
  8
SAPA_FOGBAND
 10
70.949999999672372
 20
56.354130791303852
 30
0.0
  0
SEQEND
  5
1BE6
  8
SAPA_FOGBAND
  0
DIMENSION
  5
F85
  8
SAPA_MATT
  2
*D30
 10
180.9999999277415
 20
60.000000000015881
 30
0.0
 11
178.2486741701658
 21
-4.9999999999947491
 31
0.0
 70
     0
  1
min. 130
 13
148.9999999277413
 23
-70.000000000005429
 33
0.0
 14
165.99999992773959
 24
60.000000000015881
 34
0.0
 50
90.0
1001
ACAD
1000
DSTYLE
1002
{
1070
    40
1040
1.0
1002
}
  0
DIMENSION
  5
F86
  8
SAPA_MATT
  2
*D29
 10
139.0
 20
113.0000000000001
 30
0.0
 11
76.500000000000028
 21
115.7500000000001
 31
0.0
 70
     0
 13
14.00000000000003
 23
58.5
 33
0.0
 14
139.0
 24
58.500792081048303
 34
0.0
1001
ACAD
1000
DSTYLE
1002
{
1070
    40
1040
1.0
1002
}
  0
DIMENSION
  5
F87
  8
SAPA_MATT
  2
*D28
 10
139.0
 20
101.0000000000001
 30
0.0
 11
135.74999999950211
 21
101.0000000000001
 31
0.0
 70
   128
 13
132.49999999950211
 23
55.000000000018979
 33
0.0
 14
139.0
 24
58.500792081048303
 34
0.0
1001
ACAD
1000
DSTYLE
1002
{
1070
   287
1070
     4
1070
    40
1040
1.0
1070
   279
1070
     1
1002
}
  0
DIMENSION
  5
F88
  8
SAPA_MATT
  2
*D27
 10
132.49999999950211
 20
101.0000000000005
 30
0.0
 11
108.99999999984141
 21
103.7500000000005
 31
0.0
 70
     0
 13
85.500000000180634
 23
55.000000000019853
 33
0.0
 14
132.49999999950211
 24
55.000000000019853
 34
0.0
1001
ACAD
1000
DSTYLE
1002
{
1070
   287
1070
     4
1070
    40
1040
1.0
1070
   279
1070
     1
1002
}
  0
DIMENSION
  5
F89
  8
SAPA_MATT
  2
*D26
 10
85.500000000180634
 20
101.0000000000001
 30
0.0
 11
49.750000000090388
 21
101.0000000000001
 31
0.0
 70
   128
 13
14.00000000000003
 23
58.5
 33
0.0
 14
85.500000000180634
 24
55.000000000019853
 34
0.0
1001
ACAD
1000
DSTYLE
1002
{
1070
    40
1040
1.0
1002
}
  0
DIMENSION
  5
F8A
  8
SAPA_MATT
  2
*D25
 10
168.99999999950211
 20
70.000000000011028
 30
0.0
 11
166.24999999950211
 21
65.000000000005528
 31
0.0
 70
     0
 13
137.49999999950211
 23
60.0
 33
0.0
 14
130.7499999995072
 24
70.000000000011042
 34
0.0
 50
90.0
1001
ACAD
1000
DSTYLE
1002
{
1070
   287
1070
     4
1070
    40
1040
1.0
1070
   279
1070
     1
1002
}
  0
DIMENSION
  5
F8B
  8
SAPA_MATT
  2
*D24
 10
168.99999999950211
 20
60.0
 30
0.0
 11
166.24999999950211
 21
1.500000000000032
 31
0.0
 70
     0
 13
137.62499999950211
 23
-56.999999999999972
 33
0.0
 14
137.49999999950211
 24
60.0
 34
0.0
 50
90.0
1001
ACAD
1000
DSTYLE
1002
{
1070
    40
1040
1.0
1002
}
  0
VIEWPORT
  5
C4
 67
     1
  8
0
 10
160.5543545598442
 20
116.00969601843509
 30
0.0
 40
404.96977709277462
 41
256.8421457311839
 68
     1
 69
     1
1001
ACAD
1000
MVIEW
1002
{
1070
    16
1010
0.0
1020
0.0
1030
0.0
1010
0.0
1020
0.0
1030
1.0
1040
0.0
1040
256.8421457311839
1040
99.206250190734863
1040
130.70624923706049
1040
50.0
1040
0.0
1040
0.0
1070
     0
1070
     0
1070
     1
1070
     1
1070
     0
1070
     0
1070
     0
1070
     0
1040
0.0
1040
0.0
1040
0.0
1040
10.0
1040
10.0
1040
10.0
1040
10.0
1070
     0
1002
{
1002
}
1002
}
  0
ENDSEC
  0
EOF
