  0
SECTION
  2
HEADER
  9
$ACADVER
  1
AC1009
  9
$INSBASE
 10
0.0
 20
0.0
 30
0.0
  9
$EXTMIN
 10
-119.49147905908529
 20
-111.29283270961351
 30
-0.2
  9
$EXTMAX
 10
194.0032559343997
 20
119.2500000000001
 30
0.0000000048844772
  9
$LIMMIN
 10
0.0
 20
0.0
  9
$LIMMAX
 10
790.0
 20
790.0
  9
$ORTHOMODE
 70
     1
  9
$REGENMODE
 70
     1
  9
$FILLMODE
 70
     1
  9
$QTEXTMODE
 70
     0
  9
$MIRRTEXT
 70
     1
  9
$DRAGMODE
 70
     2
  9
$LTSCALE
 40
4.0
  9
$OSMODE
 70
    37
  9
$ATTMODE
 70
     1
  9
$TEXTSIZE
 40
3.5
  9
$TRACEWID
 40
0.05
  9
$TEXTSTYLE
  7
ISO
  9
$CLAYER
  8
0
  9
$CELTYPE
  6
BYLAYER
  9
$CECOLOR
 62
   256
  9
$DIMSCALE
 40
0.0
  9
$DIMASZ
 40
3.0
  9
$DIMEXO
 40
1.5
  9
$DIMDLI
 40
10.0
  9
$DIMRND
 40
0.0
  9
$DIMDLE
 40
0.0
  9
$DIMEXE
 40
1.5
  9
$DIMTP
 40
0.0
  9
$DIMTM
 40
0.0
  9
$DIMTXT
 40
3.5
  9
$DIMCEN
 40
-5.0
  9
$DIMTSZ
 40
0.0
  9
$DIMTOL
 70
     0
  9
$DIMLIM
 70
     0
  9
$DIMTIH
 70
     0
  9
$DIMTOH
 70
     0
  9
$DIMSE1
 70
     0
  9
$DIMSE2
 70
     0
  9
$DIMTAD
 70
     1
  9
$DIMZIN
 70
     8
  9
$DIMBLK
  1

  9
$DIMASO
 70
     1
  9
$DIMSHO
 70
     1
  9
$DIMPOST
  1

  9
$DIMAPOST
  1

  9
$DIMALT
 70
     0
  9
$DIMALTD
 70
     0
  9
$DIMALTF
 40
25.399999999999999
  9
$DIMLFAC
 40
-1.0
  9
$DIMTOFL
 70
     1
  9
$DIMTVP
 40
0.0
  9
$DIMTIX
 70
     0
  9
$DIMSOXD
 70
     0
  9
$DIMSAH
 70
     0
  9
$DIMBLK1
  1

  9
$DIMBLK2
  1

  9
$DIMSTYLE
  2
MASKIN
  9
$DIMCLRD
 70
   256
  9
$DIMCLRE
 70
   256
  9
$DIMCLRT
 70
     2
  9
$DIMTFAC
 40
1.0
  9
$DIMGAP
 40
1.0
  9
$LUNITS
 70
     2
  9
$LUPREC
 70
     8
  9
$SKETCHINC
 40
0.1
  9
$FILLETRAD
 40
0.0
  9
$AUNITS
 70
     0
  9
$AUPREC
 70
     8
  9
$MENU
  1
ACAD
  9
$ELEVATION
 40
0.0
  9
$PELEVATION
 40
0.0
  9
$THICKNESS
 40
0.0
  9
$LIMCHECK
 70
     0
  9
$BLIPMODE
 70
     0
  9
$CHAMFERA
 40
0.0
  9
$CHAMFERB
 40
0.0
  9
$SKPOLY
 70
     0
  9
$TDCREATE
 40
2455734.560015128
  9
$TDUPDATE
 40
2455782.4929318409
  9
$TDINDWG
 40
1.1119024883999999
  9
$TDUSRTIMER
 40
1.1119023031999999
  9
$USRTIMER
 70
     1
  9
$ANGBASE
 50
0.0
  9
$ANGDIR
 70
     0
  9
$PDMODE
 70
     0
  9
$PDSIZE
 40
0.0
  9
$PLINEWID
 40
0.0
  9
$COORDS
 70
     1
  9
$SPLFRAME
 70
     0
  9
$SPLINETYPE
 70
     6
  9
$SPLINESEGS
 70
     8
  9
$ATTDIA
 70
     0
  9
$ATTREQ
 70
     1
  9
$HANDLING
 70
     1
  9
$HANDSEED
  5
1CF6
  9
$SURFTAB1
 70
     6
  9
$SURFTAB2
 70
     6
  9
$SURFTYPE
 70
     6
  9
$SURFU
 70
     6
  9
$SURFV
 70
     6
  9
$UCSNAME
  2

  9
$UCSORG
 10
0.0
 20
0.0
 30
0.0
  9
$UCSXDIR
 10
1.0
 20
0.0
 30
0.0
  9
$UCSYDIR
 10
0.0
 20
1.0
 30
0.0
  9
$PUCSNAME
  2

  9
$PUCSORG
 10
0.0
 20
0.0
 30
0.0
  9
$PUCSXDIR
 10
1.0
 20
0.0
 30
0.0
  9
$PUCSYDIR
 10
0.0
 20
1.0
 30
0.0
  9
$USERI1
 70
     0
  9
$USERI2
 70
     0
  9
$USERI3
 70
     0
  9
$USERI4
 70
     0
  9
$USERI5
 70
     0
  9
$USERR1
 40
0.0
  9
$USERR2
 40
0.0
  9
$USERR3
 40
0.0
  9
$USERR4
 40
0.0
  9
$USERR5
 40
0.0
  9
$WORLDVIEW
 70
     1
  9
$SHADEDGE
 70
     3
  9
$SHADEDIF
 70
    70
  9
$TILEMODE
 70
     1
  9
$MAXACTVP
 70
    16
  9
$PLIMCHECK
 70
     0
  9
$PEXTMIN
 10
1.0000000000000000E+020
 20
1.0000000000000000E+020
 30
1.0000000000000000E+020
  9
$PEXTMAX
 10
-1.0000000000000000E+020
 20
-1.0000000000000000E+020
 30
-1.0000000000000000E+020
  9
$PLIMMIN
 10
-5.069427490234375
 20
-5.8737497329711914
  9
$PLIMMAX
 10
291.89889526367187
 20
204.0995779037475
  9
$UNITMODE
 70
     0
  9
$VISRETAIN
 70
     1
  9
$PLINEGEN
 70
     0
  9
$PSLTSCALE
 70
     1
  0
ENDSEC
  0
SECTION
  2
TABLES
  0
TABLE
  2
VPORT
 70
     1
  0
VPORT
  2
*ACTIVE
 70
     0
 10
0.0
 20
0.0
 11
1.0
 21
1.0
 12
43.345378656293001
 22
3.9834988575522621
 13
0.0
 23
0.0
 14
1.0
 24
1.0
 15
0.0
 25
0.0
 16
0.0
 26
0.0
 36
1.0
 17
0.0
 27
0.0
 37
0.0
 40
232.3693542943781
 41
2.362397820163487
 42
50.0
 43
0.0
 44
0.0
 50
0.0
 51
0.0
 71
     0
 72
   100
 73
     1
 74
     1
 75
     0
 76
     0
 77
     0
 78
     0
  0
ENDTAB
  0
TABLE
  2
LTYPE
 70
     4
  0
LTYPE
  2
CONTINUOUS
 70
     0
  3
Solid line
 72
    65
 73
     0
 40
0.0
  0
LTYPE
  2
BYGG-027377$0$NEWDOT
 70
     0
  3
____ . ____ . ____ . ____ . ____ . ____ . ____
 72
    65
 73
     4
 40
2.0
 49
1.0
 49
-0.5
 49
0.0
 49
-0.5
  0
LTYPE
  2
BYGG-027379$0$NEWDOT
 70
     0
  3
____ . ____ . ____ . ____ . ____ . ____ . ____
 72
    65
 73
     4
 40
2.0
 49
1.0
 49
-0.5
 49
0.0
 49
-0.5
  0
LTYPE
  2
BYGG-027050$0$NEWDOT
 70
     0
  3
____ . ____ . ____ . ____ . ____ . ____ . ____
 72
    65
 73
     4
 40
2.0
 49
1.0
 49
-0.5
 49
0.0
 49
-0.5
  0
ENDTAB
  0
TABLE
  2
LAYER
 70
    38
  0
LAYER
  2
0
 70
     0
 62
     7
  6
CONTINUOUS
  0
LAYER
  2
DEFPOINTS
 70
     0
 62
     7
  6
CONTINUOUS
  0
LAYER
  2
SAPA_ARTIKELNR
 70
     0
 62
     4
  6
CONTINUOUS
  0
LAYER
  2
SAPA_BESLAG
 70
     0
 62
     1
  6
CONTINUOUS
  0
LAYER
  2
SAPA_ANSLUTNING
 70
     0
 62
     6
  6
CONTINUOUS
  0
LAYER
  2
SAPA_MATT
 70
     0
 62
     1
  6
CONTINUOUS
  0
LAYER
  2
SAPA_GLAS
 70
     0
 62
     4
  6
CONTINUOUS
  0
LAYER
  2
SAPA_FOGBAND
 70
     0
 62
     2
  6
CONTINUOUS
  0
LAYER
  2
SAPA_PROFIL
 70
     0
 62
     7
  6
CONTINUOUS
  0
ENDTAB
  0
TABLE
  2
STYLE
 70
    20
  0
STYLE
  2
STANDARD
 70
     0
 40
0.0
 41
1.0
 50
0.0
 71
     0
 42
0.2
  3
txt
  4

  0
STYLE
  2
ISO
 70
     0
 40
0.0
 41
1.0
 50
0.0
 71
     0
 42
3.5
  3
txt
  4

  0
STYLE
  2
BYGG-027459$0$STANDARD
 70
     0
 40
0.0
 41
1.0
 50
0.0
 71
     0
 42
0.2
  3
txt
  4

  0
STYLE
  2
BYGG-027459$0$ISO
 70
     0
 40
0.0
 41
1.0
 50
0.0
 71
     0
 42
3.5
  3
txt
  4

  0
STYLE
  2
BYGG-027377$0$STANDARD
 70
     0
 40
0.0
 41
1.0
 50
0.0
 71
     0
 42
0.2
  3
txt
  4

  0
STYLE
  2
BYGG-027377$0$ISO
 70
     0
 40
0.0
 41
1.0
 50
0.0
 71
     0
 42
3.5
  3
txt
  4

  0
STYLE
  2
BYGG-027396$0$STANDARD
 70
     0
 40
0.0
 41
1.0
 50
0.0
 71
     0
 42
0.2
  3
txt
  4

  0
STYLE
  2
BYGG-027396$0$ISO
 70
     0
 40
0.0
 41
1.0
 50
0.0
 71
     0
 42
3.5
  3
txt
  4

  0
STYLE
  2
BYGG-027379$0$STANDARD
 70
     0
 40
0.0
 41
1.0
 50
0.0
 71
     0
 42
0.2
  3
txt
  4

  0
STYLE
  2
BYGG-027379$0$ISO
 70
     0
 40
0.0
 41
1.0
 50
0.0
 71
     0
 42
3.5
  3
txt
  4

  0
STYLE
  2
BYGG-027392$0$STANDARD
 70
     0
 40
0.0
 41
1.0
 50
0.0
 71
     0
 42
0.2
  3
txt
  4

  0
STYLE
  2
BYGG-027392$0$ISO
 70
     0
 40
0.0
 41
1.0
 50
0.0
 71
     0
 42
3.5
  3
txt
  4

  0
STYLE
  2
BYGG-027052$0$STANDARD
 70
     0
 40
0.0
 41
1.0
 50
0.0
 71
     0
 42
0.2
  3
txt
  4

  0
STYLE
  2
BYGG-027052$0$ISO
 70
     0
 40
0.0
 41
1.0
 50
0.0
 71
     0
 42
3.5
  3
txt
  4

  0
STYLE
  2
BYGG-027050$0$STANDARD
 70
     0
 40
0.0
 41
1.0
 50
0.0
 71
     0
 42
0.2
  3
txt
  4

  0
STYLE
  2
BYGG-027050$0$ISO
 70
     0
 40
0.0
 41
1.0
 50
0.0
 71
     0
 42
3.5
  3
txt
  4

  0
STYLE
  2
BYGG-027471$0$STANDARD
 70
     0
 40
0.0
 41
1.0
 50
0.0
 71
     0
 42
0.2
  3
txt
  4

  0
STYLE
  2
BYGG-027471$0$ISO
 70
     0
 40
0.0
 41
1.0
 50
0.0
 71
     0
 42
3.5
  3
txt
  4

  0
STYLE
  2
BYGG-027470$0$STANDARD
 70
     0
 40
0.0
 41
1.0
 50
0.0
 71
     0
 42
0.2
  3
txt
  4

  0
STYLE
  2
BYGG-027470$0$ISO
 70
     0
 40
0.0
 41
1.0
 50
0.0
 71
     0
 42
3.5
  3
txt
  4

  0
ENDTAB
  0
TABLE
  2
VIEW
 70
     0
  0
ENDTAB
  0
TABLE
  2
UCS
 70
     0
  0
ENDTAB
  0
TABLE
  2
APPID
 70
    23
  0
APPID
  2
ACAD
 70
     0
  0
APPID
  2
ACAD_DSTYLE_DIMTEXT_FILL
 70
     0
  0
APPID
  2
ACAD_DSTYLE_DIMEXT_LENGTH
 70
     0
  0
APPID
  2
ACAD_DSTYLE_DIMEXT_ENABLED
 70
     0
  0
APPID
  2
ACAD_DSTYLE_DIM_LINETYPE
 70
     0
  0
APPID
  2
ACAD_DSTYLE_DIM_EXT1_LINETYPE
 70
     0
  0
APPID
  2
ACAD_DSTYLE_DIM_EXT2_LINETYPE
 70
     0
  0
APPID
  2
ACAD_DSTYLE_DIMJOGGED_JOGA
 70
     0
  0
APPID
  2
ACAD_DSTYLE_DIMARC_LENGTH_
 70
     0
  0
APPID
  2
ACAD_PSEXT
 70
     0
  0
APPID
  2
ACAD_MLEADERVER
 70
     0
  0
APPID
  2
GENIUS_GENODEF_13
 70
     0
  0
APPID
  2
RC_PROFILE
 70
     0
  0
APPID
  2
ACAECLAYERSTANDARD
 70
     0
  0
APPID
  2
GENIUS_GENOBJ-N-FIL_13
 70
     0
  0
APPID
  2
ACADANNOTATIVE
 70
     0
  0
APPID
  2
ACAD_EXEMPT_FROM_CAD_STANDARDS
 70
     0
  0
APPID
  2
AEC_XDATA_BOUND_SPACE
 70
     0
  0
APPID
  2
ACAD_DSTYLE_DIMJAG
 70
     0
  0
APPID
  2
ACAD_DSTYLE_DIMTALN
 70
     0
  0
APPID
  2
GENIUS_GENREC_14
 70
     0
  0
APPID
  2
GENIUS_GENOBJ-N-REC_13
 70
     0
  0
APPID
  2
GENIUS_GENOREF_13
 70
     0
  0
ENDTAB
  0
TABLE
  2
DIMSTYLE
 70
    10
  0
DIMSTYLE
  2
MASKIN
 70
     0
  3

  4

  5

  6

  7

 40
0.0
 41
3.0
 42
1.5
 43
10.0
 44
1.5
 45
0.0
 46
0.0
 47
0.0
 48
0.0
140
3.5
141
-5.0
142
0.0
143
25.399999999999999
144
-1.0
145
0.0
146
1.0
147
1.0
 71
     0
 72
     0
 73
     0
 74
     0
 75
     0
 76
     0
 77
     1
 78
     8
170
     0
171
     0
172
     1
173
     0
174
     0
175
     0
176
   256
177
   256
178
     2
  0
DIMSTYLE
  2
BYGG-027459$0$MASKIN
 70
     0
  3

  4

  5

  6

  7

 40
0.0
 41
3.0
 42
1.5
 43
10.0
 44
1.5
 45
0.0
 46
0.0
 47
0.0
 48
0.0
140
3.0
141
-5.0
142
0.0
143
25.399999999999999
144
-1.0
145
0.0
146
1.0
147
1.0
 71
     0
 72
     0
 73
     0
 74
     0
 75
     0
 76
     0
 77
     1
 78
     8
170
     0
171
     0
172
     1
173
     0
174
     0
175
     0
176
   256
177
   256
178
     2
  0
DIMSTYLE
  2
BYGG-027377$0$MASKIN
 70
     0
  3

  4

  5

  6

  7

 40
0.0
 41
3.0
 42
1.5
 43
10.0
 44
1.5
 45
0.0
 46
0.0
 47
0.0
 48
0.0
140
3.0
141
-5.0
142
0.0
143
25.399999999999999
144
-1.0
145
0.0
146
1.0
147
1.0
 71
     0
 72
     0
 73
     0
 74
     0
 75
     0
 76
     0
 77
     1
 78
     8
170
     0
171
     0
172
     1
173
     0
174
     0
175
     0
176
   256
177
   256
178
     2
  0
DIMSTYLE
  2
BYGG-027396$0$MASKIN
 70
     0
  3

  4

  5

  6

  7

 40
0.0
 41
3.0
 42
1.5
 43
10.0
 44
1.5
 45
0.0
 46
0.0
 47
0.0
 48
0.0
140
3.0
141
-5.0
142
0.0
143
25.399999999999999
144
-1.0
145
0.0
146
1.0
147
1.0
 71
     0
 72
     0
 73
     0
 74
     0
 75
     0
 76
     0
 77
     1
 78
     8
170
     0
171
     0
172
     1
173
     0
174
     0
175
     0
176
   256
177
   256
178
     2
  0
DIMSTYLE
  2
BYGG-027379$0$MASKIN
 70
     0
  3

  4

  5

  6

  7

 40
0.0
 41
3.0
 42
1.5
 43
10.0
 44
1.5
 45
0.0
 46
0.0
 47
0.0
 48
0.0
140
3.0
141
-5.0
142
0.0
143
25.399999999999999
144
-1.0
145
0.0
146
1.0
147
1.0
 71
     0
 72
     0
 73
     0
 74
     0
 75
     0
 76
     0
 77
     1
 78
     8
170
     0
171
     0
172
     1
173
     0
174
     0
175
     0
176
   256
177
   256
178
     2
  0
DIMSTYLE
  2
BYGG-027392$0$MASKIN
 70
     0
  3

  4

  5

  6

  7

 40
0.0
 41
3.0
 42
1.5
 43
10.0
 44
1.5
 45
0.0
 46
0.0
 47
0.0
 48
0.0
140
3.0
141
-5.0
142
0.0
143
25.399999999999999
144
-1.0
145
0.0
146
1.0
147
1.0
 71
     0
 72
     0
 73
     0
 74
     0
 75
     0
 76
     0
 77
     1
 78
     8
170
     0
171
     0
172
     1
173
     0
174
     0
175
     0
176
   256
177
   256
178
     2
  0
DIMSTYLE
  2
BYGG-027052$0$MASKIN
 70
     0
  3

  4

  5

  6

  7

 40
0.0
 41
3.0
 42
1.5
 43
10.0
 44
1.5
 45
0.0
 46
0.0
 47
0.0
 48
0.0
140
3.0
141
-5.0
142
0.0
143
25.399999999999999
144
-1.0
145
0.0
146
1.0
147
1.0
 71
     0
 72
     0
 73
     0
 74
     0
 75
     0
 76
     0
 77
     1
 78
     8
170
     0
171
     0
172
     1
173
     0
174
     0
175
     0
176
   256
177
   256
178
     2
  0
DIMSTYLE
  2
BYGG-027050$0$MASKIN
 70
     0
  3

  4

  5

  6

  7

 40
0.0
 41
3.0
 42
1.5
 43
10.0
 44
1.5
 45
0.0
 46
0.0
 47
0.0
 48
0.0
140
3.0
141
-5.0
142
0.0
143
25.399999999999999
144
-1.0
145
0.0
146
1.0
147
1.0
 71
     0
 72
     0
 73
     0
 74
     0
 75
     0
 76
     0
 77
     1
 78
     8
170
     0
171
     0
172
     1
173
     0
174
     0
175
     0
176
   256
177
   256
178
     2
  0
DIMSTYLE
  2
BYGG-027471$0$MASKIN
 70
     0
  3

  4

  5

  6

  7

 40
0.0
 41
3.0
 42
1.5
 43
10.0
 44
1.5
 45
0.0
 46
0.0
 47
0.0
 48
0.0
140
3.0
141
-5.0
142
0.0
143
25.399999999999999
144
-1.0
145
0.0
146
1.0
147
1.0
 71
     0
 72
     0
 73
     0
 74
     0
 75
     0
 76
     0
 77
     1
 78
     8
170
     0
171
     0
172
     1
173
     0
174
     0
175
     0
176
   256
177
   256
178
     2
  0
DIMSTYLE
  2
BYGG-027470$0$MASKIN
 70
     0
  3

  4

  5

  6

  7

 40
0.0
 41
3.0
 42
1.5
 43
10.0
 44
1.5
 45
0.0
 46
0.0
 47
0.0
 48
0.0
140
3.0
141
-5.0
142
0.0
143
25.399999999999999
144
-1.0
145
0.0
146
1.0
147
1.0
 71
     0
 72
     0
 73
     0
 74
     0
 75
     0
 76
     0
 77
     1
 78
     8
170
     0
171
     0
172
     1
173
     0
174
     0
175
     0
176
   256
177
   256
178
     2
  0
ENDTAB
  0
ENDSEC
  0
SECTION
  2
BLOCKS
  0
BLOCK
  8
0
  2
$MODEL_SPACE
 70
     0
 10
0.0
 20
0.0
 30
0.0
  3
$MODEL_SPACE
  1

  0
ENDBLK
  5
37
  8
0
  0
BLOCK
 67
     1
  8
0
  2
$PAPER_SPACE
 70
     0
 10
0.0
 20
0.0
 30
0.0
  3
$PAPER_SPACE
  1

  0
ENDBLK
  5
35
 67
     1
  8
0
  0
BLOCK
  8
0
  2
*D37
 70
     1
 10
0.0
 20
0.0
 30
0.0
  3
*D37
  1

  0
LINE
  5
ED4
  8
SAPA_MATT
 10
139.12499999950211
 20
-56.999999999999972
 30
0.0
 11
170.4999999277413
 21
-56.999999999999979
 31
0.0
  0
LINE
  5
ED5
  8
SAPA_MATT
 10
138.9999999277413
 20
60.0
 30
0.0
 11
170.4999999277413
 21
60.0
 31
0.0
  0
LINE
  5
ED6
  8
SAPA_MATT
 10
168.9999999277413
 20
-53.999999999999979
 30
0.0
 11
168.9999999277413
 21
56.999999999999993
 31
0.0
  0
SOLID
  5
ED7
  8
SAPA_MATT
 10
168.4999999277413
 20
-53.999999999999979
 30
0.0
 11
169.4999999277413
 21
-53.999999999999979
 31
0.0
 12
168.9999999277413
 22
-56.999999999999979
 32
0.0
 13
168.9999999277413
 23
-56.999999999999979
 33
0.0
  0
SOLID
  5
ED8
  8
SAPA_MATT
 10
168.4999999277413
 20
56.999999999999993
 30
0.0
 11
169.4999999277413
 21
56.999999999999993
 31
0.0
 12
168.9999999277413
 22
60.0
 32
0.0
 13
168.9999999277413
 23
60.0
 33
0.0
  0
INSERT
  5
ED9
  8
0
  2
*U84
 10
0.0
 20
0.0
 30
0.0
  0
POINT
  5
EDA
  8
DEFPOINTS
 62
     0
 10
137.62499999950211
 20
-56.999999999999972
 30
0.0
  0
POINT
  5
EDB
  8
DEFPOINTS
 62
     0
 10
137.4999999277413
 20
60.0
 30
0.0
  0
POINT
  5
EDC
  8
DEFPOINTS
 62
     0
 10
168.9999999277413
 20
60.0
 30
0.0
  0
ENDBLK
  5
E33
  8
0
  0
BLOCK
  8
0
  2
*D38
 70
     1
 10
0.0
 20
0.0
 30
0.0
  3
*D38
  1

  0
LINE
  5
1C54
  8
SAPA_MATT
 10
138.9999999277413
 20
60.0
 30
0.0
 11
170.4999999277413
 21
60.0
 31
0.0
  0
LINE
  5
1C55
  8
SAPA_MATT
 10
132.2499999995072
 20
70.000000000011042
 30
0.0
 11
170.4999999277413
 21
70.000000000011028
 31
0.0
  0
LINE
  5
1C56
  8
SAPA_MATT
 10
168.9999999277413
 20
62.999999999999993
 30
0.0
 11
168.9999999277413
 21
67.000000000011028
 31
0.0
  0
SOLID
  5
1C57
  8
SAPA_MATT
 10
168.4999999277413
 20
62.999999999999993
 30
0.0
 11
169.4999999277413
 21
62.999999999999993
 31
0.0
 12
168.9999999277413
 22
60.0
 32
0.0
 13
168.9999999277413
 23
60.0
 33
0.0
  0
SOLID
  5
1C58
  8
SAPA_MATT
 10
168.4999999277413
 20
67.000000000011028
 30
0.0
 11
169.4999999277413
 21
67.000000000011028
 31
0.0
 12
168.9999999277413
 22
70.000000000011028
 32
0.0
 13
168.9999999277413
 23
70.000000000011028
 33
0.0
  0
TEXT
  8
SAPA_MATT
  40
3.5
  5
1C71
  62
2
  72
0
  71
0
 10
159.250
 20
58.8050
 30
0.000000
  1
10
  7
ISO
  0
POINT
  5
1C5A
  8
DEFPOINTS
 62
     0
 10
137.4999999277413
 20
60.0
 30
0.0
  0
POINT
  5
1C5B
  8
DEFPOINTS
 62
     0
 10
130.7499999995072
 20
70.000000000011042
 30
0.0
  0
POINT
  5
1C5C
  8
DEFPOINTS
 62
     0
 10
168.9999999277413
 20
70.000000000011028
 30
0.0
  0
ENDBLK
  5
E3F
  8
0
  0
BLOCK
  8
0
  2
*D39
 70
     1
 10
0.0
 20
0.0
 30
0.0
  3
*D39
  1

  0
LINE
  5
EC2
  8
SAPA_MATT
 10
14.00000000000003
 20
60.0
 30
0.0
 11
14.00000000000003
 21
102.5000000000001
 31
0.0
  0
LINE
  5
EC3
  8
SAPA_MATT
 10
85.500000000180634
 20
56.500000000019853
 30
0.0
 11
85.500000000180634
 21
102.5000000000001
 31
0.0
  0
LINE
  5
EC4
  8
SAPA_MATT
 10
17.000000000000028
 20
101.0000000000001
 30
0.0
 11
82.500000000180648
 21
101.0000000000001
 31
0.0
  0
SOLID
  5
EC5
  8
SAPA_MATT
 10
17.000000000000028
 20
101.5000000000001
 30
0.0
 11
17.000000000000028
 21
100.5000000000001
 31
0.0
 12
14.00000000000003
 22
101.0000000000001
 32
0.0
 13
14.00000000000003
 23
101.0000000000001
 33
0.0
  0
SOLID
  5
EC6
  8
SAPA_MATT
 10
82.500000000180648
 20
101.5000000000001
 30
0.0
 11
82.500000000180648
 21
100.5000000000001
 31
0.0
 12
85.500000000180634
 22
101.0000000000001
 32
0.0
 13
85.500000000180634
 23
101.0000000000001
 33
0.0
  0
INSERT
  5
EC7
  8
0
  2
*U83
 10
0.0
 20
0.0
 30
0.0
  0
POINT
  5
EC8
  8
DEFPOINTS
 62
     0
 10
14.00000000000003
 20
58.5
 30
0.0
  0
POINT
  5
EC9
  8
DEFPOINTS
 62
     0
 10
85.500000000180634
 20
55.000000000019853
 30
0.0
  0
POINT
  5
ECA
  8
DEFPOINTS
 62
     0
 10
85.500000000180634
 20
101.0000000000001
 30
0.0
  0
ENDBLK
  5
E4B
  8
0
  0
BLOCK
  8
0
  2
*D40
 70
     1
 10
0.0
 20
0.0
 30
0.0
  3
*D40
  1

  0
LINE
  5
1C4B
  8
SAPA_MATT
 10
85.500000000180634
 20
56.500000000019853
 30
0.0
 11
85.500000000180634
 21
102.5000000000005
 31
0.0
  0
LINE
  5
1C4C
  8
SAPA_MATT
 10
132.49999999950211
 20
56.500000000019853
 30
0.0
 11
132.49999999950211
 21
102.5000000000005
 31
0.0
  0
LINE
  5
1C4D
  8
SAPA_MATT
 10
88.500000000180648
 20
101.0000000000005
 30
0.0
 11
129.49999999950211
 21
101.0000000000005
 31
0.0
  0
SOLID
  5
1C4E
  8
SAPA_MATT
 10
88.500000000180648
 20
101.5000000000005
 30
0.0
 11
88.500000000180648
 21
100.5000000000005
 31
0.0
 12
85.500000000180634
 22
101.0000000000005
 32
0.0
 13
85.500000000180634
 23
101.0000000000005
 33
0.0
  0
SOLID
  5
1C4F
  8
SAPA_MATT
 10
129.49999999950211
 20
101.5000000000005
 30
0.0
 11
129.49999999950211
 21
100.5000000000005
 31
0.0
 12
132.49999999950211
 22
101.0000000000005
 32
0.0
 13
132.49999999950211
 23
101.0000000000005
 33
0.0
  0
TEXT
  8
SAPA_MATT
  40
3.5
  5
1C72
  62
2
  72
0
  71
0
 10
102.000
 20
97.5550
 30
0.000000
  1
47
  7
ISO
  0
POINT
  5
1C51
  8
DEFPOINTS
 62
     0
 10
85.500000000180634
 20
55.000000000019853
 30
0.0
  0
POINT
  5
1C52
  8
DEFPOINTS
 62
     0
 10
132.49999999950211
 20
55.000000000019853
 30
0.0
  0
POINT
  5
1C53
  8
DEFPOINTS
 62
     0
 10
132.49999999950211
 20
101.0000000000005
 30
0.0
  0
ENDBLK
  5
E57
  8
0
  0
BLOCK
  8
0
  2
*D41
 70
     1
 10
0.0
 20
0.0
 30
0.0
  3
*D41
  1

  0
LINE
  5
1C40
  8
SAPA_MATT
 10
132.49999999950211
 20
56.500000000018979
 30
0.0
 11
132.49999999950211
 21
102.5000000000001
 31
0.0
  0
LINE
  5
1C41
  8
SAPA_MATT
 10
138.99999999950211
 20
60.0
 30
0.0
 11
138.99999999950211
 21
102.5000000000001
 31
0.0
  0
LINE
  5
1C42
  8
SAPA_MATT
 10
129.49999999950211
 20
101.0000000000001
 30
0.0
 11
126.49999999950209
 21
101.0000000000001
 31
0.0
  0
LINE
  5
1C43
  8
SAPA_MATT
 10
141.99999999950211
 20
101.0000000000001
 30
0.0
 11
144.99999999950211
 21
101.0000000000001
 31
0.0
  0
TEXT
  8
SAPA_MATT
  40
3.5
  5
1C73
  62
2
  72
0
  71
0
 10
128.750
 20
97.5550
 30
0.000000
  1
6.5
  7
ISO
  0
LINE
  5
1C45
  8
SAPA_MATT
 10
132.49999999950211
 20
101.0000000000001
 30
0.0
 11
138.99999999950211
 21
101.0000000000001
 31
0.0
  0
SOLID
  5
1C46
  8
SAPA_MATT
 10
129.49999999950211
 20
101.5000000000001
 30
0.0
 11
129.49999999950211
 21
100.5000000000001
 31
0.0
 12
132.49999999950211
 22
101.0000000000001
 32
0.0
 13
132.49999999950211
 23
101.0000000000001
 33
0.0
  0
SOLID
  5
1C47
  8
SAPA_MATT
 10
141.99999999950211
 20
101.5000000000001
 30
0.0
 11
141.99999999950211
 21
100.5000000000001
 31
0.0
 12
138.99999999950211
 22
101.0000000000001
 32
0.0
 13
138.99999999950211
 23
101.0000000000001
 33
0.0
  0
POINT
  5
1C48
  8
DEFPOINTS
 62
     0
 10
132.49999999950211
 20
55.000000000018979
 30
0.0
  0
POINT
  5
1C49
  8
DEFPOINTS
 62
     0
 10
138.99999999950211
 20
58.5
 30
0.0
  0
POINT
  5
1C4A
  8
DEFPOINTS
 62
     0
 10
138.99999999950211
 20
101.0000000000001
 30
0.0
  0
ENDBLK
  5
E63
  8
0
  0
BLOCK
  8
0
  2
*D42
 70
     1
 10
0.0
 20
0.0
 30
0.0
  3
*D42
  1

  0
LINE
  5
EA5
  8
SAPA_MATT
 10
14.00000000000003
 20
60.0
 30
0.0
 11
14.00000000000003
 21
114.5000000000001
 31
0.0
  0
LINE
  5
EA6
  8
SAPA_MATT
 10
138.99999999950211
 20
61.5
 30
0.0
 11
138.99999999950211
 21
114.5000000000001
 31
0.0
  0
LINE
  5
EA7
  8
SAPA_MATT
 10
17.000000000000028
 20
113.0000000000001
 30
0.0
 11
135.99999999950211
 21
113.0000000000001
 31
0.0
  0
SOLID
  5
EA8
  8
SAPA_MATT
 10
17.000000000000028
 20
113.5000000000001
 30
0.0
 11
17.000000000000028
 21
112.5000000000001
 31
0.0
 12
14.00000000000003
 22
113.0000000000001
 32
0.0
 13
14.00000000000003
 23
113.0000000000001
 33
0.0
  0
SOLID
  5
EA9
  8
SAPA_MATT
 10
135.99999999950211
 20
113.5000000000001
 30
0.0
 11
135.99999999950211
 21
112.5000000000001
 31
0.0
 12
138.99999999950211
 22
113.0000000000001
 32
0.0
 13
138.99999999950211
 23
113.0000000000001
 33
0.0
  0
INSERT
  5
EAA
  8
0
  2
*U82
 10
0.0
 20
0.0
 30
0.0
  0
POINT
  5
EAB
  8
DEFPOINTS
 62
     0
 10
14.00000000000003
 20
58.5
 30
0.0
  0
POINT
  5
EAC
  8
DEFPOINTS
 62
     0
 10
138.99999999950211
 20
60.0
 30
0.0
  0
POINT
  5
EAD
  8
DEFPOINTS
 62
     0
 10
138.99999999950211
 20
113.0000000000001
 30
0.0
  0
ENDBLK
  5
E71
  8
0
  0
BLOCK
  8
0
  2
*D43
 70
     1
 10
0.0
 20
0.0
 30
0.0
  3
*D43
  1

  0
LINE
  5
E9C
  8
SAPA_MATT
 10
-73.999999999999886
 20
59.500000000001229
 30
0.0
 11
-73.999999999999886
 21
102.5000000000001
 31
0.0
  0
LINE
  5
E9D
  8
SAPA_MATT
 10
14.00000000000011
 20
59.999999999999432
 30
0.0
 11
14.000000000000121
 21
102.5000000000001
 31
0.0
  0
LINE
  5
E9E
  8
SAPA_MATT
 10
-70.999999999999886
 20
101.0000000000001
 30
0.0
 11
11.00000000000011
 21
101.0000000000001
 31
0.0
  0
SOLID
  5
E9F
  8
SAPA_MATT
 10
-70.999999999999886
 20
101.5000000000001
 30
0.0
 11
-70.999999999999886
 21
100.5000000000001
 31
0.0
 12
-73.999999999999886
 22
101.0000000000001
 32
0.0
 13
-73.999999999999886
 23
101.0000000000001
 33
0.0
  0
SOLID
  5
EA0
  8
SAPA_MATT
 10
11.00000000000011
 20
101.5000000000001
 30
0.0
 11
11.00000000000011
 21
100.5000000000001
 31
0.0
 12
14.00000000000011
 22
101.0000000000001
 32
0.0
 13
14.00000000000011
 23
101.0000000000001
 33
0.0
  0
INSERT
  5
EA1
  8
0
  2
*U81
 10
0.0
 20
0.0
 30
0.0
  0
POINT
  5
EA2
  8
DEFPOINTS
 62
     0
 10
-73.999999999999886
 20
58.000000000001243
 30
0.0
  0
POINT
  5
EA3
  8
DEFPOINTS
 62
     0
 10
14.00000000000011
 20
58.499999999999417
 30
0.0
  0
POINT
  5
EA4
  8
DEFPOINTS
 62
     0
 10
14.00000000000011
 20
101.0000000000001
 30
0.0
  0
ENDBLK
  5
E7D
  8
0
  0
BLOCK
  8
0
  2
*D44
 70
     1
 10
0.0
 20
0.0
 30
0.0
  3
*D44
  1

  0
LINE
  5
E93
  8
SAPA_MATT
 10
150.49999992774141
 20
-70.000000000005485
 30
0.0
 11
182.4999999277415
 21
-70.0000000000055
 31
0.0
  0
LINE
  5
E94
  8
SAPA_MATT
 10
167.49999992773959
 20
60.000000000015859
 30
0.0
 11
182.49999992774161
 21
60.000000000015852
 31
0.0
  0
LINE
  5
E95
  8
SAPA_MATT
 10
180.9999999277415
 20
-67.000000000005485
 30
0.0
 11
180.99999992774161
 21
57.000000000015852
 31
0.0
  0
SOLID
  5
E96
  8
SAPA_MATT
 10
180.4999999277415
 20
-67.000000000005485
 30
0.0
 11
181.4999999277415
 21
-67.000000000005485
 31
0.0
 12
180.9999999277415
 22
-70.0000000000055
 32
0.0
 13
180.9999999277415
 23
-70.0000000000055
 33
0.0
  0
SOLID
  5
E97
  8
SAPA_MATT
 10
180.49999992774161
 20
57.000000000015852
 30
0.0
 11
181.49999992774161
 21
57.000000000015852
 31
0.0
 12
180.99999992774161
 22
60.000000000015852
 32
0.0
 13
180.99999992774161
 23
60.000000000015852
 33
0.0
  0
INSERT
  5
E98
  8
0
  2
*U80
 10
0.0
 20
0.0
 30
0.0
  0
POINT
  5
E99
  8
DEFPOINTS
 62
     0
 10
148.99999992774141
 20
-70.000000000005485
 30
0.0
  0
POINT
  5
E9A
  8
DEFPOINTS
 62
     0
 10
165.99999992773971
 20
60.000000000015859
 30
0.0
  0
POINT
  5
E9B
  8
DEFPOINTS
 62
     0
 10
180.99999992774161
 20
60.000000000015852
 30
0.0
  0
ENDBLK
  5
E89
  8
0
  0
BLOCK
  8
0
  2
*X45
 70
     1
 10
0.0
 20
0.0
 30
0.0
  3
*X45
  1

  0
LINE
  5
F4C
  8
0
 62
     0
 10
148.99999992774141
 20
59.790954887131448
 30
0.0
 11
148.83808603072671
 21
59.952868784146162
 31
0.0
  0
LINE
  5
F4D
  8
0
 62
     0
 10
148.99999992774141
 20
58.668422871997798
 30
0.0
 11
147.9499301213892
 21
59.718492678349953
 31
0.0
  0
LINE
  5
F4E
  8
0
 62
     0
 10
148.99999992774141
 20
57.545890856864162
 30
0.0
 11
147.02840957960129
 21
59.517481205004273
 31
0.0
  0
LINE
  5
F4F
  8
0
 62
     0
 10
148.99999992774141
 20
56.423358841730519
 30
0.0
 11
146.07057661512809
 21
59.352782154343792
 31
0.0
  0
LINE
  5
F50
  8
0
 62
     0
 10
148.99999992774141
 20
55.300826826596882
 30
0.0
 11
145.07276903545329
 21
59.22805771888499
 31
0.0
  0
LINE
  5
F51
  8
0
 62
     0
 10
148.99999992774141
 20
54.178294811463232
 30
0.0
 11
144.0303604129688
 21
59.147934326235827
 31
0.0
  0
LINE
  5
F52
  8
0
 62
     0
 10
148.99999992774141
 20
53.055762796329581
 30
0.0
 11
142.937381363318
 21
59.118381360752927
 31
0.0
  0
LINE
  5
F53
  8
0
 62
     0
 10
148.99999992774141
 20
51.933230781195938
 30
0.0
 11
141.78591990858709
 21
59.147310800350247
 31
0.0
  0
LINE
  5
F54
  8
0
 62
     0
 10
148.99999992774141
 20
50.810698766062281
 30
0.0
 11
140.565119071797
 21
59.245579622006659
 31
0.0
  0
LINE
  5
F55
  8
0
 62
     0
 10
145.76608656588181
 20
52.922080112788286
 30
0.0
 11
139.25938028645029
 21
59.428786392219727
 31
0.0
  0
LINE
  5
F56
  8
0
 62
     0
 10
148.99999992774141
 20
49.688166750928659
 30
0.0
 11
148.43999006964339
 21
50.248176609026658
 31
0.0
  0
LINE
  5
F57
  8
0
 62
     0
 10
144.2907394283969
 20
53.274895235139468
 30
0.0
 11
138.99849667114091
 21
58.567137992395431
 31
0.0
  0
LINE
  5
F58
  8
0
 62
     0
 10
148.99999992774141
 20
48.565634735795001
 30
0.0
 11
148.92363608600769
 21
48.641998577528703
 31
0.0
  0
LINE
  5
F59
  8
0
 62
     0
 10
143.22638571834861
 20
53.216716930054162
 30
0.0
 11
138.99999992774141
 21
57.443102720661372
 31
0.0
  0
LINE
  5
F5A
  8
0
 62
     0
 10
142.35075441075239
 20
52.96981622251667
 30
0.0
 11
138.99999992774141
 21
56.320570705527729
 31
0.0
  0
LINE
  5
F5B
  8
0
 62
     0
 10
141.60217573132221
 20
52.595862886813222
 30
0.0
 11
138.99999992774141
 21
55.1980386903941
 31
0.0
  0
LINE
  5
F5C
  8
0
 62
     0
 10
140.95430362485209
 20
52.121202978149732
 30
0.0
 11
138.99999992774141
 21
54.075506675260471
 31
0.0
  0
LINE
  5
F5D
  8
0
 62
     0
 10
140.39481471664041
 20
51.558159871227808
 30
0.0
 11
138.99999992774141
 21
52.952974660126841
 31
0.0
  0
LINE
  5
F5E
  8
0
 62
     0
 10
139.91916163996731
 20
50.911280932767198
 30
0.0
 11
138.9999999277413
 21
51.830442644993191
 31
0.0
  0
LINE
  5
F5F
  8
0
 62
     0
 10
139.5287522544227
 20
50.179158303178141
 30
0.0
 11
138.9999999277413
 21
50.707910629859569
 31
0.0
  0
LINE
  5
F60
  8
0
 62
     0
 10
139.2314874681702
 20
49.35389107429711
 30
0.0
 11
138.9999999277413
 21
49.58537861472594
 31
0.0
  0
LINE
  5
F61
  8
0
 62
     0
 10
139.04522034170191
 20
48.417626185631718
 30
0.0
 11
138.9999999277413
 21
48.462846599592311
 31
0.0
  0
LINE
  5
F62
  8
0
 62
     0
 10
148.99279897801131
 20
47.96491761599821
 30
0.0
 11
148.99999992774141
 21
47.972118565728252
 31
0.0
  0
LINE
  5
F63
  8
0
 62
     0
 10
148.8651857786154
 20
48.959836431735873
 30
0.0
 11
148.99999992774141
 21
49.094650580861888
 31
0.0
  0
LINE
  5
F64
  8
0
 62
     0
 10
148.61341571770799
 20
49.830598385962112
 30
0.0
 11
148.9999999277413
 21
50.217182595995517
 31
0.0
  0
LINE
  5
F65
  8
0
 62
     0
 10
148.26229306069871
 20
50.602007744086492
 30
0.0
 11
148.99999992774141
 21
51.339714611129203
 31
0.0
  0
LINE
  5
F66
  8
0
 62
     0
 10
147.82338657535109
 20
51.28563327387257
 30
0.0
 11
148.99999992774141
 21
52.462246626262832
 31
0.0
  0
LINE
  5
F67
  8
0
 62
     0
 10
147.3007430412959
 20
51.885521754951029
 30
0.0
 11
148.99999992774141
 21
53.584778641396483
 31
0.0
  0
LINE
  5
F68
  8
0
 62
     0
 10
146.69249089580279
 20
52.399801624591518
 30
0.0
 11
148.99999992774141
 21
54.707310656530119
 31
0.0
  0
LINE
  5
F69
  8
0
 62
     0
 10
145.99012238385629
 20
52.819965127778687
 30
0.0
 11
148.9999999277413
 21
55.829842671663748
 31
0.0
  0
LINE
  5
F6A
  8
0
 62
     0
 10
145.1746978766773
 20
53.12707263573332
 30
0.0
 11
148.99999992774141
 21
56.952374686797398
 31
0.0
  0
LINE
  5
F6B
  8
0
 62
     0
 10
144.20478292538701
 20
53.279689699576622
 30
0.0
 11
148.99999992774141
 21
58.074906701931042
 31
0.0
  0
LINE
  5
F6C
  8
0
 62
     0
 10
138.9999999277413
 20
48.074906701930942
 30
0.0
 11
139.01437504552271
 21
48.089281819712362
 31
0.0
  0
LINE
  5
F6D
  8
0
 62
     0
 10
142.9652894400887
 20
53.162728229412011
 30
0.0
 11
148.99999992774141
 21
59.197438717064699
 31
0.0
  0
LINE
  5
F6E
  8
0
 62
     0
 10
138.9999999277413
 20
49.197438717064607
 30
0.0
 11
139.2621674097004
 21
49.459606199023732
 31
0.0
  0
LINE
  5
F6F
  8
0
 62
     0
 10
138.9999999277413
 20
50.319970732198257
 30
0.0
 11
148.55332920462089
 21
59.873300009077823
 31
0.0
  0
LINE
  5
F70
  8
0
 62
     0
 10
138.9999999277413
 20
51.442502747331893
 30
0.0
 11
147.08638223332139
 21
59.528885052912052
 31
0.0
  0
LINE
  5
F71
  8
0
 62
     0
 10
138.9999999277413
 20
52.565034762465572
 30
0.0
 11
145.74135694742461
 21
59.306391782148857
 31
0.0
  0
LINE
  5
F72
  8
0
 62
     0
 10
138.9999999277413
 20
53.687566777599223
 30
0.0
 11
144.4893749164703
 21
59.176941766328213
 31
0.0
  0
LINE
  5
F73
  8
0
 62
     0
 10
138.99999992774141
 20
54.810098792732887
 30
0.0
 11
143.31215802026259
 21
59.122256885254068
 31
0.0
  0
LINE
  5
F74
  8
0
 62
     0
 10
138.99999992774141
 20
55.932630807866538
 30
0.0
 11
142.19726507093191
 21
59.129895951057058
 31
0.0
  0
LINE
  5
F75
  8
0
 62
     0
 10
138.99999992774141
 20
57.055162823000188
 30
0.0
 11
141.1357776586442
 21
59.190940553903019
 31
0.0
  0
LINE
  5
F76
  8
0
 62
     0
 10
138.99999992774141
 20
58.177694838133853
 30
0.0
 11
140.1210510364555
 21
59.29874594684803
 31
0.0
  0
LINE
  5
F77
  8
0
 62
     0
 10
138.85117536341849
 20
59.151402288944603
 30
0.0
 11
139.14798551122061
 21
59.448212436746687
 31
0.0
  0
ENDBLK
  5
F79
  8
0
  0
BLOCK
  8
0
  2
*X46
 70
     1
 10
0.0
 20
0.0
 30
0.0
  3
*X46
  1

  0
LINE
  5
F8F
  8
0
 62
     0
 10
148.43122837829671
 20
46.74373365257626
 30
0.0
 11
148.8281033782967
 21
47.43114131683015
 31
0.0
  0
LINE
  5
F90
  8
0
 62
     0
 10
147.2406033782967
 20
44.68151065981457
 30
0.0
 11
147.63747837829669
 21
45.368918324068467
 31
0.0
  0
LINE
  5
F91
  8
0
 62
     0
 10
146.04997837829669
 20
42.619287667052873
 30
0.0
 11
146.44685337829671
 21
43.30669533130677
 31
0.0
  0
LINE
  5
F92
  8
0
 62
     0
 10
148.43122866279279
 20
49.493364145337928
 30
0.0
 11
148.6183066741481
 21
49.817392765984252
 31
0.0
  0
LINE
  5
F93
  8
0
 62
     0
 10
147.24060366279281
 20
47.431141152576252
 30
0.0
 11
147.6374786627928
 21
48.118548816830142
 31
0.0
  0
LINE
  5
F94
  8
0
 62
     0
 10
146.0499786627928
 20
45.368918159814548
 30
0.0
 11
146.44685366279279
 21
46.056325824068452
 31
0.0
  0
LINE
  5
F95
  8
0
 62
     0
 10
144.85935366279281
 20
43.306695167052858
 30
0.0
 11
145.25622866279281
 21
43.994102831306762
 31
0.0
  0
LINE
  5
F96
  8
0
 62
     0
 10
147.2406039472888
 20
50.180771645337948
 30
0.0
 11
147.6374789472888
 21
50.868179309591852
 31
0.0
  0
LINE
  5
F97
  8
0
 62
     0
 10
146.04997894728891
 20
48.118548652576251
 30
0.0
 11
146.44685394728879
 21
48.805956316830148
 31
0.0
  0
LINE
  5
F98
  8
0
 62
     0
 10
144.85935394728889
 20
46.056325659814568
 30
0.0
 11
145.25622894728889
 21
46.743733324068472
 31
0.0
  0
LINE
  5
F99
  8
0
 62
     0
 10
143.66872894728891
 20
43.994102667052871
 30
0.0
 11
144.06560394728891
 21
44.681510331306768
 31
0.0
  0
LINE
  5
F9A
  8
0
 62
     0
 10
142.66048067271791
 20
42.247765428852162
 30
0.0
 11
142.87497894728889
 21
42.619287338545078
 31
0.0
  0
LINE
  5
F9B
  8
0
 62
     0
 10
146.0499792317849
 20
50.86817914533794
 30
0.0
 11
146.4468542317849
 21
51.555586809591837
 31
0.0
  0
LINE
  5
F9C
  8
0
 62
     0
 10
144.85935423178489
 20
48.80595615257625
 30
0.0
 11
145.256229231785
 21
49.49336381683014
 31
0.0
  0
LINE
  5
F9D
  8
0
 62
     0
 10
143.66872923178499
 20
46.74373315981456
 30
0.0
 11
144.06560423178499
 21
47.431140824068457
 31
0.0
  0
LINE
  5
F9E
  8
0
 62
     0
 10
142.47810423178501
 20
44.68151016705287
 30
0.0
 11
142.87497923178501
 21
45.36891783130676
 31
0.0
  0
LINE
  5
F9F
  8
0
 62
     0
 10
141.41983199667209
 20
42.84852888759778
 30
0.0
 11
141.68435423178499
 21
43.30669483854507
 31
0.0
  0
LINE
  5
FA0
  8
0
 62
     0
 10
144.859354516281
 20
51.555586645337947
 30
0.0
 11
145.256229516281
 21
52.24299430959185
 31
0.0
  0
LINE
  5
FA1
  8
0
 62
     0
 10
143.66872951628099
 20
49.493363652576249
 30
0.0
 11
144.06560451628101
 21
50.180771316830153
 31
0.0
  0
LINE
  5
FA2
  8
0
 62
     0
 10
142.47810451628109
 20
47.431140659814567
 30
0.0
 11
142.87497951628109
 21
48.118548324068463
 31
0.0
  0
LINE
  5
FA3
  8
0
 62
     0
 10
141.28747951628111
 20
45.36891766705287
 30
0.0
 11
141.6843545162811
 21
46.056325331306773
 31
0.0
  0
LINE
  5
FA4
  8
0
 62
     0
 10
140.37616464355861
 20
43.790474005804349
 30
0.0
 11
140.49372951628109
 21
43.994102338545083
 31
0.0
  0
LINE
  5
FA5
  8
0
 62
     0
 10
143.66872980077719
 20
52.242994145337953
 30
0.0
 11
144.06560480077721
 21
52.930401809591842
 31
0.0
  0
LINE
  5
FA6
  8
0
 62
     0
 10
142.4781048007772
 20
50.180771152576249
 30
0.0
 11
142.8749798007772
 21
50.868178816830152
 31
0.0
  0
LINE
  5
FA7
  8
0
 62
     0
 10
141.28747980077719
 20
48.118548159814559
 30
0.0
 11
141.68435480077719
 21
48.805955824068462
 31
0.0
  0
LINE
  5
FA8
  8
0
 62
     0
 10
140.09685480077721
 20
46.056325167052869
 30
0.0
 11
140.4937298007772
 21
46.743732831306772
 31
0.0
  0
LINE
  5
FA9
  8
0
 62
     0
 10
142.4781050852732
 20
52.930401645337952
 30
0.0
 11
142.54131339092169
 21
53.039881642181321
 31
0.0
  0
LINE
  5
FAA
  8
0
 62
     0
 10
141.2874800852733
 20
50.868178652576248
 30
0.0
 11
141.6843550852733
 21
51.555586316830151
 31
0.0
  0
LINE
  5
FAB
  8
0
 62
     0
 10
140.09685508527329
 20
48.805955659814558
 30
0.0
 11
140.49373008527331
 21
49.493363324068461
 31
0.0
  0
LINE
  5
FAC
  8
0
 62
     0
 10
139.03797136424791
 20
46.971915255690973
 30
0.0
 11
139.3031050852733
 21
47.431140331306771
 31
0.0
  0
LINE
  5
FAD
  8
0
 62
     0
 10
146.44684342093331
 20
51.555556586874609
 30
0.0
 11
146.04996842093331
 21
52.242964251128498
 31
0.0
  0
LINE
  5
FAE
  8
0
 62
     0
 10
147.63746842093329
 20
49.493333594112919
 30
0.0
 11
147.24059342093329
 21
50.180741258366808
 31
0.0
  0
LINE
  5
FAF
  8
0
 62
     0
 10
148.8280934209333
 20
47.431110601351229
 30
0.0
 11
148.43121842093331
 21
48.118518265605132
 31
0.0
  0
LINE
  5
FB0
  8
0
 62
     0
 10
144.06559370542951
 20
52.9303720796363
 30
0.0
 11
143.86242080378619
 21
53.282277868003632
 31
0.0
  0
LINE
  5
FB1
  8
0
 62
     0
 10
145.2562187054294
 20
50.86814908687461
 30
0.0
 11
144.85934370542941
 21
51.555556751128499
 31
0.0
  0
LINE
  5
FB2
  8
0
 62
     0
 10
146.44684370542939
 20
48.80592609411292
 30
0.0
 11
146.04996870542939
 21
49.493333758366809
 31
0.0
  0
LINE
  5
FB3
  8
0
 62
     0
 10
147.6374687054294
 20
46.74370310135123
 30
0.0
 11
147.2405937054294
 21
47.431110765605119
 31
0.0
  0
LINE
  5
FB4
  8
0
 62
     0
 10
148.508994618332
 20
45.234175940090999
 30
0.0
 11
148.43121870542939
 21
45.368887772843429
 31
0.0
  0
LINE
  5
FB5
  8
0
 62
     0
 10
142.87496898992549
 20
52.2429645796363
 30
0.0
 11
142.47809398992561
 21
52.930372243890197
 31
0.0
  0
LINE
  5
FB6
  8
0
 62
     0
 10
144.0655939899255
 20
50.180741586874611
 30
0.0
 11
143.66871898992551
 21
50.8681492511285
 31
0.0
  0
LINE
  5
FB7
  8
0
 62
     0
 10
145.25621898992549
 20
48.118518594112921
 30
0.0
 11
144.85934398992549
 21
48.805926258366817
 31
0.0
  0
LINE
  5
FB8
  8
0
 62
     0
 10
146.4468439899255
 20
46.056295601351231
 30
0.0
 11
146.0499689899255
 21
46.74370326560512
 31
0.0
  0
LINE
  5
FB9
  8
0
 62
     0
 10
147.63746898992551
 20
43.994072608589541
 30
0.0
 11
147.24059398992549
 21
44.68148027284343
 31
0.0
  0
LINE
  5
FBA
  8
0
 62
     0
 10
141.68434427442159
 20
51.555557079636287
 30
0.0
 11
141.2874692744216
 21
52.242964743890191
 31
0.0
  0
LINE
  5
FBB
  8
0
 62
     0
 10
142.8749692744216
 20
49.493334086874597
 30
0.0
 11
142.47809427442161
 21
50.180741751128501
 31
0.0
  0
LINE
  5
FBC
  8
0
 62
     0
 10
144.06559427442161
 20
47.431111094112907
 30
0.0
 11
143.66871927442159
 21
48.118518758366811
 31
0.0
  0
LINE
  5
FBD
  8
0
 62
     0
 10
145.2562192744216
 20
45.368888101351217
 30
0.0
 11
144.8593442744216
 21
46.056295765605121
 31
0.0
  0
LINE
  5
FBE
  8
0
 62
     0
 10
146.44684427442161
 20
43.306665108589527
 30
0.0
 11
146.04996927442161
 21
43.994072772843431
 31
0.0
  0
LINE
  5
FBF
  8
0
 62
     0
 10
140.4937195589178
 20
50.868149579636302
 30
0.0
 11
140.21983906123731
 21
51.342524516821001
 31
0.0
  0
LINE
  5
FC0
  8
0
 62
     0
 10
141.6843445589177
 20
48.805926586874612
 30
0.0
 11
141.28746955891771
 21
49.493334251128502
 31
0.0
  0
LINE
  5
FC1
  8
0
 62
     0
 10
142.87496955891771
 20
46.743703594112922
 30
0.0
 11
142.47809455891769
 21
47.431111258366819
 31
0.0
  0
LINE
  5
FC2
  8
0
 62
     0
 10
144.0655945589177
 20
44.681480601351232
 30
0.0
 11
143.6687195589177
 21
45.368888265605122
 31
0.0
  0
LINE
  5
FC3
  8
0
 62
     0
 10
145.25621955891771
 20
42.619257608589542
 30
0.0
 11
144.85934455891771
 21
43.306665272843439
 31
0.0
  0
LINE
  5
FC4
  8
0
 62
     0
 10
140.4937198434138
 20
48.11851908687462
 30
0.0
 11
140.09684484341381
 21
48.805926751128503
 31
0.0
  0
LINE
  5
FC5
  8
0
 62
     0
 10
141.68434484341381
 20
46.056296094112923
 30
0.0
 11
141.28746984341379
 21
46.74370375836682
 31
0.0
  0
LINE
  5
FC6
  8
0
 62
     0
 10
142.87496984341379
 20
43.994073101351233
 30
0.0
 11
142.4780948434138
 21
44.681480765605123
 31
0.0
  0
LINE
  5
FC7
  8
0
 62
     0
 10
144.0018313472743
 20
42.042291723571417
 30
0.0
 11
143.66871984341381
 21
42.61925777284344
 31
0.0
  0
LINE
  5
FC8
  8
0
 62
     0
 10
139.3030951279099
 20
47.431111586874607
 30
0.0
 11
139.00628919785311
 21
47.945194537720759
 31
0.0
  0
LINE
  5
FC9
  8
0
 62
     0
 10
140.49372012790991
 20
45.368888594112917
 30
0.0
 11
140.09684512790989
 21
46.056296258366821
 31
0.0
  0
LINE
  5
FCA
  8
0
 62
     0
 10
141.68434512790989
 20
43.306665601351227
 30
0.0
 11
141.2874701279099
 21
43.994073265605117
 31
0.0
  0
LINE
  5
FCB
  8
0
 62
     0
 10
145.25625000000011
 20
42.619265000014948
 30
0.0
 11
146.0500000000001
 21
42.619265000014948
 31
0.0
  0
LINE
  5
FCC
  8
0
 62
     0
 10
142.87500000000011
 20
42.619265000014948
 30
0.0
 11
143.6687500000001
 21
42.619265000014948
 31
0.0
  0
LINE
  5
FCD
  8
0
 62
     0
 10
147.63749999999999
 20
43.994080000014947
 30
0.0
 11
147.78777218174429
 21
43.994080000014947
 31
0.0
  0
LINE
  5
FCE
  8
0
 62
     0
 10
145.25625000000011
 20
43.994080000014947
 30
0.0
 11
146.0500000000001
 21
43.994080000014947
 31
0.0
  0
LINE
  5
FCF
  8
0
 62
     0
 10
142.87500000000011
 20
43.994080000014947
 30
0.0
 11
143.6687500000001
 21
43.994080000014947
 31
0.0
  0
LINE
  5
FD0
  8
0
 62
     0
 10
140.49375000000009
 20
43.994080000014947
 30
0.0
 11
141.28749999999999
 21
43.994080000014947
 31
0.0
  0
LINE
  5
FD1
  8
0
 62
     0
 10
147.63749999999999
 20
45.368895000014938
 30
0.0
 11
148.43125000000001
 21
45.368895000014938
 31
0.0
  0
LINE
  5
FD2
  8
0
 62
     0
 10
145.25625000000011
 20
45.368895000014938
 30
0.0
 11
146.0500000000001
 21
45.368895000014938
 31
0.0
  0
LINE
  5
FD3
  8
0
 62
     0
 10
142.87500000000011
 20
45.368895000014938
 30
0.0
 11
143.6687500000001
 21
45.368895000014938
 31
0.0
  0
LINE
  5
FD4
  8
0
 62
     0
 10
140.49375000000009
 20
45.368895000014938
 30
0.0
 11
141.28749999999999
 21
45.368895000014938
 31
0.0
  0
LINE
  5
FD5
  8
0
 62
     0
 10
147.63749999999999
 20
46.743710000014943
 30
0.0
 11
148.43125000000001
 21
46.743710000014943
 31
0.0
  0
LINE
  5
FD6
  8
0
 62
     0
 10
145.25625000000011
 20
46.743710000014943
 30
0.0
 11
146.0500000000001
 21
46.743710000014943
 31
0.0
  0
LINE
  5
FD7
  8
0
 62
     0
 10
142.87500000000011
 20
46.743710000014943
 30
0.0
 11
143.6687500000001
 21
46.743710000014943
 31
0.0
  0
LINE
  5
FD8
  8
0
 62
     0
 10
140.49375000000009
 20
46.743710000014943
 30
0.0
 11
141.28749999999999
 21
46.743710000014943
 31
0.0
  0
LINE
  5
FD9
  8
0
 62
     0
 10
147.63749999999999
 20
48.118525000014948
 30
0.0
 11
148.43125000000001
 21
48.118525000014948
 31
0.0
  0
LINE
  5
FDA
  8
0
 62
     0
 10
145.25625000000011
 20
48.118525000014948
 30
0.0
 11
146.0500000000001
 21
48.118525000014948
 31
0.0
  0
LINE
  5
FDB
  8
0
 62
     0
 10
142.87500000000011
 20
48.118525000014948
 30
0.0
 11
143.6687500000001
 21
48.118525000014948
 31
0.0
  0
LINE
  5
FDC
  8
0
 62
     0
 10
140.49375000000009
 20
48.118525000014948
 30
0.0
 11
141.28749999999999
 21
48.118525000014948
 31
0.0
  0
LINE
  5
FDD
  8
0
 62
     0
 10
147.63749999999999
 20
49.493340000014953
 30
0.0
 11
148.43125000000001
 21
49.493340000014953
 31
0.0
  0
LINE
  5
FDE
  8
0
 62
     0
 10
145.25625000000011
 20
49.493340000014953
 30
0.0
 11
146.0500000000001
 21
49.493340000014953
 31
0.0
  0
LINE
  5
FDF
  8
0
 62
     0
 10
142.87500000000011
 20
49.493340000014953
 30
0.0
 11
143.6687500000001
 21
49.493340000014953
 31
0.0
  0
LINE
  5
FE0
  8
0
 62
     0
 10
140.49375000000009
 20
49.493340000014953
 30
0.0
 11
141.28749999999999
 21
49.493340000014953
 31
0.0
  0
LINE
  5
FE1
  8
0
 62
     0
 10
147.63749999999999
 20
50.868155000014937
 30
0.0
 11
148.10772746506919
 21
50.868155000014937
 31
0.0
  0
LINE
  5
FE2
  8
0
 62
     0
 10
145.25625000000011
 20
50.868155000014937
 30
0.0
 11
146.0500000000001
 21
50.868155000014937
 31
0.0
  0
LINE
  5
FE3
  8
0
 62
     0
 10
142.87500000000011
 20
50.868155000014937
 30
0.0
 11
143.6687500000001
 21
50.868155000014937
 31
0.0
  0
LINE
  5
FE4
  8
0
 62
     0
 10
140.49375000000009
 20
50.868155000014937
 30
0.0
 11
141.28749999999999
 21
50.868155000014937
 31
0.0
  0
LINE
  5
FE5
  8
0
 62
     0
 10
145.25625000000011
 20
52.24297000001495
 30
0.0
 11
146.0500000000001
 21
52.24297000001495
 31
0.0
  0
LINE
  5
FE6
  8
0
 62
     0
 10
142.87500000000011
 20
52.24297000001495
 30
0.0
 11
143.6687500000001
 21
52.24297000001495
 31
0.0
  0
LINE
  5
FE7
  8
0
 62
     0
 10
141.1007687474002
 20
52.24297000001495
 30
0.0
 11
141.28749999999999
 21
52.24297000001495
 31
0.0
  0
ENDBLK
  5
FE9
  8
0
  0
BLOCK
  8
0
  2
*U47
 70
     1
 10
0.0
 20
0.0
 30
0.0
  3
*U47
  1

  0
TEXT
  5
1035
  8
0
 62
     2
 10
167.9999999277413
 20
62.900000000005527
 30
0.0
 40
3.5
  1
10
 50
90.0
  7
ISO
  0
ENDBLK
  5
1037
  8
0
  0
BLOCK
  8
0
  2
*U48
 70
     1
 10
0.0
 20
0.0
 30
0.0
  3
*U48
  1

  0
TEXT
  5
1039
  8
0
 62
     2
 10
167.9999999277413
 20
-1.4749999999999679
 30
0.0
 40
3.5
  1
117
 50
90.0
  7
ISO
  0
ENDBLK
  5
103B
  8
0
  0
BLOCK
  8
0
  2
*U49
 70
     1
 10
0.0
 20
0.0
 30
0.0
  3
*U49
  1

  0
TEXT
  5
103D
  8
0
 62
     2
 10
179.99734841258999
 20
-13.22499999999479
 30
0.0
 40
3.5
  1
min. 130
 50
90.0
  7
ISO
  0
ENDBLK
  5
103F
  8
0
  0
BLOCK
  8
0
  2
*U50
 70
     1
 10
0.0
 20
0.0
 30
0.0
  3
*U50
  1

  0
TEXT
  5
11CE
  8
0
 62
     2
 10
59.174999963870683
 20
-11.46275614065862
 30
0.0
 40
3.5
  1
125
  7
BYGG-027377$0$ISO
  0
ENDBLK
  5
11D0
  8
0
  0
BLOCK
  8
0
  2
*U51
 70
     1
 10
0.0
 20
0.0
 30
0.0
  3
*U51
  1

  0
TEXT
  5
11D2
  8
0
 62
     2
 10
138.9070189266192
 20
55.525000000000013
 30
0.0
 40
3.5
  1
117
 50
90.0
  7
BYGG-027377$0$ISO
  0
ENDBLK
  5
11D4
  8
0
  0
BLOCK
  8
0
  2
*X52
 70
     1
 10
0.0
 20
0.0
 30
0.0
  3
*X52
  1

  0
LINE
  5
11D6
  8
0
 62
     0
 10
76.199999999999989
 20
70.599975999985048
 30
0.0
 11
76.199999999999989
 21
74.699456650023421
 31
0.0
  0
LINE
  5
11D7
  8
0
 62
     0
 10
74.612499999999983
 20
71.26391552932489
 30
0.0
 11
74.612499999999983
 21
74.034973770722118
 31
0.0
  0
LINE
  5
11D8
  8
0
 62
     0
 10
73.024999999999991
 20
71.73370616123222
 30
0.0
 11
73.024999999999991
 21
73.533706161232203
 31
0.0
  0
LINE
  5
11D9
  8
0
 62
     0
 10
71.4375
 20
71.73370616123222
 30
0.0
 11
71.4375
 21
73.533706161232345
 31
0.0
  0
LINE
  5
11DA
  8
0
 62
     0
 10
69.849999999999994
 20
71.73370616123222
 30
0.0
 11
69.849999999999994
 21
73.88665244376044
 31
0.0
  0
LINE
  5
11DB
  8
0
 62
     0
 10
68.262500000000003
 20
106.77485855299869
 30
0.0
 11
68.262500000000003
 21
108.28802382332501
 31
0.0
  0
LINE
  5
11DC
  8
0
 62
     0
 10
68.262500000000003
 20
115.27485855300129
 30
0.0
 11
68.262500000000017
 21
116.78144118816149
 31
0.0
  0
LINE
  5
11DD
  8
0
 62
     0
 10
68.262500000000003
 20
71.73370616123222
 30
0.0
 11
68.262500000000003
 21
99.788023823318554
 31
0.0
  0
LINE
  5
11DE
  8
0
 62
     0
 10
66.674999999999997
 20
98.497179717640634
 30
0.0
 11
66.675000000000011
 21
116.78144118816149
 31
0.0
  0
LINE
  5
11DF
  8
0
 62
     0
 10
66.674999999999997
 20
71.73370616123222
 30
0.0
 11
66.674999999999997
 21
73.54944469071458
 31
0.0
  0
LINE
  5
11E0
  8
0
 62
     0
 10
65.087499999999991
 20
98.497179717642254
 30
0.0
 11
65.087500000000006
 21
116.78144118816139
 31
0.0
  0
LINE
  5
11E1
  8
0
 62
     0
 10
65.087499999999991
 20
71.73370616123222
 30
0.0
 11
65.087499999999991
 21
73.54944469071458
 31
0.0
  0
LINE
  5
11E2
  8
0
 62
     0
 10
63.500000000000007
 20
98.497179717641387
 30
0.0
 11
63.500000000000007
 21
99.797179717640546
 31
0.0
  0
LINE
  5
11E3
  8
0
 62
     0
 10
63.500000000000007
 20
114.9971797176448
 30
0.0
 11
63.500000000000007
 21
116.78144118816139
 31
0.0
  0
LINE
  5
11E4
  8
0
 62
     0
 10
63.500000000000007
 20
71.73370616123222
 30
0.0
 11
63.500000000000007
 21
73.54944469071458
 31
0.0
  0
LINE
  5
11E5
  8
0
 62
     0
 10
61.912500000000001
 20
98.49717971764052
 30
0.0
 11
61.912500000000001
 21
99.797179717640546
 31
0.0
  0
LINE
  5
11E6
  8
0
 62
     0
 10
61.912500000000001
 20
114.9971797176436
 30
0.0
 11
61.912500000000001
 21
116.78144118816139
 31
0.0
  0
LINE
  5
11E7
  8
0
 62
     0
 10
61.912500000000001
 20
71.73370616123222
 30
0.0
 11
61.912500000000001
 21
73.54944469071458
 31
0.0
  0
LINE
  5
11E8
  8
0
 62
     0
 10
60.325000000000003
 20
98.497179717639654
 30
0.0
 11
60.325000000000003
 21
99.828804842068848
 31
0.0
  0
LINE
  5
11E9
  8
0
 62
     0
 10
60.325000000000003
 20
114.96555459321431
 30
0.0
 11
60.325000000000003
 21
116.78144118816139
 31
0.0
  0
LINE
  5
11EA
  8
0
 62
     0
 10
60.325000000000003
 20
71.73370616123222
 30
0.0
 11
60.325000000000003
 21
73.54944469071458
 31
0.0
  0
LINE
  5
11EB
  8
0
 62
     0
 10
58.737500000000011
 20
98.497179717638801
 30
0.0
 11
58.737500000000011
 21
116.7814411881613
 31
0.0
  0
LINE
  5
11EC
  8
0
 62
     0
 10
58.737500000000011
 20
71.73370616123222
 30
0.0
 11
58.737500000000011
 21
73.54944469071458
 31
0.0
  0
LINE
  5
11ED
  8
0
 62
     0
 10
57.149999999999999
 20
106.7814411881581
 30
0.0
 11
57.149999999999999
 21
108.2814411881613
 31
0.0
  0
LINE
  5
11EE
  8
0
 62
     0
 10
57.149999999999999
 20
115.2814411881613
 30
0.0
 11
57.149999999999999
 21
116.7814411881613
 31
0.0
  0
LINE
  5
11EF
  8
0
 62
     0
 10
57.149999999999999
 20
71.73370616123222
 30
0.0
 11
57.149999999999999
 21
99.781441188156677
 31
0.0
  0
LINE
  5
11F0
  8
0
 62
     0
 10
55.562500000000007
 20
105.7893797277396
 30
0.0
 11
55.562500000000007
 21
109.273502648583
 31
0.0
  0
LINE
  5
11F1
  8
0
 62
     0
 10
55.562500000000007
 20
114.2893797277396
 30
0.0
 11
55.562500000000007
 21
116.5235026484573
 31
0.0
  0
LINE
  5
11F2
  8
0
 62
     0
 10
55.562500000000007
 20
71.73370616123222
 30
0.0
 11
55.562500000000007
 21
100.77350264857979
 31
0.0
  0
LINE
  5
11F3
  8
0
 62
     0
 10
53.975000000000001
 20
71.73370616123222
 30
0.0
 11
53.975000000000001
 21
73.533706161232089
 31
0.0
  0
LINE
  5
11F4
  8
0
 62
     0
 10
52.387500000000003
 20
71.73370616123222
 30
0.0
 11
52.387500000000003
 21
73.533706161231692
 31
0.0
  0
LINE
  5
11F5
  8
0
 62
     0
 10
50.799999999999997
 20
71.502072594400531
 30
0.0
 11
50.799999999999997
 21
73.796816705646393
 31
0.0
  0
LINE
  5
11F6
  8
0
 62
     0
 10
49.212499999999999
 20
70.599975999985134
 30
0.0
 11
49.212499999999999
 21
74.69944565000695
 31
0.0
  0
ENDBLK
  5
11F8
  8
0
  0
BLOCK
  8
0
  2
*X53
 70
     1
 10
0.0
 20
0.0
 30
0.0
  3
*X53
  1

  0
LINE
  5
11FA
  8
0
 62
     0
 10
76.199999999999989
 20
59.299444650023403
 30
0.0
 11
76.199999999999989
 21
63.39945665002346
 31
0.0
  0
LINE
  5
11FB
  8
0
 62
     0
 10
74.612499999999983
 20
59.963915566641319
 30
0.0
 11
74.612499999999983
 21
62.734973733405681
 31
0.0
  0
LINE
  5
11FC
  8
0
 62
     0
 10
73.024999999999991
 20
60.199444682530469
 30
0.0
 11
73.024999999999991
 21
62.499444682530417
 31
0.0
  0
LINE
  5
11FD
  8
0
 62
     0
 10
71.4375
 20
60.199444682530462
 30
0.0
 11
71.4375
 21
62.499444682530417
 31
0.0
  0
LINE
  5
11FE
  8
0
 62
     0
 10
69.849999999999994
 20
60.199444682530462
 30
0.0
 11
69.849999999999994
 21
62.499444682530417
 31
0.0
  0
LINE
  5
11FF
  8
0
 62
     0
 10
68.262500000000003
 20
60.199444682530448
 30
0.0
 11
68.262500000000003
 21
62.499444682530417
 31
0.0
  0
LINE
  5
1200
  8
0
 62
     0
 10
66.674999999999997
 20
60.199444682530448
 30
0.0
 11
66.674999999999997
 21
62.499444682530417
 31
0.0
  0
LINE
  5
1201
  8
0
 62
     0
 10
65.087499999999991
 20
60.199444682530448
 30
0.0
 11
65.087499999999991
 21
62.499444682530417
 31
0.0
  0
LINE
  5
1202
  8
0
 62
     0
 10
63.500000000000007
 20
60.199444682530441
 30
0.0
 11
63.500000000000007
 21
62.499444682530417
 31
0.0
  0
LINE
  5
1203
  8
0
 62
     0
 10
61.912500000000001
 20
60.199444682530441
 30
0.0
 11
61.912500000000001
 21
62.499444682530417
 31
0.0
  0
LINE
  5
1204
  8
0
 62
     0
 10
60.325000000000003
 20
60.199444682530441
 30
0.0
 11
60.325000000000003
 21
62.499444682530417
 31
0.0
  0
LINE
  5
1205
  8
0
 62
     0
 10
58.737500000000011
 20
60.199444682530441
 30
0.0
 11
58.737500000000011
 21
62.499444682530417
 31
0.0
  0
LINE
  5
1206
  8
0
 62
     0
 10
57.149999999999999
 20
60.199444682530441
 30
0.0
 11
57.149999999999999
 21
62.499444682530417
 31
0.0
  0
LINE
  5
1207
  8
0
 62
     0
 10
55.562500000000007
 20
60.199444682530441
 30
0.0
 11
55.562500000000007
 21
62.499444682530417
 31
0.0
  0
LINE
  5
1208
  8
0
 62
     0
 10
53.975000000000001
 20
60.199444682530441
 30
0.0
 11
53.975000000000001
 21
62.499444682530417
 31
0.0
  0
LINE
  5
1209
  8
0
 62
     0
 10
52.387500000000003
 20
60.199444682530427
 30
0.0
 11
52.387500000000003
 21
62.499444682530417
 31
0.0
  0
LINE
  5
120A
  8
0
 62
     0
 10
50.799999999999997
 20
60.18970205771393
 30
0.0
 11
50.799999999999997
 21
62.509187277926962
 31
0.0
  0
LINE
  5
120B
  8
0
 62
     0
 10
49.212499999999999
 20
59.299444650023482
 30
0.0
 11
49.212499999999999
 21
63.39944565000696
 31
0.0
  0
ENDBLK
  5
120D
  8
0
  0
BLOCK
  8
0
  2
*X54
 70
     1
 10
0.0
 20
0.0
 30
0.0
  3
*X54
  1

  0
LINE
  5
1245
  8
0
 62
     0
 10
30.000000000144279
 20
9.5435564980156862
 30
0.0
 11
29.785044591094451
 21
9.7585119070655093
 31
0.0
  0
LINE
  5
1246
  8
0
 62
     0
 10
30.000000000144279
 20
8.4210244828820446
 30
0.0
 11
28.791889535733919
 21
9.6291349472923944
 31
0.0
  0
LINE
  5
1247
  8
0
 62
     0
 10
30.000000000144279
 20
7.2984924677484013
 30
0.0
 11
27.696179936233221
 21
9.6023125316594591
 31
0.0
  0
LINE
  5
1248
  8
0
 62
     0
 10
30.000000000144279
 20
6.175960452614758
 30
0.0
 11
26.458603330105699
 21
9.7173571226533326
 31
0.0
  0
LINE
  5
1249
  8
0
 62
     0
 10
30.000000000144279
 20
5.0534284374811138
 30
0.0
 11
25.999999999665711
 21
9.0534284379596741
 31
0.0
  0
LINE
  5
124A
  8
0
 62
     0
 10
30.000000000144279
 20
3.9308964223474661
 30
0.0
 11
25.43089642247649
 21
8.50000000001525
 31
0.0
  0
LINE
  5
124B
  8
0
 62
     0
 10
28.243737768197231
 20
4.5646266391608687
 30
0.0
 11
24.563860370612751
 21
8.2445040367453561
 31
0.0
  0
LINE
  5
124C
  8
0
 62
     0
 10
25.18583239221595
 20
6.5000000000084981
 30
0.0
 11
24.500000000050491
 21
7.1858323921739551
 31
0.0
  0
LINE
  5
124D
  8
0
 62
     0
 10
27.50485410063979
 20
4.1809782915846601
 30
0.0
 11
26.000000000144802
 21
5.6858323920796439
 31
0.0
  0
LINE
  5
124E
  8
0
 62
     0
 10
26.142017163115931
 20
4.4212832139748857
 30
0.0
 11
25.76451961880031
 21
4.798780758290504
 31
0.0
  0
LINE
  5
124F
  8
0
 62
     0
 10
29.637593697385569
 20
3.4854458626051388
 30
0.0
 11
30.000000000144279
 21
3.847852165363848
 31
0.0
  0
LINE
  5
1250
  8
0
 62
     0
 10
29.338050327412109
 20
4.3084345077653303
 30
0.0
 11
30.000000000144279
 21
4.9703841804974882
 31
0.0
  0
LINE
  5
1251
  8
0
 62
     0
 10
28.765754104161111
 20
4.8586702996479607
 30
0.0
 11
30.000000000144279
 21
6.0929161956311351
 31
0.0
  0
LINE
  5
1252
  8
0
 62
     0
 10
28.00064141575114
 20
4.0935576112380021
 30
0.0
 11
28.258294972524499
 21
4.3512111680113597
 31
0.0
  0
LINE
  5
1253
  8
0
 62
     0
 10
27.046372718744379
 20
4.2618209293648777
 30
0.0
 11
30.000000000144279
 21
7.2154482107647828
 31
0.0
  0
LINE
  5
1254
  8
0
 62
     0
 10
26.092104021737601
 20
4.4300842474917523
 30
0.0
 11
30.000000000144279
 21
8.3379802258984235
 31
0.0
  0
LINE
  5
1255
  8
0
 62
     0
 10
26.00000000014667
 20
5.4605122410344631
 30
0.0
 11
30.000000000144279
 21
9.4605122410320703
 31
0.0
  0
LINE
  5
1256
  8
0
 62
     0
 10
25.893666306773039
 20
6.4767105627944801
 30
0.0
 11
29.072388621534511
 21
9.6554328775559455
 31
0.0
  0
LINE
  5
1257
  8
0
 62
     0
 10
24.825764097368861
 20
6.5313403685239448
 30
0.0
 11
27.892690376955638
 21
9.5982666481107142
 31
0.0
  0
LINE
  5
1258
  8
0
 62
     0
 10
25.99999999966759
 20
8.8281082859563096
 30
0.0
 11
26.837474026840582
 21
9.6655823131293044
 31
0.0
  0
LINE
  5
1259
  8
0
 62
     0
 10
24.49999999998218
 20
7.3281082862709086
 30
0.0
 11
25.671891713723781
 21
8.5000000000125002
 31
0.0
  0
ENDBLK
  5
125B
  8
0
  0
BLOCK
  8
0
  2
*X55
 70
     1
 10
0.0
 20
0.0
 30
0.0
  3
*X55
  1

  0
LINE
  5
125D
  8
0
 62
     0
 10
62.000000000016399
 20
8.9744529218855842
 30
0.0
 11
61.292741409379012
 21
9.681711512522984
 31
0.0
  0
LINE
  5
125E
  8
0
 62
     0
 10
63.499999999770871
 20
7.4744529221311238
 30
0.0
 11
62.474452921887817
 21
8.5000000000141718
 31
0.0
  0
LINE
  5
125F
  8
0
 62
     0
 10
63.27167441811244
 20
6.5802464886559022
 30
0.0
 11
60.251074271029843
 21
9.6008466357385114
 31
0.0
  0
LINE
  5
1260
  8
0
 62
     0
 10
62.229388891634201
 20
6.5000000000005018
 30
0.0
 11
59.09016882870268
 21
9.6392200629320186
 31
0.0
  0
LINE
  5
1261
  8
0
 62
     0
 10
61.999999999537323
 20
5.606856876963751
 30
0.0
 11
58.000000000144432
 21
9.6068568763566304
 31
0.0
  0
LINE
  5
1262
  8
0
 62
     0
 10
62.032304104628871
 20
4.4520207567385457
 30
0.0
 11
58.000000000144439
 21
8.48432486122298
 31
0.0
  0
LINE
  5
1263
  8
0
 62
     0
 10
61.078035407622089
 20
4.2837574386116737
 30
0.0
 11
58.000000000144432
 21
7.3617928460893367
 31
0.0
  0
LINE
  5
1264
  8
0
 62
     0
 10
59.425587647328541
 20
4.8136731837715816
 30
0.0
 11
58.000000000144439
 21
6.2392608309556943
 31
0.0
  0
LINE
  5
1265
  8
0
 62
     0
 10
60.123766710615328
 20
4.1154941204847999
 30
0.0
 11
59.768727145435207
 21
4.4705336856649156
 31
0.0
  0
LINE
  5
1266
  8
0
 62
     0
 10
58.701001178447513
 20
4.4157276375189713
 30
0.0
 11
58.000000000144432
 21
5.1167288158220501
 31
0.0
  0
LINE
  5
1267
  8
0
 62
     0
 10
58.401457808474063
 20
3.592738992358782
 30
0.0
 11
58.000000000144439
 21
3.994196800688405
 31
0.0
  0
LINE
  5
1268
  8
0
 62
     0
 10
62.035656054452978
 20
4.452611795930518
 30
0.0
 11
62.25741688991679
 21
4.6743726313943368
 31
0.0
  0
LINE
  5
1269
  8
0
 62
     0
 10
62.960512243399322
 20
6.5000000000104983
 30
0.0
 11
63.499999999562
 21
7.039487756173183
 31
0.0
  0
LINE
  5
126A
  8
0
 62
     0
 10
60.672819116929119
 20
4.2123068735402951
 30
0.0
 11
61.999999999536762
 21
5.5394877561479383
 31
0.0
  0
LINE
  5
126B
  8
0
 62
     0
 10
59.76421902896228
 20
4.426238800707103
 30
0.0
 11
63.479541786705823
 21
8.1415615584506433
 31
0.0
  0
LINE
  5
126C
  8
0
 62
     0
 10
59.04608802924534
 20
4.8306398161238064
 30
0.0
 11
62.715448213138451
 21
8.5000000000169216
 31
0.0
  0
LINE
  5
126D
  8
0
 62
     0
 10
58.000000000144418
 20
3.7845517870228949
 30
0.0
 11
58.740958963897668
 21
4.5255107507761423
 31
0.0
  0
LINE
  5
126E
  8
0
 62
     0
 10
58.000000000144418
 20
4.9070838021565448
 30
0.0
 11
62.000000000015838
 21
8.9070838020279623
 31
0.0
  0
LINE
  5
126F
  8
0
 62
     0
 10
58.000000000144432
 20
6.0296158172901917
 30
0.0
 11
61.716731080143859
 21
9.7463468972896194
 31
0.0
  0
LINE
  5
1270
  8
0
 62
     0
 10
58.000000000144439
 20
7.152147832423835
 30
0.0
 11
60.455956059016017
 21
9.6081038912954142
 31
0.0
  0
LINE
  5
1271
  8
0
 62
     0
 10
58.000000000144432
 20
8.2746798475574792
 30
0.0
 11
59.344542698422529
 21
9.6192225458355765
 31
0.0
  0
LINE
  5
1272
  8
0
 62
     0
 10
58.000000000144418
 20
9.3972118626911154
 30
0.0
 11
58.339490121961418
 21
9.7367019845081089
 31
0.0
  0
ENDBLK
  5
1274
  8
0
  0
BLOCK
  8
0
  2
*U56
 70
     1
 10
0.0
 20
0.0
 30
0.0
  3
*U56
  1

  0
TEXT
  5
13B3
  8
0
 62
     2
 10
57.551991686137953
 20
11.550000000630281
 30
0.0
 40
3.5
  1
28
 50
90.0
  7
BYGG-027379$0$ISO
  0
ENDBLK
  5
13B5
  8
0
  0
BLOCK
  8
0
  2
*U57
 70
     1
 10
0.0
 20
0.0
 30
0.0
  3
*U57
  1

  0
TEXT
  5
13B7
  8
0
 62
     2
 10
20.874999999841279
 20
-6.9002964607942188
 30
0.0
 40
3.5
  1
47
  7
BYGG-027379$0$ISO
  0
ENDBLK
  5
13B9
  8
0
  0
BLOCK
  8
0
  2
*X58
 70
     1
 10
0.0
 20
0.0
 30
0.0
  3
*X58
  1

  0
LINE
  5
13BB
  8
0
 62
     0
 10
38.100000000000001
 20
7.2500120012615357
 30
0.0
 11
38.100000000000001
 21
11.35002133459092
 31
0.0
  0
LINE
  5
13BC
  8
0
 62
     0
 10
36.512500000000003
 20
7.9722179862110449
 30
0.0
 11
36.512500000000003
 21
10.62780601631216
 31
0.0
  0
LINE
  5
13BD
  8
0
 62
     0
 10
34.924999999999997
 20
8.3500120012634689
 30
0.0
 11
34.924999999999997
 21
10.250012001263441
 31
0.0
  0
LINE
  5
13BE
  8
0
 62
     0
 10
33.337499999999999
 20
8.3500120012634689
 30
0.0
 11
33.337499999999999
 21
10.250012001263441
 31
0.0
  0
LINE
  5
13BF
  8
0
 62
     0
 10
31.75
 20
8.3500120012634689
 30
0.0
 11
31.75
 21
10.250012001263441
 31
0.0
  0
LINE
  5
13C0
  8
0
 62
     0
 10
30.162500000000001
 20
8.3500120012634689
 30
0.0
 11
30.162500000000001
 21
10.250012001263441
 31
0.0
  0
LINE
  5
13C1
  8
0
 62
     0
 10
28.574999999999999
 20
8.3500120012634689
 30
0.0
 11
28.574999999999999
 21
10.250012001263441
 31
0.0
  0
LINE
  5
13C2
  8
0
 62
     0
 10
26.987500000000001
 20
8.3500120012634689
 30
0.0
 11
26.987500000000001
 21
10.250012001263441
 31
0.0
  0
LINE
  5
13C3
  8
0
 62
     0
 10
25.399999999999999
 20
8.3500120012634689
 30
0.0
 11
25.399999999999999
 21
10.250012001263441
 31
0.0
  0
LINE
  5
13C4
  8
0
 62
     0
 10
23.8125
 20
8.3500120012634689
 30
0.0
 11
23.8125
 21
10.250012001263441
 31
0.0
  0
LINE
  5
13C5
  8
0
 62
     0
 10
22.225000000000001
 20
8.3500120012634689
 30
0.0
 11
22.225000000000001
 21
10.250012001263441
 31
0.0
  0
LINE
  5
13C6
  8
0
 62
     0
 10
20.637499999999999
 20
8.3500120012634689
 30
0.0
 11
20.637499999999999
 21
10.250012001263441
 31
0.0
  0
LINE
  5
13C7
  8
0
 62
     0
 10
19.050000000000001
 20
8.3500120012634689
 30
0.0
 11
19.050000000000001
 21
10.250012001263441
 31
0.0
  0
LINE
  5
13C8
  8
0
 62
     0
 10
17.462499999999999
 20
8.3500120012634689
 30
0.0
 11
17.462499999999999
 21
10.250012001263441
 31
0.0
  0
LINE
  5
13C9
  8
0
 62
     0
 10
15.875
 20
8.3500120012634689
 30
0.0
 11
15.875
 21
10.250012001263441
 31
0.0
  0
LINE
  5
13CA
  8
0
 62
     0
 10
14.2875
 20
8.3500120012634689
 30
0.0
 11
14.2875
 21
10.250012001263441
 31
0.0
  0
LINE
  5
13CB
  8
0
 62
     0
 10
12.699999999999999
 20
8.3500120012634689
 30
0.0
 11
12.699999999999999
 21
10.250012001263441
 31
0.0
  0
LINE
  5
13CC
  8
0
 62
     0
 10
11.112500000000001
 20
8.3119842071189947
 30
0.0
 11
11.112500000000001
 21
10.28803979540581
 31
0.0
  0
LINE
  5
13CD
  8
0
 62
     0
 10
9.5249999999999986
 20
7.4165183522993479
 30
0.0
 11
9.5249999999999986
 21
11.18350565022406
 31
0.0
  0
ENDBLK
  5
13CF
  8
0
  0
BLOCK
  8
0
  2
*U59
 70
     1
 10
0.0
 20
0.0
 30
0.0
  3
*U59
  1

  0
TEXT
  5
1416
  8
0
 62
     2
 10
41.549999999999997
 20
-11.884580595029099
 30
0.0
 40
3.5
  1
88
  7
BYGG-027050$0$ISO
  0
ENDBLK
  5
1418
  8
0
  0
BLOCK
  8
0
  2
*U60
 70
     1
 10
0.0
 20
0.0
 30
0.0
  3
*U60
  1

  0
TEXT
  5
141A
  8
0
 62
     2
 10
101.19279663991669
 20
27.550000000002019
 30
0.0
 40
3.5
  1
60
 50
90.0
  7
BYGG-027050$0$ISO
  0
ENDBLK
  5
141C
  8
0
  0
BLOCK
  8
0
  2
*U61
 70
     1
 10
0.0
 20
0.0
 30
0.0
  3
*U61
  1

  0
TEXT
  5
143E
  8
0
 62
     2
 10
-5.9215024024452729
 20
13.649999999996981
 30
0.0
 40
3.0
  1
34.8
 50
90.0
  7
BYGG-027470$0$ISO
  0
ENDBLK
  5
1440
  8
0
  0
BLOCK
  8
0
  2
*U62
 70
     1
 10
0.0
 20
0.0
 30
0.0
  3
*U62
  1

  0
TEXT
  5
1442
  8
0
 62
     2
 10
5.7000000000036382
 20
-7.2519065737358392
 30
0.0
 40
3.0
  1
15
  7
BYGG-027470$0$ISO
  0
ENDBLK
  5
1444
  8
0
  0
BLOCK
  8
0
  2
*U63
 70
     1
 10
0.0
 20
0.0
 30
0.0
  3
*U63
  1

  0
TEXT
  5
1447
  8
0
 62
     2
 10
-32.449999999999889
 20
102.0000000000001
 30
0.0
 40
3.5
  1
88
  7
ISO
  0
ENDBLK
  5
1449
  8
0
  0
BLOCK
  8
0
  2
*U64
 70
     1
 10
0.0
 20
0.0
 30
0.0
  3
*U64
  1

  0
TEXT
  5
144B
  8
0
 62
     2
 10
45.900000000090387
 20
102.0000000000001
 30
0.0
 40
3.5
  1
71.5
  7
ISO
  0
ENDBLK
  5
144D
  8
0
  0
BLOCK
  8
0
  2
*U65
 70
     1
 10
0.0
 20
0.0
 30
0.0
  3
*U65
  1

  0
TEXT
  5
144F
  8
0
 62
     2
 10
106.37499999984141
 20
102.0000000000005
 30
0.0
 40
3.5
  1
47
  7
ISO
  0
ENDBLK
  5
1451
  8
0
  0
BLOCK
  8
0
  2
*U66
 70
     1
 10
0.0
 20
0.0
 30
0.0
  3
*U66
  1

  0
TEXT
  5
1453
  8
0
 62
     2
 10
132.77499999950211
 20
102.0000000000001
 30
0.0
 40
3.5
  1
6.5
  7
ISO
  0
ENDBLK
  5
1455
  8
0
  0
BLOCK
  8
0
  2
*U67
 70
     1
 10
0.0
 20
0.0
 30
0.0
  3
*U67
  1

  0
TEXT
  5
1457
  8
0
 62
     2
 10
73.17499999975108
 20
114.0000000000001
 30
0.0
 40
3.5
  1
125
  7
ISO
  0
ENDBLK
  5
1459
  8
0
  0
BLOCK
  8
0
  2
*U68
 70
     1
 10
0.0
 20
0.0
 30
0.0
  3
*U68
  1

  0
TEXT
  5
145B
  8
0
 62
     2
 10
73.174999963870675
 20
-68.462756140658584
 30
0.0
 40
3.5
  1
125
  7
BYGG-027377$0$ISO
  0
ENDBLK
  5
145D
  8
0
  0
BLOCK
  8
0
  2
*U69
 70
     1
 10
0.0
 20
0.0
 30
0.0
  3
*U69
  1

  0
TEXT
  5
1A19
  8
0
 62
     2
 10
-6.9215024024523242
 20
35.850000000000477
 30
0.0
 40
3.0
  1
34.8
 50
90.0
  7
BYGG-027470$0$ISO
  0
ENDBLK
  5
1A1B
  8
0
  0
BLOCK
  8
0
  2
*U70
 70
     1
 10
0.0
 20
0.0
 30
0.0
  3
*U70
  1

  0
TEXT
  5
1A1D
  8
0
 62
     2
 10
4.6999999999965931
 20
14.948093426267651
 30
0.0
 40
3.0
  1
15
  7
BYGG-027470$0$ISO
  0
ENDBLK
  5
1A1F
  8
0
  0
BLOCK
  8
0
  2
*U71
 70
     1
 10
0.0
 20
0.0
 30
0.0
  3
*U71
  1

  0
TEXT
  5
1A21
  8
0
 62
     2
 10
-32.449999999999889
 20
-11.884580595028069
 30
0.0
 40
3.5
  1
88
  7
BYGG-027050$0$ISO
  0
ENDBLK
  5
1A23
  8
0
  0
BLOCK
  8
0
  2
*U72
 70
     1
 10
0.0
 20
0.0
 30
0.0
  3
*U72
  1

  0
TEXT
  5
1A25
  8
0
 62
     2
 10
27.192796639916871
 20
27.550000000003031
 30
0.0
 40
3.5
  1
60
 50
90.0
  7
BYGG-027050$0$ISO
  0
ENDBLK
  5
1A27
  8
0
  0
BLOCK
  8
0
  2
*U73
 70
     1
 10
0.0
 20
0.0
 30
0.0
  3
*U73
  1

  0
TEXT
  5
1A29
  8
0
 62
     2
 10
143.051991686138
 20
53.549999999379892
 30
0.0
 40
3.5
  1
28
 50
90.0
  7
BYGG-027379$0$ISO
  0
ENDBLK
  5
1A2B
  8
0
  0
BLOCK
  8
0
  2
*U74
 70
     1
 10
0.0
 20
0.0
 30
0.0
  3
*U74
  1

  0
TEXT
  5
1A2D
  8
0
 62
     2
 10
106.37499999984141
 20
35.099703537955378
 30
0.0
 40
3.5
  1
47
  7
BYGG-027379$0$ISO
  0
ENDBLK
  5
1A2F
  8
0
  0
BLOCK
  8
0
  2
*U75
 70
     1
 10
0.0
 20
0.0
 30
0.0
  3
*U75
  1

  0
TEXT
  5
1A31
  8
0
 62
     2
 10
152.90701892661929
 20
-1.474999999999967
 30
0.0
 40
3.5
  1
117
 50
90.0
  7
BYGG-027377$0$ISO
  0
ENDBLK
  5
1A33
  8
0
  0
BLOCK
  8
0
  2
*X76
 70
     1
 10
0.0
 20
0.0
 30
0.0
  3
*X76
  1

  0
LINE
  5
1A6A
  8
0
 62
     0
 10
127.0000000000164
 20
68.974452921885586
 30
0.0
 11
126.292741409379
 21
69.68171151252298
 31
0.0
  0
LINE
  5
1A6B
  8
0
 62
     0
 10
128.49999999977081
 20
67.474452922131135
 30
0.0
 11
127.4744529218878
 21
68.500000000014182
 31
0.0
  0
LINE
  5
1A6C
  8
0
 62
     0
 10
128.27167441811241
 20
66.580246488655902
 30
0.0
 11
125.25107427102979
 21
69.600846635738506
 31
0.0
  0
LINE
  5
1A6D
  8
0
 62
     0
 10
127.2293888916342
 20
66.500000000000512
 30
0.0
 11
124.0901688287027
 21
69.639220062932026
 31
0.0
  0
LINE
  5
1A6E
  8
0
 62
     0
 10
126.99999999953729
 20
65.606856876963761
 30
0.0
 11
123.0000000001444
 21
69.60685687635663
 31
0.0
  0
LINE
  5
1A6F
  8
0
 62
     0
 10
127.03230410462881
 20
64.452020756738577
 30
0.0
 11
123.0000000001444
 21
68.484324861222973
 31
0.0
  0
LINE
  5
1A70
  8
0
 62
     0
 10
126.0780354076221
 20
64.283757438611673
 30
0.0
 11
123.0000000001444
 21
67.36179284608933
 31
0.0
  0
LINE
  5
1A71
  8
0
 62
     0
 10
124.4255876473285
 20
64.813673183771613
 30
0.0
 11
123.0000000001444
 21
66.2392608309557
 31
0.0
  0
LINE
  5
1A72
  8
0
 62
     0
 10
125.1237667106153
 20
64.115494120484811
 30
0.0
 11
124.76872714543519
 21
64.470533685664947
 31
0.0
  0
LINE
  5
1A73
  8
0
 62
     0
 10
123.7010011784475
 20
64.415727637518984
 30
0.0
 11
123.0000000001444
 21
65.116728815822057
 31
0.0
  0
LINE
  5
1A74
  8
0
 62
     0
 10
123.40145780847401
 20
63.59273899235879
 30
0.0
 11
123.0000000001444
 21
63.994196800688421
 31
0.0
  0
LINE
  5
1A75
  8
0
 62
     0
 10
127.035656054453
 20
64.452611795930522
 30
0.0
 11
127.2574168899168
 21
64.674372631394334
 31
0.0
  0
LINE
  5
1A76
  8
0
 62
     0
 10
127.96051224339929
 20
66.500000000010502
 30
0.0
 11
128.49999999956199
 21
67.039487756173173
 31
0.0
  0
LINE
  5
1A77
  8
0
 62
     0
 10
125.67281911692911
 20
64.2123068735403
 30
0.0
 11
126.9999999995367
 21
65.539487756147921
 31
0.0
  0
LINE
  5
1A78
  8
0
 62
     0
 10
124.7642190289622
 20
64.426238800707083
 30
0.0
 11
128.47954178670579
 21
68.141561558450633
 31
0.0
  0
LINE
  5
1A79
  8
0
 62
     0
 10
124.0460880292453
 20
64.830639816123821
 30
0.0
 11
127.7154482131384
 21
68.500000000016911
 31
0.0
  0
LINE
  5
1A7A
  8
0
 62
     0
 10
123.0000000001444
 20
63.784551787022899
 30
0.0
 11
123.7409589638976
 21
64.525510750776121
 31
0.0
  0
LINE
  5
1A7B
  8
0
 62
     0
 10
123.0000000001444
 20
64.907083802156549
 30
0.0
 11
127.0000000000158
 21
68.907083802027955
 31
0.0
  0
LINE
  5
1A7C
  8
0
 62
     0
 10
123.0000000001444
 20
66.029615817290193
 30
0.0
 11
126.7167310801438
 21
69.746346897289612
 31
0.0
  0
LINE
  5
1A7D
  8
0
 62
     0
 10
123.0000000001444
 20
67.152147832423836
 30
0.0
 11
125.455956059016
 21
69.608103891295414
 31
0.0
  0
LINE
  5
1A7E
  8
0
 62
     0
 10
123.0000000001444
 20
68.274679847557479
 30
0.0
 11
124.3445426984225
 21
69.619222545835584
 31
0.0
  0
LINE
  5
1A7F
  8
0
 62
     0
 10
123.0000000001444
 20
69.397211862691094
 30
0.0
 11
123.3394901219614
 21
69.736701984508102
 31
0.0
  0
ENDBLK
  5
1A81
  8
0
  0
BLOCK
  8
0
  2
*X77
 70
     1
 10
0.0
 20
0.0
 30
0.0
  3
*X77
  1

  0
LINE
  5
1A83
  8
0
 62
     0
 10
95.000000000144297
 20
69.54355649801569
 30
0.0
 11
94.785044591094461
 21
69.758511907065511
 31
0.0
  0
LINE
  5
1A84
  8
0
 62
     0
 10
95.000000000144297
 20
68.421024482882046
 30
0.0
 11
93.79188953573393
 21
69.6291349472924
 31
0.0
  0
LINE
  5
1A85
  8
0
 62
     0
 10
95.000000000144269
 20
67.298492467748403
 30
0.0
 11
92.696179936233221
 21
69.60231253165945
 31
0.0
  0
LINE
  5
1A86
  8
0
 62
     0
 10
95.000000000144297
 20
66.17596045261476
 30
0.0
 11
91.458603330105717
 21
69.71735712265334
 31
0.0
  0
LINE
  5
1A87
  8
0
 62
     0
 10
95.000000000144297
 20
65.053428437481102
 30
0.0
 11
90.999999999665732
 21
69.053428437959667
 31
0.0
  0
LINE
  5
1A88
  8
0
 62
     0
 10
95.000000000144297
 20
63.930896422347459
 30
0.0
 11
90.430896422476479
 21
68.500000000015262
 31
0.0
  0
LINE
  5
1A89
  8
0
 62
     0
 10
93.243737768197207
 20
64.564626639160892
 30
0.0
 11
89.563860370612744
 21
68.244504036745354
 31
0.0
  0
LINE
  5
1A8A
  8
0
 62
     0
 10
90.185832392215957
 20
66.500000000008512
 30
0.0
 11
89.500000000050505
 21
67.185832392173936
 31
0.0
  0
LINE
  5
1A8B
  8
0
 62
     0
 10
92.504854100639776
 20
64.18097829158468
 30
0.0
 11
91.000000000144794
 21
65.685832392079647
 31
0.0
  0
LINE
  5
1A8C
  8
0
 62
     0
 10
91.142017163115923
 20
64.421283213974903
 30
0.0
 11
90.764519618800307
 21
64.798780758290519
 31
0.0
  0
LINE
  5
1A8D
  8
0
 62
     0
 10
94.637593697385554
 20
63.485445862605133
 30
0.0
 11
95.000000000144269
 21
63.84785216536384
 31
0.0
  0
LINE
  5
1A8E
  8
0
 62
     0
 10
94.338050327412105
 20
64.308434507765327
 30
0.0
 11
95.000000000144269
 21
64.970384180497476
 31
0.0
  0
LINE
  5
1A8F
  8
0
 62
     0
 10
93.765754104161104
 20
64.858670299647969
 30
0.0
 11
95.000000000144269
 21
66.092916195631119
 31
0.0
  0
LINE
  5
1A90
  8
0
 62
     0
 10
93.000641415751147
 20
64.093557611238012
 30
0.0
 11
93.25829497252451
 21
64.351211168011361
 31
0.0
  0
LINE
  5
1A91
  8
0
 62
     0
 10
92.046372718744365
 20
64.261820929364887
 30
0.0
 11
95.000000000144269
 21
67.215448210764762
 31
0.0
  0
LINE
  5
1A92
  8
0
 62
     0
 10
91.092104021737612
 20
64.430084247491749
 30
0.0
 11
95.000000000144269
 21
68.337980225898406
 31
0.0
  0
LINE
  5
1A93
  8
0
 62
     0
 10
91.000000000146684
 20
65.460512241034465
 30
0.0
 11
95.000000000144269
 21
69.460512241032063
 31
0.0
  0
LINE
  5
1A94
  8
0
 62
     0
 10
90.893666306773042
 20
66.47671056279448
 30
0.0
 11
94.072388621534515
 21
69.655432877555924
 31
0.0
  0
LINE
  5
1A95
  8
0
 62
     0
 10
89.825764097368875
 20
66.531340368523942
 30
0.0
 11
92.892690376955642
 21
69.598266648110723
 31
0.0
  0
LINE
  5
1A96
  8
0
 62
     0
 10
90.99999999966758
 20
68.828108285956304
 30
0.0
 11
91.837474026840582
 21
69.665582313129306
 31
0.0
  0
LINE
  5
1A97
  8
0
 62
     0
 10
89.499999999982165
 20
67.328108286270904
 30
0.0
 11
90.671891713723781
 21
68.500000000012506
 31
0.0
  0
ENDBLK
  5
1A99
  8
0
  0
BLOCK
  8
0
  2
*X78
 70
     1
 10
0.0
 20
0.0
 30
0.0
  3
*X78
  1

  0
LINE
  5
1AD0
  8
0
 62
     0
 10
127.0000000000164
 20
68.974452921885586
 30
0.0
 11
126.292741409379
 21
69.68171151252298
 31
0.0
  0
LINE
  5
1AD1
  8
0
 62
     0
 10
128.49999999977081
 20
67.474452922131135
 30
0.0
 11
127.4744529218878
 21
68.500000000014182
 31
0.0
  0
LINE
  5
1AD2
  8
0
 62
     0
 10
128.27167441811241
 20
66.580246488655902
 30
0.0
 11
125.25107427102979
 21
69.600846635738506
 31
0.0
  0
LINE
  5
1AD3
  8
0
 62
     0
 10
127.2293888916342
 20
66.500000000000512
 30
0.0
 11
124.0901688287027
 21
69.639220062932026
 31
0.0
  0
LINE
  5
1AD4
  8
0
 62
     0
 10
126.99999999953729
 20
65.606856876963761
 30
0.0
 11
123.0000000001444
 21
69.60685687635663
 31
0.0
  0
LINE
  5
1AD5
  8
0
 62
     0
 10
127.03230410462881
 20
64.452020756738577
 30
0.0
 11
123.0000000001444
 21
68.484324861222973
 31
0.0
  0
LINE
  5
1AD6
  8
0
 62
     0
 10
126.0780354076221
 20
64.283757438611673
 30
0.0
 11
123.0000000001444
 21
67.36179284608933
 31
0.0
  0
LINE
  5
1AD7
  8
0
 62
     0
 10
124.4255876473285
 20
64.813673183771613
 30
0.0
 11
123.0000000001444
 21
66.2392608309557
 31
0.0
  0
LINE
  5
1AD8
  8
0
 62
     0
 10
125.1237667106153
 20
64.115494120484811
 30
0.0
 11
124.76872714543519
 21
64.470533685664947
 31
0.0
  0
LINE
  5
1AD9
  8
0
 62
     0
 10
123.7010011784475
 20
64.415727637518984
 30
0.0
 11
123.0000000001444
 21
65.116728815822057
 31
0.0
  0
LINE
  5
1ADA
  8
0
 62
     0
 10
123.40145780847401
 20
63.59273899235879
 30
0.0
 11
123.0000000001444
 21
63.994196800688421
 31
0.0
  0
LINE
  5
1ADB
  8
0
 62
     0
 10
127.035656054453
 20
64.452611795930522
 30
0.0
 11
127.2574168899168
 21
64.674372631394334
 31
0.0
  0
LINE
  5
1ADC
  8
0
 62
     0
 10
127.96051224339929
 20
66.500000000010502
 30
0.0
 11
128.49999999956199
 21
67.039487756173173
 31
0.0
  0
LINE
  5
1ADD
  8
0
 62
     0
 10
125.67281911692911
 20
64.2123068735403
 30
0.0
 11
126.9999999995367
 21
65.539487756147921
 31
0.0
  0
LINE
  5
1ADE
  8
0
 62
     0
 10
124.7642190289622
 20
64.426238800707083
 30
0.0
 11
128.47954178670579
 21
68.141561558450633
 31
0.0
  0
LINE
  5
1ADF
  8
0
 62
     0
 10
124.0460880292453
 20
64.830639816123821
 30
0.0
 11
127.7154482131384
 21
68.500000000016911
 31
0.0
  0
LINE
  5
1AE0
  8
0
 62
     0
 10
123.0000000001444
 20
63.784551787022899
 30
0.0
 11
123.7409589638976
 21
64.525510750776121
 31
0.0
  0
LINE
  5
1AE1
  8
0
 62
     0
 10
123.0000000001444
 20
64.907083802156549
 30
0.0
 11
127.0000000000158
 21
68.907083802027955
 31
0.0
  0
LINE
  5
1AE2
  8
0
 62
     0
 10
123.0000000001444
 20
66.029615817290193
 30
0.0
 11
126.7167310801438
 21
69.746346897289612
 31
0.0
  0
LINE
  5
1AE3
  8
0
 62
     0
 10
123.0000000001444
 20
67.152147832423836
 30
0.0
 11
125.455956059016
 21
69.608103891295414
 31
0.0
  0
LINE
  5
1AE4
  8
0
 62
     0
 10
123.0000000001444
 20
68.274679847557479
 30
0.0
 11
124.3445426984225
 21
69.619222545835584
 31
0.0
  0
LINE
  5
1AE5
  8
0
 62
     0
 10
123.0000000001444
 20
69.397211862691094
 30
0.0
 11
123.3394901219614
 21
69.736701984508102
 31
0.0
  0
ENDBLK
  5
1AE7
  8
0
  0
BLOCK
  8
0
  2
*X79
 70
     1
 10
0.0
 20
0.0
 30
0.0
  3
*X79
  1

  0
LINE
  5
1AE9
  8
0
 62
     0
 10
95.000000000144297
 20
69.54355649801569
 30
0.0
 11
94.785044591094461
 21
69.758511907065511
 31
0.0
  0
LINE
  5
1AEA
  8
0
 62
     0
 10
95.000000000144297
 20
68.421024482882046
 30
0.0
 11
93.79188953573393
 21
69.6291349472924
 31
0.0
  0
LINE
  5
1AEB
  8
0
 62
     0
 10
95.000000000144269
 20
67.298492467748403
 30
0.0
 11
92.696179936233221
 21
69.60231253165945
 31
0.0
  0
LINE
  5
1AEC
  8
0
 62
     0
 10
95.000000000144297
 20
66.17596045261476
 30
0.0
 11
91.458603330105717
 21
69.71735712265334
 31
0.0
  0
LINE
  5
1AED
  8
0
 62
     0
 10
95.000000000144297
 20
65.053428437481102
 30
0.0
 11
90.999999999665732
 21
69.053428437959667
 31
0.0
  0
LINE
  5
1AEE
  8
0
 62
     0
 10
95.000000000144297
 20
63.930896422347459
 30
0.0
 11
90.430896422476479
 21
68.500000000015262
 31
0.0
  0
LINE
  5
1AEF
  8
0
 62
     0
 10
93.243737768197207
 20
64.564626639160892
 30
0.0
 11
89.563860370612744
 21
68.244504036745354
 31
0.0
  0
LINE
  5
1AF0
  8
0
 62
     0
 10
90.185832392215957
 20
66.500000000008512
 30
0.0
 11
89.500000000050505
 21
67.185832392173936
 31
0.0
  0
LINE
  5
1AF1
  8
0
 62
     0
 10
92.504854100639776
 20
64.18097829158468
 30
0.0
 11
91.000000000144794
 21
65.685832392079647
 31
0.0
  0
LINE
  5
1AF2
  8
0
 62
     0
 10
91.142017163115923
 20
64.421283213974903
 30
0.0
 11
90.764519618800307
 21
64.798780758290519
 31
0.0
  0
LINE
  5
1AF3
  8
0
 62
     0
 10
94.637593697385554
 20
63.485445862605133
 30
0.0
 11
95.000000000144269
 21
63.84785216536384
 31
0.0
  0
LINE
  5
1AF4
  8
0
 62
     0
 10
94.338050327412105
 20
64.308434507765327
 30
0.0
 11
95.000000000144269
 21
64.970384180497476
 31
0.0
  0
LINE
  5
1AF5
  8
0
 62
     0
 10
93.765754104161104
 20
64.858670299647969
 30
0.0
 11
95.000000000144269
 21
66.092916195631119
 31
0.0
  0
LINE
  5
1AF6
  8
0
 62
     0
 10
93.000641415751147
 20
64.093557611238012
 30
0.0
 11
93.25829497252451
 21
64.351211168011361
 31
0.0
  0
LINE
  5
1AF7
  8
0
 62
     0
 10
92.046372718744365
 20
64.261820929364887
 30
0.0
 11
95.000000000144269
 21
67.215448210764762
 31
0.0
  0
LINE
  5
1AF8
  8
0
 62
     0
 10
91.092104021737612
 20
64.430084247491749
 30
0.0
 11
95.000000000144269
 21
68.337980225898406
 31
0.0
  0
LINE
  5
1AF9
  8
0
 62
     0
 10
91.000000000146684
 20
65.460512241034465
 30
0.0
 11
95.000000000144269
 21
69.460512241032063
 31
0.0
  0
LINE
  5
1AFA
  8
0
 62
     0
 10
90.893666306773042
 20
66.47671056279448
 30
0.0
 11
94.072388621534515
 21
69.655432877555924
 31
0.0
  0
LINE
  5
1AFB
  8
0
 62
     0
 10
89.825764097368875
 20
66.531340368523942
 30
0.0
 11
92.892690376955642
 21
69.598266648110723
 31
0.0
  0
LINE
  5
1AFC
  8
0
 62
     0
 10
90.99999999966758
 20
68.828108285956304
 30
0.0
 11
91.837474026840582
 21
69.665582313129306
 31
0.0
  0
LINE
  5
1AFD
  8
0
 62
     0
 10
89.499999999982165
 20
67.328108286270904
 30
0.0
 11
90.671891713723781
 21
68.500000000012506
 31
0.0
  0
ENDBLK
  5
1AFF
  8
0
  0
BLOCK
  8
0
  2
*U80
 70
     1
 10
0.0
 20
0.0
 30
0.0
  3
*U80
  1

  0
TEXT
  5
1C5E
  8
SAPA_MATT
 62
     2
 10
179.99734841258999
 20
-13.22499999999479
 30
0.0
 40
3.5
  1
min. 130
 50
90.0
  7
ISO
  0
ENDBLK
  5
1C60
  8
0
  0
BLOCK
  8
0
  2
*U81
 70
     1
 10
0.0
 20
0.0
 30
0.0
  3
*U81
  1

  0
TEXT
  5
1C62
  8
SAPA_MATT
 62
     2
 10
-32.449999999999889
 20
102.0000000000001
 30
0.0
 40
3.5
  1
88
  7
ISO
  0
ENDBLK
  5
1C64
  8
0
  0
BLOCK
  8
0
  2
*U82
 70
     1
 10
0.0
 20
0.0
 30
0.0
  3
*U82
  1

  0
TEXT
  5
1C66
  8
SAPA_MATT
 62
     2
 10
73.17499999975108
 20
114.0000000000001
 30
0.0
 40
3.5
  1
125
  7
ISO
  0
ENDBLK
  5
1C68
  8
0
  0
BLOCK
  8
0
  2
*U83
 70
     1
 10
0.0
 20
0.0
 30
0.0
  3
*U83
  1

  0
TEXT
  5
1C6A
  8
SAPA_MATT
 62
     2
 10
45.900000000090387
 20
102.0000000000001
 30
0.0
 40
3.5
  1
71.5
  7
ISO
  0
ENDBLK
  5
1C6C
  8
0
  0
BLOCK
  8
0
  2
*U84
 70
     1
 10
0.0
 20
0.0
 30
0.0
  3
*U84
  1

  0
TEXT
  5
1C6E
  8
SAPA_MATT
 62
     2
 10
167.9999999277413
 20
-1.4749999999999679
 30
0.0
 40
3.5
  1
117
 50
90.0
  7
ISO
  0
ENDBLK
  5
1C70
  8
0
  0
ENDSEC
  0
SECTION
  2
ENTITIES
  0
TEXT
  5
70A
  8
SAPA_ARTIKELNR
 10
12.345450637514279
 20
-32.243587403564142
 30
0.0000000048844772
 40
3.5
  1
D8K029
 50
90.0
  7
ISO
  0
TEXT
  5
722
  8
SAPA_ARTIKELNR
 10
130.3840117032716
 20
71.432510928874734
 30
0.0000000048844772
 40
3.5
  1
D8V002
 50
90.0
  7
ISO
  0
POLYLINE
  5
85A
  8
SAPA_BESLAG
 66
     1
 10
0.0
 20
0.0
 30
0.0
 70
     1
  0
VERTEX
  5
EFE
  8
SAPA_BESLAG
 10
120.50000000161209
 20
27.50000000268366
 30
0.0
 42
-0.4142135623733615
  0
VERTEX
  5
EFF
  8
SAPA_BESLAG
 10
120.00000000161209
 20
27.000000002683201
 30
0.0
  0
VERTEX
  5
F00
  8
SAPA_BESLAG
 10
115.7000000016092
 20
27.000000002683201
 30
0.0
 42
-0.4142135623730951
  0
VERTEX
  5
F01
  8
SAPA_BESLAG
 10
115.2000000016092
 20
27.500000002683201
 30
0.0
  0
VERTEX
  5
F02
  8
SAPA_BESLAG
 10
115.2000000016092
 20
46.934173753879989
 30
0.0
 42
-0.0655434628193178
  0
VERTEX
  5
F03
  8
SAPA_BESLAG
 10
115.21703708846741
 20
47.063583276432567
 30
0.0
  0
VERTEX
  5
F04
  8
SAPA_BESLAG
 10
115.9045481597676
 20
49.629409525242558
 30
0.0
 42
-0.3394542588589677
  0
VERTEX
  5
F05
  8
SAPA_BESLAG
 10
116.38751107291
 20
50.000000002683649
 30
0.0
  0
VERTEX
  5
F06
  8
SAPA_BESLAG
 10
118.2053092526299
 20
50.000000002683649
 30
0.0
 42
-0.3394542588711624
  0
VERTEX
  5
F07
  8
SAPA_BESLAG
 10
118.68827216577171
 20
49.62940952523077
 30
0.0
  0
VERTEX
  5
F08
  8
SAPA_BESLAG
 10
119.4007005817306
 20
46.970590480043661
 30
0.0
 42
0.3394542588715295
  0
VERTEX
  5
F09
  8
SAPA_BESLAG
 10
119.8836634948789
 20
46.600000002580792
 30
0.0
  0
VERTEX
  5
F0A
  8
SAPA_BESLAG
 10
122.1163365090147
 20
46.600000002581247
 30
0.0
 42
0.2360679770209484
  0
VERTEX
  5
F0B
  8
SAPA_BESLAG
 10
122.5163365084705
 20
46.800000001847771
 30
0.0
 42
-0.2360679770747178
  0
VERTEX
  5
F0C
  8
SAPA_BESLAG
 10
122.9163365080281
 20
47.000000001122046
 30
0.0
  0
VERTEX
  5
F0D
  8
SAPA_BESLAG
 10
130.00000000316919
 20
46.999999999689607
 30
0.0
 42
-0.4142135623134248
  0
VERTEX
  5
F0E
  8
SAPA_BESLAG
 10
130.5000000030673
 20
46.499999999689607
 30
0.0
  0
VERTEX
  5
F0F
  8
SAPA_BESLAG
 10
130.50000000305269
 20
44.100000002683572
 30
0.0
 42
-0.4142135623730951
  0
VERTEX
  5
F10
  8
SAPA_BESLAG
 10
130.0000000030528
 20
43.600000002683558
 30
0.0
  0
VERTEX
  5
F11
  8
SAPA_BESLAG
 10
122.00000000161209
 20
43.600000002684467
 30
0.0
 42
0.4142135623730951
  0
VERTEX
  5
F12
  8
SAPA_BESLAG
 10
120.50000000161209
 20
42.100000002684467
 30
0.0
  0
VERTEX
  5
F13
  8
SAPA_BESLAG
 10
120.5000000015976
 20
38.846410164153639
 30
0.0
  0
VERTEX
  5
F14
  8
SAPA_BESLAG
 10
120.3000000016296
 20
38.500000002685013
 30
0.0
  0
VERTEX
  5
F15
  8
SAPA_BESLAG
 10
120.50000000161209
 20
38.153589841166387
 30
0.0
  0
VERTEX
  5
F16
  8
SAPA_BESLAG
 10
120.5000000015976
 20
36.846410164171367
 30
0.0
  0
VERTEX
  5
F17
  8
SAPA_BESLAG
 10
120.3000000016296
 20
36.500000002683208
 30
0.0
  0
VERTEX
  5
F18
  8
SAPA_BESLAG
 10
120.50000000161209
 20
36.153589841164568
 30
0.0
  0
SEQEND
  5
F19
  8
SAPA_BESLAG
  0
POLYLINE
  5
85B
  8
SAPA_BESLAG
 66
     1
 10
0.0
 20
0.0
 30
0.0
 70
     1
  0
VERTEX
  5
F1A
  8
SAPA_BESLAG
 10
97.500000001117385
 20
27.50000000268366
 30
0.0
 42
0.4142135623733615
  0
VERTEX
  5
F1B
  8
SAPA_BESLAG
 10
98.000000001117371
 20
27.000000002683201
 30
0.0
  0
VERTEX
  5
F1C
  8
SAPA_BESLAG
 10
102.3000000011202
 20
27.000000002683201
 30
0.0
 42
0.4142135623730951
  0
VERTEX
  5
F1D
  8
SAPA_BESLAG
 10
102.8000000011203
 20
27.500000002683201
 30
0.0
  0
VERTEX
  5
F1E
  8
SAPA_BESLAG
 10
102.8000000011203
 20
46.934173753879989
 30
0.0
 42
0.0655434628193178
  0
VERTEX
  5
F1F
  8
SAPA_BESLAG
 10
102.7829629142621
 20
47.063583276432567
 30
0.0
  0
VERTEX
  5
F20
  8
SAPA_BESLAG
 10
102.09545184296189
 20
49.629409525242558
 30
0.0
 42
0.3394542588589676
  0
VERTEX
  5
F21
  8
SAPA_BESLAG
 10
101.61248892981941
 20
50.000000002683649
 30
0.0
  0
VERTEX
  5
F22
  8
SAPA_BESLAG
 10
99.794690750099619
 20
50.000000002683649
 30
0.0
 42
0.3394542588711624
  0
VERTEX
  5
F23
  8
SAPA_BESLAG
 10
99.3117278369578
 20
49.62940952523077
 30
0.0
  0
VERTEX
  5
F24
  8
SAPA_BESLAG
 10
98.599299420998904
 20
46.970590480043661
 30
0.0
 42
-0.3394542588715294
  0
VERTEX
  5
F25
  8
SAPA_BESLAG
 10
98.116336507850576
 20
46.600000002580792
 30
0.0
  0
VERTEX
  5
F26
  8
SAPA_BESLAG
 10
95.883663493714778
 20
46.600000002581247
 30
0.0
 42
-0.2360679770209483
  0
VERTEX
  5
F27
  8
SAPA_BESLAG
 10
95.483663494258977
 20
46.800000001847749
 30
0.0
 42
0.2360679770747184
  0
VERTEX
  5
F28
  8
SAPA_BESLAG
 10
95.083663494701398
 20
47.000000001122046
 30
0.0
  0
VERTEX
  5
F29
  8
SAPA_BESLAG
 10
87.999999999560345
 20
46.999999999689607
 30
0.0
 42
0.4142135623134248
  0
VERTEX
  5
F2A
  8
SAPA_BESLAG
 10
87.499999999662194
 20
46.499999999689607
 30
0.0
  0
VERTEX
  5
F2B
  8
SAPA_BESLAG
 10
87.499999999676731
 20
44.100000002683572
 30
0.0
 42
0.4142135623730951
  0
VERTEX
  5
F2C
  8
SAPA_BESLAG
 10
87.999999999676717
 20
43.600000002683558
 30
0.0
  0
VERTEX
  5
F2D
  8
SAPA_BESLAG
 10
96.000000001117371
 20
43.600000002684467
 30
0.0
 42
-0.4142135623730951
  0
VERTEX
  5
F2E
  8
SAPA_BESLAG
 10
97.500000001117385
 20
42.100000002684467
 30
0.0
  0
VERTEX
  5
F2F
  8
SAPA_BESLAG
 10
97.500000001131923
 20
38.846410164153639
 30
0.0
  0
VERTEX
  5
F30
  8
SAPA_BESLAG
 10
97.700000001099909
 20
38.500000002685013
 30
0.0
  0
VERTEX
  5
F31
  8
SAPA_BESLAG
 10
97.500000001117385
 20
38.153589841166387
 30
0.0
  0
VERTEX
  5
F32
  8
SAPA_BESLAG
 10
97.500000001131923
 20
36.846410164171367
 30
0.0
  0
VERTEX
  5
F33
  8
SAPA_BESLAG
 10
97.700000001099909
 20
36.500000002683208
 30
0.0
  0
VERTEX
  5
F34
  8
SAPA_BESLAG
 10
97.500000001117385
 20
36.153589841164568
 30
0.0
  0
SEQEND
  5
F35
  8
SAPA_BESLAG
  0
POLYLINE
  5
85C
  8
SAPA_BESLAG
 66
     1
 10
0.0
 20
0.0
 30
0.0
  0
VERTEX
  5
F36
  8
SAPA_BESLAG
 10
102.79999998578251
 20
28.000000002376702
 30
0.0
  0
VERTEX
  5
F37
  8
SAPA_BESLAG
 10
102.79999998578251
 20
50.350000002367949
 30
0.0
  0
SEQEND
  5
F38
  8
SAPA_BESLAG
  0
POLYLINE
  5
85D
  8
SAPA_BESLAG
 66
     1
 10
0.0
 20
0.0
 30
0.0
  0
VERTEX
  5
F39
  8
SAPA_BESLAG
 10
115.1999999857767
 20
50.350000002383489
 30
0.0
  0
VERTEX
  5
F3A
  8
SAPA_BESLAG
 10
115.1999999857767
 20
28.000000002376702
 30
0.0
  0
SEQEND
  5
F3B
  8
SAPA_BESLAG
  0
POLYLINE
  5
85E
  8
SAPA_BESLAG
 66
     1
 10
0.0
 20
0.0
 30
0.0
  0
VERTEX
  5
F3C
  8
SAPA_BESLAG
 10
103.0000000013502
 20
50.350000002368212
 30
0.0
  0
VERTEX
  5
F3D
  8
SAPA_BESLAG
 10
103.0000000013502
 20
22.750000002376709
 30
0.0
  0
VERTEX
  5
F3E
  8
SAPA_BESLAG
 10
103.2500000013502
 20
22.50000000236852
 30
0.0
  0
VERTEX
  5
F3F
  8
SAPA_BESLAG
 10
103.2500000013502
 20
50.35000000236851
 30
0.0
  0
SEQEND
  5
F40
  8
SAPA_BESLAG
  0
POLYLINE
  5
85F
  8
SAPA_BESLAG
 66
     1
 10
0.0
 20
0.0
 30
0.0
  0
VERTEX
  5
F41
  8
SAPA_BESLAG
 10
114.7500000013502
 20
50.35000000238292
 30
0.0
  0
VERTEX
  5
F42
  8
SAPA_BESLAG
 10
114.7500000013502
 20
22.50000000236852
 30
0.0
  0
VERTEX
  5
F43
  8
SAPA_BESLAG
 10
115.0000000013647
 20
22.750000002376709
 30
0.0
  0
VERTEX
  5
F44
  8
SAPA_BESLAG
 10
115.00000000135201
 20
50.350000002383261
 30
0.0
  0
SEQEND
  5
F45
  8
SAPA_BESLAG
  0
POLYLINE
  5
860
  8
SAPA_BESLAG
 66
     1
 10
0.0
 20
0.0
 30
0.0
  0
VERTEX
  5
F46
  8
SAPA_BESLAG
 10
103.2500000013502
 20
22.50000000236852
 30
0.0
  0
VERTEX
  5
F47
  8
SAPA_BESLAG
 10
106.7196491511562
 20
22.500000002372872
 30
0.0
 42
-0.4385290096522839
  0
VERTEX
  5
F48
  8
SAPA_BESLAG
 10
111.2803508515441
 20
22.500000002372872
 30
0.0
  0
VERTEX
  5
F49
  8
SAPA_BESLAG
 10
114.7500000013502
 20
22.50000000236761
 30
0.0
  0
SEQEND
  5
F4A
  8
SAPA_BESLAG
  0
LINE
  5
861
  8
SAPA_BESLAG
 10
102.79999998578251
 20
50.350000002367949
 30
0.0
 11
115.1999999857767
 21
50.350000002383489
 31
0.0
  0
TEXT
  5
8F1
  8
SAPA_ARTIKELNR
 10
-44.589521848821633
 20
4.9093443358980551
 30
0.0000000048844772
 40
3.5
  1
D8A002
  7
ISO
  0
LINE
  5
9F6
  8
SAPA_ANSLUTNING
 10
-78.999999999999829
 20
60.000000000015859
 30
0.0
 11
-119.49147905908529
 21
60.000000000015859
 31
0.0
  0
LINE
  5
9F7
  8
SAPA_ANSLUTNING
 10
-78.999999999999829
 20
30.999999999999861
 30
0.0
 11
-119.49147905908529
 21
30.999999999999861
 31
0.0
1001
GENIUS_GENREC_14
1002
{
1000
PYDIR
1011
-121.5000000361289
1021
0.0
1031
0.0
1021
30.999999999999861
1031
0.0
1002
}
1002
{
1000
PXDIR
1011
-56.000000000007091
1021
0.0
1031
0.0
1021
-70.000000000000142
1031
0.0
1002
}
1002
{
1000
PORI
1011
-111.5000000361289
1021
0.0
1031
0.0
1021
-70.000000000000142
1031
0.0
1002
}
1002
{
1000
PINS
1011
-111.5000000361289
1021
0.0
1031
0.0
1021
-70.000000000000142
1031
0.0
1002
}
1002
{
1000
PINS2
1011
8.9999999999784634
1021
0.0
1031
0.0
1021
30.999999999999861
1031
0.0
1002
}
1002
{
1000
C
1070
     1
1002
}
1001
GENIUS_GENOBJ-N-REC_13
1002
{
1000
OWNER
1000
GEN
1002
}
1001
GENIUS_GENODEF_13
1002
{
1000
HIER
1070
     0
1002
}
1002
{
1000
MANEDIT
1070
     0
1002
}
1002
{
1000
NOSEL
1070
     0
1002
}
1002
{
1000
BEHIND
1070
     0
1002
}
1002
{
1000
OTHER
1070
     0
1002
}
1002
{
1000
REACTOR
1002
}
  0
INSERT
  5
9F8
  8
SAPA_ANSLUTNING
  6
CONTINUOUS
  2
*X45
 10
0.0
 20
0.0
 30
0.0
1001
ACAD
1000
HATCH
1002
{
1070
    19
1000
ANSI37
1040
0.25
1040
0.0
1000
R14_HATCH_DATA
1000
9F8
1011
1.0
1021
0.0
1031
0.0
1021
0.0
1031
0.0
1011
0.0
1021
0.0
1031
0.0
1021
1.0
1031
0.0
1011
0.0
1021
0.0
1031
0.0
1021
0.0
1031
1.0
1040
0.0
1010
0.0
1020
0.0
1030
1.0
1000
ANSI37
1070
     0
1070
     0
1071
        1
1071
        5
1071
        6
1070
     2
1040
137.49999992774141
1040
58.500000000014921
1040
1.4999999999999989
1040
5.49778714378209
1040
6.2831853071795569
1070
     0
1070
     1
1040
138.99999992774141
1040
58.50000000001495
1040
138.9999999277413
1040
47.663348763324421
1070
     3
1040
143.99999992774141
1040
47.663348763324102
1040
0.0
1040
-5.6210574168242138
1040
0.8895123513655372
1040
1.5707963267948959
1040
2.144309431217978
1070
     0
1070
     3
1040
143.99999992774141
1040
47.663348763324102
1040
0.0
1040
-5.6210574168242138
1040
0.8895123513655372
1040
2.144309431217978
1040
4.7123889803846888
1070
     0
1070
     1
1040
148.99999992774141
1040
47.663348763324763
1040
148.99999992774141
1040
59.999999999999972
1070
     2
1040
142.90216751656979
1040
80.646721299902367
1040
21.528368738726542
1040
1.2836189008757071
1040
1.773853352005716
1070
     0
1071
        0
1070
     0
1070
     1
1040
0.0
1040
0.25
1070
     0
1070
     2
1040
0.7853981633974483
1040
0.0000000000001208
1040
0.0000000000149498
1040
-0.5612660075668221
1040
0.5612660075668221
1070
     0
1040
2.3561944901923439
1040
0.0000000000001208
1040
0.0000000000149498
1040
-0.5612660075668221
1040
-0.5612660075668221
1070
     0
1040
0.0591690278051155
1071
        1
1040
142.9986763469897
1040
56.420364712940852
1040
0.0
1002
}
  0
LINE
  5
9F9
  8
SAPA_ANSLUTNING
 10
-78.999999999999773
 20
-70.000000000005485
 30
0.0
 11
148.99999992774141
 21
-70.000000000005485
 31
0.0
  0
LINE
  5
9FA
  8
SAPA_ANSLUTNING
 10
-78.999999999999773
 20
-70.000000000005485
 30
0.0
 11
-78.999999999999773
 21
60.000000000016001
 31
0.0
  0
POLYLINE
  5
9FB
  8
SAPA_ANSLUTNING
 66
     1
 10
0.0
 20
0.0
 30
0.0
 70
     1
  0
VERTEX
  5
F7A
  8
SAPA_ANSLUTNING
 10
69.749999999999943
 20
-67.000000000005485
 30
0.0
 42
-0.4142135623730951
  0
VERTEX
  5
F7B
  8
SAPA_ANSLUTNING
 10
71.749999999999943
 20
-69.000000000005485
 30
0.0
  0
VERTEX
  5
F7C
  8
SAPA_ANSLUTNING
 10
71.749999999999943
 20
-70.000000000005485
 30
0.0
  0
VERTEX
  5
F7D
  8
SAPA_ANSLUTNING
 10
16.75000000000006
 20
-70.000000000005485
 30
0.0
  0
VERTEX
  5
F7E
  8
SAPA_ANSLUTNING
 10
16.74999999999995
 20
-10.000000000005461
 30
0.0
  0
VERTEX
  5
F7F
  8
SAPA_ANSLUTNING
 10
17.74999999999995
 20
-10.000000000005461
 30
0.0
 42
-0.4142135623730951
  0
VERTEX
  5
F80
  8
SAPA_ANSLUTNING
 10
19.74999999999995
 20
-12.00000000000545
 30
0.0
  0
VERTEX
  5
F81
  8
SAPA_ANSLUTNING
 10
19.75000000000006
 20
-65.000000000005485
 30
0.0
 42
0.4142135623730951
  0
VERTEX
  5
F82
  8
SAPA_ANSLUTNING
 10
21.75000000000006
 20
-67.000000000005485
 30
0.0
  0
SEQEND
  5
F83
  8
SAPA_ANSLUTNING
  0
POLYLINE
  5
9FC
  8
SAPA_ANSLUTNING
 66
     1
 10
0.0
 20
0.0
 30
0.0
 70
     1
1001
GENIUS_GENOREF_13
1005
0
  0
VERTEX
  5
F84
  8
SAPA_ANSLUTNING
 10
133.24999992774141
 20
-12.00000000000545
 30
0.0
  0
VERTEX
  5
F85
  8
SAPA_ANSLUTNING
 10
133.24999992774141
 20
-65.000000000005485
 30
0.0
 42
-0.4142135623730951
  0
VERTEX
  5
F86
  8
SAPA_ANSLUTNING
 10
131.24999992774141
 20
-67.000000000005485
 30
0.0
  0
VERTEX
  5
F87
  8
SAPA_ANSLUTNING
 10
83.249999927741385
 20
-67.000000000005485
 30
0.0
 42
0.4142135623730951
  0
VERTEX
  5
F88
  8
SAPA_ANSLUTNING
 10
81.249999927741385
 20
-69.000000000005485
 30
0.0
  0
VERTEX
  5
F89
  8
SAPA_ANSLUTNING
 10
81.249999927741385
 20
-70.000000000005485
 30
0.0
  0
VERTEX
  5
F8A
  8
SAPA_ANSLUTNING
 10
136.24999992774141
 20
-70.000000000005485
 30
0.0
  0
VERTEX
  5
F8B
  8
SAPA_ANSLUTNING
 10
136.24999992774141
 20
-10.000000000005461
 30
0.0
  0
VERTEX
  5
F8C
  8
SAPA_ANSLUTNING
 10
135.24999992774141
 20
-10.000000000005461
 30
0.0
 42
0.4142135623730951
  0
SEQEND
  5
F8D
  8
SAPA_ANSLUTNING
  0
LINE
  5
9FD
  8
SAPA_ANSLUTNING
 10
148.99999992774141
 20
59.999999999999972
 30
0.0
 11
194.0032559343997
 21
60.0
 31
0.0
  0
LINE
  5
9FE
  8
SAPA_ANSLUTNING
 10
194.0032559343995
 20
30.999999999999972
 30
0.0
 11
148.9999999277413
 21
31.0
 31
0.0
  0
LINE
  5
9FF
  8
SAPA_ANSLUTNING
 10
148.99999992774141
 20
-70.000000000005485
 30
0.0
 11
148.99999992774141
 21
59.999999999999972
 31
0.0
  0
ARC
  5
A00
  8
SAPA_ANSLUTNING
 10
142.90216751656979
 20
80.646721299902509
 30
0.0
 40
21.52836873872667
 50
258.3656894549398
 51
286.45405447659971
  0
INSERT
  5
A01
  8
SAPA_ANSLUTNING
  6
CONTINUOUS
  2
*X46
 10
0.0
 20
0.0
 30
0.0
1001
ACAD
1000
HATCH
1002
{
1070
    19
1000
HEX
1040
0.25
1040
0.0
1000
ASC_BOUNDS
1070
     1
1070
     1
1070
     1
1005
A02
1000
ASC_SEEDPOINT
1011
144.242109937816
1021
0.0
1031
0.0
1021
47.781686452380818
1031
0.0
1000
R14_HATCH_DATA
1000
A01
1011
1.0
1021
0.0
1031
0.0
1021
0.0
1031
0.0
1011
0.0
1021
0.0
1031
0.0
1021
1.0
1031
0.0
1011
0.0
1021
0.0
1031
0.0
1021
0.0
1031
1.0
1040
0.0
1010
0.0
1020
0.0
1030
1.0
1000
HEX
1070
     0
1070
     1
1071
        1
1071
        5
1071
        1
1070
     3
1040
143.99999992774141
1040
47.663348763324102
1040
0.0
1040
-5.6210574168242138
1040
0.8895123513655372
1040
0.0
1040
6.2831853071795862
1070
     1
1071
        1
1005
A02
1070
     0
1070
     1
1040
0.0
1040
0.25
1070
     0
1070
     3
1040
0.0
1040
0.0000000000001208
1040
0.0000000000149498
1040
0.0
1040
1.374814999999999
1070
     2
1040
0.79375
1040
-1.587499999999999
1040
2.0943951023931948
1040
0.0000000000001208
1040
0.0000000000149498
1040
-1.190624715503902
1040
-0.6874074999999996
1070
     2
1040
0.7937499999999989
1040
-1.587499999999997
1040
1.047197551196597
1040
0.7937500000001095
1040
0.0000000000149498
1040
-1.190624715503902
1040
0.6874075000000001
1070
     2
1040
0.79375
1040
-1.587499999999999
1040
0.0591690278051155
1071
        1
1040
144.242109937816
1040
47.781686452380818
1040
0.0
1002
}
  0
POLYLINE
  5
A02
  8
SAPA_ANSLUTNING
 10
143.99999992774141
 20
42.042291346499887
 30
0.0
 66
     1
 70
     8
  0
VERTEX
  8
SAPA_ANSLUTNING
  5
1C74
 10
144.000
 20
42.0423
 30
0.000000
  70
    32
  0
VERTEX
  8
SAPA_ANSLUTNING
  5
1C75
 10
144.245
 20
42.0491
 30
0.000000
  70
    32
  0
VERTEX
  8
SAPA_ANSLUTNING
  5
1C76
 10
144.490
 20
42.0694
 30
0.000000
  70
    32
  0
VERTEX
  8
SAPA_ANSLUTNING
  5
1C77
 10
144.734
 20
42.1031
 30
0.000000
  70
    32
  0
VERTEX
  8
SAPA_ANSLUTNING
  5
1C78
 10
144.975
 20
42.1503
 30
0.000000
  70
    32
  0
VERTEX
  8
SAPA_ANSLUTNING
  5
1C79
 10
145.215
 20
42.2107
 30
0.000000
  70
    32
  0
VERTEX
  8
SAPA_ANSLUTNING
  5
1C7A
 10
145.451
 20
42.2843
 30
0.000000
  70
    32
  0
VERTEX
  8
SAPA_ANSLUTNING
  5
1C7B
 10
145.684
 20
42.3709
 30
0.000000
  70
    32
  0
VERTEX
  8
SAPA_ANSLUTNING
  5
1C7C
 10
145.913
 20
42.4702
 30
0.000000
  70
    32
  0
VERTEX
  8
SAPA_ANSLUTNING
  5
1C7D
 10
146.138
 20
42.5820
 30
0.000000
  70
    32
  0
VERTEX
  8
SAPA_ANSLUTNING
  5
1C7E
 10
146.357
 20
42.7060
 30
0.000000
  70
    32
  0
VERTEX
  8
SAPA_ANSLUTNING
  5
1C7F
 10
146.571
 20
42.8420
 30
0.000000
  70
    32
  0
VERTEX
  8
SAPA_ANSLUTNING
  5
1C80
 10
146.778
 20
42.9896
 30
0.000000
  70
    32
  0
VERTEX
  8
SAPA_ANSLUTNING
  5
1C81
 10
146.978
 20
43.1485
 30
0.000000
  70
    32
  0
VERTEX
  8
SAPA_ANSLUTNING
  5
1C82
 10
147.172
 20
43.3182
 30
0.000000
  70
    32
  0
VERTEX
  8
SAPA_ANSLUTNING
  5
1C83
 10
147.358
 20
43.4984
 30
0.000000
  70
    32
  0
VERTEX
  8
SAPA_ANSLUTNING
  5
1C84
 10
147.536
 20
43.6887
 30
0.000000
  70
    32
  0
VERTEX
  8
SAPA_ANSLUTNING
  5
1C85
 10
147.705
 20
43.8885
 30
0.000000
  70
    32
  0
VERTEX
  8
SAPA_ANSLUTNING
  5
1C86
 10
147.865
 20
44.0974
 30
0.000000
  70
    32
  0
VERTEX
  8
SAPA_ANSLUTNING
  5
1C87
 10
148.016
 20
44.3149
 30
0.000000
  70
    32
  0
VERTEX
  8
SAPA_ANSLUTNING
  5
1C88
 10
148.157
 20
44.5405
 30
0.000000
  70
    32
  0
VERTEX
  8
SAPA_ANSLUTNING
  5
1C89
 10
148.289
 20
44.7735
 30
0.000000
  70
    32
  0
VERTEX
  8
SAPA_ANSLUTNING
  5
1C8A
 10
148.410
 20
45.0136
 30
0.000000
  70
    32
  0
VERTEX
  8
SAPA_ANSLUTNING
  5
1C8B
 10
148.520
 20
45.2600
 30
0.000000
  70
    32
  0
VERTEX
  8
SAPA_ANSLUTNING
  5
1C8C
 10
148.619
 20
45.5123
 30
0.000000
  70
    32
  0
VERTEX
  8
SAPA_ANSLUTNING
  5
1C8D
 10
148.708
 20
45.7697
 30
0.000000
  70
    32
  0
VERTEX
  8
SAPA_ANSLUTNING
  5
1C8E
 10
148.785
 20
46.0316
 30
0.000000
  70
    32
  0
VERTEX
  8
SAPA_ANSLUTNING
  5
1C8F
 10
148.850
 20
46.2975
 30
0.000000
  70
    32
  0
VERTEX
  8
SAPA_ANSLUTNING
  5
1C90
 10
148.904
 20
46.5667
 30
0.000000
  70
    32
  0
VERTEX
  8
SAPA_ANSLUTNING
  5
1C91
 10
148.946
 20
46.8386
 30
0.000000
  70
    32
  0
VERTEX
  8
SAPA_ANSLUTNING
  5
1C92
 10
148.976
 20
47.1124
 30
0.000000
  70
    32
  0
VERTEX
  8
SAPA_ANSLUTNING
  5
1C93
 10
148.994
 20
47.3875
 30
0.000000
  70
    32
  0
VERTEX
  8
SAPA_ANSLUTNING
  5
1C94
 10
149.000
 20
47.6633
 30
0.000000
  70
    32
  0
VERTEX
  8
SAPA_ANSLUTNING
  5
1C95
 10
148.994
 20
47.9392
 30
0.000000
  70
    32
  0
VERTEX
  8
SAPA_ANSLUTNING
  5
1C96
 10
148.976
 20
48.2143
 30
0.000000
  70
    32
  0
VERTEX
  8
SAPA_ANSLUTNING
  5
1C97
 10
148.946
 20
48.4881
 30
0.000000
  70
    32
  0
VERTEX
  8
SAPA_ANSLUTNING
  5
1C98
 10
148.904
 20
48.7600
 30
0.000000
  70
    32
  0
VERTEX
  8
SAPA_ANSLUTNING
  5
1C99
 10
148.850
 20
49.0292
 30
0.000000
  70
    32
  0
VERTEX
  8
SAPA_ANSLUTNING
  5
1C9A
 10
148.785
 20
49.2951
 30
0.000000
  70
    32
  0
VERTEX
  8
SAPA_ANSLUTNING
  5
1C9B
 10
148.708
 20
49.5570
 30
0.000000
  70
    32
  0
VERTEX
  8
SAPA_ANSLUTNING
  5
1C9C
 10
148.619
 20
49.8144
 30
0.000000
  70
    32
  0
VERTEX
  8
SAPA_ANSLUTNING
  5
1C9D
 10
148.520
 20
50.0667
 30
0.000000
  70
    32
  0
VERTEX
  8
SAPA_ANSLUTNING
  5
1C9E
 10
148.410
 20
50.3131
 30
0.000000
  70
    32
  0
VERTEX
  8
SAPA_ANSLUTNING
  5
1C9F
 10
148.289
 20
50.5531
 30
0.000000
  70
    32
  0
VERTEX
  8
SAPA_ANSLUTNING
  5
1CA0
 10
148.157
 20
50.7862
 30
0.000000
  70
    32
  0
VERTEX
  8
SAPA_ANSLUTNING
  5
1CA1
 10
148.016
 20
51.0118
 30
0.000000
  70
    32
  0
VERTEX
  8
SAPA_ANSLUTNING
  5
1CA2
 10
147.865
 20
51.2293
 30
0.000000
  70
    32
  0
VERTEX
  8
SAPA_ANSLUTNING
  5
1CA3
 10
147.705
 20
51.4382
 30
0.000000
  70
    32
  0
VERTEX
  8
SAPA_ANSLUTNING
  5
1CA4
 10
147.536
 20
51.6380
 30
0.000000
  70
    32
  0
VERTEX
  8
SAPA_ANSLUTNING
  5
1CA5
 10
147.358
 20
51.8283
 30
0.000000
  70
    32
  0
VERTEX
  8
SAPA_ANSLUTNING
  5
1CA6
 10
147.172
 20
52.0085
 30
0.000000
  70
    32
  0
VERTEX
  8
SAPA_ANSLUTNING
  5
1CA7
 10
146.978
 20
52.1782
 30
0.000000
  70
    32
  0
VERTEX
  8
SAPA_ANSLUTNING
  5
1CA8
 10
146.778
 20
52.3371
 30
0.000000
  70
    32
  0
VERTEX
  8
SAPA_ANSLUTNING
  5
1CA9
 10
146.571
 20
52.4847
 30
0.000000
  70
    32
  0
VERTEX
  8
SAPA_ANSLUTNING
  5
1CAA
 10
146.357
 20
52.6207
 30
0.000000
  70
    32
  0
VERTEX
  8
SAPA_ANSLUTNING
  5
1CAB
 10
146.138
 20
52.7447
 30
0.000000
  70
    32
  0
VERTEX
  8
SAPA_ANSLUTNING
  5
1CAC
 10
145.913
 20
52.8565
 30
0.000000
  70
    32
  0
VERTEX
  8
SAPA_ANSLUTNING
  5
1CAD
 10
145.684
 20
52.9558
 30
0.000000
  70
    32
  0
VERTEX
  8
SAPA_ANSLUTNING
  5
1CAE
 10
145.451
 20
53.0424
 30
0.000000
  70
    32
  0
VERTEX
  8
SAPA_ANSLUTNING
  5
1CAF
 10
145.215
 20
53.1160
 30
0.000000
  70
    32
  0
VERTEX
  8
SAPA_ANSLUTNING
  5
1CB0
 10
144.975
 20
53.1764
 30
0.000000
  70
    32
  0
VERTEX
  8
SAPA_ANSLUTNING
  5
1CB1
 10
144.734
 20
53.2236
 30
0.000000
  70
    32
  0
VERTEX
  8
SAPA_ANSLUTNING
  5
1CB2
 10
144.490
 20
53.2573
 30
0.000000
  70
    32
  0
VERTEX
  8
SAPA_ANSLUTNING
  5
1CB3
 10
144.245
 20
53.2776
 30
0.000000
  70
    32
  0
VERTEX
  8
SAPA_ANSLUTNING
  5
1CB4
 10
144.000
 20
53.2844
 30
0.000000
  70
    32
  0
VERTEX
  8
SAPA_ANSLUTNING
  5
1CB5
 10
143.755
 20
53.2776
 30
0.000000
  70
    32
  0
VERTEX
  8
SAPA_ANSLUTNING
  5
1CB6
 10
143.510
 20
53.2573
 30
0.000000
  70
    32
  0
VERTEX
  8
SAPA_ANSLUTNING
  5
1CB7
 10
143.266
 20
53.2236
 30
0.000000
  70
    32
  0
VERTEX
  8
SAPA_ANSLUTNING
  5
1CB8
 10
143.025
 20
53.1764
 30
0.000000
  70
    32
  0
VERTEX
  8
SAPA_ANSLUTNING
  5
1CB9
 10
142.785
 20
53.1160
 30
0.000000
  70
    32
  0
VERTEX
  8
SAPA_ANSLUTNING
  5
1CBA
 10
142.549
 20
53.0424
 30
0.000000
  70
    32
  0
VERTEX
  8
SAPA_ANSLUTNING
  5
1CBB
 10
142.316
 20
52.9558
 30
0.000000
  70
    32
  0
VERTEX
  8
SAPA_ANSLUTNING
  5
1CBC
 10
142.087
 20
52.8565
 30
0.000000
  70
    32
  0
VERTEX
  8
SAPA_ANSLUTNING
  5
1CBD
 10
141.862
 20
52.7447
 30
0.000000
  70
    32
  0
VERTEX
  8
SAPA_ANSLUTNING
  5
1CBE
 10
141.643
 20
52.6207
 30
0.000000
  70
    32
  0
VERTEX
  8
SAPA_ANSLUTNING
  5
1CBF
 10
141.429
 20
52.4847
 30
0.000000
  70
    32
  0
VERTEX
  8
SAPA_ANSLUTNING
  5
1CC0
 10
141.222
 20
52.3371
 30
0.000000
  70
    32
  0
VERTEX
  8
SAPA_ANSLUTNING
  5
1CC1
 10
141.022
 20
52.1782
 30
0.000000
  70
    32
  0
VERTEX
  8
SAPA_ANSLUTNING
  5
1CC2
 10
140.828
 20
52.0085
 30
0.000000
  70
    32
  0
VERTEX
  8
SAPA_ANSLUTNING
  5
1CC3
 10
140.642
 20
51.8283
 30
0.000000
  70
    32
  0
VERTEX
  8
SAPA_ANSLUTNING
  5
1CC4
 10
140.464
 20
51.6380
 30
0.000000
  70
    32
  0
VERTEX
  8
SAPA_ANSLUTNING
  5
1CC5
 10
140.295
 20
51.4382
 30
0.000000
  70
    32
  0
VERTEX
  8
SAPA_ANSLUTNING
  5
1CC6
 10
140.135
 20
51.2293
 30
0.000000
  70
    32
  0
VERTEX
  8
SAPA_ANSLUTNING
  5
1CC7
 10
139.984
 20
51.0118
 30
0.000000
  70
    32
  0
VERTEX
  8
SAPA_ANSLUTNING
  5
1CC8
 10
139.843
 20
50.7862
 30
0.000000
  70
    32
  0
VERTEX
  8
SAPA_ANSLUTNING
  5
1CC9
 10
139.711
 20
50.5531
 30
0.000000
  70
    32
  0
VERTEX
  8
SAPA_ANSLUTNING
  5
1CCA
 10
139.590
 20
50.3131
 30
0.000000
  70
    32
  0
VERTEX
  8
SAPA_ANSLUTNING
  5
1CCB
 10
139.480
 20
50.0667
 30
0.000000
  70
    32
  0
VERTEX
  8
SAPA_ANSLUTNING
  5
1CCC
 10
139.381
 20
49.8144
 30
0.000000
  70
    32
  0
VERTEX
  8
SAPA_ANSLUTNING
  5
1CCD
 10
139.292
 20
49.5570
 30
0.000000
  70
    32
  0
VERTEX
  8
SAPA_ANSLUTNING
  5
1CCE
 10
139.215
 20
49.2951
 30
0.000000
  70
    32
  0
VERTEX
  8
SAPA_ANSLUTNING
  5
1CCF
 10
139.150
 20
49.0292
 30
0.000000
  70
    32
  0
VERTEX
  8
SAPA_ANSLUTNING
  5
1CD0
 10
139.096
 20
48.7600
 30
0.000000
  70
    32
  0
VERTEX
  8
SAPA_ANSLUTNING
  5
1CD1
 10
139.054
 20
48.4881
 30
0.000000
  70
    32
  0
VERTEX
  8
SAPA_ANSLUTNING
  5
1CD2
 10
139.024
 20
48.2143
 30
0.000000
  70
    32
  0
VERTEX
  8
SAPA_ANSLUTNING
  5
1CD3
 10
139.006
 20
47.9392
 30
0.000000
  70
    32
  0
VERTEX
  8
SAPA_ANSLUTNING
  5
1CD4
 10
139.000
 20
47.6633
 30
0.000000
  70
    32
  0
VERTEX
  8
SAPA_ANSLUTNING
  5
1CD5
 10
139.006
 20
47.3875
 30
0.000000
  70
    32
  0
VERTEX
  8
SAPA_ANSLUTNING
  5
1CD6
 10
139.024
 20
47.1124
 30
0.000000
  70
    32
  0
VERTEX
  8
SAPA_ANSLUTNING
  5
1CD7
 10
139.054
 20
46.8386
 30
0.000000
  70
    32
  0
VERTEX
  8
SAPA_ANSLUTNING
  5
1CD8
 10
139.096
 20
46.5667
 30
0.000000
  70
    32
  0
VERTEX
  8
SAPA_ANSLUTNING
  5
1CD9
 10
139.150
 20
46.2975
 30
0.000000
  70
    32
  0
VERTEX
  8
SAPA_ANSLUTNING
  5
1CDA
 10
139.215
 20
46.0316
 30
0.000000
  70
    32
  0
VERTEX
  8
SAPA_ANSLUTNING
  5
1CDB
 10
139.292
 20
45.7697
 30
0.000000
  70
    32
  0
VERTEX
  8
SAPA_ANSLUTNING
  5
1CDC
 10
139.381
 20
45.5123
 30
0.000000
  70
    32
  0
VERTEX
  8
SAPA_ANSLUTNING
  5
1CDD
 10
139.480
 20
45.2600
 30
0.000000
  70
    32
  0
VERTEX
  8
SAPA_ANSLUTNING
  5
1CDE
 10
139.590
 20
45.0136
 30
0.000000
  70
    32
  0
VERTEX
  8
SAPA_ANSLUTNING
  5
1CDF
 10
139.711
 20
44.7735
 30
0.000000
  70
    32
  0
VERTEX
  8
SAPA_ANSLUTNING
  5
1CE0
 10
139.843
 20
44.5405
 30
0.000000
  70
    32
  0
VERTEX
  8
SAPA_ANSLUTNING
  5
1CE1
 10
139.984
 20
44.3149
 30
0.000000
  70
    32
  0
VERTEX
  8
SAPA_ANSLUTNING
  5
1CE2
 10
140.135
 20
44.0974
 30
0.000000
  70
    32
  0
VERTEX
  8
SAPA_ANSLUTNING
  5
1CE3
 10
140.295
 20
43.8885
 30
0.000000
  70
    32
  0
VERTEX
  8
SAPA_ANSLUTNING
  5
1CE4
 10
140.464
 20
43.6887
 30
0.000000
  70
    32
  0
VERTEX
  8
SAPA_ANSLUTNING
  5
1CE5
 10
140.642
 20
43.4984
 30
0.000000
  70
    32
  0
VERTEX
  8
SAPA_ANSLUTNING
  5
1CE6
 10
140.828
 20
43.3182
 30
0.000000
  70
    32
  0
VERTEX
  8
SAPA_ANSLUTNING
  5
1CE7
 10
141.022
 20
43.1485
 30
0.000000
  70
    32
  0
VERTEX
  8
SAPA_ANSLUTNING
  5
1CE8
 10
141.222
 20
42.9896
 30
0.000000
  70
    32
  0
VERTEX
  8
SAPA_ANSLUTNING
  5
1CE9
 10
141.429
 20
42.8420
 30
0.000000
  70
    32
  0
VERTEX
  8
SAPA_ANSLUTNING
  5
1CEA
 10
141.643
 20
42.7060
 30
0.000000
  70
    32
  0
VERTEX
  8
SAPA_ANSLUTNING
  5
1CEB
 10
141.862
 20
42.5820
 30
0.000000
  70
    32
  0
VERTEX
  8
SAPA_ANSLUTNING
  5
1CEC
 10
142.087
 20
42.4702
 30
0.000000
  70
    32
  0
VERTEX
  8
SAPA_ANSLUTNING
  5
1CED
 10
142.316
 20
42.3709
 30
0.000000
  70
    32
  0
VERTEX
  8
SAPA_ANSLUTNING
  5
1CEE
 10
142.549
 20
42.2843
 30
0.000000
  70
    32
  0
VERTEX
  8
SAPA_ANSLUTNING
  5
1CEF
 10
142.785
 20
42.2107
 30
0.000000
  70
    32
  0
VERTEX
  8
SAPA_ANSLUTNING
  5
1CF0
 10
143.025
 20
42.1503
 30
0.000000
  70
    32
  0
VERTEX
  8
SAPA_ANSLUTNING
  5
1CF1
 10
143.266
 20
42.1031
 30
0.000000
  70
    32
  0
VERTEX
  8
SAPA_ANSLUTNING
  5
1CF2
 10
143.510
 20
42.0694
 30
0.000000
  70
    32
  0
VERTEX
  8
SAPA_ANSLUTNING
  5
1CF3
 10
143.755
 20
42.0491
 30
0.000000
  70
    32
  0
VERTEX
  8
SAPA_ANSLUTNING
  5
1CF4
 10
144.000
 20
42.0423
 30
0.000000
  70
    32
  0
SEQEND
  8
SAPA_ANSLUTNING
  5
1CF5
  0
LINE
  5
A03
  8
SAPA_ANSLUTNING
 10
-15.999999999999879
 20
-70.000000000005485
 30
0.0
 11
-15.999999999999931
 21
-111.29283270961351
 31
0.0
  0
POLYLINE
  5
A04
  8
SAPA_ANSLUTNING
 66
     1
 10
0.0
 20
0.0
 30
0.0
  0
VERTEX
  5
FEA
  8
SAPA_ANSLUTNING
 10
140.5010714710823
 20
43.647930409453409
 30
0.0
 42
0.8812634091771057
  0
VERTEX
  5
FEB
  8
SAPA_ANSLUTNING
 10
140.99999992774141
 20
39.711162381233237
 30
0.0
  0
VERTEX
  5
FEC
  8
SAPA_ANSLUTNING
 10
146.99999992774141
 20
39.711162381233237
 30
0.0
 42
-0.9999999999999998
  0
VERTEX
  5
FED
  8
SAPA_ANSLUTNING
 10
146.99999992774141
 20
35.711162381233237
 30
0.0
  0
VERTEX
  5
FEE
  8
SAPA_ANSLUTNING
 10
140.99999992774141
 20
35.711162381233272
 30
0.0
 42
0.9999999999999998
  0
VERTEX
  5
FEF
  8
SAPA_ANSLUTNING
 10
140.99999992774141
 20
31.711162381233269
 30
0.0
  0
VERTEX
  5
FF0
  8
SAPA_ANSLUTNING
 10
146.99999992774141
 20
31.71116238123324
 30
0.0
 42
-0.9999999999999998
  0
VERTEX
  5
FF1
  8
SAPA_ANSLUTNING
 10
146.99999992774141
 20
27.71116238123324
 30
0.0
  0
VERTEX
  5
FF2
  8
SAPA_ANSLUTNING
 10
140.99999992774141
 20
27.711162381233262
 30
0.0
 42
0.9999999999999998
  0
VERTEX
  5
FF3
  8
SAPA_ANSLUTNING
 10
140.99999992774141
 20
23.711162381233269
 30
0.0
  0
VERTEX
  5
FF4
  8
SAPA_ANSLUTNING
 10
146.99999992774141
 20
23.71116238123324
 30
0.0
 42
-0.9999999999999998
  0
VERTEX
  5
FF5
  8
SAPA_ANSLUTNING
 10
146.99999992774141
 20
19.71116238123324
 30
0.0
  0
VERTEX
  5
FF6
  8
SAPA_ANSLUTNING
 10
140.99999992774141
 20
19.711162381233262
 30
0.0
 42
0.9999999999999998
  0
VERTEX
  5
FF7
  8
SAPA_ANSLUTNING
 10
140.99999992774141
 20
15.71116238123326
 30
0.0
  0
VERTEX
  5
FF8
  8
SAPA_ANSLUTNING
 10
146.99999992774141
 20
15.71116238123323
 30
0.0
 42
-0.9999999999999998
  0
VERTEX
  5
FF9
  8
SAPA_ANSLUTNING
 10
146.99999992774141
 20
11.71116238123323
 30
0.0
  0
VERTEX
  5
FFA
  8
SAPA_ANSLUTNING
 10
140.99999992774141
 20
11.71116238123326
 30
0.0
 42
0.9999999999999998
  0
VERTEX
  5
FFB
  8
SAPA_ANSLUTNING
 10
140.99999992774141
 20
7.7111623812332653
 30
0.0
  0
VERTEX
  5
FFC
  8
SAPA_ANSLUTNING
 10
146.99999992774141
 20
7.7111623812332359
 30
0.0
 42
-0.9999999999999998
  0
VERTEX
  5
FFD
  8
SAPA_ANSLUTNING
 10
146.99999992774141
 20
3.7111623812332359
 30
0.0
  0
VERTEX
  5
FFE
  8
SAPA_ANSLUTNING
 10
140.99999992774141
 20
3.7111623812332648
 30
0.0
 42
0.9999999999999998
  0
VERTEX
  5
FFF
  8
SAPA_ANSLUTNING
 10
140.99999992774141
 20
-0.2888376187667347
 30
0.0
  0
VERTEX
  5
1000
  8
SAPA_ANSLUTNING
 10
146.99999992774141
 20
-0.2888376187667632
 30
0.0
 42
-0.9999999999999998
  0
VERTEX
  5
1001
  8
SAPA_ANSLUTNING
 10
146.99999992774141
 20
-4.2888376187667632
 30
0.0
  0
VERTEX
  5
1002
  8
SAPA_ANSLUTNING
 10
140.99999992774141
 20
-4.2888376187667339
 30
0.0
 42
0.9999999999999998
  0
VERTEX
  5
1003
  8
SAPA_ANSLUTNING
 10
140.99999992774141
 20
-8.2888376187667347
 30
0.0
  0
VERTEX
  5
1004
  8
SAPA_ANSLUTNING
 10
146.99999992774141
 20
-8.2888376187667632
 30
0.0
 42
-0.9999999999999998
  0
VERTEX
  5
1005
  8
SAPA_ANSLUTNING
 10
146.99999992774141
 20
-12.28883761876676
 30
0.0
  0
VERTEX
  5
1006
  8
SAPA_ANSLUTNING
 10
140.99999992774141
 20
-12.288837618766729
 30
0.0
 42
0.9999999999999998
  0
VERTEX
  5
1007
  8
SAPA_ANSLUTNING
 10
140.99999992774141
 20
-16.288837618766731
 30
0.0
  0
VERTEX
  5
1008
  8
SAPA_ANSLUTNING
 10
146.99999992774141
 20
-16.28883761876676
 30
0.0
 42
-0.9999999999999998
  0
VERTEX
  5
1009
  8
SAPA_ANSLUTNING
 10
146.9999999277413
 20
-20.28883761876676
 30
0.0
  0
VERTEX
  5
100A
  8
SAPA_ANSLUTNING
 10
140.9999999277413
 20
-20.288837618766738
 30
0.0
 42
0.9999999999999998
  0
VERTEX
  5
100B
  8
SAPA_ANSLUTNING
 10
140.9999999277413
 20
-24.288837618766738
 30
0.0
  0
VERTEX
  5
100C
  8
SAPA_ANSLUTNING
 10
146.9999999277413
 20
-24.28883761876676
 30
0.0
 42
-0.9999999999999998
  0
VERTEX
  5
100D
  8
SAPA_ANSLUTNING
 10
146.9999999277413
 20
-28.28883761876677
 30
0.0
  0
VERTEX
  5
100E
  8
SAPA_ANSLUTNING
 10
140.9999999277413
 20
-28.288837618766738
 30
0.0
 42
0.9999999999999998
  0
VERTEX
  5
100F
  8
SAPA_ANSLUTNING
 10
140.9999999277413
 20
-32.288837618766728
 30
0.0
  0
VERTEX
  5
1010
  8
SAPA_ANSLUTNING
 10
146.9999999277413
 20
-32.28883761876677
 30
0.0
 42
-0.9999999999999998
  0
VERTEX
  5
1011
  8
SAPA_ANSLUTNING
 10
146.9999999277413
 20
-36.288837618766763
 30
0.0
  0
VERTEX
  5
1012
  8
SAPA_ANSLUTNING
 10
140.9999999277413
 20
-36.288837618766742
 30
0.0
 42
0.9999999999999998
  0
VERTEX
  5
1013
  8
SAPA_ANSLUTNING
 10
140.9999999277413
 20
-40.288837618766728
 30
0.0
  0
VERTEX
  5
1014
  8
SAPA_ANSLUTNING
 10
146.9999999277413
 20
-40.288837618766763
 30
0.0
 42
-0.9999999999999998
  0
VERTEX
  5
1015
  8
SAPA_ANSLUTNING
 10
146.9999999277413
 20
-44.288837618766763
 30
0.0
  0
VERTEX
  5
1016
  8
SAPA_ANSLUTNING
 10
140.9999999277413
 20
-44.288837618766728
 30
0.0
 42
0.9999999999999998
  0
VERTEX
  5
1017
  8
SAPA_ANSLUTNING
 10
140.9999999277413
 20
-48.288837618766742
 30
0.0
  0
VERTEX
  5
1018
  8
SAPA_ANSLUTNING
 10
146.9999999277413
 20
-48.288837618766763
 30
0.0
 42
-0.9999999999999998
  0
VERTEX
  5
1019
  8
SAPA_ANSLUTNING
 10
146.9999999277413
 20
-52.28883761876677
 30
0.0
  0
VERTEX
  5
101A
  8
SAPA_ANSLUTNING
 10
140.9999999277413
 20
-52.288837618766728
 30
0.0
 42
0.9999999999999998
  0
VERTEX
  5
101B
  8
SAPA_ANSLUTNING
 10
140.9999999277413
 20
-56.288837618766728
 30
0.0
  0
VERTEX
  5
101C
  8
SAPA_ANSLUTNING
 10
146.9999999277413
 20
-56.288837618766763
 30
0.0
 42
-0.9999999999999998
  0
VERTEX
  5
101D
  8
SAPA_ANSLUTNING
 10
146.9999999277413
 20
-60.288837618766763
 30
0.0
  0
VERTEX
  5
101E
  8
SAPA_ANSLUTNING
 10
138.24999992774141
 20
-60.288837618766742
 30
0.0
 42
0.9999999999999998
  0
VERTEX
  5
101F
  8
SAPA_ANSLUTNING
 10
138.24999992774141
 20
-64.288837618766763
 30
0.0
  0
VERTEX
  5
1020
  8
SAPA_ANSLUTNING
 10
146.9999999277413
 20
-64.288837618766763
 30
0.0
 42
-0.9999999999999998
  0
VERTEX
  5
1021
  8
SAPA_ANSLUTNING
 10
146.9999999277413
 20
-68.288837618766735
 30
0.0
  0
VERTEX
  5
1022
  8
SAPA_ANSLUTNING
 10
138.24999992774141
 20
-68.288837618766735
 30
0.0
 42
0.3723754158642647
  0
VERTEX
  5
1023
  8
SAPA_ANSLUTNING
 10
136.27096662079879
 20
-70.000000000005485
 30
0.0
  0
SEQEND
  5
1024
  8
SAPA_ANSLUTNING
  0
POLYLINE
  5
A05
  8
SAPA_ANSLUTNING
 66
     1
 10
0.0
 20
0.0
 30
0.0
  0
VERTEX
  5
1025
  8
SAPA_ANSLUTNING
 10
21.094751612380779
 20
-66.889616244249538
 30
0.0
 42
0.4609155493572824
  0
VERTEX
  5
1026
  8
SAPA_ANSLUTNING
 10
31.49999999971471
 20
-58.000000000007333
 30
0.0
  0
VERTEX
  5
1027
  8
SAPA_ANSLUTNING
 10
31.49999999971471
 20
-8.9999999999902212
 30
0.0
 42
-0.9999999999999998
  0
VERTEX
  5
1028
  8
SAPA_ANSLUTNING
 10
49.499999999714703
 20
-8.9999999999902212
 30
0.0
  0
VERTEX
  5
1029
  8
SAPA_ANSLUTNING
 10
49.499999999714703
 20
-58.000000000007333
 30
0.0
 42
0.9999999999999998
  0
VERTEX
  5
102A
  8
SAPA_ANSLUTNING
 10
67.499999999714703
 20
-58.000000000007333
 30
0.0
  0
VERTEX
  5
102B
  8
SAPA_ANSLUTNING
 10
67.499999999714703
 20
-5.8005553174545241
 30
0.0
 42
-0.9999999999999998
  0
VERTEX
  5
102C
  8
SAPA_ANSLUTNING
 10
85.499999999714817
 20
-5.8005553174545241
 30
0.0
  0
VERTEX
  5
102D
  8
SAPA_ANSLUTNING
 10
85.499999999714817
 20
-58.000000000007333
 30
0.0
 42
0.9999999999999998
  0
VERTEX
  5
102E
  8
SAPA_ANSLUTNING
 10
103.4999999997148
 20
-58.000000000007333
 30
0.0
  0
VERTEX
  5
102F
  8
SAPA_ANSLUTNING
 10
103.4999999997148
 20
-8.9999999999902212
 30
0.0
 42
-0.9999999999999998
  0
VERTEX
  5
1030
  8
SAPA_ANSLUTNING
 10
121.4999999997148
 20
-8.9999999999902212
 30
0.0
  0
VERTEX
  5
1031
  8
SAPA_ANSLUTNING
 10
121.4999999997148
 20
-58.000000000007333
 30
0.0
 42
0.4609155448655906
  0
VERTEX
  5
1032
  8
SAPA_ANSLUTNING
 10
131.90524825531659
 20
-66.889616265073442
 30
0.0
 42
0.4609155448655906
  0
SEQEND
  5
1033
  8
SAPA_ANSLUTNING
  0
LINE
  5
A83
  8
SAPA_BESLAG
 10
-58.500000000005443
 20
58.499999999995758
 30
0.0
 11
-58.500000000005443
 21
59.999999999995772
 31
0.0
  0
LINE
  5
A84
  8
SAPA_BESLAG
 10
-16.50000000000545
 20
58.499999999996163
 30
0.0
 11
-16.50000000000545
 21
59.999999999996163
 31
0.0
  0
POLYLINE
  5
A85
  8
SAPA_BESLAG
 66
     1
 10
0.0
 20
0.0
 30
0.0
 70
     1
  0
VERTEX
  5
1040
  8
SAPA_BESLAG
 10
-7.4999999999836291
 20
3.0000000000046181
 30
0.0
  0
VERTEX
  5
1041
  8
SAPA_BESLAG
 10
-7.4999999999906626
 20
57.999999999977803
 30
0.0
 42
0.4142135623729689
  0
VERTEX
  5
1042
  8
SAPA_BESLAG
 10
-7.9999999999905143
 20
58.499999999977739
 30
0.0
  0
VERTEX
  5
1043
  8
SAPA_BESLAG
 10
-67.000000000005372
 20
58.499999999995602
 30
0.0
 42
0.4142135623731455
  0
VERTEX
  5
1044
  8
SAPA_BESLAG
 10
-67.500000000005528
 20
57.99999999999568
 30
0.0
  0
VERTEX
  5
1045
  8
SAPA_BESLAG
 10
-67.500000000012733
 20
3.0000000000066862
 30
0.0
  0
VERTEX
  5
1046
  8
SAPA_BESLAG
 10
-68.999999999998181
 20
3.0000000000066862
 30
0.0
  0
VERTEX
  5
1047
  8
SAPA_BESLAG
 10
-69.000000000005471
 20
58.499999999995758
 30
0.0
 42
-0.4142135623730951
  0
VERTEX
  5
1048
  8
SAPA_BESLAG
 10
-67.500000000005471
 20
59.999999999995772
 30
0.0
  0
VERTEX
  5
1049
  8
SAPA_BESLAG
 10
-7.4999999999908331
 20
59.999999999993364
 30
0.0
 42
-0.4142135623730951
  0
VERTEX
  5
104A
  8
SAPA_BESLAG
 10
-5.9999999999908971
 20
58.49999999999369
 30
0.0
  0
VERTEX
  5
104B
  8
SAPA_BESLAG
 10
-5.9999999999784057
 20
3.000000000004718
 30
0.0
  0
SEQEND
  5
104C
  8
SAPA_BESLAG
  0
LINE
  5
A86
  8
SAPA_BESLAG
 10
-7.4999999999888507
 20
43.99999999999396
 30
0.0
 11
-67.500000000010445
 21
43.999999999993939
 31
0.0
  0
POLYLINE
  5
D44
  8
SAPA_PROFIL
 66
     1
 10
0.0
 20
0.0
 30
0.0
 70
     1
  0
VERTEX
  5
173B
  8
SAPA_PROFIL
 10
-0.5000000000070415
 20
22.200000000003019
 30
0.0
 42
-0.4142135623730951
  0
VERTEX
  5
173C
  8
SAPA_PROFIL
 10
-1.000000000007041
 20
22.700000000003019
 30
0.0
  0
VERTEX
  5
173D
  8
SAPA_PROFIL
 10
-1.0000000000070499
 20
23.700000000006661
 30
0.0
 42
-0.4142135623720291
  0
VERTEX
  5
173E
  8
SAPA_PROFIL
 10
-0.5000000000070415
 20
24.200000000006661
 30
0.0
  0
VERTEX
  5
173F
  8
SAPA_PROFIL
 10
11.500000000000229
 20
24.200000000013929
 30
0.0
 42
0.4142135623730951
  0
VERTEX
  5
1740
  8
SAPA_PROFIL
 10
12.000000000000229
 20
24.700000000013929
 30
0.0
  0
VERTEX
  5
1741
  8
SAPA_PROFIL
 10
11.99999999999295
 20
30.853589838489391
 30
0.0
  0
VERTEX
  5
1742
  8
SAPA_PROFIL
 10
12.19999999999731
 20
31.200000000003019
 30
0.0
  0
VERTEX
  5
1743
  8
SAPA_PROFIL
 10
11.99999999998567
 20
31.55627758058337
 30
0.0
  0
VERTEX
  5
1744
  8
SAPA_PROFIL
 10
11.99999999999295
 20
37.95735931289029
 30
0.0
 42
0.1989123673783206
  0
VERTEX
  5
1745
  8
SAPA_PROFIL
 10
11.70710678118507
 20
38.664466094075138
 30
0.0
  0
VERTEX
  5
1746
  8
SAPA_PROFIL
 10
9.6786796564180264
 20
40.692893218861101
 30
0.0
 42
-0.1989123673783208
  0
VERTEX
  5
1747
  8
SAPA_PROFIL
 10
8.7999999999885858
 20
42.814213562413471
 30
0.0
  0
VERTEX
  5
1748
  8
SAPA_PROFIL
 10
8.7999999999958618
 20
56.799999999997929
 30
0.0
 42
-0.414213562373095
  0
VERTEX
  5
1749
  8
SAPA_PROFIL
 10
9.0000000000002274
 20
56.999999999997932
 30
0.0
  0
VERTEX
  5
174A
  8
SAPA_PROFIL
 10
9.3398526890089215
 20
57.000000000002302
 30
0.0
 42
-0.3394542588645143
  0
VERTEX
  5
174B
  8
SAPA_PROFIL
 10
10.305778515299041
 20
56.258819045100871
 30
0.0
  0
VERTEX
  5
174C
  8
SAPA_PROFIL
 10
11.28296291312313
 20
52.611917223991007
 30
0.0
 42
-0.0655434628306237
  0
VERTEX
  5
174D
  8
SAPA_PROFIL
 10
11.29999999998131
 20
52.48250770141069
 30
0.0
  0
VERTEX
  5
174E
  8
SAPA_PROFIL
 10
11.299999999988581
 20
52.407106781162398
 30
0.0
 42
-0.1989123673734313
  0
VERTEX
  5
174F
  8
SAPA_PROFIL
 10
11.15355339058004
 20
52.053553390581847
 30
0.0
  0
VERTEX
  5
1750
  8
SAPA_PROFIL
 10
10.646446609418719
 20
51.546446609429523
 30
0.0
 42
0.198912367380327
  0
VERTEX
  5
1751
  8
SAPA_PROFIL
 10
10.5000000000075
 20
51.192893218833461
 30
0.0
  0
VERTEX
  5
1752
  8
SAPA_PROFIL
 10
10.49999999998567
 20
43.114213562412729
 30
0.0
 42
0.1989123673792659
  0
VERTEX
  5
1753
  8
SAPA_PROFIL
 10
10.79289321879549
 20
42.40710678122619
 30
0.0
  0
VERTEX
  5
1754
  8
SAPA_PROFIL
 10
13.121320343562051
 20
40.078679656430282
 30
0.0
 42
-0.1989123673796578
  0
VERTEX
  5
1755
  8
SAPA_PROFIL
 10
14.000000000000229
 20
37.957359312875738
 30
0.0
  0
VERTEX
  5
1756
  8
SAPA_PROFIL
 10
14.000000000000229
 20
23.200000000006661
 30
0.0
 42
-0.4142135623730951
  0
VERTEX
  5
1757
  8
SAPA_PROFIL
 10
13.000000000000229
 20
22.200000000006661
 30
0.0
  0
SEQEND
  5
1758
  8
SAPA_PROFIL
  0
POLYLINE
  5
D45
  8
SAPA_PROFIL
 66
     1
 10
0.0
 20
0.0
 30
0.0
 70
     1
  0
VERTEX
  5
1759
  8
SAPA_PROFIL
 10
-69.000000000007162
 20
57.499999999999389
 30
0.0
  0
VERTEX
  5
175A
  8
SAPA_PROFIL
 10
-68.999999999999886
 20
59.499999999995786
 30
0.0
 42
0.4142135623730951
  0
VERTEX
  5
175B
  8
SAPA_PROFIL
 10
-69.499999999999901
 20
59.999999999992127
 30
0.0
  0
VERTEX
  5
175C
  8
SAPA_PROFIL
 10
-71.999999999999901
 20
60.000000000003027
 30
0.0
 42
0.4142135623730951
  0
VERTEX
  5
175D
  8
SAPA_PROFIL
 10
-73.999999999999886
 20
57.999999999999417
 30
0.0
  0
VERTEX
  5
175E
  8
SAPA_PROFIL
 10
-73.999999999999886
 20
4.0000000000030482
 30
0.0
 42
0.4142135623730951
  0
VERTEX
  5
175F
  8
SAPA_PROFIL
 10
-70.000000000007162
 20
-0.0000000000005898
 30
0.0
  0
VERTEX
  5
1760
  8
SAPA_PROFIL
 10
-5.0000000000071623
 20
0.000000000003034
 30
0.0
 42
0.4142135623730951
  0
VERTEX
  5
1761
  8
SAPA_PROFIL
 10
-1.000000000007162
 20
3.9999999999994098
 30
0.0
  0
VERTEX
  5
1762
  8
SAPA_PROFIL
 10
-0.9999999999998863
 20
55.000000000003027
 30
0.0
 42
-0.4142135623730951
  0
VERTEX
  5
1763
  8
SAPA_PROFIL
 10
1.000000000000113
 20
56.999999999999389
 30
0.0
  0
VERTEX
  5
1764
  8
SAPA_PROFIL
 10
9.5000000000001137
 20
57.000000000003027
 30
0.0
 42
-0.4142135623730951
  0
VERTEX
  5
1765
  8
SAPA_PROFIL
 10
11.50000000000011
 20
54.999999999999389
 30
0.0
  0
VERTEX
  5
1766
  8
SAPA_PROFIL
 10
11.50000000000739
 20
52.20710678119881
 30
0.0
 42
-0.1989123673802842
  0
VERTEX
  5
1767
  8
SAPA_PROFIL
 10
11.35355339059617
 20
51.853553390602727
 30
0.0
  0
VERTEX
  5
1768
  8
SAPA_PROFIL
 10
11.112372435730091
 20
51.61237243574768
 30
0.0
 42
0.2679491924377356
  0
VERTEX
  5
1769
  8
SAPA_PROFIL
 10
10.724143868050421
 20
50.163483696287322
 30
0.0
  0
VERTEX
  5
176A
  8
SAPA_PROFIL
 10
11.43185165258569
 20
47.522282287465302
 30
0.0
 42
-0.065543462814752
  0
VERTEX
  5
176B
  8
SAPA_PROFIL
 10
11.50000000000739
 20
47.004644197264
 30
0.0
  0
VERTEX
  5
176C
  8
SAPA_PROFIL
 10
11.50000000001466
 20
43.000000000010303
 30
0.0
 42
0.4142135623698985
  0
VERTEX
  5
176D
  8
SAPA_PROFIL
 10
12.50000000000739
 20
42.000000000013941
 30
0.0
  0
VERTEX
  5
176E
  8
SAPA_PROFIL
 10
12.99999999998556
 20
42.000000000010317
 30
0.0
 42
0.4142135623773572
  0
VERTEX
  5
176F
  8
SAPA_PROFIL
 10
14.00000000000011
 20
43.000000000010303
 30
0.0
  0
VERTEX
  5
1770
  8
SAPA_PROFIL
 10
14.00000000000011
 20
58.499999999999417
 30
0.0
 42
0.4142135623730951
  0
VERTEX
  5
1771
  8
SAPA_PROFIL
 10
12.50000000000011
 20
60.000000000003027
 30
0.0
  0
VERTEX
  5
1772
  8
SAPA_PROFIL
 10
-2.4999999999998859
 20
59.999999999999389
 30
0.0
 42
0.4142135623730951
  0
VERTEX
  5
1773
  8
SAPA_PROFIL
 10
-3.9999999999998859
 20
58.500000000003027
 30
0.0
  0
VERTEX
  5
1774
  8
SAPA_PROFIL
 10
-4.0000000000071623
 20
4.9999999999994102
 30
0.0
 42
-0.4142135623730951
  0
VERTEX
  5
1775
  8
SAPA_PROFIL
 10
-6.0000000000071623
 20
3.000000000003034
 30
0.0
  0
VERTEX
  5
1776
  8
SAPA_PROFIL
 10
-68.999999999999886
 20
3.0000000000066862
 30
0.0
 42
-0.4142135623730951
  0
VERTEX
  5
1777
  8
SAPA_PROFIL
 10
-70.999999999999901
 20
5.0000000000103242
 30
0.0
  0
VERTEX
  5
1778
  8
SAPA_PROFIL
 10
-70.999999999999901
 20
57.000000000003027
 30
0.0
  0
VERTEX
  5
1779
  8
SAPA_PROFIL
 10
-69.500000000007162
 20
57.000000000003027
 30
0.0
 42
0.4142135623730951
  0
SEQEND
  5
177A
  8
SAPA_PROFIL
  0
POLYLINE
  5
D46
  8
SAPA_PROFIL
 66
     1
 10
0.0
 20
0.0
 30
0.0
 70
     1
  0
VERTEX
  5
177B
  8
SAPA_PROFIL
 10
128.00000000002319
 20
68.500000000020165
 30
0.0
  0
VERTEX
  5
177C
  8
SAPA_PROFIL
 10
127.20000000001311
 20
68.500000000011042
 30
0.0
 42
-0.4142135623731159
  0
VERTEX
  5
177D
  8
SAPA_PROFIL
 10
127.0000000000141
 20
68.70000000000995
 30
0.0
  0
VERTEX
  5
177E
  8
SAPA_PROFIL
 10
127.00000000002321
 20
69.800000000010343
 30
0.0
 42
-0.4142135623730744
  0
VERTEX
  5
177F
  8
SAPA_PROFIL
 10
127.20000000001311
 20
70.000000000000171
 30
0.0
  0
VERTEX
  5
1780
  8
SAPA_PROFIL
 10
130.74999999951029
 20
70.000000000011042
 30
0.0
 42
-0.3389652260119365
  0
VERTEX
  5
1781
  8
SAPA_PROFIL
 10
131.7154702990546
 20
69.260513148811256
 30
0.0
 42
-0.0274862826956062
  0
VERTEX
  5
1782
  8
SAPA_PROFIL
 10
132.49999999950211
 20
55.000000000019412
 30
0.0
  0
VERTEX
  5
1783
  8
SAPA_PROFIL
 10
132.49999999986309
 20
42.199999998760319
 30
0.0
 42
-0.4142135623889429
  0
VERTEX
  5
1784
  8
SAPA_PROFIL
 10
132.29999999986239
 20
41.999999998748699
 30
0.0
  0
VERTEX
  5
1785
  8
SAPA_PROFIL
 10
131.96547005360259
 20
41.999999998750489
 30
0.0
 42
-0.2679491924396797
  0
VERTEX
  5
1786
  8
SAPA_PROFIL
 10
131.79226497284341
 20
42.099999998755493
 30
0.0
  0
VERTEX
  5
1787
  8
SAPA_PROFIL
 10
130.77679491925079
 20
43.858845725149983
 30
0.0
 42
-0.1316524975842002
  0
VERTEX
  5
1788
  8
SAPA_PROFIL
 10
130.75000000000821
 20
43.958845725150347
 30
0.0
  0
VERTEX
  5
1789
  8
SAPA_PROFIL
 10
130.75000000001231
 20
46.80000000001035
 30
0.0
 42
0.4142135623731472
  0
VERTEX
  5
178A
  8
SAPA_PROFIL
 10
130.55000000001161
 20
47.000000000011099
 30
0.0
  0
VERTEX
  5
178B
  8
SAPA_PROFIL
 10
124.24386904080311
 20
47.000000000011021
 30
0.0
 42
-0.2418327667441306
  0
VERTEX
  5
178C
  8
SAPA_PROFIL
 10
123.9999999998516
 20
47.125277674977262
 30
0.0
 42
0.2418327667529517
  0
VERTEX
  5
178D
  8
SAPA_PROFIL
 10
123.75613095889049
 20
47.250555349950581
 30
0.0
  0
VERTEX
  5
178E
  8
SAPA_PROFIL
 10
122.79999999985149
 20
47.250555349950552
 30
0.0
 42
0.2418327667504456
  0
VERTEX
  5
178F
  8
SAPA_PROFIL
 10
122.5561309588888
 20
47.125277674979607
 30
0.0
 42
-0.2418327667464157
  0
VERTEX
  5
1790
  8
SAPA_PROFIL
 10
122.3122619179352
 20
47.000000000011021
 30
0.0
  0
VERTEX
  5
1791
  8
SAPA_PROFIL
 10
120.214189562215
 20
47.000000000011021
 30
0.0
 42
-0.6681786379192718
  0
VERTEX
  5
1792
  8
SAPA_PROFIL
 10
119.5070827810284
 20
48.70710678119751
 30
0.0
  0
VERTEX
  5
1793
  8
SAPA_PROFIL
 10
120.8121320341974
 20
50.012156034366683
 30
0.0
 42
-0.1989123673797335
  0
VERTEX
  5
1794
  8
SAPA_PROFIL
 10
121.02426406855341
 20
50.100024000010812
 30
0.0
  0
VERTEX
  5
1795
  8
SAPA_PROFIL
 10
121.6107695153006
 20
50.10002400001067
 30
0.0
 42
-0.1316524975873855
  0
VERTEX
  5
1796
  8
SAPA_PROFIL
 10
121.7607695153005
 20
50.059831621146017
 30
0.0
  0
VERTEX
  5
1797
  8
SAPA_PROFIL
 10
123.24999999984141
 20
49.200024000010707
 30
0.0
  0
VERTEX
  5
1798
  8
SAPA_PROFIL
 10
123.6999999998414
 20
49.200012000011043
 30
0.0
 42
0.4142135623731054
  0
VERTEX
  5
1799
  8
SAPA_PROFIL
 10
123.99999999984141
 20
49.500012000011047
 30
0.0
  0
VERTEX
  5
179A
  8
SAPA_PROFIL
 10
123.99999999984129
 20
53.100024000011118
 30
0.0
 42
0.4142135623730951
  0
VERTEX
  5
179B
  8
SAPA_PROFIL
 10
123.6999999998413
 20
53.400024000011108
 30
0.0
  0
VERTEX
  5
179C
  8
SAPA_PROFIL
 10
123.24999999984129
 20
53.400024000011001
 30
0.0
  0
VERTEX
  5
179D
  8
SAPA_PROFIL
 10
121.7607398687672
 20
52.54019926244203
 30
0.0
 42
-0.1316363093594254
  0
VERTEX
  5
179E
  8
SAPA_PROFIL
 10
121.6107589637204
 20
52.500006884185062
 30
0.0
  0
VERTEX
  5
179F
  8
SAPA_PROFIL
 10
121.50099999983929
 20
52.499999898044088
 30
0.0
  0
VERTEX
  5
17A0
  8
SAPA_PROFIL
 10
121.49999999984129
 20
52.50099983439425
 30
0.0
  0
VERTEX
  5
17A1
  8
SAPA_PROFIL
 10
121.49999999984129
 20
54.500000000000128
 30
0.0
 42
-0.4142135623731035
  0
VERTEX
  5
17A2
  8
SAPA_PROFIL
 10
121.99999999984129
 20
55.000000000000099
 30
0.0
  0
VERTEX
  5
17A3
  8
SAPA_PROFIL
 10
129.15000000011199
 20
55.000000000000128
 30
0.0
 42
-0.4142135623731022
  0
VERTEX
  5
17A4
  8
SAPA_PROFIL
 10
129.45000000011129
 20
54.700000000000848
 30
0.0
  0
VERTEX
  5
17A5
  8
SAPA_PROFIL
 10
129.45000000011129
 20
54.049999999999429
 30
0.0
 42
0.4142135623730534
  0
VERTEX
  5
17A6
  8
SAPA_PROFIL
 10
129.7500000001105
 20
53.750000000000099
 30
0.0
  0
VERTEX
  5
17A7
  8
SAPA_PROFIL
 10
130.45000000000209
 20
53.750000000000149
 30
0.0
 42
0.4142135623730884
  0
VERTEX
  5
17A8
  8
SAPA_PROFIL
 10
130.75000000000139
 20
54.049999999999429
 30
0.0
  0
VERTEX
  5
17A9
  8
SAPA_PROFIL
 10
130.7500000000214
 20
65.950000000009979
 30
0.0
 42
0.4142135623730466
  0
VERTEX
  5
17AA
  8
SAPA_PROFIL
 10
130.45000000002031
 20
66.25000000001107
 30
0.0
  0
VERTEX
  5
17AB
  8
SAPA_PROFIL
 10
129.74999999954301
 20
66.250000000020165
 30
0.0
 42
0.4142135623731437
  0
VERTEX
  5
17AC
  8
SAPA_PROFIL
 10
129.44999999953279
 20
65.950000000009979
 30
0.0
  0
VERTEX
  5
17AD
  8
SAPA_PROFIL
 10
129.4499999995401
 20
65.2999999999994
 30
0.0
 42
-0.4142135623535671
  0
VERTEX
  5
17AE
  8
SAPA_PROFIL
 10
129.1499999995408
 20
65.000000000011042
 30
0.0
  0
VERTEX
  5
17AF
  8
SAPA_PROFIL
 10
127.19999999953281
 20
65.000000000011042
 30
0.0
 42
-0.4142135623731159
  0
VERTEX
  5
17B0
  8
SAPA_PROFIL
 10
126.9999999995339
 20
65.200000000009965
 30
0.0
  0
VERTEX
  5
17B1
  8
SAPA_PROFIL
 10
126.99999999954299
 20
66.300000000010314
 30
0.0
 42
-0.4142135623730326
  0
VERTEX
  5
17B2
  8
SAPA_PROFIL
 10
127.19999999953281
 20
66.500000000000099
 30
0.0
  0
VERTEX
  5
17B3
  8
SAPA_PROFIL
 10
127.99999999954299
 20
66.500000000011042
 30
0.0
 42
0.4142135623730991
  0
VERTEX
  5
17B4
  8
SAPA_PROFIL
 10
128.49999999954301
 20
67.000000000011042
 30
0.0
  0
VERTEX
  5
17B5
  8
SAPA_PROFIL
 10
128.50000000002319
 20
68.000000000020165
 30
0.0
 42
0.4142135623730992
  0
SEQEND
  5
17B6
  8
SAPA_PROFIL
  0
POLYLINE
  5
D47
  8
SAPA_PROFIL
 66
     1
 10
0.0
 20
0.0
 30
0.0
 70
     1
  0
VERTEX
  5
17B7
  8
SAPA_PROFIL
 10
89.999999999659565
 20
68.500000000020165
 30
0.0
  0
VERTEX
  5
17B8
  8
SAPA_PROFIL
 10
90.799999999669694
 20
68.500000000011042
 30
0.0
 42
0.4142135623731159
  0
VERTEX
  5
17B9
  8
SAPA_PROFIL
 10
90.999999999668646
 20
68.70000000000995
 30
0.0
  0
VERTEX
  5
17BA
  8
SAPA_PROFIL
 10
90.999999999659522
 20
69.800000000010343
 30
0.0
 42
0.4142135623730744
  0
VERTEX
  5
17BB
  8
SAPA_PROFIL
 10
90.799999999669694
 20
70.000000000000171
 30
0.0
  0
VERTEX
  5
17BC
  8
SAPA_PROFIL
 10
87.250000000172477
 20
70.000000000011042
 30
0.0
 42
0.3389652260119365
  0
VERTEX
  5
17BD
  8
SAPA_PROFIL
 10
86.284529700628184
 20
69.260513148811256
 30
0.0
 42
0.0274862826956062
  0
VERTEX
  5
17BE
  8
SAPA_PROFIL
 10
85.500000000180634
 20
55.000000000019412
 30
0.0
  0
VERTEX
  5
17BF
  8
SAPA_PROFIL
 10
85.499999999819593
 20
42.199999998760319
 30
0.0
 42
0.4142135623889429
  0
VERTEX
  5
17C0
  8
SAPA_PROFIL
 10
85.699999999820321
 20
41.999999998748699
 30
0.0
  0
VERTEX
  5
17C1
  8
SAPA_PROFIL
 10
86.034529946080184
 20
41.999999998750489
 30
0.0
 42
0.2679491924396797
  0
VERTEX
  5
17C2
  8
SAPA_PROFIL
 10
86.20773502683933
 20
42.099999998755493
 30
0.0
  0
VERTEX
  5
17C3
  8
SAPA_PROFIL
 10
87.223205080431981
 20
43.858845725149983
 30
0.0
 42
0.1316524975842002
  0
VERTEX
  5
17C4
  8
SAPA_PROFIL
 10
87.249999999674557
 20
43.958845725150347
 30
0.0
  0
VERTEX
  5
17C5
  8
SAPA_PROFIL
 10
87.249999999670436
 20
46.80000000001035
 30
0.0
 42
-0.4142135623731472
  0
VERTEX
  5
17C6
  8
SAPA_PROFIL
 10
87.449999999671164
 20
47.000000000011099
 30
0.0
  0
VERTEX
  5
17C7
  8
SAPA_PROFIL
 10
93.756130958879695
 20
47.000000000011021
 30
0.0
 42
0.2418327667441306
  0
VERTEX
  5
17C8
  8
SAPA_PROFIL
 10
93.999999999831189
 20
47.125277674977262
 30
0.0
 42
-0.2418327667529517
  0
VERTEX
  5
17C9
  8
SAPA_PROFIL
 10
94.243869040792234
 20
47.250555349950581
 30
0.0
  0
VERTEX
  5
17CA
  8
SAPA_PROFIL
 10
95.199999999831235
 20
47.250555349950552
 30
0.0
 42
-0.2418327667504456
  0
VERTEX
  5
17CB
  8
SAPA_PROFIL
 10
95.443869040793956
 20
47.125277674979607
 30
0.0
 42
0.2418327667464157
  0
VERTEX
  5
17CC
  8
SAPA_PROFIL
 10
95.687738081747526
 20
47.000000000011021
 30
0.0
  0
VERTEX
  5
17CD
  8
SAPA_PROFIL
 10
97.785810437467788
 20
47.000000000011021
 30
0.0
 42
0.6681786379192718
  0
VERTEX
  5
17CE
  8
SAPA_PROFIL
 10
98.492917218654412
 20
48.70710678119751
 30
0.0
  0
VERTEX
  5
17CF
  8
SAPA_PROFIL
 10
97.187867965485424
 20
50.012156034366683
 30
0.0
 42
0.1989123673797335
  0
VERTEX
  5
17D0
  8
SAPA_PROFIL
 10
96.975735931129336
 20
50.100024000010812
 30
0.0
  0
VERTEX
  5
17D1
  8
SAPA_PROFIL
 10
96.389230484382153
 20
50.10002400001067
 30
0.0
 42
0.1316524975873855
  0
VERTEX
  5
17D2
  8
SAPA_PROFIL
 10
96.239230484382233
 20
50.059831621146017
 30
0.0
  0
VERTEX
  5
17D3
  8
SAPA_PROFIL
 10
94.74999999984135
 20
49.200024000010707
 30
0.0
  0
VERTEX
  5
17D4
  8
SAPA_PROFIL
 10
94.299999999841404
 20
49.200012000011043
 30
0.0
 42
-0.4142135623731054
  0
VERTEX
  5
17D5
  8
SAPA_PROFIL
 10
93.999999999841393
 20
49.500012000011047
 30
0.0
  0
VERTEX
  5
17D6
  8
SAPA_PROFIL
 10
93.999999999841435
 20
53.100024000011118
 30
0.0
 42
-0.4142135623730951
  0
VERTEX
  5
17D7
  8
SAPA_PROFIL
 10
94.299999999841447
 20
53.400024000011108
 30
0.0
  0
VERTEX
  5
17D8
  8
SAPA_PROFIL
 10
94.749999999841449
 20
53.400024000011001
 30
0.0
  0
VERTEX
  5
17D9
  8
SAPA_PROFIL
 10
96.239260130915625
 20
52.54019926244203
 30
0.0
 42
0.1316363093594254
  0
VERTEX
  5
17DA
  8
SAPA_PROFIL
 10
96.389241035962357
 20
52.500006884185062
 30
0.0
  0
VERTEX
  5
17DB
  8
SAPA_PROFIL
 10
96.498999999843491
 20
52.499999898044088
 30
0.0
  0
VERTEX
  5
17DC
  8
SAPA_PROFIL
 10
96.499999999841464
 20
52.50099983439425
 30
0.0
  0
VERTEX
  5
17DD
  8
SAPA_PROFIL
 10
96.499999999841421
 20
54.500000000000128
 30
0.0
 42
0.4142135623731035
  0
VERTEX
  5
17DE
  8
SAPA_PROFIL
 10
95.999999999841421
 20
55.000000000000099
 30
0.0
  0
VERTEX
  5
17DF
  8
SAPA_PROFIL
 10
88.849999999570755
 20
55.000000000000128
 30
0.0
 42
0.4142135623731022
  0
VERTEX
  5
17E0
  8
SAPA_PROFIL
 10
88.549999999571483
 20
54.700000000000848
 30
0.0
  0
VERTEX
  5
17E1
  8
SAPA_PROFIL
 10
88.549999999571511
 20
54.049999999999429
 30
0.0
 42
-0.4142135623730534
  0
VERTEX
  5
17E2
  8
SAPA_PROFIL
 10
88.249999999572211
 20
53.750000000000099
 30
0.0
  0
VERTEX
  5
17E3
  8
SAPA_PROFIL
 10
87.549999999680608
 20
53.750000000000149
 30
0.0
 42
-0.4142135623730884
  0
VERTEX
  5
17E4
  8
SAPA_PROFIL
 10
87.249999999681378
 20
54.049999999999429
 30
0.0
  0
VERTEX
  5
17E5
  8
SAPA_PROFIL
 10
87.249999999661355
 20
65.950000000009979
 30
0.0
 42
-0.4142135623730466
  0
VERTEX
  5
17E6
  8
SAPA_PROFIL
 10
87.549999999662461
 20
66.25000000001107
 30
0.0
  0
VERTEX
  5
17E7
  8
SAPA_PROFIL
 10
88.250000000139764
 20
66.250000000020165
 30
0.0
 42
-0.4142135623731437
  0
VERTEX
  5
17E8
  8
SAPA_PROFIL
 10
88.550000000149922
 20
65.950000000009979
 30
0.0
  0
VERTEX
  5
17E9
  8
SAPA_PROFIL
 10
88.550000000142646
 20
65.2999999999994
 30
0.0
 42
0.4142135623535671
  0
VERTEX
  5
17EA
  8
SAPA_PROFIL
 10
88.850000000141918
 20
65.000000000011042
 30
0.0
  0
VERTEX
  5
17EB
  8
SAPA_PROFIL
 10
90.800000000149922
 20
65.000000000011042
 30
0.0
 42
0.4142135623731159
  0
VERTEX
  5
17EC
  8
SAPA_PROFIL
 10
91.00000000014883
 20
65.200000000009965
 30
0.0
  0
VERTEX
  5
17ED
  8
SAPA_PROFIL
 10
91.000000000139735
 20
66.300000000010314
 30
0.0
 42
0.4142135623730326
  0
VERTEX
  5
17EE
  8
SAPA_PROFIL
 10
90.800000000149922
 20
66.500000000000099
 30
0.0
  0
VERTEX
  5
17EF
  8
SAPA_PROFIL
 10
90.000000000139764
 20
66.500000000011042
 30
0.0
 42
-0.4142135623730991
  0
VERTEX
  5
17F0
  8
SAPA_PROFIL
 10
89.500000000139735
 20
67.000000000011042
 30
0.0
  0
VERTEX
  5
17F1
  8
SAPA_PROFIL
 10
89.499999999659551
 20
68.000000000020165
 30
0.0
 42
-0.4142135623730992
  0
SEQEND
  5
17F2
  8
SAPA_PROFIL
  0
POLYLINE
  5
D48
  8
SAPA_PROFIL
 66
     1
 10
0.0
 20
0.0
 30
0.0
 70
     1
  0
VERTEX
  5
17F3
  8
SAPA_PROFIL
 10
89.999999999659565
 20
68.500000000020165
 30
0.0
  0
VERTEX
  5
17F4
  8
SAPA_PROFIL
 10
90.799999999669694
 20
68.500000000011042
 30
0.0
 42
0.4142135623731159
  0
VERTEX
  5
17F5
  8
SAPA_PROFIL
 10
90.999999999668646
 20
68.70000000000995
 30
0.0
  0
VERTEX
  5
17F6
  8
SAPA_PROFIL
 10
90.999999999659522
 20
69.800000000010343
 30
0.0
 42
0.4142135623730744
  0
VERTEX
  5
17F7
  8
SAPA_PROFIL
 10
90.799999999669694
 20
70.000000000000171
 30
0.0
  0
VERTEX
  5
17F8
  8
SAPA_PROFIL
 10
87.250000000172477
 20
70.000000000011042
 30
0.0
 42
0.3389652260119365
  0
VERTEX
  5
17F9
  8
SAPA_PROFIL
 10
86.284529700628184
 20
69.260513148811256
 30
0.0
 42
0.0274862826956062
  0
VERTEX
  5
17FA
  8
SAPA_PROFIL
 10
85.500000000180634
 20
55.000000000019412
 30
0.0
  0
VERTEX
  5
17FB
  8
SAPA_PROFIL
 10
85.499999999819593
 20
42.199999998760319
 30
0.0
 42
0.4142135623889429
  0
VERTEX
  5
17FC
  8
SAPA_PROFIL
 10
85.699999999820321
 20
41.999999998748699
 30
0.0
  0
VERTEX
  5
17FD
  8
SAPA_PROFIL
 10
86.034529946080184
 20
41.999999998750489
 30
0.0
 42
0.2679491924396797
  0
VERTEX
  5
17FE
  8
SAPA_PROFIL
 10
86.20773502683933
 20
42.099999998755493
 30
0.0
  0
VERTEX
  5
17FF
  8
SAPA_PROFIL
 10
87.223205080431981
 20
43.858845725149983
 30
0.0
 42
0.1316524975842002
  0
VERTEX
  5
1800
  8
SAPA_PROFIL
 10
87.249999999674557
 20
43.958845725150347
 30
0.0
  0
VERTEX
  5
1801
  8
SAPA_PROFIL
 10
87.249999999670436
 20
46.80000000001035
 30
0.0
 42
-0.4142135623731472
  0
VERTEX
  5
1802
  8
SAPA_PROFIL
 10
87.449999999671164
 20
47.000000000011099
 30
0.0
  0
VERTEX
  5
1803
  8
SAPA_PROFIL
 10
93.756130958879695
 20
47.000000000011021
 30
0.0
 42
0.2418327667441306
  0
VERTEX
  5
1804
  8
SAPA_PROFIL
 10
93.999999999831189
 20
47.125277674977262
 30
0.0
 42
-0.2418327667529517
  0
VERTEX
  5
1805
  8
SAPA_PROFIL
 10
94.243869040792234
 20
47.250555349950581
 30
0.0
  0
VERTEX
  5
1806
  8
SAPA_PROFIL
 10
95.199999999831235
 20
47.250555349950552
 30
0.0
 42
-0.2418327667504456
  0
VERTEX
  5
1807
  8
SAPA_PROFIL
 10
95.443869040793956
 20
47.125277674979607
 30
0.0
 42
0.2418327667464157
  0
VERTEX
  5
1808
  8
SAPA_PROFIL
 10
95.687738081747526
 20
47.000000000011021
 30
0.0
  0
VERTEX
  5
1809
  8
SAPA_PROFIL
 10
97.785810437467788
 20
47.000000000011021
 30
0.0
 42
0.6681786379192718
  0
VERTEX
  5
180A
  8
SAPA_PROFIL
 10
98.492917218654412
 20
48.70710678119751
 30
0.0
  0
VERTEX
  5
180B
  8
SAPA_PROFIL
 10
97.187867965485424
 20
50.012156034366683
 30
0.0
 42
0.1989123673797335
  0
VERTEX
  5
180C
  8
SAPA_PROFIL
 10
96.975735931129336
 20
50.100024000010812
 30
0.0
  0
VERTEX
  5
180D
  8
SAPA_PROFIL
 10
96.389230484382153
 20
50.10002400001067
 30
0.0
 42
0.1316524975873855
  0
VERTEX
  5
180E
  8
SAPA_PROFIL
 10
96.239230484382233
 20
50.059831621146017
 30
0.0
  0
VERTEX
  5
180F
  8
SAPA_PROFIL
 10
94.74999999984135
 20
49.200024000010707
 30
0.0
  0
VERTEX
  5
1810
  8
SAPA_PROFIL
 10
94.299999999841404
 20
49.200012000011043
 30
0.0
 42
-0.4142135623731054
  0
VERTEX
  5
1811
  8
SAPA_PROFIL
 10
93.999999999841393
 20
49.500012000011047
 30
0.0
  0
VERTEX
  5
1812
  8
SAPA_PROFIL
 10
93.999999999841435
 20
53.100024000011118
 30
0.0
 42
-0.4142135623730951
  0
VERTEX
  5
1813
  8
SAPA_PROFIL
 10
94.299999999841447
 20
53.400024000011108
 30
0.0
  0
VERTEX
  5
1814
  8
SAPA_PROFIL
 10
94.749999999841449
 20
53.400024000011001
 30
0.0
  0
VERTEX
  5
1815
  8
SAPA_PROFIL
 10
96.239260130915625
 20
52.54019926244203
 30
0.0
 42
0.1316363093594254
  0
VERTEX
  5
1816
  8
SAPA_PROFIL
 10
96.389241035962357
 20
52.500006884185062
 30
0.0
  0
VERTEX
  5
1817
  8
SAPA_PROFIL
 10
96.498999999843491
 20
52.499999898044088
 30
0.0
  0
VERTEX
  5
1818
  8
SAPA_PROFIL
 10
96.499999999841464
 20
52.50099983439425
 30
0.0
  0
VERTEX
  5
1819
  8
SAPA_PROFIL
 10
96.499999999841421
 20
54.500000000000128
 30
0.0
 42
0.4142135623731035
  0
VERTEX
  5
181A
  8
SAPA_PROFIL
 10
95.999999999841421
 20
55.000000000000099
 30
0.0
  0
VERTEX
  5
181B
  8
SAPA_PROFIL
 10
88.849999999570755
 20
55.000000000000128
 30
0.0
 42
0.4142135623731022
  0
VERTEX
  5
181C
  8
SAPA_PROFIL
 10
88.549999999571483
 20
54.700000000000848
 30
0.0
  0
VERTEX
  5
181D
  8
SAPA_PROFIL
 10
88.549999999571511
 20
54.049999999999429
 30
0.0
 42
-0.4142135623730534
  0
VERTEX
  5
181E
  8
SAPA_PROFIL
 10
88.249999999572211
 20
53.750000000000099
 30
0.0
  0
VERTEX
  5
181F
  8
SAPA_PROFIL
 10
87.549999999680608
 20
53.750000000000149
 30
0.0
 42
-0.4142135623730884
  0
VERTEX
  5
1820
  8
SAPA_PROFIL
 10
87.249999999681378
 20
54.049999999999429
 30
0.0
  0
VERTEX
  5
1821
  8
SAPA_PROFIL
 10
87.249999999661355
 20
65.950000000009979
 30
0.0
 42
-0.4142135623730466
  0
VERTEX
  5
1822
  8
SAPA_PROFIL
 10
87.549999999662461
 20
66.25000000001107
 30
0.0
  0
VERTEX
  5
1823
  8
SAPA_PROFIL
 10
88.250000000139764
 20
66.250000000020165
 30
0.0
 42
-0.4142135623731437
  0
VERTEX
  5
1824
  8
SAPA_PROFIL
 10
88.550000000149922
 20
65.950000000009979
 30
0.0
  0
VERTEX
  5
1825
  8
SAPA_PROFIL
 10
88.550000000142646
 20
65.2999999999994
 30
0.0
 42
0.4142135623535671
  0
VERTEX
  5
1826
  8
SAPA_PROFIL
 10
88.850000000141918
 20
65.000000000011042
 30
0.0
  0
VERTEX
  5
1827
  8
SAPA_PROFIL
 10
90.800000000149922
 20
65.000000000011042
 30
0.0
 42
0.4142135623731159
  0
VERTEX
  5
1828
  8
SAPA_PROFIL
 10
91.00000000014883
 20
65.200000000009965
 30
0.0
  0
VERTEX
  5
1829
  8
SAPA_PROFIL
 10
91.000000000139735
 20
66.300000000010314
 30
0.0
 42
0.4142135623730326
  0
VERTEX
  5
182A
  8
SAPA_PROFIL
 10
90.800000000149922
 20
66.500000000000099
 30
0.0
  0
VERTEX
  5
182B
  8
SAPA_PROFIL
 10
90.000000000139764
 20
66.500000000011042
 30
0.0
 42
-0.4142135623730991
  0
VERTEX
  5
182C
  8
SAPA_PROFIL
 10
89.500000000139735
 20
67.000000000011042
 30
0.0
  0
VERTEX
  5
182D
  8
SAPA_PROFIL
 10
89.499999999659551
 20
68.000000000020165
 30
0.0
 42
-0.4142135623730992
  0
SEQEND
  5
182E
  8
SAPA_PROFIL
  0
POLYLINE
  5
D49
  8
SAPA_PROFIL
 66
     1
 10
0.0
 20
0.0
 30
0.0
 70
     1
  0
VERTEX
  5
182F
  8
SAPA_PROFIL
 10
128.00000000002319
 20
68.500000000020165
 30
0.0
  0
VERTEX
  5
1830
  8
SAPA_PROFIL
 10
127.20000000001311
 20
68.500000000011042
 30
0.0
 42
-0.4142135623731159
  0
VERTEX
  5
1831
  8
SAPA_PROFIL
 10
127.0000000000141
 20
68.70000000000995
 30
0.0
  0
VERTEX
  5
1832
  8
SAPA_PROFIL
 10
127.00000000002321
 20
69.800000000010343
 30
0.0
 42
-0.4142135623730744
  0
VERTEX
  5
1833
  8
SAPA_PROFIL
 10
127.20000000001311
 20
70.000000000000171
 30
0.0
  0
VERTEX
  5
1834
  8
SAPA_PROFIL
 10
130.74999999951029
 20
70.000000000011042
 30
0.0
 42
-0.3389652260119365
  0
VERTEX
  5
1835
  8
SAPA_PROFIL
 10
131.7154702990546
 20
69.260513148811256
 30
0.0
 42
-0.0274862826956062
  0
VERTEX
  5
1836
  8
SAPA_PROFIL
 10
132.49999999950211
 20
55.000000000019412
 30
0.0
  0
VERTEX
  5
1837
  8
SAPA_PROFIL
 10
132.49999999986309
 20
42.199999998760319
 30
0.0
 42
-0.4142135623889429
  0
VERTEX
  5
1838
  8
SAPA_PROFIL
 10
132.29999999986239
 20
41.999999998748699
 30
0.0
  0
VERTEX
  5
1839
  8
SAPA_PROFIL
 10
131.96547005360259
 20
41.999999998750489
 30
0.0
 42
-0.2679491924396797
  0
VERTEX
  5
183A
  8
SAPA_PROFIL
 10
131.79226497284341
 20
42.099999998755493
 30
0.0
  0
VERTEX
  5
183B
  8
SAPA_PROFIL
 10
130.77679491925079
 20
43.858845725149983
 30
0.0
 42
-0.1316524975842002
  0
VERTEX
  5
183C
  8
SAPA_PROFIL
 10
130.75000000000821
 20
43.958845725150347
 30
0.0
  0
VERTEX
  5
183D
  8
SAPA_PROFIL
 10
130.75000000001231
 20
46.80000000001035
 30
0.0
 42
0.4142135623731472
  0
VERTEX
  5
183E
  8
SAPA_PROFIL
 10
130.55000000001161
 20
47.000000000011099
 30
0.0
  0
VERTEX
  5
183F
  8
SAPA_PROFIL
 10
124.24386904080311
 20
47.000000000011021
 30
0.0
 42
-0.2418327667441306
  0
VERTEX
  5
1840
  8
SAPA_PROFIL
 10
123.9999999998516
 20
47.125277674977262
 30
0.0
 42
0.2418327667529517
  0
VERTEX
  5
1841
  8
SAPA_PROFIL
 10
123.75613095889049
 20
47.250555349950581
 30
0.0
  0
VERTEX
  5
1842
  8
SAPA_PROFIL
 10
122.79999999985149
 20
47.250555349950552
 30
0.0
 42
0.2418327667504456
  0
VERTEX
  5
1843
  8
SAPA_PROFIL
 10
122.5561309588888
 20
47.125277674979607
 30
0.0
 42
-0.2418327667464157
  0
VERTEX
  5
1844
  8
SAPA_PROFIL
 10
122.3122619179352
 20
47.000000000011021
 30
0.0
  0
VERTEX
  5
1845
  8
SAPA_PROFIL
 10
120.214189562215
 20
47.000000000011021
 30
0.0
 42
-0.6681786379192718
  0
VERTEX
  5
1846
  8
SAPA_PROFIL
 10
119.5070827810284
 20
48.70710678119751
 30
0.0
  0
VERTEX
  5
1847
  8
SAPA_PROFIL
 10
120.8121320341974
 20
50.012156034366683
 30
0.0
 42
-0.1989123673797335
  0
VERTEX
  5
1848
  8
SAPA_PROFIL
 10
121.02426406855341
 20
50.100024000010812
 30
0.0
  0
VERTEX
  5
1849
  8
SAPA_PROFIL
 10
121.6107695153006
 20
50.10002400001067
 30
0.0
 42
-0.1316524975873855
  0
VERTEX
  5
184A
  8
SAPA_PROFIL
 10
121.7607695153005
 20
50.059831621146017
 30
0.0
  0
VERTEX
  5
184B
  8
SAPA_PROFIL
 10
123.24999999984141
 20
49.200024000010707
 30
0.0
  0
VERTEX
  5
184C
  8
SAPA_PROFIL
 10
123.6999999998414
 20
49.200012000011043
 30
0.0
 42
0.4142135623731054
  0
VERTEX
  5
184D
  8
SAPA_PROFIL
 10
123.99999999984141
 20
49.500012000011047
 30
0.0
  0
VERTEX
  5
184E
  8
SAPA_PROFIL
 10
123.99999999984129
 20
53.100024000011118
 30
0.0
 42
0.4142135623730951
  0
VERTEX
  5
184F
  8
SAPA_PROFIL
 10
123.6999999998413
 20
53.400024000011108
 30
0.0
  0
VERTEX
  5
1850
  8
SAPA_PROFIL
 10
123.24999999984129
 20
53.400024000011001
 30
0.0
  0
VERTEX
  5
1851
  8
SAPA_PROFIL
 10
121.7607398687672
 20
52.54019926244203
 30
0.0
 42
-0.1316363093594254
  0
VERTEX
  5
1852
  8
SAPA_PROFIL
 10
121.6107589637204
 20
52.500006884185062
 30
0.0
  0
VERTEX
  5
1853
  8
SAPA_PROFIL
 10
121.50099999983929
 20
52.499999898044088
 30
0.0
  0
VERTEX
  5
1854
  8
SAPA_PROFIL
 10
121.49999999984129
 20
52.50099983439425
 30
0.0
  0
VERTEX
  5
1855
  8
SAPA_PROFIL
 10
121.49999999984129
 20
54.500000000000128
 30
0.0
 42
-0.4142135623731035
  0
VERTEX
  5
1856
  8
SAPA_PROFIL
 10
121.99999999984129
 20
55.000000000000099
 30
0.0
  0
VERTEX
  5
1857
  8
SAPA_PROFIL
 10
129.15000000011199
 20
55.000000000000128
 30
0.0
 42
-0.4142135623731022
  0
VERTEX
  5
1858
  8
SAPA_PROFIL
 10
129.45000000011129
 20
54.700000000000848
 30
0.0
  0
VERTEX
  5
1859
  8
SAPA_PROFIL
 10
129.45000000011129
 20
54.049999999999429
 30
0.0
 42
0.4142135623730534
  0
VERTEX
  5
185A
  8
SAPA_PROFIL
 10
129.7500000001105
 20
53.750000000000099
 30
0.0
  0
VERTEX
  5
185B
  8
SAPA_PROFIL
 10
130.45000000000209
 20
53.750000000000149
 30
0.0
 42
0.4142135623730884
  0
VERTEX
  5
185C
  8
SAPA_PROFIL
 10
130.75000000000139
 20
54.049999999999429
 30
0.0
  0
VERTEX
  5
185D
  8
SAPA_PROFIL
 10
130.7500000000214
 20
65.950000000009979
 30
0.0
 42
0.4142135623730466
  0
VERTEX
  5
185E
  8
SAPA_PROFIL
 10
130.45000000002031
 20
66.25000000001107
 30
0.0
  0
VERTEX
  5
185F
  8
SAPA_PROFIL
 10
129.74999999954301
 20
66.250000000020165
 30
0.0
 42
0.4142135623731437
  0
VERTEX
  5
1860
  8
SAPA_PROFIL
 10
129.44999999953279
 20
65.950000000009979
 30
0.0
  0
VERTEX
  5
1861
  8
SAPA_PROFIL
 10
129.4499999995401
 20
65.2999999999994
 30
0.0
 42
-0.4142135623535671
  0
VERTEX
  5
1862
  8
SAPA_PROFIL
 10
129.1499999995408
 20
65.000000000011042
 30
0.0
  0
VERTEX
  5
1863
  8
SAPA_PROFIL
 10
127.19999999953281
 20
65.000000000011042
 30
0.0
 42
-0.4142135623731159
  0
VERTEX
  5
1864
  8
SAPA_PROFIL
 10
126.9999999995339
 20
65.200000000009965
 30
0.0
  0
VERTEX
  5
1865
  8
SAPA_PROFIL
 10
126.99999999954299
 20
66.300000000010314
 30
0.0
 42
-0.4142135623730326
  0
VERTEX
  5
1866
  8
SAPA_PROFIL
 10
127.19999999953281
 20
66.500000000000099
 30
0.0
  0
VERTEX
  5
1867
  8
SAPA_PROFIL
 10
127.99999999954299
 20
66.500000000011042
 30
0.0
 42
0.4142135623730991
  0
VERTEX
  5
1868
  8
SAPA_PROFIL
 10
128.49999999954301
 20
67.000000000011042
 30
0.0
  0
VERTEX
  5
1869
  8
SAPA_PROFIL
 10
128.50000000002319
 20
68.000000000020165
 30
0.0
 42
0.4142135623730992
  0
SEQEND
  5
186A
  8
SAPA_PROFIL
  0
POLYLINE
  5
D4A
  8
SAPA_PROFIL
 66
     1
 10
0.0
 20
0.0
 30
0.0
 70
     1
  0
VERTEX
  5
186B
  8
SAPA_PROFIL
 10
89.999999999659565
 20
68.500000000020165
 30
0.0
  0
VERTEX
  5
186C
  8
SAPA_PROFIL
 10
90.799999999669694
 20
68.500000000011042
 30
0.0
 42
0.4142135623731159
  0
VERTEX
  5
186D
  8
SAPA_PROFIL
 10
90.999999999668646
 20
68.70000000000995
 30
0.0
  0
VERTEX
  5
186E
  8
SAPA_PROFIL
 10
90.999999999659522
 20
69.800000000010343
 30
0.0
 42
0.4142135623730744
  0
VERTEX
  5
186F
  8
SAPA_PROFIL
 10
90.799999999669694
 20
70.000000000000171
 30
0.0
  0
VERTEX
  5
1870
  8
SAPA_PROFIL
 10
87.250000000172477
 20
70.000000000011042
 30
0.0
 42
0.3389652260119365
  0
VERTEX
  5
1871
  8
SAPA_PROFIL
 10
86.284529700628184
 20
69.260513148811256
 30
0.0
 42
0.0274862826956062
  0
VERTEX
  5
1872
  8
SAPA_PROFIL
 10
85.500000000180634
 20
55.000000000019412
 30
0.0
  0
VERTEX
  5
1873
  8
SAPA_PROFIL
 10
85.499999999819593
 20
42.199999998760319
 30
0.0
 42
0.4142135623889429
  0
VERTEX
  5
1874
  8
SAPA_PROFIL
 10
85.699999999820321
 20
41.999999998748699
 30
0.0
  0
VERTEX
  5
1875
  8
SAPA_PROFIL
 10
86.034529946080184
 20
41.999999998750489
 30
0.0
 42
0.2679491924396797
  0
VERTEX
  5
1876
  8
SAPA_PROFIL
 10
86.20773502683933
 20
42.099999998755493
 30
0.0
  0
VERTEX
  5
1877
  8
SAPA_PROFIL
 10
87.223205080431981
 20
43.858845725149983
 30
0.0
 42
0.1316524975842002
  0
VERTEX
  5
1878
  8
SAPA_PROFIL
 10
87.249999999674557
 20
43.958845725150347
 30
0.0
  0
VERTEX
  5
1879
  8
SAPA_PROFIL
 10
87.249999999670436
 20
46.80000000001035
 30
0.0
 42
-0.4142135623731472
  0
VERTEX
  5
187A
  8
SAPA_PROFIL
 10
87.449999999671164
 20
47.000000000011099
 30
0.0
  0
VERTEX
  5
187B
  8
SAPA_PROFIL
 10
93.756130958879695
 20
47.000000000011021
 30
0.0
 42
0.2418327667441306
  0
VERTEX
  5
187C
  8
SAPA_PROFIL
 10
93.999999999831189
 20
47.125277674977262
 30
0.0
 42
-0.2418327667529517
  0
VERTEX
  5
187D
  8
SAPA_PROFIL
 10
94.243869040792234
 20
47.250555349950581
 30
0.0
  0
VERTEX
  5
187E
  8
SAPA_PROFIL
 10
95.199999999831235
 20
47.250555349950552
 30
0.0
 42
-0.2418327667504456
  0
VERTEX
  5
187F
  8
SAPA_PROFIL
 10
95.443869040793956
 20
47.125277674979607
 30
0.0
 42
0.2418327667464157
  0
VERTEX
  5
1880
  8
SAPA_PROFIL
 10
95.687738081747526
 20
47.000000000011021
 30
0.0
  0
VERTEX
  5
1881
  8
SAPA_PROFIL
 10
97.785810437467788
 20
47.000000000011021
 30
0.0
 42
0.6681786379192718
  0
VERTEX
  5
1882
  8
SAPA_PROFIL
 10
98.492917218654412
 20
48.70710678119751
 30
0.0
  0
VERTEX
  5
1883
  8
SAPA_PROFIL
 10
97.187867965485424
 20
50.012156034366683
 30
0.0
 42
0.1989123673797335
  0
VERTEX
  5
1884
  8
SAPA_PROFIL
 10
96.975735931129336
 20
50.100024000010812
 30
0.0
  0
VERTEX
  5
1885
  8
SAPA_PROFIL
 10
96.389230484382153
 20
50.10002400001067
 30
0.0
 42
0.1316524975873855
  0
VERTEX
  5
1886
  8
SAPA_PROFIL
 10
96.239230484382233
 20
50.059831621146017
 30
0.0
  0
VERTEX
  5
1887
  8
SAPA_PROFIL
 10
94.74999999984135
 20
49.200024000010707
 30
0.0
  0
VERTEX
  5
1888
  8
SAPA_PROFIL
 10
94.299999999841404
 20
49.200012000011043
 30
0.0
 42
-0.4142135623731054
  0
VERTEX
  5
1889
  8
SAPA_PROFIL
 10
93.999999999841393
 20
49.500012000011047
 30
0.0
  0
VERTEX
  5
188A
  8
SAPA_PROFIL
 10
93.999999999841435
 20
53.100024000011118
 30
0.0
 42
-0.4142135623730951
  0
VERTEX
  5
188B
  8
SAPA_PROFIL
 10
94.299999999841447
 20
53.400024000011108
 30
0.0
  0
VERTEX
  5
188C
  8
SAPA_PROFIL
 10
94.749999999841449
 20
53.400024000011001
 30
0.0
  0
VERTEX
  5
188D
  8
SAPA_PROFIL
 10
96.239260130915625
 20
52.54019926244203
 30
0.0
 42
0.1316363093594254
  0
VERTEX
  5
188E
  8
SAPA_PROFIL
 10
96.389241035962357
 20
52.500006884185062
 30
0.0
  0
VERTEX
  5
188F
  8
SAPA_PROFIL
 10
96.498999999843491
 20
52.499999898044088
 30
0.0
  0
VERTEX
  5
1890
  8
SAPA_PROFIL
 10
96.499999999841464
 20
52.50099983439425
 30
0.0
  0
VERTEX
  5
1891
  8
SAPA_PROFIL
 10
96.499999999841421
 20
54.500000000000128
 30
0.0
 42
0.4142135623731035
  0
VERTEX
  5
1892
  8
SAPA_PROFIL
 10
95.999999999841421
 20
55.000000000000099
 30
0.0
  0
VERTEX
  5
1893
  8
SAPA_PROFIL
 10
88.849999999570755
 20
55.000000000000128
 30
0.0
 42
0.4142135623731022
  0
VERTEX
  5
1894
  8
SAPA_PROFIL
 10
88.549999999571483
 20
54.700000000000848
 30
0.0
  0
VERTEX
  5
1895
  8
SAPA_PROFIL
 10
88.549999999571511
 20
54.049999999999429
 30
0.0
 42
-0.4142135623730534
  0
VERTEX
  5
1896
  8
SAPA_PROFIL
 10
88.249999999572211
 20
53.750000000000099
 30
0.0
  0
VERTEX
  5
1897
  8
SAPA_PROFIL
 10
87.549999999680608
 20
53.750000000000149
 30
0.0
 42
-0.4142135623730884
  0
VERTEX
  5
1898
  8
SAPA_PROFIL
 10
87.249999999681378
 20
54.049999999999429
 30
0.0
  0
VERTEX
  5
1899
  8
SAPA_PROFIL
 10
87.249999999661355
 20
65.950000000009979
 30
0.0
 42
-0.4142135623730466
  0
VERTEX
  5
189A
  8
SAPA_PROFIL
 10
87.549999999662461
 20
66.25000000001107
 30
0.0
  0
VERTEX
  5
189B
  8
SAPA_PROFIL
 10
88.250000000139764
 20
66.250000000020165
 30
0.0
 42
-0.4142135623731437
  0
VERTEX
  5
189C
  8
SAPA_PROFIL
 10
88.550000000149922
 20
65.950000000009979
 30
0.0
  0
VERTEX
  5
189D
  8
SAPA_PROFIL
 10
88.550000000142646
 20
65.2999999999994
 30
0.0
 42
0.4142135623535671
  0
VERTEX
  5
189E
  8
SAPA_PROFIL
 10
88.850000000141918
 20
65.000000000011042
 30
0.0
  0
VERTEX
  5
189F
  8
SAPA_PROFIL
 10
90.800000000149922
 20
65.000000000011042
 30
0.0
 42
0.4142135623731159
  0
VERTEX
  5
18A0
  8
SAPA_PROFIL
 10
91.00000000014883
 20
65.200000000009965
 30
0.0
  0
VERTEX
  5
18A1
  8
SAPA_PROFIL
 10
91.000000000139735
 20
66.300000000010314
 30
0.0
 42
0.4142135623730326
  0
VERTEX
  5
18A2
  8
SAPA_PROFIL
 10
90.800000000149922
 20
66.500000000000099
 30
0.0
  0
VERTEX
  5
18A3
  8
SAPA_PROFIL
 10
90.000000000139764
 20
66.500000000011042
 30
0.0
 42
-0.4142135623730991
  0
VERTEX
  5
18A4
  8
SAPA_PROFIL
 10
89.500000000139735
 20
67.000000000011042
 30
0.0
  0
VERTEX
  5
18A5
  8
SAPA_PROFIL
 10
89.499999999659551
 20
68.000000000020165
 30
0.0
 42
-0.4142135623730992
  0
SEQEND
  5
18A6
  8
SAPA_PROFIL
  0
POLYLINE
  5
D4B
  8
SAPA_PROFIL
 62
     4
 66
     1
 10
0.0
 20
0.0
 30
0.0
 70
     1
  0
VERTEX
  5
D4C
  8
SAPA_PROFIL
 62
     4
 10
96.856217782493886
 20
50.350012000013074
 30
0.0
 42
0.1316524975873979
  0
VERTEX
  5
D4D
  8
SAPA_PROFIL
 62
     4
 10
96.45621778249388
 20
50.242832323040631
 30
0.0
  0
VERTEX
  5
D4E
  8
SAPA_PROFIL
 62
     4
 10
94.736602540219835
 20
49.25001200001121
 30
0.0
  0
VERTEX
  5
D4F
  8
SAPA_PROFIL
 62
     4
 10
94.299999999841376
 20
49.250012000011111
 30
0.0
 42
-0.4142135623730951
  0
VERTEX
  5
D50
  8
SAPA_PROFIL
 62
     4
 10
94.049999999841404
 20
49.500012000011111
 30
0.0
  0
VERTEX
  5
D51
  8
SAPA_PROFIL
 62
     4
 10
94.049999999841333
 20
53.100024000011167
 30
0.0
 42
-0.4142135623731053
  0
VERTEX
  5
D52
  8
SAPA_PROFIL
 62
     4
 10
94.299999999841347
 20
53.350024000011167
 30
0.0
  0
VERTEX
  5
D53
  8
SAPA_PROFIL
 62
     4
 10
94.736601921419805
 20
53.350012357275808
 30
0.0
  0
VERTEX
  5
D54
  8
SAPA_PROFIL
 62
     4
 10
96.456217782487201
 20
52.357191676985543
 30
0.0
 42
0.1316524975874149
  0
VERTEX
  5
D55
  8
SAPA_PROFIL
 62
     4
 10
96.856217782487249
 20
52.250012000013051
 30
0.0
  0
VERTEX
  5
D56
  8
SAPA_PROFIL
 62
     4
 10
121.14378221719549
 20
52.250012000013051
 30
0.0
 42
0.1316524975874151
  0
VERTEX
  5
D57
  8
SAPA_PROFIL
 62
     4
 10
121.5437822171956
 20
52.357191676985543
 30
0.0
  0
VERTEX
  5
D58
  8
SAPA_PROFIL
 62
     4
 10
123.26339807826299
 20
53.350012357275808
 30
0.0
  0
VERTEX
  5
D59
  8
SAPA_PROFIL
 62
     4
 10
123.6999999998414
 20
53.350024000011167
 30
0.0
 42
-0.4142135623731054
  0
VERTEX
  5
D5A
  8
SAPA_PROFIL
 62
     4
 10
123.9499999998414
 20
53.100024000011167
 30
0.0
  0
VERTEX
  5
D5B
  8
SAPA_PROFIL
 62
     4
 10
123.9499999998414
 20
49.500012000011111
 30
0.0
 42
-0.4142135623730953
  0
VERTEX
  5
D5C
  8
SAPA_PROFIL
 62
     4
 10
123.6999999998414
 20
49.250012000011111
 30
0.0
  0
VERTEX
  5
D5D
  8
SAPA_PROFIL
 62
     4
 10
123.26339745946289
 20
49.25001200001121
 30
0.0
  0
VERTEX
  5
D5E
  8
SAPA_PROFIL
 62
     4
 10
121.54378221718891
 20
50.242832323040631
 30
0.0
 42
0.1316524975873982
  0
VERTEX
  5
D5F
  8
SAPA_PROFIL
 62
     4
 10
121.1437822171889
 20
50.350012000013074
 30
0.0
  0
SEQEND
  5
D60
  8
SAPA_PROFIL
 62
     4
  0
POLYLINE
  5
D61
  8
SAPA_PROFIL
 66
     1
 10
0.0
 20
0.0
 30
0.0
 70
     1
  0
VERTEX
  5
18A7
  8
SAPA_PROFIL
 10
135.64523645122861
 20
19.46152494752096
 30
0.0
 42
0.2914734195858593
  0
VERTEX
  5
18A8
  8
SAPA_PROFIL
 10
136.79999992774421
 20
21.274140521607482
 30
0.0
  0
VERTEX
  5
18A9
  8
SAPA_PROFIL
 10
136.79999992774421
 20
40.999999999985441
 30
0.0
 42
0.4142135623731033
  0
VERTEX
  5
18AA
  8
SAPA_PROFIL
 10
136.29999992774421
 20
41.499999999985441
 30
0.0
  0
VERTEX
  5
18AB
  8
SAPA_PROFIL
 10
135.999999927734
 20
41.499999999985441
 30
0.0
 42
0.4142135623731035
  0
VERTEX
  5
18AC
  8
SAPA_PROFIL
 10
135.499999927734
 20
40.999999999985441
 30
0.0
  0
VERTEX
  5
18AD
  8
SAPA_PROFIL
 10
135.499999927734
 20
39.699999999986183
 30
0.0
 42
-0.4142135623731159
  0
VERTEX
  5
18AE
  8
SAPA_PROFIL
 10
135.29999992771511
 20
39.499999999974541
 30
0.0
  0
VERTEX
  5
18AF
  8
SAPA_PROFIL
 10
134.999999927734
 20
39.499999999985448
 30
0.0
 42
-0.4142135623731035
  0
VERTEX
  5
18B0
  8
SAPA_PROFIL
 10
134.499999927734
 20
39.999999999985448
 30
0.0
  0
VERTEX
  5
18B1
  8
SAPA_PROFIL
 10
134.4999999277413
 20
43.749999999985448
 30
0.0
 42
-0.4142135623731035
  0
VERTEX
  5
18B2
  8
SAPA_PROFIL
 10
134.9999999277413
 20
44.249999999985441
 30
0.0
  0
VERTEX
  5
18B3
  8
SAPA_PROFIL
 10
135.29999992774421
 20
44.249999999985441
 30
0.0
 42
-0.4142135623731159
  0
VERTEX
  5
18B4
  8
SAPA_PROFIL
 10
135.49999992775221
 20
44.049999999973807
 30
0.0
  0
VERTEX
  5
18B5
  8
SAPA_PROFIL
 10
135.4999999277413
 20
43.199999999986169
 30
0.0
 42
0.4142135623730951
  0
VERTEX
  5
18B6
  8
SAPA_PROFIL
 10
135.69999992773111
 20
42.999999999985441
 30
0.0
  0
VERTEX
  5
18B7
  8
SAPA_PROFIL
 10
136.69999992773111
 20
42.999999999985441
 30
0.0
 42
0.4142135623731035
  0
VERTEX
  5
18B8
  8
SAPA_PROFIL
 10
137.19999992773111
 20
43.499999999985441
 30
0.0
  0
VERTEX
  5
18B9
  8
SAPA_PROFIL
 10
137.19999992773111
 20
49.499999999985448
 30
0.0
 42
0.4142135623731033
  0
VERTEX
  5
18BA
  8
SAPA_PROFIL
 10
136.69999992773111
 20
49.999999999985448
 30
0.0
  0
VERTEX
  5
18BB
  8
SAPA_PROFIL
 10
135.69999992773111
 20
49.999999999985448
 30
0.0
 42
0.4142135623731054
  0
VERTEX
  5
18BC
  8
SAPA_PROFIL
 10
135.4999999277413
 20
49.799999999973807
 30
0.0
  0
VERTEX
  5
18BD
  8
SAPA_PROFIL
 10
135.499999927734
 20
48.949999999986169
 30
0.0
 42
-0.4142135623731159
  0
VERTEX
  5
18BE
  8
SAPA_PROFIL
 10
135.29999992771511
 20
48.749999999974527
 30
0.0
  0
VERTEX
  5
18BF
  8
SAPA_PROFIL
 10
134.9999999277413
 20
48.75
 30
0.0
 42
-0.4142135623731035
  0
VERTEX
  5
18C0
  8
SAPA_PROFIL
 10
134.4999999277413
 20
49.25
 30
0.0
  0
VERTEX
  5
18C1
  8
SAPA_PROFIL
 10
134.4999999277413
 20
52.25
 30
0.0
 42
-0.4142135623731035
  0
VERTEX
  5
18C2
  8
SAPA_PROFIL
 10
134.9999999277413
 20
52.75
 30
0.0
  0
VERTEX
  5
18C3
  8
SAPA_PROFIL
 10
135.29999992774421
 20
52.75
 30
0.0
 42
-0.4142135623730744
  0
VERTEX
  5
18C4
  8
SAPA_PROFIL
 10
135.4999999277413
 20
52.549999999999272
 30
0.0
  0
VERTEX
  5
18C5
  8
SAPA_PROFIL
 10
135.49999992773041
 20
51.70000000000072
 30
0.0
 42
0.4142135623730534
  0
VERTEX
  5
18C6
  8
SAPA_PROFIL
 10
135.69999992773111
 20
51.5
 30
0.0
  0
VERTEX
  5
18C7
  8
SAPA_PROFIL
 10
136.69999992773111
 20
51.5
 30
0.0
 42
0.4142135623731035
  0
VERTEX
  5
18C8
  8
SAPA_PROFIL
 10
137.19999992773111
 20
52.0
 30
0.0
  0
VERTEX
  5
18C9
  8
SAPA_PROFIL
 10
137.19999992773111
 20
58.0
 30
0.0
 42
0.4142135623730869
  0
VERTEX
  5
18CA
  8
SAPA_PROFIL
 10
136.69999992773111
 20
58.5
 30
0.0
  0
VERTEX
  5
18CB
  8
SAPA_PROFIL
 10
135.69999992773111
 20
58.499999999989079
 30
0.0
 42
0.4142135623730534
  0
VERTEX
  5
18CC
  8
SAPA_PROFIL
 10
135.4999999277413
 20
58.299999999999272
 30
0.0
  0
VERTEX
  5
18CD
  8
SAPA_PROFIL
 10
135.4999999277486
 20
57.45000000000072
 30
0.0
 42
-0.4142135623730744
  0
VERTEX
  5
18CE
  8
SAPA_PROFIL
 10
135.29999992774421
 20
57.25
 30
0.0
  0
VERTEX
  5
18CF
  8
SAPA_PROFIL
 10
134.9999999277413
 20
57.25
 30
0.0
 42
-0.4142135623731035
  0
VERTEX
  5
18D0
  8
SAPA_PROFIL
 10
134.4999999277413
 20
57.75
 30
0.0
  0
VERTEX
  5
18D1
  8
SAPA_PROFIL
 10
134.4999999277413
 20
59.5
 30
0.0
 42
-0.4142135623731035
  0
VERTEX
  5
18D2
  8
SAPA_PROFIL
 10
134.9999999277413
 20
60.0
 30
0.0
  0
VERTEX
  5
18D3
  8
SAPA_PROFIL
 10
137.4999999277413
 20
60.0
 30
0.0
 42
-0.4142135623730951
  0
VERTEX
  5
18D4
  8
SAPA_PROFIL
 10
138.9999999277413
 20
58.5
 30
0.0
  0
VERTEX
  5
18D5
  8
SAPA_PROFIL
 10
138.9999999277413
 20
-55.625
 30
0.0
 42
-0.9999999999999792
  0
VERTEX
  5
18D6
  8
SAPA_PROFIL
 10
136.2499999277413
 20
-55.625
 30
0.0
  0
VERTEX
  5
18D7
  8
SAPA_PROFIL
 10
136.2499999277413
 20
-3.9999999999999849
 30
0.0
 42
0.4142135623730959
  0
VERTEX
  5
18D8
  8
SAPA_PROFIL
 10
132.2499999277413
 20
0.0000000000000142
 30
0.0
  0
VERTEX
  5
18D9
  8
SAPA_PROFIL
 10
90.743868969062234
 20
-0.0000000000109139
 30
0.0
 42
-0.2418327667378102
  0
VERTEX
  5
18DA
  8
SAPA_PROFIL
 10
90.499999928123856
 20
0.1252776749561804
 30
0.0
 42
0.2418327667509117
  0
VERTEX
  5
18DB
  8
SAPA_PROFIL
 10
90.256130887167899
 20
0.2505553499286179
 30
0.0
  0
VERTEX
  5
18DC
  8
SAPA_PROFIL
 10
89.299999928117984
 20
0.2505553499322559
 30
0.0
 42
0.2418327667448982
  0
VERTEX
  5
18DD
  8
SAPA_PROFIL
 10
89.056130887163064
 20
0.12527767496384
 30
0.0
 42
-0.2418327667448982
  0
VERTEX
  5
18DE
  8
SAPA_PROFIL
 10
88.812261846210475
 20
-0.0000000000033538
 30
0.0
  0
VERTEX
  5
18DF
  8
SAPA_PROFIL
 10
86.714189490492487
 20
-0.0000000000033538
 30
0.0
 42
-0.6681786379192726
  0
VERTEX
  5
18E0
  8
SAPA_PROFIL
 10
86.007082709305891
 20
1.707106781183142
 30
0.0
  0
VERTEX
  5
18E1
  8
SAPA_PROFIL
 10
87.312131962474865
 20
3.0121560343523011
 30
0.0
 42
-0.1989123673797352
  0
VERTEX
  5
18E2
  8
SAPA_PROFIL
 10
87.524263996830925
 20
3.100023999996437
 30
0.0
  0
VERTEX
  5
18E3
  8
SAPA_PROFIL
 10
88.110769443578135
 20
3.1000239999962811
 30
0.0
 42
-0.1316524975873824
  0
VERTEX
  5
18E4
  8
SAPA_PROFIL
 10
88.260769443578056
 20
3.059831621131635
 30
0.0
  0
VERTEX
  5
18E5
  8
SAPA_PROFIL
 10
89.749999928118925
 20
2.2000239999963318
 30
0.0
  0
VERTEX
  5
18E6
  8
SAPA_PROFIL
 10
90.199999928118885
 20
2.2000119999966752
 30
0.0
 42
0.4142135623731039
  0
VERTEX
  5
18E7
  8
SAPA_PROFIL
 10
90.499999928118896
 20
2.5000119999966719
 30
0.0
  0
VERTEX
  5
18E8
  8
SAPA_PROFIL
 10
90.499999928118825
 20
6.1000239999967363
 30
0.0
 42
0.4142135623730826
  0
VERTEX
  5
18E9
  8
SAPA_PROFIL
 10
90.199999928118842
 20
6.4000239999967334
 30
0.0
  0
VERTEX
  5
18EA
  8
SAPA_PROFIL
 10
89.749999928118839
 20
6.4000239999966331
 30
0.0
  0
VERTEX
  5
18EB
  8
SAPA_PROFIL
 10
88.260739797044664
 20
5.5401992624276479
 30
0.0
 42
-0.1316363093594268
  0
VERTEX
  5
18EC
  8
SAPA_PROFIL
 10
88.110758891997904
 20
5.5000068841706868
 30
0.0
  0
VERTEX
  5
18ED
  8
SAPA_PROFIL
 10
87.999999928115074
 20
5.4999998343798771
 30
0.0
  0
VERTEX
  5
18EE
  8
SAPA_PROFIL
 10
87.999999928115074
 20
7.0856406460516146
 30
0.0
 42
-0.2679491924308297
  0
VERTEX
  5
18EF
  8
SAPA_PROFIL
 10
88.499999928115074
 20
7.9516660498302372
 30
0.0
  0
VERTEX
  5
18F0
  8
SAPA_PROFIL
 10
90.249999928115528
 20
8.9620290209087141
 30
0.0
 42
0.2679491924308301
  0
VERTEX
  5
18F1
  8
SAPA_PROFIL
 10
90.499999928115074
 20
9.3950417228006682
 30
0.0
  0
VERTEX
  5
18F2
  8
SAPA_PROFIL
 10
90.499999928115074
 20
10.60495827718114
 30
0.0
 42
0.267949192430829
  0
VERTEX
  5
18F3
  8
SAPA_PROFIL
 10
90.249999928115059
 20
11.03797097907227
 30
0.0
  0
VERTEX
  5
18F4
  8
SAPA_PROFIL
 10
88.499999928115074
 20
12.04833395014793
 30
0.0
 42
-0.2679491924308297
  0
VERTEX
  5
18F5
  8
SAPA_PROFIL
 10
87.999999928116949
 20
12.914359353933831
 30
0.0
  0
VERTEX
  5
18F6
  8
SAPA_PROFIL
 10
87.999999928114818
 20
14.50000016560193
 30
0.0
  0
VERTEX
  5
18F7
  8
SAPA_PROFIL
 10
88.110758891997904
 20
14.499993115811121
 30
0.0
 42
-0.1316363093594264
  0
VERTEX
  5
18F8
  8
SAPA_PROFIL
 10
88.260739797044664
 20
14.45980073755416
 30
0.0
  0
VERTEX
  5
18F9
  8
SAPA_PROFIL
 10
89.749999928118839
 20
13.599975999985171
 30
0.0
  0
VERTEX
  5
18FA
  8
SAPA_PROFIL
 10
90.199999928118842
 20
13.59997599998507
 30
0.0
 42
0.4142135623730951
  0
VERTEX
  5
18FB
  8
SAPA_PROFIL
 10
90.499999928118825
 20
13.89997599998507
 30
0.0
  0
VERTEX
  5
18FC
  8
SAPA_PROFIL
 10
90.499999928118896
 20
17.499987999985141
 30
0.0
 42
0.4142135623731165
  0
VERTEX
  5
18FD
  8
SAPA_PROFIL
 10
90.199999928118885
 20
17.799987999985131
 30
0.0
  0
VERTEX
  5
18FE
  8
SAPA_PROFIL
 10
89.749999928118925
 20
17.799975999985481
 30
0.0
  0
VERTEX
  5
18FF
  8
SAPA_PROFIL
 10
88.260769443578056
 20
16.940168378850171
 30
0.0
 42
-0.1316524975873824
  0
VERTEX
  5
1900
  8
SAPA_PROFIL
 10
88.110769443578135
 20
16.899975999985529
 30
0.0
  0
VERTEX
  5
1901
  8
SAPA_PROFIL
 10
87.524263996830925
 20
16.89997599998539
 30
0.0
 42
-0.1989123673797351
  0
VERTEX
  5
1902
  8
SAPA_PROFIL
 10
87.312131962474865
 20
16.987843965629509
 30
0.0
  0
VERTEX
  5
1903
  8
SAPA_PROFIL
 10
86.007082709305891
 20
18.292893218798671
 30
0.0
 42
-0.6681786379192719
  0
VERTEX
  5
1904
  8
SAPA_PROFIL
 10
86.714189490492487
 20
19.99999999998516
 30
0.0
  0
VERTEX
  5
1905
  8
SAPA_PROFIL
 10
88.812261846212166
 20
19.99999999998516
 30
0.0
 42
-0.2418327667433408
  0
VERTEX
  5
1906
  8
SAPA_PROFIL
 10
89.056130887163732
 20
19.874722325019398
 30
0.0
 42
0.2418327667449424
  0
VERTEX
  5
1907
  8
SAPA_PROFIL
 10
89.299999928117984
 20
19.749444650053189
 30
0.0
  0
VERTEX
  5
1908
  8
SAPA_PROFIL
 10
90.256130887167899
 20
19.749444650049551
 30
0.0
 42
0.2418327667509086
  0
VERTEX
  5
1909
  8
SAPA_PROFIL
 10
90.499999928115017
 20
19.874722325031971
 30
0.0
 42
-0.2418327667378184
  0
VERTEX
  5
190A
  8
SAPA_PROFIL
 10
90.743868969052286
 20
19.999999999993801
 30
0.0
  0
VERTEX
  5
190B
  8
SAPA_PROFIL
 10
92.556610602811588
 20
20.000000000003642
 30
0.0
 42
-0.1095178116817878
  0
VERTEX
  5
190C
  8
SAPA_PROFIL
 10
93.401847126282576
 20
19.8126155740818
 30
0.0
  0
VERTEX
  5
190D
  8
SAPA_PROFIL
 10
99.031673491414722
 20
17.187384425924389
 30
0.0
 42
0.1095178116855124
  0
VERTEX
  5
190E
  8
SAPA_PROFIL
 10
99.876910014920895
 20
17.0
 30
0.0
  0
VERTEX
  5
190F
  8
SAPA_PROFIL
 10
106.9999999280833
 20
16.999999999985452
 30
0.0
 42
0.414213562373099
  0
VERTEX
  5
1910
  8
SAPA_PROFIL
 10
107.4999999280833
 20
17.500000000003642
 30
0.0
  0
VERTEX
  5
1911
  8
SAPA_PROFIL
 10
107.4999999280833
 20
18.500000000003631
 30
0.0
 42
0.4142135623730951
  0
VERTEX
  5
1912
  8
SAPA_PROFIL
 10
106.9999999280833
 20
19.000000000003642
 30
0.0
  0
VERTEX
  5
1913
  8
SAPA_PROFIL
 10
106.7087120806161
 20
19.000000000003642
 30
0.0
 42
-0.2982166266909471
  0
VERTEX
  5
1914
  8
SAPA_PROFIL
 10
106.25045451112619
 20
19.299999999990739
 30
0.0
 42
-1.5275252316550949
  0
VERTEX
  5
1915
  8
SAPA_PROFIL
 10
111.74954534504521
 20
19.299999999998899
 30
0.0
 42
-0.2982166266892463
  0
VERTEX
  5
1916
  8
SAPA_PROFIL
 10
111.291287775565
 20
19.00000000001296
 30
0.0
  0
VERTEX
  5
1917
  8
SAPA_PROFIL
 10
110.9999999280833
 20
19.000000000003642
 30
0.0
 42
0.4142135623730951
  0
VERTEX
  5
1918
  8
SAPA_PROFIL
 10
110.4999999280833
 20
18.500000000003631
 30
0.0
  0
VERTEX
  5
1919
  8
SAPA_PROFIL
 10
110.4999999280833
 20
17.500000000003642
 30
0.0
 42
0.4142135623730946
  0
VERTEX
  5
191A
  8
SAPA_PROFIL
 10
110.9999999280833
 20
17.000000000003642
 30
0.0
  0
VERTEX
  5
191B
  8
SAPA_PROFIL
 10
129.92308984094299
 20
17.000000000003642
 30
0.0
 42
0.1095178116834561
  0
VERTEX
  5
191C
  8
SAPA_PROFIL
 10
130.7683263644287
 20
17.18738442592506
 30
0.0
  0
SEQEND
  5
191D
  8
SAPA_PROFIL
  0
POLYLINE
  5
D62
  8
SAPA_PROFIL
 66
     1
 10
0.0
 20
0.0
 30
0.0
 70
     1
  0
VERTEX
  5
191E
  8
SAPA_PROFIL
 10
136.4999999277413
 20
2.7999999999992862
 30
0.0
 42
-0.4142135623730916
  0
VERTEX
  5
191F
  8
SAPA_PROFIL
 10
136.19999992773111
 20
2.5000000000000142
 30
0.0
  0
VERTEX
  5
1920
  8
SAPA_PROFIL
 10
93.299999928115355
 20
2.5000000000036371
 30
0.0
 42
-0.4142135623730959
  0
VERTEX
  5
1921
  8
SAPA_PROFIL
 10
92.999999928116054
 20
2.8000000000029099
 30
0.0
  0
VERTEX
  5
1922
  8
SAPA_PROFIL
 10
92.999999928112402
 20
14.3999999999869
 30
0.0
 42
-0.4142135623730951
  0
VERTEX
  5
1923
  8
SAPA_PROFIL
 10
93.299999928115312
 20
14.69999999998981
 30
0.0
  0
VERTEX
  5
1924
  8
SAPA_PROFIL
 10
136.19999992773111
 20
14.70000000001165
 30
0.0
 42
-0.4142135623730946
  0
VERTEX
  5
1925
  8
SAPA_PROFIL
 10
136.4999999277413
 20
14.400000000019659
 30
0.0
  0
SEQEND
  5
1926
  8
SAPA_PROFIL
  0
POLYLINE
  5
D63
  8
SAPA_PROFIL
 62
     4
 66
     1
 10
0.0
 20
0.0
 30
0.0
 70
     1
  0
VERTEX
  5
D64
  8
SAPA_PROFIL
 62
     4
 10
88.124166846888869
 20
3.1994446825304972
 30
0.0
 42
-0.1316524975873876
  0
VERTEX
  5
D65
  8
SAPA_PROFIL
 62
     4
 10
88.274166846888846
 20
3.1592523036658369
 30
0.0
  0
VERTEX
  5
D66
  8
SAPA_PROFIL
 62
     4
 10
89.763397387734059
 20
2.2994446500235171
 30
0.0
  0
VERTEX
  5
D67
  8
SAPA_PROFIL
 62
     4
 10
90.199999928112504
 20
2.2994446500234309
 30
0.0
 42
0.4142135623730934
  0
VERTEX
  5
D68
  8
SAPA_PROFIL
 62
     4
 10
90.449999928112476
 20
2.5494446500234171
 30
0.0
  0
VERTEX
  5
D69
  8
SAPA_PROFIL
 62
     4
 10
90.449999928112547
 20
6.1494566500234811
 30
0.0
 42
0.4142135623731066
  0
VERTEX
  5
D6A
  8
SAPA_PROFIL
 62
     4
 10
90.199999928112533
 20
6.3994566500234953
 30
0.0
  0
VERTEX
  5
D6B
  8
SAPA_PROFIL
 62
     4
 10
89.763398006534075
 20
6.3994450072881364
 30
0.0
  0
VERTEX
  5
D6C
  8
SAPA_PROFIL
 62
     4
 10
88.274166959496384
 20
5.5396370613951396
 30
0.0
 42
-0.131652497587425
  0
VERTEX
  5
D6D
  8
SAPA_PROFIL
 62
     4
 10
88.124166959496335
 20
5.4994446825304522
 30
0.0
  0
VERTEX
  5
D6E
  8
SAPA_PROFIL
 62
     4
 10
64.875832968245092
 20
5.4994446825304522
 30
0.0
 42
-0.1316524975874248
  0
VERTEX
  5
D6F
  8
SAPA_PROFIL
 62
     4
 10
64.725832968245058
 20
5.5396370613951396
 30
0.0
  0
VERTEX
  5
D70
  8
SAPA_PROFIL
 62
     4
 10
63.236601921207367
 20
6.3994450072881364
 30
0.0
  0
VERTEX
  5
D71
  8
SAPA_PROFIL
 62
     4
 10
62.799999999628909
 20
6.3994566500234953
 30
0.0
 42
0.4142135623731049
  0
VERTEX
  5
D72
  8
SAPA_PROFIL
 62
     4
 10
62.549999999628902
 20
6.1494566500234811
 30
0.0
  0
VERTEX
  5
D73
  8
SAPA_PROFIL
 62
     4
 10
62.549999999628952
 20
2.5494446500234171
 30
0.0
 42
0.4142135623730951
  0
VERTEX
  5
D74
  8
SAPA_PROFIL
 62
     4
 10
62.79999999962893
 20
2.2994446500234309
 30
0.0
  0
VERTEX
  5
D75
  8
SAPA_PROFIL
 62
     4
 10
63.236602540007389
 20
2.2994446500235171
 30
0.0
  0
VERTEX
  5
D76
  8
SAPA_PROFIL
 62
     4
 10
64.72583308085251
 20
3.1592523036657951
 30
0.0
 42
-0.1316524975873866
  0
VERTEX
  5
D77
  8
SAPA_PROFIL
 62
     4
 10
64.875833080852473
 20
3.1994446825304541
 30
0.0
  0
SEQEND
  5
D78
  8
SAPA_PROFIL
 62
     4
  0
POLYLINE
  5
D79
  8
SAPA_PROFIL
 66
     1
 10
0.0
 20
0.0
 30
0.0
 70
     1
  0
VERTEX
  5
1927
  8
SAPA_PROFIL
 10
17.354763476512758
 20
19.46152494752096
 30
0.0
 42
-0.2914734195858593
  0
VERTEX
  5
1928
  8
SAPA_PROFIL
 10
16.199999999997111
 20
21.274140521607482
 30
0.0
  0
VERTEX
  5
1929
  8
SAPA_PROFIL
 10
16.199999999997111
 20
40.999999999985441
 30
0.0
 42
-0.4142135623731033
  0
VERTEX
  5
192A
  8
SAPA_PROFIL
 10
16.6999999999971
 20
41.499999999985441
 30
0.0
  0
VERTEX
  5
192B
  8
SAPA_PROFIL
 10
17.000000000007301
 20
41.499999999985441
 30
0.0
 42
-0.4142135623731035
  0
VERTEX
  5
192C
  8
SAPA_PROFIL
 10
17.500000000007301
 20
40.999999999985441
 30
0.0
  0
VERTEX
  5
192D
  8
SAPA_PROFIL
 10
17.500000000007301
 20
39.699999999986183
 30
0.0
 42
0.4142135623731159
  0
VERTEX
  5
192E
  8
SAPA_PROFIL
 10
17.700000000026211
 20
39.499999999974541
 30
0.0
  0
VERTEX
  5
192F
  8
SAPA_PROFIL
 10
18.000000000007301
 20
39.499999999985448
 30
0.0
 42
0.4142135623731035
  0
VERTEX
  5
1930
  8
SAPA_PROFIL
 10
18.50000000000729
 20
39.999999999985448
 30
0.0
  0
VERTEX
  5
1931
  8
SAPA_PROFIL
 10
18.500000000000028
 20
43.749999999985448
 30
0.0
 42
0.4142135623731035
  0
VERTEX
  5
1932
  8
SAPA_PROFIL
 10
18.000000000000028
 20
44.249999999985441
 30
0.0
  0
VERTEX
  5
1933
  8
SAPA_PROFIL
 10
17.699999999997129
 20
44.249999999985441
 30
0.0
 42
0.4142135623731159
  0
VERTEX
  5
1934
  8
SAPA_PROFIL
 10
17.499999999989111
 20
44.049999999973807
 30
0.0
  0
VERTEX
  5
1935
  8
SAPA_PROFIL
 10
17.500000000000028
 20
43.199999999986169
 30
0.0
 42
-0.4142135623730951
  0
VERTEX
  5
1936
  8
SAPA_PROFIL
 10
17.300000000010211
 20
42.999999999985441
 30
0.0
  0
VERTEX
  5
1937
  8
SAPA_PROFIL
 10
16.300000000010211
 20
42.999999999985441
 30
0.0
 42
-0.4142135623731035
  0
VERTEX
  5
1938
  8
SAPA_PROFIL
 10
15.80000000001022
 20
43.499999999985441
 30
0.0
  0
VERTEX
  5
1939
  8
SAPA_PROFIL
 10
15.80000000001022
 20
49.499999999985448
 30
0.0
 42
-0.4142135623731033
  0
VERTEX
  5
193A
  8
SAPA_PROFIL
 10
16.300000000010211
 20
49.999999999985448
 30
0.0
  0
VERTEX
  5
193B
  8
SAPA_PROFIL
 10
17.300000000010211
 20
49.999999999985448
 30
0.0
 42
-0.4142135623731054
  0
VERTEX
  5
193C
  8
SAPA_PROFIL
 10
17.500000000000028
 20
49.799999999973807
 30
0.0
  0
VERTEX
  5
193D
  8
SAPA_PROFIL
 10
17.500000000007301
 20
48.949999999986169
 30
0.0
 42
0.4142135623731159
  0
VERTEX
  5
193E
  8
SAPA_PROFIL
 10
17.700000000026229
 20
48.749999999974527
 30
0.0
  0
VERTEX
  5
193F
  8
SAPA_PROFIL
 10
18.000000000000028
 20
48.75
 30
0.0
 42
0.4142135623731035
  0
VERTEX
  5
1940
  8
SAPA_PROFIL
 10
18.500000000000028
 20
49.25
 30
0.0
  0
VERTEX
  5
1941
  8
SAPA_PROFIL
 10
18.500000000000028
 20
52.25
 30
0.0
 42
0.4142135623731035
  0
VERTEX
  5
1942
  8
SAPA_PROFIL
 10
18.000000000000028
 20
52.75
 30
0.0
  0
VERTEX
  5
1943
  8
SAPA_PROFIL
 10
17.699999999997129
 20
52.75
 30
0.0
 42
0.4142135623730744
  0
VERTEX
  5
1944
  8
SAPA_PROFIL
 10
17.500000000000028
 20
52.549999999999272
 30
0.0
  0
VERTEX
  5
1945
  8
SAPA_PROFIL
 10
17.500000000010949
 20
51.70000000000072
 30
0.0
 42
-0.4142135623730534
  0
VERTEX
  5
1946
  8
SAPA_PROFIL
 10
17.300000000010211
 20
51.5
 30
0.0
  0
VERTEX
  5
1947
  8
SAPA_PROFIL
 10
16.300000000010211
 20
51.5
 30
0.0
 42
-0.4142135623731035
  0
VERTEX
  5
1948
  8
SAPA_PROFIL
 10
15.80000000001022
 20
52.0
 30
0.0
  0
VERTEX
  5
1949
  8
SAPA_PROFIL
 10
15.80000000001022
 20
58.0
 30
0.0
 42
-0.4142135623730869
  0
VERTEX
  5
194A
  8
SAPA_PROFIL
 10
16.300000000010211
 20
58.5
 30
0.0
  0
VERTEX
  5
194B
  8
SAPA_PROFIL
 10
17.300000000010211
 20
58.499999999989079
 30
0.0
 42
-0.4142135623730534
  0
VERTEX
  5
194C
  8
SAPA_PROFIL
 10
17.500000000000028
 20
58.299999999999272
 30
0.0
  0
VERTEX
  5
194D
  8
SAPA_PROFIL
 10
17.499999999992749
 20
57.45000000000072
 30
0.0
 42
0.4142135623730744
  0
VERTEX
  5
194E
  8
SAPA_PROFIL
 10
17.699999999997129
 20
57.25
 30
0.0
  0
VERTEX
  5
194F
  8
SAPA_PROFIL
 10
18.000000000000028
 20
57.25
 30
0.0
 42
0.4142135623731035
  0
VERTEX
  5
1950
  8
SAPA_PROFIL
 10
18.500000000000028
 20
57.75
 30
0.0
  0
VERTEX
  5
1951
  8
SAPA_PROFIL
 10
18.500000000000028
 20
59.5
 30
0.0
 42
0.4142135623731035
  0
VERTEX
  5
1952
  8
SAPA_PROFIL
 10
18.000000000000028
 20
60.0
 30
0.0
  0
VERTEX
  5
1953
  8
SAPA_PROFIL
 10
15.50000000000003
 20
60.0
 30
0.0
 42
0.4142135623730951
  0
VERTEX
  5
1954
  8
SAPA_PROFIL
 10
14.00000000000003
 20
58.5
 30
0.0
  0
VERTEX
  5
1955
  8
SAPA_PROFIL
 10
14.0
 20
-55.625
 30
0.0
 42
0.9999999999999792
  0
VERTEX
  5
1956
  8
SAPA_PROFIL
 10
16.75
 20
-55.625
 30
0.0
  0
VERTEX
  5
1957
  8
SAPA_PROFIL
 10
16.750000000000028
 20
-3.9999999999999849
 30
0.0
 42
-0.4142135623730959
  0
VERTEX
  5
1958
  8
SAPA_PROFIL
 10
20.750000000000011
 20
0.0000000000000142
 30
0.0
  0
VERTEX
  5
1959
  8
SAPA_PROFIL
 10
62.256130958679108
 20
-0.0000000000109139
 30
0.0
 42
0.2418327667378102
  0
VERTEX
  5
195A
  8
SAPA_PROFIL
 10
62.499999999617501
 20
0.1252776749561804
 30
0.0
 42
-0.2418327667509117
  0
VERTEX
  5
195B
  8
SAPA_PROFIL
 10
62.743869040573458
 20
0.2505553499286179
 30
0.0
  0
VERTEX
  5
195C
  8
SAPA_PROFIL
 10
63.699999999623373
 20
0.2505553499322559
 30
0.0
 42
-0.2418327667448982
  0
VERTEX
  5
195D
  8
SAPA_PROFIL
 10
63.943869040578313
 20
0.12527767496384
 30
0.0
 42
0.2418327667448982
  0
VERTEX
  5
195E
  8
SAPA_PROFIL
 10
64.187738081530881
 20
-0.0000000000033538
 30
0.0
  0
VERTEX
  5
195F
  8
SAPA_PROFIL
 10
66.28581043724887
 20
-0.0000000000033538
 30
0.0
 42
0.6681786379192726
  0
VERTEX
  5
1960
  8
SAPA_PROFIL
 10
66.992917218435466
 20
1.707106781183142
 30
0.0
  0
VERTEX
  5
1961
  8
SAPA_PROFIL
 10
65.687867965266491
 20
3.0121560343523011
 30
0.0
 42
0.1989123673797352
  0
VERTEX
  5
1962
  8
SAPA_PROFIL
 10
65.475735930910403
 20
3.100023999996437
 30
0.0
  0
VERTEX
  5
1963
  8
SAPA_PROFIL
 10
64.889230484163221
 20
3.1000239999962811
 30
0.0
 42
0.1316524975873824
  0
VERTEX
  5
1964
  8
SAPA_PROFIL
 10
64.739230484163301
 20
3.059831621131635
 30
0.0
  0
VERTEX
  5
1965
  8
SAPA_PROFIL
 10
63.24999999962241
 20
2.2000239999963318
 30
0.0
  0
VERTEX
  5
1966
  8
SAPA_PROFIL
 10
62.799999999622472
 20
2.2000119999966752
 30
0.0
 42
-0.4142135623731039
  0
VERTEX
  5
1967
  8
SAPA_PROFIL
 10
62.499999999622467
 20
2.5000119999966719
 30
0.0
  0
VERTEX
  5
1968
  8
SAPA_PROFIL
 10
62.499999999622517
 20
6.1000239999967363
 30
0.0
 42
-0.4142135623730826
  0
VERTEX
  5
1969
  8
SAPA_PROFIL
 10
62.799999999622507
 20
6.4000239999967334
 30
0.0
  0
VERTEX
  5
196A
  8
SAPA_PROFIL
 10
63.24999999962251
 20
6.4000239999966331
 30
0.0
  0
VERTEX
  5
196B
  8
SAPA_PROFIL
 10
64.739260130696692
 20
5.5401992624276479
 30
0.0
 42
0.1316363093594268
  0
VERTEX
  5
196C
  8
SAPA_PROFIL
 10
64.889241035743424
 20
5.5000068841706868
 30
0.0
  0
VERTEX
  5
196D
  8
SAPA_PROFIL
 10
64.999999999626283
 20
5.4999998343798771
 30
0.0
  0
VERTEX
  5
196E
  8
SAPA_PROFIL
 10
64.999999999626283
 20
7.0856406460516146
 30
0.0
 42
0.2679491924308297
  0
VERTEX
  5
196F
  8
SAPA_PROFIL
 10
64.499999999626283
 20
7.9516660498302372
 30
0.0
  0
VERTEX
  5
1970
  8
SAPA_PROFIL
 10
62.749999999625828
 20
8.9620290209087141
 30
0.0
 42
-0.2679491924308301
  0
VERTEX
  5
1971
  8
SAPA_PROFIL
 10
62.49999999962629
 20
9.3950417228006682
 30
0.0
  0
VERTEX
  5
1972
  8
SAPA_PROFIL
 10
62.49999999962629
 20
10.60495827718114
 30
0.0
 42
-0.267949192430829
  0
VERTEX
  5
1973
  8
SAPA_PROFIL
 10
62.749999999626283
 20
11.03797097907227
 30
0.0
  0
VERTEX
  5
1974
  8
SAPA_PROFIL
 10
64.499999999626283
 20
12.04833395014793
 30
0.0
 42
0.2679491924308297
  0
VERTEX
  5
1975
  8
SAPA_PROFIL
 10
64.999999999624393
 20
12.914359353933831
 30
0.0
  0
VERTEX
  5
1976
  8
SAPA_PROFIL
 10
64.999999999626525
 20
14.50000016560193
 30
0.0
  0
VERTEX
  5
1977
  8
SAPA_PROFIL
 10
64.889241035743424
 20
14.499993115811121
 30
0.0
 42
0.1316363093594264
  0
VERTEX
  5
1978
  8
SAPA_PROFIL
 10
64.739260130696692
 20
14.45980073755416
 30
0.0
  0
VERTEX
  5
1979
  8
SAPA_PROFIL
 10
63.24999999962251
 20
13.599975999985171
 30
0.0
  0
VERTEX
  5
197A
  8
SAPA_PROFIL
 10
62.799999999622507
 20
13.59997599998507
 30
0.0
 42
-0.4142135623730951
  0
VERTEX
  5
197B
  8
SAPA_PROFIL
 10
62.499999999622517
 20
13.89997599998507
 30
0.0
  0
VERTEX
  5
197C
  8
SAPA_PROFIL
 10
62.499999999622467
 20
17.499987999985141
 30
0.0
 42
-0.4142135623731165
  0
VERTEX
  5
197D
  8
SAPA_PROFIL
 10
62.799999999622472
 20
17.799987999985131
 30
0.0
  0
VERTEX
  5
197E
  8
SAPA_PROFIL
 10
63.24999999962241
 20
17.799975999985481
 30
0.0
  0
VERTEX
  5
197F
  8
SAPA_PROFIL
 10
64.739230484163301
 20
16.940168378850171
 30
0.0
 42
0.1316524975873824
  0
VERTEX
  5
1980
  8
SAPA_PROFIL
 10
64.889230484163221
 20
16.899975999985529
 30
0.0
  0
VERTEX
  5
1981
  8
SAPA_PROFIL
 10
65.475735930910403
 20
16.89997599998539
 30
0.0
 42
0.1989123673797351
  0
VERTEX
  5
1982
  8
SAPA_PROFIL
 10
65.687867965266491
 20
16.987843965629509
 30
0.0
  0
VERTEX
  5
1983
  8
SAPA_PROFIL
 10
66.992917218435466
 20
18.292893218798671
 30
0.0
 42
0.6681786379192719
  0
VERTEX
  5
1984
  8
SAPA_PROFIL
 10
66.28581043724887
 20
19.99999999998516
 30
0.0
  0
VERTEX
  5
1985
  8
SAPA_PROFIL
 10
64.187738081529176
 20
19.99999999998516
 30
0.0
 42
0.2418327667433408
  0
VERTEX
  5
1986
  8
SAPA_PROFIL
 10
63.943869040577617
 20
19.874722325019398
 30
0.0
 42
-0.2418327667449424
  0
VERTEX
  5
1987
  8
SAPA_PROFIL
 10
63.699999999623373
 20
19.749444650053189
 30
0.0
  0
VERTEX
  5
1988
  8
SAPA_PROFIL
 10
62.743869040573458
 20
19.749444650049551
 30
0.0
 42
-0.2418327667509086
  0
VERTEX
  5
1989
  8
SAPA_PROFIL
 10
62.49999999962634
 20
19.874722325031971
 30
0.0
 42
0.2418327667378184
  0
VERTEX
  5
198A
  8
SAPA_PROFIL
 10
62.256130958689049
 20
19.999999999993801
 30
0.0
  0
VERTEX
  5
198B
  8
SAPA_PROFIL
 10
60.443389324929761
 20
20.000000000003642
 30
0.0
 42
0.1095178116817878
  0
VERTEX
  5
198C
  8
SAPA_PROFIL
 10
59.598152801458781
 20
19.8126155740818
 30
0.0
  0
VERTEX
  5
198D
  8
SAPA_PROFIL
 10
53.968326436326628
 20
17.187384425924389
 30
0.0
 42
-0.1095178116855124
  0
VERTEX
  5
198E
  8
SAPA_PROFIL
 10
53.123089912820461
 20
17.0
 30
0.0
  0
VERTEX
  5
198F
  8
SAPA_PROFIL
 10
45.999999999658051
 20
16.999999999985452
 30
0.0
 42
-0.414213562373099
  0
VERTEX
  5
1990
  8
SAPA_PROFIL
 10
45.499999999658051
 20
17.500000000003642
 30
0.0
  0
VERTEX
  5
1991
  8
SAPA_PROFIL
 10
45.499999999658051
 20
18.500000000003631
 30
0.0
 42
-0.4142135623730951
  0
VERTEX
  5
1992
  8
SAPA_PROFIL
 10
45.999999999658051
 20
19.000000000003642
 30
0.0
  0
VERTEX
  5
1993
  8
SAPA_PROFIL
 10
46.291287847125233
 20
19.000000000003642
 30
0.0
 42
0.2982166266909471
  0
VERTEX
  5
1994
  8
SAPA_PROFIL
 10
46.74954541661517
 20
19.299999999990739
 30
0.0
 42
1.5275252316550949
  0
VERTEX
  5
1995
  8
SAPA_PROFIL
 10
41.250454582696158
 20
19.299999999998899
 30
0.0
 42
0.2982166266892463
  0
VERTEX
  5
1996
  8
SAPA_PROFIL
 10
41.708712152176332
 20
19.00000000001296
 30
0.0
  0
VERTEX
  5
1997
  8
SAPA_PROFIL
 10
41.999999999658058
 20
19.000000000003642
 30
0.0
 42
-0.4142135623730951
  0
VERTEX
  5
1998
  8
SAPA_PROFIL
 10
42.499999999658058
 20
18.500000000003631
 30
0.0
  0
VERTEX
  5
1999
  8
SAPA_PROFIL
 10
42.499999999658058
 20
17.500000000003642
 30
0.0
 42
-0.4142135623730946
  0
VERTEX
  5
199A
  8
SAPA_PROFIL
 10
41.999999999658058
 20
17.000000000003642
 30
0.0
  0
VERTEX
  5
199B
  8
SAPA_PROFIL
 10
23.076910086798321
 20
17.000000000003642
 30
0.0
 42
-0.1095178116834561
  0
VERTEX
  5
199C
  8
SAPA_PROFIL
 10
22.23167356331259
 20
17.18738442592506
 30
0.0
  0
SEQEND
  5
199D
  8
SAPA_PROFIL
  0
POLYLINE
  5
D7A
  8
SAPA_PROFIL
 66
     1
 10
0.0
 20
0.0
 30
0.0
 70
     1
  0
VERTEX
  5
199E
  8
SAPA_PROFIL
 10
16.500000000000021
 20
2.7999999999992862
 30
0.0
 42
0.4142135623730916
  0
VERTEX
  5
199F
  8
SAPA_PROFIL
 10
16.800000000010211
 20
2.5000000000000142
 30
0.0
  0
VERTEX
  5
19A0
  8
SAPA_PROFIL
 10
59.699999999626023
 20
2.5000000000036371
 30
0.0
 42
0.4142135623730959
  0
VERTEX
  5
19A1
  8
SAPA_PROFIL
 10
59.999999999625288
 20
2.8000000000029099
 30
0.0
  0
VERTEX
  5
19A2
  8
SAPA_PROFIL
 10
59.999999999628947
 20
14.3999999999869
 30
0.0
 42
0.4142135623730951
  0
VERTEX
  5
19A3
  8
SAPA_PROFIL
 10
59.699999999626037
 20
14.69999999998981
 30
0.0
  0
VERTEX
  5
19A4
  8
SAPA_PROFIL
 10
16.800000000010211
 20
14.70000000001165
 30
0.0
 42
0.4142135623730946
  0
VERTEX
  5
19A5
  8
SAPA_PROFIL
 10
16.500000000000021
 20
14.400000000019659
 30
0.0
  0
SEQEND
  5
19A6
  8
SAPA_PROFIL
  0
POLYLINE
  5
D7B
  8
SAPA_PROFIL
 62
     4
 66
     1
 10
0.0
 20
0.0
 30
-0.2
 70
     1
1001
RC_PROFILE
1002
{
1000
Region
1002
}
  0
VERTEX
  5
19A7
  8
SAPA_PROFIL
 62
     4
 10
73.999999931237681
 20
43.297179717640567
 30
-0.2
  0
VERTEX
  5
19A8
  8
SAPA_PROFIL
 62
     4
 10
73.999999931237681
 20
57.497179717642659
 30
-0.2
 42
-0.4142135623720297
  0
VERTEX
  5
19A9
  8
SAPA_PROFIL
 62
     4
 10
74.499999931235863
 20
57.997179717642659
 30
-0.2
  0
VERTEX
  5
19AA
  8
SAPA_PROFIL
 62
     4
 10
78.499999931857033
 20
57.997179717645622
 30
-0.2
 42
-0.4142135623730951
  0
VERTEX
  5
19AB
  8
SAPA_PROFIL
 62
     4
 10
78.999999931857047
 20
57.497179717645622
 30
-0.2
  0
VERTEX
  5
19AC
  8
SAPA_PROFIL
 62
     4
 10
78.999999931864323
 20
43.297179717641697
 30
-0.2
 42
-0.414213562373761
  0
VERTEX
  5
19AD
  8
SAPA_PROFIL
 62
     4
 10
78.499999931864323
 20
42.797179717640567
 30
-0.2
  0
VERTEX
  5
19AE
  8
SAPA_PROFIL
 62
     4
 10
74.499999931237681
 20
42.797179717640567
 30
-0.2
 42
-0.4142135623730951
  0
SEQEND
  5
19AF
  8
SAPA_PROFIL
 62
     4
  0
POLYLINE
  5
D7C
  8
SAPA_PROFIL
 62
     4
 66
     1
 10
0.0
 20
0.0
 30
0.0
1001
GENIUS_GENOBJ-N-FIL_13
1002
{
1000
OWNER
1000
GEN
1002
}
1001
GENIUS_GENODEF_13
1002
{
1000
HIER
1070
     0
1002
}
1002
{
1000
MANEDIT
1070
     0
1002
}
1002
{
1000
NOSEL
1070
     0
1002
}
1002
{
1000
BEHIND
1070
     0
1002
}
1002
{
1000
OTHER
1070
     0
1002
}
1002
{
1000
REACTOR
1002
}
  0
VERTEX
  5
19B0
  8
SAPA_PROFIL
 62
     4
 10
87.42274000125613
 20
16.533706161231521
 30
0.0
 42
0.131652497587489
  0
VERTEX
  5
19B1
  8
SAPA_PROFIL
 62
     4
 10
88.022740001256565
 20
16.69447567669026
 30
0.0
  0
VERTEX
  5
19B2
  8
SAPA_PROFIL
 62
     4
 10
89.763397941900095
 20
17.69944500728813
 30
0.0
  0
VERTEX
  5
19B3
  8
SAPA_PROFIL
 62
     4
 10
90.199999863478567
 20
17.699456650023489
 30
0.0
 42
-0.4142135623731046
  0
VERTEX
  5
19B4
  8
SAPA_PROFIL
 62
     4
 10
90.449999863478567
 20
17.449456650023489
 30
0.0
  0
VERTEX
  5
19B5
  8
SAPA_PROFIL
 62
     4
 10
90.449999863478524
 20
13.849444650023431
 30
0.0
 42
-0.4142135623730957
  0
VERTEX
  5
19B6
  8
SAPA_PROFIL
 62
     4
 10
90.199999863478524
 20
13.599444650023431
 30
0.0
  0
VERTEX
  5
19B7
  8
SAPA_PROFIL
 62
     4
 10
89.763397323100065
 20
13.59944465002353
 30
0.0
  0
VERTEX
  5
19B8
  8
SAPA_PROFIL
 62
     4
 10
88.077259725699193
 20
14.57293664577359
 30
0.0
 42
0.1316524975873848
  0
VERTEX
  5
19B9
  8
SAPA_PROFIL
 62
     4
 10
87.477259725699241
 20
14.73370616123225
 30
0.0
  0
VERTEX
  5
19BA
  8
SAPA_PROFIL
 62
     4
 10
65.522740137408221
 20
14.73370616123225
 30
0.0
 42
0.1316524975873846
  0
VERTEX
  5
19BB
  8
SAPA_PROFIL
 62
     4
 10
64.922740137408269
 20
14.57293664577359
 30
0.0
  0
VERTEX
  5
19BC
  8
SAPA_PROFIL
 62
     4
 10
63.236602540007389
 20
13.59944465002353
 30
0.0
  0
VERTEX
  5
19BD
  8
SAPA_PROFIL
 62
     4
 10
62.79999999962893
 20
13.599444650023431
 30
0.0
 42
-0.4142135623730951
  0
VERTEX
  5
19BE
  8
SAPA_PROFIL
 62
     4
 10
62.549999999628952
 20
13.849444650023431
 30
0.0
  0
VERTEX
  5
19BF
  8
SAPA_PROFIL
 62
     4
 10
62.549999999628902
 20
17.449456650023489
 30
0.0
 42
-0.4142135623731046
  0
VERTEX
  5
19C0
  8
SAPA_PROFIL
 62
     4
 10
62.799999999628909
 20
17.699456650023489
 30
0.0
  0
VERTEX
  5
19C1
  8
SAPA_PROFIL
 62
     4
 10
63.236601921207367
 20
17.69944500728813
 30
0.0
  0
VERTEX
  5
19C2
  8
SAPA_PROFIL
 62
     4
 10
64.977259861850911
 20
16.69447567669026
 30
0.0
 42
0.1316524975874892
  0
VERTEX
  5
19C3
  8
SAPA_PROFIL
 62
     4
 10
65.577259861851331
 20
16.533706161231521
 30
0.0
  0
VERTEX
  5
19C4
  8
SAPA_PROFIL
 62
     4
 10
68.299999999379935
 20
16.5337061612322
 30
0.0
 42
0.414213562374094
  0
VERTEX
  5
19C5
  8
SAPA_PROFIL
 62
     4
 10
69.499999999378844
 20
17.733706161236341
 30
0.0
  0
VERTEX
  5
19C6
  8
SAPA_PROFIL
 62
     4
 10
69.499999999289713
 20
43.531441188158169
 30
0.0
 42
-0.4142135623730951
  0
VERTEX
  5
19C7
  8
SAPA_PROFIL
 62
     4
 10
69.999999999289713
 20
44.031441188158162
 30
0.0
  0
VERTEX
  5
19C8
  8
SAPA_PROFIL
 62
     4
 10
70.199999999289531
 20
44.031441188158396
 30
0.0
 42
-0.4142135623730951
  0
VERTEX
  5
19C9
  8
SAPA_PROFIL
 62
     4
 10
70.499999999289713
 20
43.731441188158207
 30
0.0
  0
VERTEX
  5
19CA
  8
SAPA_PROFIL
 62
     4
 10
70.499999999289713
 20
43.081441188156298
 30
0.0
 42
0.4142135623730951
  0
VERTEX
  5
19CB
  8
SAPA_PROFIL
 62
     4
 10
70.799999999290804
 20
42.781441188156343
 30
0.0
  0
VERTEX
  5
19CC
  8
SAPA_PROFIL
 62
     4
 10
71.699999999286803
 20
42.78144118815726
 30
0.0
 42
0.4142135623730951
  0
VERTEX
  5
19CD
  8
SAPA_PROFIL
 62
     4
 10
72.199999999286803
 20
43.28144118815635
 30
0.0
  0
VERTEX
  5
19CE
  8
SAPA_PROFIL
 62
     4
 10
72.199999999286803
 20
49.281441188158169
 30
0.0
 42
0.4142135623730951
  0
VERTEX
  5
19CF
  8
SAPA_PROFIL
 62
     4
 10
71.699999999286803
 20
49.781441188158169
 30
0.0
  0
VERTEX
  5
19D0
  8
SAPA_PROFIL
 62
     4
 10
70.799999999288076
 20
49.781441188158169
 30
0.0
 42
0.4142135623710974
  0
VERTEX
  5
19D1
  8
SAPA_PROFIL
 62
     4
 10
70.499999999288804
 20
49.481441188160261
 30
0.0
  0
VERTEX
  5
19D2
  8
SAPA_PROFIL
 62
     4
 10
70.499999999284256
 20
48.831441188158351
 30
0.0
 42
-0.4142135623730951
  0
VERTEX
  5
19D3
  8
SAPA_PROFIL
 62
     4
 10
70.199999999282255
 20
48.531441188160223
 30
0.0
  0
VERTEX
  5
19D4
  8
SAPA_PROFIL
 62
     4
 10
69.999999999289713
 20
48.531441188161352
 30
0.0
 42
-0.4142135623730951
  0
VERTEX
  5
19D5
  8
SAPA_PROFIL
 62
     4
 10
69.499999999289713
 20
49.031441188161352
 30
0.0
  0
VERTEX
  5
19D6
  8
SAPA_PROFIL
 62
     4
 10
69.499999999289713
 20
52.031441188161352
 30
0.0
 42
-0.4142135623730951
  0
VERTEX
  5
19D7
  8
SAPA_PROFIL
 62
     4
 10
69.999999999289713
 20
52.531441188161352
 30
0.0
  0
VERTEX
  5
19D8
  8
SAPA_PROFIL
 62
     4
 10
70.199999999289531
 20
52.531441188161352
 30
0.0
 42
-0.4142135623730951
  0
VERTEX
  5
19D9
  8
SAPA_PROFIL
 62
     4
 10
70.499999999289713
 20
52.23144118816117
 30
0.0
  0
VERTEX
  5
19DA
  8
SAPA_PROFIL
 62
     4
 10
70.499999999289713
 20
51.581441188161307
 30
0.0
 42
0.4142135623730951
  0
VERTEX
  5
19DB
  8
SAPA_PROFIL
 62
     4
 10
70.799999999290804
 20
51.281441188161352
 30
0.0
  0
VERTEX
  5
19DC
  8
SAPA_PROFIL
 62
     4
 10
71.699999999286803
 20
51.281441188161352
 30
0.0
 42
0.4142135623730951
  0
VERTEX
  5
19DD
  8
SAPA_PROFIL
 62
     4
 10
72.199999999286803
 20
51.781441188161352
 30
0.0
  0
VERTEX
  5
19DE
  8
SAPA_PROFIL
 62
     4
 10
72.199999999286803
 20
57.781441188161352
 30
0.0
 42
0.4142135623730951
  0
VERTEX
  5
19DF
  8
SAPA_PROFIL
 62
     4
 10
71.699999999286803
 20
58.281441188161352
 30
0.0
  0
VERTEX
  5
19E0
  8
SAPA_PROFIL
 62
     4
 10
70.799999999290804
 20
58.281441188161352
 30
0.0
 42
0.4142135623730951
  0
VERTEX
  5
19E1
  8
SAPA_PROFIL
 62
     4
 10
70.499999999289713
 20
57.98144118816117
 30
0.0
  0
VERTEX
  5
19E2
  8
SAPA_PROFIL
 62
     4
 10
70.499999999289713
 20
57.331441188161307
 30
0.0
 42
-0.4142135623730949
  0
VERTEX
  5
19E3
  8
SAPA_PROFIL
 62
     4
 10
70.199999999289531
 20
57.031441188161352
 30
0.0
  0
VERTEX
  5
19E4
  8
SAPA_PROFIL
 62
     4
 10
69.999999999289713
 20
57.031441188161352
 30
0.0
 42
-0.4142135623730951
  0
VERTEX
  5
19E5
  8
SAPA_PROFIL
 62
     4
 10
69.499999999289713
 20
57.531441188161352
 30
0.0
  0
VERTEX
  5
19E6
  8
SAPA_PROFIL
 62
     4
 10
69.499999999290623
 20
59.281441188161352
 30
0.0
 42
-0.4142135623726955
  0
VERTEX
  5
19E7
  8
SAPA_PROFIL
 62
     4
 10
69.999999999624393
 20
59.781441188161352
 30
0.0
  0
VERTEX
  5
19E8
  8
SAPA_PROFIL
 62
     4
 10
82.999999999631669
 20
59.78144118816158
 30
0.0
 42
-0.4142135623732284
  0
VERTEX
  5
19E9
  8
SAPA_PROFIL
 62
     4
 10
83.499999999908169
 20
59.281441188163171
 30
0.0
  0
VERTEX
  5
19EA
  8
SAPA_PROFIL
 62
     4
 10
83.499999999908169
 20
57.531441188163171
 30
0.0
 42
-0.4142135623730951
  0
VERTEX
  5
19EB
  8
SAPA_PROFIL
 62
     4
 10
82.999999999908155
 20
57.031441188163171
 30
0.0
  0
VERTEX
  5
19EC
  8
SAPA_PROFIL
 62
     4
 10
82.799999999908351
 20
57.031441188163171
 30
0.0
 42
-0.4142135623730951
  0
VERTEX
  5
19ED
  8
SAPA_PROFIL
 62
     4
 10
82.499999999908184
 20
57.331441188163353
 30
0.0
  0
VERTEX
  5
19EE
  8
SAPA_PROFIL
 62
     4
 10
82.499999999908184
 20
57.98144118816321
 30
0.0
 42
0.4142135623730951
  0
VERTEX
  5
19EF
  8
SAPA_PROFIL
 62
     4
 10
82.199999999908897
 20
58.281441188163171
 30
0.0
  0
VERTEX
  5
19F0
  8
SAPA_PROFIL
 62
     4
 10
81.29999999991108
 20
58.281441188163171
 30
0.0
 42
0.4142135623730951
  0
VERTEX
  5
19F1
  8
SAPA_PROFIL
 62
     4
 10
80.799999999911066
 20
57.781441188163171
 30
0.0
  0
VERTEX
  5
19F2
  8
SAPA_PROFIL
 62
     4
 10
80.799999999911066
 20
51.781441188163171
 30
0.0
 42
0.4142135623730951
  0
VERTEX
  5
19F3
  8
SAPA_PROFIL
 62
     4
 10
81.29999999991108
 20
51.281441188163171
 30
0.0
  0
VERTEX
  5
19F4
  8
SAPA_PROFIL
 62
     4
 10
82.199999999908897
 20
51.281441188163171
 30
0.0
 42
0.4142135623730953
  0
VERTEX
  5
19F5
  8
SAPA_PROFIL
 62
     4
 10
82.499999999908184
 20
51.581441188163353
 30
0.0
  0
VERTEX
  5
19F6
  8
SAPA_PROFIL
 62
     4
 10
82.499999999908184
 20
52.23144118816321
 30
0.0
 42
-0.4142135623730951
  0
VERTEX
  5
19F7
  8
SAPA_PROFIL
 62
     4
 10
82.799999999908351
 20
52.531441188163171
 30
0.0
  0
VERTEX
  5
19F8
  8
SAPA_PROFIL
 62
     4
 10
82.999999999908155
 20
52.531441188163171
 30
0.0
 42
-0.4142135623730951
  0
VERTEX
  5
19F9
  8
SAPA_PROFIL
 62
     4
 10
83.499999999908169
 20
52.031441188163171
 30
0.0
  0
VERTEX
  5
19FA
  8
SAPA_PROFIL
 62
     4
 10
83.499999999908169
 20
49.031441188163171
 30
0.0
 42
-0.4142135623730951
  0
VERTEX
  5
19FB
  8
SAPA_PROFIL
 62
     4
 10
82.999999999908155
 20
48.531441188163171
 30
0.0
  0
VERTEX
  5
19FC
  8
SAPA_PROFIL
 62
     4
 10
82.799999999915627
 20
48.531441188162027
 30
0.0
 42
-0.414213562372873
  0
VERTEX
  5
19FD
  8
SAPA_PROFIL
 62
     4
 10
82.499999999913626
 20
48.83144118816017
 30
0.0
  0
VERTEX
  5
19FE
  8
SAPA_PROFIL
 62
     4
 10
82.499999999910884
 20
49.48144118816117
 30
0.0
 42
0.4142135623722071
  0
VERTEX
  5
19FF
  8
SAPA_PROFIL
 62
     4
 10
82.199999999909807
 20
49.781441188160223
 30
0.0
  0
VERTEX
  5
1A00
  8
SAPA_PROFIL
 62
     4
 10
81.29999999991108
 20
49.781441188160223
 30
0.0
 42
0.4142135623730951
  0
VERTEX
  5
1A01
  8
SAPA_PROFIL
 62
     4
 10
80.799999999911066
 20
49.281441188160208
 30
0.0
  0
VERTEX
  5
1A02
  8
SAPA_PROFIL
 62
     4
 10
80.799999999918356
 20
43.281441188158162
 30
0.0
 42
0.4142135623730951
  0
VERTEX
  5
1A03
  8
SAPA_PROFIL
 62
     4
 10
81.299999999918356
 20
42.781441188158162
 30
0.0
  0
VERTEX
  5
1A04
  8
SAPA_PROFIL
 62
     4
 10
82.199999999915264
 20
42.781441188158162
 30
0.0
 42
0.4142135623730951
  0
VERTEX
  5
1A05
  8
SAPA_PROFIL
 62
     4
 10
82.499999999915445
 20
43.081441188158337
 30
0.0
  0
VERTEX
  5
1A06
  8
SAPA_PROFIL
 62
     4
 10
82.499999999915445
 20
43.731441188160261
 30
0.0
 42
-0.4142135623730951
  0
VERTEX
  5
1A07
  8
SAPA_PROFIL
 62
     4
 10
82.799999999915627
 20
44.031441188160223
 30
0.0
  0
VERTEX
  5
1A08
  8
SAPA_PROFIL
 62
     4
 10
82.999999999915445
 20
44.031441188160223
 30
0.0
 42
-0.4142135623730951
  0
VERTEX
  5
1A09
  8
SAPA_PROFIL
 62
     4
 10
83.499999999915445
 20
43.531441188160208
 30
0.0
  0
VERTEX
  5
1A0A
  8
SAPA_PROFIL
 62
     4
 10
83.499999999833577
 20
17.733706161236341
 30
0.0
 42
0.414213562374094
  0
VERTEX
  5
1A0B
  8
SAPA_PROFIL
 62
     4
 10
84.699999999833409
 20
16.533706161232431
 30
0.0
  0
VERTEX
  5
1A0C
  8
SAPA_PROFIL
 62
     4
 10
87.428481349913483
 20
16.5337061612322
 30
0.0
  0
SEQEND
  5
1A0D
  8
SAPA_PROFIL
 62
     4
  0
POLYLINE
  5
D7D
  8
SAPA_PROFIL
 62
     4
 66
     1
 10
0.0
 20
0.0
 30
0.0
 70
     1
  0
VERTEX
  5
1A0E
  8
SAPA_PROFIL
 62
     4
 10
79.799999931868143
 20
41.497179717642673
 30
0.0
  0
VERTEX
  5
1A0F
  8
SAPA_PROFIL
 62
     4
 10
72.299999931309713
 20
41.497179717638573
 30
0.0
 42
0.4142135623730951
  0
VERTEX
  5
1A10
  8
SAPA_PROFIL
 62
     4
 10
71.299999931309713
 20
40.497179717638573
 30
0.0
  0
VERTEX
  5
1A11
  8
SAPA_PROFIL
 62
     4
 10
71.299999931294252
 20
17.34944469071479
 30
0.0
 42
0.4142135623730949
  0
VERTEX
  5
1A12
  8
SAPA_PROFIL
 62
     4
 10
72.099999931294434
 20
16.549444690714608
 30
0.0
  0
VERTEX
  5
1A13
  8
SAPA_PROFIL
 62
     4
 10
80.899999931813028
 20
16.549444690714608
 30
0.0
 42
0.414213562373428
  0
VERTEX
  5
1A14
  8
SAPA_PROFIL
 62
     4
 10
81.699999931813196
 20
17.3494446907157
 30
0.0
  0
VERTEX
  5
1A15
  8
SAPA_PROFIL
 62
     4
 10
81.699999931789563
 20
40.497179717642659
 30
0.0
 42
0.4142135623724957
  0
VERTEX
  5
1A16
  8
SAPA_PROFIL
 62
     4
 10
80.699999931790472
 20
41.497179717640613
 30
0.0
  0
SEQEND
  5
1A17
  8
SAPA_PROFIL
 62
     4
  0
LINE
  5
DCD
  8
SAPA_GLAS
 10
90.800000000151798
 20
65.000000000011028
 30
0.0
 11
90.711346680440187
 21
64.497222039660301
 31
0.0
  0
LINE
  5
DCE
  8
SAPA_GLAS
 10
94.809538930785337
 20
63.013030214905903
 30
0.0
 11
94.999999999663245
 21
63.013030214905903
 31
0.0
  0
ARC
  5
DCF
  8
SAPA_GLAS
 10
92.999999999661455
 20
79.584669372822276
 30
0.0
 40
9.9869792597787779
 50
258.44779235426699
 51
281.55220764573301
  0
LINE
  5
DD0
  8
SAPA_GLAS
 10
127.19999999917501
 20
65.000000000011028
 30
0.0
 11
127.2886533188866
 21
64.497222039660286
 31
0.0
  0
LINE
  5
DD1
  8
SAPA_GLAS
 10
123.1904610685415
 20
63.013030214905889
 30
0.0
 11
122.9999999996636
 21
63.013030214905889
 31
0.0
  0
ARC
  5
DD2
  8
SAPA_GLAS
 10
124.99999999966541
 20
79.584669372822262
 30
0.0
 40
9.9869792597787779
 50
258.44779235426699
 51
281.55220764573301
  0
POLYLINE
  5
DD3
  8
SAPA_GLAS
 66
     1
 10
0.0
 20
0.0
 30
0.0
 70
     1
  0
VERTEX
  5
1A9A
  8
SAPA_GLAS
 10
123.12278837062929
 20
62.23952773350004
 30
0.0
 42
-0.1316524975872964
  0
VERTEX
  5
1A9B
  8
SAPA_GLAS
 10
123.1904610689714
 20
63.013030214989008
 30
0.0
  0
VERTEX
  5
1A9C
  8
SAPA_GLAS
 10
123.74264885543251
 20
64.530153689609605
 30
0.0
 42
-0.4142135623734131
  0
VERTEX
  5
1A9D
  8
SAPA_GLAS
 10
124.3835052374875
 20
64.828989928339894
 30
0.0
  0
VERTEX
  5
1A9E
  8
SAPA_GLAS
 10
124.57144376164671
 20
64.760585899674084
 30
0.0
 42
-0.4142135623732762
  0
VERTEX
  5
1A9F
  8
SAPA_GLAS
 10
124.7507455048884
 20
64.376072070439463
 30
0.0
  0
VERTEX
  5
1AA0
  8
SAPA_GLAS
 10
124.7422964973799
 20
64.352858613121612
 30
0.0
 42
0.5773502691875974
  0
VERTEX
  5
1AA1
  8
SAPA_GLAS
 10
124.9649646570748
 20
64.08749303385386
 30
0.0
  0
VERTEX
  5
1AA2
  8
SAPA_GLAS
 10
129.2809094965765
 20
64.848510556303253
 30
0.0
 42
-0.4142135623736183
  0
VERTEX
  5
1AA3
  8
SAPA_GLAS
 10
129.62844627577121
 20
64.605162683699703
 30
0.0
  0
VERTEX
  5
1AA4
  8
SAPA_GLAS
 10
129.6979055468388
 20
64.211239582497114
 30
0.0
 42
-0.4142135623730951
  0
VERTEX
  5
1AA5
  8
SAPA_GLAS
 10
129.4545576742394
 20
63.863702803293499
 30
0.0
  0
VERTEX
  5
1AA6
  8
SAPA_GLAS
 10
124.5131759113125
 20
62.992403876507638
 30
0.0
 42
0.4142135623725704
  0
VERTEX
  5
1AA7
  8
SAPA_GLAS
 10
124.1075961236439
 20
62.4131759111688
 30
0.0
  0
VERTEX
  5
1AA8
  8
SAPA_GLAS
 10
125.3112661297333
 20
55.586824088834078
 30
0.0
 42
-0.4663076581553405
  0
VERTEX
  5
1AA9
  8
SAPA_GLAS
 10
124.818862253224
 20
55.000000000000107
 30
0.0
  0
VERTEX
  5
1AAA
  8
SAPA_GLAS
 10
93.181137747064554
 20
55.000000000000107
 30
0.0
 42
-0.4663076581553401
  0
VERTEX
  5
1AAB
  8
SAPA_GLAS
 10
92.688733870558565
 20
55.586824088834128
 30
0.0
  0
VERTEX
  5
1AAC
  8
SAPA_GLAS
 10
93.892403876644636
 20
62.4131759111688
 30
0.0
 42
0.4142135623725707
  0
VERTEX
  5
1AAD
  8
SAPA_GLAS
 10
93.48682408897605
 20
62.992403876507638
 30
0.0
  0
VERTEX
  5
1AAE
  8
SAPA_GLAS
 10
88.545442326049113
 20
63.863702803293499
 30
0.0
 42
-0.4142135623730951
  0
VERTEX
  5
1AAF
  8
SAPA_GLAS
 10
88.302094453449754
 20
64.211239582497114
 30
0.0
  0
VERTEX
  5
1AB0
  8
SAPA_GLAS
 10
88.371553724517369
 20
64.605162683699703
 30
0.0
 42
-0.4142135623736183
  0
VERTEX
  5
1AB1
  8
SAPA_GLAS
 10
88.719090503711996
 20
64.848510556303253
 30
0.0
  0
VERTEX
  5
1AB2
  8
SAPA_GLAS
 10
93.035035343213735
 20
64.08749303385386
 30
0.0
 42
0.5773502691875974
  0
VERTEX
  5
1AB3
  8
SAPA_GLAS
 10
93.257703502908612
 20
64.352858613121612
 30
0.0
  0
VERTEX
  5
1AB4
  8
SAPA_GLAS
 10
93.249254495400095
 20
64.376072070439463
 30
0.0
 42
-0.4142135623732762
  0
VERTEX
  5
1AB5
  8
SAPA_GLAS
 10
93.428556238641804
 20
64.760585899674084
 30
0.0
  0
VERTEX
  5
1AB6
  8
SAPA_GLAS
 10
93.616494762801011
 20
64.828989928339894
 30
0.0
 42
-0.4142135623734131
  0
VERTEX
  5
1AB7
  8
SAPA_GLAS
 10
94.257351144855988
 20
64.530153689609605
 30
0.0
  0
VERTEX
  5
1AB8
  8
SAPA_GLAS
 10
94.809538931317164
 20
63.013030214989008
 30
0.0
 42
-0.1316524975872963
  0
VERTEX
  5
1AB9
  8
SAPA_GLAS
 10
94.8772116296592
 20
62.23952773350004
 30
0.0
  0
VERTEX
  5
1ABA
  8
SAPA_GLAS
 10
93.818403711293684
 20
56.234729635534087
 30
0.0
 42
0.4663076581547951
  0
VERTEX
  5
1ABB
  8
SAPA_GLAS
 10
94.015365261896136
 20
56.000000000000838
 30
0.0
  0
VERTEX
  5
1ABC
  8
SAPA_GLAS
 10
123.9846347383924
 20
56.000000000000838
 30
0.0
 42
0.466307658154795
  0
VERTEX
  5
1ABD
  8
SAPA_GLAS
 10
124.1815962889948
 20
56.234729635534087
 30
0.0
  0
SEQEND
  5
1ABE
  8
SAPA_GLAS
  0
POLYLINE
  5
DD4
  8
SAPA_GLAS
 66
     1
 10
0.0
 20
0.0
 30
0.0
  0
VERTEX
  5
1ABF
  8
SAPA_GLAS
 10
123.0000000001444
 20
89.000000000000114
 30
0.0
  0
VERTEX
  5
1AC0
  8
SAPA_GLAS
 10
123.0000000001444
 20
57.000000000000092
 30
0.0
  0
VERTEX
  5
1AC1
  8
SAPA_GLAS
 10
119.0000000001444
 20
57.000000000000092
 30
0.0
  0
VERTEX
  5
1AC2
  8
SAPA_GLAS
 10
119.0000000001444
 20
89.000000000000114
 30
0.0
  0
SEQEND
  5
1AC3
  8
SAPA_GLAS
  0
POLYLINE
  5
DD5
  8
SAPA_GLAS
 66
     1
 10
0.0
 20
0.0
 30
0.0
  0
VERTEX
  5
1AC4
  8
SAPA_GLAS
 10
99.000000000144269
 20
67.000000000000085
 30
0.0
  0
VERTEX
  5
1AC5
  8
SAPA_GLAS
 10
119.0000000001443
 20
67.000000000000085
 30
0.0
  0
VERTEX
  5
1AC6
  8
SAPA_GLAS
 10
119.0000000001443
 20
57.000000000000092
 30
0.0
  0
VERTEX
  5
1AC7
  8
SAPA_GLAS
 10
99.000000000144269
 20
57.000000000000092
 30
0.0
  0
VERTEX
  5
1AC8
  8
SAPA_GLAS
 10
99.000000000144269
 20
67.000000000000085
 30
0.0
  0
SEQEND
  5
1AC9
  8
SAPA_GLAS
  0
POLYLINE
  5
DD6
  8
SAPA_GLAS
 66
     1
 10
0.0
 20
0.0
 30
0.0
  0
VERTEX
  5
1ACA
  8
SAPA_GLAS
 10
95.000000000144269
 20
89.000000000000114
 30
0.0
  0
VERTEX
  5
1ACB
  8
SAPA_GLAS
 10
95.000000000144269
 20
57.000000000000092
 30
0.0
  0
VERTEX
  5
1ACC
  8
SAPA_GLAS
 10
99.000000000144269
 20
57.000000000000092
 30
0.0
  0
VERTEX
  5
1ACD
  8
SAPA_GLAS
 10
99.000000000144269
 20
89.000000000000114
 30
0.0
  0
SEQEND
  5
1ACE
  8
SAPA_GLAS
  0
INSERT
  5
DD7
  8
SAPA_GLAS
  6
CONTINUOUS
  2
*X78
 10
0.0
 20
0.0
 30
0.0
1001
ACAD
1000
HATCH
1002
{
1070
    19
1000
ANSI37
1040
0.25
1040
0.0
1000
R14_HATCH_DATA
1000
DD7
1011
1.0
1021
0.0
1031
0.0
1021
0.0
1031
0.0
1011
0.0
1021
0.0
1031
0.0
1021
1.0
1031
0.0
1011
0.0
1021
0.0
1031
0.0
1021
0.0
1031
1.0
1040
0.0
1010
0.0
1020
0.0
1030
1.0
1000
ANSI37
1070
     0
1070
     0
1071
        1
1071
        7
1070
     1
1070
     1
1071
       21
1040
123.0000000001444
1040
63.013030214905903
1040
0.0
1040
123.1904610689411
1040
63.013030214905889
1040
0.0
1040
123.74264885543251
1040
64.530153689609605
1040
-0.4142135623734131
1040
124.3835052374875
1040
64.828989928339894
1040
0.0
1040
124.57144376164671
1040
64.760585899674084
1040
-0.4142135623732763
1040
124.7507455048884
1040
64.376072070439463
1040
0.0
1040
124.7422964973799
1040
64.352858613121612
1040
0.5773502691875974
1040
124.9649646570748
1040
64.08749303385386
1040
0.0
1040
127.28865331888061
1040
64.497222039694307
1040
0.0
1040
127.19999999917501
1040
65.000000000011042
1040
-0.4142135618490765
1040
126.9999999995339
1040
65.200000000009965
1040
0.0
1040
126.99999999954299
1040
66.300000000010314
1040
-0.4142135623730326
1040
127.19999999953281
1040
66.500000000000099
1040
0.0
1040
127.99999999954299
1040
66.500000000011042
1040
0.4142135623730991
1040
128.49999999954301
1040
67.000000000011042
1040
0.0
1040
128.50000000002319
1040
68.000000000020165
1040
0.4142135623730991
1040
128.00000000002319
1040
68.500000000020165
1040
0.0
1040
127.20000000001301
1040
68.500000000011042
1040
-0.414213562373116
1040
127.0000000000141
1040
68.70000000000995
1040
0.0
1040
127.00000000002321
1040
69.800000000083088
1040
-0.1011549434801005
1040
123.0000000001444
1040
69.799999999912018
1040
0.0
1071
        0
1070
     0
1070
     1
1040
0.0
1040
0.25
1070
     0
1070
     2
1040
0.7853981633974483
1040
85.500000000000114
1040
41.999999998749601
1040
-0.5612660075668221
1040
0.5612660075668221
1070
     0
1040
2.3561944901923439
1040
85.500000000000114
1040
41.999999998749601
1040
-0.5612660075668221
1040
-0.5612660075668221
1070
     0
1040
0.0366580744024772
1071
        1
1040
124.74894753189309
1040
67.619373451306743
1040
0.0
1002
}
  0
INSERT
  5
DD8
  8
SAPA_GLAS
  6
CONTINUOUS
  2
*X79
 10
0.0
 20
0.0
 30
0.0
1001
ACAD
1000
HATCH
1002
{
1070
    19
1000
ANSI37
1040
0.25
1040
0.0
1000
R14_HATCH_DATA
1000
DD8
1011
1.0
1021
0.0
1031
0.0
1021
0.0
1031
0.0
1011
0.0
1021
0.0
1031
0.0
1021
1.0
1031
0.0
1011
0.0
1021
0.0
1031
0.0
1021
0.0
1031
1.0
1040
0.0
1010
0.0
1020
0.0
1030
1.0
1000
ANSI37
1070
     0
1070
     0
1071
        1
1071
        7
1070
     1
1070
     1
1071
       21
1040
90.799999999669694
1040
68.500000000011042
1040
0.0
1040
89.999999999659565
1040
68.500000000020165
1040
0.4142135623730991
1040
89.499999999659551
1040
68.000000000020165
1040
0.0
1040
89.500000000139735
1040
67.000000000011042
1040
0.4142135623730991
1040
90.000000000139764
1040
66.500000000011042
1040
0.0
1040
90.800000000149922
1040
66.500000000000099
1040
-0.4142135623730326
1040
91.000000000139735
1040
66.300000000010314
1040
0.0
1040
91.000000000148816
1040
65.200000000009965
1040
-0.4142135623703427
1040
90.800000000151798
1040
65.000000000011028
1040
0.0
1040
90.711346680475174
1040
64.497222039858769
1040
0.0
1040
93.035035343213735
1040
64.08749303385386
1040
0.5773502691875974
1040
93.257703502908612
1040
64.352858613121612
1040
0.0
1040
93.249254495400095
1040
64.376072070439463
1040
-0.4142135623732763
1040
93.428556238641804
1040
64.760585899674084
1040
0.0
1040
93.616494762801011
1040
64.828989928339894
1040
-0.4142135623734131
1040
94.257351144855988
1040
64.530153689609605
1040
0.0
1040
94.809538931347419
1040
63.013030214905903
1040
0.0
1040
95.000000000144269
1040
63.013030214905903
1040
0.0
1040
95.000000000144269
1040
69.800000000108639
1040
-0.1011549434957405
1040
90.999999999659522
1040
69.800000000010343
1040
0.0
1040
90.999999999668646
1040
68.70000000000995
1040
-0.414213562373116
1071
        0
1070
     0
1070
     1
1040
0.0
1040
0.25
1070
     0
1070
     2
1040
0.7853981633974483
1040
85.500000000000114
1040
41.999999998749601
1040
-0.5612660075668221
1040
0.5612660075668221
1070
     0
1040
2.3561944901923439
1040
85.500000000000114
1040
41.999999998749601
1040
-0.5612660075668221
1040
-0.5612660075668221
1070
     0
1040
0.0366580744024772
1071
        1
1040
92.357500560328447
1040
67.509399136627394
1040
0.0
1002
}
  0
POLYLINE
  5
DFD
  8
SAPA_FOGBAND
 66
     1
 10
0.0
 20
0.0
 30
0.0
 70
     1
  0
VERTEX
  5
1BA0
  8
SAPA_FOGBAND
 10
16.250000000010221
 20
49.649999999982533
 30
0.0
  0
VERTEX
  5
1BA1
  8
SAPA_FOGBAND
 10
17.0500000000104
 20
49.649999999982533
 30
0.0
  0
VERTEX
  5
1BA2
  8
SAPA_FOGBAND
 10
17.0500000000104
 20
43.34999999998545
 30
0.0
  0
VERTEX
  5
1BA3
  8
SAPA_FOGBAND
 10
16.250000000010221
 20
43.34999999998545
 30
0.0
  0
SEQEND
  5
1BA4
  8
SAPA_FOGBAND
  0
POLYLINE
  5
DFE
  8
SAPA_FOGBAND
 66
     1
 10
0.0
 20
0.0
 30
0.0
  0
VERTEX
  5
1BA5
  8
SAPA_FOGBAND
 10
17.0500000000104
 20
44.927310396842941
 30
0.0
  0
VERTEX
  5
1BA6
  8
SAPA_FOGBAND
 10
20.500000000010221
 20
43.801863799527027
 30
0.0
  0
VERTEX
  5
1BA7
  8
SAPA_FOGBAND
 10
20.500000000010221
 20
46.240001846075558
 30
0.0
  0
VERTEX
  5
1BA8
  8
SAPA_FOGBAND
 10
17.0500000000104
 20
46.349999999982529
 30
0.0
  0
SEQEND
  5
1BA9
  8
SAPA_FOGBAND
  0
POLYLINE
  5
DFF
  8
SAPA_FOGBAND
 66
     1
 10
0.0
 20
0.0
 30
0.0
  0
VERTEX
  5
1BAA
  8
SAPA_FOGBAND
 10
17.0500000000104
 20
46.424999999983257
 30
0.0
  0
VERTEX
  5
1BAB
  8
SAPA_FOGBAND
 10
20.500000000010221
 20
46.424999999986539
 30
0.0
  0
VERTEX
  5
1BAC
  8
SAPA_FOGBAND
 10
20.500000000010221
 20
46.574999999984719
 30
0.0
  0
VERTEX
  5
1BAD
  8
SAPA_FOGBAND
 10
17.0500000000104
 20
46.574999999984719
 30
0.0
  0
SEQEND
  5
1BAE
  8
SAPA_FOGBAND
  0
POLYLINE
  5
E00
  8
SAPA_FOGBAND
 66
     1
 10
0.0
 20
0.0
 30
0.0
  0
VERTEX
  5
1BAF
  8
SAPA_FOGBAND
 10
17.0500000000104
 20
46.649999999985447
 30
0.0
  0
VERTEX
  5
1BB0
  8
SAPA_FOGBAND
 10
20.500000000010221
 20
46.759997385167694
 30
0.0
  0
VERTEX
  5
1BB1
  8
SAPA_FOGBAND
 10
20.500000000010221
 20
49.198090725589857
 30
0.0
  0
VERTEX
  5
1BB2
  8
SAPA_FOGBAND
 10
17.0500000000104
 20
48.072689603125028
 30
0.0
  0
SEQEND
  5
1BB3
  8
SAPA_FOGBAND
  0
POLYLINE
  5
E01
  8
SAPA_FOGBAND
 66
     1
 10
0.0
 20
0.0
 30
0.0
 70
     1
  0
VERTEX
  5
1BB4
  8
SAPA_FOGBAND
 10
16.250000000010221
 20
58.149999999997092
 30
0.0
  0
VERTEX
  5
1BB5
  8
SAPA_FOGBAND
 10
17.0500000000104
 20
58.149999999997092
 30
0.0
  0
VERTEX
  5
1BB6
  8
SAPA_FOGBAND
 10
17.0500000000104
 20
51.850000000000001
 30
0.0
  0
VERTEX
  5
1BB7
  8
SAPA_FOGBAND
 10
16.250000000010221
 20
51.850000000000001
 30
0.0
  0
SEQEND
  5
1BB8
  8
SAPA_FOGBAND
  0
POLYLINE
  5
E02
  8
SAPA_FOGBAND
 66
     1
 10
0.0
 20
0.0
 30
0.0
  0
VERTEX
  5
1BB9
  8
SAPA_FOGBAND
 10
17.0500000000104
 20
53.4273103968575
 30
0.0
  0
VERTEX
  5
1BBA
  8
SAPA_FOGBAND
 10
20.500000000010221
 20
52.301863799541579
 30
0.0
  0
VERTEX
  5
1BBB
  8
SAPA_FOGBAND
 10
20.500000000010221
 20
54.740001846090109
 30
0.0
  0
VERTEX
  5
1BBC
  8
SAPA_FOGBAND
 10
17.0500000000104
 20
54.849999999997081
 30
0.0
  0
SEQEND
  5
1BBD
  8
SAPA_FOGBAND
  0
POLYLINE
  5
E03
  8
SAPA_FOGBAND
 66
     1
 10
0.0
 20
0.0
 30
0.0
  0
VERTEX
  5
1BBE
  8
SAPA_FOGBAND
 10
17.0500000000104
 20
54.924999999997823
 30
0.0
  0
VERTEX
  5
1BBF
  8
SAPA_FOGBAND
 10
20.500000000010221
 20
54.925000000001091
 30
0.0
  0
VERTEX
  5
1BC0
  8
SAPA_FOGBAND
 10
20.500000000010221
 20
55.074999999999278
 30
0.0
  0
VERTEX
  5
1BC1
  8
SAPA_FOGBAND
 10
17.0500000000104
 20
55.074999999999271
 30
0.0
  0
SEQEND
  5
1BC2
  8
SAPA_FOGBAND
  0
POLYLINE
  5
E04
  8
SAPA_FOGBAND
 66
     1
 10
0.0
 20
0.0
 30
0.0
  0
VERTEX
  5
1BC3
  8
SAPA_FOGBAND
 10
17.0500000000104
 20
55.149999999999999
 30
0.0
  0
VERTEX
  5
1BC4
  8
SAPA_FOGBAND
 10
20.500000000010221
 20
55.259997385182238
 30
0.0
  0
VERTEX
  5
1BC5
  8
SAPA_FOGBAND
 10
20.500000000010221
 20
57.698090725604409
 30
0.0
  0
VERTEX
  5
1BC6
  8
SAPA_FOGBAND
 10
17.0500000000104
 20
56.572689603139587
 30
0.0
  0
SEQEND
  5
1BC7
  8
SAPA_FOGBAND
  0
POLYLINE
  5
E05
  8
SAPA_FOGBAND
 66
     1
 10
0.0
 20
0.0
 30
0.0
 70
     1
  0
VERTEX
  5
1BC8
  8
SAPA_FOGBAND
 10
71.749999999672553
 20
49.431441188146799
 30
0.0
  0
VERTEX
  5
1BC9
  8
SAPA_FOGBAND
 10
70.949999999672372
 20
49.431441188146799
 30
0.0
  0
VERTEX
  5
1BCA
  8
SAPA_FOGBAND
 10
70.949999999672372
 20
43.131441188149708
 30
0.0
  0
VERTEX
  5
1BCB
  8
SAPA_FOGBAND
 10
71.749999999672553
 20
43.131441188149708
 30
0.0
  0
SEQEND
  5
1BCC
  8
SAPA_FOGBAND
  0
POLYLINE
  5
E06
  8
SAPA_FOGBAND
 66
     1
 10
0.0
 20
0.0
 30
0.0
  0
VERTEX
  5
1BCD
  8
SAPA_FOGBAND
 10
70.949999999672372
 20
44.708751585007207
 30
0.0
  0
VERTEX
  5
1BCE
  8
SAPA_FOGBAND
 10
67.499999999672553
 20
43.583304987691292
 30
0.0
  0
VERTEX
  5
1BCF
  8
SAPA_FOGBAND
 10
67.499999999672553
 20
46.021443034239823
 30
0.0
  0
VERTEX
  5
1BD0
  8
SAPA_FOGBAND
 10
70.949999999672372
 20
46.131441188146802
 30
0.0
  0
SEQEND
  5
1BD1
  8
SAPA_FOGBAND
  0
POLYLINE
  5
E07
  8
SAPA_FOGBAND
 66
     1
 10
0.0
 20
0.0
 30
0.0
  0
VERTEX
  5
1BD2
  8
SAPA_FOGBAND
 10
70.949999999672372
 20
46.206441188147529
 30
0.0
  0
VERTEX
  5
1BD3
  8
SAPA_FOGBAND
 10
67.499999999672553
 20
46.206441188150798
 30
0.0
  0
VERTEX
  5
1BD4
  8
SAPA_FOGBAND
 10
67.499999999672553
 20
46.356441188148992
 30
0.0
  0
VERTEX
  5
1BD5
  8
SAPA_FOGBAND
 10
70.949999999672372
 20
46.356441188148978
 30
0.0
  0
SEQEND
  5
1BD6
  8
SAPA_FOGBAND
  0
POLYLINE
  5
E08
  8
SAPA_FOGBAND
 66
     1
 10
0.0
 20
0.0
 30
0.0
  0
VERTEX
  5
1BD7
  8
SAPA_FOGBAND
 10
70.949999999672372
 20
46.431441188149712
 30
0.0
  0
VERTEX
  5
1BD8
  8
SAPA_FOGBAND
 10
67.499999999672553
 20
46.541438573331952
 30
0.0
  0
VERTEX
  5
1BD9
  8
SAPA_FOGBAND
 10
67.499999999672553
 20
48.979531913754123
 30
0.0
  0
VERTEX
  5
1BDA
  8
SAPA_FOGBAND
 10
70.949999999672372
 20
47.8541307912893
 30
0.0
  0
SEQEND
  5
1BDB
  8
SAPA_FOGBAND
  0
POLYLINE
  5
E09
  8
SAPA_FOGBAND
 66
     1
 10
0.0
 20
0.0
 30
0.0
 70
     1
  0
VERTEX
  5
1BDC
  8
SAPA_FOGBAND
 10
71.749999999672553
 20
57.931441188161351
 30
0.0
  0
VERTEX
  5
1BDD
  8
SAPA_FOGBAND
 10
70.949999999672372
 20
57.931441188161351
 30
0.0
  0
VERTEX
  5
1BDE
  8
SAPA_FOGBAND
 10
70.949999999672372
 20
51.63144118816426
 30
0.0
  0
VERTEX
  5
1BDF
  8
SAPA_FOGBAND
 10
71.749999999672553
 20
51.63144118816426
 30
0.0
  0
SEQEND
  5
1BE0
  8
SAPA_FOGBAND
  0
POLYLINE
  5
E0A
  8
SAPA_FOGBAND
 66
     1
 10
0.0
 20
0.0
 30
0.0
  0
VERTEX
  5
1BE1
  8
SAPA_FOGBAND
 10
70.949999999672372
 20
53.208751585021759
 30
0.0
  0
VERTEX
  5
1BE2
  8
SAPA_FOGBAND
 10
67.499999999672553
 20
52.083304987705837
 30
0.0
  0
VERTEX
  5
1BE3
  8
SAPA_FOGBAND
 10
67.499999999672553
 20
54.521443034254382
 30
0.0
  0
VERTEX
  5
1BE4
  8
SAPA_FOGBAND
 10
70.949999999672372
 20
54.631441188161347
 30
0.0
  0
SEQEND
  5
1BE5
  8
SAPA_FOGBAND
  0
POLYLINE
  5
E0B
  8
SAPA_FOGBAND
 66
     1
 10
0.0
 20
0.0
 30
0.0
  0
VERTEX
  5
1BE6
  8
SAPA_FOGBAND
 10
70.949999999672372
 20
54.706441188162081
 30
0.0
  0
VERTEX
  5
1BE7
  8
SAPA_FOGBAND
 10
67.499999999672553
 20
54.706441188165357
 30
0.0
  0
VERTEX
  5
1BE8
  8
SAPA_FOGBAND
 10
67.499999999672553
 20
54.856441188163537
 30
0.0
  0
VERTEX
  5
1BE9
  8
SAPA_FOGBAND
 10
70.949999999672372
 20
54.856441188163529
 30
0.0
  0
SEQEND
  5
1BEA
  8
SAPA_FOGBAND
  0
POLYLINE
  5
E0C
  8
SAPA_FOGBAND
 66
     1
 10
0.0
 20
0.0
 30
0.0
  0
VERTEX
  5
1BEB
  8
SAPA_FOGBAND
 10
70.949999999672372
 20
54.931441188164257
 30
0.0
  0
VERTEX
  5
1BEC
  8
SAPA_FOGBAND
 10
67.499999999672553
 20
55.041438573346511
 30
0.0
  0
VERTEX
  5
1BED
  8
SAPA_FOGBAND
 10
67.499999999672553
 20
57.479531913768668
 30
0.0
  0
VERTEX
  5
1BEE
  8
SAPA_FOGBAND
 10
70.949999999672372
 20
56.354130791303852
 30
0.0
  0
SEQEND
  5
1BEF
  8
SAPA_FOGBAND
  0
POLYLINE
  5
E0D
  8
SAPA_FOGBAND
 66
     1
 10
0.0
 20
0.0
 30
0.0
 70
     1
  0
VERTEX
  5
1BF0
  8
SAPA_FOGBAND
 10
136.7499999277311
 20
49.649999999982533
 30
0.0
  0
VERTEX
  5
1BF1
  8
SAPA_FOGBAND
 10
135.94999992773089
 20
49.649999999982533
 30
0.0
  0
VERTEX
  5
1BF2
  8
SAPA_FOGBAND
 10
135.94999992773089
 20
43.34999999998545
 30
0.0
  0
VERTEX
  5
1BF3
  8
SAPA_FOGBAND
 10
136.7499999277311
 20
43.34999999998545
 30
0.0
  0
SEQEND
  5
1BF4
  8
SAPA_FOGBAND
  0
POLYLINE
  5
E0E
  8
SAPA_FOGBAND
 66
     1
 10
0.0
 20
0.0
 30
0.0
  0
VERTEX
  5
1BF5
  8
SAPA_FOGBAND
 10
135.94999992773089
 20
44.927310396842941
 30
0.0
  0
VERTEX
  5
1BF6
  8
SAPA_FOGBAND
 10
132.4999999277311
 20
43.801863799527027
 30
0.0
  0
VERTEX
  5
1BF7
  8
SAPA_FOGBAND
 10
132.4999999277311
 20
46.240001846075558
 30
0.0
  0
VERTEX
  5
1BF8
  8
SAPA_FOGBAND
 10
135.94999992773089
 20
46.349999999982529
 30
0.0
  0
SEQEND
  5
1BF9
  8
SAPA_FOGBAND
  0
POLYLINE
  5
E0F
  8
SAPA_FOGBAND
 66
     1
 10
0.0
 20
0.0
 30
0.0
  0
VERTEX
  5
1BFA
  8
SAPA_FOGBAND
 10
135.94999992773089
 20
46.424999999983257
 30
0.0
  0
VERTEX
  5
1BFB
  8
SAPA_FOGBAND
 10
132.4999999277311
 20
46.424999999986539
 30
0.0
  0
VERTEX
  5
1BFC
  8
SAPA_FOGBAND
 10
132.4999999277311
 20
46.574999999984719
 30
0.0
  0
VERTEX
  5
1BFD
  8
SAPA_FOGBAND
 10
135.94999992773089
 20
46.574999999984719
 30
0.0
  0
SEQEND
  5
1BFE
  8
SAPA_FOGBAND
  0
POLYLINE
  5
E10
  8
SAPA_FOGBAND
 66
     1
 10
0.0
 20
0.0
 30
0.0
  0
VERTEX
  5
1BFF
  8
SAPA_FOGBAND
 10
135.94999992773089
 20
46.649999999985447
 30
0.0
  0
VERTEX
  5
1C00
  8
SAPA_FOGBAND
 10
132.4999999277311
 20
46.759997385167694
 30
0.0
  0
VERTEX
  5
1C01
  8
SAPA_FOGBAND
 10
132.4999999277311
 20
49.198090725589857
 30
0.0
  0
VERTEX
  5
1C02
  8
SAPA_FOGBAND
 10
135.94999992773089
 20
48.072689603125028
 30
0.0
  0
SEQEND
  5
1C03
  8
SAPA_FOGBAND
  0
POLYLINE
  5
E11
  8
SAPA_FOGBAND
 66
     1
 10
0.0
 20
0.0
 30
0.0
 70
     1
  0
VERTEX
  5
1C04
  8
SAPA_FOGBAND
 10
136.7499999277311
 20
58.149999999997092
 30
0.0
  0
VERTEX
  5
1C05
  8
SAPA_FOGBAND
 10
135.94999992773089
 20
58.149999999997092
 30
0.0
  0
VERTEX
  5
1C06
  8
SAPA_FOGBAND
 10
135.94999992773089
 20
51.850000000000001
 30
0.0
  0
VERTEX
  5
1C07
  8
SAPA_FOGBAND
 10
136.7499999277311
 20
51.850000000000001
 30
0.0
  0
SEQEND
  5
1C08
  8
SAPA_FOGBAND
  0
POLYLINE
  5
E12
  8
SAPA_FOGBAND
 66
     1
 10
0.0
 20
0.0
 30
0.0
  0
VERTEX
  5
1C09
  8
SAPA_FOGBAND
 10
135.94999992773089
 20
53.4273103968575
 30
0.0
  0
VERTEX
  5
1C0A
  8
SAPA_FOGBAND
 10
132.4999999277311
 20
52.301863799541579
 30
0.0
  0
VERTEX
  5
1C0B
  8
SAPA_FOGBAND
 10
132.4999999277311
 20
54.740001846090109
 30
0.0
  0
VERTEX
  5
1C0C
  8
SAPA_FOGBAND
 10
135.94999992773089
 20
54.849999999997081
 30
0.0
  0
SEQEND
  5
1C0D
  8
SAPA_FOGBAND
  0
POLYLINE
  5
E13
  8
SAPA_FOGBAND
 66
     1
 10
0.0
 20
0.0
 30
0.0
  0
VERTEX
  5
1C0E
  8
SAPA_FOGBAND
 10
135.94999992773089
 20
54.924999999997823
 30
0.0
  0
VERTEX
  5
1C0F
  8
SAPA_FOGBAND
 10
132.4999999277311
 20
54.925000000001091
 30
0.0
  0
VERTEX
  5
1C10
  8
SAPA_FOGBAND
 10
132.4999999277311
 20
55.074999999999278
 30
0.0
  0
VERTEX
  5
1C11
  8
SAPA_FOGBAND
 10
135.94999992773089
 20
55.074999999999271
 30
0.0
  0
SEQEND
  5
1C12
  8
SAPA_FOGBAND
  0
POLYLINE
  5
E14
  8
SAPA_FOGBAND
 66
     1
 10
0.0
 20
0.0
 30
0.0
  0
VERTEX
  5
1C13
  8
SAPA_FOGBAND
 10
135.94999992773089
 20
55.149999999999999
 30
0.0
  0
VERTEX
  5
1C14
  8
SAPA_FOGBAND
 10
132.4999999277311
 20
55.259997385182238
 30
0.0
  0
VERTEX
  5
1C15
  8
SAPA_FOGBAND
 10
132.4999999277311
 20
57.698090725604409
 30
0.0
  0
VERTEX
  5
1C16
  8
SAPA_FOGBAND
 10
135.94999992773089
 20
56.572689603139587
 30
0.0
  0
SEQEND
  5
1C17
  8
SAPA_FOGBAND
  0
POLYLINE
  5
E15
  8
SAPA_FOGBAND
 66
     1
 10
0.0
 20
0.0
 30
0.0
 70
     1
  0
VERTEX
  5
1C18
  8
SAPA_FOGBAND
 10
81.249999999907985
 20
49.431441188146799
 30
0.0
  0
VERTEX
  5
1C19
  8
SAPA_FOGBAND
 10
82.049999999908167
 20
49.431441188146799
 30
0.0
  0
VERTEX
  5
1C1A
  8
SAPA_FOGBAND
 10
82.049999999908167
 20
43.131441188149708
 30
0.0
  0
VERTEX
  5
1C1B
  8
SAPA_FOGBAND
 10
81.249999999907985
 20
43.131441188149708
 30
0.0
  0
SEQEND
  5
1C1C
  8
SAPA_FOGBAND
  0
POLYLINE
  5
E16
  8
SAPA_FOGBAND
 66
     1
 10
0.0
 20
0.0
 30
0.0
  0
VERTEX
  5
1C1D
  8
SAPA_FOGBAND
 10
82.049999999908167
 20
44.708751585007207
 30
0.0
  0
VERTEX
  5
1C1E
  8
SAPA_FOGBAND
 10
85.499999999907985
 20
43.583304987691292
 30
0.0
  0
VERTEX
  5
1C1F
  8
SAPA_FOGBAND
 10
85.499999999907985
 20
46.021443034239823
 30
0.0
  0
VERTEX
  5
1C20
  8
SAPA_FOGBAND
 10
82.049999999908167
 20
46.131441188146802
 30
0.0
  0
SEQEND
  5
1C21
  8
SAPA_FOGBAND
  0
POLYLINE
  5
E17
  8
SAPA_FOGBAND
 66
     1
 10
0.0
 20
0.0
 30
0.0
  0
VERTEX
  5
1C22
  8
SAPA_FOGBAND
 10
82.049999999908167
 20
46.206441188147529
 30
0.0
  0
VERTEX
  5
1C23
  8
SAPA_FOGBAND
 10
85.499999999907985
 20
46.206441188150798
 30
0.0
  0
VERTEX
  5
1C24
  8
SAPA_FOGBAND
 10
85.499999999907985
 20
46.356441188148992
 30
0.0
  0
VERTEX
  5
1C25
  8
SAPA_FOGBAND
 10
82.049999999908167
 20
46.356441188148978
 30
0.0
  0
SEQEND
  5
1C26
  8
SAPA_FOGBAND
  0
POLYLINE
  5
E18
  8
SAPA_FOGBAND
 66
     1
 10
0.0
 20
0.0
 30
0.0
  0
VERTEX
  5
1C27
  8
SAPA_FOGBAND
 10
82.049999999908167
 20
46.431441188149712
 30
0.0
  0
VERTEX
  5
1C28
  8
SAPA_FOGBAND
 10
85.499999999907985
 20
46.541438573331952
 30
0.0
  0
VERTEX
  5
1C29
  8
SAPA_FOGBAND
 10
85.499999999907985
 20
48.979531913754123
 30
0.0
  0
VERTEX
  5
1C2A
  8
SAPA_FOGBAND
 10
82.049999999908167
 20
47.8541307912893
 30
0.0
  0
SEQEND
  5
1C2B
  8
SAPA_FOGBAND
  0
POLYLINE
  5
E19
  8
SAPA_FOGBAND
 66
     1
 10
0.0
 20
0.0
 30
0.0
 70
     1
  0
VERTEX
  5
1C2C
  8
SAPA_FOGBAND
 10
81.249999999907985
 20
57.931441188161351
 30
0.0
  0
VERTEX
  5
1C2D
  8
SAPA_FOGBAND
 10
82.049999999908167
 20
57.931441188161351
 30
0.0
  0
VERTEX
  5
1C2E
  8
SAPA_FOGBAND
 10
82.049999999908167
 20
51.63144118816426
 30
0.0
  0
VERTEX
  5
1C2F
  8
SAPA_FOGBAND
 10
81.249999999907985
 20
51.63144118816426
 30
0.0
  0
SEQEND
  5
1C30
  8
SAPA_FOGBAND
  0
POLYLINE
  5
E1A
  8
SAPA_FOGBAND
 66
     1
 10
0.0
 20
0.0
 30
0.0
  0
VERTEX
  5
1C31
  8
SAPA_FOGBAND
 10
82.049999999908167
 20
53.208751585021759
 30
0.0
  0
VERTEX
  5
1C32
  8
SAPA_FOGBAND
 10
85.499999999907985
 20
52.083304987705837
 30
0.0
  0
VERTEX
  5
1C33
  8
SAPA_FOGBAND
 10
85.499999999907985
 20
54.521443034254382
 30
0.0
  0
VERTEX
  5
1C34
  8
SAPA_FOGBAND
 10
82.049999999908167
 20
54.631441188161347
 30
0.0
  0
SEQEND
  5
1C35
  8
SAPA_FOGBAND
  0
POLYLINE
  5
E1B
  8
SAPA_FOGBAND
 66
     1
 10
0.0
 20
0.0
 30
0.0
  0
VERTEX
  5
1C36
  8
SAPA_FOGBAND
 10
82.049999999908167
 20
54.706441188162081
 30
0.0
  0
VERTEX
  5
1C37
  8
SAPA_FOGBAND
 10
85.499999999907985
 20
54.706441188165357
 30
0.0
  0
VERTEX
  5
1C38
  8
SAPA_FOGBAND
 10
85.499999999907985
 20
54.856441188163537
 30
0.0
  0
VERTEX
  5
1C39
  8
SAPA_FOGBAND
 10
82.049999999908167
 20
54.856441188163529
 30
0.0
  0
SEQEND
  5
1C3A
  8
SAPA_FOGBAND
  0
POLYLINE
  5
E1C
  8
SAPA_FOGBAND
 66
     1
 10
0.0
 20
0.0
 30
0.0
  0
VERTEX
  5
1C3B
  8
SAPA_FOGBAND
 10
82.049999999908167
 20
54.931441188164257
 30
0.0
  0
VERTEX
  5
1C3C
  8
SAPA_FOGBAND
 10
85.499999999907985
 20
55.041438573346511
 30
0.0
  0
VERTEX
  5
1C3D
  8
SAPA_FOGBAND
 10
85.499999999907985
 20
57.479531913768668
 30
0.0
  0
VERTEX
  5
1C3E
  8
SAPA_FOGBAND
 10
82.049999999908167
 20
56.354130791303852
 30
0.0
  0
SEQEND
  5
1C3F
  8
SAPA_FOGBAND
  0
DIMENSION
  5
E29
  8
SAPA_MATT
  2
*D44
 10
180.99999992774161
 20
60.000000000015852
 30
0.0
 11
178.2486741701658
 21
-4.9999999999947908
 31
0.0
 70
     0
  1
min. 130
 13
148.99999992774141
 23
-70.000000000005485
 33
0.0
 14
165.99999992773971
 24
60.000000000015859
 34
0.0
 50
90.0
1001
ACAD
1000
DSTYLE
1002
{
1070
    40
1040
1.0
1002
}
  0
DIMENSION
  5
E2A
  8
SAPA_MATT
  2
*D43
 10
14.00000000000011
 20
101.0000000000001
 30
0.0
 11
-29.99999999999989
 21
103.7500000000001
 31
0.0
 70
     0
 13
-73.999999999999886
 23
58.000000000001243
 33
0.0
 14
14.00000000000011
 24
58.499999999999417
 34
0.0
1001
ACAD
1000
DSTYLE
1002
{
1070
    40
1040
1.0
1002
}
  0
DIMENSION
  5
E2B
  8
SAPA_MATT
  2
*D42
 10
138.99999999950211
 20
113.0000000000001
 30
0.0
 11
76.499999999751068
 21
115.7500000000001
 31
0.0
 70
     0
 13
14.00000000000003
 23
58.5
 33
0.0
 14
138.99999999950211
 24
60.0
 34
0.0
1001
ACAD
1000
DSTYLE
1002
{
1070
    40
1040
1.0
1002
}
  0
DIMENSION
  5
E2C
  8
SAPA_MATT
  2
*D41
 10
138.99999999950211
 20
101.0000000000001
 30
0.0
 11
135.74999999950211
 21
101.0000000000001
 31
0.0
 70
   128
 13
132.49999999950211
 23
55.000000000018979
 33
0.0
 14
138.99999999950211
 24
58.5
 34
0.0
1001
ACAD
1000
DSTYLE
1002
{
1070
   287
1070
     4
1070
    40
1040
1.0
1070
   279
1070
     1
1002
}
  0
DIMENSION
  5
E2D
  8
SAPA_MATT
  2
*D40
 10
132.49999999950211
 20
101.0000000000005
 30
0.0
 11
108.99999999984141
 21
103.7500000000005
 31
0.0
 70
     0
 13
85.500000000180634
 23
55.000000000019853
 33
0.0
 14
132.49999999950211
 24
55.000000000019853
 34
0.0
1001
ACAD
1000
DSTYLE
1002
{
1070
   287
1070
     4
1070
    40
1040
1.0
1070
   279
1070
     1
1002
}
  0
DIMENSION
  5
E2E
  8
SAPA_MATT
  2
*D39
 10
85.500000000180634
 20
101.0000000000001
 30
0.0
 11
49.750000000090388
 21
101.0000000000001
 31
0.0
 70
   128
 13
14.00000000000003
 23
58.5
 33
0.0
 14
85.500000000180634
 24
55.000000000019853
 34
0.0
1001
ACAD
1000
DSTYLE
1002
{
1070
    40
1040
1.0
1002
}
  0
DIMENSION
  5
E2F
  8
SAPA_MATT
  2
*D38
 10
168.9999999277413
 20
70.000000000011028
 30
0.0
 11
166.2499999277413
 21
65.000000000005528
 31
0.0
 70
     0
 13
137.4999999277413
 23
60.0
 33
0.0
 14
130.7499999995072
 24
70.000000000011042
 34
0.0
 50
90.0
1001
ACAD
1000
DSTYLE
1002
{
1070
   287
1070
     4
1070
    40
1040
1.0
1070
   279
1070
     1
1002
}
  0
DIMENSION
  5
E30
  8
SAPA_MATT
  2
*D37
 10
168.9999999277413
 20
60.0
 30
0.0
 11
166.2499999277413
 21
1.500000000000032
 31
0.0
 70
     0
 13
137.62499999950211
 23
-56.999999999999972
 33
0.0
 14
137.4999999277413
 24
60.0
 34
0.0
 50
90.0
1001
ACAD
1000
DSTYLE
1002
{
1070
    40
1040
1.0
1002
}
  0
VIEWPORT
  5
C4
 67
     1
  8
0
 10
160.5543545598442
 20
116.00969601843509
 30
0.0
 40
404.96977709277462
 41
256.8421457311839
 68
     1
 69
     1
1001
ACAD
1000
MVIEW
1002
{
1070
    16
1010
0.0
1020
0.0
1030
0.0
1010
0.0
1020
0.0
1030
1.0
1040
0.0
1040
256.8421457311839
1040
99.206250190734863
1040
130.70624923706049
1040
50.0
1040
0.0
1040
0.0
1070
     0
1070
     0
1070
     1
1070
     1
1070
     0
1070
     0
1070
     0
1070
     0
1040
0.0
1040
0.0
1040
0.0
1040
10.0
1040
10.0
1040
10.0
1040
10.0
1070
     0
1002
{
1002
}
1002
}
  0
ENDSEC
  0
EOF
