  0
SECTION
  2
HEADER
  9
$ACADVER
  1
AC1009
  9
$INSBASE
 10
0.0
 20
0.0
 30
0.0
  9
$EXTMIN
 10
-37.249999999999957
 20
-30.619466477045759
 30
-0.2
  9
$EXTMAX
 10
104.7553653089505
 20
194.0032559344132
 30
0.0000000048844772
  9
$LIMMIN
 10
0.0
 20
0.0
  9
$LIMMAX
 10
790.0
 20
790.0
  9
$ORTHOMODE
 70
     1
  9
$REGENMODE
 70
     1
  9
$FILLMODE
 70
     1
  9
$QTEXTMODE
 70
     0
  9
$MIRRTEXT
 70
     1
  9
$DRAGMODE
 70
     2
  9
$LTSCALE
 40
4.0
  9
$OSMODE
 70
   167
  9
$ATTMODE
 70
     1
  9
$TEXTSIZE
 40
3.5
  9
$TRACEWID
 40
0.05
  9
$TEXTSTYLE
  7
ISO
  9
$CLAYER
  8
0
  9
$CELTYPE
  6
BYLAYER
  9
$CECOLOR
 62
   256
  9
$DIMSCALE
 40
0.0
  9
$DIMASZ
 40
3.0
  9
$DIMEXO
 40
1.5
  9
$DIMDLI
 40
10.0
  9
$DIMRND
 40
0.0
  9
$DIMDLE
 40
0.0
  9
$DIMEXE
 40
1.5
  9
$DIMTP
 40
0.0
  9
$DIMTM
 40
0.0
  9
$DIMTXT
 40
3.5
  9
$DIMCEN
 40
-5.0
  9
$DIMTSZ
 40
0.0
  9
$DIMTOL
 70
     0
  9
$DIMLIM
 70
     0
  9
$DIMTIH
 70
     0
  9
$DIMTOH
 70
     0
  9
$DIMSE1
 70
     0
  9
$DIMSE2
 70
     0
  9
$DIMTAD
 70
     1
  9
$DIMZIN
 70
     8
  9
$DIMBLK
  1

  9
$DIMASO
 70
     1
  9
$DIMSHO
 70
     1
  9
$DIMPOST
  1

  9
$DIMAPOST
  1

  9
$DIMALT
 70
     0
  9
$DIMALTD
 70
     0
  9
$DIMALTF
 40
25.399999999999999
  9
$DIMLFAC
 40
-1.0
  9
$DIMTOFL
 70
     1
  9
$DIMTVP
 40
0.0
  9
$DIMTIX
 70
     0
  9
$DIMSOXD
 70
     0
  9
$DIMSAH
 70
     0
  9
$DIMBLK1
  1

  9
$DIMBLK2
  1

  9
$DIMSTYLE
  2
MASKIN
  9
$DIMCLRD
 70
   256
  9
$DIMCLRE
 70
   256
  9
$DIMCLRT
 70
     2
  9
$DIMTFAC
 40
1.0
  9
$DIMGAP
 40
1.0
  9
$LUNITS
 70
     2
  9
$LUPREC
 70
     8
  9
$SKETCHINC
 40
0.1
  9
$FILLETRAD
 40
0.0
  9
$AUNITS
 70
     0
  9
$AUPREC
 70
     8
  9
$MENU
  1
ACAD
  9
$ELEVATION
 40
0.0
  9
$PELEVATION
 40
0.0
  9
$THICKNESS
 40
0.0
  9
$LIMCHECK
 70
     0
  9
$BLIPMODE
 70
     0
  9
$CHAMFERA
 40
0.0
  9
$CHAMFERB
 40
0.0
  9
$SKPOLY
 70
     0
  9
$TDCREATE
 40
2455734.518348461
  9
$TDUPDATE
 40
2455994.5020774188
  9
$TDINDWG
 40
3.0230114815000002
  9
$TDUSRTIMER
 40
3.0230112963
  9
$USRTIMER
 70
     1
  9
$ANGBASE
 50
0.0
  9
$ANGDIR
 70
     0
  9
$PDMODE
 70
     0
  9
$PDSIZE
 40
0.0
  9
$PLINEWID
 40
0.0
  9
$COORDS
 70
     1
  9
$SPLFRAME
 70
     0
  9
$SPLINETYPE
 70
     6
  9
$SPLINESEGS
 70
     8
  9
$ATTDIA
 70
     0
  9
$ATTREQ
 70
     1
  9
$HANDLING
 70
     1
  9
$HANDSEED
  5
1A00
  9
$SURFTAB1
 70
     6
  9
$SURFTAB2
 70
     6
  9
$SURFTYPE
 70
     6
  9
$SURFU
 70
     6
  9
$SURFV
 70
     6
  9
$UCSNAME
  2

  9
$UCSORG
 10
0.0
 20
0.0
 30
0.0
  9
$UCSXDIR
 10
1.0
 20
0.0
 30
0.0
  9
$UCSYDIR
 10
0.0
 20
1.0
 30
0.0
  9
$PUCSNAME
  2

  9
$PUCSORG
 10
0.0
 20
0.0
 30
0.0
  9
$PUCSXDIR
 10
1.0
 20
0.0
 30
0.0
  9
$PUCSYDIR
 10
0.0
 20
1.0
 30
0.0
  9
$USERI1
 70
     0
  9
$USERI2
 70
     0
  9
$USERI3
 70
     0
  9
$USERI4
 70
     0
  9
$USERI5
 70
     0
  9
$USERR1
 40
0.0
  9
$USERR2
 40
0.0
  9
$USERR3
 40
0.0
  9
$USERR4
 40
0.0
  9
$USERR5
 40
0.0
  9
$WORLDVIEW
 70
     1
  9
$SHADEDGE
 70
     3
  9
$SHADEDIF
 70
    70
  9
$TILEMODE
 70
     1
  9
$MAXACTVP
 70
    16
  9
$PLIMCHECK
 70
     0
  9
$PEXTMIN
 10
1.0000000000000000E+020
 20
1.0000000000000000E+020
 30
1.0000000000000000E+020
  9
$PEXTMAX
 10
-1.0000000000000000E+020
 20
-1.0000000000000000E+020
 30
-1.0000000000000000E+020
  9
$PLIMMIN
 10
-5.069427490234375
 20
-5.8737497329711914
  9
$PLIMMAX
 10
291.89889526367187
 20
204.0995779037475
  9
$UNITMODE
 70
     0
  9
$VISRETAIN
 70
     1
  9
$PLINEGEN
 70
     0
  9
$PSLTSCALE
 70
     1
  0
ENDSEC
  0
SECTION
  2
TABLES
  0
TABLE
  2
VPORT
 70
     1
  0
VPORT
  2
*ACTIVE
 70
     0
 10
0.0
 20
0.0
 11
1.0
 21
1.0
 12
37.3330435905618
 22
141.89574973499779
 13
0.0
 23
0.0
 14
1.0
 24
1.0
 15
0.0
 25
0.0
 16
0.0
 26
0.0
 36
1.0
 17
0.0
 27
0.0
 37
0.0
 40
225.46010893706261
 41
2.37391304347826
 42
50.0
 43
0.0
 44
0.0
 50
0.0
 51
0.0
 71
     0
 72
   100
 73
     1
 74
     1
 75
     0
 76
     0
 77
     0
 78
     0
  0
ENDTAB
  0
TABLE
  2
LTYPE
 70
     4
  0
LTYPE
  2
CONTINUOUS
 70
     0
  3
Solid line
 72
    65
 73
     0
 40
0.0
  0
LTYPE
  2
BYGG-027390$0$NEWDOT
 70
     0
  3
____ . ____ . ____ . ____ . ____ . ____ . ____
 72
    65
 73
     4
 40
2.0
 49
1.0
 49
-0.5
 49
0.0
 49
-0.5
  0
LTYPE
  2
BYGG-027368$0$NEWDOT
 70
     0
  3
____ . ____ . ____ . ____ . ____ . ____ . ____
 72
    65
 73
     4
 40
2.0
 49
1.0
 49
-0.5
 49
0.0
 49
-0.5
  0
LTYPE
  2
BYGG-027378$0$NEWDOT
 70
     0
  3
____ . ____ . ____ . ____ . ____ . ____ . ____
 72
    65
 73
     4
 40
2.0
 49
1.0
 49
-0.5
 49
0.0
 49
-0.5
  0
ENDTAB
  0
TABLE
  2
LAYER
 70
    35
  0
LAYER
  2
0
 70
     0
 62
     7
  6
CONTINUOUS
  0
LAYER
  2
DEFPOINTS
 70
     0
 62
     7
  6
CONTINUOUS
  0
LAYER
  2
SAPA_ARTIKELNR
 70
     0
 62
     4
  6
CONTINUOUS
  0
LAYER
  2
SAPA_GLAS
 70
     0
 62
     4
  6
CONTINUOUS
  0
LAYER
  2
SAPA_ANSLUTNING
 70
     0
 62
     6
  6
CONTINUOUS
  0
LAYER
  2
SAPA_MATT
 70
     0
 62
     1
  6
CONTINUOUS
  0
LAYER
  2
SAPA_FOGBAND
 70
     0
 62
     2
  6
CONTINUOUS
  0
LAYER
  2
SAPA_PROFIL
 70
     0
 62
     7
  6
CONTINUOUS
  0
ENDTAB
  0
TABLE
  2
STYLE
 70
    16
  0
STYLE
  2
STANDARD
 70
     0
 40
0.0
 41
1.0
 50
0.0
 71
     0
 42
0.2
  3
txt
  4

  0
STYLE
  2
ISO
 70
     0
 40
0.0
 41
1.0
 50
0.0
 71
     0
 42
3.5
  3
txt
  4

  0
STYLE
  2
BYGG-027392$0$STANDARD
 70
     0
 40
0.0
 41
1.0
 50
0.0
 71
     0
 42
0.2
  3
txt
  4

  0
STYLE
  2
BYGG-027392$0$ISO
 70
     0
 40
0.0
 41
1.0
 50
0.0
 71
     0
 42
3.5
  3
txt
  4

  0
STYLE
  2
BYGG-027457$0$STANDARD
 70
     0
 40
0.0
 41
1.0
 50
0.0
 71
     0
 42
0.2
  3
txt
  4

  0
STYLE
  2
BYGG-027457$0$ISO
 70
     0
 40
0.0
 41
1.0
 50
0.0
 71
     0
 42
3.5
  3
txt
  4

  0
STYLE
  2
BYGG-027390$0$STANDARD
 70
     0
 40
0.0
 41
1.0
 50
0.0
 71
     0
 42
0.2
  3
txt
  4

  0
STYLE
  2
BYGG-027390$0$ISO
 70
     0
 40
0.0
 41
1.0
 50
0.0
 71
     0
 42
3.5
  3
txt
  4

  0
STYLE
  2
BYGG-027458$0$STANDARD
 70
     0
 40
0.0
 41
1.0
 50
0.0
 71
     0
 42
0.2
  3
txt
  4

  0
STYLE
  2
BYGG-027458$0$ISO
 70
     0
 40
0.0
 41
1.0
 50
0.0
 71
     0
 42
3.5
  3
txt
  4

  0
STYLE
  2
BYGG-027368$0$STANDARD
 70
     0
 40
0.0
 41
1.0
 50
0.0
 71
     0
 42
0.2
  3
txt
  4

  0
STYLE
  2
BYGG-027368$0$ISO
 70
     0
 40
0.0
 41
1.0
 50
0.0
 71
     0
 42
3.5
  3
txt
  4

  0
STYLE
  2
BYGG-027398$0$STANDARD
 70
     0
 40
0.0
 41
1.0
 50
0.0
 71
     0
 42
0.2
  3
txt
  4

  0
STYLE
  2
BYGG-027398$0$ISO
 70
     0
 40
0.0
 41
1.0
 50
0.0
 71
     0
 42
3.5
  3
txt
  4

  0
STYLE
  2
BYGG-027378$0$STANDARD
 70
     0
 40
0.0
 41
1.0
 50
0.0
 71
     0
 42
0.2
  3
txt
  4

  0
STYLE
  2
BYGG-027378$0$ISO
 70
     0
 40
0.0
 41
1.0
 50
0.0
 71
     0
 42
3.5
  3
txt
  4

  0
ENDTAB
  0
TABLE
  2
VIEW
 70
     0
  0
ENDTAB
  0
TABLE
  2
UCS
 70
     0
  0
ENDTAB
  0
TABLE
  2
APPID
 70
    28
  0
APPID
  2
ACAD
 70
     0
  0
APPID
  2
ACAD_DSTYLE_DIMTEXT_FILL
 70
     0
  0
APPID
  2
ACAD_DSTYLE_DIMEXT_LENGTH
 70
     0
  0
APPID
  2
ACAD_DSTYLE_DIMEXT_ENABLED
 70
     0
  0
APPID
  2
ACAD_DSTYLE_DIM_LINETYPE
 70
     0
  0
APPID
  2
ACAD_DSTYLE_DIM_EXT1_LINETYPE
 70
     0
  0
APPID
  2
ACAD_DSTYLE_DIM_EXT2_LINETYPE
 70
     0
  0
APPID
  2
ACAD_DSTYLE_DIMJOGGED_JOGA
 70
     0
  0
APPID
  2
ACAD_DSTYLE_DIMARC_LENGTH_
 70
     0
  0
APPID
  2
ACAD_PSEXT
 70
     0
  0
APPID
  2
ACAD_MLEADERVER
 70
     0
  0
APPID
  2
GENIUS_GENODEF_13
 70
     0
  0
APPID
  2
RC_PROFILE
 70
     0
  0
APPID
  2
ACAECLAYERSTANDARD
 70
     0
  0
APPID
  2
GENIUS_GENOBJ-N-FIL_13
 70
     0
  0
APPID
  2
ACADANNOTATIVE
 70
     0
  0
APPID
  2
ACAD_EXEMPT_FROM_CAD_STANDARDS
 70
     0
  0
APPID
  2
AEC_XDATA_BOUND_SPACE
 70
     0
  0
APPID
  2
ACAD_DSTYLE_DIMJAG
 70
     0
  0
APPID
  2
ACAD_DSTYLE_DIMTALN
 70
     0
  0
APPID
  2
GENIUS_GENREC_14
 70
     0
  0
APPID
  2
GENIUS_GENOBJ-N-REC_13
 70
     0
  0
APPID
  2
ACDBDYNAMICBLOCKTRUENAME
 70
     0
  0
APPID
  2
ACDBBLOCKREPETAG
 70
     0
  0
APPID
  2
ACDBDYNAMICBLOCKGUID
 70
     0
  0
APPID
  2
ACDBBLOCKREPBTAG
 70
     0
  0
APPID
  2
ACAD_NAV_VCDISPLAY
 70
     0
  0
APPID
  2
ACCMTRANSPARENCY
 70
     0
  0
ENDTAB
  0
TABLE
  2
DIMSTYLE
 70
     8
  0
DIMSTYLE
  2
MASKIN
 70
     0
  3

  4

  5

  6

  7

 40
0.0
 41
3.0
 42
1.5
 43
10.0
 44
1.5
 45
0.0
 46
0.0
 47
0.0
 48
0.0
140
3.5
141
-5.0
142
0.0
143
25.399999999999999
144
-1.0
145
0.0
146
1.0
147
1.0
 71
     0
 72
     0
 73
     0
 74
     0
 75
     0
 76
     0
 77
     1
 78
     8
170
     0
171
     0
172
     1
173
     0
174
     0
175
     0
176
   256
177
   256
178
     2
  0
DIMSTYLE
  2
BYGG-027392$0$MASKIN
 70
     0
  3

  4

  5

  6

  7

 40
0.0
 41
3.0
 42
1.5
 43
10.0
 44
1.5
 45
0.0
 46
0.0
 47
0.0
 48
0.0
140
3.0
141
-5.0
142
0.0
143
25.399999999999999
144
-1.0
145
0.0
146
1.0
147
1.0
 71
     0
 72
     0
 73
     0
 74
     0
 75
     0
 76
     0
 77
     1
 78
     8
170
     0
171
     0
172
     1
173
     0
174
     0
175
     0
176
   256
177
   256
178
     2
  0
DIMSTYLE
  2
BYGG-027457$0$MASKIN
 70
     0
  3

  4

  5

  6

  7

 40
0.0
 41
3.0
 42
1.5
 43
10.0
 44
1.5
 45
0.0
 46
0.0
 47
0.0
 48
0.0
140
3.0
141
-5.0
142
0.0
143
25.399999999999999
144
-1.0
145
0.0
146
1.0
147
1.0
 71
     0
 72
     0
 73
     0
 74
     0
 75
     0
 76
     0
 77
     1
 78
     8
170
     0
171
     0
172
     1
173
     0
174
     0
175
     0
176
   256
177
   256
178
     2
  0
DIMSTYLE
  2
BYGG-027390$0$MASKIN
 70
     0
  3

  4

  5

  6

  7

 40
0.0
 41
3.0
 42
1.5
 43
10.0
 44
1.5
 45
0.0
 46
0.0
 47
0.0
 48
0.0
140
3.0
141
-5.0
142
0.0
143
25.399999999999999
144
-1.0
145
0.0
146
1.0
147
1.0
 71
     0
 72
     0
 73
     0
 74
     0
 75
     0
 76
     0
 77
     1
 78
     8
170
     0
171
     0
172
     1
173
     0
174
     0
175
     0
176
   256
177
   256
178
     2
  0
DIMSTYLE
  2
BYGG-027458$0$MASKIN
 70
     0
  3

  4

  5

  6

  7

 40
0.0
 41
3.0
 42
1.5
 43
10.0
 44
1.5
 45
0.0
 46
0.0
 47
0.0
 48
0.0
140
3.0
141
-5.0
142
0.0
143
25.399999999999999
144
-1.0
145
0.0
146
1.0
147
1.0
 71
     0
 72
     0
 73
     0
 74
     0
 75
     0
 76
     0
 77
     1
 78
     8
170
     0
171
     0
172
     1
173
     0
174
     0
175
     0
176
   256
177
   256
178
     2
  0
DIMSTYLE
  2
BYGG-027368$0$MASKIN
 70
     0
  3

  4

  5

  6

  7

 40
0.0
 41
3.0
 42
1.5
 43
10.0
 44
1.5
 45
0.0
 46
0.0
 47
0.0
 48
0.0
140
3.0
141
-5.0
142
0.0
143
25.399999999999999
144
-1.0
145
0.0
146
1.0
147
1.0
 71
     0
 72
     0
 73
     0
 74
     0
 75
     0
 76
     0
 77
     1
 78
     8
170
     0
171
     0
172
     1
173
     0
174
     0
175
     0
176
   256
177
   256
178
     2
  0
DIMSTYLE
  2
BYGG-027398$0$MASKIN
 70
     0
  3

  4

  5

  6

  7

 40
0.0
 41
3.0
 42
1.5
 43
10.0
 44
1.5
 45
0.0
 46
0.0
 47
0.0
 48
0.0
140
3.0
141
-5.0
142
0.0
143
25.399999999999999
144
-1.0
145
0.0
146
1.0
147
1.0
 71
     0
 72
     0
 73
     0
 74
     0
 75
     0
 76
     0
 77
     1
 78
     8
170
     0
171
     0
172
     1
173
     0
174
     0
175
     0
176
   256
177
   256
178
     2
  0
DIMSTYLE
  2
BYGG-027378$0$MASKIN
 70
     0
  3

  4

  5

  6

  7

 40
0.0
 41
3.0
 42
1.5
 43
10.0
 44
1.5
 45
0.0
 46
0.0
 47
0.0
 48
0.0
140
3.0
141
-5.0
142
0.0
143
25.399999999999999
144
-1.0
145
0.0
146
1.0
147
1.0
 71
     0
 72
     0
 73
     0
 74
     0
 75
     0
 76
     0
 77
     1
 78
     8
170
     0
171
     0
172
     1
173
     0
174
     0
175
     0
176
   256
177
   256
178
     2
  0
ENDTAB
  0
ENDSEC
  0
SECTION
  2
BLOCKS
  0
BLOCK
  8
0
  2
$MODEL_SPACE
 70
     0
 10
0.0
 20
0.0
 30
0.0
  3
$MODEL_SPACE
  1

  0
ENDBLK
  5
37
  8
0
  0
BLOCK
 67
     1
  8
0
  2
$PAPER_SPACE
 70
     0
 10
0.0
 20
0.0
 30
0.0
  3
$PAPER_SPACE
  1

  0
ENDBLK
  5
35
 67
     1
  8
0
  0
BLOCK
  8
0
  2
*D30
 70
     1
 10
0.0
 20
0.0
 30
0.0
  3
*D30
  1

  0
LINE
  5
1960
  8
SAPA_MATT
 10
25.00000000000011
 20
138.9999999277548
 30
0.0
 11
25.00000000000011
 21
160.4999999277548
 31
0.0
  0
LINE
  5
1961
  8
SAPA_MATT
 10
19.999999999996412
 20
132.2499999276952
 30
0.0
 11
19.999999999996412
 21
160.4999999277548
 31
0.0
  0
LINE
  5
1962
  8
SAPA_MATT
 10
28.00000000000011
 20
158.9999999277548
 30
0.0
 11
31.000000000000121
 21
158.9999999277548
 31
0.0
  0
LINE
  5
1963
  8
SAPA_MATT
 10
16.999999999996412
 20
158.9999999277548
 30
0.0
 11
13.99999999999641
 21
158.9999999277548
 31
0.0
  0
LINE
  5
1964
  8
SAPA_MATT
 10
25.00000000000011
 20
158.9999999277548
 30
0.0
 11
19.999999999996412
 21
158.9999999277548
 31
0.0
  0
SOLID
  5
1965
  8
SAPA_MATT
 10
28.00000000000011
 20
159.4999999277548
 30
0.0
 11
28.00000000000011
 21
158.4999999277548
 31
0.0
 12
25.00000000000011
 22
158.9999999277548
 32
0.0
 13
25.00000000000011
 23
158.9999999277548
 33
0.0
  0
SOLID
  5
1966
  8
SAPA_MATT
 10
16.999999999996412
 20
159.4999999277548
 30
0.0
 11
16.999999999996412
 21
158.4999999277548
 31
0.0
 12
19.999999999996412
 22
158.9999999277548
 32
0.0
 13
19.999999999996412
 23
158.9999999277548
 33
0.0
  0
TEXT
  8
SAPA_MATT
  40
3.5
  5
197B
  62
2
  72
0
  71
0
 10
15.5000
 20
155.555
 30
0.000000
  1
5
  7
ISO
  0
POINT
  5
1968
  8
DEFPOINTS
 62
     0
 10
25.00000000000011
 20
137.49999992775469
 30
0.0
  0
POINT
  5
1969
  8
DEFPOINTS
 62
     0
 10
19.999999999996412
 20
130.7499999276952
 30
0.0
  0
POINT
  5
196A
  8
DEFPOINTS
 62
     0
 10
19.999999999996412
 20
158.9999999277548
 30
0.0
  0
ENDBLK
  5
11F9
  8
0
  0
BLOCK
  8
0
  2
*D31
 70
     1
 10
0.0
 20
0.0
 30
0.0
  3
*D31
  1

  0
LINE
  5
127C
  8
SAPA_MATT
 10
25.00000000000011
 20
138.9999999277548
 30
0.0
 11
-20.499999999999972
 21
138.9999999277548
 31
0.0
  0
LINE
  5
127D
  8
SAPA_MATT
 10
33.500000000174673
 20
132.4999999276761
 30
0.0
 11
-20.499999999999979
 21
132.4999999276761
 31
0.0
  0
LINE
  5
127E
  8
SAPA_MATT
 10
-18.999999999999972
 20
141.9999999277548
 30
0.0
 11
-18.999999999999972
 21
144.99999992775469
 31
0.0
  0
LINE
  5
127F
  8
SAPA_MATT
 10
-18.999999999999979
 20
129.4999999276761
 30
0.0
 11
-18.999999999999979
 21
126.4999999276761
 31
0.0
  0
LINE
  5
1280
  8
SAPA_MATT
 10
-18.999999999999972
 20
138.9999999277548
 30
0.0
 11
-18.999999999999979
 21
132.4999999276761
 31
0.0
  0
SOLID
  5
1281
  8
SAPA_MATT
 10
-19.499999999999972
 20
141.9999999277548
 30
0.0
 11
-18.499999999999972
 21
141.9999999277548
 31
0.0
 12
-18.999999999999972
 22
138.9999999277548
 32
0.0
 13
-18.999999999999972
 23
138.9999999277548
 33
0.0
  0
SOLID
  5
1282
  8
SAPA_MATT
 10
-19.499999999999979
 20
129.4999999276761
 30
0.0
 11
-18.499999999999979
 21
129.4999999276761
 31
0.0
 12
-18.999999999999979
 22
132.4999999276761
 32
0.0
 13
-18.999999999999979
 23
132.4999999276761
 33
0.0
  0
INSERT
  5
1283
  8
0
  2
*U48
 10
0.0
 20
0.0
 30
0.0
  0
POINT
  5
1284
  8
DEFPOINTS
 62
     0
 10
26.50000000000011
 20
138.9999999277548
 30
0.0
  0
POINT
  5
1285
  8
DEFPOINTS
 62
     0
 10
35.000000000174673
 20
132.4999999276761
 30
0.0
  0
POINT
  5
1286
  8
DEFPOINTS
 62
     0
 10
-18.999999999999979
 20
132.4999999276761
 30
0.0
  0
ENDBLK
  5
1207
  8
0
  0
BLOCK
  8
0
  2
*D32
 70
     1
 10
0.0
 20
0.0
 30
0.0
  3
*D32
  1

  0
LINE
  5
1957
  8
SAPA_MATT
 10
33.500000000174673
 20
132.4999999276761
 30
0.0
 11
-20.499999999999979
 21
132.4999999276761
 31
0.0
  0
LINE
  5
1958
  8
SAPA_MATT
 10
33.500000000174708
 20
85.499999928367828
 30
0.0
 11
-20.5
 21
85.499999928367842
 31
0.0
  0
LINE
  5
1959
  8
SAPA_MATT
 10
-18.999999999999989
 20
129.4999999276761
 30
0.0
 11
-19.0
 21
88.499999928367828
 31
0.0
  0
SOLID
  5
195A
  8
SAPA_MATT
 10
-19.499999999999989
 20
129.4999999276761
 30
0.0
 11
-18.499999999999989
 21
129.4999999276761
 31
0.0
 12
-18.999999999999989
 22
132.4999999276761
 32
0.0
 13
-18.999999999999989
 23
132.4999999276761
 33
0.0
  0
SOLID
  5
195B
  8
SAPA_MATT
 10
-19.5
 20
88.499999928367828
 30
0.0
 11
-18.499999999999989
 21
88.499999928367828
 31
0.0
 12
-19.0
 22
85.499999928367842
 32
0.0
 13
-19.0
 23
85.499999928367842
 33
0.0
  0
TEXT
  8
SAPA_MATT
  40
3.5
  5
197C
  62
2
  72
0
  71
0
 10
-28.7500
 20
102.805
 30
0.000000
  1
47
  7
ISO
  0
POINT
  5
195D
  8
DEFPOINTS
 62
     0
 10
35.000000000174673
 20
132.4999999276761
 30
0.0
  0
POINT
  5
195E
  8
DEFPOINTS
 62
     0
 10
35.000000000174708
 20
85.499999928367828
 30
0.0
  0
POINT
  5
195F
  8
DEFPOINTS
 62
     0
 10
-19.0
 20
85.499999928367842
 30
0.0
  0
ENDBLK
  5
1215
  8
0
  0
BLOCK
  8
0
  2
*D33
 70
     1
 10
0.0
 20
0.0
 30
0.0
  3
*D33
  1

  0
LINE
  5
194E
  8
SAPA_MATT
 10
33.500000000174708
 20
85.499999928367828
 30
0.0
 11
-20.499999999999989
 21
85.499999928367842
 31
0.0
  0
LINE
  5
194F
  8
SAPA_MATT
 10
23.000000000000139
 20
13.99999992825272
 30
0.0
 11
-20.5
 21
13.999999928252731
 31
0.0
  0
LINE
  5
1950
  8
SAPA_MATT
 10
-18.999999999999979
 20
82.499999928367842
 30
0.0
 11
-19.0
 21
16.999999928252731
 31
0.0
  0
TEXT
  8
SAPA_MATT
  40
3.5
  5
197D
  62
2
  72
0
  71
0
 10
-27.9895
 20
43.9473
 30
0.000000
  1
71.5
  7
ISO
  0
SOLID
  5
1952
  8
SAPA_MATT
 10
-19.499999999999979
 20
82.499999928367842
 30
0.0
 11
-18.499999999999979
 21
82.499999928367842
 31
0.0
 12
-18.999999999999979
 22
85.499999928367842
 32
0.0
 13
-18.999999999999979
 23
85.499999928367842
 33
0.0
  0
SOLID
  5
1953
  8
SAPA_MATT
 10
-19.5
 20
16.999999928252731
 30
0.0
 11
-18.5
 21
16.999999928252731
 31
0.0
 12
-19.0
 22
13.999999928252731
 32
0.0
 13
-19.0
 23
13.999999928252731
 33
0.0
  0
POINT
  5
1954
  8
DEFPOINTS
 62
     0
 10
35.000000000174708
 20
85.499999928367828
 30
0.0
  0
POINT
  5
1955
  8
DEFPOINTS
 62
     0
 10
24.500000000000139
 20
13.99999992825272
 30
0.0
  0
POINT
  5
1956
  8
DEFPOINTS
 62
     0
 10
-19.0
 20
13.999999928252731
 30
0.0
  0
ENDBLK
  5
1221
  8
0
  0
BLOCK
  8
0
  2
*D34
 70
     1
 10
0.0
 20
0.0
 30
0.0
  3
*D34
  1

  0
LINE
  5
1261
  8
SAPA_MATT
 10
25.00000000000011
 20
138.9999999277548
 30
0.0
 11
-32.49999999999995
 21
138.9999999277548
 31
0.0
  0
LINE
  5
1262
  8
SAPA_MATT
 10
23.000000000000139
 20
13.99999992825272
 30
0.0
 11
-32.499999999999972
 21
13.999999928252731
 31
0.0
  0
LINE
  5
1263
  8
SAPA_MATT
 10
-30.99999999999995
 20
135.99999992775469
 30
0.0
 11
-30.999999999999972
 21
16.999999928252731
 31
0.0
  0
SOLID
  5
1264
  8
SAPA_MATT
 10
-31.49999999999995
 20
135.99999992775469
 30
0.0
 11
-30.49999999999995
 21
135.99999992775469
 31
0.0
 12
-30.99999999999994
 22
138.9999999277548
 32
0.0
 13
-30.99999999999994
 23
138.9999999277548
 33
0.0
  0
SOLID
  5
1265
  8
SAPA_MATT
 10
-31.499999999999972
 20
16.999999928252731
 30
0.0
 11
-30.499999999999972
 21
16.999999928252731
 31
0.0
 12
-30.999999999999972
 22
13.999999928252731
 32
0.0
 13
-30.999999999999972
 23
13.999999928252731
 33
0.0
  0
INSERT
  5
1266
  8
0
  2
*U47
 10
0.0
 20
0.0
 30
0.0
  0
POINT
  5
1267
  8
DEFPOINTS
 62
     0
 10
26.50000000000011
 20
138.9999999277548
 30
0.0
  0
POINT
  5
1268
  8
DEFPOINTS
 62
     0
 10
24.500000000000139
 20
13.99999992825272
 30
0.0
  0
POINT
  5
1269
  8
DEFPOINTS
 62
     0
 10
-30.999999999999972
 20
13.999999928252731
 30
0.0
  0
ENDBLK
  5
122D
  8
0
  0
BLOCK
  8
0
  2
*D35
 70
     1
 10
0.0
 20
0.0
 30
0.0
  3
*D35
  1

  0
LINE
  5
1258
  8
SAPA_MATT
 10
85.0
 20
140.19999985599719
 30
0.0
 11
85.0
 21
160.49999985600741
 31
0.0
  0
LINE
  5
1259
  8
SAPA_MATT
 10
25.00000000000011
 20
138.99999985600729
 30
0.0
 11
25.00000000000011
 21
160.49999985600741
 31
0.0
  0
LINE
  5
125A
  8
SAPA_MATT
 10
82.0
 20
158.99999985600741
 30
0.0
 11
28.00000000000011
 21
158.99999985600741
 31
0.0
  0
SOLID
  5
125B
  8
SAPA_MATT
 10
82.0
 20
159.49999985600741
 30
0.0
 11
82.0
 21
158.49999985600741
 31
0.0
 12
85.0
 22
158.99999985600741
 32
0.0
 13
85.0
 23
158.99999985600741
 33
0.0
  0
SOLID
  5
125C
  8
SAPA_MATT
 10
28.00000000000011
 20
159.49999985600741
 30
0.0
 11
28.00000000000011
 21
158.49999985600741
 31
0.0
 12
25.00000000000011
 22
158.99999985600741
 32
0.0
 13
25.00000000000011
 23
158.99999985600741
 33
0.0
  0
INSERT
  5
125D
  8
0
  2
*U46
 10
0.0
 20
0.0
 30
0.0
  0
POINT
  5
125E
  8
DEFPOINTS
 62
     0
 10
85.0
 20
138.69999985599719
 30
0.0
  0
POINT
  5
125F
  8
DEFPOINTS
 62
     0
 10
25.00000000000011
 20
137.49999985600741
 30
0.0
  0
POINT
  5
1260
  8
DEFPOINTS
 62
     0
 10
25.00000000000011
 20
158.99999985600741
 30
0.0
  0
ENDBLK
  5
1239
  8
0
  0
BLOCK
  8
0
  2
*D36
 70
     1
 10
0.0
 20
0.0
 30
0.0
  3
*D36
  1

  0
LINE
  5
124F
  8
SAPA_MATT
 10
19.999999999996412
 20
132.2499999276952
 30
0.0
 11
19.999999999996412
 21
172.49999985600741
 31
0.0
  0
LINE
  5
1250
  8
SAPA_MATT
 10
85.0
 20
140.19999985599719
 30
0.0
 11
85.0
 21
172.49999985600741
 31
0.0
  0
LINE
  5
1251
  8
SAPA_MATT
 10
22.999999999996412
 20
170.99999985600741
 30
0.0
 11
82.0
 21
170.99999985600741
 31
0.0
  0
SOLID
  5
1252
  8
SAPA_MATT
 10
22.999999999996412
 20
171.49999985600741
 30
0.0
 11
22.999999999996412
 21
170.49999985600741
 31
0.0
 12
19.999999999996412
 22
170.99999985600741
 32
0.0
 13
19.999999999996412
 23
170.99999985600741
 33
0.0
  0
SOLID
  5
1253
  8
SAPA_MATT
 10
82.0
 20
171.49999985600741
 30
0.0
 11
82.0
 21
170.49999985600741
 31
0.0
 12
85.0
 22
170.99999985600741
 32
0.0
 13
85.0
 23
170.99999985600741
 33
0.0
  0
INSERT
  5
1254
  8
0
  2
*U45
 10
0.0
 20
0.0
 30
0.0
  0
POINT
  5
1255
  8
DEFPOINTS
 62
     0
 10
19.999999999996412
 20
130.7499999276952
 30
0.0
  0
POINT
  5
1256
  8
DEFPOINTS
 62
     0
 10
85.0
 20
138.69999985599719
 30
0.0
  0
POINT
  5
1257
  8
DEFPOINTS
 62
     0
 10
85.0
 20
170.99999985600741
 30
0.0
  0
ENDBLK
  5
1245
  8
0
  0
BLOCK
  8
0
  2
*X37
 70
     1
 10
0.0
 20
0.0
 30
0.0
  3
*X37
  1

  0
LINE
  5
12DF
  8
0
 62
     0
 10
34.610925691064118
 20
85.499999928235809
 30
0.0
 11
34.610341714441347
 21
85.500583904858559
 31
0.0
  0
LINE
  5
12E0
  8
0
 62
     0
 10
33.488393675930467
 20
85.499999928235809
 30
0.0
 11
33.479501387045303
 21
85.508892217120973
 31
0.0
  0
LINE
  5
12E1
  8
0
 62
     0
 10
32.718558811822888
 20
85.147302777209745
 30
0.0
 11
32.338616646746701
 21
85.527244942285932
 31
0.0
  0
LINE
  5
12E2
  8
0
 62
     0
 10
32.718558811822888
 20
84.024770762076102
 30
0.0
 11
31.187410548413421
 21
85.555919025485565
 31
0.0
  0
LINE
  5
12E3
  8
0
 62
     0
 10
32.448999924841551
 20
83.171797633923788
 30
0.0
 11
30.02559065868553
 21
85.595206900079816
 31
0.0
  0
LINE
  5
12E4
  8
0
 62
     0
 10
33.668558811798611
 20
81.952238746966742
 30
0.0
 11
33.120797630306797
 21
82.499999928458564
 31
0.0
  0
LINE
  5
12E5
  8
0
 62
     0
 10
33.536653457478323
 20
80.961612086153366
 30
0.0
 11
28.85284782211318
 21
85.645417721518527
 31
0.0
  0
LINE
  5
12E6
  8
0
 62
     0
 10
32.5757336000366
 20
80.799999928461446
 30
0.0
 11
27.668854796987379
 21
85.70687873151067
 31
0.0
  0
LINE
  5
12E7
  8
0
 62
     0
 10
31.453201584902949
 20
80.799999928461446
 30
0.0
 11
26.47326474360483
 21
85.779936769759587
 31
0.0
  0
LINE
  5
12E8
  8
0
 62
     0
 10
30.330669569769309
 20
80.799999928461446
 30
0.0
 11
25.265709544935699
 21
85.86495995329507
 31
0.0
  0
LINE
  5
12E9
  8
0
 62
     0
 10
26.508137554639049
 20
83.499999928458067
 30
0.0
 11
25.168558811798619
 21
84.839578671298497
 31
0.0
  0
LINE
  5
12EA
  8
0
 62
     0
 10
29.20813755463567
 20
80.799999928461446
 30
0.0
 11
27.50813755463858
 21
82.499999928458564
 31
0.0
  0
LINE
  5
12EB
  8
0
 62
     0
 10
25.440596396652619
 20
83.445009071310864
 30
0.0
 11
25.168558811798619
 21
83.717046656164868
 31
0.0
  0
LINE
  5
12EC
  8
0
 62
     0
 10
28.08560553950203
 20
80.799999928461446
 30
0.0
 11
26.669017753897339
 21
82.216587714066137
 31
0.0
  0
LINE
  5
12ED
  8
0
 62
     0
 10
26.839745800443069
 20
80.923327652386774
 30
0.0
 11
26.791886535723918
 21
80.971186917105911
 31
0.0
  0
LINE
  5
12EE
  8
0
 62
     0
 10
32.531123277714777
 20
80.799999928461446
 30
0.0
 11
33.668558811798611
 21
81.937435462545295
 31
0.0
  0
LINE
  5
12EF
  8
0
 62
     0
 10
31.40859126258114
 20
80.799999928461446
 30
0.0
 11
33.108591262578223
 21
82.499999928458564
 31
0.0
  0
LINE
  5
12F0
  8
0
 62
     0
 10
34.986059247221839
 20
85.499999928235809
 30
0.0
 11
34.986059994621101
 21
85.500000675635064
 31
0.0
  0
LINE
  5
12F1
  8
0
 62
     0
 10
30.286059247447479
 20
80.799999928461446
 30
0.0
 11
32.418558811798611
 21
82.932499492812596
 31
0.0
  0
LINE
  5
12F2
  8
0
 62
     0
 10
33.863527232088188
 20
85.499999928235809
 30
0.0
 11
33.868451944620567
 21
85.504924640768195
 31
0.0
  0
LINE
  5
12F3
  8
0
 62
     0
 10
29.163527232313839
 20
80.799999928461446
 30
0.0
 11
32.718558811822888
 21
84.355031507970509
 31
0.0
  0
LINE
  5
12F4
  8
0
 62
     0
 10
32.740995216954573
 20
85.499999928235837
 30
0.0
 11
32.76029011189182
 21
85.519294823173084
 31
0.0
  0
LINE
  5
12F5
  8
0
 62
     0
 10
28.0409952171802
 20
80.799999928461446
 30
0.0
 11
32.718558811822888
 21
85.477563523104152
 31
0.0
  0
LINE
  5
12F6
  8
0
 62
     0
 10
26.962774028443171
 20
80.844310754858085
 30
0.0
 11
31.66134195617753
 21
85.542878682592416
 31
0.0
  0
LINE
  5
12F7
  8
0
 62
     0
 10
27.918558811798601
 20
82.922627553347155
 30
0.0
 11
30.57138623796887
 21
85.575454979517417
 31
0.0
  0
LINE
  5
12F8
  8
0
 62
     0
 10
26.668558811798601
 20
81.672627553347155
 30
0.0
 11
27.495931186909999
 21
82.499999928458564
 31
0.0
  0
LINE
  5
12F9
  8
0
 62
     0
 10
27.373399171776331
 20
83.499999928458521
 30
0.0
 11
29.49021227203967
 21
85.616813028721864
 31
0.0
  0
LINE
  5
12FA
  8
0
 62
     0
 10
26.250867156642101
 20
83.499999928457925
 30
0.0
 11
28.417619243732659
 21
85.666752015548497
 31
0.0
  0
LINE
  5
12FB
  8
0
 62
     0
 10
25.168558811798619
 20
83.540223598748085
 30
0.0
 11
27.353415581659409
 21
85.725080368608886
 31
0.0
  0
LINE
  5
12FC
  8
0
 62
     0
 10
25.168558811798619
 20
84.662755613881757
 30
0.0
 11
26.297418381219419
 21
85.79161518330254
 31
0.0
  0
LINE
  5
12FD
  8
0
 62
     0
 10
25.168558811798619
 20
85.785287629015386
 30
0.0
 11
25.24945287398868
 21
85.866181691205455
 31
0.0
  0
ENDBLK
  5
12FF
  8
0
  0
BLOCK
  8
0
  2
*X38
 70
     1
 10
0.0
 20
0.0
 30
0.0
  3
*X38
  1

  0
LINE
  5
1301
  8
0
 62
     0
 10
33.499999999999972
 20
136.0023342851803
 30
0.0
 11
32.302334357435562
 21
137.1999999277447
 31
0.0
  0
LINE
  5
1302
  8
0
 62
     0
 10
32.879802342297232
 20
135.4999999277494
 30
0.0
 11
31.179802342301919
 21
137.1999999277447
 31
0.0
  0
LINE
  5
1303
  8
0
 62
     0
 10
32.249999999999972
 20
135.00727025491301
 30
0.0
 11
30.057270327168268
 21
137.1999999277447
 31
0.0
  0
LINE
  5
1304
  8
0
 62
     0
 10
34.757496511748499
 20
132.49977374316441
 30
0.0
 11
34.757270327158068
 21
132.49999992775491
 31
0.0
  0
LINE
  5
1305
  8
0
 62
     0
 10
32.71855881182308
 20
133.41617942795619
 30
0.0
 11
28.934738312034639
 21
137.1999999277447
 31
0.0
  0
LINE
  5
1306
  8
0
 62
     0
 10
33.641833186765908
 20
132.4929050530134
 30
0.0
 11
33.634738312024432
 21
132.49999992775491
 31
0.0
  0
LINE
  5
1307
  8
0
 62
     0
 10
32.535567728364903
 20
132.4766384962808
 30
0.0
 11
27.812206296900989
 21
137.1999999277447
 31
0.0
  0
LINE
  5
1308
  8
0
 62
     0
 10
31.438469963402159
 20
132.4512042461098
 30
0.0
 11
26.754240727647971
 21
137.135433481864
 31
0.0
  0
LINE
  5
1309
  8
0
 62
     0
 10
27.267142266623502
 20
135.49999992775491
 30
0.0
 11
26.500000000004722
 21
136.26714219437369
 31
0.0
  0
LINE
  5
130A
  8
0
 62
     0
 10
30.35032086191428
 20
132.41682133246411
 30
0.0
 11
27.749999999999989
 21
135.01714219437841
 31
0.0
  0
LINE
  5
130B
  8
0
 62
     0
 10
29.27091180399594
 20
132.37369837524881
 30
0.0
 11
27.144610251489851
 21
134.49999992775491
 31
0.0
  0
LINE
  5
130C
  8
0
 62
     0
 10
28.200043908072669
 20
132.32203425603839
 30
0.0
 11
26.022078236356219
 21
134.49999992775491
 31
0.0
  0
LINE
  5
130D
  8
0
 62
     0
 10
27.137527414389972
 20
132.26201873458751
 30
0.0
 11
25.499999999999979
 21
133.89954614897749
 31
0.0
  0
LINE
  5
130E
  8
0
 62
     0
 10
26.083181118263571
 20
132.1938330155802
 30
0.0
 11
25.499999999999989
 21
132.77701413384381
 31
0.0
  0
LINE
  5
130F
  8
0
 62
     0
 10
34.839615675968098
 20
132.49990099259509
 30
0.0
 11
34.839714611127903
 21
132.49999992775491
 31
0.0
  0
LINE
  5
1310
  8
0
 62
     0
 10
33.710789889927213
 20
132.49360722168791
 30
0.0
 11
33.717182595994252
 21
132.49999992775491
 31
0.0
  0
LINE
  5
1311
  8
0
 62
     0
 10
32.571974339219913
 20
132.4773236861142
 30
0.0
 11
32.718558811823101
 21
132.6239081587174
 31
0.0
  0
LINE
  5
1312
  8
0
 62
     0
 10
31.4228950947229
 20
132.45077645675079
 30
0.0
 11
32.718558811823087
 21
133.746440173851
 31
0.0
  0
LINE
  5
1313
  8
0
 62
     0
 10
33.358260287667399
 20
135.50867366482899
 30
0.0
 11
33.49132626291496
 21
135.64173964007651
 31
0.0
  0
LINE
  5
1314
  8
0
 62
     0
 10
30.263262975961219
 20
132.41367635312281
 30
0.0
 11
32.449763805487002
 21
134.60017718264859
 31
0.0
  0
LINE
  5
1315
  8
0
 62
     0
 10
29.092772341904919
 20
132.3657177342001
 30
0.0
 11
33.495318158170107
 21
136.76826355046529
 31
0.0
  0
LINE
  5
1316
  8
0
 62
     0
 10
27.91109975467689
 20
132.30657716210581
 30
0.0
 11
32.804522520315849
 21
137.1999999277447
 31
0.0
  0
LINE
  5
1317
  8
0
 62
     0
 10
26.71790249942168
 20
132.23591192198421
 30
0.0
 11
31.681990505182199
 21
137.1999999277447
 31
0.0
  0
LINE
  5
1318
  8
0
 62
     0
 10
25.5128169409092
 20
132.15335837860539
 30
0.0
 11
30.559458490048559
 21
137.1999999277447
 31
0.0
  0
LINE
  5
1319
  8
0
 62
     0
 10
27.684733442160741
 20
135.44780689499049
 30
0.0
 11
29.436926474914909
 21
137.1999999277447
 31
0.0
  0
LINE
  5
131A
  8
0
 62
     0
 10
25.499999999999972
 20
133.26307345282979
 30
0.0
 11
26.736926474925099
 21
134.49999992775491
 31
0.0
  0
LINE
  5
131B
  8
0
 62
     0
 10
26.62785861658914
 20
135.5134640845526
 30
0.0
 11
28.314394459781258
 21
137.1999999277447
 31
0.0
  0
LINE
  5
131C
  8
0
 62
     0
 10
25.499999999999989
 20
134.38560546796339
 30
0.0
 11
25.614394459791459
 21
134.49999992775491
 31
0.0
  0
LINE
  5
131D
  8
0
 62
     0
 10
26.500000000002071
 20
136.5081374830992
 30
0.0
 11
27.191862444647619
 21
137.1999999277447
 31
0.0
  0
ENDBLK
  5
131F
  8
0
  0
BLOCK
  8
0
  2
*X39
 70
     1
 10
0.0
 20
0.0
 30
0.0
  3
*X39
  1

  0
LINE
  5
1321
  8
0
 62
     0
 10
25.209045112868608
 20
148.99999992775491
 30
0.0
 11
25.047131215853891
 21
148.83808603074019
 31
0.0
  0
LINE
  5
1322
  8
0
 62
     0
 10
26.331577128002252
 20
148.99999992775491
 30
0.0
 11
25.2815073216501
 21
147.94993012140279
 31
0.0
  0
LINE
  5
1323
  8
0
 62
     0
 10
27.454109143135899
 20
148.99999992775491
 30
0.0
 11
25.482518794995769
 21
147.02840957961479
 31
0.0
  0
LINE
  5
1324
  8
0
 62
     0
 10
28.576641158269549
 20
148.99999992775491
 30
0.0
 11
25.647217845656261
 21
146.07057661514159
 31
0.0
  0
LINE
  5
1325
  8
0
 62
     0
 10
29.699173173403189
 20
148.99999992775491
 30
0.0
 11
25.771942281115059
 21
145.07276903546679
 31
0.0
  0
LINE
  5
1326
  8
0
 62
     0
 10
30.821705188536829
 20
148.99999992775491
 30
0.0
 11
25.852065673764219
 21
144.0303604129823
 31
0.0
  0
LINE
  5
1327
  8
0
 62
     0
 10
31.944237203670479
 20
148.99999992775491
 30
0.0
 11
25.881618639247112
 21
142.93738136333161
 31
0.0
  0
LINE
  5
1328
  8
0
 62
     0
 10
33.066769218804112
 20
148.99999992775491
 30
0.0
 11
25.852689199649799
 21
141.78591990860059
 31
0.0
  0
LINE
  5
1329
  8
0
 62
     0
 10
34.189301233937762
 20
148.99999992775491
 30
0.0
 11
25.75442037799338
 21
140.5651190718105
 31
0.0
  0
LINE
  5
132A
  8
0
 62
     0
 10
32.077919887211777
 20
145.76608656589531
 30
0.0
 11
25.571213607780319
 21
139.2593802864638
 31
0.0
  0
LINE
  5
132B
  8
0
 62
     0
 10
35.311833249071398
 20
148.99999992775491
 30
0.0
 11
34.751823390973414
 21
148.43999006965689
 31
0.0
  0
LINE
  5
132C
  8
0
 62
     0
 10
31.725104764860589
 20
144.2907394284104
 30
0.0
 11
26.432862007604601
 21
138.9984966711545
 31
0.0
  0
LINE
  5
132D
  8
0
 62
     0
 10
36.434365264205042
 20
148.99999992775491
 30
0.0
 11
36.358001422471361
 21
148.92363608602119
 31
0.0
  0
LINE
  5
132E
  8
0
 62
     0
 10
31.783283069945909
 20
143.22638571836211
 30
0.0
 11
27.556897279338681
 21
138.99999992775491
 31
0.0
  0
LINE
  5
132F
  8
0
 62
     0
 10
32.030183777483387
 20
142.350754410766
 30
0.0
 11
28.67942929447231
 21
138.99999992775491
 31
0.0
  0
LINE
  5
1330
  8
0
 62
     0
 10
32.404137113186849
 20
141.60217573133579
 30
0.0
 11
29.80196130960595
 21
138.99999992775491
 31
0.0
  0
LINE
  5
1331
  8
0
 62
     0
 10
32.878797021850353
 20
140.95430362486559
 30
0.0
 11
30.924493324739569
 21
138.99999992775491
 31
0.0
  0
LINE
  5
1332
  8
0
 62
     0
 10
33.44184012877227
 20
140.39481471665391
 30
0.0
 11
32.047025339873208
 21
138.99999992775491
 31
0.0
  0
LINE
  5
1333
  8
0
 62
     0
 10
34.088719067232873
 20
139.9191616399809
 30
0.0
 11
33.169557355006837
 21
138.99999992775491
 31
0.0
  0
LINE
  5
1334
  8
0
 62
     0
 10
34.820841696821923
 20
139.52875225443631
 30
0.0
 11
34.292089370140488
 21
138.9999999277548
 31
0.0
  0
LINE
  5
1335
  8
0
 62
     0
 10
35.646108925702961
 20
139.2314874681837
 30
0.0
 11
35.414621385274117
 21
138.9999999277548
 31
0.0
  0
LINE
  5
1336
  8
0
 62
     0
 10
36.582373814368353
 20
139.04522034171541
 30
0.0
 11
36.537153400407753
 21
138.9999999277548
 31
0.0
  0
LINE
  5
1337
  8
0
 62
     0
 10
37.035082384001868
 20
148.99279897802481
 30
0.0
 11
37.027881434271833
 21
148.99999992775491
 31
0.0
  0
LINE
  5
1338
  8
0
 62
     0
 10
36.040163568264241
 20
148.8651857786289
 30
0.0
 11
35.905349419138211
 21
148.9999999277548
 31
0.0
  0
LINE
  5
1339
  8
0
 62
     0
 10
35.169401614037973
 20
148.61341571772149
 30
0.0
 11
34.782817404004561
 21
148.99999992775491
 31
0.0
  0
LINE
  5
133A
  8
0
 62
     0
 10
34.397992255913607
 20
148.26229306071221
 30
0.0
 11
33.660285388870932
 21
148.9999999277548
 31
0.0
  0
LINE
  5
133B
  8
0
 62
     0
 10
33.714366726127523
 20
147.82338657536459
 30
0.0
 11
32.53775337373726
 21
148.99999992775491
 31
0.0
  0
LINE
  5
133C
  8
0
 62
     0
 10
33.114478245049057
 20
147.3007430413094
 30
0.0
 11
31.415221358603631
 21
148.9999999277548
 31
0.0
  0
LINE
  5
133D
  8
0
 62
     0
 10
32.60019837540856
 20
146.69249089581629
 30
0.0
 11
30.292689343469998
 21
148.9999999277548
 31
0.0
  0
LINE
  5
133E
  8
0
 62
     0
 10
32.180034872221391
 20
145.99012238386979
 30
0.0
 11
29.17015732833632
 21
148.99999992775491
 31
0.0
  0
LINE
  5
133F
  8
0
 62
     0
 10
31.872927364266761
 20
145.1746978766908
 30
0.0
 11
28.04762531320269
 21
148.99999992775491
 31
0.0
  0
LINE
  5
1340
  8
0
 62
     0
 10
31.72031030042346
 20
144.20478292540051
 30
0.0
 11
26.925093298069051
 21
148.99999992775491
 31
0.0
  0
LINE
  5
1341
  8
0
 62
     0
 10
36.925093298069172
 20
138.9999999277548
 30
0.0
 11
36.910718180287738
 21
139.01437504553621
 31
0.0
  0
LINE
  5
1342
  8
0
 62
     0
 10
31.837271770588082
 20
142.9652894401022
 30
0.0
 11
25.802561282935411
 21
148.99999992775491
 31
0.0
  0
LINE
  5
1343
  8
0
 62
     0
 10
35.8025612829355
 20
138.9999999277548
 30
0.0
 11
35.540393800976382
 21
139.2621674097139
 31
0.0
  0
LINE
  5
1344
  8
0
 62
     0
 10
34.680029267801871
 20
138.9999999277548
 30
0.0
 11
25.12669999092223
 21
148.55332920463439
 31
0.0
  0
LINE
  5
1345
  8
0
 62
     0
 10
33.557497252668178
 20
138.9999999277548
 30
0.0
 11
25.471114947087969
 21
147.086382233335
 31
0.0
  0
LINE
  5
1346
  8
0
 62
     0
 10
32.434965237534541
 20
138.9999999277548
 30
0.0
 11
25.69360821785116
 21
145.74135694743819
 31
0.0
  0
LINE
  5
1347
  8
0
 62
     0
 10
31.312433222400902
 20
138.9999999277548
 30
0.0
 11
25.823058233671858
 21
144.48937491648391
 31
0.0
  0
LINE
  5
1348
  8
0
 62
     0
 10
30.189901207267219
 20
138.99999992775491
 30
0.0
 11
25.877743114745972
 21
143.31215802027609
 31
0.0
  0
LINE
  5
1349
  8
0
 62
     0
 10
29.06736919213354
 20
138.99999992775491
 30
0.0
 11
25.870104048942991
 21
142.19726507094541
 31
0.0
  0
LINE
  5
134A
  8
0
 62
     0
 10
27.944837176999911
 20
138.99999992775491
 30
0.0
 11
25.809059446097042
 21
141.13577765865779
 31
0.0
  0
LINE
  5
134B
  8
0
 62
     0
 10
26.82230516186624
 20
138.99999992775491
 30
0.0
 11
25.701254053152031
 21
140.12105103646911
 31
0.0
  0
LINE
  5
134C
  8
0
 62
     0
 10
25.848597711055479
 20
138.85117536343199
 30
0.0
 11
25.55178756325337
 21
139.14798551123411
 31
0.0
  0
ENDBLK
  5
134E
  8
0
  0
BLOCK
  8
0
  2
*X40
 70
     1
 10
0.0
 20
0.0
 30
0.0
  3
*X40
  1

  0
LINE
  5
1350
  8
0
 62
     0
 10
38.256266347423832
 20
148.43122837831021
 30
0.0
 11
37.568858683169928
 21
148.8281033783102
 31
0.0
  0
LINE
  5
1351
  8
0
 62
     0
 10
40.318489340185508
 20
147.2406033783102
 30
0.0
 11
39.631081675931618
 21
147.63747837831019
 31
0.0
  0
LINE
  5
1352
  8
0
 62
     0
 10
42.380712332947212
 20
146.04997837831019
 30
0.0
 11
41.693304668693308
 21
146.44685337831021
 31
0.0
  0
LINE
  5
1353
  8
0
 62
     0
 10
35.506635854662122
 20
148.43122866280629
 30
0.0
 11
35.18260723401589
 21
148.6183066741616
 31
0.0
  0
LINE
  5
1354
  8
0
 62
     0
 10
37.568858847423812
 20
147.24060366280631
 30
0.0
 11
36.881451183169922
 21
147.6374786628063
 31
0.0
  0
LINE
  5
1355
  8
0
 62
     0
 10
39.631081840185502
 20
146.0499786628063
 30
0.0
 11
38.943674175931612
 21
146.44685366280629
 31
0.0
  0
LINE
  5
1356
  8
0
 62
     0
 10
41.693304832947192
 20
144.8593536628064
 30
0.0
 11
41.005897168693288
 21
145.25622866280631
 31
0.0
  0
LINE
  5
1357
  8
0
 62
     0
 10
34.81922835466213
 20
147.24060394730239
 30
0.0
 11
34.131820690408233
 21
147.63747894730241
 31
0.0
  0
LINE
  5
1358
  8
0
 62
     0
 10
36.881451347423813
 20
146.04997894730241
 30
0.0
 11
36.194043683169923
 21
146.4468539473024
 31
0.0
  0
LINE
  5
1359
  8
0
 62
     0
 10
38.943674340185503
 20
144.8593539473024
 30
0.0
 11
38.256266675931613
 21
145.25622894730239
 31
0.0
  0
LINE
  5
135A
  8
0
 62
     0
 10
41.005897332947193
 20
143.66872894730241
 30
0.0
 11
40.318489668693289
 21
144.06560394730241
 31
0.0
  0
LINE
  5
135B
  8
0
 62
     0
 10
42.752234571147952
 20
142.66048067273141
 30
0.0
 11
42.380712661454993
 21
142.87497894730251
 31
0.0
  0
LINE
  5
135C
  8
0
 62
     0
 10
34.131820854662131
 20
146.04997923179849
 30
0.0
 11
33.444413190408241
 21
146.44685423179851
 31
0.0
  0
LINE
  5
135D
  8
0
 62
     0
 10
36.194043847423821
 20
144.85935423179851
 30
0.0
 11
35.506636183169917
 21
145.2562292317985
 31
0.0
  0
LINE
  5
135E
  8
0
 62
     0
 10
38.256266840185511
 20
143.66872923179849
 30
0.0
 11
37.568859175931607
 21
144.06560423179849
 31
0.0
  0
LINE
  5
135F
  8
0
 62
     0
 10
40.318489832947201
 20
142.47810423179851
 30
0.0
 11
39.631082168693311
 21
142.87497923179851
 31
0.0
  0
LINE
  5
1360
  8
0
 62
     0
 10
42.151471112402326
 20
141.41983199668559
 30
0.0
 11
41.693305161454987
 21
141.68435423179861
 31
0.0
  0
LINE
  5
1361
  8
0
 62
     0
 10
33.444413354662153
 20
144.85935451629459
 30
0.0
 11
32.757005690408263
 21
145.25622951629461
 31
0.0
  0
LINE
  5
1362
  8
0
 62
     0
 10
35.506636347423843
 20
143.6687295162946
 30
0.0
 11
34.819228683169953
 21
144.0656045162946
 31
0.0
  0
LINE
  5
1363
  8
0
 62
     0
 10
37.56885934018554
 20
142.47810451629459
 30
0.0
 11
36.881451675931643
 21
142.87497951629459
 31
0.0
  0
LINE
  5
1364
  8
0
 62
     0
 10
39.631082332947223
 20
141.2874795162947
 30
0.0
 11
38.943674668693333
 21
141.6843545162946
 31
0.0
  0
LINE
  5
1365
  8
0
 62
     0
 10
41.209525994195758
 20
140.37616464357211
 30
0.0
 11
41.005897661455009
 21
140.49372951629471
 31
0.0
  0
LINE
  5
1366
  8
0
 62
     0
 10
32.757005854662133
 20
143.66872980079069
 30
0.0
 11
32.069598190408229
 21
144.06560480079071
 31
0.0
  0
LINE
  5
1367
  8
0
 62
     0
 10
34.819228847423808
 20
142.4781048007907
 30
0.0
 11
34.131821183169919
 21
142.8749798007907
 31
0.0
  0
LINE
  5
1368
  8
0
 62
     0
 10
36.881451840185512
 20
141.28747980079069
 30
0.0
 11
36.194044175931609
 21
141.68435480079069
 31
0.0
  0
LINE
  5
1369
  8
0
 62
     0
 10
38.943674832947202
 20
140.09685480079071
 30
0.0
 11
38.256267168693299
 21
140.4937298007907
 31
0.0
  0
LINE
  5
136A
  8
0
 62
     0
 10
32.069598354662119
 20
142.47810508528681
 30
0.0
 11
31.960118357818718
 21
142.54131339093519
 31
0.0
  0
LINE
  5
136B
  8
0
 62
     0
 10
34.131821347423809
 20
141.2874800852868
 30
0.0
 11
33.444413683169913
 21
141.6843550852868
 31
0.0
  0
LINE
  5
136C
  8
0
 62
     0
 10
36.194044340185499
 20
140.09685508528679
 30
0.0
 11
35.506636675931603
 21
140.49373008528681
 31
0.0
  0
LINE
  5
136D
  8
0
 62
     0
 10
38.028084744309183
 20
139.03797136426141
 30
0.0
 11
37.568859668693293
 21
139.3031050852868
 31
0.0
  0
LINE
  5
136E
  8
0
 62
     0
 10
33.44444341312547
 20
146.44684342094681
 30
0.0
 11
32.757035748871573
 21
146.04996842094681
 31
0.0
  0
LINE
  5
136F
  8
0
 62
     0
 10
35.506666405887159
 20
147.63746842094679
 30
0.0
 11
34.819258741633263
 21
147.24059342094679
 31
0.0
  0
LINE
  5
1370
  8
0
 62
     0
 10
37.568889398648849
 20
148.8280934209468
 30
0.0
 11
36.88148173439496
 21
148.43121842094681
 31
0.0
  0
LINE
  5
1371
  8
0
 62
     0
 10
32.069627920363779
 20
144.06559370544301
 30
0.0
 11
31.717722131996481
 21
143.86242080379969
 31
0.0
  0
LINE
  5
1372
  8
0
 62
     0
 10
34.131850913125469
 20
145.25621870544299
 30
0.0
 11
33.444443248871572
 21
144.859343705443
 31
0.0
  0
LINE
  5
1373
  8
0
 62
     0
 10
36.194073905887159
 20
146.446843705443
 30
0.0
 11
35.506666241633262
 21
146.04996870544289
 31
0.0
  0
LINE
  5
1374
  8
0
 62
     0
 10
38.256296898648849
 20
147.6374687054429
 30
0.0
 11
37.568889234394952
 21
147.2405937054429
 31
0.0
  0
LINE
  5
1375
  8
0
 62
     0
 10
39.765824059908986
 20
148.5089946183455
 30
0.0
 11
39.631112227156642
 21
148.43121870544289
 31
0.0
  0
LINE
  5
1376
  8
0
 62
     0
 10
32.757035420363771
 20
142.87496898993911
 30
0.0
 11
32.069627756109881
 21
142.47809398993911
 31
0.0
  0
LINE
  5
1377
  8
0
 62
     0
 10
34.819258413125461
 20
144.06559398993909
 30
0.0
 11
34.131850748871557
 21
143.66871898993909
 31
0.0
  0
LINE
  5
1378
  8
0
 62
     0
 10
36.881481405887151
 20
145.25621898993899
 30
0.0
 11
36.194073741633247
 21
144.85934398993899
 31
0.0
  0
LINE
  5
1379
  8
0
 62
     0
 10
38.94370439864884
 20
146.446843989939
 30
0.0
 11
38.256296734394951
 21
146.049968989939
 31
0.0
  0
LINE
  5
137A
  8
0
 62
     0
 10
41.00592739141053
 20
147.63746898993901
 30
0.0
 11
40.318519727156627
 21
147.24059398993899
 31
0.0
  0
LINE
  5
137B
  8
0
 62
     0
 10
33.444442920363777
 20
141.68434427443509
 30
0.0
 11
32.757035256109887
 21
141.28746927443521
 31
0.0
  0
LINE
  5
137C
  8
0
 62
     0
 10
35.506665913125467
 20
142.8749692744351
 30
0.0
 11
34.819258248871577
 21
142.47809427443511
 31
0.0
  0
LINE
  5
137D
  8
0
 62
     0
 10
37.568888905887171
 20
144.06559427443511
 30
0.0
 11
36.881481241633267
 21
143.66871927443509
 31
0.0
  0
LINE
  5
137E
  8
0
 62
     0
 10
39.631111898648861
 20
145.2562192744351
 30
0.0
 11
38.943704234394957
 21
144.8593442744351
 31
0.0
  0
LINE
  5
137F
  8
0
 62
     0
 10
41.693334891410537
 20
146.44684427443511
 30
0.0
 11
41.00592722715664
 21
146.04996927443511
 31
0.0
  0
LINE
  5
1380
  8
0
 62
     0
 10
34.131850420363762
 20
140.4937195589313
 30
0.0
 11
33.65747548317902
 21
140.21983906125081
 31
0.0
  0
LINE
  5
1381
  8
0
 62
     0
 10
36.194073413125452
 20
141.6843445589312
 30
0.0
 11
35.506665748871562
 21
141.28746955893121
 31
0.0
  0
LINE
  5
1382
  8
0
 62
     0
 10
38.256296405887142
 20
142.87496955893121
 30
0.0
 11
37.568888741633252
 21
142.47809455893119
 31
0.0
  0
LINE
  5
1383
  8
0
 62
     0
 10
40.318519398648831
 20
144.0655945589312
 30
0.0
 11
39.631111734394928
 21
143.6687195589312
 31
0.0
  0
LINE
  5
1384
  8
0
 62
     0
 10
42.380742391410507
 20
145.25621955893121
 30
0.0
 11
41.693334727156632
 21
144.85934455893121
 31
0.0
  0
LINE
  5
1385
  8
0
 62
     0
 10
36.881480913125458
 20
140.4937198434273
 30
0.0
 11
36.194073248871561
 21
140.09684484342731
 31
0.0
  0
LINE
  5
1386
  8
0
 62
     0
 10
38.943703905887148
 20
141.68434484342731
 30
0.0
 11
38.256296241633251
 21
141.28746984342729
 31
0.0
  0
LINE
  5
1387
  8
0
 62
     0
 10
41.005926898648838
 20
142.87496984342729
 30
0.0
 11
40.318519234394941
 21
142.4780948434273
 31
0.0
  0
LINE
  5
1388
  8
0
 62
     0
 10
42.957708276428669
 20
144.0018313472878
 30
0.0
 11
42.380742227156617
 21
143.66871984342731
 31
0.0
  0
LINE
  5
1389
  8
0
 62
     0
 10
37.568888413125478
 20
139.3030951279234
 30
0.0
 11
37.054805462279198
 21
139.00628919786649
 31
0.0
  0
LINE
  5
138A
  8
0
 62
     0
 10
39.631111405887182
 20
140.49372012792341
 30
0.0
 11
38.943703741633279
 21
140.09684512792339
 31
0.0
  0
LINE
  5
138B
  8
0
 62
     0
 10
41.693334398648858
 20
141.68434512792339
 30
0.0
 11
41.005926734394961
 21
141.2874701279234
 31
0.0
  0
LINE
  5
138C
  8
0
 62
     0
 10
42.380734999985123
 20
145.25625000001361
 30
0.0
 11
42.380734999985123
 21
146.0500000000136
 31
0.0
  0
LINE
  5
138D
  8
0
 62
     0
 10
42.380734999985123
 20
142.87500000001361
 30
0.0
 11
42.380734999985123
 21
143.6687500000136
 31
0.0
  0
LINE
  5
138E
  8
0
 62
     0
 10
41.005919999985117
 20
147.6375000000136
 30
0.0
 11
41.005919999985117
 21
147.78777218175779
 31
0.0
  0
LINE
  5
138F
  8
0
 62
     0
 10
41.005919999985117
 20
145.25625000001361
 30
0.0
 11
41.005919999985117
 21
146.0500000000136
 31
0.0
  0
LINE
  5
1390
  8
0
 62
     0
 10
41.005919999985117
 20
142.87500000001361
 30
0.0
 11
41.005919999985117
 21
143.6687500000136
 31
0.0
  0
LINE
  5
1391
  8
0
 62
     0
 10
41.005919999985117
 20
140.49375000001359
 30
0.0
 11
41.005919999985117
 21
141.28750000001361
 31
0.0
  0
LINE
  5
1392
  8
0
 62
     0
 10
39.631104999985141
 20
147.6375000000136
 30
0.0
 11
39.631104999985141
 21
148.43125000001359
 31
0.0
  0
LINE
  5
1393
  8
0
 62
     0
 10
39.631104999985141
 20
145.25625000001361
 30
0.0
 11
39.631104999985141
 21
146.0500000000136
 31
0.0
  0
LINE
  5
1394
  8
0
 62
     0
 10
39.631104999985141
 20
142.87500000001361
 30
0.0
 11
39.631104999985141
 21
143.6687500000136
 31
0.0
  0
LINE
  5
1395
  8
0
 62
     0
 10
39.631104999985141
 20
140.49375000001359
 30
0.0
 11
39.631104999985141
 21
141.28750000001361
 31
0.0
  0
LINE
  5
1396
  8
0
 62
     0
 10
38.256289999985142
 20
147.6375000000136
 30
0.0
 11
38.256289999985142
 21
148.43125000001359
 31
0.0
  0
LINE
  5
1397
  8
0
 62
     0
 10
38.256289999985142
 20
145.25625000001361
 30
0.0
 11
38.256289999985142
 21
146.0500000000136
 31
0.0
  0
LINE
  5
1398
  8
0
 62
     0
 10
38.256289999985142
 20
142.87500000001361
 30
0.0
 11
38.256289999985142
 21
143.6687500000136
 31
0.0
  0
LINE
  5
1399
  8
0
 62
     0
 10
38.256289999985142
 20
140.49375000001359
 30
0.0
 11
38.256289999985142
 21
141.28750000001361
 31
0.0
  0
LINE
  5
139A
  8
0
 62
     0
 10
36.88147499998513
 20
147.6375000000136
 30
0.0
 11
36.88147499998513
 21
148.43125000001359
 31
0.0
  0
LINE
  5
139B
  8
0
 62
     0
 10
36.88147499998513
 20
145.25625000001361
 30
0.0
 11
36.88147499998513
 21
146.0500000000136
 31
0.0
  0
LINE
  5
139C
  8
0
 62
     0
 10
36.88147499998513
 20
142.87500000001361
 30
0.0
 11
36.88147499998513
 21
143.6687500000136
 31
0.0
  0
LINE
  5
139D
  8
0
 62
     0
 10
36.88147499998513
 20
140.49375000001359
 30
0.0
 11
36.88147499998513
 21
141.28750000001361
 31
0.0
  0
LINE
  5
139E
  8
0
 62
     0
 10
35.506659999985132
 20
147.6375000000136
 30
0.0
 11
35.506659999985132
 21
148.43125000001359
 31
0.0
  0
LINE
  5
139F
  8
0
 62
     0
 10
35.506659999985132
 20
145.25625000001361
 30
0.0
 11
35.506659999985132
 21
146.0500000000136
 31
0.0
  0
LINE
  5
13A0
  8
0
 62
     0
 10
35.506659999985132
 20
142.87500000001361
 30
0.0
 11
35.506659999985132
 21
143.6687500000136
 31
0.0
  0
LINE
  5
13A1
  8
0
 62
     0
 10
35.506659999985132
 20
140.49375000001359
 30
0.0
 11
35.506659999985132
 21
141.28750000001361
 31
0.0
  0
LINE
  5
13A2
  8
0
 62
     0
 10
34.131844999985127
 20
147.6375000000136
 30
0.0
 11
34.131844999985127
 21
148.10772746508269
 31
0.0
  0
LINE
  5
13A3
  8
0
 62
     0
 10
34.131844999985127
 20
145.25625000001361
 30
0.0
 11
34.131844999985127
 21
146.0500000000136
 31
0.0
  0
LINE
  5
13A4
  8
0
 62
     0
 10
34.131844999985127
 20
142.87500000001361
 30
0.0
 11
34.131844999985127
 21
143.6687500000136
 31
0.0
  0
LINE
  5
13A5
  8
0
 62
     0
 10
34.131844999985127
 20
140.49375000001359
 30
0.0
 11
34.131844999985127
 21
141.28750000001361
 31
0.0
  0
LINE
  5
13A6
  8
0
 62
     0
 10
32.757029999985129
 20
145.25625000001361
 30
0.0
 11
32.757029999985129
 21
146.0500000000136
 31
0.0
  0
LINE
  5
13A7
  8
0
 62
     0
 10
32.757029999985129
 20
142.87500000001361
 30
0.0
 11
32.757029999985129
 21
143.6687500000136
 31
0.0
  0
LINE
  5
13A8
  8
0
 62
     0
 10
32.757029999985129
 20
141.1007687474137
 30
0.0
 11
32.757029999985129
 21
141.28750000001361
 31
0.0
  0
ENDBLK
  5
13AA
  8
0
  0
BLOCK
  8
0
  2
*X41
 70
     1
 10
0.0
 20
0.0
 30
0.0
  3
*X41
  1

  0
LINE
  5
1890
  8
0
 62
     0
 10
25.379439257847562
 20
90.733094549992842
 30
0.0
 11
25.533837238652669
 21
90.887492530797957
 31
0.0
  0
LINE
  5
1891
  8
0
 62
     0
 10
24.523812621047949
 20
90.999999928326872
 30
0.0
 11
25.77414216105376
 21
92.25032946833268
 31
0.0
  0
LINE
  5
1892
  8
0
 62
     0
 10
23.024408764204789
 20
89.500596071483727
 30
0.0
 11
23.499403856839631
 21
89.975591164118555
 31
0.0
  0
LINE
  5
1893
  8
0
 62
     0
 10
21.909532987578942
 20
89.508252309991519
 30
0.0
 11
25.664393728911399
 21
93.263113051323984
 31
0.0
  0
LINE
  5
1894
  8
0
 62
     0
 10
25.574013487209388
 20
94.295264824755606
 30
0.0
 11
26.278748590654502
 21
94.999999928200722
 31
0.0
  0
LINE
  5
1895
  8
0
 62
     0
 10
21.499999999988582
 20
90.221251337534795
 30
0.0
 11
25.14750185092403
 21
93.868753188470237
 31
0.0
  0
LINE
  5
1896
  8
0
 62
     0
 10
21.15621657516586
 20
90.999999927845735
 30
0.0
 11
25.156216575520851
 21
94.999999928200722
 31
0.0
  0
LINE
  5
1897
  8
0
 62
     0
 10
20.239895537477501
 20
91.206210905290973
 30
0.0
 11
24.033684560387218
 21
94.999999928200722
 31
0.0
  0
LINE
  5
1898
  8
0
 62
     0
 10
20.388631298579131
 20
92.477478681526264
 30
0.0
 11
22.911152545253579
 21
94.999999928200722
 31
0.0
  0
LINE
  5
1899
  8
0
 62
     0
 10
20.38451629941467
 20
93.59589569749545
 30
0.0
 11
21.788620530119939
 21
94.999999928200737
 31
0.0
  0
LINE
  5
189A
  8
0
 62
     0
 10
20.272299746320211
 20
94.606211159534666
 30
0.0
 11
20.666088514986289
 21
94.999999928200737
 31
0.0
  0
LINE
  5
189B
  8
0
 62
     0
 10
21.49999999999357
 20
90.588847382946511
 30
0.0
 11
22.58884745481063
 21
89.499999928129455
 31
0.0
  0
LINE
  5
189C
  8
0
 62
     0
 10
20.325454615564539
 20
91.763392767375535
 30
0.0
 11
21.08884745509479
 21
90.999999927845295
 31
0.0
  0
LINE
  5
189D
  8
0
 62
     0
 10
20.400518711666411
 20
92.810860686407295
 30
0.0
 11
23.443076278678632
 21
89.7683031193951
 31
0.0
  0
LINE
  5
189E
  8
0
 62
     0
 10
20.354132790696841
 20
93.979778622510509
 30
0.0
 11
23.502484561406838
 21
90.831426851800529
 31
0.0
  0
LINE
  5
189F
  8
0
 62
     0
 10
20.456443500140271
 20
94.999999928200737
 30
0.0
 11
24.456443500014139
 21
90.999999928326872
 31
0.0
  0
LINE
  5
18A0
  8
0
 62
     0
 10
21.578975515273921
 20
94.999999928200737
 30
0.0
 11
25.55746773100643
 21
91.021507712468235
 31
0.0
  0
LINE
  5
18A1
  8
0
 62
     0
 10
22.701507530407561
 20
94.999999928200737
 30
0.0
 11
25.725731049138641
 21
91.975776409469646
 31
0.0
  0
LINE
  5
18A2
  8
0
 62
     0
 10
25.585854333528498
 20
93.238185140213432
 30
0.0
 11
25.893994367270832
 21
92.930045106471098
 31
0.0
  0
LINE
  5
18A3
  8
0
 62
     0
 10
23.824039545541218
 20
94.999999928200694
 30
0.0
 11
25.15512313699816
 21
93.668916336743763
 31
0.0
  0
LINE
  5
18A4
  8
0
 62
     0
 10
24.946571560674862
 20
94.999999928200722
 30
0.0
 11
25.630681275823459
 21
94.315890213052114
 31
0.0
  0
LINE
  5
18A5
  8
0
 62
     0
 10
26.069103575808509
 20
94.999999928200722
 30
0.0
 11
26.453669920987991
 21
94.615433583021243
 31
0.0
  0
ENDBLK
  5
18A7
  8
0
  0
BLOCK
  8
0
  2
*X42
 70
     1
 10
0.0
 20
0.0
 30
0.0
  3
*X42
  1

  0
LINE
  5
18A9
  8
0
 62
     0
 10
26.215448212313589
 20
122.99999992820089
 30
0.0
 11
26.56096305173498
 21
123.3455147676223
 31
0.0
  0
LINE
  5
18AA
  8
0
 62
     0
 10
25.092916197179939
 20
122.99999992820089
 30
0.0
 11
25.737974406579141
 21
123.6450581376001
 31
0.0
  0
LINE
  5
18AB
  8
0
 62
     0
 10
25.701138757814981
 20
124.73075450396949
 30
0.0
 11
25.915025861329401
 21
124.944641607484
 31
0.0
  0
LINE
  5
18AC
  8
0
 62
     0
 10
23.970384182046299
 20
122.99999992820089
 30
0.0
 11
25.142490325075251
 21
124.17210607122981
 31
0.0
  0
LINE
  5
18AD
  8
0
 62
     0
 10
22.847852166912649
 20
122.99999992820089
 30
0.0
 11
25.747667558763631
 21
125.8998153200518
 31
0.0
  0
LINE
  5
18AE
  8
0
 62
     0
 10
21.725320151779009
 20
122.99999992820089
 30
0.0
 11
25.57940424064207
 21
126.8540840170639
 31
0.0
  0
LINE
  5
18AF
  8
0
 62
     0
 10
20.602788136645358
 20
122.99999992820089
 30
0.0
 11
24.602788136161529
 21
126.999999927717
 31
0.0
  0
LINE
  5
18B0
  8
0
 62
     0
 10
20.336612500135519
 20
123.85635630682469
 30
0.0
 11
23.549051681159661
 21
127.0687954878488
 31
0.0
  0
LINE
  5
18B1
  8
0
 62
     0
 10
20.402210804146019
 20
125.0444866259688
 30
0.0
 11
23.483834782898199
 21
128.12611060472099
 31
0.0
  0
LINE
  5
18B2
  8
0
 62
     0
 10
21.499999999995541
 20
127.264807836952
 30
0.0
 11
22.73519209088775
 21
128.49999992784419
 31
0.0
  0
LINE
  5
18B3
  8
0
 62
     0
 10
20.34091075945123
 20
126.1057185964077
 30
0.0
 11
21.235192091241199
 21
126.9999999281976
 31
0.0
  0
LINE
  5
18B4
  8
0
 62
     0
 10
20.251091422258519
 20
123.2686523844236
 30
0.0
 11
20.519743878481229
 21
122.99999992820089
 31
0.0
  0
LINE
  5
18B5
  8
0
 62
     0
 10
20.37536735617239
 20
124.2669084656433
 30
0.0
 11
21.642275893614869
 21
122.99999992820079
 31
0.0
  0
LINE
  5
18B6
  8
0
 62
     0
 10
20.395478445885789
 20
125.3693293910636
 30
0.0
 11
22.764807908748519
 21
122.99999992820079
 31
0.0
  0
LINE
  5
18B7
  8
0
 62
     0
 10
20.270574045228049
 20
126.616765806855
 30
0.0
 11
23.887339923882159
 21
122.99999992820089
 31
0.0
  0
LINE
  5
18B8
  8
0
 62
     0
 10
21.009871939017529
 20
126.9999999281991
 30
0.0
 11
25.009871939015799
 21
122.99999992820089
 31
0.0
  0
LINE
  5
18B9
  8
0
 62
     0
 10
21.499999999990521
 20
127.6324038823598
 30
0.0
 11
26.132403954149449
 21
122.99999992820079
 31
0.0
  0
LINE
  5
18BA
  8
0
 62
     0
 10
21.797692435377069
 20
128.4572434621069
 30
0.0
 11
25.487959143322509
 21
124.7669767541614
 31
0.0
  0
LINE
  5
18BB
  8
0
 62
     0
 10
24.37746798490058
 20
126.999999927717
 30
0.0
 11
25.805470743544682
 21
125.5719971690729
 31
0.0
  0
LINE
  5
18BC
  8
0
 62
     0
 10
22.877467984841751
 20
128.49999992777589
 30
0.0
 11
23.499999999996419
 21
127.8774679126212
 31
0.0
  0
LINE
  5
18BD
  8
0
 62
     0
 10
25.255031130765659
 20
127.2449687969856
 30
0.0
 11
25.565165821165309
 21
126.9348341065859
 31
0.0
  0
ENDBLK
  5
18BF
  8
0
  0
BLOCK
  8
0
  2
*X43
 70
     1
 10
0.0
 20
0.0
 30
0.0
  3
*X43
  1

  0
LINE
  5
18F6
  8
0
 62
     0
 10
25.379439257847562
 20
90.733094549992842
 30
0.0
 11
25.533837238652669
 21
90.887492530797957
 31
0.0
  0
LINE
  5
18F7
  8
0
 62
     0
 10
24.523812621047949
 20
90.999999928326872
 30
0.0
 11
25.77414216105376
 21
92.25032946833268
 31
0.0
  0
LINE
  5
18F8
  8
0
 62
     0
 10
23.024408764204789
 20
89.500596071483727
 30
0.0
 11
23.499403856839631
 21
89.975591164118555
 31
0.0
  0
LINE
  5
18F9
  8
0
 62
     0
 10
21.909532987578942
 20
89.508252309991519
 30
0.0
 11
25.664393728911399
 21
93.263113051323984
 31
0.0
  0
LINE
  5
18FA
  8
0
 62
     0
 10
25.574013487209388
 20
94.295264824755606
 30
0.0
 11
26.278748590654502
 21
94.999999928200722
 31
0.0
  0
LINE
  5
18FB
  8
0
 62
     0
 10
21.499999999988582
 20
90.221251337534795
 30
0.0
 11
25.14750185092403
 21
93.868753188470237
 31
0.0
  0
LINE
  5
18FC
  8
0
 62
     0
 10
21.15621657516586
 20
90.999999927845735
 30
0.0
 11
25.156216575520851
 21
94.999999928200722
 31
0.0
  0
LINE
  5
18FD
  8
0
 62
     0
 10
20.239895537477501
 20
91.206210905290973
 30
0.0
 11
24.033684560387218
 21
94.999999928200722
 31
0.0
  0
LINE
  5
18FE
  8
0
 62
     0
 10
20.388631298579131
 20
92.477478681526264
 30
0.0
 11
22.911152545253579
 21
94.999999928200722
 31
0.0
  0
LINE
  5
18FF
  8
0
 62
     0
 10
20.38451629941467
 20
93.59589569749545
 30
0.0
 11
21.788620530119939
 21
94.999999928200737
 31
0.0
  0
LINE
  5
1900
  8
0
 62
     0
 10
20.272299746320211
 20
94.606211159534666
 30
0.0
 11
20.666088514986289
 21
94.999999928200737
 31
0.0
  0
LINE
  5
1901
  8
0
 62
     0
 10
21.49999999999357
 20
90.588847382946511
 30
0.0
 11
22.58884745481063
 21
89.499999928129455
 31
0.0
  0
LINE
  5
1902
  8
0
 62
     0
 10
20.325454615564539
 20
91.763392767375535
 30
0.0
 11
21.08884745509479
 21
90.999999927845295
 31
0.0
  0
LINE
  5
1903
  8
0
 62
     0
 10
20.400518711666411
 20
92.810860686407295
 30
0.0
 11
23.443076278678632
 21
89.7683031193951
 31
0.0
  0
LINE
  5
1904
  8
0
 62
     0
 10
20.354132790696841
 20
93.979778622510509
 30
0.0
 11
23.502484561406838
 21
90.831426851800529
 31
0.0
  0
LINE
  5
1905
  8
0
 62
     0
 10
20.456443500140271
 20
94.999999928200737
 30
0.0
 11
24.456443500014139
 21
90.999999928326872
 31
0.0
  0
LINE
  5
1906
  8
0
 62
     0
 10
21.578975515273921
 20
94.999999928200737
 30
0.0
 11
25.55746773100643
 21
91.021507712468235
 31
0.0
  0
LINE
  5
1907
  8
0
 62
     0
 10
22.701507530407561
 20
94.999999928200737
 30
0.0
 11
25.725731049138641
 21
91.975776409469646
 31
0.0
  0
LINE
  5
1908
  8
0
 62
     0
 10
25.585854333528498
 20
93.238185140213432
 30
0.0
 11
25.893994367270832
 21
92.930045106471098
 31
0.0
  0
LINE
  5
1909
  8
0
 62
     0
 10
23.824039545541218
 20
94.999999928200694
 30
0.0
 11
25.15512313699816
 21
93.668916336743763
 31
0.0
  0
LINE
  5
190A
  8
0
 62
     0
 10
24.946571560674862
 20
94.999999928200722
 30
0.0
 11
25.630681275823459
 21
94.315890213052114
 31
0.0
  0
LINE
  5
190B
  8
0
 62
     0
 10
26.069103575808509
 20
94.999999928200722
 30
0.0
 11
26.453669920987991
 21
94.615433583021243
 31
0.0
  0
ENDBLK
  5
190D
  8
0
  0
BLOCK
  8
0
  2
*X44
 70
     1
 10
0.0
 20
0.0
 30
0.0
  3
*X44
  1

  0
LINE
  5
190F
  8
0
 62
     0
 10
26.215448212313589
 20
122.99999992820089
 30
0.0
 11
26.56096305173498
 21
123.3455147676223
 31
0.0
  0
LINE
  5
1910
  8
0
 62
     0
 10
25.092916197179939
 20
122.99999992820089
 30
0.0
 11
25.737974406579141
 21
123.6450581376001
 31
0.0
  0
LINE
  5
1911
  8
0
 62
     0
 10
25.701138757814981
 20
124.73075450396949
 30
0.0
 11
25.915025861329401
 21
124.944641607484
 31
0.0
  0
LINE
  5
1912
  8
0
 62
     0
 10
23.970384182046299
 20
122.99999992820089
 30
0.0
 11
25.142490325075251
 21
124.17210607122981
 31
0.0
  0
LINE
  5
1913
  8
0
 62
     0
 10
22.847852166912649
 20
122.99999992820089
 30
0.0
 11
25.747667558763631
 21
125.8998153200518
 31
0.0
  0
LINE
  5
1914
  8
0
 62
     0
 10
21.725320151779009
 20
122.99999992820089
 30
0.0
 11
25.57940424064207
 21
126.8540840170639
 31
0.0
  0
LINE
  5
1915
  8
0
 62
     0
 10
20.602788136645358
 20
122.99999992820089
 30
0.0
 11
24.602788136161529
 21
126.999999927717
 31
0.0
  0
LINE
  5
1916
  8
0
 62
     0
 10
20.336612500135519
 20
123.85635630682469
 30
0.0
 11
23.549051681159661
 21
127.0687954878488
 31
0.0
  0
LINE
  5
1917
  8
0
 62
     0
 10
20.402210804146019
 20
125.0444866259688
 30
0.0
 11
23.483834782898199
 21
128.12611060472099
 31
0.0
  0
LINE
  5
1918
  8
0
 62
     0
 10
21.499999999995541
 20
127.264807836952
 30
0.0
 11
22.73519209088775
 21
128.49999992784419
 31
0.0
  0
LINE
  5
1919
  8
0
 62
     0
 10
20.34091075945123
 20
126.1057185964077
 30
0.0
 11
21.235192091241199
 21
126.9999999281976
 31
0.0
  0
LINE
  5
191A
  8
0
 62
     0
 10
20.251091422258519
 20
123.2686523844236
 30
0.0
 11
20.519743878481229
 21
122.99999992820089
 31
0.0
  0
LINE
  5
191B
  8
0
 62
     0
 10
20.37536735617239
 20
124.2669084656433
 30
0.0
 11
21.642275893614869
 21
122.99999992820079
 31
0.0
  0
LINE
  5
191C
  8
0
 62
     0
 10
20.395478445885789
 20
125.3693293910636
 30
0.0
 11
22.764807908748519
 21
122.99999992820079
 31
0.0
  0
LINE
  5
191D
  8
0
 62
     0
 10
20.270574045228049
 20
126.616765806855
 30
0.0
 11
23.887339923882159
 21
122.99999992820089
 31
0.0
  0
LINE
  5
191E
  8
0
 62
     0
 10
21.009871939017529
 20
126.9999999281991
 30
0.0
 11
25.009871939015799
 21
122.99999992820089
 31
0.0
  0
LINE
  5
191F
  8
0
 62
     0
 10
21.499999999990521
 20
127.6324038823598
 30
0.0
 11
26.132403954149449
 21
122.99999992820079
 31
0.0
  0
LINE
  5
1920
  8
0
 62
     0
 10
21.797692435377069
 20
128.4572434621069
 30
0.0
 11
25.487959143322509
 21
124.7669767541614
 31
0.0
  0
LINE
  5
1921
  8
0
 62
     0
 10
24.37746798490058
 20
126.999999927717
 30
0.0
 11
25.805470743544682
 21
125.5719971690729
 31
0.0
  0
LINE
  5
1922
  8
0
 62
     0
 10
22.877467984841751
 20
128.49999992777589
 30
0.0
 11
23.499999999996419
 21
127.8774679126212
 31
0.0
  0
LINE
  5
1923
  8
0
 62
     0
 10
25.255031130765659
 20
127.2449687969856
 30
0.0
 11
25.565165821165309
 21
126.9348341065859
 31
0.0
  0
ENDBLK
  5
1925
  8
0
  0
BLOCK
  8
0
  2
*U45
 70
     1
 10
0.0
 20
0.0
 30
0.0
  3
*U45
  1

  0
TEXT
  5
196C
  8
SAPA_MATT
 62
     2
 10
50.049999999998207
 20
171.99999985600741
 30
0.0
 40
3.5
  1
65
  7
ISO
  0
ENDBLK
  5
196E
  8
0
  0
BLOCK
  8
0
  2
*U46
 70
     1
 10
0.0
 20
0.0
 30
0.0
  3
*U46
  1

  0
TEXT
  5
1970
  8
SAPA_MATT
 62
     2
 10
52.550000000000061
 20
159.99999985600741
 30
0.0
 40
3.5
  1
60
  7
ISO
  0
ENDBLK
  5
1972
  8
0
  0
BLOCK
  8
0
  2
*U47
 70
     1
 10
0.0
 20
0.0
 30
0.0
  3
*U47
  1

  0
TEXT
  5
1974
  8
SAPA_MATT
 62
     2
 10
-31.999999999999972
 20
73.174999928003757
 30
0.0
 40
3.5
  1
125
 50
90.0
  7
ISO
  0
ENDBLK
  5
1976
  8
0
  0
BLOCK
  8
0
  2
*U48
 70
     1
 10
0.0
 20
0.0
 30
0.0
  3
*U48
  1

  0
TEXT
  5
1978
  8
SAPA_MATT
 62
     2
 10
-20.0
 20
132.77499992771541
 30
0.0
 40
3.5
  1
6.5
 50
90.0
  7
ISO
  0
ENDBLK
  5
197A
  8
0
  0
ENDSEC
  0
SECTION
  2
ENTITIES
  0
TEXT
  5
70A
  8
SAPA_ARTIKELNR
 10
49.188039105301719
 20
8.8799641253339132
 30
0.0000000048844772
 40
3.5
  1
D8K025
  7
ISO
  0
TEXT
  5
722
  8
SAPA_ARTIKELNR
 10
2.5142093895284172
 20
126.1180882512527
 30
0.0000000048844772
 40
3.5
  1
D8V001
  7
ISO
  0
TEXT
  5
8BF
  8
SAPA_ARTIKELNR
 10
21.985443845703369
 20
35.108374094093293
 30
0.0000000048844772
 40
3.5
  1
D8V020
 50
90.0
  7
ISO
  0
POLYLINE
  5
CBE
  8
SAPA_GLAS
 66
     1
 10
0.0
 20
0.0
 30
0.0
 70
     1
  0
VERTEX
  5
12D4
  8
SAPA_GLAS
 10
32.718558811822888
 20
83.499999928235823
 30
0.0
  0
VERTEX
  5
12D5
  8
SAPA_GLAS
 10
32.718558811822888
 20
85.499999928235837
 30
0.0
  0
VERTEX
  5
12D6
  8
SAPA_GLAS
 10
44.718558811822881
 20
85.499999928235837
 30
0.0
  0
VERTEX
  5
12D7
  8
SAPA_GLAS
 10
44.718558811822881
 20
83.499999928235823
 30
0.0
  0
SEQEND
  5
12D8
  8
SAPA_GLAS
  0
POLYLINE
  5
CBF
  8
SAPA_GLAS
 66
     1
 10
0.0
 20
0.0
 30
0.0
 70
     1
  0
VERTEX
  5
12D9
  8
SAPA_GLAS
 10
32.718558811823073
 20
134.49999992775491
 30
0.0
  0
VERTEX
  5
12DA
  8
SAPA_GLAS
 10
32.718558811823073
 20
132.49999992775491
 30
0.0
  0
VERTEX
  5
12DB
  8
SAPA_GLAS
 10
44.718558811823073
 20
132.49999992775491
 30
0.0
  0
VERTEX
  5
12DC
  8
SAPA_GLAS
 10
44.718558811823073
 20
134.49999992775491
 30
0.0
  0
SEQEND
  5
12DD
  8
SAPA_GLAS
  0
LINE
  5
CEA
  8
SAPA_GLAS
 10
25.499999999999989
 20
134.49999992775491
 30
0.0
 11
25.499999999999989
 21
132.15241988195939
 31
0.0
  0
LINE
  5
CEB
  8
SAPA_GLAS
 10
25.168558811798629
 20
82.999999928123842
 30
0.0
 11
25.168558811798629
 21
85.872291608869546
 31
0.0
  0
INSERT
  5
DA4
  8
SAPA_GLAS
  6
CONTINUOUS
  2
*X37
 10
0.0
 20
0.0
 30
0.0
1001
ACAD
1000
HATCH
1002
{
1070
    19
1000
ANSI37
1040
0.25
1040
0.0
1000
R14_HATCH_DATA
1000
DA4
1011
1.0
1021
0.0
1031
0.0
1021
0.0
1031
0.0
1011
0.0
1021
0.0
1031
0.0
1021
1.0
1031
0.0
1011
0.0
1021
0.0
1031
0.0
1021
0.0
1031
1.0
1040
0.0
1010
0.0
1020
0.0
1030
1.0
1000
ANSI37
1070
     0
1070
     0
1071
        1
1071
        7
1070
     1
1070
     1
1071
       22
1040
25.168558811798629
1040
85.872291608869574
1040
0.0
1040
25.168558811798629
1040
82.999999928123842
1040
-0.4142135623726955
1040
25.668558811798611
1040
83.499999928457655
1040
0.0
1040
27.418558811798611
1040
83.49999992845855
1040
-0.4142135623730951
1040
27.918558811798611
1040
82.999999928458536
1040
0.0
1040
27.918558811798611
1040
82.799999928458732
1040
-0.4142135623730948
1040
27.618558811798671
1040
82.499999928458564
1040
0.0
1040
26.968558811798811
1040
82.499999928458564
1040
0.4142135623730951
1040
26.668558811798611
1040
82.199999928457459
1040
0.0
1040
26.668558811798611
1040
81.29999992846146
1040
0.4142135623730951
1040
27.168558811798629
1040
80.799999928461446
1040
0.0
1040
33.168558811798611
1040
80.799999928461446
1040
0.4142135623730951
1040
33.668558811798611
1040
81.29999992846146
1040
0.0
1040
33.668558811798611
1040
82.199999928457459
1040
0.4142135623730952
1040
33.368558811798643
1040
82.499999928458564
1040
0.0
1040
32.7185588117988
1040
82.499999928458564
1040
-0.4142135623730951
1040
32.418558811798611
1040
82.799999928458732
1040
0.0
1040
32.418558811798611
1040
82.999999928458536
1040
-0.4142135622426331
1040
32.918558811798611
1040
83.499999928235823
1040
0.0
1040
32.718558811822888
1040
83.499999928235823
1040
0.0
1040
32.718558811822888
1040
85.499999928235823
1040
0.0
1040
35.000000000037033
1040
85.499999928235809
1040
-0.0189269460902338
1071
        0
1070
     0
1070
     1
1040
0.0
1040
0.25
1070
     0
1070
     2
1040
0.7853981633974483
1040
0.0
1040
0.0
1040
-0.5612660075668221
1040
0.5612660075668221
1070
     0
1040
2.3561944901923439
1040
0.0
1040
0.0
1040
-0.5612660075668221
1040
-0.5612660075668221
1070
     0
1040
0.0273279318620357
1071
        1
1040
30.010864373400409
1040
83.532193531068685
1040
0.0
1002
}
  0
INSERT
  5
EAD
  8
SAPA_GLAS
  6
CONTINUOUS
  2
*X38
 10
0.0
 20
0.0
 30
0.0
1001
ACAD
1000
HATCH
1002
{
1070
    19
1000
ANSI37
1040
0.25
1040
0.0
1000
R14_HATCH_DATA
1000
EAD
1011
1.0
1021
0.0
1031
0.0
1021
0.0
1031
0.0
1011
0.0
1021
0.0
1031
0.0
1021
1.0
1031
0.0
1011
0.0
1021
0.0
1031
0.0
1021
0.0
1031
1.0
1040
0.0
1010
0.0
1020
0.0
1030
1.0
1000
ANSI37
1070
     0
1070
     0
1071
        1
1071
        7
1070
     1
1070
     1
1071
       20
1040
27.749999999999989
1040
134.99999992775491
1040
-0.4142135623731036
1040
27.25
1040
134.49999992775491
1040
0.0
1040
25.499999999999989
1040
134.49999992775491
1040
0.0
1040
25.499999999999989
1040
132.15241988195939
1040
-0.0182875685645212
1040
35.000000000036863
1040
132.49999992775491
1040
0.0
1040
32.718558811823073
1040
132.49999992775491
1040
0.0
1040
32.718558811823073
1040
134.50098945523351
1040
-0.3959013923895259
1040
32.249999999999979
1040
134.99999992775491
1040
0.0
1040
32.249999999999979
1040
135.29999992775049
1040
-0.4142135623730744
1040
32.45000000000072
1040
135.49999992775491
1040
0.0
1040
33.300000000002903
1040
135.499999927744
1040
0.4142135623730533
1040
33.499999999999979
1040
135.6999999277447
1040
0.0
1040
33.499999999999979
1040
136.6999999277447
1040
0.4142135623731036
1040
32.999999999999979
1040
137.1999999277447
1040
0.0
1040
26.999999999999989
1040
137.1999999277447
1040
0.4142135623731033
1040
26.499999999999989
1040
136.6999999277447
1040
0.0
1040
26.50000000001091
1040
135.6999999277447
1040
0.4142135623730641
1040
26.70000000000072
1040
135.49999992775491
1040
0.0
1040
27.5500000000029
1040
135.49999992775491
1040
-0.4142135623730641
1040
27.749999999999989
1040
135.29999992775049
1040
0.0
1071
        0
1070
     0
1070
     1
1040
0.0
1040
0.25
1070
     0
1070
     2
1040
0.7853981633974483
1040
0.0
1040
0.0
1040
-0.5612660075668221
1040
0.5612660075668221
1070
     0
1040
2.3561944901923439
1040
0.0
1040
0.0
1040
-0.5612660075668221
1040
-0.5612660075668221
1070
     0
1040
0.0213076291070774
1071
        1
1040
29.675122396790361
1040
134.98724594988821
1040
0.0
1002
}
  0
INSERT
  5
F76
  8
SAPA_ANSLUTNING
  6
CONTINUOUS
  2
*X39
 10
0.0
 20
0.0
 30
0.0
1001
ACAD
1000
HATCH
1002
{
1070
    19
1000
ANSI37
1040
0.25
1040
1.5707963267948959
1000
R14_HATCH_DATA
1000
F76
1011
1.0
1021
0.0
1031
0.0
1021
0.0
1031
0.0
1011
0.0
1021
0.0
1031
0.0
1021
1.0
1031
0.0
1011
0.0
1021
0.0
1031
0.0
1021
0.0
1031
1.0
1040
0.0
1010
0.0
1020
0.0
1030
1.0
1000
ANSI37
1070
     0
1070
     0
1071
        1
1071
        5
1071
        6
1070
     2
1040
26.499999999985182
1040
137.49999992775491
1040
1.4999999999999989
1040
3.9269908169871939
1040
4.7123889803846613
1070
     0
1070
     1
1040
26.499999999985121
1040
138.99999992775491
1040
37.33665123667565
1040
138.9999999277548
1070
     3
1040
37.336651236675962
1040
143.99999992775491
1040
5.6210574168242138
1040
0.0000000000000003
1040
0.8895123513655372
1040
1.5707963267948959
1040
2.144309431217978
1070
     0
1070
     3
1040
37.336651236675962
1040
143.99999992775491
1040
5.6210574168242138
1040
0.0000000000000003
1040
0.8895123513655372
1040
2.144309431217978
1040
4.7123889803846888
1070
     0
1070
     1
1040
37.336651236675337
1040
148.99999992775491
1040
25.000000000000131
1040
148.99999992775491
1070
     2
1040
4.3532787000977029
1040
142.90216751658329
1040
21.528368738726542
1040
-0.2871774259191895
1040
0.2030570252108204
1070
     0
1071
        0
1070
     0
1070
     1
1040
1.5707963267948959
1040
0.25
1070
     0
1070
     2
1040
2.3561944901923439
1040
84.999999999985135
1040
0.0000000000136406
1040
-0.5612660075668221
1040
-0.5612660075668221
1070
     0
1040
3.926990816987241
1040
84.999999999985135
1040
0.0000000000136406
1040
0.5612660075668221
1040
-0.5612660075668221
1070
     0
1040
0.0591690278051155
1071
        1
1040
28.579635287059219
1040
142.9986763470032
1040
0.0
1002
}
  0
LINE
  5
F77
  8
SAPA_ANSLUTNING
 10
100.0000000000056
 20
14.00000000000011
 30
0.0
 11
100.0000000000055
 21
148.99999992775491
 31
0.0
  0
LINE
  5
F78
  8
SAPA_ANSLUTNING
 10
25.000000000000131
 20
148.99999992775491
 30
0.0
 11
25.000000000000071
 21
194.0032559344132
 31
0.0
  0
LINE
  5
F79
  8
SAPA_ANSLUTNING
 10
100.0000000000055
 20
148.99999992775491
 30
0.0
 11
25.000000000000131
 21
148.99999992775491
 31
0.0
  0
ARC
  5
F7A
  8
SAPA_ANSLUTNING
 10
4.3532787000975901
 20
142.90216751658329
 30
0.0
 40
21.52836873872667
 50
348.3656894549398
 51
16.454054476599431
  0
INSERT
  5
F7B
  8
SAPA_ANSLUTNING
  6
CONTINUOUS
  2
*X40
 10
0.0
 20
0.0
 30
0.0
1001
ACAD
1000
HATCH
1002
{
1070
    19
1000
HEX
1040
0.25
1040
1.5707963267948959
1000
ASC_BOUNDS
1070
     1
1070
     1
1070
     1
1005
F7C
1000
ASC_SEEDPOINT
1011
37.218313547619253
1021
0.0
1031
0.0
1021
144.2421099378295
1031
0.0
1000
R14_HATCH_DATA
1000
F7B
1011
1.0
1021
0.0
1031
0.0
1021
0.0
1031
0.0
1011
0.0
1021
0.0
1031
0.0
1021
1.0
1031
0.0
1011
0.0
1021
0.0
1031
0.0
1021
0.0
1031
1.0
1040
0.0
1010
0.0
1020
0.0
1030
1.0
1000
HEX
1070
     0
1070
     1
1071
        1
1071
        5
1071
        1
1070
     3
1040
37.336651236675962
1040
143.99999992775491
1040
5.6210574168242138
1040
0.0000000000000003
1040
0.8895123513655372
1040
0.0
1040
6.2831853071795862
1070
     1
1071
        1
1005
F7C
1070
     0
1070
     1
1040
1.5707963267948959
1040
0.25
1070
     0
1070
     3
1040
1.5707963267948959
1040
84.999999999985135
1040
0.0000000000136406
1040
-1.374814999999999
1040
-0.0000000000000001
1070
     2
1040
0.79375
1040
-1.587499999999999
1040
3.6651914291880909
1040
84.999999999985135
1040
0.0000000000136406
1040
0.6874074999999998
1040
-1.190624715503902
1070
     2
1040
0.7937499999999993
1040
-1.5874999999999979
1040
2.6179938779914931
1040
84.999999999985135
1040
0.7937500000136293
1040
-0.6874075
1040
-1.190624715503902
1070
     2
1040
0.79375
1040
-1.587499999999999
1040
0.0591690278051155
1071
        1
1040
37.218313547619253
1040
144.2421099378295
1040
0.0
1002
}
  0
POLYLINE
  5
F7C
  8
SAPA_ANSLUTNING
 10
42.957708653500177
 20
143.99999992775491
 30
0.0
 66
     1
 70
     8
  0
VERTEX
  8
SAPA_ANSLUTNING
  5
197E
 10
42.9577
 20
144.000
 30
0.000000
  70
    32
  0
VERTEX
  8
SAPA_ANSLUTNING
  5
197F
 10
42.9509
 20
144.245
 30
0.000000
  70
    32
  0
VERTEX
  8
SAPA_ANSLUTNING
  5
1980
 10
42.9306
 20
144.490
 30
0.000000
  70
    32
  0
VERTEX
  8
SAPA_ANSLUTNING
  5
1981
 10
42.8969
 20
144.734
 30
0.000000
  70
    32
  0
VERTEX
  8
SAPA_ANSLUTNING
  5
1982
 10
42.8497
 20
144.975
 30
0.000000
  70
    32
  0
VERTEX
  8
SAPA_ANSLUTNING
  5
1983
 10
42.7893
 20
145.215
 30
0.000000
  70
    32
  0
VERTEX
  8
SAPA_ANSLUTNING
  5
1984
 10
42.7157
 20
145.451
 30
0.000000
  70
    32
  0
VERTEX
  8
SAPA_ANSLUTNING
  5
1985
 10
42.6291
 20
145.684
 30
0.000000
  70
    32
  0
VERTEX
  8
SAPA_ANSLUTNING
  5
1986
 10
42.5298
 20
145.913
 30
0.000000
  70
    32
  0
VERTEX
  8
SAPA_ANSLUTNING
  5
1987
 10
42.4180
 20
146.138
 30
0.000000
  70
    32
  0
VERTEX
  8
SAPA_ANSLUTNING
  5
1988
 10
42.2940
 20
146.357
 30
0.000000
  70
    32
  0
VERTEX
  8
SAPA_ANSLUTNING
  5
1989
 10
42.1580
 20
146.571
 30
0.000000
  70
    32
  0
VERTEX
  8
SAPA_ANSLUTNING
  5
198A
 10
42.0104
 20
146.778
 30
0.000000
  70
    32
  0
VERTEX
  8
SAPA_ANSLUTNING
  5
198B
 10
41.8515
 20
146.978
 30
0.000000
  70
    32
  0
VERTEX
  8
SAPA_ANSLUTNING
  5
198C
 10
41.6818
 20
147.172
 30
0.000000
  70
    32
  0
VERTEX
  8
SAPA_ANSLUTNING
  5
198D
 10
41.5016
 20
147.358
 30
0.000000
  70
    32
  0
VERTEX
  8
SAPA_ANSLUTNING
  5
198E
 10
41.3113
 20
147.536
 30
0.000000
  70
    32
  0
VERTEX
  8
SAPA_ANSLUTNING
  5
198F
 10
41.1115
 20
147.705
 30
0.000000
  70
    32
  0
VERTEX
  8
SAPA_ANSLUTNING
  5
1990
 10
40.9026
 20
147.865
 30
0.000000
  70
    32
  0
VERTEX
  8
SAPA_ANSLUTNING
  5
1991
 10
40.6851
 20
148.016
 30
0.000000
  70
    32
  0
VERTEX
  8
SAPA_ANSLUTNING
  5
1992
 10
40.4595
 20
148.157
 30
0.000000
  70
    32
  0
VERTEX
  8
SAPA_ANSLUTNING
  5
1993
 10
40.2265
 20
148.289
 30
0.000000
  70
    32
  0
VERTEX
  8
SAPA_ANSLUTNING
  5
1994
 10
39.9864
 20
148.410
 30
0.000000
  70
    32
  0
VERTEX
  8
SAPA_ANSLUTNING
  5
1995
 10
39.7400
 20
148.520
 30
0.000000
  70
    32
  0
VERTEX
  8
SAPA_ANSLUTNING
  5
1996
 10
39.4877
 20
148.619
 30
0.000000
  70
    32
  0
VERTEX
  8
SAPA_ANSLUTNING
  5
1997
 10
39.2303
 20
148.708
 30
0.000000
  70
    32
  0
VERTEX
  8
SAPA_ANSLUTNING
  5
1998
 10
38.9684
 20
148.785
 30
0.000000
  70
    32
  0
VERTEX
  8
SAPA_ANSLUTNING
  5
1999
 10
38.7025
 20
148.850
 30
0.000000
  70
    32
  0
VERTEX
  8
SAPA_ANSLUTNING
  5
199A
 10
38.4333
 20
148.904
 30
0.000000
  70
    32
  0
VERTEX
  8
SAPA_ANSLUTNING
  5
199B
 10
38.1614
 20
148.946
 30
0.000000
  70
    32
  0
VERTEX
  8
SAPA_ANSLUTNING
  5
199C
 10
37.8876
 20
148.976
 30
0.000000
  70
    32
  0
VERTEX
  8
SAPA_ANSLUTNING
  5
199D
 10
37.6125
 20
148.994
 30
0.000000
  70
    32
  0
VERTEX
  8
SAPA_ANSLUTNING
  5
199E
 10
37.3367
 20
149.000
 30
0.000000
  70
    32
  0
VERTEX
  8
SAPA_ANSLUTNING
  5
199F
 10
37.0608
 20
148.994
 30
0.000000
  70
    32
  0
VERTEX
  8
SAPA_ANSLUTNING
  5
19A0
 10
36.7857
 20
148.976
 30
0.000000
  70
    32
  0
VERTEX
  8
SAPA_ANSLUTNING
  5
19A1
 10
36.5119
 20
148.946
 30
0.000000
  70
    32
  0
VERTEX
  8
SAPA_ANSLUTNING
  5
19A2
 10
36.2400
 20
148.904
 30
0.000000
  70
    32
  0
VERTEX
  8
SAPA_ANSLUTNING
  5
19A3
 10
35.9708
 20
148.850
 30
0.000000
  70
    32
  0
VERTEX
  8
SAPA_ANSLUTNING
  5
19A4
 10
35.7049
 20
148.785
 30
0.000000
  70
    32
  0
VERTEX
  8
SAPA_ANSLUTNING
  5
19A5
 10
35.4430
 20
148.708
 30
0.000000
  70
    32
  0
VERTEX
  8
SAPA_ANSLUTNING
  5
19A6
 10
35.1856
 20
148.619
 30
0.000000
  70
    32
  0
VERTEX
  8
SAPA_ANSLUTNING
  5
19A7
 10
34.9333
 20
148.520
 30
0.000000
  70
    32
  0
VERTEX
  8
SAPA_ANSLUTNING
  5
19A8
 10
34.6869
 20
148.410
 30
0.000000
  70
    32
  0
VERTEX
  8
SAPA_ANSLUTNING
  5
19A9
 10
34.4469
 20
148.289
 30
0.000000
  70
    32
  0
VERTEX
  8
SAPA_ANSLUTNING
  5
19AA
 10
34.2138
 20
148.157
 30
0.000000
  70
    32
  0
VERTEX
  8
SAPA_ANSLUTNING
  5
19AB
 10
33.9882
 20
148.016
 30
0.000000
  70
    32
  0
VERTEX
  8
SAPA_ANSLUTNING
  5
19AC
 10
33.7707
 20
147.865
 30
0.000000
  70
    32
  0
VERTEX
  8
SAPA_ANSLUTNING
  5
19AD
 10
33.5618
 20
147.705
 30
0.000000
  70
    32
  0
VERTEX
  8
SAPA_ANSLUTNING
  5
19AE
 10
33.3620
 20
147.536
 30
0.000000
  70
    32
  0
VERTEX
  8
SAPA_ANSLUTNING
  5
19AF
 10
33.1717
 20
147.358
 30
0.000000
  70
    32
  0
VERTEX
  8
SAPA_ANSLUTNING
  5
19B0
 10
32.9915
 20
147.172
 30
0.000000
  70
    32
  0
VERTEX
  8
SAPA_ANSLUTNING
  5
19B1
 10
32.8218
 20
146.978
 30
0.000000
  70
    32
  0
VERTEX
  8
SAPA_ANSLUTNING
  5
19B2
 10
32.6629
 20
146.778
 30
0.000000
  70
    32
  0
VERTEX
  8
SAPA_ANSLUTNING
  5
19B3
 10
32.5153
 20
146.571
 30
0.000000
  70
    32
  0
VERTEX
  8
SAPA_ANSLUTNING
  5
19B4
 10
32.3793
 20
146.357
 30
0.000000
  70
    32
  0
VERTEX
  8
SAPA_ANSLUTNING
  5
19B5
 10
32.2553
 20
146.138
 30
0.000000
  70
    32
  0
VERTEX
  8
SAPA_ANSLUTNING
  5
19B6
 10
32.1435
 20
145.913
 30
0.000000
  70
    32
  0
VERTEX
  8
SAPA_ANSLUTNING
  5
19B7
 10
32.0442
 20
145.684
 30
0.000000
  70
    32
  0
VERTEX
  8
SAPA_ANSLUTNING
  5
19B8
 10
31.9576
 20
145.451
 30
0.000000
  70
    32
  0
VERTEX
  8
SAPA_ANSLUTNING
  5
19B9
 10
31.8840
 20
145.215
 30
0.000000
  70
    32
  0
VERTEX
  8
SAPA_ANSLUTNING
  5
19BA
 10
31.8236
 20
144.975
 30
0.000000
  70
    32
  0
VERTEX
  8
SAPA_ANSLUTNING
  5
19BB
 10
31.7764
 20
144.734
 30
0.000000
  70
    32
  0
VERTEX
  8
SAPA_ANSLUTNING
  5
19BC
 10
31.7427
 20
144.490
 30
0.000000
  70
    32
  0
VERTEX
  8
SAPA_ANSLUTNING
  5
19BD
 10
31.7224
 20
144.245
 30
0.000000
  70
    32
  0
VERTEX
  8
SAPA_ANSLUTNING
  5
19BE
 10
31.7156
 20
144.000
 30
0.000000
  70
    32
  0
VERTEX
  8
SAPA_ANSLUTNING
  5
19BF
 10
31.7224
 20
143.755
 30
0.000000
  70
    32
  0
VERTEX
  8
SAPA_ANSLUTNING
  5
19C0
 10
31.7427
 20
143.510
 30
0.000000
  70
    32
  0
VERTEX
  8
SAPA_ANSLUTNING
  5
19C1
 10
31.7764
 20
143.266
 30
0.000000
  70
    32
  0
VERTEX
  8
SAPA_ANSLUTNING
  5
19C2
 10
31.8236
 20
143.025
 30
0.000000
  70
    32
  0
VERTEX
  8
SAPA_ANSLUTNING
  5
19C3
 10
31.8840
 20
142.785
 30
0.000000
  70
    32
  0
VERTEX
  8
SAPA_ANSLUTNING
  5
19C4
 10
31.9576
 20
142.549
 30
0.000000
  70
    32
  0
VERTEX
  8
SAPA_ANSLUTNING
  5
19C5
 10
32.0442
 20
142.316
 30
0.000000
  70
    32
  0
VERTEX
  8
SAPA_ANSLUTNING
  5
19C6
 10
32.1435
 20
142.087
 30
0.000000
  70
    32
  0
VERTEX
  8
SAPA_ANSLUTNING
  5
19C7
 10
32.2553
 20
141.862
 30
0.000000
  70
    32
  0
VERTEX
  8
SAPA_ANSLUTNING
  5
19C8
 10
32.3793
 20
141.643
 30
0.000000
  70
    32
  0
VERTEX
  8
SAPA_ANSLUTNING
  5
19C9
 10
32.5153
 20
141.429
 30
0.000000
  70
    32
  0
VERTEX
  8
SAPA_ANSLUTNING
  5
19CA
 10
32.6629
 20
141.222
 30
0.000000
  70
    32
  0
VERTEX
  8
SAPA_ANSLUTNING
  5
19CB
 10
32.8218
 20
141.022
 30
0.000000
  70
    32
  0
VERTEX
  8
SAPA_ANSLUTNING
  5
19CC
 10
32.9915
 20
140.828
 30
0.000000
  70
    32
  0
VERTEX
  8
SAPA_ANSLUTNING
  5
19CD
 10
33.1717
 20
140.642
 30
0.000000
  70
    32
  0
VERTEX
  8
SAPA_ANSLUTNING
  5
19CE
 10
33.3620
 20
140.464
 30
0.000000
  70
    32
  0
VERTEX
  8
SAPA_ANSLUTNING
  5
19CF
 10
33.5618
 20
140.295
 30
0.000000
  70
    32
  0
VERTEX
  8
SAPA_ANSLUTNING
  5
19D0
 10
33.7707
 20
140.135
 30
0.000000
  70
    32
  0
VERTEX
  8
SAPA_ANSLUTNING
  5
19D1
 10
33.9882
 20
139.984
 30
0.000000
  70
    32
  0
VERTEX
  8
SAPA_ANSLUTNING
  5
19D2
 10
34.2138
 20
139.843
 30
0.000000
  70
    32
  0
VERTEX
  8
SAPA_ANSLUTNING
  5
19D3
 10
34.4469
 20
139.711
 30
0.000000
  70
    32
  0
VERTEX
  8
SAPA_ANSLUTNING
  5
19D4
 10
34.6869
 20
139.590
 30
0.000000
  70
    32
  0
VERTEX
  8
SAPA_ANSLUTNING
  5
19D5
 10
34.9333
 20
139.480
 30
0.000000
  70
    32
  0
VERTEX
  8
SAPA_ANSLUTNING
  5
19D6
 10
35.1856
 20
139.381
 30
0.000000
  70
    32
  0
VERTEX
  8
SAPA_ANSLUTNING
  5
19D7
 10
35.4430
 20
139.292
 30
0.000000
  70
    32
  0
VERTEX
  8
SAPA_ANSLUTNING
  5
19D8
 10
35.7049
 20
139.215
 30
0.000000
  70
    32
  0
VERTEX
  8
SAPA_ANSLUTNING
  5
19D9
 10
35.9708
 20
139.150
 30
0.000000
  70
    32
  0
VERTEX
  8
SAPA_ANSLUTNING
  5
19DA
 10
36.2400
 20
139.096
 30
0.000000
  70
    32
  0
VERTEX
  8
SAPA_ANSLUTNING
  5
19DB
 10
36.5119
 20
139.054
 30
0.000000
  70
    32
  0
VERTEX
  8
SAPA_ANSLUTNING
  5
19DC
 10
36.7857
 20
139.024
 30
0.000000
  70
    32
  0
VERTEX
  8
SAPA_ANSLUTNING
  5
19DD
 10
37.0608
 20
139.006
 30
0.000000
  70
    32
  0
VERTEX
  8
SAPA_ANSLUTNING
  5
19DE
 10
37.3367
 20
139.000
 30
0.000000
  70
    32
  0
VERTEX
  8
SAPA_ANSLUTNING
  5
19DF
 10
37.6125
 20
139.006
 30
0.000000
  70
    32
  0
VERTEX
  8
SAPA_ANSLUTNING
  5
19E0
 10
37.8876
 20
139.024
 30
0.000000
  70
    32
  0
VERTEX
  8
SAPA_ANSLUTNING
  5
19E1
 10
38.1614
 20
139.054
 30
0.000000
  70
    32
  0
VERTEX
  8
SAPA_ANSLUTNING
  5
19E2
 10
38.4333
 20
139.096
 30
0.000000
  70
    32
  0
VERTEX
  8
SAPA_ANSLUTNING
  5
19E3
 10
38.7025
 20
139.150
 30
0.000000
  70
    32
  0
VERTEX
  8
SAPA_ANSLUTNING
  5
19E4
 10
38.9684
 20
139.215
 30
0.000000
  70
    32
  0
VERTEX
  8
SAPA_ANSLUTNING
  5
19E5
 10
39.2303
 20
139.292
 30
0.000000
  70
    32
  0
VERTEX
  8
SAPA_ANSLUTNING
  5
19E6
 10
39.4877
 20
139.381
 30
0.000000
  70
    32
  0
VERTEX
  8
SAPA_ANSLUTNING
  5
19E7
 10
39.7400
 20
139.480
 30
0.000000
  70
    32
  0
VERTEX
  8
SAPA_ANSLUTNING
  5
19E8
 10
39.9864
 20
139.590
 30
0.000000
  70
    32
  0
VERTEX
  8
SAPA_ANSLUTNING
  5
19E9
 10
40.2265
 20
139.711
 30
0.000000
  70
    32
  0
VERTEX
  8
SAPA_ANSLUTNING
  5
19EA
 10
40.4595
 20
139.843
 30
0.000000
  70
    32
  0
VERTEX
  8
SAPA_ANSLUTNING
  5
19EB
 10
40.6851
 20
139.984
 30
0.000000
  70
    32
  0
VERTEX
  8
SAPA_ANSLUTNING
  5
19EC
 10
40.9026
 20
140.135
 30
0.000000
  70
    32
  0
VERTEX
  8
SAPA_ANSLUTNING
  5
19ED
 10
41.1115
 20
140.295
 30
0.000000
  70
    32
  0
VERTEX
  8
SAPA_ANSLUTNING
  5
19EE
 10
41.3113
 20
140.464
 30
0.000000
  70
    32
  0
VERTEX
  8
SAPA_ANSLUTNING
  5
19EF
 10
41.5016
 20
140.642
 30
0.000000
  70
    32
  0
VERTEX
  8
SAPA_ANSLUTNING
  5
19F0
 10
41.6818
 20
140.828
 30
0.000000
  70
    32
  0
VERTEX
  8
SAPA_ANSLUTNING
  5
19F1
 10
41.8515
 20
141.022
 30
0.000000
  70
    32
  0
VERTEX
  8
SAPA_ANSLUTNING
  5
19F2
 10
42.0104
 20
141.222
 30
0.000000
  70
    32
  0
VERTEX
  8
SAPA_ANSLUTNING
  5
19F3
 10
42.1580
 20
141.429
 30
0.000000
  70
    32
  0
VERTEX
  8
SAPA_ANSLUTNING
  5
19F4
 10
42.2940
 20
141.643
 30
0.000000
  70
    32
  0
VERTEX
  8
SAPA_ANSLUTNING
  5
19F5
 10
42.4180
 20
141.862
 30
0.000000
  70
    32
  0
VERTEX
  8
SAPA_ANSLUTNING
  5
19F6
 10
42.5298
 20
142.087
 30
0.000000
  70
    32
  0
VERTEX
  8
SAPA_ANSLUTNING
  5
19F7
 10
42.6291
 20
142.316
 30
0.000000
  70
    32
  0
VERTEX
  8
SAPA_ANSLUTNING
  5
19F8
 10
42.7157
 20
142.549
 30
0.000000
  70
    32
  0
VERTEX
  8
SAPA_ANSLUTNING
  5
19F9
 10
42.7893
 20
142.785
 30
0.000000
  70
    32
  0
VERTEX
  8
SAPA_ANSLUTNING
  5
19FA
 10
42.8497
 20
143.025
 30
0.000000
  70
    32
  0
VERTEX
  8
SAPA_ANSLUTNING
  5
19FB
 10
42.8969
 20
143.266
 30
0.000000
  70
    32
  0
VERTEX
  8
SAPA_ANSLUTNING
  5
19FC
 10
42.9306
 20
143.510
 30
0.000000
  70
    32
  0
VERTEX
  8
SAPA_ANSLUTNING
  5
19FD
 10
42.9509
 20
143.755
 30
0.000000
  70
    32
  0
VERTEX
  8
SAPA_ANSLUTNING
  5
19FE
 10
42.9577
 20
144.000
 30
0.000000
  70
    32
  0
SEQEND
  8
SAPA_ANSLUTNING
  5
19FF
  0
POLYLINE
  5
F7D
  8
SAPA_ANSLUTNING
 66
     1
 10
0.0
 20
0.0
 30
0.0
  0
VERTEX
  5
13AB
  8
SAPA_ANSLUTNING
 10
41.352069590546662
 20
140.5010714710958
 30
0.0
 42
0.8812634091771133
  0
VERTEX
  5
13AC
  8
SAPA_ANSLUTNING
 10
45.288837618766827
 20
140.99999992775491
 30
0.0
  0
VERTEX
  5
13AD
  8
SAPA_ANSLUTNING
 10
45.288837618766827
 20
146.99999992775491
 30
0.0
 42
-0.9999999999999998
  0
VERTEX
  5
13AE
  8
SAPA_ANSLUTNING
 10
49.288837618766827
 20
146.99999992775491
 30
0.0
  0
VERTEX
  5
13AF
  8
SAPA_ANSLUTNING
 10
49.288837618766827
 20
140.99999992775491
 30
0.0
 42
0.9999999999999998
  0
VERTEX
  5
13B0
  8
SAPA_ANSLUTNING
 10
53.288837618766827
 20
140.99999992775491
 30
0.0
  0
VERTEX
  5
13B1
  8
SAPA_ANSLUTNING
 10
53.288837618766827
 20
146.99999992775491
 30
0.0
 42
-0.9999999999999998
  0
VERTEX
  5
13B2
  8
SAPA_ANSLUTNING
 10
57.288837618766841
 20
146.99999992775491
 30
0.0
  0
VERTEX
  5
13B3
  8
SAPA_ANSLUTNING
 10
57.288837618766841
 20
140.99999992775491
 30
0.0
 42
0.9999999999999998
  0
VERTEX
  5
13B4
  8
SAPA_ANSLUTNING
 10
61.288837618766827
 20
140.99999992775491
 30
0.0
  0
VERTEX
  5
13B5
  8
SAPA_ANSLUTNING
 10
61.288837618766827
 20
146.99999992775491
 30
0.0
 42
-0.9999999999999998
  0
VERTEX
  5
13B6
  8
SAPA_ANSLUTNING
 10
65.288837618766834
 20
146.99999992775491
 30
0.0
  0
VERTEX
  5
13B7
  8
SAPA_ANSLUTNING
 10
65.288837618766834
 20
140.99999992775491
 30
0.0
 42
0.9999999999999998
  0
VERTEX
  5
13B8
  8
SAPA_ANSLUTNING
 10
69.288837618766834
 20
140.99999992775491
 30
0.0
  0
VERTEX
  5
13B9
  8
SAPA_ANSLUTNING
 10
69.288837618766834
 20
146.99999992775491
 30
0.0
 42
-0.9999999999999998
  0
VERTEX
  5
13BA
  8
SAPA_ANSLUTNING
 10
73.288837618766834
 20
146.99999992775491
 30
0.0
  0
VERTEX
  5
13BB
  8
SAPA_ANSLUTNING
 10
73.288837618766834
 20
140.99999992775491
 30
0.0
 42
0.9999999999999998
  0
VERTEX
  5
13BC
  8
SAPA_ANSLUTNING
 10
77.288837618766834
 20
140.99999992775491
 30
0.0
  0
VERTEX
  5
13BD
  8
SAPA_ANSLUTNING
 10
77.288837618766834
 20
146.99999992775491
 30
0.0
 42
-0.9999999999999998
  0
VERTEX
  5
13BE
  8
SAPA_ANSLUTNING
 10
81.288837618766806
 20
146.99999992775491
 30
0.0
  0
VERTEX
  5
13BF
  8
SAPA_ANSLUTNING
 10
81.288837618766806
 20
140.99999992775491
 30
0.0
 42
0.9999999999999998
  0
VERTEX
  5
13C0
  8
SAPA_ANSLUTNING
 10
85.288837618766806
 20
140.99999992775491
 30
0.0
  0
VERTEX
  5
13C1
  8
SAPA_ANSLUTNING
 10
85.288837618766806
 20
146.99999992775491
 30
0.0
 42
-0.9999999999999998
  0
VERTEX
  5
13C2
  8
SAPA_ANSLUTNING
 10
89.288837618766806
 20
146.99999992775491
 30
0.0
  0
VERTEX
  5
13C3
  8
SAPA_ANSLUTNING
 10
89.288837618766806
 20
140.99999992775491
 30
0.0
 42
0.9999999999999998
  0
VERTEX
  5
13C4
  8
SAPA_ANSLUTNING
 10
93.288837618766806
 20
140.99999992775491
 30
0.0
  0
VERTEX
  5
13C5
  8
SAPA_ANSLUTNING
 10
93.288837618766806
 20
146.99999992775491
 30
0.0
 42
-0.9999999999999998
  0
VERTEX
  5
13C6
  8
SAPA_ANSLUTNING
 10
97.288837618766806
 20
146.99999992775491
 30
0.0
  0
VERTEX
  5
13C7
  8
SAPA_ANSLUTNING
 10
97.288837618766806
 20
140.99999992775491
 30
0.0
 42
0.5251735434384823
  0
VERTEX
  5
13C8
  8
SAPA_ANSLUTNING
 10
100.0000000000055
 20
139.1307091350983
 30
0.0
 42
0.5251735434384823
  0
SEQEND
  5
13C9
  8
SAPA_ANSLUTNING
  0
LINE
  5
F7E
  8
SAPA_ANSLUTNING
 10
25.000000000000071
 20
14.00000000000011
 30
0.0
 11
25.000000000000071
 21
-30.619466477045759
 31
0.0
  0
LINE
  5
F7F
  8
SAPA_ANSLUTNING
 10
25.000000000000071
 20
14.00000000000011
 30
0.0
 11
100.0000000000056
 21
14.00000000000011
 31
0.0
  0
POLYLINE
  5
F80
  8
SAPA_ANSLUTNING
 66
     1
 10
0.0
 20
0.0
 30
0.0
  0
VERTEX
  5
13CA
  8
SAPA_ANSLUTNING
 10
98.498928456659158
 20
14.00000000000011
 30
0.0
 42
0.8812634091771133
  0
VERTEX
  5
13CB
  8
SAPA_ANSLUTNING
 10
98.000000000000071
 20
17.936768028220278
 30
0.0
  0
VERTEX
  5
13CC
  8
SAPA_ANSLUTNING
 10
87.000000000000085
 20
17.936768028220278
 30
0.0
 42
-0.9999999999999998
  0
VERTEX
  5
13CD
  8
SAPA_ANSLUTNING
 10
87.000000000000085
 20
21.936768028220289
 30
0.0
  0
VERTEX
  5
13CE
  8
SAPA_ANSLUTNING
 10
98.000000000000071
 20
21.936768028220261
 30
0.0
 42
0.9999999999999998
  0
VERTEX
  5
13CF
  8
SAPA_ANSLUTNING
 10
98.000000000000071
 20
25.936768028220261
 30
0.0
  0
VERTEX
  5
13D0
  8
SAPA_ANSLUTNING
 10
87.000000000000085
 20
25.936768028220289
 30
0.0
 42
-0.9999999999999998
  0
VERTEX
  5
13D1
  8
SAPA_ANSLUTNING
 10
87.000000000000085
 20
29.936768028220289
 30
0.0
  0
VERTEX
  5
13D2
  8
SAPA_ANSLUTNING
 10
98.000000000000071
 20
29.936768028220261
 30
0.0
 42
0.9999999999999998
  0
VERTEX
  5
13D3
  8
SAPA_ANSLUTNING
 10
98.000000000000071
 20
33.936768028220257
 30
0.0
  0
VERTEX
  5
13D4
  8
SAPA_ANSLUTNING
 10
87.000000000000085
 20
33.936768028220257
 30
0.0
 42
-0.9999999999999998
  0
VERTEX
  5
13D5
  8
SAPA_ANSLUTNING
 10
87.000000000000085
 20
37.936768028220257
 30
0.0
  0
VERTEX
  5
13D6
  8
SAPA_ANSLUTNING
 10
98.000000000000071
 20
37.936768028220257
 30
0.0
 42
0.9999999999999998
  0
VERTEX
  5
13D7
  8
SAPA_ANSLUTNING
 10
98.000000000000071
 20
41.93676802822025
 30
0.0
  0
VERTEX
  5
13D8
  8
SAPA_ANSLUTNING
 10
87.000000000000085
 20
41.93676802822025
 30
0.0
 42
-0.9999999999999998
  0
VERTEX
  5
13D9
  8
SAPA_ANSLUTNING
 10
87.000000000000085
 20
45.936768028220257
 30
0.0
  0
VERTEX
  5
13DA
  8
SAPA_ANSLUTNING
 10
98.000000000000071
 20
45.936768028220257
 30
0.0
 42
0.9999999999999998
  0
VERTEX
  5
13DB
  8
SAPA_ANSLUTNING
 10
98.000000000000071
 20
49.936768028220257
 30
0.0
  0
VERTEX
  5
13DC
  8
SAPA_ANSLUTNING
 10
87.000000000000085
 20
49.936768028220257
 30
0.0
 42
-0.9999999999999998
  0
VERTEX
  5
13DD
  8
SAPA_ANSLUTNING
 10
87.000000000000085
 20
53.93676802822025
 30
0.0
  0
VERTEX
  5
13DE
  8
SAPA_ANSLUTNING
 10
98.000000000000071
 20
53.93676802822025
 30
0.0
 42
0.9999999999999998
  0
VERTEX
  5
13DF
  8
SAPA_ANSLUTNING
 10
98.000000000000043
 20
57.936768028220257
 30
0.0
  0
VERTEX
  5
13E0
  8
SAPA_ANSLUTNING
 10
87.000000000000043
 20
57.936768028220257
 30
0.0
 42
-0.9999999999999998
  0
VERTEX
  5
13E1
  8
SAPA_ANSLUTNING
 10
87.000000000000043
 20
61.93676802822025
 30
0.0
  0
VERTEX
  5
13E2
  8
SAPA_ANSLUTNING
 10
98.000000000000043
 20
61.93676802822025
 30
0.0
 42
0.9999999999999998
  0
VERTEX
  5
13E3
  8
SAPA_ANSLUTNING
 10
98.000000000000043
 20
65.936768028220257
 30
0.0
  0
VERTEX
  5
13E4
  8
SAPA_ANSLUTNING
 10
87.000000000000043
 20
65.936768028220257
 30
0.0
 42
-0.9999999999999998
  0
VERTEX
  5
13E5
  8
SAPA_ANSLUTNING
 10
87.000000000000043
 20
69.936768028220257
 30
0.0
  0
VERTEX
  5
13E6
  8
SAPA_ANSLUTNING
 10
98.000000000000043
 20
69.936768028220257
 30
0.0
 42
0.5251735434384823
  0
VERTEX
  5
13E7
  8
SAPA_ANSLUTNING
 10
99.869290792656656
 20
72.647930409458979
 30
0.0
 42
0.5251735434384823
  0
SEQEND
  5
13E8
  8
SAPA_ANSLUTNING
  0
POLYLINE
  5
F81
  8
SAPA_ANSLUTNING
 66
     1
 10
0.0
 20
0.0
 30
0.0
  0
VERTEX
  5
13E9
  8
SAPA_ANSLUTNING
 10
98.498928456659115
 20
62.000000000000107
 30
0.0
 42
0.8812634091771133
  0
VERTEX
  5
13EA
  8
SAPA_ANSLUTNING
 10
98.000000000000043
 20
65.936768028220257
 30
0.0
  0
VERTEX
  5
13EB
  8
SAPA_ANSLUTNING
 10
87.000000000000043
 20
65.936768028220257
 30
0.0
 42
-0.9999999999999998
  0
VERTEX
  5
13EC
  8
SAPA_ANSLUTNING
 10
87.000000000000043
 20
69.936768028220257
 30
0.0
  0
VERTEX
  5
13ED
  8
SAPA_ANSLUTNING
 10
98.000000000000043
 20
69.936768028220214
 30
0.0
 42
0.9999999999999998
  0
VERTEX
  5
13EE
  8
SAPA_ANSLUTNING
 10
98.000000000000043
 20
73.936768028220229
 30
0.0
  0
VERTEX
  5
13EF
  8
SAPA_ANSLUTNING
 10
87.000000000000043
 20
73.936768028220257
 30
0.0
 42
-0.9999999999999998
  0
VERTEX
  5
13F0
  8
SAPA_ANSLUTNING
 10
87.000000000000043
 20
77.936768028220257
 30
0.0
  0
VERTEX
  5
13F1
  8
SAPA_ANSLUTNING
 10
98.000000000000043
 20
77.936768028220229
 30
0.0
 42
0.9999999999999998
  0
VERTEX
  5
13F2
  8
SAPA_ANSLUTNING
 10
98.000000000000043
 20
81.936768028220229
 30
0.0
  0
VERTEX
  5
13F3
  8
SAPA_ANSLUTNING
 10
87.000000000000043
 20
81.936768028220229
 30
0.0
 42
-0.9999999999999998
  0
VERTEX
  5
13F4
  8
SAPA_ANSLUTNING
 10
87.000000000000043
 20
85.936768028220214
 30
0.0
  0
VERTEX
  5
13F5
  8
SAPA_ANSLUTNING
 10
98.000000000000043
 20
85.936768028220214
 30
0.0
 42
0.9999999999999998
  0
VERTEX
  5
13F6
  8
SAPA_ANSLUTNING
 10
98.000000000000043
 20
89.936768028220214
 30
0.0
  0
VERTEX
  5
13F7
  8
SAPA_ANSLUTNING
 10
87.000000000000043
 20
89.936768028220214
 30
0.0
 42
-0.9999999999999998
  0
VERTEX
  5
13F8
  8
SAPA_ANSLUTNING
 10
87.000000000000043
 20
93.936768028220229
 30
0.0
  0
VERTEX
  5
13F9
  8
SAPA_ANSLUTNING
 10
98.000000000000043
 20
93.936768028220229
 30
0.0
 42
0.9999999999999998
  0
VERTEX
  5
13FA
  8
SAPA_ANSLUTNING
 10
98.000000000000043
 20
97.936768028220229
 30
0.0
  0
VERTEX
  5
13FB
  8
SAPA_ANSLUTNING
 10
87.000000000000043
 20
97.936768028220229
 30
0.0
 42
-0.9999999999999998
  0
VERTEX
  5
13FC
  8
SAPA_ANSLUTNING
 10
87.000000000000043
 20
101.9367680282202
 30
0.0
  0
VERTEX
  5
13FD
  8
SAPA_ANSLUTNING
 10
98.000000000000043
 20
101.9367680282202
 30
0.0
 42
0.9999999999999998
  0
VERTEX
  5
13FE
  8
SAPA_ANSLUTNING
 10
98.000000000000043
 20
105.9367680282202
 30
0.0
  0
VERTEX
  5
13FF
  8
SAPA_ANSLUTNING
 10
87.000000000000043
 20
105.9367680282202
 30
0.0
 42
-0.9999999999999998
  0
VERTEX
  5
1400
  8
SAPA_ANSLUTNING
 10
87.000000000000043
 20
109.9367680282202
 30
0.0
  0
VERTEX
  5
1401
  8
SAPA_ANSLUTNING
 10
98.000000000000043
 20
109.9367680282202
 30
0.0
 42
0.9999999999999998
  0
VERTEX
  5
1402
  8
SAPA_ANSLUTNING
 10
98.000000000000043
 20
113.9367680282202
 30
0.0
  0
VERTEX
  5
1403
  8
SAPA_ANSLUTNING
 10
87.000000000000043
 20
113.9367680282202
 30
0.0
 42
-0.9999999999999998
  0
VERTEX
  5
1404
  8
SAPA_ANSLUTNING
 10
87.000000000000043
 20
117.9367680282202
 30
0.0
  0
VERTEX
  5
1405
  8
SAPA_ANSLUTNING
 10
98.000000000000043
 20
117.9367680282202
 30
0.0
 42
0.5251735434384823
  0
VERTEX
  5
1406
  8
SAPA_ANSLUTNING
 10
99.869290792656656
 20
120.64793040945899
 30
0.0
 42
0.5251735434384823
  0
SEQEND
  5
1407
  8
SAPA_ANSLUTNING
  0
POLYLINE
  5
F82
  8
SAPA_ANSLUTNING
 66
     1
 10
0.0
 20
0.0
 30
0.0
  0
VERTEX
  5
1408
  8
SAPA_ANSLUTNING
 10
98.498928456659115
 20
110.0000000000001
 30
0.0
 42
0.8812634091771133
  0
VERTEX
  5
1409
  8
SAPA_ANSLUTNING
 10
98.000000000000043
 20
113.9367680282202
 30
0.0
  0
VERTEX
  5
140A
  8
SAPA_ANSLUTNING
 10
87.000000000000043
 20
113.9367680282202
 30
0.0
 42
-0.9999999999999998
  0
VERTEX
  5
140B
  8
SAPA_ANSLUTNING
 10
87.000000000000043
 20
117.9367680282202
 30
0.0
  0
VERTEX
  5
140C
  8
SAPA_ANSLUTNING
 10
98.000000000000043
 20
117.9367680282202
 30
0.0
 42
0.9999999999999998
  0
VERTEX
  5
140D
  8
SAPA_ANSLUTNING
 10
98.000000000000043
 20
121.9367680282202
 30
0.0
  0
VERTEX
  5
140E
  8
SAPA_ANSLUTNING
 10
87.000000000000043
 20
121.9367680282202
 30
0.0
 42
-0.9999999999999998
  0
VERTEX
  5
140F
  8
SAPA_ANSLUTNING
 10
87.000000000000043
 20
125.9367680282202
 30
0.0
  0
VERTEX
  5
1410
  8
SAPA_ANSLUTNING
 10
98.000000000000043
 20
125.9367680282202
 30
0.0
 42
0.9999999999999998
  0
VERTEX
  5
1411
  8
SAPA_ANSLUTNING
 10
98.000000000000043
 20
129.9367680282202
 30
0.0
  0
VERTEX
  5
1412
  8
SAPA_ANSLUTNING
 10
87.000000000000043
 20
129.9367680282202
 30
0.0
 42
-0.9999999999999998
  0
VERTEX
  5
1413
  8
SAPA_ANSLUTNING
 10
87.000000000000043
 20
133.9367680282202
 30
0.0
  0
VERTEX
  5
1414
  8
SAPA_ANSLUTNING
 10
98.000000000000043
 20
133.9367680282202
 30
0.0
 42
0.9999999999999998
  0
VERTEX
  5
1415
  8
SAPA_ANSLUTNING
 10
98.000000000000043
 20
137.9367680282202
 30
0.0
  0
VERTEX
  5
1416
  8
SAPA_ANSLUTNING
 10
87.000000000000043
 20
137.9367680282202
 30
0.0
 42
-0.4183530514568368
  0
VERTEX
  5
1417
  8
SAPA_ANSLUTNING
 10
85.000199156167795
 20
139.96499186580331
 30
0.0
 42
-0.4183530514568368
  0
SEQEND
  5
1418
  8
SAPA_ANSLUTNING
  0
POLYLINE
  5
1193
  8
SAPA_PROFIL
 62
     4
 66
     1
 10
0.0
 20
0.0
 30
0.0
 70
     1
  0
VERTEX
  5
1194
  8
SAPA_PROFIL
 62
     4
 10
39.649987999994423
 20
96.856217710674471
 30
0.0
 42
0.1316524975873979
  0
VERTEX
  5
1195
  8
SAPA_PROFIL
 62
     4
 10
39.757167676966851
 20
96.456217710674466
 30
0.0
  0
VERTEX
  5
1196
  8
SAPA_PROFIL
 62
     4
 10
40.749987999996279
 20
94.736602468400406
 30
0.0
  0
VERTEX
  5
1197
  8
SAPA_PROFIL
 62
     4
 10
40.749987999996371
 20
94.299999928021947
 30
0.0
 42
-0.4142135623730951
  0
VERTEX
  5
1198
  8
SAPA_PROFIL
 62
     4
 10
40.499987999996371
 20
94.049999928021975
 30
0.0
  0
VERTEX
  5
1199
  8
SAPA_PROFIL
 62
     4
 10
36.899975999996322
 20
94.049999928021919
 30
0.0
 42
-0.4142135623731053
  0
VERTEX
  5
119A
  8
SAPA_PROFIL
 62
     4
 10
36.649975999996308
 20
94.299999928021919
 30
0.0
  0
VERTEX
  5
119B
  8
SAPA_PROFIL
 62
     4
 10
36.649987642731681
 20
94.73660184960039
 30
0.0
  0
VERTEX
  5
119C
  8
SAPA_PROFIL
 62
     4
 10
37.642808323021953
 20
96.456217710667786
 30
0.0
 42
0.1316524975874149
  0
VERTEX
  5
119D
  8
SAPA_PROFIL
 62
     4
 10
37.749987999994438
 20
96.856217710667835
 30
0.0
  0
VERTEX
  5
119E
  8
SAPA_PROFIL
 62
     4
 10
37.749987999994438
 20
121.14378214537609
 30
0.0
 42
0.1316524975874151
  0
VERTEX
  5
119F
  8
SAPA_PROFIL
 62
     4
 10
37.642808323021953
 20
121.5437821453762
 30
0.0
  0
VERTEX
  5
11A0
  8
SAPA_PROFIL
 62
     4
 10
36.649987642731681
 20
123.2633980064435
 30
0.0
  0
VERTEX
  5
11A1
  8
SAPA_PROFIL
 62
     4
 10
36.649975999996322
 20
123.699999928022
 30
0.0
 42
-0.4142135623731054
  0
VERTEX
  5
11A2
  8
SAPA_PROFIL
 62
     4
 10
36.899975999996329
 20
123.949999928022
 30
0.0
  0
VERTEX
  5
11A3
  8
SAPA_PROFIL
 62
     4
 10
40.499987999996392
 20
123.949999928022
 30
0.0
 42
-0.4142135623730953
  0
VERTEX
  5
11A4
  8
SAPA_PROFIL
 62
     4
 10
40.749987999996371
 20
123.699999928022
 30
0.0
  0
VERTEX
  5
11A5
  8
SAPA_PROFIL
 62
     4
 10
40.749987999996293
 20
123.26339738764349
 30
0.0
  0
VERTEX
  5
11A6
  8
SAPA_PROFIL
 62
     4
 10
39.757167676966858
 20
121.54378214536951
 30
0.0
 42
0.1316524975873982
  0
VERTEX
  5
11A7
  8
SAPA_PROFIL
 62
     4
 10
39.649987999994423
 20
121.1437821453694
 30
0.0
  0
SEQEND
  5
11A8
  8
SAPA_PROFIL
 62
     4
  0
POLYLINE
  5
11A9
  8
SAPA_PROFIL
 66
     1
 10
0.0
 20
0.0
 30
0.0
 70
     1
  0
VERTEX
  5
1647
  8
SAPA_PROFIL
 10
42.74944465005688
 20
123.7561308870682
 30
0.0
  0
VERTEX
  5
1648
  8
SAPA_PROFIL
 10
42.749444650053242
 20
122.7999999280328
 30
0.0
 42
0.2418327667557183
  0
VERTEX
  5
1649
  8
SAPA_PROFIL
 10
42.874722325030191
 20
122.5561308870662
 30
0.0
 42
-0.2418327667535164
  0
VERTEX
  5
164A
  8
SAPA_PROFIL
 10
43.000000000004398
 20
122.3122618461075
 30
0.0
  0
VERTEX
  5
164B
  8
SAPA_PROFIL
 10
42.999999999995929
 20
120.0884579684747
 30
0.0
 42
-0.0874886635239214
  0
VERTEX
  5
164C
  8
SAPA_PROFIL
 10
42.981907786232128
 20
119.9858519254793
 30
0.0
  0
VERTEX
  5
164D
  8
SAPA_PROFIL
 10
42.462393718556783
 20
118.5584987554339
 30
0.0
 42
-0.4142135623698208
  0
VERTEX
  5
164E
  8
SAPA_PROFIL
 10
42.077879889314609
 20
118.3791970121965
 30
0.0
  0
VERTEX
  5
164F
  8
SAPA_PROFIL
 10
41.88994136516591
 20
118.4476010408675
 30
0.0
 42
-0.4142135623730019
  0
VERTEX
  5
1650
  8
SAPA_PROFIL
 10
41.710639621923391
 20
118.8321148700891
 30
0.0
  0
VERTEX
  5
1651
  8
SAPA_PROFIL
 10
42.08686177959008
 20
119.8657767529583
 30
0.0
 42
0.41421356237947
  0
VERTEX
  5
1652
  8
SAPA_PROFIL
 10
41.907560036338921
 20
120.2502905821899
 30
0.0
  0
VERTEX
  5
1653
  8
SAPA_PROFIL
 10
40.097369957000012
 20
120.9091458894257
 30
0.0
 42
-0.3152987888800591
  0
VERTEX
  5
1654
  8
SAPA_PROFIL
 10
39.899975999996677
 20
121.19105367566191
 30
0.0
  0
VERTEX
  5
1655
  8
SAPA_PROFIL
 10
39.899975999996776
 20
121.6107694434813
 30
0.0
 42
-0.1316524975873855
  0
VERTEX
  5
1656
  8
SAPA_PROFIL
 10
39.940168378861422
 20
121.76076944348119
 30
0.0
  0
VERTEX
  5
1657
  8
SAPA_PROFIL
 10
40.799975999996732
 20
123.24999992802211
 30
0.0
  0
VERTEX
  5
1658
  8
SAPA_PROFIL
 10
40.799987999996382
 20
123.699999928022
 30
0.0
 42
0.4142135623731054
  0
VERTEX
  5
1659
  8
SAPA_PROFIL
 10
40.499987999996378
 20
123.99999992802201
 30
0.0
  0
VERTEX
  5
165A
  8
SAPA_PROFIL
 10
36.899975999996329
 20
123.99999992802189
 30
0.0
 42
0.414213562373095
  0
VERTEX
  5
165B
  8
SAPA_PROFIL
 10
36.599975999996332
 20
123.699999928022
 30
0.0
  0
VERTEX
  5
165C
  8
SAPA_PROFIL
 10
36.599975999996431
 20
123.24999992802189
 30
0.0
  0
VERTEX
  5
165D
  8
SAPA_PROFIL
 10
37.459800737565409
 20
121.7607397969478
 30
0.0
 42
-0.1316363093594254
  0
VERTEX
  5
165E
  8
SAPA_PROFIL
 10
37.499993115822377
 20
121.610758891901
 30
0.0
  0
VERTEX
  5
165F
  8
SAPA_PROFIL
 10
37.50000016561318
 20
121.4999999280153
 30
0.0
  0
VERTEX
  5
1660
  8
SAPA_PROFIL
 10
35.50000000000005
 20
121.4999999280153
 30
0.0
 42
-0.4142135623730951
  0
VERTEX
  5
1661
  8
SAPA_PROFIL
 10
35.000000000000057
 20
121.9999999280154
 30
0.0
  0
VERTEX
  5
1662
  8
SAPA_PROFIL
 10
35.000000000000057
 20
129.14999992829331
 30
0.0
 42
-0.4142135623730935
  0
VERTEX
  5
1663
  8
SAPA_PROFIL
 10
35.299999999999329
 20
129.44999992828889
 30
0.0
  0
VERTEX
  5
1664
  8
SAPA_PROFIL
 10
35.950000000000792
 20
129.44999992829261
 30
0.0
 42
0.4142135623730951
  0
VERTEX
  5
1665
  8
SAPA_PROFIL
 10
36.25000000000005
 20
129.7499999282918
 30
0.0
  0
VERTEX
  5
1666
  8
SAPA_PROFIL
 10
36.250000000003688
 20
130.44999992817981
 30
0.0
 42
0.4142135623730971
  0
VERTEX
  5
1667
  8
SAPA_PROFIL
 10
35.950000000000792
 20
130.74999992817541
 30
0.0
  0
VERTEX
  5
1668
  8
SAPA_PROFIL
 10
24.049999999995698
 20
130.7499999281936
 30
0.0
 42
0.4142135623730881
  0
VERTEX
  5
1669
  8
SAPA_PROFIL
 10
23.749999999996419
 20
130.4499999281943
 30
0.0
  0
VERTEX
  5
166A
  8
SAPA_PROFIL
 10
23.749999999985501
 20
129.749999927717
 30
0.0
 42
0.4142135623730968
  0
VERTEX
  5
166B
  8
SAPA_PROFIL
 10
24.049999999995698
 20
129.44999992770681
 30
0.0
  0
VERTEX
  5
166C
  8
SAPA_PROFIL
 10
24.700000000008071
 20
129.44999992772139
 30
0.0
 42
-0.4142135623517844
  0
VERTEX
  5
166D
  8
SAPA_PROFIL
 10
24.999999999996419
 20
129.14999992771851
 30
0.0
  0
VERTEX
  5
166E
  8
SAPA_PROFIL
 10
24.999999999996419
 20
127.1999999277069
 30
0.0
 42
-0.414213562373103
  0
VERTEX
  5
166F
  8
SAPA_PROFIL
 10
24.799999999995698
 20
126.999999927717
 30
0.0
  0
VERTEX
  5
1670
  8
SAPA_PROFIL
 10
23.69999999999715
 20
126.999999927717
 30
0.0
 42
-0.4142135623731049
  0
VERTEX
  5
1671
  8
SAPA_PROFIL
 10
23.499999999996419
 20
127.1999999277069
 30
0.0
  0
VERTEX
  5
1672
  8
SAPA_PROFIL
 10
23.499999999996419
 20
127.999999927717
 30
0.0
 42
0.414213562373094
  0
VERTEX
  5
1673
  8
SAPA_PROFIL
 10
22.999999999996419
 20
128.499999927717
 30
0.0
  0
VERTEX
  5
1674
  8
SAPA_PROFIL
 10
21.999999999985491
 20
128.49999992819721
 30
0.0
 42
0.4142135623730951
  0
VERTEX
  5
1675
  8
SAPA_PROFIL
 10
21.499999999985508
 20
127.9999999281972
 30
0.0
  0
VERTEX
  5
1676
  8
SAPA_PROFIL
 10
21.499999999996419
 20
127.1999999281943
 30
0.0
 42
-0.414213562373103
  0
VERTEX
  5
1677
  8
SAPA_PROFIL
 10
21.299999999995698
 20
126.9999999281972
 30
0.0
  0
VERTEX
  5
1678
  8
SAPA_PROFIL
 10
20.199999999997139
 20
126.9999999282045
 30
0.0
 42
-0.4142135623731049
  0
VERTEX
  5
1679
  8
SAPA_PROFIL
 10
19.999999999996412
 20
127.1999999281943
 30
0.0
  0
VERTEX
  5
167A
  8
SAPA_PROFIL
 10
19.999999999996412
 20
130.7499999276952
 30
0.0
 42
-0.3389652260127085
  0
VERTEX
  5
167B
  8
SAPA_PROFIL
 10
20.739486851198791
 20
131.71547022724019
 30
0.0
 42
-0.0274862826960608
  0
VERTEX
  5
167C
  8
SAPA_PROFIL
 10
35.000000000174659
 20
132.4999999276761
 30
0.0
  0
VERTEX
  5
167D
  8
SAPA_PROFIL
 10
39.999999999901817
 20
132.4999999278335
 30
0.0
 42
-0.4142135623816193
  0
VERTEX
  5
167E
  8
SAPA_PROFIL
 10
42.999999999996398
 20
129.49999992783339
 30
0.0
  0
VERTEX
  5
167F
  8
SAPA_PROFIL
 10
42.999999999996412
 20
124.2438689689771
 30
0.0
 42
-0.2418327667412822
  0
VERTEX
  5
1680
  8
SAPA_PROFIL
 10
42.874722325032863
 20
123.99999992802751
 30
0.0
 42
0.2418327667543803
  0
SEQEND
  5
1681
  8
SAPA_PROFIL
  0
POLYLINE
  5
11AA
  8
SAPA_PROFIL
 66
     1
 10
0.0
 20
0.0
 30
0.0
 70
     1
  0
VERTEX
  5
1682
  8
SAPA_PROFIL
 10
42.749444650056937
 20
94.243868968975733
 30
0.0
  0
VERTEX
  5
1683
  8
SAPA_PROFIL
 10
42.749444650053292
 20
95.199999928011096
 30
0.0
 42
-0.2418327667557183
  0
VERTEX
  5
1684
  8
SAPA_PROFIL
 10
42.874722325030241
 20
95.443868968977668
 30
0.0
 42
0.2418327667535164
  0
VERTEX
  5
1685
  8
SAPA_PROFIL
 10
43.000000000004441
 20
95.68773800993641
 30
0.0
  0
VERTEX
  5
1686
  8
SAPA_PROFIL
 10
42.999999999995978
 20
97.911541887569228
 30
0.0
 42
0.0874886635239214
  0
VERTEX
  5
1687
  8
SAPA_PROFIL
 10
42.981907786232178
 20
98.014147930564619
 30
0.0
  0
VERTEX
  5
1688
  8
SAPA_PROFIL
 10
42.462393718556847
 20
99.441501100610054
 30
0.0
 42
0.4142135623698208
  0
VERTEX
  5
1689
  8
SAPA_PROFIL
 10
42.077879889314673
 20
99.620802843847457
 30
0.0
  0
VERTEX
  5
168A
  8
SAPA_PROFIL
 10
41.889941365165967
 20
99.552398815176389
 30
0.0
 42
0.4142135623730019
  0
VERTEX
  5
168B
  8
SAPA_PROFIL
 10
41.710639621923441
 20
99.167884985954757
 30
0.0
  0
VERTEX
  5
168C
  8
SAPA_PROFIL
 10
42.08686177959013
 20
98.134223103085603
 30
0.0
 42
-0.41421356237947
  0
VERTEX
  5
168D
  8
SAPA_PROFIL
 10
41.907560036338971
 20
97.749709273854052
 30
0.0
  0
VERTEX
  5
168E
  8
SAPA_PROFIL
 10
40.097369957000062
 20
97.090853966618226
 30
0.0
 42
0.3152987888800591
  0
VERTEX
  5
168F
  8
SAPA_PROFIL
 10
39.899975999996727
 20
96.808946180382023
 30
0.0
  0
VERTEX
  5
1690
  8
SAPA_PROFIL
 10
39.899975999996819
 20
96.389230412562668
 30
0.0
 42
0.1316524975873855
  0
VERTEX
  5
1691
  8
SAPA_PROFIL
 10
39.940168378861472
 20
96.239230412562762
 30
0.0
  0
VERTEX
  5
1692
  8
SAPA_PROFIL
 10
40.799975999996782
 20
94.749999928021865
 30
0.0
  0
VERTEX
  5
1693
  8
SAPA_PROFIL
 10
40.799987999996439
 20
94.299999928021919
 30
0.0
 42
-0.4142135623731054
  0
VERTEX
  5
1694
  8
SAPA_PROFIL
 10
40.499987999996428
 20
93.999999928021907
 30
0.0
  0
VERTEX
  5
1695
  8
SAPA_PROFIL
 10
36.899975999996371
 20
93.999999928021964
 30
0.0
 42
-0.414213562373095
  0
VERTEX
  5
1696
  8
SAPA_PROFIL
 10
36.599975999996381
 20
94.299999928021961
 30
0.0
  0
VERTEX
  5
1697
  8
SAPA_PROFIL
 10
36.599975999996467
 20
94.749999928021964
 30
0.0
  0
VERTEX
  5
1698
  8
SAPA_PROFIL
 10
37.459800737565459
 20
96.239260059096154
 30
0.0
 42
0.1316363093594254
  0
VERTEX
  5
1699
  8
SAPA_PROFIL
 10
37.499993115822427
 20
96.389240964142886
 30
0.0
  0
VERTEX
  5
169A
  8
SAPA_PROFIL
 10
37.50000016561323
 20
96.499999928028572
 30
0.0
  0
VERTEX
  5
169B
  8
SAPA_PROFIL
 10
35.500000000000107
 20
96.499999928028572
 30
0.0
 42
0.4142135623730951
  0
VERTEX
  5
169C
  8
SAPA_PROFIL
 10
35.000000000000107
 20
95.999999928028544
 30
0.0
  0
VERTEX
  5
169D
  8
SAPA_PROFIL
 10
35.000000000000107
 20
88.849999927750616
 30
0.0
 42
0.4142135623730935
  0
VERTEX
  5
169E
  8
SAPA_PROFIL
 10
35.299999999999379
 20
88.549999927754982
 30
0.0
  0
VERTEX
  5
169F
  8
SAPA_PROFIL
 10
35.950000000000841
 20
88.549999927751358
 30
0.0
 42
-0.4142135623730951
  0
VERTEX
  5
16A0
  8
SAPA_PROFIL
 10
36.250000000000099
 20
88.249999927752086
 30
0.0
  0
VERTEX
  5
16A1
  8
SAPA_PROFIL
 10
36.250000000003752
 20
87.549999927864135
 30
0.0
 42
-0.4142135623730971
  0
VERTEX
  5
16A2
  8
SAPA_PROFIL
 10
35.950000000000841
 20
87.249999927868487
 30
0.0
  0
VERTEX
  5
16A3
  8
SAPA_PROFIL
 10
24.049999999995741
 20
87.249999927850311
 30
0.0
 42
-0.4142135623730881
  0
VERTEX
  5
16A4
  8
SAPA_PROFIL
 10
23.749999999996469
 20
87.549999927849569
 30
0.0
  0
VERTEX
  5
16A5
  8
SAPA_PROFIL
 10
23.749999999985551
 20
88.249999928326886
 30
0.0
 42
-0.4142135623730968
  0
VERTEX
  5
16A6
  8
SAPA_PROFIL
 10
24.049999999995741
 20
88.549999928337073
 30
0.0
  0
VERTEX
  5
16A7
  8
SAPA_PROFIL
 10
24.70000000000811
 20
88.549999928322535
 30
0.0
 42
0.4142135623517844
  0
VERTEX
  5
16A8
  8
SAPA_PROFIL
 10
24.999999999996469
 20
88.849999928325431
 30
0.0
  0
VERTEX
  5
16A9
  8
SAPA_PROFIL
 10
24.999999999996469
 20
90.799999928337073
 30
0.0
 42
0.414213562373103
  0
VERTEX
  5
16AA
  8
SAPA_PROFIL
 10
24.799999999995741
 20
90.999999928326886
 30
0.0
  0
VERTEX
  5
16AB
  8
SAPA_PROFIL
 10
23.6999999999972
 20
90.999999928326886
 30
0.0
 42
0.4142135623731049
  0
VERTEX
  5
16AC
  8
SAPA_PROFIL
 10
23.499999999996469
 20
90.799999928337073
 30
0.0
  0
VERTEX
  5
16AD
  8
SAPA_PROFIL
 10
23.499999999996469
 20
89.999999928326886
 30
0.0
 42
-0.414213562373094
  0
VERTEX
  5
16AE
  8
SAPA_PROFIL
 10
22.999999999996469
 20
89.499999928326886
 30
0.0
  0
VERTEX
  5
16AF
  8
SAPA_PROFIL
 10
21.999999999985551
 20
89.499999927846702
 30
0.0
 42
-0.4142135623730951
  0
VERTEX
  5
16B0
  8
SAPA_PROFIL
 10
21.499999999985562
 20
89.999999927846716
 30
0.0
  0
VERTEX
  5
16B1
  8
SAPA_PROFIL
 10
21.499999999996469
 20
90.799999927849598
 30
0.0
 42
0.414213562373103
  0
VERTEX
  5
16B2
  8
SAPA_PROFIL
 10
21.299999999995741
 20
90.999999927846702
 30
0.0
  0
VERTEX
  5
16B3
  8
SAPA_PROFIL
 10
20.199999999997189
 20
90.999999927839426
 30
0.0
 42
0.4142135623731049
  0
VERTEX
  5
16B4
  8
SAPA_PROFIL
 10
19.999999999996451
 20
90.799999927849598
 30
0.0
  0
VERTEX
  5
16B5
  8
SAPA_PROFIL
 10
19.999999999996451
 20
87.249999928348743
 30
0.0
 42
0.3389652260127085
  0
VERTEX
  5
16B6
  8
SAPA_PROFIL
 10
20.739486851198841
 20
86.284529628803725
 30
0.0
 42
0.0274862826960608
  0
VERTEX
  5
16B7
  8
SAPA_PROFIL
 10
35.000000000174708
 20
85.499999928367828
 30
0.0
  0
VERTEX
  5
16B8
  8
SAPA_PROFIL
 10
39.999999999901867
 20
85.499999928210485
 30
0.0
 42
0.4142135623816193
  0
VERTEX
  5
16B9
  8
SAPA_PROFIL
 10
42.999999999996461
 20
88.499999928210457
 30
0.0
  0
VERTEX
  5
16BA
  8
SAPA_PROFIL
 10
42.999999999996469
 20
93.756130887066846
 30
0.0
 42
0.2418327667412822
  0
VERTEX
  5
16BB
  8
SAPA_PROFIL
 10
42.874722325032913
 20
93.999999928016422
 30
0.0
 42
-0.2418327667543803
  0
SEQEND
  5
16BC
  8
SAPA_PROFIL
  0
POLYLINE
  5
11AB
  8
SAPA_PROFIL
 62
     4
 66
     1
 10
0.0
 20
0.0
 30
0.0
 70
     1
  0
VERTEX
  5
16BD
  8
SAPA_PROFIL
 62
     4
 10
79.50925230370224
 20
64.725833080859388
 30
0.0
  0
VERTEX
  5
16BE
  8
SAPA_PROFIL
 62
     4
 10
78.64944465005992
 20
63.236602540014189
 30
0.0
  0
VERTEX
  5
16BF
  8
SAPA_PROFIL
 62
     4
 10
78.64944465005982
 20
62.79999999963573
 30
0.0
 42
0.4142135623730946
  0
VERTEX
  5
16C0
  8
SAPA_PROFIL
 62
     4
 10
78.89944465005982
 20
62.549999999635759
 30
0.0
  0
VERTEX
  5
16C1
  8
SAPA_PROFIL
 62
     4
 10
82.499456650059884
 20
62.549999999635702
 30
0.0
 42
0.414213562373107
  0
VERTEX
  5
16C2
  8
SAPA_PROFIL
 62
     4
 10
82.749456650059884
 20
62.799999999635702
 30
0.0
  0
VERTEX
  5
16C3
  8
SAPA_PROFIL
 62
     4
 10
82.749445007324525
 20
63.236601921214167
 30
0.0
  0
VERTEX
  5
16C4
  8
SAPA_PROFIL
 62
     4
 10
81.889637061431529
 20
64.725832968251865
 30
0.0
 42
-0.1316524975874248
  0
VERTEX
  5
16C5
  8
SAPA_PROFIL
 62
     4
 10
81.849444682566855
 20
64.875832968251899
 30
0.0
  0
VERTEX
  5
16C6
  8
SAPA_PROFIL
 62
     4
 10
81.84944468256684
 20
88.124166959503157
 30
0.0
 42
-0.1316524975874248
  0
VERTEX
  5
16C7
  8
SAPA_PROFIL
 62
     4
 10
81.889637061431529
 20
88.274166959503191
 30
0.0
  0
VERTEX
  5
16C8
  8
SAPA_PROFIL
 62
     4
 10
82.749445007324496
 20
89.763398006540882
 30
0.0
  0
VERTEX
  5
16C9
  8
SAPA_PROFIL
 62
     4
 10
82.749456650059855
 20
90.199999928119325
 30
0.0
 42
0.4142135623731049
  0
VERTEX
  5
16CA
  8
SAPA_PROFIL
 62
     4
 10
82.499456650059855
 20
90.449999928119325
 30
0.0
  0
VERTEX
  5
16CB
  8
SAPA_PROFIL
 62
     4
 10
78.899444650059806
 20
90.449999928119297
 30
0.0
 42
0.4142135623730951
  0
VERTEX
  5
16CC
  8
SAPA_PROFIL
 62
     4
 10
78.649444650059806
 20
90.199999928119297
 30
0.0
  0
VERTEX
  5
16CD
  8
SAPA_PROFIL
 62
     4
 10
78.649444650059905
 20
89.763397387740838
 30
0.0
  0
VERTEX
  5
16CE
  8
SAPA_PROFIL
 62
     4
 10
79.509252303702155
 20
88.274166846895724
 30
0.0
 42
-0.1316524975873867
  0
VERTEX
  5
16CF
  8
SAPA_PROFIL
 62
     4
 10
79.549444682566843
 20
88.124166846895747
 30
0.0
  0
VERTEX
  5
16D0
  8
SAPA_PROFIL
 62
     4
 10
79.5494446825669
 20
64.875833080859366
 30
0.0
 42
-0.1316524975873873
  0
SEQEND
  5
16D1
  8
SAPA_PROFIL
 62
     4
  0
POLYLINE
  5
11AC
  8
SAPA_PROFIL
 66
     1
 10
0.0
 20
0.0
 30
0.0
 70
     1
  0
VERTEX
  5
16D2
  8
SAPA_PROFIL
 10
35.000000000032763
 20
17.300000000010311
 30
0.0
 42
-0.4142135623624294
  0
VERTEX
  5
16D3
  8
SAPA_PROFIL
 10
35.200000000008011
 20
17.500000000000099
 30
0.0
  0
VERTEX
  5
16D4
  8
SAPA_PROFIL
 10
36.05000000000657
 20
17.500000000014651
 30
0.0
 42
0.4142135623730744
  0
VERTEX
  5
16D5
  8
SAPA_PROFIL
 10
36.250000000007297
 20
17.700000000019021
 30
0.0
  0
VERTEX
  5
16D6
  8
SAPA_PROFIL
 10
36.250000000000007
 20
18.000000000000131
 30
0.0
 42
0.4142135623731035
  0
VERTEX
  5
16D7
  8
SAPA_PROFIL
 10
35.750000000000007
 20
18.500000000000131
 30
0.0
  0
VERTEX
  5
16D8
  8
SAPA_PROFIL
 10
32.750000000000007
 20
18.500000000000131
 30
0.0
 42
0.4142135623731035
  0
VERTEX
  5
16D9
  8
SAPA_PROFIL
 10
32.250000000000007
 20
18.000000000000131
 30
0.0
  0
VERTEX
  5
16DA
  8
SAPA_PROFIL
 10
32.250000000000007
 20
17.700000000004461
 30
0.0
 42
0.4142135623730744
  0
VERTEX
  5
16DB
  8
SAPA_PROFIL
 10
32.450000000000749
 20
17.500000000000099
 30
0.0
  0
VERTEX
  5
16DC
  8
SAPA_PROFIL
 10
33.300000000002932
 20
17.500000000011038
 30
0.0
 42
-0.4142135623730534
  0
VERTEX
  5
16DD
  8
SAPA_PROFIL
 10
33.500000000000007
 20
17.300000000010311
 30
0.0
  0
VERTEX
  5
16DE
  8
SAPA_PROFIL
 10
33.500000000000007
 20
16.300000000010311
 30
0.0
 42
-0.4142135623731035
  0
VERTEX
  5
16DF
  8
SAPA_PROFIL
 10
33.000000000000007
 20
15.800000000010311
 30
0.0
  0
VERTEX
  5
16E0
  8
SAPA_PROFIL
 10
27.000000000000021
 20
15.800000000010311
 30
0.0
 42
-0.4142135623731033
  0
VERTEX
  5
16E1
  8
SAPA_PROFIL
 10
26.500000000000021
 20
16.300000000010311
 30
0.0
  0
VERTEX
  5
16E2
  8
SAPA_PROFIL
 10
26.500000000010939
 20
17.300000000010311
 30
0.0
 42
-0.414213562373064
  0
VERTEX
  5
16E3
  8
SAPA_PROFIL
 10
26.700000000000749
 20
17.500000000000099
 30
0.0
  0
VERTEX
  5
16E4
  8
SAPA_PROFIL
 10
27.550000000002932
 20
17.500000000000099
 30
0.0
 42
0.414213562373064
  0
VERTEX
  5
16E5
  8
SAPA_PROFIL
 10
27.750000000000021
 20
17.700000000004461
 30
0.0
  0
VERTEX
  5
16E6
  8
SAPA_PROFIL
 10
27.750000000000021
 20
18.000000000000131
 30
0.0
 42
0.4142135623731035
  0
VERTEX
  5
16E7
  8
SAPA_PROFIL
 10
27.250000000000021
 20
18.500000000000131
 30
0.0
  0
VERTEX
  5
16E8
  8
SAPA_PROFIL
 10
25.500000000000021
 20
18.500000000000131
 30
0.0
 42
0.4142135623731035
  0
VERTEX
  5
16E9
  8
SAPA_PROFIL
 10
25.000000000000021
 20
18.000000000000131
 30
0.0
  0
VERTEX
  5
16EA
  8
SAPA_PROFIL
 10
25.000000000000021
 20
15.50000000000013
 30
0.0
 42
0.4142135623730966
  0
VERTEX
  5
16EB
  8
SAPA_PROFIL
 10
26.500000000000021
 20
14.000000000000099
 30
0.0
  0
VERTEX
  5
16EC
  8
SAPA_PROFIL
 10
84.700000000000728
 20
14.00000000000011
 30
0.0
 42
0.4142135623730935
  0
VERTEX
  5
16ED
  8
SAPA_PROFIL
 10
85.000000000000014
 20
14.3000000000103
 30
0.0
  0
VERTEX
  5
16EE
  8
SAPA_PROFIL
 10
85.000000000000014
 20
62.256130958696417
 30
0.0
 42
0.2418327667378115
  0
VERTEX
  5
16EF
  8
SAPA_PROFIL
 10
84.874722325032906
 20
62.499999999634809
 30
0.0
 42
-0.2418327667509125
  0
VERTEX
  5
16F0
  8
SAPA_PROFIL
 10
84.749444650060482
 20
62.743869040590774
 30
0.0
  0
VERTEX
  5
16F1
  8
SAPA_PROFIL
 10
84.749444650056844
 20
63.699999999640681
 30
0.0
 42
-0.2418327667448973
  0
VERTEX
  5
16F2
  8
SAPA_PROFIL
 10
84.87472232502526
 20
63.943869040595622
 30
0.0
 42
0.2418327667448979
  0
VERTEX
  5
16F3
  8
SAPA_PROFIL
 10
84.999999999992454
 20
64.187738081548218
 30
0.0
  0
VERTEX
  5
16F4
  8
SAPA_PROFIL
 10
84.999999999992454
 20
66.285810437266178
 30
0.0
 42
0.6681786379192718
  0
VERTEX
  5
16F5
  8
SAPA_PROFIL
 10
83.292893218805958
 20
66.992917218452789
 30
0.0
  0
VERTEX
  5
16F6
  8
SAPA_PROFIL
 10
81.987843965636785
 20
65.687867965283829
 30
0.0
 42
0.1989123673797335
  0
VERTEX
  5
16F7
  8
SAPA_PROFIL
 10
81.899975999992677
 20
65.475735930927755
 30
0.0
  0
VERTEX
  5
16F8
  8
SAPA_PROFIL
 10
81.899975999992819
 20
64.889230484180558
 30
0.0
 42
0.1316524975873855
  0
VERTEX
  5
16F9
  8
SAPA_PROFIL
 10
81.940168378857464
 20
64.739230484180638
 30
0.0
  0
VERTEX
  5
16FA
  8
SAPA_PROFIL
 10
82.799975999992753
 20
63.249999999639748
 30
0.0
  0
VERTEX
  5
16FB
  8
SAPA_PROFIL
 10
82.799987999992425
 20
62.799999999639802
 30
0.0
 42
-0.4142135623731054
  0
VERTEX
  5
16FC
  8
SAPA_PROFIL
 10
82.499987999992427
 20
62.49999999963979
 30
0.0
  0
VERTEX
  5
16FD
  8
SAPA_PROFIL
 10
78.899975999992364
 20
62.49999999963984
 30
0.0
 42
-0.4142135623730951
  0
VERTEX
  5
16FE
  8
SAPA_PROFIL
 10
78.599975999992367
 20
62.799999999639851
 30
0.0
  0
VERTEX
  5
16FF
  8
SAPA_PROFIL
 10
78.599975999992466
 20
63.24999999963984
 30
0.0
  0
VERTEX
  5
1700
  8
SAPA_PROFIL
 10
79.459800737561451
 20
64.739260130714001
 30
0.0
 42
0.1316363093594257
  0
VERTEX
  5
1701
  8
SAPA_PROFIL
 10
79.499993115818413
 20
64.889241035760762
 30
0.0
  0
VERTEX
  5
1702
  8
SAPA_PROFIL
 10
79.500000165609222
 20
64.999999999643592
 30
0.0
  0
VERTEX
  5
1703
  8
SAPA_PROFIL
 10
77.914359353937485
 20
64.999999999643592
 30
0.0
 42
0.2679491924308306
  0
VERTEX
  5
1704
  8
SAPA_PROFIL
 10
77.048333950158863
 20
64.499999999643592
 30
0.0
  0
VERTEX
  5
1705
  8
SAPA_PROFIL
 10
76.037970979080384
 20
62.749999999643137
 30
0.0
 42
-0.2679491924308306
  0
VERTEX
  5
1706
  8
SAPA_PROFIL
 10
75.60495827718843
 20
62.499999999643592
 30
0.0
  0
VERTEX
  5
1707
  8
SAPA_PROFIL
 10
74.39504172280796
 20
62.499999999643592
 30
0.0
 42
-0.2679491924308304
  0
VERTEX
  5
1708
  8
SAPA_PROFIL
 10
73.96202902091683
 20
62.749999999643592
 30
0.0
  0
VERTEX
  5
1709
  8
SAPA_PROFIL
 10
72.951666049841165
 20
64.499999999643592
 30
0.0
 42
0.2679491924308308
  0
VERTEX
  5
170A
  8
SAPA_PROFIL
 10
72.085640646055268
 20
64.999999999641716
 30
0.0
  0
VERTEX
  5
170B
  8
SAPA_PROFIL
 10
70.499999834387154
 20
64.999999999643876
 30
0.0
  0
VERTEX
  5
170C
  8
SAPA_PROFIL
 10
70.500006884177978
 20
64.889241035760762
 30
0.0
 42
0.1316363093594255
  0
VERTEX
  5
170D
  8
SAPA_PROFIL
 10
70.540199262434939
 20
64.739260130714001
 30
0.0
  0
VERTEX
  5
170E
  8
SAPA_PROFIL
 10
71.400024000003924
 20
63.24999999963984
 30
0.0
  0
VERTEX
  5
170F
  8
SAPA_PROFIL
 10
71.400024000004024
 20
62.799999999639851
 30
0.0
 42
-0.4142135623730951
  0
VERTEX
  5
1710
  8
SAPA_PROFIL
 10
71.100024000004026
 20
62.49999999963984
 30
0.0
  0
VERTEX
  5
1711
  8
SAPA_PROFIL
 10
67.500012000003963
 20
62.49999999963979
 30
0.0
 42
-0.4142135623731054
  0
VERTEX
  5
1712
  8
SAPA_PROFIL
 10
67.200012000003966
 20
62.799999999639802
 30
0.0
  0
VERTEX
  5
1713
  8
SAPA_PROFIL
 10
67.200024000003623
 20
63.249999999639748
 30
0.0
  0
VERTEX
  5
1714
  8
SAPA_PROFIL
 10
68.059831621138926
 20
64.739230484180638
 30
0.0
 42
0.1316524975873855
  0
VERTEX
  5
1715
  8
SAPA_PROFIL
 10
68.100024000003572
 20
64.889230484180558
 30
0.0
  0
VERTEX
  5
1716
  8
SAPA_PROFIL
 10
68.100024000003714
 20
65.475735930927755
 30
0.0
 42
0.1989123673797335
  0
VERTEX
  5
1717
  8
SAPA_PROFIL
 10
68.012156034359606
 20
65.687867965283829
 30
0.0
  0
VERTEX
  5
1718
  8
SAPA_PROFIL
 10
66.707106781190433
 20
66.992917218452789
 30
0.0
 42
0.6681786379192716
  0
VERTEX
  5
1719
  8
SAPA_PROFIL
 10
65.000000000003936
 20
66.285810437266178
 30
0.0
  0
VERTEX
  5
171A
  8
SAPA_PROFIL
 10
65.000000000003936
 20
64.187738081546485
 30
0.0
 42
0.2418327667433386
  0
VERTEX
  5
171B
  8
SAPA_PROFIL
 10
65.125277674969695
 20
63.943869040594933
 30
0.0
 42
-0.2418327667449431
  0
VERTEX
  5
171C
  8
SAPA_PROFIL
 10
65.250555349935894
 20
63.699999999640681
 30
0.0
  0
VERTEX
  5
171D
  8
SAPA_PROFIL
 10
65.250555349939546
 20
62.743869040590774
 30
0.0
 42
-0.2418327667509097
  0
VERTEX
  5
171E
  8
SAPA_PROFIL
 10
65.125277674957132
 20
62.499999999643649
 30
0.0
 42
0.2418327667378167
  0
VERTEX
  5
171F
  8
SAPA_PROFIL
 10
65.000000000003936
 20
62.256130958696417
 30
0.0
  0
VERTEX
  5
1720
  8
SAPA_PROFIL
 10
64.999999999985462
 20
60.443389324929854
 30
0.0
 42
0.1095178116817878
  0
VERTEX
  5
1721
  8
SAPA_PROFIL
 10
65.187384425907297
 20
59.598152801458859
 30
0.0
  0
VERTEX
  5
1722
  8
SAPA_PROFIL
 10
67.812615574068346
 20
53.968326436319437
 30
0.0
 42
-0.1095178116855129
  0
VERTEX
  5
1723
  8
SAPA_PROFIL
 10
68.000000000000014
 20
53.123089912835098
 30
0.0
  0
VERTEX
  5
1724
  8
SAPA_PROFIL
 10
68.00000000000729
 20
45.999999999658137
 30
0.0
 42
-0.4142135623730957
  0
VERTEX
  5
1725
  8
SAPA_PROFIL
 10
67.499999999985462
 20
45.499999999658137
 30
0.0
  0
VERTEX
  5
1726
  8
SAPA_PROFIL
 10
66.499999999985462
 20
45.499999999658137
 30
0.0
 42
-0.4142135623730915
  0
VERTEX
  5
1727
  8
SAPA_PROFIL
 10
65.999999999985462
 20
45.999999999658137
 30
0.0
  0
VERTEX
  5
1728
  8
SAPA_PROFIL
 10
65.999999999985462
 20
46.291287847139863
 30
0.0
 42
0.2982166266909514
  0
VERTEX
  5
1729
  8
SAPA_PROFIL
 10
65.699999999998354
 20
46.749545416629807
 30
0.0
 42
1.5275252316550829
  0
VERTEX
  5
172A
  8
SAPA_PROFIL
 10
65.699999999998454
 20
41.250454582702361
 30
0.0
 42
0.2982166266892446
  0
VERTEX
  5
172B
  8
SAPA_PROFIL
 10
65.999999999976126
 20
41.708712152169142
 30
0.0
  0
VERTEX
  5
172C
  8
SAPA_PROFIL
 10
65.999999999985462
 20
41.999999999658137
 30
0.0
 42
-0.4142135623730915
  0
VERTEX
  5
172D
  8
SAPA_PROFIL
 10
66.499999999985462
 20
42.499999999658137
 30
0.0
  0
VERTEX
  5
172E
  8
SAPA_PROFIL
 10
67.499999999985462
 20
42.499999999658137
 30
0.0
 42
-0.4142135623730918
  0
VERTEX
  5
172F
  8
SAPA_PROFIL
 10
67.999999999985462
 20
41.999999999658137
 30
0.0
  0
VERTEX
  5
1730
  8
SAPA_PROFIL
 10
67.999999999985462
 20
23.0769100868057
 30
0.0
 42
-0.1095178116838485
  0
VERTEX
  5
1731
  8
SAPA_PROFIL
 10
67.812615574065546
 20
22.231673563315901
 30
0.0
  0
VERTEX
  5
1732
  8
SAPA_PROFIL
 10
65.538475052471782
 20
17.35476347652741
 30
0.0
 42
-0.2914734195858569
  0
VERTEX
  5
1733
  8
SAPA_PROFIL
 10
63.725859478388891
 20
16.200000000004479
 30
0.0
  0
VERTEX
  5
1734
  8
SAPA_PROFIL
 10
44.00000000000729
 20
16.200000000004461
 30
0.0
 42
-0.4142135623730951
  0
VERTEX
  5
1735
  8
SAPA_PROFIL
 10
43.50000000000729
 20
16.700000000004461
 30
0.0
  0
VERTEX
  5
1736
  8
SAPA_PROFIL
 10
43.50000000000729
 20
17.000000000021931
 30
0.0
 42
-0.4142135623731035
  0
VERTEX
  5
1737
  8
SAPA_PROFIL
 10
44.00000000000729
 20
17.500000000021931
 30
0.0
  0
VERTEX
  5
1738
  8
SAPA_PROFIL
 10
45.30000000000657
 20
17.500000000021931
 30
0.0
 42
0.4142135623730744
  0
VERTEX
  5
1739
  8
SAPA_PROFIL
 10
45.500000000010942
 20
17.700000000019021
 30
0.0
  0
VERTEX
  5
173A
  8
SAPA_PROFIL
 10
45.500000000007283
 20
18.00000000002192
 30
0.0
 42
0.4142135623731035
  0
VERTEX
  5
173B
  8
SAPA_PROFIL
 10
45.000000000007297
 20
18.500000000021931
 30
0.0
  0
VERTEX
  5
173C
  8
SAPA_PROFIL
 10
41.250000000007297
 20
18.500000000000131
 30
0.0
 42
0.4142135623731035
  0
VERTEX
  5
173D
  8
SAPA_PROFIL
 10
40.750000000007297
 20
18.000000000000131
 30
0.0
  0
VERTEX
  5
173E
  8
SAPA_PROFIL
 10
40.750000000007297
 20
17.700000000004461
 30
0.0
 42
0.4142135623731159
  0
VERTEX
  5
173F
  8
SAPA_PROFIL
 10
40.950000000022563
 20
17.49999999999649
 30
0.0
  0
VERTEX
  5
1740
  8
SAPA_PROFIL
 10
41.800000000006563
 20
17.500000000000099
 30
0.0
 42
-0.4142135623730951
  0
VERTEX
  5
1741
  8
SAPA_PROFIL
 10
42.000000000007297
 20
17.300000000010311
 30
0.0
  0
VERTEX
  5
1742
  8
SAPA_PROFIL
 10
42.000000000007297
 20
16.300000000010311
 30
0.0
 42
-0.4142135623731035
  0
VERTEX
  5
1743
  8
SAPA_PROFIL
 10
41.50000000000729
 20
15.800000000010311
 30
0.0
  0
VERTEX
  5
1744
  8
SAPA_PROFIL
 10
35.50000000000729
 20
15.800000000010311
 30
0.0
 42
-0.4142135623731033
  0
VERTEX
  5
1745
  8
SAPA_PROFIL
 10
35.000000000007297
 20
16.300000000010311
 30
0.0
  0
SEQEND
  5
1746
  8
SAPA_PROFIL
  0
POLYLINE
  5
11AD
  8
SAPA_PROFIL
 66
     1
 10
0.0
 20
0.0
 30
0.0
 70
     1
  0
VERTEX
  5
1747
  8
SAPA_PROFIL
 10
82.199999999986176
 20
59.999999999643592
 30
0.0
  0
VERTEX
  5
1748
  8
SAPA_PROFIL
 10
70.600000000005835
 20
59.999999999643592
 30
0.0
 42
0.4142135623730951
  0
VERTEX
  5
1749
  8
SAPA_PROFIL
 10
70.300000000002925
 20
59.699999999640681
 30
0.0
  0
VERTEX
  5
174A
  8
SAPA_PROFIL
 10
70.299999999981097
 20
16.8000000000103
 30
0.0
 42
0.4142135623730935
  0
VERTEX
  5
174B
  8
SAPA_PROFIL
 10
70.599999999980369
 20
16.500000000011031
 30
0.0
  0
VERTEX
  5
174C
  8
SAPA_PROFIL
 10
82.200000000000728
 20
16.50000000000011
 30
0.0
 42
0.4142135623730935
  0
VERTEX
  5
174D
  8
SAPA_PROFIL
 10
82.500000000000014
 20
16.8000000000103
 30
0.0
  0
VERTEX
  5
174E
  8
SAPA_PROFIL
 10
82.499999999985462
 20
59.699999999640681
 30
0.0
 42
0.4142135623730939
  0
SEQEND
  5
174F
  8
SAPA_PROFIL
  0
POLYLINE
  5
11AE
  8
SAPA_PROFIL
 66
     1
 10
0.0
 20
0.0
 30
0.0
 70
     1
  0
VERTEX
  5
1750
  8
SAPA_PROFIL
 10
35.000000000032742
 20
135.6999999277447
 30
0.0
 42
0.4142135623624294
  0
VERTEX
  5
1751
  8
SAPA_PROFIL
 10
35.200000000007982
 20
135.4999999277548
 30
0.0
  0
VERTEX
  5
1752
  8
SAPA_PROFIL
 10
36.050000000006541
 20
135.4999999277403
 30
0.0
 42
-0.4142135623730744
  0
VERTEX
  5
1753
  8
SAPA_PROFIL
 10
36.250000000007269
 20
135.299999927736
 30
0.0
  0
VERTEX
  5
1754
  8
SAPA_PROFIL
 10
36.249999999999979
 20
134.99999992775491
 30
0.0
 42
-0.4142135623731035
  0
VERTEX
  5
1755
  8
SAPA_PROFIL
 10
35.749999999999979
 20
134.49999992775491
 30
0.0
  0
VERTEX
  5
1756
  8
SAPA_PROFIL
 10
32.749999999999979
 20
134.49999992775491
 30
0.0
 42
-0.4142135623731035
  0
VERTEX
  5
1757
  8
SAPA_PROFIL
 10
32.249999999999979
 20
134.99999992775491
 30
0.0
  0
VERTEX
  5
1758
  8
SAPA_PROFIL
 10
32.249999999999979
 20
135.29999992775049
 30
0.0
 42
-0.4142135623730744
  0
VERTEX
  5
1759
  8
SAPA_PROFIL
 10
32.45000000000072
 20
135.4999999277548
 30
0.0
  0
VERTEX
  5
175A
  8
SAPA_PROFIL
 10
33.300000000002903
 20
135.49999992774389
 30
0.0
 42
0.4142135623730534
  0
VERTEX
  5
175B
  8
SAPA_PROFIL
 10
33.499999999999979
 20
135.6999999277447
 30
0.0
  0
VERTEX
  5
175C
  8
SAPA_PROFIL
 10
33.499999999999979
 20
136.6999999277447
 30
0.0
 42
0.4142135623731035
  0
VERTEX
  5
175D
  8
SAPA_PROFIL
 10
32.999999999999979
 20
137.1999999277447
 30
0.0
  0
VERTEX
  5
175E
  8
SAPA_PROFIL
 10
26.999999999999989
 20
137.1999999277447
 30
0.0
 42
0.4142135623731033
  0
VERTEX
  5
175F
  8
SAPA_PROFIL
 10
26.499999999999989
 20
136.6999999277447
 30
0.0
  0
VERTEX
  5
1760
  8
SAPA_PROFIL
 10
26.50000000001091
 20
135.6999999277447
 30
0.0
 42
0.414213562373064
  0
VERTEX
  5
1761
  8
SAPA_PROFIL
 10
26.70000000000072
 20
135.4999999277548
 30
0.0
  0
VERTEX
  5
1762
  8
SAPA_PROFIL
 10
27.5500000000029
 20
135.4999999277548
 30
0.0
 42
-0.414213562373064
  0
VERTEX
  5
1763
  8
SAPA_PROFIL
 10
27.749999999999989
 20
135.29999992775049
 30
0.0
  0
VERTEX
  5
1764
  8
SAPA_PROFIL
 10
27.749999999999989
 20
134.99999992775491
 30
0.0
 42
-0.4142135623731035
  0
VERTEX
  5
1765
  8
SAPA_PROFIL
 10
27.25
 20
134.49999992775491
 30
0.0
  0
VERTEX
  5
1766
  8
SAPA_PROFIL
 10
25.499999999999989
 20
134.49999992775491
 30
0.0
 42
-0.4142135623731035
  0
VERTEX
  5
1767
  8
SAPA_PROFIL
 10
25.0
 20
134.99999992775491
 30
0.0
  0
VERTEX
  5
1768
  8
SAPA_PROFIL
 10
25.0
 20
137.49999992775491
 30
0.0
 42
-0.4142135623730966
  0
VERTEX
  5
1769
  8
SAPA_PROFIL
 10
26.499999999999989
 20
138.99999992775491
 30
0.0
  0
VERTEX
  5
176A
  8
SAPA_PROFIL
 10
84.700000000000685
 20
138.99999992775491
 30
0.0
 42
-0.4142135623730935
  0
VERTEX
  5
176B
  8
SAPA_PROFIL
 10
84.999999999999986
 20
138.6999999277447
 30
0.0
  0
VERTEX
  5
176C
  8
SAPA_PROFIL
 10
85.0
 20
90.743868969058624
 30
0.0
 42
-0.2418327667378115
  0
VERTEX
  5
176D
  8
SAPA_PROFIL
 10
84.874722325032906
 20
90.499999928120218
 30
0.0
 42
0.2418327667509125
  0
VERTEX
  5
176E
  8
SAPA_PROFIL
 10
84.749444650060454
 20
90.256130887164261
 30
0.0
  0
VERTEX
  5
176F
  8
SAPA_PROFIL
 10
84.749444650056816
 20
89.299999928114346
 30
0.0
 42
0.2418327667448973
  0
VERTEX
  5
1770
  8
SAPA_PROFIL
 10
84.874722325025246
 20
89.056130887159412
 30
0.0
 42
-0.2418327667448979
  0
VERTEX
  5
1771
  8
SAPA_PROFIL
 10
84.999999999992454
 20
88.812261846206837
 30
0.0
  0
VERTEX
  5
1772
  8
SAPA_PROFIL
 10
84.999999999992454
 20
86.714189490488835
 30
0.0
 42
-0.6681786379192718
  0
VERTEX
  5
1773
  8
SAPA_PROFIL
 10
83.292893218805943
 20
86.007082709302239
 30
0.0
  0
VERTEX
  5
1774
  8
SAPA_PROFIL
 10
81.98784396563677
 20
87.312131962471227
 30
0.0
 42
-0.1989123673797335
  0
VERTEX
  5
1775
  8
SAPA_PROFIL
 10
81.899975999992662
 20
87.524263996827315
 30
0.0
  0
VERTEX
  5
1776
  8
SAPA_PROFIL
 10
81.899975999992805
 20
88.110769443574497
 30
0.0
 42
-0.1316524975873855
  0
VERTEX
  5
1777
  8
SAPA_PROFIL
 10
81.940168378857464
 20
88.260769443574418
 30
0.0
  0
VERTEX
  5
1778
  8
SAPA_PROFIL
 10
82.799975999992739
 20
89.749999928115315
 30
0.0
  0
VERTEX
  5
1779
  8
SAPA_PROFIL
 10
82.79998799999241
 20
90.199999928115233
 30
0.0
 42
0.4142135623731054
  0
VERTEX
  5
177A
  8
SAPA_PROFIL
 10
82.499987999992413
 20
90.499999928115244
 30
0.0
  0
VERTEX
  5
177B
  8
SAPA_PROFIL
 10
78.89997599999235
 20
90.499999928115187
 30
0.0
 42
0.4142135623730951
  0
VERTEX
  5
177C
  8
SAPA_PROFIL
 10
78.599975999992353
 20
90.199999928115204
 30
0.0
  0
VERTEX
  5
177D
  8
SAPA_PROFIL
 10
78.599975999992452
 20
89.749999928115173
 30
0.0
  0
VERTEX
  5
177E
  8
SAPA_PROFIL
 10
79.459800737561423
 20
88.260739797041026
 30
0.0
 42
-0.1316363093594257
  0
VERTEX
  5
177F
  8
SAPA_PROFIL
 10
79.499993115818398
 20
88.110758891994294
 30
0.0
  0
VERTEX
  5
1780
  8
SAPA_PROFIL
 10
79.500000165609194
 20
87.999999928111436
 30
0.0
  0
VERTEX
  5
1781
  8
SAPA_PROFIL
 10
77.914359353937471
 20
87.999999928111436
 30
0.0
 42
-0.2679491924308306
  0
VERTEX
  5
1782
  8
SAPA_PROFIL
 10
77.048333950158849
 20
88.499999928111436
 30
0.0
  0
VERTEX
  5
1783
  8
SAPA_PROFIL
 10
76.03797097908037
 20
90.24999992811189
 30
0.0
 42
0.2679491924308306
  0
VERTEX
  5
1784
  8
SAPA_PROFIL
 10
75.604958277188416
 20
90.499999928111436
 30
0.0
  0
VERTEX
  5
1785
  8
SAPA_PROFIL
 10
74.395041722807946
 20
90.499999928111436
 30
0.0
 42
0.2679491924308304
  0
VERTEX
  5
1786
  8
SAPA_PROFIL
 10
73.962029020916816
 20
90.249999928111436
 30
0.0
  0
VERTEX
  5
1787
  8
SAPA_PROFIL
 10
72.951666049841151
 20
88.499999928111436
 30
0.0
 42
-0.2679491924308308
  0
VERTEX
  5
1788
  8
SAPA_PROFIL
 10
72.085640646055253
 20
87.999999928113311
 30
0.0
  0
VERTEX
  5
1789
  8
SAPA_PROFIL
 10
70.499999834387154
 20
87.99999992811118
 30
0.0
  0
VERTEX
  5
178A
  8
SAPA_PROFIL
 10
70.500006884177964
 20
88.110758891994294
 30
0.0
 42
-0.1316363093594255
  0
VERTEX
  5
178B
  8
SAPA_PROFIL
 10
70.540199262434939
 20
88.260739797041026
 30
0.0
  0
VERTEX
  5
178C
  8
SAPA_PROFIL
 10
71.400024000003896
 20
89.749999928115173
 30
0.0
  0
VERTEX
  5
178D
  8
SAPA_PROFIL
 10
71.400024000004009
 20
90.199999928115204
 30
0.0
 42
0.4142135623730951
  0
VERTEX
  5
178E
  8
SAPA_PROFIL
 10
71.100024000004012
 20
90.499999928115187
 30
0.0
  0
VERTEX
  5
178F
  8
SAPA_PROFIL
 10
67.500012000003963
 20
90.499999928115244
 30
0.0
 42
0.4142135623731054
  0
VERTEX
  5
1790
  8
SAPA_PROFIL
 10
67.200012000003952
 20
90.199999928115233
 30
0.0
  0
VERTEX
  5
1791
  8
SAPA_PROFIL
 10
67.200024000003623
 20
89.749999928115315
 30
0.0
  0
VERTEX
  5
1792
  8
SAPA_PROFIL
 10
68.059831621138912
 20
88.260769443574418
 30
0.0
 42
-0.1316524975873855
  0
VERTEX
  5
1793
  8
SAPA_PROFIL
 10
68.100024000003557
 20
88.110769443574497
 30
0.0
  0
VERTEX
  5
1794
  8
SAPA_PROFIL
 10
68.1000240000037
 20
87.524263996827315
 30
0.0
 42
-0.1989123673797335
  0
VERTEX
  5
1795
  8
SAPA_PROFIL
 10
68.012156034359592
 20
87.312131962471227
 30
0.0
  0
VERTEX
  5
1796
  8
SAPA_PROFIL
 10
66.707106781190419
 20
86.007082709302239
 30
0.0
 42
-0.6681786379192716
  0
VERTEX
  5
1797
  8
SAPA_PROFIL
 10
65.000000000003922
 20
86.714189490488835
 30
0.0
  0
VERTEX
  5
1798
  8
SAPA_PROFIL
 10
65.000000000003922
 20
88.812261846208557
 30
0.0
 42
-0.2418327667433386
  0
VERTEX
  5
1799
  8
SAPA_PROFIL
 10
65.125277674969681
 20
89.056130887160094
 30
0.0
 42
0.2418327667449431
  0
VERTEX
  5
179A
  8
SAPA_PROFIL
 10
65.250555349935894
 20
89.299999928114346
 30
0.0
  0
VERTEX
  5
179B
  8
SAPA_PROFIL
 10
65.250555349939532
 20
90.256130887164261
 30
0.0
 42
0.2418327667509097
  0
VERTEX
  5
179C
  8
SAPA_PROFIL
 10
65.125277674957104
 20
90.499999928111365
 30
0.0
 42
-0.2418327667378167
  0
VERTEX
  5
179D
  8
SAPA_PROFIL
 10
65.000000000003922
 20
90.743868969058624
 30
0.0
  0
VERTEX
  5
179E
  8
SAPA_PROFIL
 10
64.999999999985448
 20
92.556610602825174
 30
0.0
 42
-0.1095178116817878
  0
VERTEX
  5
179F
  8
SAPA_PROFIL
 10
65.187384425907283
 20
93.401847126296161
 30
0.0
  0
VERTEX
  5
17A0
  8
SAPA_PROFIL
 10
67.812615574068332
 20
99.031673491435583
 30
0.0
 42
0.1095178116855129
  0
VERTEX
  5
17A1
  8
SAPA_PROFIL
 10
68.0
 20
99.876910014919929
 30
0.0
  0
VERTEX
  5
17A2
  8
SAPA_PROFIL
 10
68.000000000007276
 20
106.9999999280969
 30
0.0
 42
0.4142135623730957
  0
VERTEX
  5
17A3
  8
SAPA_PROFIL
 10
67.499999999985448
 20
107.4999999280969
 30
0.0
  0
VERTEX
  5
17A4
  8
SAPA_PROFIL
 10
66.499999999985448
 20
107.4999999280969
 30
0.0
 42
0.4142135623730915
  0
VERTEX
  5
17A5
  8
SAPA_PROFIL
 10
65.999999999985434
 20
106.9999999280969
 30
0.0
  0
VERTEX
  5
17A6
  8
SAPA_PROFIL
 10
65.999999999985434
 20
106.7087120806151
 30
0.0
 42
-0.2982166266909514
  0
VERTEX
  5
17A7
  8
SAPA_PROFIL
 10
65.69999999999834
 20
106.2504545111252
 30
0.0
 42
-1.5275252316550829
  0
VERTEX
  5
17A8
  8
SAPA_PROFIL
 10
65.699999999998425
 20
111.7495453450526
 30
0.0
 42
-0.2982166266892446
  0
VERTEX
  5
17A9
  8
SAPA_PROFIL
 10
65.999999999976126
 20
111.2912877755859
 30
0.0
  0
VERTEX
  5
17AA
  8
SAPA_PROFIL
 10
65.999999999985434
 20
110.9999999280969
 30
0.0
 42
0.4142135623730915
  0
VERTEX
  5
17AB
  8
SAPA_PROFIL
 10
66.499999999985448
 20
110.4999999280969
 30
0.0
  0
VERTEX
  5
17AC
  8
SAPA_PROFIL
 10
67.499999999985448
 20
110.4999999280969
 30
0.0
 42
0.4142135623730918
  0
VERTEX
  5
17AD
  8
SAPA_PROFIL
 10
67.999999999985434
 20
110.9999999280969
 30
0.0
  0
VERTEX
  5
17AE
  8
SAPA_PROFIL
 10
67.999999999985434
 20
129.9230898409493
 30
0.0
 42
0.1095178116838485
  0
VERTEX
  5
17AF
  8
SAPA_PROFIL
 10
67.812615574065504
 20
130.7683263644391
 30
0.0
  0
VERTEX
  5
17B0
  8
SAPA_PROFIL
 10
65.538475052471753
 20
135.64523645122759
 30
0.0
 42
0.2914734195858569
  0
VERTEX
  5
17B1
  8
SAPA_PROFIL
 10
63.72585947838887
 20
136.79999992775049
 30
0.0
  0
VERTEX
  5
17B2
  8
SAPA_PROFIL
 10
44.000000000007262
 20
136.79999992775049
 30
0.0
 42
0.4142135623730951
  0
VERTEX
  5
17B3
  8
SAPA_PROFIL
 10
43.500000000007269
 20
136.29999992775049
 30
0.0
  0
VERTEX
  5
17B4
  8
SAPA_PROFIL
 10
43.500000000007269
 20
135.999999927733
 30
0.0
 42
0.4142135623731035
  0
VERTEX
  5
17B5
  8
SAPA_PROFIL
 10
44.000000000007262
 20
135.49999992773311
 30
0.0
  0
VERTEX
  5
17B6
  8
SAPA_PROFIL
 10
45.300000000006527
 20
135.49999992773311
 30
0.0
 42
-0.4142135623730744
  0
VERTEX
  5
17B7
  8
SAPA_PROFIL
 10
45.5000000000109
 20
135.299999927736
 30
0.0
  0
VERTEX
  5
17B8
  8
SAPA_PROFIL
 10
45.500000000007248
 20
134.99999992773311
 30
0.0
 42
-0.4142135623731035
  0
VERTEX
  5
17B9
  8
SAPA_PROFIL
 10
45.000000000007269
 20
134.49999992773311
 30
0.0
  0
VERTEX
  5
17BA
  8
SAPA_PROFIL
 10
41.250000000007269
 20
134.49999992775491
 30
0.0
 42
-0.4142135623731035
  0
VERTEX
  5
17BB
  8
SAPA_PROFIL
 10
40.750000000007262
 20
134.99999992775491
 30
0.0
  0
VERTEX
  5
17BC
  8
SAPA_PROFIL
 10
40.750000000007262
 20
135.29999992775049
 30
0.0
 42
-0.4142135623731159
  0
VERTEX
  5
17BD
  8
SAPA_PROFIL
 10
40.950000000022527
 20
135.49999992775849
 30
0.0
  0
VERTEX
  5
17BE
  8
SAPA_PROFIL
 10
41.800000000006541
 20
135.4999999277548
 30
0.0
 42
0.4142135623730951
  0
VERTEX
  5
17BF
  8
SAPA_PROFIL
 10
42.000000000007262
 20
135.6999999277447
 30
0.0
  0
VERTEX
  5
17C0
  8
SAPA_PROFIL
 10
42.000000000007262
 20
136.6999999277447
 30
0.0
 42
0.4142135623731035
  0
VERTEX
  5
17C1
  8
SAPA_PROFIL
 10
41.500000000007262
 20
137.1999999277447
 30
0.0
  0
VERTEX
  5
17C2
  8
SAPA_PROFIL
 10
35.500000000007248
 20
137.1999999277447
 30
0.0
 42
0.4142135623731033
  0
VERTEX
  5
17C3
  8
SAPA_PROFIL
 10
35.000000000007269
 20
136.6999999277447
 30
0.0
  0
SEQEND
  5
17C4
  8
SAPA_PROFIL
  0
POLYLINE
  5
11AF
  8
SAPA_PROFIL
 66
     1
 10
0.0
 20
0.0
 30
0.0
 70
     1
  0
VERTEX
  5
17C5
  8
SAPA_PROFIL
 10
82.199999999986176
 20
92.999999928111436
 30
0.0
  0
VERTEX
  5
17C6
  8
SAPA_PROFIL
 10
70.600000000005821
 20
92.999999928111436
 30
0.0
 42
-0.4142135623730951
  0
VERTEX
  5
17C7
  8
SAPA_PROFIL
 10
70.30000000000291
 20
93.299999928114346
 30
0.0
  0
VERTEX
  5
17C8
  8
SAPA_PROFIL
 10
70.299999999981068
 20
136.1999999277447
 30
0.0
 42
-0.4142135623730935
  0
VERTEX
  5
17C9
  8
SAPA_PROFIL
 10
70.599999999980341
 20
136.499999927744
 30
0.0
  0
VERTEX
  5
17CA
  8
SAPA_PROFIL
 10
82.200000000000713
 20
136.49999992775491
 30
0.0
 42
-0.4142135623730935
  0
VERTEX
  5
17CB
  8
SAPA_PROFIL
 10
82.499999999999986
 20
136.1999999277447
 30
0.0
  0
VERTEX
  5
17CC
  8
SAPA_PROFIL
 10
82.499999999985448
 20
93.299999928114346
 30
0.0
 42
-0.4142135623730939
  0
SEQEND
  5
17CD
  8
SAPA_PROFIL
  0
POLYLINE
  5
11B0
  8
SAPA_PROFIL
 62
     4
 66
     1
 10
0.0
 20
0.0
 30
-0.2
 70
     1
1001
RC_PROFILE
1002
{
1000
Region
1002
}
  0
VERTEX
  5
17CE
  8
SAPA_PROFIL
 62
     4
 10
41.652820282319411
 20
78.999999996510553
 30
-0.2
  0
VERTEX
  5
17CF
  8
SAPA_PROFIL
 62
     4
 10
27.45282028231734
 20
78.999999996510553
 30
-0.2
 42
0.4142135623720297
  0
VERTEX
  5
17D0
  8
SAPA_PROFIL
 62
     4
 10
26.95282028231734
 20
78.499999996512372
 30
-0.2
  0
VERTEX
  5
17D1
  8
SAPA_PROFIL
 62
     4
 10
26.95282028231437
 20
74.499999995891173
 30
-0.2
 42
0.4142135623730951
  0
VERTEX
  5
17D2
  8
SAPA_PROFIL
 62
     4
 10
27.45282028231437
 20
73.999999995891173
 30
-0.2
  0
VERTEX
  5
17D3
  8
SAPA_PROFIL
 62
     4
 10
41.652820282318267
 20
73.999999995883897
 30
-0.2
 42
0.414213562373761
  0
VERTEX
  5
17D4
  8
SAPA_PROFIL
 62
     4
 10
42.152820282319396
 20
74.499999995883897
 30
-0.2
  0
VERTEX
  5
17D5
  8
SAPA_PROFIL
 62
     4
 10
42.152820282319396
 20
78.499999996510553
 30
-0.2
 42
0.4142135623730951
  0
SEQEND
  5
17D6
  8
SAPA_PROFIL
 62
     4
  0
POLYLINE
  5
11B1
  8
SAPA_PROFIL
 62
     4
 66
     1
 10
0.0
 20
0.0
 30
0.0
1001
GENIUS_GENOBJ-N-FIL_13
1002
{
1000
OWNER
1000
GEN
1002
}
1001
GENIUS_GENODEF_13
1002
{
1000
HIER
1070
     0
1002
}
1002
{
1000
MANEDIT
1070
     0
1002
}
1002
{
1000
NOSEL
1070
     0
1002
}
1002
{
1000
BEHIND
1070
     0
1002
}
1002
{
1000
OTHER
1070
     0
1002
}
1002
{
1000
REACTOR
1002
}
  0
VERTEX
  5
17D7
  8
SAPA_PROFIL
 62
     4
 10
68.416293838728478
 20
65.577259926492104
 30
0.0
 42
-0.131652497587489
  0
VERTEX
  5
17D8
  8
SAPA_PROFIL
 62
     4
 10
68.255524323269739
 20
64.977259926491683
 30
0.0
  0
VERTEX
  5
17D9
  8
SAPA_PROFIL
 62
     4
 10
67.250554992671866
 20
63.236601985848147
 30
0.0
  0
VERTEX
  5
17DA
  8
SAPA_PROFIL
 62
     4
 10
67.250543349936507
 20
62.800000064269682
 30
0.0
 42
0.4142135623731046
  0
VERTEX
  5
17DB
  8
SAPA_PROFIL
 62
     4
 10
67.500543349936507
 20
62.550000064269682
 30
0.0
  0
VERTEX
  5
17DC
  8
SAPA_PROFIL
 62
     4
 10
71.10055534993657
 20
62.550000064269739
 30
0.0
 42
0.4142135623730957
  0
VERTEX
  5
17DD
  8
SAPA_PROFIL
 62
     4
 10
71.35055534993657
 20
62.80000006426971
 30
0.0
  0
VERTEX
  5
17DE
  8
SAPA_PROFIL
 62
     4
 10
71.350555349936471
 20
63.236602604648169
 30
0.0
  0
VERTEX
  5
17DF
  8
SAPA_PROFIL
 62
     4
 10
70.377063354186404
 20
64.922740202049056
 30
0.0
 42
-0.1316524975873848
  0
VERTEX
  5
17E0
  8
SAPA_PROFIL
 62
     4
 10
70.216293838727751
 20
65.522740202048993
 30
0.0
  0
VERTEX
  5
17E1
  8
SAPA_PROFIL
 62
     4
 10
70.216293838727736
 20
87.477259790340014
 30
0.0
 42
-0.1316524975873846
  0
VERTEX
  5
17E2
  8
SAPA_PROFIL
 62
     4
 10
70.37706335418639
 20
88.07725979033998
 30
0.0
  0
VERTEX
  5
17E3
  8
SAPA_PROFIL
 62
     4
 10
71.350555349936457
 20
89.763397387740838
 30
0.0
  0
VERTEX
  5
17E4
  8
SAPA_PROFIL
 62
     4
 10
71.350555349936556
 20
90.199999928119297
 30
0.0
 42
0.4142135623730951
  0
VERTEX
  5
17E5
  8
SAPA_PROFIL
 62
     4
 10
71.100555349936556
 20
90.449999928119297
 30
0.0
  0
VERTEX
  5
17E6
  8
SAPA_PROFIL
 62
     4
 10
67.500543349936493
 20
90.449999928119325
 30
0.0
 42
0.4142135623731046
  0
VERTEX
  5
17E7
  8
SAPA_PROFIL
 62
     4
 10
67.250543349936493
 20
90.199999928119325
 30
0.0
  0
VERTEX
  5
17E8
  8
SAPA_PROFIL
 62
     4
 10
67.250554992671852
 20
89.763398006540854
 30
0.0
  0
VERTEX
  5
17E9
  8
SAPA_PROFIL
 62
     4
 10
68.255524323269725
 20
88.022740065897324
 30
0.0
 42
-0.1316524975874892
  0
VERTEX
  5
17EA
  8
SAPA_PROFIL
 62
     4
 10
68.416293838728464
 20
87.422740065896903
 30
0.0
  0
VERTEX
  5
17EB
  8
SAPA_PROFIL
 62
     4
 10
68.416293838727782
 20
84.699999928368314
 30
0.0
 42
-0.414213562374094
  0
VERTEX
  5
17EC
  8
SAPA_PROFIL
 62
     4
 10
67.216293838723644
 20
83.499999928369405
 30
0.0
  0
VERTEX
  5
17ED
  8
SAPA_PROFIL
 62
     4
 10
41.418558811801823
 20
83.499999928458521
 30
0.0
 42
0.4142135623730951
  0
VERTEX
  5
17EE
  8
SAPA_PROFIL
 62
     4
 10
40.918558811801823
 20
82.999999928458536
 30
0.0
  0
VERTEX
  5
17EF
  8
SAPA_PROFIL
 62
     4
 10
40.918558811801589
 20
82.799999928458703
 30
0.0
 42
0.4142135623730951
  0
VERTEX
  5
17F0
  8
SAPA_PROFIL
 62
     4
 10
41.218558811801763
 20
82.499999928458521
 30
0.0
  0
VERTEX
  5
17F1
  8
SAPA_PROFIL
 62
     4
 10
41.868558811803673
 20
82.499999928458521
 30
0.0
 42
-0.4142135623730951
  0
VERTEX
  5
17F2
  8
SAPA_PROFIL
 62
     4
 10
42.168558811803642
 20
82.19999992845743
 30
0.0
  0
VERTEX
  5
17F3
  8
SAPA_PROFIL
 62
     4
 10
42.168558811802733
 20
81.299999928461418
 30
0.0
 42
-0.4142135623730951
  0
VERTEX
  5
17F4
  8
SAPA_PROFIL
 62
     4
 10
41.668558811803642
 20
80.799999928461432
 30
0.0
  0
VERTEX
  5
17F5
  8
SAPA_PROFIL
 62
     4
 10
35.668558811801809
 20
80.799999928461432
 30
0.0
 42
-0.4142135623730951
  0
VERTEX
  5
17F6
  8
SAPA_PROFIL
 62
     4
 10
35.168558811801809
 20
81.299999928461418
 30
0.0
  0
VERTEX
  5
17F7
  8
SAPA_PROFIL
 62
     4
 10
35.168558811801809
 20
82.199999928460159
 30
0.0
 42
-0.4142135623710974
  0
VERTEX
  5
17F8
  8
SAPA_PROFIL
 62
     4
 10
35.468558811799731
 20
82.499999928459431
 30
0.0
  0
VERTEX
  5
17F9
  8
SAPA_PROFIL
 62
     4
 10
36.118558811801627
 20
82.499999928463964
 30
0.0
 42
0.4142135623730951
  0
VERTEX
  5
17FA
  8
SAPA_PROFIL
 62
     4
 10
36.418558811799791
 20
82.799999928465965
 30
0.0
  0
VERTEX
  5
17FB
  8
SAPA_PROFIL
 62
     4
 10
36.41855881179864
 20
82.999999928458536
 30
0.0
 42
0.4142135623730951
  0
VERTEX
  5
17FC
  8
SAPA_PROFIL
 62
     4
 10
35.91855881179864
 20
83.499999928458521
 30
0.0
  0
VERTEX
  5
17FD
  8
SAPA_PROFIL
 62
     4
 10
32.91855881179864
 20
83.499999928458521
 30
0.0
 42
0.4142135623730951
  0
VERTEX
  5
17FE
  8
SAPA_PROFIL
 62
     4
 10
32.41855881179864
 20
82.999999928458536
 30
0.0
  0
VERTEX
  5
17FF
  8
SAPA_PROFIL
 62
     4
 10
32.41855881179864
 20
82.799999928458703
 30
0.0
 42
0.4142135623730951
  0
VERTEX
  5
1800
  8
SAPA_PROFIL
 62
     4
 10
32.718558811798822
 20
82.499999928458521
 30
0.0
  0
VERTEX
  5
1801
  8
SAPA_PROFIL
 62
     4
 10
33.368558811798671
 20
82.499999928458521
 30
0.0
 42
-0.4142135623730951
  0
VERTEX
  5
1802
  8
SAPA_PROFIL
 62
     4
 10
33.66855881179864
 20
82.19999992845743
 30
0.0
  0
VERTEX
  5
1803
  8
SAPA_PROFIL
 62
     4
 10
33.66855881179864
 20
81.299999928461418
 30
0.0
 42
-0.4142135623730951
  0
VERTEX
  5
1804
  8
SAPA_PROFIL
 62
     4
 10
33.16855881179864
 20
80.799999928461432
 30
0.0
  0
VERTEX
  5
1805
  8
SAPA_PROFIL
 62
     4
 10
27.168558811798661
 20
80.799999928461432
 30
0.0
 42
-0.4142135623730951
  0
VERTEX
  5
1806
  8
SAPA_PROFIL
 62
     4
 10
26.66855881179864
 20
81.299999928461418
 30
0.0
  0
VERTEX
  5
1807
  8
SAPA_PROFIL
 62
     4
 10
26.66855881179864
 20
82.19999992845743
 30
0.0
 42
-0.4142135623730951
  0
VERTEX
  5
1808
  8
SAPA_PROFIL
 62
     4
 10
26.96855881179884
 20
82.499999928458521
 30
0.0
  0
VERTEX
  5
1809
  8
SAPA_PROFIL
 62
     4
 10
27.6185588117987
 20
82.499999928458521
 30
0.0
 42
0.4142135623730949
  0
VERTEX
  5
180A
  8
SAPA_PROFIL
 62
     4
 10
27.91855881179864
 20
82.799999928458703
 30
0.0
  0
VERTEX
  5
180B
  8
SAPA_PROFIL
 62
     4
 10
27.91855881179864
 20
82.999999928458536
 30
0.0
 42
0.4142135623730951
  0
VERTEX
  5
180C
  8
SAPA_PROFIL
 62
     4
 10
27.41855881179864
 20
83.499999928458521
 30
0.0
  0
VERTEX
  5
180D
  8
SAPA_PROFIL
 62
     4
 10
25.66855881179864
 20
83.499999928457612
 30
0.0
 42
0.4142135623726955
  0
VERTEX
  5
180E
  8
SAPA_PROFIL
 62
     4
 10
25.16855881179864
 20
82.999999928123827
 30
0.0
  0
VERTEX
  5
180F
  8
SAPA_PROFIL
 62
     4
 10
25.16855881179842
 20
69.999999928116537
 30
0.0
 42
0.4142135623732284
  0
VERTEX
  5
1810
  8
SAPA_PROFIL
 62
     4
 10
25.668558811796821
 20
69.499999927840051
 30
0.0
  0
VERTEX
  5
1811
  8
SAPA_PROFIL
 62
     4
 10
27.418558811796821
 20
69.499999927840051
 30
0.0
 42
0.4142135623730951
  0
VERTEX
  5
1812
  8
SAPA_PROFIL
 62
     4
 10
27.918558811796839
 20
69.999999927840051
 30
0.0
  0
VERTEX
  5
1813
  8
SAPA_PROFIL
 62
     4
 10
27.918558811796839
 20
70.199999927839855
 30
0.0
 42
0.4142135623730951
  0
VERTEX
  5
1814
  8
SAPA_PROFIL
 62
     4
 10
27.618558811796639
 20
70.499999927840051
 30
0.0
  0
VERTEX
  5
1815
  8
SAPA_PROFIL
 62
     4
 10
26.96855881179679
 20
70.499999927840051
 30
0.0
 42
-0.4142135623730951
  0
VERTEX
  5
1816
  8
SAPA_PROFIL
 62
     4
 10
26.668558811796839
 20
70.799999927839323
 30
0.0
  0
VERTEX
  5
1817
  8
SAPA_PROFIL
 62
     4
 10
26.668558811796839
 20
71.69999992783714
 30
0.0
 42
-0.4142135623730951
  0
VERTEX
  5
1818
  8
SAPA_PROFIL
 62
     4
 10
27.168558811796821
 20
72.19999992783714
 30
0.0
  0
VERTEX
  5
1819
  8
SAPA_PROFIL
 62
     4
 10
33.168558811796821
 20
72.19999992783714
 30
0.0
 42
-0.4142135623730951
  0
VERTEX
  5
181A
  8
SAPA_PROFIL
 62
     4
 10
33.668558811796821
 20
71.69999992783714
 30
0.0
  0
VERTEX
  5
181B
  8
SAPA_PROFIL
 62
     4
 10
33.668558811796821
 20
70.799999927839323
 30
0.0
 42
-0.4142135623730953
  0
VERTEX
  5
181C
  8
SAPA_PROFIL
 62
     4
 10
33.368558811796639
 20
70.499999927840051
 30
0.0
  0
VERTEX
  5
181D
  8
SAPA_PROFIL
 62
     4
 10
32.718558811796782
 20
70.499999927840051
 30
0.0
 42
0.4142135623730951
  0
VERTEX
  5
181E
  8
SAPA_PROFIL
 62
     4
 10
32.418558811796821
 20
70.199999927839855
 30
0.0
  0
VERTEX
  5
181F
  8
SAPA_PROFIL
 62
     4
 10
32.418558811796821
 20
69.999999927840051
 30
0.0
 42
0.4142135623730951
  0
VERTEX
  5
1820
  8
SAPA_PROFIL
 62
     4
 10
32.918558811796821
 20
69.499999927840051
 30
0.0
  0
VERTEX
  5
1821
  8
SAPA_PROFIL
 62
     4
 10
35.918558811796821
 20
69.499999927840051
 30
0.0
 42
0.4142135623730951
  0
VERTEX
  5
1822
  8
SAPA_PROFIL
 62
     4
 10
36.418558811796821
 20
69.999999927840051
 30
0.0
  0
VERTEX
  5
1823
  8
SAPA_PROFIL
 62
     4
 10
36.418558811797958
 20
70.199999927832593
 30
0.0
 42
0.414213562372873
  0
VERTEX
  5
1824
  8
SAPA_PROFIL
 62
     4
 10
36.118558811799829
 20
70.499999927834594
 30
0.0
  0
VERTEX
  5
1825
  8
SAPA_PROFIL
 62
     4
 10
35.468558811798822
 20
70.499999927837322
 30
0.0
 42
-0.4142135623722071
  0
VERTEX
  5
1826
  8
SAPA_PROFIL
 62
     4
 10
35.168558811799791
 20
70.799999927838414
 30
0.0
  0
VERTEX
  5
1827
  8
SAPA_PROFIL
 62
     4
 10
35.168558811799791
 20
71.69999992783714
 30
0.0
 42
-0.4142135623730951
  0
VERTEX
  5
1828
  8
SAPA_PROFIL
 62
     4
 10
35.668558811799763
 20
72.19999992783714
 30
0.0
  0
VERTEX
  5
1829
  8
SAPA_PROFIL
 62
     4
 10
41.668558811801823
 20
72.199999927829865
 30
0.0
 42
-0.4142135623730951
  0
VERTEX
  5
182A
  8
SAPA_PROFIL
 62
     4
 10
42.168558811801823
 20
71.699999927829865
 30
0.0
  0
VERTEX
  5
182B
  8
SAPA_PROFIL
 62
     4
 10
42.168558811801823
 20
70.799999927832957
 30
0.0
 42
-0.4142135623730951
  0
VERTEX
  5
182C
  8
SAPA_PROFIL
 62
     4
 10
41.868558811801627
 20
70.499999927832775
 30
0.0
  0
VERTEX
  5
182D
  8
SAPA_PROFIL
 62
     4
 10
41.218558811799731
 20
70.499999927832775
 30
0.0
 42
0.4142135623730951
  0
VERTEX
  5
182E
  8
SAPA_PROFIL
 62
     4
 10
40.918558811799763
 20
70.199999927832593
 30
0.0
  0
VERTEX
  5
182F
  8
SAPA_PROFIL
 62
     4
 10
40.918558811799763
 20
69.999999927832775
 30
0.0
 42
0.4142135623730951
  0
VERTEX
  5
1830
  8
SAPA_PROFIL
 62
     4
 10
41.41855881179977
 20
69.499999927832775
 30
0.0
  0
VERTEX
  5
1831
  8
SAPA_PROFIL
 62
     4
 10
67.216293838723644
 20
69.499999927914644
 30
0.0
 42
-0.414213562374094
  0
VERTEX
  5
1832
  8
SAPA_PROFIL
 62
     4
 10
68.416293838727555
 20
68.299999927914826
 30
0.0
  0
VERTEX
  5
1833
  8
SAPA_PROFIL
 62
     4
 10
68.416293838727796
 20
65.571518577834752
 30
0.0
  0
SEQEND
  5
1834
  8
SAPA_PROFIL
 62
     4
  0
POLYLINE
  5
11B2
  8
SAPA_PROFIL
 62
     4
 66
     1
 10
0.0
 20
0.0
 30
0.0
 70
     1
  0
VERTEX
  5
1835
  8
SAPA_PROFIL
 62
     4
 10
43.452820282317312
 20
73.199999995880077
 30
0.0
  0
VERTEX
  5
1836
  8
SAPA_PROFIL
 62
     4
 10
43.452820282321419
 20
80.699999996438535
 30
0.0
 42
-0.4142135623730951
  0
VERTEX
  5
1837
  8
SAPA_PROFIL
 62
     4
 10
44.452820282321412
 20
81.699999996438521
 30
0.0
  0
VERTEX
  5
1838
  8
SAPA_PROFIL
 62
     4
 10
67.600555309245209
 20
81.699999996453982
 30
0.0
 42
-0.4142135623730949
  0
VERTEX
  5
1839
  8
SAPA_PROFIL
 62
     4
 10
68.400555309245391
 20
80.899999996453801
 30
0.0
  0
VERTEX
  5
183A
  8
SAPA_PROFIL
 62
     4
 10
68.400555309245391
 20
72.099999995935207
 30
0.0
 42
-0.414213562373428
  0
VERTEX
  5
183B
  8
SAPA_PROFIL
 62
     4
 10
67.600555309244299
 20
71.299999995935025
 30
0.0
  0
VERTEX
  5
183C
  8
SAPA_PROFIL
 62
     4
 10
44.452820282317312
 20
71.299999995958657
 30
0.0
 42
-0.4142135623724957
  0
VERTEX
  5
183D
  8
SAPA_PROFIL
 62
     4
 10
43.452820282319351
 20
72.299999995957748
 30
0.0
  0
SEQEND
  5
183E
  8
SAPA_PROFIL
 62
     4
  0
POLYLINE
  5
11B3
  8
SAPA_PROFIL
 66
     1
 10
0.0
 20
0.0
 30
0.0
 70
     1
  0
VERTEX
  5
183F
  8
SAPA_PROFIL
 10
24.999999999998352
 20
14.50000000001341
 30
0.0
  0
VERTEX
  5
1840
  8
SAPA_PROFIL
 10
25.00000000000199
 20
19.500000000013411
 30
0.0
 42
-0.4142135623730951
  0
VERTEX
  5
1841
  8
SAPA_PROFIL
 10
26.00000000000199
 20
20.500000000013411
 30
0.0
  0
VERTEX
  5
1842
  8
SAPA_PROFIL
 10
36.000000000001307
 20
20.500000000006139
 30
0.0
 42
-0.4142135623730951
  0
VERTEX
  5
1843
  8
SAPA_PROFIL
 10
37.000000000001307
 20
19.500000000013411
 30
0.0
  0
VERTEX
  5
1844
  8
SAPA_PROFIL
 10
37.000000000001307
 20
17.749999999977032
 30
0.0
 42
0.9999999999999998
  0
VERTEX
  5
1845
  8
SAPA_PROFIL
 10
38.500000000008569
 20
17.749999999977032
 30
0.0
  0
VERTEX
  5
1846
  8
SAPA_PROFIL
 10
38.500000000012221
 20
19.500000000006139
 30
0.0
 42
0.4142135623730951
  0
VERTEX
  5
1847
  8
SAPA_PROFIL
 10
36.000000000008583
 20
22.000000000013419
 30
0.0
  0
VERTEX
  5
1848
  8
SAPA_PROFIL
 10
26.200000000002721
 20
22.000000000013411
 30
0.0
 42
-0.4142135623730951
  0
VERTEX
  5
1849
  8
SAPA_PROFIL
 10
25.200000000002721
 20
23.000000000013411
 30
0.0
  0
VERTEX
  5
184A
  8
SAPA_PROFIL
 10
25.20000000000271
 20
67.249999999307647
 30
0.0
 42
-0.4142135623730951
  0
VERTEX
  5
184B
  8
SAPA_PROFIL
 10
25.70000000000271
 20
67.749999999307633
 30
0.0
  0
VERTEX
  5
184C
  8
SAPA_PROFIL
 10
43.500000000005613
 20
67.74999999931056
 30
0.0
 42
0.8390996311761574
  0
VERTEX
  5
184D
  8
SAPA_PROFIL
 10
43.602606043003263
 20
68.331907785547401
 30
0.0
  0
VERTEX
  5
184E
  8
SAPA_PROFIL
 10
37.302606043004332
 20
70.624920261431981
 30
0.0
 42
0.4663076581554896
  0
VERTEX
  5
184F
  8
SAPA_PROFIL
 10
36.904557674102463
 20
70.39510692849467
 30
0.0
  0
VERTEX
  5
1850
  8
SAPA_PROFIL
 10
36.775498487606932
 20
69.663175910480945
 30
0.0
 42
-0.3639702342659115
  0
VERTEX
  5
1851
  8
SAPA_PROFIL
 10
36.283094611100907
 20
69.249999999314923
 30
0.0
  0
VERTEX
  5
1852
  8
SAPA_PROFIL
 10
25.500000000001979
 20
69.249999999307647
 30
0.0
 42
-0.4142135623730951
  0
VERTEX
  5
1853
  8
SAPA_PROFIL
 10
25.000000000001979
 20
69.749999999307647
 30
0.0
  0
VERTEX
  5
1854
  8
SAPA_PROFIL
 10
25.000000000009251
 20
82.999999999998863
 30
0.0
 42
0.4142135623730951
  0
VERTEX
  5
1855
  8
SAPA_PROFIL
 10
24.50000000000561
 20
83.499999999998849
 30
0.0
 42
0.4142135623730951
  0
VERTEX
  5
1856
  8
SAPA_PROFIL
 10
23.50000000000561
 20
82.499999999998863
 30
0.0
  0
VERTEX
  5
1857
  8
SAPA_PROFIL
 10
23.50000000000199
 20
15.00000000001341
 30
0.0
 42
0.4142135623730951
  0
VERTEX
  5
1858
  8
SAPA_PROFIL
 10
24.50000000000199
 20
14.00000000001341
 30
0.0
 42
0.4142135623730951
  0
SEQEND
  5
1859
  8
SAPA_PROFIL
  0
LINE
  5
11CD
  8
SAPA_GLAS
 10
24.999999999996419
 20
90.799999928689104
 30
0.0
 11
25.50277796034716
 21
90.711346608977507
 31
0.0
  0
LINE
  5
11CE
  8
SAPA_GLAS
 10
26.98696978510155
 20
94.809538859322629
 30
0.0
 11
26.98696978510155
 21
94.999999928200566
 31
0.0
  0
ARC
  5
11CF
  8
SAPA_GLAS
 10
10.415330627185179
 20
92.999999928198747
 30
0.0
 40
9.9869792597787779
 50
348.44779235426699
 51
11.552207645731389
  0
LINE
  5
11D0
  8
SAPA_GLAS
 10
24.999999999996419
 20
127.1999999277123
 30
0.0
 11
25.502777960347171
 21
127.28865324742389
 31
0.0
  0
LINE
  5
11D1
  8
SAPA_GLAS
 10
26.98696978510155
 20
123.1904609970788
 30
0.0
 11
26.98696978510155
 21
122.99999992820089
 31
0.0
  0
ARC
  5
11D2
  8
SAPA_GLAS
 10
10.415330627185179
 20
124.9999999282027
 30
0.0
 40
9.9869792597787779
 50
348.44779235426699
 51
11.55220764573299
  0
POLYLINE
  5
11D3
  8
SAPA_GLAS
 66
     1
 10
0.0
 20
0.0
 30
0.0
 70
     1
  0
VERTEX
  5
18C0
  8
SAPA_GLAS
 10
27.760472266410261
 20
94.87721155776174
 30
0.0
 42
0.1316524975872964
  0
VERTEX
  5
18C1
  8
SAPA_GLAS
 10
26.98696978492087
 20
94.809538859424634
 30
0.0
  0
VERTEX
  5
18C2
  8
SAPA_GLAS
 10
25.469846310296749
 20
94.257351072973108
 30
0.0
 42
0.4142135623734131
  0
VERTEX
  5
18C3
  8
SAPA_GLAS
 10
25.171010071562399
 20
93.616494690920035
 30
0.0
  0
VERTEX
  5
18C4
  8
SAPA_GLAS
 10
25.239414100227009
 20
93.428556166760416
 30
0.0
 42
0.4142135623732762
  0
VERTEX
  5
18C5
  8
SAPA_GLAS
 10
25.623927929460478
 20
93.249254423516248
 30
0.0
  0
VERTEX
  5
18C6
  8
SAPA_GLAS
 10
25.64714138677839
 20
93.257703431024623
 30
0.0
 42
-0.5773502691875974
  0
VERTEX
  5
18C7
  8
SAPA_GLAS
 10
25.912506966044731
 20
93.035035271328042
 30
0.0
  0
VERTEX
  5
18C8
  8
SAPA_GLAS
 10
25.151489443567851
 20
88.719090431831134
 30
0.0
 42
0.4142135623736183
  0
VERTEX
  5
18C9
  8
SAPA_GLAS
 10
25.39483731616917
 20
88.371553652634958
 30
0.0
  0
VERTEX
  5
18CA
  8
SAPA_GLAS
 10
25.788760417371339
 20
88.302094381564856
 30
0.0
 42
0.4142135623730951
  0
VERTEX
  5
18CB
  8
SAPA_GLAS
 10
26.1362971965765
 20
88.545442254161998
 30
0.0
  0
VERTEX
  5
18CC
  8
SAPA_GLAS
 10
27.007596123393821
 20
93.486824017083393
 30
0.0
 42
-0.4142135623725704
  0
VERTEX
  5
18CD
  8
SAPA_GLAS
 10
27.586824088735241
 20
93.892403804748255
 30
0.0
  0
VERTEX
  5
18CE
  8
SAPA_GLAS
 10
34.413175911062297
 20
92.688733798615402
 30
0.0
 42
0.4663076581553405
  0
VERTEX
  5
18CF
  8
SAPA_GLAS
 10
34.999999999899401
 20
93.181137675121022
 30
0.0
  0
VERTEX
  5
18D0
  8
SAPA_GLAS
 10
35.000000000100812
 20
124.81886218128039
 30
0.0
 42
0.4663076581553401
  0
VERTEX
  5
18D1
  8
SAPA_GLAS
 10
34.413175911269931
 20
125.31126605779021
 30
0.0
  0
VERTEX
  5
18D2
  8
SAPA_GLAS
 10
27.5868240889276
 20
124.10759605174751
 30
0.0
 42
-0.4142135623725707
  0
VERTEX
  5
18D3
  8
SAPA_GLAS
 10
27.007596123591341
 20
124.5131758394198
 30
0.0
  0
VERTEX
  5
18D4
  8
SAPA_GLAS
 10
26.136297196836949
 20
129.45455760235231
 30
0.0
 42
0.4142135623730951
  0
VERTEX
  5
18D5
  8
SAPA_GLAS
 10
25.788760417634879
 20
129.6979054749539
 30
0.0
  0
VERTEX
  5
18D6
  8
SAPA_GLAS
 10
25.394837316431829
 20
129.62844620388881
 30
0.0
 42
0.4142135623736183
  0
VERTEX
  5
18D7
  8
SAPA_GLAS
 10
25.151489443826069
 20
129.28090942469569
 30
0.0
  0
VERTEX
  5
18D8
  8
SAPA_GLAS
 10
25.91250696624801
 20
124.96496458518909
 30
0.0
 42
-0.5773502691875974
  0
VERTEX
  5
18D9
  8
SAPA_GLAS
 10
25.647141386978841
 20
124.74229642549589
 30
0.0
  0
VERTEX
  5
18DA
  8
SAPA_GLAS
 10
25.623927929661029
 20
124.7507454330046
 30
0.0
 42
0.4142135623732762
  0
VERTEX
  5
18DB
  8
SAPA_GLAS
 10
25.239414100425279
 20
124.5714436897653
 30
0.0
  0
VERTEX
  5
18DC
  8
SAPA_GLAS
 10
25.171010071758271
 20
124.38350516560649
 30
0.0
 42
0.4142135623734131
  0
VERTEX
  5
18DD
  8
SAPA_GLAS
 10
25.46984631048446
 20
123.7426487835497
 30
0.0
  0
VERTEX
  5
18DE
  8
SAPA_GLAS
 10
26.98696978510155
 20
123.1904609970788
 30
0.0
 42
0.1316524975872963
  0
VERTEX
  5
18DF
  8
SAPA_GLAS
 10
27.760472266590089
 20
123.1227882987319
 30
0.0
  0
VERTEX
  5
18E0
  8
SAPA_GLAS
 10
33.765270364562767
 20
124.1815962170591
 30
0.0
 42
-0.4663076581547951
  0
VERTEX
  5
18E1
  8
SAPA_GLAS
 10
34.000000000094772
 20
123.98463466645519
 30
0.0
  0
VERTEX
  5
18E2
  8
SAPA_GLAS
 10
33.999999999903977
 20
94.01536518995897
 30
0.0
 42
-0.466307658154795
  0
VERTEX
  5
18E3
  8
SAPA_GLAS
 10
33.765270364369471
 20
93.818403639357996
 30
0.0
  0
SEQEND
  5
18E4
  8
SAPA_GLAS
  0
POLYLINE
  5
11D4
  8
SAPA_GLAS
 66
     1
 10
0.0
 20
0.0
 30
0.0
  0
VERTEX
  5
18E5
  8
SAPA_GLAS
 10
1.000000000000117
 20
122.99999992820089
 30
0.0
  0
VERTEX
  5
18E6
  8
SAPA_GLAS
 10
33.000000000000121
 20
122.99999992820089
 30
0.0
  0
VERTEX
  5
18E7
  8
SAPA_GLAS
 10
33.000000000000107
 20
118.99999992820089
 30
0.0
  0
VERTEX
  5
18E8
  8
SAPA_GLAS
 10
1.000000000000117
 20
118.99999992820089
 30
0.0
  0
SEQEND
  5
18E9
  8
SAPA_GLAS
  0
POLYLINE
  5
11D5
  8
SAPA_GLAS
 66
     1
 10
0.0
 20
0.0
 30
0.0
  0
VERTEX
  5
18EA
  8
SAPA_GLAS
 10
23.00000000000011
 20
98.999999928200737
 30
0.0
  0
VERTEX
  5
18EB
  8
SAPA_GLAS
 10
23.00000000000011
 20
118.99999992820069
 30
0.0
  0
VERTEX
  5
18EC
  8
SAPA_GLAS
 10
33.000000000000128
 20
118.99999992820069
 30
0.0
  0
VERTEX
  5
18ED
  8
SAPA_GLAS
 10
33.000000000000107
 20
98.999999928200722
 30
0.0
  0
VERTEX
  5
18EE
  8
SAPA_GLAS
 10
23.00000000000011
 20
98.999999928200737
 30
0.0
  0
SEQEND
  5
18EF
  8
SAPA_GLAS
  0
POLYLINE
  5
11D6
  8
SAPA_GLAS
 66
     1
 10
0.0
 20
0.0
 30
0.0
  0
VERTEX
  5
18F0
  8
SAPA_GLAS
 10
1.0000000000001059
 20
94.999999928200737
 30
0.0
  0
VERTEX
  5
18F1
  8
SAPA_GLAS
 10
33.000000000000107
 20
94.999999928200722
 30
0.0
  0
VERTEX
  5
18F2
  8
SAPA_GLAS
 10
33.000000000000107
 20
98.999999928200722
 30
0.0
  0
VERTEX
  5
18F3
  8
SAPA_GLAS
 10
1.0000000000001059
 20
98.999999928200737
 30
0.0
  0
SEQEND
  5
18F4
  8
SAPA_GLAS
  0
INSERT
  5
11D7
  8
SAPA_GLAS
  6
CONTINUOUS
  2
*X43
 10
0.0
 20
0.0
 30
0.0
1001
ACAD
1000
HATCH
1002
{
1070
    19
1000
ANSI37
1040
0.25
1040
-1.5707963267948959
1000
R14_HATCH_DATA
1000
11D7
1011
1.0
1021
0.0
1031
0.0
1021
0.0
1031
0.0
1011
0.0
1021
0.0
1031
0.0
1021
1.0
1031
0.0
1011
0.0
1021
0.0
1031
0.0
1021
0.0
1031
1.0
1040
0.0
1010
0.0
1020
0.0
1030
1.0
1000
ANSI37
1070
     0
1070
     0
1071
        1
1071
        7
1070
     1
1070
     1
1071
       21
1040
20.1999999999971
1040
94.999999928200737
1040
-0.1011549434925542
1040
20.199999999924049
1040
90.999999927839397
1040
0.0
1040
21.299999999995741
1040
90.999999927846687
1040
-0.4142135623731029
1040
21.499999999996469
1040
90.799999927849598
1040
0.0
1040
21.499999999985562
1040
89.999999927846687
1040
0.4142135623730951
1040
21.999999999985551
1040
89.499999927846673
1040
0.0
1040
22.999999999996469
1040
89.499999928326872
1040
0.414213562373094
1040
23.499999999996469
1040
89.999999928326872
1040
0.0
1040
23.499999999996469
1040
90.799999928337044
1040
-0.4142135623731048
1040
23.6999999999972
1040
90.999999928326872
1040
0.0
1040
24.799999999995741
1040
90.999999928326872
1040
-0.4142135618575339
1040
24.999999999996469
1040
90.799999928689104
1040
0.0
1040
25.502777960100641
1040
90.711346609020978
1040
0.0
1040
25.912506966044731
1040
93.035035271328042
1040
0.5773502691875974
1040
25.64714138677839
1040
93.257703431024623
1040
0.0
1040
25.623927929460478
1040
93.249254423516248
1040
-0.4142135623732763
1040
25.239414100227009
1040
93.428556166760416
1040
0.0
1040
25.171010071562399
1040
93.616494690920035
1040
-0.4142135623734132
1040
25.469846310296749
1040
94.257351072973108
1040
0.0
1040
26.98696978510155
1040
94.809538859490388
1040
0.0
1040
26.98696978510155
1040
94.999999928200722
1040
0.0
1071
        0
1070
     0
1070
     1
1040
-1.5707963267948959
1040
0.25
1070
     0
1070
     2
1040
5.4977871437821371
1040
19.999999999996469
1040
132.4999999277548
1040
0.5612660075668222
1040
0.5612660075668219
1070
     0
1040
0.7853981633974481
1040
19.999999999996469
1040
132.4999999277548
1040
-0.5612660075668219
1040
0.5612660075668222
1070
     0
1040
0.0554184978666472
1071
        1
1040
22.614807780501039
1040
92.977469915190738
1040
0.0
1002
}
  0
INSERT
  5
11D8
  8
SAPA_GLAS
  6
CONTINUOUS
  2
*X44
 10
0.0
 20
0.0
 30
0.0
1001
ACAD
1000
HATCH
1002
{
1070
    19
1000
ANSI37
1040
0.25
1040
-1.5707963267948959
1000
R14_HATCH_DATA
1000
11D8
1011
1.0
1021
0.0
1031
0.0
1021
0.0
1031
0.0
1011
0.0
1021
0.0
1031
0.0
1021
1.0
1031
0.0
1011
0.0
1021
0.0
1031
0.0
1021
0.0
1031
1.0
1040
0.0
1010
0.0
1020
0.0
1030
1.0
1000
ANSI37
1070
     0
1070
     0
1071
        1
1071
        7
1070
     1
1070
     1
1071
       21
1040
26.98696978510155
1040
122.99999992820089
1040
0.0
1040
26.98696978510155
1040
123.1904609970788
1040
0.0
1040
25.46984631048446
1040
123.7426487835497
1040
-0.4142135623734131
1040
25.171010071758271
1040
124.38350516560649
1040
0.0
1040
25.239414100425279
1040
124.5714436897653
1040
-0.4142135623732763
1040
25.623927929661029
1040
124.7507454330046
1040
0.0
1040
25.647141386978841
1040
124.74229642549589
1040
0.5773502691875974
1040
25.91250696624801
1040
124.96496458518909
1040
0.0
1040
25.502777960347171
1040
127.28865324742389
1040
0.0
1040
24.999999999996419
1040
127.1999999277123
1040
-0.4142135623811048
1040
24.799999999995698
1040
126.999999927717
1040
0.0
1040
23.69999999999715
1040
126.999999927717
1040
-0.4142135623731048
1040
23.499999999996419
1040
127.1999999277068
1040
0.0
1040
23.499999999996419
1040
127.999999927717
1040
0.414213562373094
1040
22.999999999996419
1040
128.499999927717
1040
0.0
1040
21.999999999985491
1040
128.49999992819721
1040
0.4142135623730951
1040
21.499999999985508
1040
127.9999999281972
1040
0.0
1040
21.499999999996419
1040
127.1999999281943
1040
-0.4142135623731029
1040
21.299999999995698
1040
126.9999999281972
1040
0.0
1040
20.199999999997139
1040
126.9999999282045
1040
-0.101154943483322
1040
20.199999999997129
1040
122.99999992820089
1040
0.0
1071
        0
1070
     0
1070
     1
1040
-1.5707963267948959
1040
0.25
1070
     0
1070
     2
1040
5.4977871437821371
1040
19.999999999996469
1040
132.4999999277548
1040
0.5612660075668222
1040
0.5612660075668219
1070
     0
1040
0.7853981633974481
1040
19.999999999996469
1040
132.4999999277548
1040
-0.5612660075668219
1040
0.5612660075668222
1070
     0
1040
0.0245236365555031
1071
        1
1040
23.190573237183539
1040
124.9429814047698
1040
0.0
1002
}
  0
POLYLINE
  5
11E1
  8
SAPA_FOGBAND
 66
     1
 10
0.0
 20
0.0
 30
0.0
 70
     1
  0
VERTEX
  5
193A
  8
SAPA_FOGBAND
 10
26.85000000000306
 20
16.2500000000237
 30
0.0
  0
VERTEX
  5
193B
  8
SAPA_FOGBAND
 10
26.85000000000306
 20
17.050000000023878
 30
0.0
  0
VERTEX
  5
193C
  8
SAPA_FOGBAND
 10
33.150000000000148
 20
17.050000000023878
 30
0.0
  0
VERTEX
  5
193D
  8
SAPA_FOGBAND
 10
33.150000000000148
 20
16.2500000000237
 30
0.0
  0
SEQEND
  5
193E
  8
SAPA_FOGBAND
  0
POLYLINE
  5
11E2
  8
SAPA_FOGBAND
 66
     1
 10
0.0
 20
0.0
 30
0.0
  0
VERTEX
  5
193F
  8
SAPA_FOGBAND
 10
31.572689603142649
 20
17.050000000023878
 30
0.0
  0
VERTEX
  5
1940
  8
SAPA_FOGBAND
 10
32.69813620045857
 20
20.5000000000237
 30
0.0
  0
VERTEX
  5
1941
  8
SAPA_FOGBAND
 10
30.259998153910029
 20
20.5000000000237
 30
0.0
  0
VERTEX
  5
1942
  8
SAPA_FOGBAND
 10
30.150000000003061
 20
17.050000000023878
 30
0.0
  0
SEQEND
  5
1943
  8
SAPA_FOGBAND
  0
POLYLINE
  5
11E3
  8
SAPA_FOGBAND
 66
     1
 10
0.0
 20
0.0
 30
0.0
  0
VERTEX
  5
1944
  8
SAPA_FOGBAND
 10
30.07500000000233
 20
17.050000000023878
 30
0.0
  0
VERTEX
  5
1945
  8
SAPA_FOGBAND
 10
30.074999999999061
 20
20.5000000000237
 30
0.0
  0
VERTEX
  5
1946
  8
SAPA_FOGBAND
 10
29.925000000000871
 20
20.5000000000237
 30
0.0
  0
VERTEX
  5
1947
  8
SAPA_FOGBAND
 10
29.925000000000878
 20
17.050000000023878
 30
0.0
  0
SEQEND
  5
1948
  8
SAPA_FOGBAND
  0
POLYLINE
  5
11E4
  8
SAPA_FOGBAND
 66
     1
 10
0.0
 20
0.0
 30
0.0
  0
VERTEX
  5
1949
  8
SAPA_FOGBAND
 10
29.850000000000151
 20
17.050000000023878
 30
0.0
  0
VERTEX
  5
194A
  8
SAPA_FOGBAND
 10
29.740002614817911
 20
20.5000000000237
 30
0.0
  0
VERTEX
  5
194B
  8
SAPA_FOGBAND
 10
27.30190927439574
 20
20.5000000000237
 30
0.0
  0
VERTEX
  5
194C
  8
SAPA_FOGBAND
 10
28.427310396860559
 20
17.050000000023878
 30
0.0
  0
SEQEND
  5
194D
  8
SAPA_FOGBAND
  0
DIMENSION
  5
11F0
  8
SAPA_MATT
  2
*D36
 10
85.0
 20
170.99999985600741
 30
0.0
 11
52.499999999998209
 21
173.74999985600741
 31
0.0
 70
     0
 13
19.999999999996412
 23
130.7499999276952
 33
0.0
 14
85.0
 24
138.69999985599719
 34
0.0
 50
180.0
1001
ACAD
1000
DSTYLE
1002
{
1070
    40
1040
1.0
1002
}
  0
DIMENSION
  5
11F1
  8
SAPA_MATT
  2
*D35
 10
25.00000000000011
 20
158.99999985600741
 30
0.0
 11
55.000000000000057
 21
161.74999985600741
 31
0.0
 70
     0
 13
85.0
 23
138.69999985599719
 33
0.0
 14
25.00000000000011
 24
137.49999985600741
 34
0.0
 50
180.0
1001
ACAD
1000
DSTYLE
1002
{
1070
    40
1040
1.0
1002
}
  0
DIMENSION
  5
11F2
  8
SAPA_MATT
  2
*D34
 10
-30.999999999999972
 20
13.999999928252731
 30
0.0
 11
-30.999999999999972
 21
76.499999928003746
 31
0.0
 70
   128
 13
26.50000000000011
 23
138.9999999277548
 33
0.0
 14
24.500000000000139
 24
13.99999992825272
 34
0.0
 50
270.0
1001
ACAD
1000
DSTYLE
1002
{
1070
    40
1040
1.0
1002
}
  0
DIMENSION
  5
11F3
  8
SAPA_MATT
  2
*D33
 10
-19.0
 20
13.999999928252731
 30
0.0
 11
-18.239486851189749
 21
50.142264778476473
 31
0.0
 70
   128
 13
35.000000000174708
 23
85.499999928367828
 33
0.0
 14
24.500000000000139
 24
13.99999992825272
 34
0.0
 50
270.0
1001
ACAD
1000
DSTYLE
1002
{
1070
   287
1070
     4
1070
    40
1040
1.0
1070
   279
1070
     1
1002
}
  0
DIMENSION
  5
11F4
  8
SAPA_MATT
  2
*D32
 10
-19.0
 20
85.499999928367842
 30
0.0
 11
-21.750000000000011
 21
108.99999992802201
 31
0.0
 70
     0
 13
35.000000000174673
 23
132.4999999276761
 33
0.0
 14
35.000000000174708
 24
85.499999928367828
 34
0.0
 50
270.0
1001
ACAD
1000
DSTYLE
1002
{
1070
   287
1070
     4
1070
    40
1040
1.0
1070
   279
1070
     1
1002
}
  0
DIMENSION
  5
11F5
  8
SAPA_MATT
  2
*D31
 10
-18.999999999999979
 20
132.4999999276761
 30
0.0
 11
-19.0
 21
135.74999992771541
 31
0.0
 70
   128
 13
26.50000000000011
 23
138.9999999277548
 33
0.0
 14
35.000000000174673
 24
132.4999999276761
 34
0.0
 50
270.0
1001
ACAD
1000
DSTYLE
1002
{
1070
    40
1040
1.0
1002
}
  0
DIMENSION
  5
11F6
  8
SAPA_MATT
  2
*D30
 10
19.999999999996412
 20
158.9999999277548
 30
0.0
 11
22.499999999998259
 21
161.7499999277548
 31
0.0
 70
     0
 13
25.00000000000011
 23
137.49999992775469
 33
0.0
 14
19.999999999996412
 24
130.7499999276952
 34
0.0
 50
180.0
1001
ACAD
1000
DSTYLE
1002
{
1070
   287
1070
     4
1070
    40
1040
1.0
1070
   279
1070
     1
1002
}
  0
VIEWPORT
  5
C4
 67
     1
  8
0
 10
160.5543545598442
 20
116.00969601843509
 30
0.0
 40
404.96977709277462
 41
256.8421457311839
 68
     1
 69
     1
1001
ACAD
1000
MVIEW
1002
{
1070
    16
1010
0.0
1020
0.0
1030
0.0
1010
0.0
1020
0.0
1030
1.0
1040
0.0
1040
256.8421457311839
1040
99.206250190734863
1040
130.70624923706049
1040
50.0
1040
0.0
1040
0.0
1070
     0
1070
     0
1070
     1
1070
     1
1070
     0
1070
     0
1070
     0
1070
     0
1040
0.0
1040
0.0
1040
0.0
1040
10.0
1040
10.0
1040
10.0
1040
10.0
1070
     0
1002
{
1002
}
1002
}
  0
ENDSEC
  0
EOF
