  0
SECTION
  2
HEADER
  9
$ACADVER
  1
AC1009
  9
$INSBASE
 10
0.0
 20
0.0
 30
0.0
  9
$EXTMIN
 10
-67.249999999999972
 20
-30.61946647704573
 30
-0.2
  9
$EXTMAX
 10
104.7553653089505
 20
194.0032559344132
 30
0.0000000048844772
  9
$LIMMIN
 10
0.0
 20
0.0
  9
$LIMMAX
 10
790.0
 20
790.0
  9
$ORTHOMODE
 70
     1
  9
$REGENMODE
 70
     1
  9
$FILLMODE
 70
     1
  9
$QTEXTMODE
 70
     0
  9
$MIRRTEXT
 70
     1
  9
$DRAGMODE
 70
     2
  9
$LTSCALE
 40
4.0
  9
$OSMODE
 70
   167
  9
$ATTMODE
 70
     1
  9
$TEXTSIZE
 40
3.5
  9
$TRACEWID
 40
0.05
  9
$TEXTSTYLE
  7
ISO
  9
$CLAYER
  8
0
  9
$CELTYPE
  6
BYLAYER
  9
$CECOLOR
 62
   256
  9
$DIMSCALE
 40
0.0
  9
$DIMASZ
 40
3.0
  9
$DIMEXO
 40
1.5
  9
$DIMDLI
 40
10.0
  9
$DIMRND
 40
0.0
  9
$DIMDLE
 40
0.0
  9
$DIMEXE
 40
1.5
  9
$DIMTP
 40
0.0
  9
$DIMTM
 40
0.0
  9
$DIMTXT
 40
3.5
  9
$DIMCEN
 40
-5.0
  9
$DIMTSZ
 40
0.0
  9
$DIMTOL
 70
     0
  9
$DIMLIM
 70
     0
  9
$DIMTIH
 70
     0
  9
$DIMTOH
 70
     0
  9
$DIMSE1
 70
     0
  9
$DIMSE2
 70
     0
  9
$DIMTAD
 70
     1
  9
$DIMZIN
 70
     8
  9
$DIMBLK
  1

  9
$DIMASO
 70
     1
  9
$DIMSHO
 70
     1
  9
$DIMPOST
  1

  9
$DIMAPOST
  1

  9
$DIMALT
 70
     0
  9
$DIMALTD
 70
     0
  9
$DIMALTF
 40
25.399999999999999
  9
$DIMLFAC
 40
-1.0
  9
$DIMTOFL
 70
     1
  9
$DIMTVP
 40
0.0
  9
$DIMTIX
 70
     0
  9
$DIMSOXD
 70
     0
  9
$DIMSAH
 70
     0
  9
$DIMBLK1
  1

  9
$DIMBLK2
  1

  9
$DIMSTYLE
  2
MASKIN
  9
$DIMCLRD
 70
   256
  9
$DIMCLRE
 70
   256
  9
$DIMCLRT
 70
     2
  9
$DIMTFAC
 40
1.0
  9
$DIMGAP
 40
1.0
  9
$LUNITS
 70
     2
  9
$LUPREC
 70
     8
  9
$SKETCHINC
 40
0.1
  9
$FILLETRAD
 40
0.0
  9
$AUNITS
 70
     0
  9
$AUPREC
 70
     8
  9
$MENU
  1
ACAD
  9
$ELEVATION
 40
0.0
  9
$PELEVATION
 40
0.0
  9
$THICKNESS
 40
0.0
  9
$LIMCHECK
 70
     0
  9
$BLIPMODE
 70
     0
  9
$CHAMFERA
 40
0.0
  9
$CHAMFERB
 40
0.0
  9
$SKPOLY
 70
     0
  9
$TDCREATE
 40
2455734.518348461
  9
$TDUPDATE
 40
2455994.502452685
  9
$TDINDWG
 40
1.1469568750000001
  9
$TDUSRTIMER
 40
1.1469566898000001
  9
$USRTIMER
 70
     1
  9
$ANGBASE
 50
0.0
  9
$ANGDIR
 70
     0
  9
$PDMODE
 70
     0
  9
$PDSIZE
 40
0.0
  9
$PLINEWID
 40
0.0
  9
$COORDS
 70
     1
  9
$SPLFRAME
 70
     0
  9
$SPLINETYPE
 70
     6
  9
$SPLINESEGS
 70
     8
  9
$ATTDIA
 70
     0
  9
$ATTREQ
 70
     1
  9
$HANDLING
 70
     1
  9
$HANDSEED
  5
1A79
  9
$SURFTAB1
 70
     6
  9
$SURFTAB2
 70
     6
  9
$SURFTYPE
 70
     6
  9
$SURFU
 70
     6
  9
$SURFV
 70
     6
  9
$UCSNAME
  2

  9
$UCSORG
 10
0.0
 20
0.0
 30
0.0
  9
$UCSXDIR
 10
1.0
 20
0.0
 30
0.0
  9
$UCSYDIR
 10
0.0
 20
1.0
 30
0.0
  9
$PUCSNAME
  2

  9
$PUCSORG
 10
0.0
 20
0.0
 30
0.0
  9
$PUCSXDIR
 10
1.0
 20
0.0
 30
0.0
  9
$PUCSYDIR
 10
0.0
 20
1.0
 30
0.0
  9
$USERI1
 70
     0
  9
$USERI2
 70
     0
  9
$USERI3
 70
     0
  9
$USERI4
 70
     0
  9
$USERI5
 70
     0
  9
$USERR1
 40
0.0
  9
$USERR2
 40
0.0
  9
$USERR3
 40
0.0
  9
$USERR4
 40
0.0
  9
$USERR5
 40
0.0
  9
$WORLDVIEW
 70
     1
  9
$SHADEDGE
 70
     3
  9
$SHADEDIF
 70
    70
  9
$TILEMODE
 70
     1
  9
$MAXACTVP
 70
    16
  9
$PLIMCHECK
 70
     0
  9
$PEXTMIN
 10
1.0000000000000000E+020
 20
1.0000000000000000E+020
 30
1.0000000000000000E+020
  9
$PEXTMAX
 10
-1.0000000000000000E+020
 20
-1.0000000000000000E+020
 30
-1.0000000000000000E+020
  9
$PLIMMIN
 10
-5.069427490234375
 20
-5.8737497329711914
  9
$PLIMMAX
 10
291.89889526367187
 20
204.0995779037475
  9
$UNITMODE
 70
     0
  9
$VISRETAIN
 70
     1
  9
$PLINEGEN
 70
     0
  9
$PSLTSCALE
 70
     1
  0
ENDSEC
  0
SECTION
  2
TABLES
  0
TABLE
  2
VPORT
 70
     1
  0
VPORT
  2
*ACTIVE
 70
     0
 10
0.0
 20
0.0
 11
1.0
 21
1.0
 12
22.321505655304659
 22
141.86422418976599
 13
0.0
 23
0.0
 14
1.0
 24
1.0
 15
0.0
 25
0.0
 16
0.0
 26
0.0
 36
1.0
 17
0.0
 27
0.0
 37
0.0
 40
225.47107592710969
 41
2.37391304347826
 42
50.0
 43
0.0
 44
0.0
 50
0.0
 51
0.0
 71
     0
 72
   100
 73
     1
 74
     1
 75
     0
 76
     0
 77
     0
 78
     0
  0
ENDTAB
  0
TABLE
  2
LTYPE
 70
     5
  0
LTYPE
  2
CONTINUOUS
 70
     0
  3
Solid line
 72
    65
 73
     0
 40
0.0
  0
LTYPE
  2
BYGG-027390$0$NEWDOT
 70
     0
  3
____ . ____ . ____ . ____ . ____ . ____ . ____
 72
    65
 73
     4
 40
2.0
 49
1.0
 49
-0.5
 49
0.0
 49
-0.5
  0
LTYPE
  2
BYGG-027368$0$NEWDOT
 70
     0
  3
____ . ____ . ____ . ____ . ____ . ____ . ____
 72
    65
 73
     4
 40
2.0
 49
1.0
 49
-0.5
 49
0.0
 49
-0.5
  0
LTYPE
  2
BYGG-027387$0$NEWDOT
 70
     0
  3
____ . ____ . ____ . ____ . ____ . ____ . ____
 72
    65
 73
     4
 40
2.0
 49
1.0
 49
-0.5
 49
0.0
 49
-0.5
  0
LTYPE
  2
BYGG-027378$0$NEWDOT
 70
     0
  3
____ . ____ . ____ . ____ . ____ . ____ . ____
 72
    65
 73
     4
 40
2.0
 49
1.0
 49
-0.5
 49
0.0
 49
-0.5
  0
ENDTAB
  0
TABLE
  2
LAYER
 70
    41
  0
LAYER
  2
0
 70
     0
 62
     7
  6
CONTINUOUS
  0
LAYER
  2
DEFPOINTS
 70
     0
 62
     7
  6
CONTINUOUS
  0
LAYER
  2
SAPA_ARTIKELNR
 70
     0
 62
     4
  6
CONTINUOUS
  0
LAYER
  2
SAPA_ANSLUTNING
 70
     0
 62
     6
  6
CONTINUOUS
  0
LAYER
  2
SAPA_MATT
 70
     0
 62
     1
  6
CONTINUOUS
  0
LAYER
  2
SAPA_GLAS
 70
     0
 62
     4
  6
CONTINUOUS
  0
LAYER
  2
SAPA_FOGBAND
 70
     0
 62
     2
  6
CONTINUOUS
  0
LAYER
  2
SAPA_PROFIL
 70
     0
 62
     7
  6
CONTINUOUS
  0
ENDTAB
  0
TABLE
  2
STYLE
 70
    22
  0
STYLE
  2
STANDARD
 70
     0
 40
0.0
 41
1.0
 50
0.0
 71
     0
 42
0.2
  3
txt
  4

  0
STYLE
  2
ISO
 70
     0
 40
0.0
 41
1.0
 50
0.0
 71
     0
 42
3.5
  3
txt
  4

  0
STYLE
  2
BYGG-027392$0$STANDARD
 70
     0
 40
0.0
 41
1.0
 50
0.0
 71
     0
 42
0.2
  3
txt
  4

  0
STYLE
  2
BYGG-027392$0$ISO
 70
     0
 40
0.0
 41
1.0
 50
0.0
 71
     0
 42
3.5
  3
txt
  4

  0
STYLE
  2
BYGG-027457$0$STANDARD
 70
     0
 40
0.0
 41
1.0
 50
0.0
 71
     0
 42
0.2
  3
txt
  4

  0
STYLE
  2
BYGG-027457$0$ISO
 70
     0
 40
0.0
 41
1.0
 50
0.0
 71
     0
 42
3.5
  3
txt
  4

  0
STYLE
  2
BYGG-027390$0$STANDARD
 70
     0
 40
0.0
 41
1.0
 50
0.0
 71
     0
 42
0.2
  3
txt
  4

  0
STYLE
  2
BYGG-027390$0$ISO
 70
     0
 40
0.0
 41
1.0
 50
0.0
 71
     0
 42
3.5
  3
txt
  4

  0
STYLE
  2
BYGG-027458$0$STANDARD
 70
     0
 40
0.0
 41
1.0
 50
0.0
 71
     0
 42
0.2
  3
txt
  4

  0
STYLE
  2
BYGG-027458$0$ISO
 70
     0
 40
0.0
 41
1.0
 50
0.0
 71
     0
 42
3.5
  3
txt
  4

  0
STYLE
  2
BYGG-027368$0$STANDARD
 70
     0
 40
0.0
 41
1.0
 50
0.0
 71
     0
 42
0.2
  3
txt
  4

  0
STYLE
  2
BYGG-027368$0$ISO
 70
     0
 40
0.0
 41
1.0
 50
0.0
 71
     0
 42
3.5
  3
txt
  4

  0
STYLE
  2
BYGG-027460$0$STANDARD
 70
     0
 40
0.0
 41
1.0
 50
0.0
 71
     0
 42
0.2
  3
txt
  4

  0
STYLE
  2
BYGG-027460$0$ISO
 70
     0
 40
0.0
 41
1.0
 50
0.0
 71
     0
 42
3.5
  3
txt
  4

  0
STYLE
  2
BYGG-027387$0$STANDARD
 70
     0
 40
0.0
 41
1.0
 50
0.0
 71
     0
 42
0.2
  3
txt
  4

  0
STYLE
  2
BYGG-027387$0$ISO
 70
     0
 40
0.0
 41
1.0
 50
0.0
 71
     0
 42
3.5
  3
txt
  4

  0
STYLE
  2
BYGG-027394$0$STANDARD
 70
     0
 40
0.0
 41
1.0
 50
0.0
 71
     0
 42
0.2
  3
txt
  4

  0
STYLE
  2
BYGG-027394$0$ISO
 70
     0
 40
0.0
 41
1.0
 50
0.0
 71
     0
 42
3.5
  3
txt
  4

  0
STYLE
  2
BYGG-027398$0$STANDARD
 70
     0
 40
0.0
 41
1.0
 50
0.0
 71
     0
 42
0.2
  3
txt
  4

  0
STYLE
  2
BYGG-027398$0$ISO
 70
     0
 40
0.0
 41
1.0
 50
0.0
 71
     0
 42
3.5
  3
txt
  4

  0
STYLE
  2
BYGG-027378$0$STANDARD
 70
     0
 40
0.0
 41
1.0
 50
0.0
 71
     0
 42
0.2
  3
txt
  4

  0
STYLE
  2
BYGG-027378$0$ISO
 70
     0
 40
0.0
 41
1.0
 50
0.0
 71
     0
 42
3.5
  3
txt
  4

  0
ENDTAB
  0
TABLE
  2
VIEW
 70
     0
  0
ENDTAB
  0
TABLE
  2
UCS
 70
     0
  0
ENDTAB
  0
TABLE
  2
APPID
 70
    28
  0
APPID
  2
ACAD
 70
     0
  0
APPID
  2
ACAD_DSTYLE_DIMTEXT_FILL
 70
     0
  0
APPID
  2
ACAD_DSTYLE_DIMEXT_LENGTH
 70
     0
  0
APPID
  2
ACAD_DSTYLE_DIMEXT_ENABLED
 70
     0
  0
APPID
  2
ACAD_DSTYLE_DIM_LINETYPE
 70
     0
  0
APPID
  2
ACAD_DSTYLE_DIM_EXT1_LINETYPE
 70
     0
  0
APPID
  2
ACAD_DSTYLE_DIM_EXT2_LINETYPE
 70
     0
  0
APPID
  2
ACAD_DSTYLE_DIMJOGGED_JOGA
 70
     0
  0
APPID
  2
ACAD_DSTYLE_DIMARC_LENGTH_
 70
     0
  0
APPID
  2
ACAD_PSEXT
 70
     0
  0
APPID
  2
ACAD_MLEADERVER
 70
     0
  0
APPID
  2
GENIUS_GENODEF_13
 70
     0
  0
APPID
  2
RC_PROFILE
 70
     0
  0
APPID
  2
ACAECLAYERSTANDARD
 70
     0
  0
APPID
  2
GENIUS_GENOBJ-N-FIL_13
 70
     0
  0
APPID
  2
ACADANNOTATIVE
 70
     0
  0
APPID
  2
ACAD_EXEMPT_FROM_CAD_STANDARDS
 70
     0
  0
APPID
  2
AEC_XDATA_BOUND_SPACE
 70
     0
  0
APPID
  2
ACAD_DSTYLE_DIMJAG
 70
     0
  0
APPID
  2
ACAD_DSTYLE_DIMTALN
 70
     0
  0
APPID
  2
GENIUS_GENREC_14
 70
     0
  0
APPID
  2
GENIUS_GENOBJ-N-REC_13
 70
     0
  0
APPID
  2
ACDBDYNAMICBLOCKTRUENAME
 70
     0
  0
APPID
  2
ACDBBLOCKREPETAG
 70
     0
  0
APPID
  2
ACDBDYNAMICBLOCKGUID
 70
     0
  0
APPID
  2
ACDBBLOCKREPBTAG
 70
     0
  0
APPID
  2
ACAD_NAV_VCDISPLAY
 70
     0
  0
APPID
  2
ACCMTRANSPARENCY
 70
     0
  0
ENDTAB
  0
TABLE
  2
DIMSTYLE
 70
    11
  0
DIMSTYLE
  2
MASKIN
 70
     0
  3

  4

  5

  6

  7

 40
0.0
 41
3.0
 42
1.5
 43
10.0
 44
1.5
 45
0.0
 46
0.0
 47
0.0
 48
0.0
140
3.5
141
-5.0
142
0.0
143
25.399999999999999
144
-1.0
145
0.0
146
1.0
147
1.0
 71
     0
 72
     0
 73
     0
 74
     0
 75
     0
 76
     0
 77
     1
 78
     8
170
     0
171
     0
172
     1
173
     0
174
     0
175
     0
176
   256
177
   256
178
     2
  0
DIMSTYLE
  2
BYGG-027392$0$MASKIN
 70
     0
  3

  4

  5

  6

  7

 40
0.0
 41
3.0
 42
1.5
 43
10.0
 44
1.5
 45
0.0
 46
0.0
 47
0.0
 48
0.0
140
3.0
141
-5.0
142
0.0
143
25.399999999999999
144
-1.0
145
0.0
146
1.0
147
1.0
 71
     0
 72
     0
 73
     0
 74
     0
 75
     0
 76
     0
 77
     1
 78
     8
170
     0
171
     0
172
     1
173
     0
174
     0
175
     0
176
   256
177
   256
178
     2
  0
DIMSTYLE
  2
BYGG-027457$0$MASKIN
 70
     0
  3

  4

  5

  6

  7

 40
0.0
 41
3.0
 42
1.5
 43
10.0
 44
1.5
 45
0.0
 46
0.0
 47
0.0
 48
0.0
140
3.0
141
-5.0
142
0.0
143
25.399999999999999
144
-1.0
145
0.0
146
1.0
147
1.0
 71
     0
 72
     0
 73
     0
 74
     0
 75
     0
 76
     0
 77
     1
 78
     8
170
     0
171
     0
172
     1
173
     0
174
     0
175
     0
176
   256
177
   256
178
     2
  0
DIMSTYLE
  2
BYGG-027390$0$MASKIN
 70
     0
  3

  4

  5

  6

  7

 40
0.0
 41
3.0
 42
1.5
 43
10.0
 44
1.5
 45
0.0
 46
0.0
 47
0.0
 48
0.0
140
3.0
141
-5.0
142
0.0
143
25.399999999999999
144
-1.0
145
0.0
146
1.0
147
1.0
 71
     0
 72
     0
 73
     0
 74
     0
 75
     0
 76
     0
 77
     1
 78
     8
170
     0
171
     0
172
     1
173
     0
174
     0
175
     0
176
   256
177
   256
178
     2
  0
DIMSTYLE
  2
BYGG-027458$0$MASKIN
 70
     0
  3

  4

  5

  6

  7

 40
0.0
 41
3.0
 42
1.5
 43
10.0
 44
1.5
 45
0.0
 46
0.0
 47
0.0
 48
0.0
140
3.0
141
-5.0
142
0.0
143
25.399999999999999
144
-1.0
145
0.0
146
1.0
147
1.0
 71
     0
 72
     0
 73
     0
 74
     0
 75
     0
 76
     0
 77
     1
 78
     8
170
     0
171
     0
172
     1
173
     0
174
     0
175
     0
176
   256
177
   256
178
     2
  0
DIMSTYLE
  2
BYGG-027368$0$MASKIN
 70
     0
  3

  4

  5

  6

  7

 40
0.0
 41
3.0
 42
1.5
 43
10.0
 44
1.5
 45
0.0
 46
0.0
 47
0.0
 48
0.0
140
3.0
141
-5.0
142
0.0
143
25.399999999999999
144
-1.0
145
0.0
146
1.0
147
1.0
 71
     0
 72
     0
 73
     0
 74
     0
 75
     0
 76
     0
 77
     1
 78
     8
170
     0
171
     0
172
     1
173
     0
174
     0
175
     0
176
   256
177
   256
178
     2
  0
DIMSTYLE
  2
BYGG-027460$0$MASKIN
 70
     0
  3

  4

  5

  6

  7

 40
0.0
 41
3.0
 42
1.5
 43
10.0
 44
1.5
 45
0.0
 46
0.0
 47
0.0
 48
0.0
140
3.0
141
-5.0
142
0.0
143
25.399999999999999
144
-1.0
145
0.0
146
1.0
147
1.0
 71
     0
 72
     0
 73
     0
 74
     0
 75
     0
 76
     0
 77
     1
 78
     8
170
     0
171
     0
172
     1
173
     0
174
     0
175
     0
176
   256
177
   256
178
     2
  0
DIMSTYLE
  2
BYGG-027387$0$MASKIN
 70
     0
  3

  4

  5

  6

  7

 40
0.0
 41
3.0
 42
1.5
 43
10.0
 44
1.5
 45
0.0
 46
0.0
 47
0.0
 48
0.0
140
3.0
141
-5.0
142
0.0
143
25.399999999999999
144
-1.0
145
0.0
146
1.0
147
1.0
 71
     0
 72
     0
 73
     0
 74
     0
 75
     0
 76
     0
 77
     1
 78
     8
170
     0
171
     0
172
     1
173
     0
174
     0
175
     0
176
   256
177
   256
178
     2
  0
DIMSTYLE
  2
BYGG-027394$0$MASKIN
 70
     0
  3

  4

  5

  6

  7

 40
0.0
 41
3.0
 42
1.5
 43
10.0
 44
1.5
 45
0.0
 46
0.0
 47
0.0
 48
0.0
140
3.0
141
-5.0
142
0.0
143
25.399999999999999
144
-1.0
145
0.0
146
1.0
147
1.0
 71
     0
 72
     0
 73
     0
 74
     0
 75
     0
 76
     0
 77
     1
 78
     8
170
     0
171
     0
172
     1
173
     0
174
     0
175
     0
176
   256
177
   256
178
     2
  0
DIMSTYLE
  2
BYGG-027398$0$MASKIN
 70
     0
  3

  4

  5

  6

  7

 40
0.0
 41
3.0
 42
1.5
 43
10.0
 44
1.5
 45
0.0
 46
0.0
 47
0.0
 48
0.0
140
3.0
141
-5.0
142
0.0
143
25.399999999999999
144
-1.0
145
0.0
146
1.0
147
1.0
 71
     0
 72
     0
 73
     0
 74
     0
 75
     0
 76
     0
 77
     1
 78
     8
170
     0
171
     0
172
     1
173
     0
174
     0
175
     0
176
   256
177
   256
178
     2
  0
DIMSTYLE
  2
BYGG-027378$0$MASKIN
 70
     0
  3

  4

  5

  6

  7

 40
0.0
 41
3.0
 42
1.5
 43
10.0
 44
1.5
 45
0.0
 46
0.0
 47
0.0
 48
0.0
140
3.0
141
-5.0
142
0.0
143
25.399999999999999
144
-1.0
145
0.0
146
1.0
147
1.0
 71
     0
 72
     0
 73
     0
 74
     0
 75
     0
 76
     0
 77
     1
 78
     8
170
     0
171
     0
172
     1
173
     0
174
     0
175
     0
176
   256
177
   256
178
     2
  0
ENDTAB
  0
ENDSEC
  0
SECTION
  2
BLOCKS
  0
BLOCK
  8
0
  2
$MODEL_SPACE
 70
     0
 10
0.0
 20
0.0
 30
0.0
  3
$MODEL_SPACE
  1

  0
ENDBLK
  5
37
  8
0
  0
BLOCK
 67
     1
  8
0
  2
$PAPER_SPACE
 70
     0
 10
0.0
 20
0.0
 30
0.0
  3
$PAPER_SPACE
  1

  0
ENDBLK
  5
35
 67
     1
  8
0
  0
BLOCK
  8
0
  2
*D37
 70
     1
 10
0.0
 20
0.0
 30
0.0
  3
*D37
  1

  0
LINE
  5
19DB
  8
SAPA_MATT
 10
25.00000000000011
 20
138.9999999277548
 30
0.0
 11
25.000000000000121
 21
170.4999999277548
 31
0.0
  0
LINE
  5
19DC
  8
SAPA_MATT
 10
-6.4999999999777174
 20
132.67605899532811
 30
0.0
 11
-6.4999999999777138
 21
170.4999999277548
 31
0.0
  0
LINE
  5
19DD
  8
SAPA_MATT
 10
22.000000000000121
 20
168.9999999277548
 30
0.0
 11
-3.4999999999777138
 21
168.9999999277548
 31
0.0
  0
SOLID
  5
19DE
  8
SAPA_MATT
 10
22.000000000000121
 20
169.4999999277548
 30
0.0
 11
22.000000000000121
 21
168.4999999277548
 31
0.0
 12
25.000000000000121
 22
168.9999999277548
 32
0.0
 13
25.000000000000121
 23
168.9999999277548
 33
0.0
  0
SOLID
  5
19DF
  8
SAPA_MATT
 10
-3.4999999999777138
 20
169.4999999277548
 30
0.0
 11
-3.4999999999777138
 21
168.4999999277548
 31
0.0
 12
-6.4999999999777138
 22
168.9999999277548
 32
0.0
 13
-6.4999999999777138
 23
168.9999999277548
 33
0.0
  0
TEXT
  8
SAPA_MATT
  40
3.5
  5
19F4
  62
2
  72
0
  71
0
 10
2.25000
 20
165.555
 30
0.000000
  1
31.5
  7
ISO
  0
POINT
  5
19E1
  8
DEFPOINTS
 62
     0
 10
25.00000000000011
 20
137.49999992775469
 30
0.0
  0
POINT
  5
19E2
  8
DEFPOINTS
 62
     0
 10
-6.4999999999777174
 20
131.17605899532811
 30
0.0
  0
POINT
  5
19E3
  8
DEFPOINTS
 62
     0
 10
-6.4999999999777138
 20
168.9999999277548
 30
0.0
  0
ENDBLK
  5
102A
  8
0
  0
BLOCK
  8
0
  2
*D38
 70
     1
 10
0.0
 20
0.0
 30
0.0
  3
*D38
  1

  0
LINE
  5
10AB
  8
SAPA_MATT
 10
25.00000000000011
 20
138.9999999277548
 30
0.0
 11
-50.499999999999972
 21
138.9999999277548
 31
0.0
  0
LINE
  5
10AC
  8
SAPA_MATT
 10
8.5000000000717364
 20
133.9999999275708
 30
0.0
 11
-50.499999999999979
 21
133.9999999275708
 31
0.0
  0
LINE
  5
10AD
  8
SAPA_MATT
 10
-48.999999999999979
 20
141.9999999277548
 30
0.0
 11
-48.999999999999972
 21
144.99999992775469
 31
0.0
  0
LINE
  5
10AE
  8
SAPA_MATT
 10
-48.999999999999979
 20
130.9999999275708
 30
0.0
 11
-48.999999999999979
 21
127.9999999275708
 31
0.0
  0
LINE
  5
10AF
  8
SAPA_MATT
 10
-48.999999999999979
 20
138.9999999277548
 30
0.0
 11
-48.999999999999979
 21
133.9999999275708
 31
0.0
  0
SOLID
  5
10B0
  8
SAPA_MATT
 10
-49.499999999999979
 20
141.9999999277548
 30
0.0
 11
-48.499999999999972
 21
141.9999999277548
 31
0.0
 12
-48.999999999999979
 22
138.9999999277548
 32
0.0
 13
-48.999999999999979
 23
138.9999999277548
 33
0.0
  0
SOLID
  5
10B1
  8
SAPA_MATT
 10
-49.499999999999979
 20
130.9999999275708
 30
0.0
 11
-48.499999999999972
 21
130.9999999275708
 31
0.0
 12
-48.999999999999979
 22
133.9999999275708
 32
0.0
 13
-48.999999999999979
 23
133.9999999275708
 33
0.0
  0
INSERT
  5
10B2
  8
0
  2
*U53
 10
0.0
 20
0.0
 30
0.0
  0
POINT
  5
10B3
  8
DEFPOINTS
 62
     0
 10
26.50000000000011
 20
138.9999999277548
 30
0.0
  0
POINT
  5
10B4
  8
DEFPOINTS
 62
     0
 10
10.000000000071729
 20
133.9999999275708
 30
0.0
  0
POINT
  5
10B5
  8
DEFPOINTS
 62
     0
 10
-48.999999999999979
 20
133.9999999275708
 30
0.0
  0
ENDBLK
  5
1036
  8
0
  0
BLOCK
  8
0
  2
*D39
 70
     1
 10
0.0
 20
0.0
 30
0.0
  3
*D39
  1

  0
LINE
  5
19D2
  8
SAPA_MATT
 10
8.5000000000717364
 20
133.9999999275708
 30
0.0
 11
-50.499999999999993
 21
133.9999999275708
 31
0.0
  0
LINE
  5
19D3
  8
SAPA_MATT
 10
8.5000000000717364
 20
83.999999928250375
 30
0.0
 11
-50.499999999999993
 21
83.999999928250389
 31
0.0
  0
LINE
  5
19D4
  8
SAPA_MATT
 10
-48.999999999999993
 20
130.9999999275708
 30
0.0
 11
-49.0
 21
86.999999928250389
 31
0.0
  0
SOLID
  5
19D5
  8
SAPA_MATT
 10
-49.499999999999993
 20
130.9999999275708
 30
0.0
 11
-48.499999999999993
 21
130.9999999275708
 31
0.0
 12
-48.999999999999993
 22
133.9999999275708
 32
0.0
 13
-48.999999999999993
 23
133.9999999275708
 33
0.0
  0
SOLID
  5
19D6
  8
SAPA_MATT
 10
-49.5
 20
86.999999928250389
 30
0.0
 11
-48.5
 21
86.999999928250389
 31
0.0
 12
-49.0
 22
83.999999928250389
 32
0.0
 13
-49.0
 23
83.999999928250389
 33
0.0
  0
TEXT
  8
SAPA_MATT
  40
3.5
  5
19F5
  62
2
  72
0
  71
0
 10
-58.7500
 20
102.805
 30
0.000000
  1
50
  7
ISO
  0
POINT
  5
19D8
  8
DEFPOINTS
 62
     0
 10
10.000000000071729
 20
133.9999999275708
 30
0.0
  0
POINT
  5
19D9
  8
DEFPOINTS
 62
     0
 10
10.000000000071729
 20
83.999999928250375
 30
0.0
  0
POINT
  5
19DA
  8
DEFPOINTS
 62
     0
 10
-49.0
 20
83.999999928250389
 30
0.0
  0
ENDBLK
  5
1044
  8
0
  0
BLOCK
  8
0
  2
*D40
 70
     1
 10
0.0
 20
0.0
 30
0.0
  3
*D40
  1

  0
LINE
  5
19C9
  8
SAPA_MATT
 10
8.5000000000717364
 20
83.999999928250375
 30
0.0
 11
-50.499999999999979
 21
83.999999928250389
 31
0.0
  0
LINE
  5
19CA
  8
SAPA_MATT
 10
23.000000000000139
 20
13.99999992825272
 30
0.0
 11
-50.5
 21
13.999999928252739
 31
0.0
  0
LINE
  5
19CB
  8
SAPA_MATT
 10
-48.999999999999979
 20
80.999999928250375
 30
0.0
 11
-48.999999999999993
 21
16.999999928252741
 31
0.0
  0
TEXT
  8
SAPA_MATT
  40
3.5
  5
19F6
  62
2
  72
0
  71
0
 10
-57.9895
 20
43.9473
 30
0.000000
  1
70
  7
ISO
  0
SOLID
  5
19CD
  8
SAPA_MATT
 10
-49.499999999999979
 20
80.999999928250375
 30
0.0
 11
-48.499999999999972
 21
80.999999928250375
 31
0.0
 12
-48.999999999999979
 22
83.999999928250389
 32
0.0
 13
-48.999999999999979
 23
83.999999928250389
 33
0.0
  0
SOLID
  5
19CE
  8
SAPA_MATT
 10
-49.499999999999993
 20
16.999999928252741
 30
0.0
 11
-48.499999999999993
 21
16.999999928252741
 31
0.0
 12
-49.0
 22
13.999999928252739
 32
0.0
 13
-49.0
 23
13.999999928252739
 33
0.0
  0
POINT
  5
19CF
  8
DEFPOINTS
 62
     0
 10
10.000000000071729
 20
83.999999928250375
 30
0.0
  0
POINT
  5
19D0
  8
DEFPOINTS
 62
     0
 10
24.500000000000139
 20
13.99999992825272
 30
0.0
  0
POINT
  5
19D1
  8
DEFPOINTS
 62
     0
 10
-49.0
 20
13.999999928252739
 30
0.0
  0
ENDBLK
  5
1050
  8
0
  0
BLOCK
  8
0
  2
*D41
 70
     1
 10
0.0
 20
0.0
 30
0.0
  3
*D41
  1

  0
LINE
  5
1090
  8
SAPA_MATT
 10
25.00000000000011
 20
138.9999999277548
 30
0.0
 11
-62.499999999999943
 21
138.9999999277548
 31
0.0
  0
LINE
  5
1091
  8
SAPA_MATT
 10
23.000000000000139
 20
13.99999992825272
 30
0.0
 11
-62.499999999999972
 21
13.999999928252739
 31
0.0
  0
LINE
  5
1092
  8
SAPA_MATT
 10
-60.99999999999995
 20
135.99999992775469
 30
0.0
 11
-60.999999999999972
 21
16.999999928252741
 31
0.0
  0
SOLID
  5
1093
  8
SAPA_MATT
 10
-61.49999999999995
 20
135.99999992775469
 30
0.0
 11
-60.49999999999995
 21
135.99999992775469
 31
0.0
 12
-60.99999999999995
 22
138.9999999277548
 32
0.0
 13
-60.99999999999995
 23
138.9999999277548
 33
0.0
  0
SOLID
  5
1094
  8
SAPA_MATT
 10
-61.499999999999972
 20
16.999999928252741
 30
0.0
 11
-60.499999999999972
 21
16.999999928252741
 31
0.0
 12
-60.999999999999972
 22
13.999999928252739
 32
0.0
 13
-60.999999999999972
 23
13.999999928252739
 33
0.0
  0
INSERT
  5
1095
  8
0
  2
*U52
 10
0.0
 20
0.0
 30
0.0
  0
POINT
  5
1096
  8
DEFPOINTS
 62
     0
 10
26.50000000000011
 20
138.9999999277548
 30
0.0
  0
POINT
  5
1097
  8
DEFPOINTS
 62
     0
 10
24.500000000000139
 20
13.99999992825272
 30
0.0
  0
POINT
  5
1098
  8
DEFPOINTS
 62
     0
 10
-60.999999999999972
 20
13.999999928252739
 30
0.0
  0
ENDBLK
  5
105C
  8
0
  0
BLOCK
  8
0
  2
*D42
 70
     1
 10
0.0
 20
0.0
 30
0.0
  3
*D42
  1

  0
LINE
  5
1087
  8
SAPA_MATT
 10
85.0
 20
140.19999985599719
 30
0.0
 11
85.0
 21
170.49999985600741
 31
0.0
  0
LINE
  5
1088
  8
SAPA_MATT
 10
25.00000000000011
 20
138.99999985600729
 30
0.0
 11
25.000000000000121
 21
170.49999985600741
 31
0.0
  0
LINE
  5
1089
  8
SAPA_MATT
 10
82.0
 20
168.99999985600741
 30
0.0
 11
28.000000000000121
 21
168.99999985600741
 31
0.0
  0
SOLID
  5
108A
  8
SAPA_MATT
 10
82.0
 20
169.49999985600741
 30
0.0
 11
82.0
 21
168.49999985600741
 31
0.0
 12
85.0
 22
168.99999985600741
 32
0.0
 13
85.0
 23
168.99999985600741
 33
0.0
  0
SOLID
  5
108B
  8
SAPA_MATT
 10
28.000000000000121
 20
169.49999985600741
 30
0.0
 11
28.000000000000121
 21
168.49999985600741
 31
0.0
 12
25.000000000000121
 22
168.99999985600741
 32
0.0
 13
25.000000000000121
 23
168.99999985600741
 33
0.0
  0
INSERT
  5
108C
  8
0
  2
*U51
 10
0.0
 20
0.0
 30
0.0
  0
POINT
  5
108D
  8
DEFPOINTS
 62
     0
 10
85.0
 20
138.69999985599719
 30
0.0
  0
POINT
  5
108E
  8
DEFPOINTS
 62
     0
 10
25.00000000000011
 20
137.49999985600741
 30
0.0
  0
POINT
  5
108F
  8
DEFPOINTS
 62
     0
 10
25.000000000000121
 20
168.99999985600741
 30
0.0
  0
ENDBLK
  5
1068
  8
0
  0
BLOCK
  8
0
  2
*D43
 70
     1
 10
0.0
 20
0.0
 30
0.0
  3
*D43
  1

  0
LINE
  5
107E
  8
SAPA_MATT
 10
-6.4999999999777174
 20
132.67605899532811
 30
0.0
 11
-6.4999999999777129
 21
182.49999985600741
 31
0.0
  0
LINE
  5
107F
  8
SAPA_MATT
 10
85.0
 20
140.19999985599719
 30
0.0
 11
85.0
 21
182.49999985600741
 31
0.0
  0
LINE
  5
1080
  8
SAPA_MATT
 10
-3.4999999999777138
 20
180.99999985600741
 30
0.0
 11
82.0
 21
180.99999985600741
 31
0.0
  0
SOLID
  5
1081
  8
SAPA_MATT
 10
-3.4999999999777138
 20
181.49999985600741
 30
0.0
 11
-3.4999999999777138
 21
180.49999985600741
 31
0.0
 12
-6.4999999999777138
 22
180.99999985600741
 32
0.0
 13
-6.4999999999777138
 23
180.99999985600741
 33
0.0
  0
SOLID
  5
1082
  8
SAPA_MATT
 10
82.0
 20
181.49999985600741
 30
0.0
 11
82.0
 21
180.49999985600741
 31
0.0
 12
85.0
 22
180.99999985600741
 32
0.0
 13
85.0
 23
180.99999985600741
 33
0.0
  0
INSERT
  5
1083
  8
0
  2
*U50
 10
0.0
 20
0.0
 30
0.0
  0
POINT
  5
1084
  8
DEFPOINTS
 62
     0
 10
-6.4999999999777174
 20
131.17605899532811
 30
0.0
  0
POINT
  5
1085
  8
DEFPOINTS
 62
     0
 10
85.0
 20
138.69999985599719
 30
0.0
  0
POINT
  5
1086
  8
DEFPOINTS
 62
     0
 10
85.0
 20
180.99999985600741
 30
0.0
  0
ENDBLK
  5
1074
  8
0
  0
BLOCK
  8
0
  2
*X44
 70
     1
 10
0.0
 20
0.0
 30
0.0
  3
*X44
  1

  0
LINE
  5
1105
  8
0
 62
     0
 10
25.209045112868619
 20
148.99999992775491
 30
0.0
 11
25.047131215853899
 21
148.83808603074019
 31
0.0
  0
LINE
  5
1106
  8
0
 62
     0
 10
26.331577128002269
 20
148.99999992775491
 30
0.0
 11
25.28150732165011
 21
147.94993012140279
 31
0.0
  0
LINE
  5
1107
  8
0
 62
     0
 10
27.454109143135909
 20
148.99999992775491
 30
0.0
 11
25.48251879499578
 21
147.02840957961479
 31
0.0
  0
LINE
  5
1108
  8
0
 62
     0
 10
28.57664115826956
 20
148.99999992775491
 30
0.0
 11
25.647217845656272
 21
146.0705766151417
 31
0.0
  0
LINE
  5
1109
  8
0
 62
     0
 10
29.699173173403199
 20
148.99999992775491
 30
0.0
 11
25.77194228111507
 21
145.07276903546679
 31
0.0
  0
LINE
  5
110A
  8
0
 62
     0
 10
30.821705188536839
 20
148.99999992775491
 30
0.0
 11
25.85206567376423
 21
144.0303604129823
 31
0.0
  0
LINE
  5
110B
  8
0
 62
     0
 10
31.94423720367049
 20
148.99999992775491
 30
0.0
 11
25.881618639247129
 21
142.93738136333161
 31
0.0
  0
LINE
  5
110C
  8
0
 62
     0
 10
33.066769218804119
 20
148.99999992775491
 30
0.0
 11
25.85268919964982
 21
141.78591990860059
 31
0.0
  0
LINE
  5
110D
  8
0
 62
     0
 10
34.189301233937783
 20
148.99999992775491
 30
0.0
 11
25.754420377993391
 21
140.56511907181061
 31
0.0
  0
LINE
  5
110E
  8
0
 62
     0
 10
32.077919887211792
 20
145.76608656589531
 30
0.0
 11
25.571213607780329
 21
139.2593802864638
 31
0.0
  0
LINE
  5
110F
  8
0
 62
     0
 10
35.31183324907142
 20
148.99999992775491
 30
0.0
 11
34.751823390973421
 21
148.439990069657
 31
0.0
  0
LINE
  5
1110
  8
0
 62
     0
 10
31.7251047648606
 20
144.29073942841049
 30
0.0
 11
26.432862007604619
 21
138.9984966711545
 31
0.0
  0
LINE
  5
1111
  8
0
 62
     0
 10
36.434365264205063
 20
148.99999992775491
 30
0.0
 11
36.358001422471382
 21
148.9236360860213
 31
0.0
  0
LINE
  5
1112
  8
0
 62
     0
 10
31.78328306994592
 20
143.22638571836211
 30
0.0
 11
27.556897279338688
 21
138.99999992775491
 31
0.0
  0
LINE
  5
1113
  8
0
 62
     0
 10
32.030183777483408
 20
142.350754410766
 30
0.0
 11
28.679429294472332
 21
138.99999992775491
 31
0.0
  0
LINE
  5
1114
  8
0
 62
     0
 10
32.404137113186863
 20
141.60217573133579
 30
0.0
 11
29.801961309605961
 21
138.99999992775491
 31
0.0
  0
LINE
  5
1115
  8
0
 62
     0
 10
32.87879702185036
 20
140.9543036248657
 30
0.0
 11
30.92449332473959
 21
138.99999992775491
 31
0.0
  0
LINE
  5
1116
  8
0
 62
     0
 10
33.441840128772277
 20
140.394814716654
 30
0.0
 11
32.047025339873223
 21
138.99999992775491
 31
0.0
  0
LINE
  5
1117
  8
0
 62
     0
 10
34.08871906723288
 20
139.9191616399809
 30
0.0
 11
33.169557355006859
 21
138.99999992775491
 31
0.0
  0
LINE
  5
1118
  8
0
 62
     0
 10
34.820841696821937
 20
139.52875225443631
 30
0.0
 11
34.292089370140502
 21
138.99999992775491
 31
0.0
  0
LINE
  5
1119
  8
0
 62
     0
 10
35.646108925702983
 20
139.2314874681837
 30
0.0
 11
35.414621385274131
 21
138.99999992775491
 31
0.0
  0
LINE
  5
111A
  8
0
 62
     0
 10
36.58237381436836
 20
139.04522034171541
 30
0.0
 11
36.53715340040776
 21
138.9999999277548
 31
0.0
  0
LINE
  5
111B
  8
0
 62
     0
 10
37.035082384001903
 20
148.99279897802489
 30
0.0
 11
37.027881434271862
 21
148.99999992775491
 31
0.0
  0
LINE
  5
111C
  8
0
 62
     0
 10
36.040163568264262
 20
148.8651857786289
 30
0.0
 11
35.905349419138233
 21
148.99999992775491
 31
0.0
  0
LINE
  5
111D
  8
0
 62
     0
 10
35.169401614037973
 20
148.61341571772149
 30
0.0
 11
34.782817404004561
 21
148.99999992775491
 31
0.0
  0
LINE
  5
111E
  8
0
 62
     0
 10
34.397992255913607
 20
148.26229306071221
 30
0.0
 11
33.660285388870932
 21
148.99999992775491
 31
0.0
  0
LINE
  5
111F
  8
0
 62
     0
 10
33.714366726127551
 20
147.82338657536471
 30
0.0
 11
32.537753373737289
 21
148.99999992775491
 31
0.0
  0
LINE
  5
1120
  8
0
 62
     0
 10
33.114478245049092
 20
147.30074304130949
 30
0.0
 11
31.415221358603659
 21
148.99999992775491
 31
0.0
  0
LINE
  5
1121
  8
0
 62
     0
 10
32.60019837540856
 20
146.69249089581629
 30
0.0
 11
30.292689343469998
 21
148.99999992775491
 31
0.0
  0
LINE
  5
1122
  8
0
 62
     0
 10
32.180034872221412
 20
145.9901223838699
 30
0.0
 11
29.170157328336352
 21
148.99999992775491
 31
0.0
  0
LINE
  5
1123
  8
0
 62
     0
 10
31.87292736426679
 20
145.1746978766908
 30
0.0
 11
28.047625313202708
 21
148.99999992775491
 31
0.0
  0
LINE
  5
1124
  8
0
 62
     0
 10
31.72031030042346
 20
144.20478292540051
 30
0.0
 11
26.925093298069051
 21
148.99999992775491
 31
0.0
  0
LINE
  5
1125
  8
0
 62
     0
 10
36.925093298069143
 20
138.9999999277548
 30
0.0
 11
36.910718180287738
 21
139.01437504553621
 31
0.0
  0
LINE
  5
1126
  8
0
 62
     0
 10
31.837271770588082
 20
142.9652894401022
 30
0.0
 11
25.802561282935411
 21
148.99999992775491
 31
0.0
  0
LINE
  5
1127
  8
0
 62
     0
 10
35.8025612829355
 20
138.9999999277548
 30
0.0
 11
35.540393800976382
 21
139.2621674097139
 31
0.0
  0
LINE
  5
1128
  8
0
 62
     0
 10
34.680029267801842
 20
138.9999999277548
 30
0.0
 11
25.12669999092223
 21
148.55332920463451
 31
0.0
  0
LINE
  5
1129
  8
0
 62
     0
 10
33.55749725266822
 20
138.9999999277548
 30
0.0
 11
25.471114947088001
 21
147.08638223333509
 31
0.0
  0
LINE
  5
112A
  8
0
 62
     0
 10
32.43496523753457
 20
138.9999999277548
 30
0.0
 11
25.6936082178512
 21
145.74135694743819
 31
0.0
  0
LINE
  5
112B
  8
0
 62
     0
 10
31.312433222400902
 20
138.9999999277548
 30
0.0
 11
25.823058233671858
 21
144.48937491648391
 31
0.0
  0
LINE
  5
112C
  8
0
 62
     0
 10
30.18990120726723
 20
138.99999992775491
 30
0.0
 11
25.877743114745989
 21
143.31215802027609
 31
0.0
  0
LINE
  5
112D
  8
0
 62
     0
 10
29.067369192133569
 20
138.99999992775491
 30
0.0
 11
25.87010404894302
 21
142.19726507094541
 31
0.0
  0
LINE
  5
112E
  8
0
 62
     0
 10
27.944837176999929
 20
138.99999992775491
 30
0.0
 11
25.809059446097059
 21
141.13577765865779
 31
0.0
  0
LINE
  5
112F
  8
0
 62
     0
 10
26.822305161866272
 20
138.99999992775491
 30
0.0
 11
25.701254053152041
 21
140.12105103646911
 31
0.0
  0
LINE
  5
1130
  8
0
 62
     0
 10
25.848597711055511
 20
138.85117536343199
 30
0.0
 11
25.551787563253399
 21
139.14798551123411
 31
0.0
  0
ENDBLK
  5
1132
  8
0
  0
BLOCK
  8
0
  2
*X45
 70
     1
 10
0.0
 20
0.0
 30
0.0
  3
*X45
  1

  0
LINE
  5
1134
  8
0
 62
     0
 10
38.256266347423832
 20
148.43122837831021
 30
0.0
 11
37.568858683169928
 21
148.8281033783102
 31
0.0
  0
LINE
  5
1135
  8
0
 62
     0
 10
40.318489340185508
 20
147.24060337831031
 30
0.0
 11
39.631081675931618
 21
147.63747837831019
 31
0.0
  0
LINE
  5
1136
  8
0
 62
     0
 10
42.380712332947212
 20
146.0499783783103
 30
0.0
 11
41.693304668693308
 21
146.44685337831029
 31
0.0
  0
LINE
  5
1137
  8
0
 62
     0
 10
35.50663585466215
 20
148.4312286628064
 30
0.0
 11
35.182607234015919
 21
148.6183066741616
 31
0.0
  0
LINE
  5
1138
  8
0
 62
     0
 10
37.56885884742384
 20
147.24060366280639
 30
0.0
 11
36.881451183169943
 21
147.63747866280639
 31
0.0
  0
LINE
  5
1139
  8
0
 62
     0
 10
39.63108184018553
 20
146.04997866280641
 30
0.0
 11
38.94367417593164
 21
146.4468536628064
 31
0.0
  0
LINE
  5
113A
  8
0
 62
     0
 10
41.69330483294722
 20
144.8593536628064
 30
0.0
 11
41.005897168693323
 21
145.25622866280639
 31
0.0
  0
LINE
  5
113B
  8
0
 62
     0
 10
34.819228354662172
 20
147.24060394730239
 30
0.0
 11
34.131820690408269
 21
147.63747894730241
 31
0.0
  0
LINE
  5
113C
  8
0
 62
     0
 10
36.881451347423862
 20
146.04997894730241
 30
0.0
 11
36.194043683169959
 21
146.4468539473024
 31
0.0
  0
LINE
  5
113D
  8
0
 62
     0
 10
38.943674340185552
 20
144.8593539473024
 30
0.0
 11
38.256266675931649
 21
145.25622894730239
 31
0.0
  0
LINE
  5
113E
  8
0
 62
     0
 10
41.005897332947228
 20
143.66872894730241
 30
0.0
 11
40.318489668693339
 21
144.06560394730241
 31
0.0
  0
LINE
  5
113F
  8
0
 62
     0
 10
42.752234571147952
 20
142.66048067273141
 30
0.0
 11
42.380712661455021
 21
142.87497894730251
 31
0.0
  0
LINE
  5
1140
  8
0
 62
     0
 10
34.131820854662138
 20
146.04997923179849
 30
0.0
 11
33.444413190408241
 21
146.44685423179851
 31
0.0
  0
LINE
  5
1141
  8
0
 62
     0
 10
36.194043847423828
 20
144.85935423179851
 30
0.0
 11
35.506636183169931
 21
145.2562292317985
 31
0.0
  0
LINE
  5
1142
  8
0
 62
     0
 10
38.256266840185518
 20
143.66872923179861
 30
0.0
 11
37.568859175931621
 21
144.06560423179849
 31
0.0
  0
LINE
  5
1143
  8
0
 62
     0
 10
40.318489832947208
 20
142.4781042317986
 30
0.0
 11
39.631082168693311
 21
142.87497923179859
 31
0.0
  0
LINE
  5
1144
  8
0
 62
     0
 10
42.151471112402326
 20
141.41983199668559
 30
0.0
 11
41.693305161455001
 21
141.68435423179861
 31
0.0
  0
LINE
  5
1145
  8
0
 62
     0
 10
33.444413354662139
 20
144.85935451629459
 30
0.0
 11
32.757005690408242
 21
145.25622951629461
 31
0.0
  0
LINE
  5
1146
  8
0
 62
     0
 10
35.506636347423829
 20
143.6687295162946
 30
0.0
 11
34.819228683169932
 21
144.0656045162946
 31
0.0
  0
LINE
  5
1147
  8
0
 62
     0
 10
37.568859340185519
 20
142.47810451629471
 30
0.0
 11
36.881451675931622
 21
142.87497951629459
 31
0.0
  0
LINE
  5
1148
  8
0
 62
     0
 10
39.631082332947209
 20
141.2874795162947
 30
0.0
 11
38.943674668693312
 21
141.68435451629469
 31
0.0
  0
LINE
  5
1149
  8
0
 62
     0
 10
41.209525994195758
 20
140.3761646435722
 30
0.0
 11
41.005897661455002
 21
140.49372951629471
 31
0.0
  0
LINE
  5
114A
  8
0
 62
     0
 10
32.757005854662161
 20
143.66872980079069
 30
0.0
 11
32.069598190408257
 21
144.06560480079071
 31
0.0
  0
LINE
  5
114B
  8
0
 62
     0
 10
34.819228847423851
 20
142.4781048007907
 30
0.0
 11
34.131821183169947
 21
142.8749798007907
 31
0.0
  0
LINE
  5
114C
  8
0
 62
     0
 10
36.881451840185541
 20
141.28747980079069
 30
0.0
 11
36.194044175931637
 21
141.6843548007908
 31
0.0
  0
LINE
  5
114D
  8
0
 62
     0
 10
38.943674832947217
 20
140.09685480079079
 30
0.0
 11
38.256267168693327
 21
140.49372980079079
 31
0.0
  0
LINE
  5
114E
  8
0
 62
     0
 10
32.069598354662169
 20
142.47810508528681
 30
0.0
 11
31.96011835781875
 21
142.54131339093519
 31
0.0
  0
LINE
  5
114F
  8
0
 62
     0
 10
34.131821347423859
 20
141.2874800852868
 30
0.0
 11
33.444413683169962
 21
141.6843550852868
 31
0.0
  0
LINE
  5
1150
  8
0
 62
     0
 10
36.194044340185549
 20
140.0968550852869
 30
0.0
 11
35.506636675931652
 21
140.49373008528681
 31
0.0
  0
LINE
  5
1151
  8
0
 62
     0
 10
38.028084744309211
 20
139.03797136426141
 30
0.0
 11
37.568859668693342
 21
139.30310508528689
 31
0.0
  0
LINE
  5
1152
  8
0
 62
     0
 10
33.444443413125491
 20
146.44684342094689
 30
0.0
 11
32.757035748871587
 21
146.0499684209469
 31
0.0
  0
LINE
  5
1153
  8
0
 62
     0
 10
35.506666405887181
 20
147.63746842094679
 30
0.0
 11
34.819258741633277
 21
147.24059342094691
 31
0.0
  0
LINE
  5
1154
  8
0
 62
     0
 10
37.568889398648857
 20
148.8280934209468
 30
0.0
 11
36.881481734394967
 21
148.43121842094681
 31
0.0
  0
LINE
  5
1155
  8
0
 62
     0
 10
32.069627920363793
 20
144.06559370544301
 30
0.0
 11
31.717722131996489
 21
143.86242080379981
 31
0.0
  0
LINE
  5
1156
  8
0
 62
     0
 10
34.131850913125483
 20
145.25621870544299
 30
0.0
 11
33.444443248871593
 21
144.859343705443
 31
0.0
  0
LINE
  5
1157
  8
0
 62
     0
 10
36.19407390588718
 20
146.446843705443
 30
0.0
 11
35.506666241633283
 21
146.04996870544301
 31
0.0
  0
LINE
  5
1158
  8
0
 62
     0
 10
38.256296898648863
 20
147.63746870544301
 30
0.0
 11
37.568889234394973
 21
147.24059370544299
 31
0.0
  0
LINE
  5
1159
  8
0
 62
     0
 10
39.765824059909001
 20
148.5089946183455
 30
0.0
 11
39.631112227156663
 21
148.43121870544289
 31
0.0
  0
LINE
  5
115A
  8
0
 62
     0
 10
32.757035420363778
 20
142.87496898993911
 30
0.0
 11
32.069627756109888
 21
142.47809398993911
 31
0.0
  0
LINE
  5
115B
  8
0
 62
     0
 10
34.819258413125482
 20
144.06559398993909
 30
0.0
 11
34.131850748871578
 21
143.66871898993909
 31
0.0
  0
LINE
  5
115C
  8
0
 62
     0
 10
36.881481405887172
 20
145.2562189899391
 30
0.0
 11
36.194073741633268
 21
144.85934398993911
 31
0.0
  0
LINE
  5
115D
  8
0
 62
     0
 10
38.943704398648862
 20
146.446843989939
 30
0.0
 11
38.256296734394958
 21
146.04996898993909
 31
0.0
  0
LINE
  5
115E
  8
0
 62
     0
 10
41.005927391410538
 20
147.63746898993901
 30
0.0
 11
40.318519727156641
 21
147.24059398993899
 31
0.0
  0
LINE
  5
115F
  8
0
 62
     0
 10
33.444442920363798
 20
141.6843442744352
 30
0.0
 11
32.757035256109901
 21
141.28746927443521
 31
0.0
  0
LINE
  5
1160
  8
0
 62
     0
 10
35.506665913125488
 20
142.87496927443519
 30
0.0
 11
34.819258248871591
 21
142.47809427443519
 31
0.0
  0
LINE
  5
1161
  8
0
 62
     0
 10
37.568888905887178
 20
144.06559427443511
 30
0.0
 11
36.881481241633281
 21
143.6687192744352
 31
0.0
  0
LINE
  5
1162
  8
0
 62
     0
 10
39.631111898648868
 20
145.2562192744351
 30
0.0
 11
38.943704234394971
 21
144.8593442744351
 31
0.0
  0
LINE
  5
1163
  8
0
 62
     0
 10
41.693334891410551
 20
146.44684427443511
 30
0.0
 11
41.005927227156661
 21
146.04996927443511
 31
0.0
  0
LINE
  5
1164
  8
0
 62
     0
 10
34.131850420363797
 20
140.4937195589313
 30
0.0
 11
33.657475483179063
 21
140.21983906125089
 31
0.0
  0
LINE
  5
1165
  8
0
 62
     0
 10
36.194073413125501
 20
141.68434455893129
 30
0.0
 11
35.506665748871598
 21
141.28746955893129
 31
0.0
  0
LINE
  5
1166
  8
0
 62
     0
 10
38.256296405887191
 20
142.87496955893121
 30
0.0
 11
37.568888741633288
 21
142.47809455893119
 31
0.0
  0
LINE
  5
1167
  8
0
 62
     0
 10
40.318519398648867
 20
144.0655945589312
 30
0.0
 11
39.631111734394977
 21
143.6687195589312
 31
0.0
  0
LINE
  5
1168
  8
0
 62
     0
 10
42.380742391410557
 20
145.25621955893121
 30
0.0
 11
41.69333472715666
 21
144.85934455893121
 31
0.0
  0
LINE
  5
1169
  8
0
 62
     0
 10
36.881480913125472
 20
140.4937198434273
 30
0.0
 11
36.194073248871582
 21
140.09684484342739
 31
0.0
  0
LINE
  5
116A
  8
0
 62
     0
 10
38.943703905887162
 20
141.68434484342731
 30
0.0
 11
38.256296241633258
 21
141.28746984342729
 31
0.0
  0
LINE
  5
116B
  8
0
 62
     0
 10
41.005926898648852
 20
142.87496984342729
 30
0.0
 11
40.318519234394962
 21
142.4780948434273
 31
0.0
  0
LINE
  5
116C
  8
0
 62
     0
 10
42.957708276428683
 20
144.0018313472878
 30
0.0
 11
42.380742227156638
 21
143.66871984342731
 31
0.0
  0
LINE
  5
116D
  8
0
 62
     0
 10
37.568888413125499
 20
139.30309512792351
 30
0.0
 11
37.054805462279212
 21
139.00628919786649
 31
0.0
  0
LINE
  5
116E
  8
0
 62
     0
 10
39.631111405887189
 20
140.49372012792341
 30
0.0
 11
38.943703741633293
 21
140.0968451279235
 31
0.0
  0
LINE
  5
116F
  8
0
 62
     0
 10
41.693334398648879
 20
141.68434512792339
 30
0.0
 11
41.005926734394983
 21
141.2874701279234
 31
0.0
  0
LINE
  5
1170
  8
0
 62
     0
 10
42.380734999985137
 20
145.25625000001361
 30
0.0
 11
42.380734999985137
 21
146.0500000000136
 31
0.0
  0
LINE
  5
1171
  8
0
 62
     0
 10
42.380734999985137
 20
142.87500000001361
 30
0.0
 11
42.380734999985137
 21
143.6687500000136
 31
0.0
  0
LINE
  5
1172
  8
0
 62
     0
 10
41.005919999985139
 20
147.6375000000136
 30
0.0
 11
41.005919999985139
 21
147.78777218175779
 31
0.0
  0
LINE
  5
1173
  8
0
 62
     0
 10
41.005919999985139
 20
145.25625000001361
 30
0.0
 11
41.005919999985139
 21
146.0500000000136
 31
0.0
  0
LINE
  5
1174
  8
0
 62
     0
 10
41.005919999985139
 20
142.87500000001361
 30
0.0
 11
41.005919999985139
 21
143.6687500000136
 31
0.0
  0
LINE
  5
1175
  8
0
 62
     0
 10
41.005919999985139
 20
140.49375000001359
 30
0.0
 11
41.005919999985139
 21
141.28750000001361
 31
0.0
  0
LINE
  5
1176
  8
0
 62
     0
 10
39.631104999985148
 20
147.6375000000136
 30
0.0
 11
39.631104999985148
 21
148.43125000001359
 31
0.0
  0
LINE
  5
1177
  8
0
 62
     0
 10
39.631104999985148
 20
145.25625000001361
 30
0.0
 11
39.631104999985148
 21
146.0500000000136
 31
0.0
  0
LINE
  5
1178
  8
0
 62
     0
 10
39.631104999985148
 20
142.87500000001361
 30
0.0
 11
39.631104999985148
 21
143.6687500000136
 31
0.0
  0
LINE
  5
1179
  8
0
 62
     0
 10
39.631104999985148
 20
140.49375000001359
 30
0.0
 11
39.631104999985148
 21
141.28750000001361
 31
0.0
  0
LINE
  5
117A
  8
0
 62
     0
 10
38.25628999998515
 20
147.6375000000136
 30
0.0
 11
38.25628999998515
 21
148.43125000001359
 31
0.0
  0
LINE
  5
117B
  8
0
 62
     0
 10
38.25628999998515
 20
145.25625000001361
 30
0.0
 11
38.25628999998515
 21
146.0500000000136
 31
0.0
  0
LINE
  5
117C
  8
0
 62
     0
 10
38.25628999998515
 20
142.87500000001361
 30
0.0
 11
38.25628999998515
 21
143.6687500000136
 31
0.0
  0
LINE
  5
117D
  8
0
 62
     0
 10
38.25628999998515
 20
140.49375000001359
 30
0.0
 11
38.25628999998515
 21
141.28750000001361
 31
0.0
  0
LINE
  5
117E
  8
0
 62
     0
 10
36.881474999985137
 20
147.6375000000136
 30
0.0
 11
36.881474999985137
 21
148.43125000001359
 31
0.0
  0
LINE
  5
117F
  8
0
 62
     0
 10
36.881474999985137
 20
145.25625000001361
 30
0.0
 11
36.881474999985137
 21
146.0500000000136
 31
0.0
  0
LINE
  5
1180
  8
0
 62
     0
 10
36.881474999985137
 20
142.87500000001361
 30
0.0
 11
36.881474999985137
 21
143.6687500000136
 31
0.0
  0
LINE
  5
1181
  8
0
 62
     0
 10
36.881474999985137
 20
140.49375000001359
 30
0.0
 11
36.881474999985137
 21
141.28750000001361
 31
0.0
  0
LINE
  5
1182
  8
0
 62
     0
 10
35.506659999985153
 20
147.6375000000136
 30
0.0
 11
35.506659999985153
 21
148.43125000001359
 31
0.0
  0
LINE
  5
1183
  8
0
 62
     0
 10
35.506659999985153
 20
145.25625000001361
 30
0.0
 11
35.506659999985153
 21
146.0500000000136
 31
0.0
  0
LINE
  5
1184
  8
0
 62
     0
 10
35.506659999985153
 20
142.87500000001361
 30
0.0
 11
35.506659999985153
 21
143.6687500000136
 31
0.0
  0
LINE
  5
1185
  8
0
 62
     0
 10
35.506659999985153
 20
140.49375000001359
 30
0.0
 11
35.506659999985153
 21
141.28750000001361
 31
0.0
  0
LINE
  5
1186
  8
0
 62
     0
 10
34.131844999985148
 20
147.6375000000136
 30
0.0
 11
34.131844999985148
 21
148.10772746508269
 31
0.0
  0
LINE
  5
1187
  8
0
 62
     0
 10
34.131844999985148
 20
145.25625000001361
 30
0.0
 11
34.131844999985148
 21
146.0500000000136
 31
0.0
  0
LINE
  5
1188
  8
0
 62
     0
 10
34.131844999985148
 20
142.87500000001361
 30
0.0
 11
34.131844999985148
 21
143.6687500000136
 31
0.0
  0
LINE
  5
1189
  8
0
 62
     0
 10
34.131844999985148
 20
140.49375000001359
 30
0.0
 11
34.131844999985148
 21
141.28750000001361
 31
0.0
  0
LINE
  5
118A
  8
0
 62
     0
 10
32.757029999985143
 20
145.25625000001361
 30
0.0
 11
32.757029999985143
 21
146.0500000000136
 31
0.0
  0
LINE
  5
118B
  8
0
 62
     0
 10
32.757029999985143
 20
142.87500000001361
 30
0.0
 11
32.757029999985143
 21
143.6687500000136
 31
0.0
  0
LINE
  5
118C
  8
0
 62
     0
 10
32.757029999985143
 20
141.1007687474137
 30
0.0
 11
32.757029999985143
 21
141.28750000001361
 31
0.0
  0
ENDBLK
  5
118E
  8
0
  0
BLOCK
  8
0
  2
*X46
 70
     1
 10
0.0
 20
0.0
 30
0.0
  3
*X46
  1

  0
LINE
  5
17D7
  8
0
 62
     0
 10
0.3794392578475545
 20
90.733094549992813
 30
0.0
 11
0.5338372386526551
 21
90.887492530797957
 31
0.0
  0
LINE
  5
17D8
  8
0
 62
     0
 10
-0.4761873789520479
 20
90.999999928326886
 30
0.0
 11
0.7741421610537458
 21
92.250329468332666
 31
0.0
  0
LINE
  5
17D9
  8
0
 62
     0
 10
-1.9755912357952099
 20
89.500596071483713
 30
0.0
 11
-1.5005961431603749
 21
89.975591164118555
 31
0.0
  0
LINE
  5
17DA
  8
0
 62
     0
 10
-3.0904670124210538
 20
89.508252309991519
 30
0.0
 11
0.6643937289114135
 21
93.263113051323984
 31
0.0
  0
LINE
  5
17DB
  8
0
 62
     0
 10
0.5740134872093954
 20
94.29526482475562
 30
0.0
 11
1.278748590654506
 21
94.999999928200722
 31
0.0
  0
LINE
  5
17DC
  8
0
 62
     0
 10
-3.5000000000114322
 20
90.221251337534781
 30
0.0
 11
0.1475018509240265
 21
93.868753188470237
 31
0.0
  0
LINE
  5
17DD
  8
0
 62
     0
 10
-3.8437834248341249
 20
90.999999927845735
 30
0.0
 11
0.1562165755208653
 21
94.999999928200737
 31
0.0
  0
LINE
  5
17DE
  8
0
 62
     0
 10
-4.7601044625225049
 20
91.206210905291002
 30
0.0
 11
-0.9663154396127779
 21
94.999999928200722
 31
0.0
  0
LINE
  5
17DF
  8
0
 62
     0
 10
-4.6113687014208571
 20
92.477478681526293
 30
0.0
 11
-2.0888474547464142
 21
94.999999928200722
 31
0.0
  0
LINE
  5
17E0
  8
0
 62
     0
 10
-4.6154837005853331
 20
93.595895697495465
 30
0.0
 11
-3.2113794698800571
 21
94.999999928200737
 31
0.0
  0
LINE
  5
17E1
  8
0
 62
     0
 10
-4.7277002536797781
 20
94.606211159534666
 30
0.0
 11
-4.3339114850136999
 21
94.999999928200737
 31
0.0
  0
LINE
  5
17E2
  8
0
 62
     0
 10
-3.5000000000064189
 20
90.588847382946497
 30
0.0
 11
-2.4111525451893661
 21
89.499999928129455
 31
0.0
  0
LINE
  5
17E3
  8
0
 62
     0
 10
-4.6745453844354543
 20
91.763392767375535
 30
0.0
 11
-3.9111525449052129
 21
90.999999927845295
 31
0.0
  0
LINE
  5
17E4
  8
0
 62
     0
 10
-4.5994812883335809
 20
92.810860686407295
 30
0.0
 11
-1.5569237213213749
 21
89.7683031193951
 31
0.0
  0
LINE
  5
17E5
  8
0
 62
     0
 10
-4.6458672093031481
 20
93.979778622510509
 30
0.0
 11
-1.497515438593165
 21
90.831426851800529
 31
0.0
  0
LINE
  5
17E6
  8
0
 62
     0
 10
-4.5435564998597249
 20
94.999999928200737
 30
0.0
 11
-0.5435564999858649
 21
90.999999928326872
 31
0.0
  0
LINE
  5
17E7
  8
0
 62
     0
 10
-3.421024484726078
 20
94.999999928200737
 30
0.0
 11
0.5574677310064296
 21
91.021507712468221
 31
0.0
  0
LINE
  5
17E8
  8
0
 62
     0
 10
-2.2984924695924351
 20
94.999999928200737
 30
0.0
 11
0.7257310491386271
 21
91.975776409469646
 31
0.0
  0
LINE
  5
17E9
  8
0
 62
     0
 10
0.5858543335284985
 20
93.238185140213432
 30
0.0
 11
0.8939943672708317
 21
92.930045106471098
 31
0.0
  0
LINE
  5
17EA
  8
0
 62
     0
 10
-1.1759604544587809
 20
94.999999928200694
 30
0.0
 11
0.1551231369981565
 21
93.668916336743763
 31
0.0
  0
LINE
  5
17EB
  8
0
 62
     0
 10
-0.0534284393251383
 20
94.999999928200722
 30
0.0
 11
0.6306812758234557
 21
94.315890213052114
 31
0.0
  0
LINE
  5
17EC
  8
0
 62
     0
 10
1.069103575808505
 20
94.999999928200722
 30
0.0
 11
1.4536699209879871
 21
94.615433583021243
 31
0.0
  0
ENDBLK
  5
17EE
  8
0
  0
BLOCK
  8
0
  2
*X47
 70
     1
 10
0.0
 20
0.0
 30
0.0
  3
*X47
  1

  0
LINE
  5
17F0
  8
0
 62
     0
 10
1.2154482123135819
 20
122.99999992820089
 30
0.0
 11
1.5609630517349871
 21
123.3455147676223
 31
0.0
  0
LINE
  5
17F1
  8
0
 62
     0
 10
0.092916197179938
 20
122.99999992820089
 30
0.0
 11
0.7379744065791396
 21
123.6450581376001
 31
0.0
  0
LINE
  5
17F2
  8
0
 62
     0
 10
0.7011387578149724
 20
124.73075450396949
 30
0.0
 11
0.9150258613293996
 21
124.944641607484
 31
0.0
  0
LINE
  5
17F3
  8
0
 62
     0
 10
-1.0296158179537049
 20
122.99999992820089
 30
0.0
 11
0.1424903250752494
 21
124.17210607122981
 31
0.0
  0
LINE
  5
17F4
  8
0
 62
     0
 10
-2.15214783308735
 20
122.99999992820089
 30
0.0
 11
0.7476675587636154
 21
125.8998153200518
 31
0.0
  0
LINE
  5
17F5
  8
0
 62
     0
 10
-3.2746798482209938
 20
122.99999992820089
 30
0.0
 11
0.57940424064206
 21
126.8540840170639
 31
0.0
  0
LINE
  5
17F6
  8
0
 62
     0
 10
-4.3972118633546371
 20
122.99999992820089
 30
0.0
 11
-0.3972118638384679
 21
126.999999927717
 31
0.0
  0
LINE
  5
17F7
  8
0
 62
     0
 10
-4.6633874998644833
 20
123.85635630682469
 30
0.0
 11
-1.45094831884034
 21
127.0687954878488
 31
0.0
  0
LINE
  5
17F8
  8
0
 62
     0
 10
-4.5977891958539772
 20
125.0444866259688
 30
0.0
 11
-1.5161652171018081
 21
128.12611060472099
 31
0.0
  0
LINE
  5
17F9
  8
0
 62
     0
 10
-3.5000000000044689
 20
127.264807836952
 30
0.0
 11
-2.2648079091122439
 21
128.49999992784419
 31
0.0
  0
LINE
  5
17FA
  8
0
 62
     0
 10
-4.6590892405487701
 20
126.1057185964077
 30
0.0
 11
-3.7648079087587951
 21
126.9999999281976
 31
0.0
  0
LINE
  5
17FB
  8
0
 62
     0
 10
-4.7489085777414841
 20
123.2686523844236
 30
0.0
 11
-4.4802561215187744
 21
122.99999992820089
 31
0.0
  0
LINE
  5
17FC
  8
0
 62
     0
 10
-4.6246326438276117
 20
124.2669084656433
 30
0.0
 11
-3.3577241063851311
 21
122.99999992820089
 31
0.0
  0
LINE
  5
17FD
  8
0
 62
     0
 10
-4.6045215541142159
 20
125.3693293910636
 30
0.0
 11
-2.2351920912514882
 21
122.99999992820079
 31
0.0
  0
LINE
  5
17FE
  8
0
 62
     0
 10
-4.7294259547719557
 20
126.616765806855
 30
0.0
 11
-1.112660076117844
 21
122.99999992820089
 31
0.0
  0
LINE
  5
17FF
  8
0
 62
     0
 10
-3.990128060982467
 20
126.9999999281991
 30
0.0
 11
0.0098719390157997
 21
122.99999992820089
 31
0.0
  0
LINE
  5
1800
  8
0
 62
     0
 10
-3.5000000000094822
 20
127.6324038823598
 30
0.0
 11
1.1324039541494431
 21
122.99999992820089
 31
0.0
  0
LINE
  5
1801
  8
0
 62
     0
 10
-3.2023075646229291
 20
128.4572434621069
 30
0.0
 11
0.4879591433225113
 21
124.7669767541614
 31
0.0
  0
LINE
  5
1802
  8
0
 62
     0
 10
-0.6225320150994254
 20
126.999999927717
 30
0.0
 11
0.805470743544685
 21
125.5719971690729
 31
0.0
  0
LINE
  5
1803
  8
0
 62
     0
 10
-2.122532015158265
 20
128.49999992777589
 30
0.0
 11
-1.500000000003576
 21
127.8774679126212
 31
0.0
  0
LINE
  5
1804
  8
0
 62
     0
 10
0.2550311307656523
 20
127.2449687969856
 30
0.0
 11
0.5651658211653193
 21
126.9348341065859
 31
0.0
  0
ENDBLK
  5
1806
  8
0
  0
BLOCK
  8
0
  2
*X48
 70
     1
 10
0.0
 20
0.0
 30
0.0
  3
*X48
  1

  0
LINE
  5
183D
  8
0
 62
     0
 10
0.3794392578475545
 20
90.733094549992813
 30
0.0
 11
0.5338372386526551
 21
90.887492530797957
 31
0.0
  0
LINE
  5
183E
  8
0
 62
     0
 10
-0.4761873789520479
 20
90.999999928326886
 30
0.0
 11
0.7741421610537458
 21
92.250329468332666
 31
0.0
  0
LINE
  5
183F
  8
0
 62
     0
 10
-1.9755912357952099
 20
89.500596071483713
 30
0.0
 11
-1.5005961431603749
 21
89.975591164118555
 31
0.0
  0
LINE
  5
1840
  8
0
 62
     0
 10
-3.0904670124210538
 20
89.508252309991519
 30
0.0
 11
0.6643937289114135
 21
93.263113051323984
 31
0.0
  0
LINE
  5
1841
  8
0
 62
     0
 10
0.5740134872093954
 20
94.29526482475562
 30
0.0
 11
1.278748590654506
 21
94.999999928200722
 31
0.0
  0
LINE
  5
1842
  8
0
 62
     0
 10
-3.5000000000114322
 20
90.221251337534781
 30
0.0
 11
0.1475018509240265
 21
93.868753188470237
 31
0.0
  0
LINE
  5
1843
  8
0
 62
     0
 10
-3.8437834248341249
 20
90.999999927845735
 30
0.0
 11
0.1562165755208653
 21
94.999999928200737
 31
0.0
  0
LINE
  5
1844
  8
0
 62
     0
 10
-4.7601044625225049
 20
91.206210905291002
 30
0.0
 11
-0.9663154396127779
 21
94.999999928200722
 31
0.0
  0
LINE
  5
1845
  8
0
 62
     0
 10
-4.6113687014208571
 20
92.477478681526293
 30
0.0
 11
-2.0888474547464142
 21
94.999999928200722
 31
0.0
  0
LINE
  5
1846
  8
0
 62
     0
 10
-4.6154837005853331
 20
93.595895697495465
 30
0.0
 11
-3.2113794698800571
 21
94.999999928200737
 31
0.0
  0
LINE
  5
1847
  8
0
 62
     0
 10
-4.7277002536797781
 20
94.606211159534666
 30
0.0
 11
-4.3339114850136999
 21
94.999999928200737
 31
0.0
  0
LINE
  5
1848
  8
0
 62
     0
 10
-3.5000000000064189
 20
90.588847382946497
 30
0.0
 11
-2.4111525451893661
 21
89.499999928129455
 31
0.0
  0
LINE
  5
1849
  8
0
 62
     0
 10
-4.6745453844354543
 20
91.763392767375535
 30
0.0
 11
-3.9111525449052129
 21
90.999999927845295
 31
0.0
  0
LINE
  5
184A
  8
0
 62
     0
 10
-4.5994812883335809
 20
92.810860686407295
 30
0.0
 11
-1.5569237213213749
 21
89.7683031193951
 31
0.0
  0
LINE
  5
184B
  8
0
 62
     0
 10
-4.6458672093031481
 20
93.979778622510509
 30
0.0
 11
-1.497515438593165
 21
90.831426851800529
 31
0.0
  0
LINE
  5
184C
  8
0
 62
     0
 10
-4.5435564998597249
 20
94.999999928200737
 30
0.0
 11
-0.5435564999858649
 21
90.999999928326872
 31
0.0
  0
LINE
  5
184D
  8
0
 62
     0
 10
-3.421024484726078
 20
94.999999928200737
 30
0.0
 11
0.5574677310064296
 21
91.021507712468221
 31
0.0
  0
LINE
  5
184E
  8
0
 62
     0
 10
-2.2984924695924351
 20
94.999999928200737
 30
0.0
 11
0.7257310491386271
 21
91.975776409469646
 31
0.0
  0
LINE
  5
184F
  8
0
 62
     0
 10
0.5858543335284985
 20
93.238185140213432
 30
0.0
 11
0.8939943672708317
 21
92.930045106471098
 31
0.0
  0
LINE
  5
1850
  8
0
 62
     0
 10
-1.1759604544587809
 20
94.999999928200694
 30
0.0
 11
0.1551231369981565
 21
93.668916336743763
 31
0.0
  0
LINE
  5
1851
  8
0
 62
     0
 10
-0.0534284393251383
 20
94.999999928200722
 30
0.0
 11
0.6306812758234557
 21
94.315890213052114
 31
0.0
  0
LINE
  5
1852
  8
0
 62
     0
 10
1.069103575808505
 20
94.999999928200722
 30
0.0
 11
1.4536699209879871
 21
94.615433583021243
 31
0.0
  0
ENDBLK
  5
1854
  8
0
  0
BLOCK
  8
0
  2
*X49
 70
     1
 10
0.0
 20
0.0
 30
0.0
  3
*X49
  1

  0
LINE
  5
1856
  8
0
 62
     0
 10
1.2154482123135819
 20
122.99999992820089
 30
0.0
 11
1.5609630517349871
 21
123.3455147676223
 31
0.0
  0
LINE
  5
1857
  8
0
 62
     0
 10
0.092916197179938
 20
122.99999992820089
 30
0.0
 11
0.7379744065791397
 21
123.6450581376001
 31
0.0
  0
LINE
  5
1858
  8
0
 62
     0
 10
0.7011387578149724
 20
124.73075450396949
 30
0.0
 11
0.9150258613293997
 21
124.944641607484
 31
0.0
  0
LINE
  5
1859
  8
0
 62
     0
 10
-1.0296158179537049
 20
122.99999992820089
 30
0.0
 11
0.1424903250752495
 21
124.17210607122981
 31
0.0
  0
LINE
  5
185A
  8
0
 62
     0
 10
-2.15214783308735
 20
122.99999992820089
 30
0.0
 11
0.7476675587636154
 21
125.8998153200518
 31
0.0
  0
LINE
  5
185B
  8
0
 62
     0
 10
-3.2746798482209938
 20
122.99999992820089
 30
0.0
 11
0.5794042406420602
 21
126.8540840170639
 31
0.0
  0
LINE
  5
185C
  8
0
 62
     0
 10
-4.3972118633546371
 20
122.99999992820089
 30
0.0
 11
-0.3972118638384678
 21
126.999999927717
 31
0.0
  0
LINE
  5
185D
  8
0
 62
     0
 10
-4.6633874998644833
 20
123.85635630682469
 30
0.0
 11
-1.45094831884034
 21
127.0687954878488
 31
0.0
  0
LINE
  5
185E
  8
0
 62
     0
 10
-4.5977891958539772
 20
125.0444866259688
 30
0.0
 11
-1.5161652171018081
 21
128.12611060472099
 31
0.0
  0
LINE
  5
185F
  8
0
 62
     0
 10
-3.5000000000044689
 20
127.264807836952
 30
0.0
 11
-2.2648079091122439
 21
128.49999992784419
 31
0.0
  0
LINE
  5
1860
  8
0
 62
     0
 10
-4.6590892405487701
 20
126.1057185964077
 30
0.0
 11
-3.7648079087587951
 21
126.9999999281976
 31
0.0
  0
LINE
  5
1861
  8
0
 62
     0
 10
-4.7489085777414841
 20
123.2686523844236
 30
0.0
 11
-4.4802561215187744
 21
122.99999992820089
 31
0.0
  0
LINE
  5
1862
  8
0
 62
     0
 10
-4.6246326438276117
 20
124.2669084656433
 30
0.0
 11
-3.3577241063851311
 21
122.99999992820089
 31
0.0
  0
LINE
  5
1863
  8
0
 62
     0
 10
-4.6045215541142159
 20
125.3693293910636
 30
0.0
 11
-2.2351920912514882
 21
122.99999992820079
 31
0.0
  0
LINE
  5
1864
  8
0
 62
     0
 10
-4.7294259547719557
 20
126.616765806855
 30
0.0
 11
-1.112660076117844
 21
122.99999992820089
 31
0.0
  0
LINE
  5
1865
  8
0
 62
     0
 10
-3.990128060982467
 20
126.9999999281991
 30
0.0
 11
0.0098719390157997
 21
122.99999992820089
 31
0.0
  0
LINE
  5
1866
  8
0
 62
     0
 10
-3.5000000000094822
 20
127.6324038823598
 30
0.0
 11
1.1324039541494431
 21
122.99999992820089
 31
0.0
  0
LINE
  5
1867
  8
0
 62
     0
 10
-3.2023075646229291
 20
128.4572434621069
 30
0.0
 11
0.4879591433225113
 21
124.7669767541614
 31
0.0
  0
LINE
  5
1868
  8
0
 62
     0
 10
-0.6225320150994254
 20
126.999999927717
 30
0.0
 11
0.805470743544685
 21
125.5719971690729
 31
0.0
  0
LINE
  5
1869
  8
0
 62
     0
 10
-2.122532015158265
 20
128.49999992777589
 30
0.0
 11
-1.500000000003576
 21
127.8774679126212
 31
0.0
  0
LINE
  5
186A
  8
0
 62
     0
 10
0.2550311307656523
 20
127.2449687969856
 30
0.0
 11
0.5651658211653193
 21
126.9348341065859
 31
0.0
  0
ENDBLK
  5
186C
  8
0
  0
BLOCK
  8
0
  2
*U50
 70
     1
 10
0.0
 20
0.0
 30
0.0
  3
*U50
  1

  0
TEXT
  5
19E5
  8
SAPA_MATT
 62
     2
 10
35.40000000001114
 20
181.99999985600741
 30
0.0
 40
3.5
  1
91.5
  7
ISO
  0
ENDBLK
  5
19E7
  8
0
  0
BLOCK
  8
0
  2
*U51
 70
     1
 10
0.0
 20
0.0
 30
0.0
  3
*U51
  1

  0
TEXT
  5
19E9
  8
SAPA_MATT
 62
     2
 10
52.550000000000061
 20
169.99999985600741
 30
0.0
 40
3.5
  1
60
  7
ISO
  0
ENDBLK
  5
19EB
  8
0
  0
BLOCK
  8
0
  2
*U52
 70
     1
 10
0.0
 20
0.0
 30
0.0
  3
*U52
  1

  0
TEXT
  5
19ED
  8
SAPA_MATT
 62
     2
 10
-61.999999999999972
 20
73.174999928003757
 30
0.0
 40
3.5
  1
125
 50
90.0
  7
ISO
  0
ENDBLK
  5
19EF
  8
0
  0
BLOCK
  8
0
  2
*U53
 70
     1
 10
0.0
 20
0.0
 30
0.0
  3
*U53
  1

  0
TEXT
  5
19F1
  8
SAPA_MATT
 62
     2
 10
-50.0
 20
135.2749999276628
 30
0.0
 40
3.5
  1
5
 50
90.0
  7
ISO
  0
ENDBLK
  5
19F3
  8
0
  0
ENDSEC
  0
SECTION
  2
ENTITIES
  0
TEXT
  5
70A
  8
SAPA_ARTIKELNR
 10
49.188039105301719
 20
8.8215382507119671
 30
0.0000000048844772
 40
3.5
  1
D8K025
  7
ISO
  0
TEXT
  5
722
  8
SAPA_ARTIKELNR
 10
-22.485790610471579
 20
126.1180882512527
 30
0.0000000048844772
 40
3.5
  1
D8V001
  7
ISO
  0
TEXT
  5
8BF
  8
SAPA_ARTIKELNR
 10
21.985443845703369
 20
35.108374094093293
 30
0.0000000048844772
 40
3.5
  1
D8V020
 50
90.0
  7
ISO
  0
TEXT
  5
B34
  8
SAPA_ARTIKELNR
 10
2.9073382793731919
 20
79.235370455443643
 30
0.0000000048844772
 40
3.5
  1
D8V007
  7
ISO
  0
INSERT
  5
C87
  8
SAPA_ANSLUTNING
  6
CONTINUOUS
  2
*X44
 10
0.0
 20
0.0
 30
0.0
1001
ACAD
1000
HATCH
1002
{
1070
    19
1000
ANSI37
1040
0.25
1040
1.5707963267948959
1000
R14_HATCH_DATA
1000
C87
1011
1.0
1021
0.0
1031
0.0
1021
0.0
1031
0.0
1011
0.0
1021
0.0
1031
0.0
1021
1.0
1031
0.0
1011
0.0
1021
0.0
1031
0.0
1021
0.0
1031
1.0
1040
0.0
1010
0.0
1020
0.0
1030
1.0
1000
ANSI37
1070
     0
1070
     0
1071
        1
1071
        5
1071
        6
1070
     2
1040
26.499999999985189
1040
137.49999992775491
1040
1.4999999999999989
1040
3.9269908169871939
1040
4.7123889803846613
1070
     0
1070
     1
1040
26.499999999985128
1040
138.99999992775491
1040
37.336651236675671
1040
138.9999999277548
1070
     3
1040
37.336651236675984
1040
143.99999992775491
1040
5.6210574168242138
1040
0.0000000000000003
1040
0.8895123513655372
1040
1.5707963267948959
1040
2.144309431217978
1070
     0
1070
     3
1040
37.336651236675984
1040
143.99999992775491
1040
5.6210574168242138
1040
0.0000000000000003
1040
0.8895123513655372
1040
2.144309431217978
1040
4.7123889803846888
1070
     0
1070
     1
1040
37.336651236675351
1040
148.99999992775491
1040
25.000000000000139
1040
148.99999992775491
1070
     2
1040
4.353278700097718
1040
142.9021675165834
1040
21.528368738726542
1040
-0.2871774259191895
1040
0.2030570252108204
1070
     0
1071
        0
1070
     0
1070
     1
1040
1.5707963267948959
1040
0.25
1070
     0
1070
     2
1040
2.3561944901923439
1040
84.999999999985135
1040
0.0000000000136708
1040
-0.5612660075668221
1040
-0.5612660075668221
1070
     0
1040
3.926990816987241
1040
84.999999999985135
1040
0.0000000000136708
1040
0.5612660075668221
1040
-0.5612660075668221
1070
     0
1040
0.0591690278051155
1071
        1
1040
28.579635287059229
1040
142.99867634700331
1040
0.0
1002
}
  0
LINE
  5
C88
  8
SAPA_ANSLUTNING
 10
100.0000000000056
 20
14.00000000000014
 30
0.0
 11
100.0000000000055
 21
148.99999992775491
 31
0.0
  0
LINE
  5
C89
  8
SAPA_ANSLUTNING
 10
25.000000000000139
 20
148.99999992775491
 30
0.0
 11
25.000000000000089
 21
194.0032559344132
 31
0.0
  0
LINE
  5
C8A
  8
SAPA_ANSLUTNING
 10
100.0000000000055
 20
148.99999992775491
 30
0.0
 11
25.000000000000139
 21
148.99999992775491
 31
0.0
  0
ARC
  5
C8B
  8
SAPA_ANSLUTNING
 10
4.3532787000976043
 20
142.9021675165834
 30
0.0
 40
21.52836873872667
 50
348.36568945493968
 51
16.454054476599332
  0
INSERT
  5
C8C
  8
SAPA_ANSLUTNING
  6
CONTINUOUS
  2
*X45
 10
0.0
 20
0.0
 30
0.0
1001
ACAD
1000
HATCH
1002
{
1070
    19
1000
HEX
1040
0.25
1040
1.5707963267948959
1000
ASC_BOUNDS
1070
     1
1070
     1
1070
     1
1005
C8D
1000
ASC_SEEDPOINT
1011
37.21831354761926
1021
0.0
1031
0.0
1021
144.2421099378295
1031
0.0
1000
R14_HATCH_DATA
1000
C8C
1011
1.0
1021
0.0
1031
0.0
1021
0.0
1031
0.0
1011
0.0
1021
0.0
1031
0.0
1021
1.0
1031
0.0
1011
0.0
1021
0.0
1031
0.0
1021
0.0
1031
1.0
1040
0.0
1010
0.0
1020
0.0
1030
1.0
1000
HEX
1070
     0
1070
     1
1071
        1
1071
        5
1071
        1
1070
     3
1040
37.336651236675984
1040
143.99999992775491
1040
5.6210574168242138
1040
0.0000000000000003
1040
0.8895123513655372
1040
0.0
1040
6.2831853071795862
1070
     1
1071
        1
1005
C8D
1070
     0
1070
     1
1040
1.5707963267948959
1040
0.25
1070
     0
1070
     3
1040
1.5707963267948959
1040
84.999999999985135
1040
0.0000000000136708
1040
-1.374814999999999
1040
-0.0000000000000001
1070
     2
1040
0.79375
1040
-1.587499999999999
1040
3.6651914291880909
1040
84.999999999985135
1040
0.0000000000136708
1040
0.6874074999999998
1040
-1.190624715503902
1070
     2
1040
0.7937499999999993
1040
-1.5874999999999979
1040
2.6179938779914931
1040
84.999999999985135
1040
0.7937500000136595
1040
-0.6874075
1040
-1.190624715503902
1070
     2
1040
0.79375
1040
-1.587499999999999
1040
0.0591690278051155
1071
        1
1040
37.21831354761926
1040
144.2421099378295
1040
0.0
1002
}
  0
POLYLINE
  5
C8D
  8
SAPA_ANSLUTNING
 10
42.957708653500198
 20
143.99999992775491
 30
0.0
 66
     1
 70
     8
  0
VERTEX
  8
SAPA_ANSLUTNING
  5
19F7
 10
42.9577
 20
144.000
 30
0.000000
  70
    32
  0
VERTEX
  8
SAPA_ANSLUTNING
  5
19F8
 10
42.9509
 20
144.245
 30
0.000000
  70
    32
  0
VERTEX
  8
SAPA_ANSLUTNING
  5
19F9
 10
42.9306
 20
144.490
 30
0.000000
  70
    32
  0
VERTEX
  8
SAPA_ANSLUTNING
  5
19FA
 10
42.8969
 20
144.734
 30
0.000000
  70
    32
  0
VERTEX
  8
SAPA_ANSLUTNING
  5
19FB
 10
42.8497
 20
144.975
 30
0.000000
  70
    32
  0
VERTEX
  8
SAPA_ANSLUTNING
  5
19FC
 10
42.7893
 20
145.215
 30
0.000000
  70
    32
  0
VERTEX
  8
SAPA_ANSLUTNING
  5
19FD
 10
42.7157
 20
145.451
 30
0.000000
  70
    32
  0
VERTEX
  8
SAPA_ANSLUTNING
  5
19FE
 10
42.6291
 20
145.684
 30
0.000000
  70
    32
  0
VERTEX
  8
SAPA_ANSLUTNING
  5
19FF
 10
42.5298
 20
145.913
 30
0.000000
  70
    32
  0
VERTEX
  8
SAPA_ANSLUTNING
  5
1A00
 10
42.4180
 20
146.138
 30
0.000000
  70
    32
  0
VERTEX
  8
SAPA_ANSLUTNING
  5
1A01
 10
42.2940
 20
146.357
 30
0.000000
  70
    32
  0
VERTEX
  8
SAPA_ANSLUTNING
  5
1A02
 10
42.1580
 20
146.571
 30
0.000000
  70
    32
  0
VERTEX
  8
SAPA_ANSLUTNING
  5
1A03
 10
42.0104
 20
146.778
 30
0.000000
  70
    32
  0
VERTEX
  8
SAPA_ANSLUTNING
  5
1A04
 10
41.8515
 20
146.978
 30
0.000000
  70
    32
  0
VERTEX
  8
SAPA_ANSLUTNING
  5
1A05
 10
41.6818
 20
147.172
 30
0.000000
  70
    32
  0
VERTEX
  8
SAPA_ANSLUTNING
  5
1A06
 10
41.5016
 20
147.358
 30
0.000000
  70
    32
  0
VERTEX
  8
SAPA_ANSLUTNING
  5
1A07
 10
41.3113
 20
147.536
 30
0.000000
  70
    32
  0
VERTEX
  8
SAPA_ANSLUTNING
  5
1A08
 10
41.1115
 20
147.705
 30
0.000000
  70
    32
  0
VERTEX
  8
SAPA_ANSLUTNING
  5
1A09
 10
40.9026
 20
147.865
 30
0.000000
  70
    32
  0
VERTEX
  8
SAPA_ANSLUTNING
  5
1A0A
 10
40.6851
 20
148.016
 30
0.000000
  70
    32
  0
VERTEX
  8
SAPA_ANSLUTNING
  5
1A0B
 10
40.4595
 20
148.157
 30
0.000000
  70
    32
  0
VERTEX
  8
SAPA_ANSLUTNING
  5
1A0C
 10
40.2265
 20
148.289
 30
0.000000
  70
    32
  0
VERTEX
  8
SAPA_ANSLUTNING
  5
1A0D
 10
39.9864
 20
148.410
 30
0.000000
  70
    32
  0
VERTEX
  8
SAPA_ANSLUTNING
  5
1A0E
 10
39.7400
 20
148.520
 30
0.000000
  70
    32
  0
VERTEX
  8
SAPA_ANSLUTNING
  5
1A0F
 10
39.4877
 20
148.619
 30
0.000000
  70
    32
  0
VERTEX
  8
SAPA_ANSLUTNING
  5
1A10
 10
39.2303
 20
148.708
 30
0.000000
  70
    32
  0
VERTEX
  8
SAPA_ANSLUTNING
  5
1A11
 10
38.9684
 20
148.785
 30
0.000000
  70
    32
  0
VERTEX
  8
SAPA_ANSLUTNING
  5
1A12
 10
38.7025
 20
148.850
 30
0.000000
  70
    32
  0
VERTEX
  8
SAPA_ANSLUTNING
  5
1A13
 10
38.4333
 20
148.904
 30
0.000000
  70
    32
  0
VERTEX
  8
SAPA_ANSLUTNING
  5
1A14
 10
38.1614
 20
148.946
 30
0.000000
  70
    32
  0
VERTEX
  8
SAPA_ANSLUTNING
  5
1A15
 10
37.8876
 20
148.976
 30
0.000000
  70
    32
  0
VERTEX
  8
SAPA_ANSLUTNING
  5
1A16
 10
37.6125
 20
148.994
 30
0.000000
  70
    32
  0
VERTEX
  8
SAPA_ANSLUTNING
  5
1A17
 10
37.3367
 20
149.000
 30
0.000000
  70
    32
  0
VERTEX
  8
SAPA_ANSLUTNING
  5
1A18
 10
37.0608
 20
148.994
 30
0.000000
  70
    32
  0
VERTEX
  8
SAPA_ANSLUTNING
  5
1A19
 10
36.7857
 20
148.976
 30
0.000000
  70
    32
  0
VERTEX
  8
SAPA_ANSLUTNING
  5
1A1A
 10
36.5119
 20
148.946
 30
0.000000
  70
    32
  0
VERTEX
  8
SAPA_ANSLUTNING
  5
1A1B
 10
36.2400
 20
148.904
 30
0.000000
  70
    32
  0
VERTEX
  8
SAPA_ANSLUTNING
  5
1A1C
 10
35.9708
 20
148.850
 30
0.000000
  70
    32
  0
VERTEX
  8
SAPA_ANSLUTNING
  5
1A1D
 10
35.7049
 20
148.785
 30
0.000000
  70
    32
  0
VERTEX
  8
SAPA_ANSLUTNING
  5
1A1E
 10
35.4430
 20
148.708
 30
0.000000
  70
    32
  0
VERTEX
  8
SAPA_ANSLUTNING
  5
1A1F
 10
35.1856
 20
148.619
 30
0.000000
  70
    32
  0
VERTEX
  8
SAPA_ANSLUTNING
  5
1A20
 10
34.9333
 20
148.520
 30
0.000000
  70
    32
  0
VERTEX
  8
SAPA_ANSLUTNING
  5
1A21
 10
34.6869
 20
148.410
 30
0.000000
  70
    32
  0
VERTEX
  8
SAPA_ANSLUTNING
  5
1A22
 10
34.4469
 20
148.289
 30
0.000000
  70
    32
  0
VERTEX
  8
SAPA_ANSLUTNING
  5
1A23
 10
34.2138
 20
148.157
 30
0.000000
  70
    32
  0
VERTEX
  8
SAPA_ANSLUTNING
  5
1A24
 10
33.9882
 20
148.016
 30
0.000000
  70
    32
  0
VERTEX
  8
SAPA_ANSLUTNING
  5
1A25
 10
33.7707
 20
147.865
 30
0.000000
  70
    32
  0
VERTEX
  8
SAPA_ANSLUTNING
  5
1A26
 10
33.5618
 20
147.705
 30
0.000000
  70
    32
  0
VERTEX
  8
SAPA_ANSLUTNING
  5
1A27
 10
33.3620
 20
147.536
 30
0.000000
  70
    32
  0
VERTEX
  8
SAPA_ANSLUTNING
  5
1A28
 10
33.1717
 20
147.358
 30
0.000000
  70
    32
  0
VERTEX
  8
SAPA_ANSLUTNING
  5
1A29
 10
32.9915
 20
147.172
 30
0.000000
  70
    32
  0
VERTEX
  8
SAPA_ANSLUTNING
  5
1A2A
 10
32.8218
 20
146.978
 30
0.000000
  70
    32
  0
VERTEX
  8
SAPA_ANSLUTNING
  5
1A2B
 10
32.6629
 20
146.778
 30
0.000000
  70
    32
  0
VERTEX
  8
SAPA_ANSLUTNING
  5
1A2C
 10
32.5153
 20
146.571
 30
0.000000
  70
    32
  0
VERTEX
  8
SAPA_ANSLUTNING
  5
1A2D
 10
32.3793
 20
146.357
 30
0.000000
  70
    32
  0
VERTEX
  8
SAPA_ANSLUTNING
  5
1A2E
 10
32.2553
 20
146.138
 30
0.000000
  70
    32
  0
VERTEX
  8
SAPA_ANSLUTNING
  5
1A2F
 10
32.1435
 20
145.913
 30
0.000000
  70
    32
  0
VERTEX
  8
SAPA_ANSLUTNING
  5
1A30
 10
32.0442
 20
145.684
 30
0.000000
  70
    32
  0
VERTEX
  8
SAPA_ANSLUTNING
  5
1A31
 10
31.9576
 20
145.451
 30
0.000000
  70
    32
  0
VERTEX
  8
SAPA_ANSLUTNING
  5
1A32
 10
31.8840
 20
145.215
 30
0.000000
  70
    32
  0
VERTEX
  8
SAPA_ANSLUTNING
  5
1A33
 10
31.8236
 20
144.975
 30
0.000000
  70
    32
  0
VERTEX
  8
SAPA_ANSLUTNING
  5
1A34
 10
31.7764
 20
144.734
 30
0.000000
  70
    32
  0
VERTEX
  8
SAPA_ANSLUTNING
  5
1A35
 10
31.7427
 20
144.490
 30
0.000000
  70
    32
  0
VERTEX
  8
SAPA_ANSLUTNING
  5
1A36
 10
31.7224
 20
144.245
 30
0.000000
  70
    32
  0
VERTEX
  8
SAPA_ANSLUTNING
  5
1A37
 10
31.7156
 20
144.000
 30
0.000000
  70
    32
  0
VERTEX
  8
SAPA_ANSLUTNING
  5
1A38
 10
31.7224
 20
143.755
 30
0.000000
  70
    32
  0
VERTEX
  8
SAPA_ANSLUTNING
  5
1A39
 10
31.7427
 20
143.510
 30
0.000000
  70
    32
  0
VERTEX
  8
SAPA_ANSLUTNING
  5
1A3A
 10
31.7764
 20
143.266
 30
0.000000
  70
    32
  0
VERTEX
  8
SAPA_ANSLUTNING
  5
1A3B
 10
31.8236
 20
143.025
 30
0.000000
  70
    32
  0
VERTEX
  8
SAPA_ANSLUTNING
  5
1A3C
 10
31.8840
 20
142.785
 30
0.000000
  70
    32
  0
VERTEX
  8
SAPA_ANSLUTNING
  5
1A3D
 10
31.9576
 20
142.549
 30
0.000000
  70
    32
  0
VERTEX
  8
SAPA_ANSLUTNING
  5
1A3E
 10
32.0442
 20
142.316
 30
0.000000
  70
    32
  0
VERTEX
  8
SAPA_ANSLUTNING
  5
1A3F
 10
32.1435
 20
142.087
 30
0.000000
  70
    32
  0
VERTEX
  8
SAPA_ANSLUTNING
  5
1A40
 10
32.2553
 20
141.862
 30
0.000000
  70
    32
  0
VERTEX
  8
SAPA_ANSLUTNING
  5
1A41
 10
32.3793
 20
141.643
 30
0.000000
  70
    32
  0
VERTEX
  8
SAPA_ANSLUTNING
  5
1A42
 10
32.5153
 20
141.429
 30
0.000000
  70
    32
  0
VERTEX
  8
SAPA_ANSLUTNING
  5
1A43
 10
32.6629
 20
141.222
 30
0.000000
  70
    32
  0
VERTEX
  8
SAPA_ANSLUTNING
  5
1A44
 10
32.8218
 20
141.022
 30
0.000000
  70
    32
  0
VERTEX
  8
SAPA_ANSLUTNING
  5
1A45
 10
32.9915
 20
140.828
 30
0.000000
  70
    32
  0
VERTEX
  8
SAPA_ANSLUTNING
  5
1A46
 10
33.1717
 20
140.642
 30
0.000000
  70
    32
  0
VERTEX
  8
SAPA_ANSLUTNING
  5
1A47
 10
33.3620
 20
140.464
 30
0.000000
  70
    32
  0
VERTEX
  8
SAPA_ANSLUTNING
  5
1A48
 10
33.5618
 20
140.295
 30
0.000000
  70
    32
  0
VERTEX
  8
SAPA_ANSLUTNING
  5
1A49
 10
33.7707
 20
140.135
 30
0.000000
  70
    32
  0
VERTEX
  8
SAPA_ANSLUTNING
  5
1A4A
 10
33.9882
 20
139.984
 30
0.000000
  70
    32
  0
VERTEX
  8
SAPA_ANSLUTNING
  5
1A4B
 10
34.2138
 20
139.843
 30
0.000000
  70
    32
  0
VERTEX
  8
SAPA_ANSLUTNING
  5
1A4C
 10
34.4469
 20
139.711
 30
0.000000
  70
    32
  0
VERTEX
  8
SAPA_ANSLUTNING
  5
1A4D
 10
34.6869
 20
139.590
 30
0.000000
  70
    32
  0
VERTEX
  8
SAPA_ANSLUTNING
  5
1A4E
 10
34.9333
 20
139.480
 30
0.000000
  70
    32
  0
VERTEX
  8
SAPA_ANSLUTNING
  5
1A4F
 10
35.1856
 20
139.381
 30
0.000000
  70
    32
  0
VERTEX
  8
SAPA_ANSLUTNING
  5
1A50
 10
35.4430
 20
139.292
 30
0.000000
  70
    32
  0
VERTEX
  8
SAPA_ANSLUTNING
  5
1A51
 10
35.7049
 20
139.215
 30
0.000000
  70
    32
  0
VERTEX
  8
SAPA_ANSLUTNING
  5
1A52
 10
35.9708
 20
139.150
 30
0.000000
  70
    32
  0
VERTEX
  8
SAPA_ANSLUTNING
  5
1A53
 10
36.2400
 20
139.096
 30
0.000000
  70
    32
  0
VERTEX
  8
SAPA_ANSLUTNING
  5
1A54
 10
36.5119
 20
139.054
 30
0.000000
  70
    32
  0
VERTEX
  8
SAPA_ANSLUTNING
  5
1A55
 10
36.7857
 20
139.024
 30
0.000000
  70
    32
  0
VERTEX
  8
SAPA_ANSLUTNING
  5
1A56
 10
37.0608
 20
139.006
 30
0.000000
  70
    32
  0
VERTEX
  8
SAPA_ANSLUTNING
  5
1A57
 10
37.3367
 20
139.000
 30
0.000000
  70
    32
  0
VERTEX
  8
SAPA_ANSLUTNING
  5
1A58
 10
37.6125
 20
139.006
 30
0.000000
  70
    32
  0
VERTEX
  8
SAPA_ANSLUTNING
  5
1A59
 10
37.8876
 20
139.024
 30
0.000000
  70
    32
  0
VERTEX
  8
SAPA_ANSLUTNING
  5
1A5A
 10
38.1614
 20
139.054
 30
0.000000
  70
    32
  0
VERTEX
  8
SAPA_ANSLUTNING
  5
1A5B
 10
38.4333
 20
139.096
 30
0.000000
  70
    32
  0
VERTEX
  8
SAPA_ANSLUTNING
  5
1A5C
 10
38.7025
 20
139.150
 30
0.000000
  70
    32
  0
VERTEX
  8
SAPA_ANSLUTNING
  5
1A5D
 10
38.9684
 20
139.215
 30
0.000000
  70
    32
  0
VERTEX
  8
SAPA_ANSLUTNING
  5
1A5E
 10
39.2303
 20
139.292
 30
0.000000
  70
    32
  0
VERTEX
  8
SAPA_ANSLUTNING
  5
1A5F
 10
39.4877
 20
139.381
 30
0.000000
  70
    32
  0
VERTEX
  8
SAPA_ANSLUTNING
  5
1A60
 10
39.7400
 20
139.480
 30
0.000000
  70
    32
  0
VERTEX
  8
SAPA_ANSLUTNING
  5
1A61
 10
39.9864
 20
139.590
 30
0.000000
  70
    32
  0
VERTEX
  8
SAPA_ANSLUTNING
  5
1A62
 10
40.2265
 20
139.711
 30
0.000000
  70
    32
  0
VERTEX
  8
SAPA_ANSLUTNING
  5
1A63
 10
40.4595
 20
139.843
 30
0.000000
  70
    32
  0
VERTEX
  8
SAPA_ANSLUTNING
  5
1A64
 10
40.6851
 20
139.984
 30
0.000000
  70
    32
  0
VERTEX
  8
SAPA_ANSLUTNING
  5
1A65
 10
40.9026
 20
140.135
 30
0.000000
  70
    32
  0
VERTEX
  8
SAPA_ANSLUTNING
  5
1A66
 10
41.1115
 20
140.295
 30
0.000000
  70
    32
  0
VERTEX
  8
SAPA_ANSLUTNING
  5
1A67
 10
41.3113
 20
140.464
 30
0.000000
  70
    32
  0
VERTEX
  8
SAPA_ANSLUTNING
  5
1A68
 10
41.5016
 20
140.642
 30
0.000000
  70
    32
  0
VERTEX
  8
SAPA_ANSLUTNING
  5
1A69
 10
41.6818
 20
140.828
 30
0.000000
  70
    32
  0
VERTEX
  8
SAPA_ANSLUTNING
  5
1A6A
 10
41.8515
 20
141.022
 30
0.000000
  70
    32
  0
VERTEX
  8
SAPA_ANSLUTNING
  5
1A6B
 10
42.0104
 20
141.222
 30
0.000000
  70
    32
  0
VERTEX
  8
SAPA_ANSLUTNING
  5
1A6C
 10
42.1580
 20
141.429
 30
0.000000
  70
    32
  0
VERTEX
  8
SAPA_ANSLUTNING
  5
1A6D
 10
42.2940
 20
141.643
 30
0.000000
  70
    32
  0
VERTEX
  8
SAPA_ANSLUTNING
  5
1A6E
 10
42.4180
 20
141.862
 30
0.000000
  70
    32
  0
VERTEX
  8
SAPA_ANSLUTNING
  5
1A6F
 10
42.5298
 20
142.087
 30
0.000000
  70
    32
  0
VERTEX
  8
SAPA_ANSLUTNING
  5
1A70
 10
42.6291
 20
142.316
 30
0.000000
  70
    32
  0
VERTEX
  8
SAPA_ANSLUTNING
  5
1A71
 10
42.7157
 20
142.549
 30
0.000000
  70
    32
  0
VERTEX
  8
SAPA_ANSLUTNING
  5
1A72
 10
42.7893
 20
142.785
 30
0.000000
  70
    32
  0
VERTEX
  8
SAPA_ANSLUTNING
  5
1A73
 10
42.8497
 20
143.025
 30
0.000000
  70
    32
  0
VERTEX
  8
SAPA_ANSLUTNING
  5
1A74
 10
42.8969
 20
143.266
 30
0.000000
  70
    32
  0
VERTEX
  8
SAPA_ANSLUTNING
  5
1A75
 10
42.9306
 20
143.510
 30
0.000000
  70
    32
  0
VERTEX
  8
SAPA_ANSLUTNING
  5
1A76
 10
42.9509
 20
143.755
 30
0.000000
  70
    32
  0
VERTEX
  8
SAPA_ANSLUTNING
  5
1A77
 10
42.9577
 20
144.000
 30
0.000000
  70
    32
  0
SEQEND
  8
SAPA_ANSLUTNING
  5
1A78
  0
POLYLINE
  5
C8E
  8
SAPA_ANSLUTNING
 66
     1
 10
0.0
 20
0.0
 30
0.0
  0
VERTEX
  5
118F
  8
SAPA_ANSLUTNING
 10
41.35206959054667
 20
140.5010714710958
 30
0.0
 42
0.8812634091771133
  0
VERTEX
  5
1190
  8
SAPA_ANSLUTNING
 10
45.288837618766841
 20
140.99999992775491
 30
0.0
  0
VERTEX
  5
1191
  8
SAPA_ANSLUTNING
 10
45.288837618766841
 20
146.99999992775491
 30
0.0
 42
-0.9999999999999998
  0
VERTEX
  5
1192
  8
SAPA_ANSLUTNING
 10
49.288837618766848
 20
146.99999992775491
 30
0.0
  0
VERTEX
  5
1193
  8
SAPA_ANSLUTNING
 10
49.288837618766848
 20
140.99999992775491
 30
0.0
 42
0.9999999999999998
  0
VERTEX
  5
1194
  8
SAPA_ANSLUTNING
 10
53.288837618766848
 20
140.99999992775491
 30
0.0
  0
VERTEX
  5
1195
  8
SAPA_ANSLUTNING
 10
53.288837618766848
 20
146.99999992775491
 30
0.0
 42
-0.9999999999999998
  0
VERTEX
  5
1196
  8
SAPA_ANSLUTNING
 10
57.288837618766848
 20
146.99999992775491
 30
0.0
  0
VERTEX
  5
1197
  8
SAPA_ANSLUTNING
 10
57.288837618766848
 20
140.99999992775491
 30
0.0
 42
0.9999999999999998
  0
VERTEX
  5
1198
  8
SAPA_ANSLUTNING
 10
61.288837618766848
 20
140.99999992775491
 30
0.0
  0
VERTEX
  5
1199
  8
SAPA_ANSLUTNING
 10
61.288837618766848
 20
146.99999992775491
 30
0.0
 42
-0.9999999999999998
  0
VERTEX
  5
119A
  8
SAPA_ANSLUTNING
 10
65.288837618766834
 20
146.99999992775491
 30
0.0
  0
VERTEX
  5
119B
  8
SAPA_ANSLUTNING
 10
65.288837618766834
 20
140.99999992775491
 30
0.0
 42
0.9999999999999998
  0
VERTEX
  5
119C
  8
SAPA_ANSLUTNING
 10
69.288837618766848
 20
140.99999992775491
 30
0.0
  0
VERTEX
  5
119D
  8
SAPA_ANSLUTNING
 10
69.288837618766848
 20
146.99999992775491
 30
0.0
 42
-0.9999999999999998
  0
VERTEX
  5
119E
  8
SAPA_ANSLUTNING
 10
73.288837618766848
 20
146.99999992775491
 30
0.0
  0
VERTEX
  5
119F
  8
SAPA_ANSLUTNING
 10
73.288837618766848
 20
140.99999992775491
 30
0.0
 42
0.9999999999999998
  0
VERTEX
  5
11A0
  8
SAPA_ANSLUTNING
 10
77.288837618766848
 20
140.99999992775491
 30
0.0
  0
VERTEX
  5
11A1
  8
SAPA_ANSLUTNING
 10
77.288837618766848
 20
146.99999992775491
 30
0.0
 42
-0.9999999999999998
  0
VERTEX
  5
11A2
  8
SAPA_ANSLUTNING
 10
81.28883761876682
 20
146.99999992775491
 30
0.0
  0
VERTEX
  5
11A3
  8
SAPA_ANSLUTNING
 10
81.28883761876682
 20
140.99999992775491
 30
0.0
 42
0.9999999999999998
  0
VERTEX
  5
11A4
  8
SAPA_ANSLUTNING
 10
85.288837618766834
 20
140.99999992775491
 30
0.0
  0
VERTEX
  5
11A5
  8
SAPA_ANSLUTNING
 10
85.288837618766834
 20
146.99999992775491
 30
0.0
 42
-0.9999999999999998
  0
VERTEX
  5
11A6
  8
SAPA_ANSLUTNING
 10
89.288837618766806
 20
146.99999992775491
 30
0.0
  0
VERTEX
  5
11A7
  8
SAPA_ANSLUTNING
 10
89.288837618766806
 20
140.99999992775491
 30
0.0
 42
0.9999999999999998
  0
VERTEX
  5
11A8
  8
SAPA_ANSLUTNING
 10
93.28883761876682
 20
140.99999992775491
 30
0.0
  0
VERTEX
  5
11A9
  8
SAPA_ANSLUTNING
 10
93.28883761876682
 20
146.99999992775491
 30
0.0
 42
-0.9999999999999998
  0
VERTEX
  5
11AA
  8
SAPA_ANSLUTNING
 10
97.28883761876682
 20
146.99999992775491
 30
0.0
  0
VERTEX
  5
11AB
  8
SAPA_ANSLUTNING
 10
97.28883761876682
 20
140.99999992775491
 30
0.0
 42
0.5251735434384823
  0
VERTEX
  5
11AC
  8
SAPA_ANSLUTNING
 10
100.0000000000055
 20
139.1307091350983
 30
0.0
 42
0.5251735434384823
  0
SEQEND
  5
11AD
  8
SAPA_ANSLUTNING
  0
LINE
  5
C8F
  8
SAPA_ANSLUTNING
 10
25.000000000000089
 20
14.00000000000014
 30
0.0
 11
25.000000000000089
 21
-30.61946647704573
 31
0.0
  0
LINE
  5
C90
  8
SAPA_ANSLUTNING
 10
25.000000000000089
 20
14.00000000000014
 30
0.0
 11
100.0000000000056
 21
14.00000000000014
 31
0.0
  0
POLYLINE
  5
C91
  8
SAPA_ANSLUTNING
 66
     1
 10
0.0
 20
0.0
 30
0.0
  0
VERTEX
  5
11AE
  8
SAPA_ANSLUTNING
 10
98.498928456659186
 20
14.00000000000014
 30
0.0
 42
0.8812634091771133
  0
VERTEX
  5
11AF
  8
SAPA_ANSLUTNING
 10
98.000000000000085
 20
17.93676802822031
 30
0.0
  0
VERTEX
  5
11B0
  8
SAPA_ANSLUTNING
 10
87.000000000000085
 20
17.93676802822031
 30
0.0
 42
-0.9999999999999998
  0
VERTEX
  5
11B1
  8
SAPA_ANSLUTNING
 10
87.000000000000085
 20
21.93676802822031
 30
0.0
  0
VERTEX
  5
11B2
  8
SAPA_ANSLUTNING
 10
98.000000000000085
 20
21.936768028220289
 30
0.0
 42
0.9999999999999998
  0
VERTEX
  5
11B3
  8
SAPA_ANSLUTNING
 10
98.000000000000085
 20
25.936768028220289
 30
0.0
  0
VERTEX
  5
11B4
  8
SAPA_ANSLUTNING
 10
87.000000000000085
 20
25.93676802822031
 30
0.0
 42
-0.9999999999999998
  0
VERTEX
  5
11B5
  8
SAPA_ANSLUTNING
 10
87.000000000000085
 20
29.936768028220321
 30
0.0
  0
VERTEX
  5
11B6
  8
SAPA_ANSLUTNING
 10
98.000000000000085
 20
29.936768028220289
 30
0.0
 42
0.9999999999999998
  0
VERTEX
  5
11B7
  8
SAPA_ANSLUTNING
 10
98.000000000000085
 20
33.936768028220278
 30
0.0
  0
VERTEX
  5
11B8
  8
SAPA_ANSLUTNING
 10
87.000000000000085
 20
33.936768028220278
 30
0.0
 42
-0.9999999999999998
  0
VERTEX
  5
11B9
  8
SAPA_ANSLUTNING
 10
87.000000000000085
 20
37.936768028220293
 30
0.0
  0
VERTEX
  5
11BA
  8
SAPA_ANSLUTNING
 10
98.000000000000085
 20
37.936768028220293
 30
0.0
 42
0.9999999999999998
  0
VERTEX
  5
11BB
  8
SAPA_ANSLUTNING
 10
98.000000000000085
 20
41.936768028220278
 30
0.0
  0
VERTEX
  5
11BC
  8
SAPA_ANSLUTNING
 10
87.000000000000085
 20
41.936768028220278
 30
0.0
 42
-0.9999999999999998
  0
VERTEX
  5
11BD
  8
SAPA_ANSLUTNING
 10
87.000000000000085
 20
45.936768028220278
 30
0.0
  0
VERTEX
  5
11BE
  8
SAPA_ANSLUTNING
 10
98.000000000000085
 20
45.936768028220278
 30
0.0
 42
0.9999999999999998
  0
VERTEX
  5
11BF
  8
SAPA_ANSLUTNING
 10
98.000000000000085
 20
49.936768028220293
 30
0.0
  0
VERTEX
  5
11C0
  8
SAPA_ANSLUTNING
 10
87.000000000000085
 20
49.936768028220293
 30
0.0
 42
-0.9999999999999998
  0
VERTEX
  5
11C1
  8
SAPA_ANSLUTNING
 10
87.000000000000085
 20
53.936768028220278
 30
0.0
  0
VERTEX
  5
11C2
  8
SAPA_ANSLUTNING
 10
98.000000000000085
 20
53.936768028220278
 30
0.0
 42
0.9999999999999998
  0
VERTEX
  5
11C3
  8
SAPA_ANSLUTNING
 10
98.000000000000057
 20
57.936768028220278
 30
0.0
  0
VERTEX
  5
11C4
  8
SAPA_ANSLUTNING
 10
87.000000000000057
 20
57.936768028220278
 30
0.0
 42
-0.9999999999999998
  0
VERTEX
  5
11C5
  8
SAPA_ANSLUTNING
 10
87.000000000000057
 20
61.936768028220293
 30
0.0
  0
VERTEX
  5
11C6
  8
SAPA_ANSLUTNING
 10
98.000000000000057
 20
61.936768028220293
 30
0.0
 42
0.9999999999999998
  0
VERTEX
  5
11C7
  8
SAPA_ANSLUTNING
 10
98.000000000000057
 20
65.936768028220285
 30
0.0
  0
VERTEX
  5
11C8
  8
SAPA_ANSLUTNING
 10
87.000000000000057
 20
65.936768028220285
 30
0.0
 42
-0.9999999999999998
  0
VERTEX
  5
11C9
  8
SAPA_ANSLUTNING
 10
87.000000000000057
 20
69.936768028220285
 30
0.0
  0
VERTEX
  5
11CA
  8
SAPA_ANSLUTNING
 10
98.000000000000057
 20
69.936768028220285
 30
0.0
 42
0.5251735434384823
  0
VERTEX
  5
11CB
  8
SAPA_ANSLUTNING
 10
99.86929079265667
 20
72.647930409458993
 30
0.0
 42
0.5251735434384823
  0
SEQEND
  5
11CC
  8
SAPA_ANSLUTNING
  0
POLYLINE
  5
C92
  8
SAPA_ANSLUTNING
 66
     1
 10
0.0
 20
0.0
 30
0.0
  0
VERTEX
  5
11CD
  8
SAPA_ANSLUTNING
 10
98.498928456659144
 20
62.000000000000142
 30
0.0
 42
0.8812634091771133
  0
VERTEX
  5
11CE
  8
SAPA_ANSLUTNING
 10
98.000000000000057
 20
65.936768028220285
 30
0.0
  0
VERTEX
  5
11CF
  8
SAPA_ANSLUTNING
 10
87.000000000000057
 20
65.936768028220285
 30
0.0
 42
-0.9999999999999998
  0
VERTEX
  5
11D0
  8
SAPA_ANSLUTNING
 10
87.000000000000057
 20
69.936768028220285
 30
0.0
  0
VERTEX
  5
11D1
  8
SAPA_ANSLUTNING
 10
98.000000000000057
 20
69.936768028220257
 30
0.0
 42
0.9999999999999998
  0
VERTEX
  5
11D2
  8
SAPA_ANSLUTNING
 10
98.000000000000057
 20
73.936768028220257
 30
0.0
  0
VERTEX
  5
11D3
  8
SAPA_ANSLUTNING
 10
87.000000000000057
 20
73.936768028220285
 30
0.0
 42
-0.9999999999999998
  0
VERTEX
  5
11D4
  8
SAPA_ANSLUTNING
 10
87.000000000000057
 20
77.936768028220285
 30
0.0
  0
VERTEX
  5
11D5
  8
SAPA_ANSLUTNING
 10
98.000000000000057
 20
77.936768028220257
 30
0.0
 42
0.9999999999999998
  0
VERTEX
  5
11D6
  8
SAPA_ANSLUTNING
 10
98.000000000000057
 20
81.936768028220257
 30
0.0
  0
VERTEX
  5
11D7
  8
SAPA_ANSLUTNING
 10
87.000000000000057
 20
81.936768028220257
 30
0.0
 42
-0.9999999999999998
  0
VERTEX
  5
11D8
  8
SAPA_ANSLUTNING
 10
87.000000000000057
 20
85.936768028220257
 30
0.0
  0
VERTEX
  5
11D9
  8
SAPA_ANSLUTNING
 10
98.000000000000057
 20
85.936768028220257
 30
0.0
 42
0.9999999999999998
  0
VERTEX
  5
11DA
  8
SAPA_ANSLUTNING
 10
98.000000000000057
 20
89.936768028220257
 30
0.0
  0
VERTEX
  5
11DB
  8
SAPA_ANSLUTNING
 10
87.000000000000057
 20
89.936768028220257
 30
0.0
 42
-0.9999999999999998
  0
VERTEX
  5
11DC
  8
SAPA_ANSLUTNING
 10
87.000000000000057
 20
93.936768028220257
 30
0.0
  0
VERTEX
  5
11DD
  8
SAPA_ANSLUTNING
 10
98.000000000000057
 20
93.936768028220257
 30
0.0
 42
0.9999999999999998
  0
VERTEX
  5
11DE
  8
SAPA_ANSLUTNING
 10
98.000000000000057
 20
97.936768028220271
 30
0.0
  0
VERTEX
  5
11DF
  8
SAPA_ANSLUTNING
 10
87.000000000000057
 20
97.936768028220271
 30
0.0
 42
-0.9999999999999998
  0
VERTEX
  5
11E0
  8
SAPA_ANSLUTNING
 10
87.000000000000057
 20
101.9367680282202
 30
0.0
  0
VERTEX
  5
11E1
  8
SAPA_ANSLUTNING
 10
98.000000000000057
 20
101.9367680282202
 30
0.0
 42
0.9999999999999998
  0
VERTEX
  5
11E2
  8
SAPA_ANSLUTNING
 10
98.000000000000057
 20
105.9367680282202
 30
0.0
  0
VERTEX
  5
11E3
  8
SAPA_ANSLUTNING
 10
87.000000000000057
 20
105.9367680282202
 30
0.0
 42
-0.9999999999999998
  0
VERTEX
  5
11E4
  8
SAPA_ANSLUTNING
 10
87.000000000000057
 20
109.9367680282202
 30
0.0
  0
VERTEX
  5
11E5
  8
SAPA_ANSLUTNING
 10
98.000000000000057
 20
109.9367680282202
 30
0.0
 42
0.9999999999999998
  0
VERTEX
  5
11E6
  8
SAPA_ANSLUTNING
 10
98.000000000000057
 20
113.9367680282202
 30
0.0
  0
VERTEX
  5
11E7
  8
SAPA_ANSLUTNING
 10
87.000000000000057
 20
113.9367680282202
 30
0.0
 42
-0.9999999999999998
  0
VERTEX
  5
11E8
  8
SAPA_ANSLUTNING
 10
87.000000000000057
 20
117.9367680282202
 30
0.0
  0
VERTEX
  5
11E9
  8
SAPA_ANSLUTNING
 10
98.000000000000057
 20
117.9367680282202
 30
0.0
 42
0.5251735434384823
  0
VERTEX
  5
11EA
  8
SAPA_ANSLUTNING
 10
99.86929079265667
 20
120.64793040945899
 30
0.0
 42
0.5251735434384823
  0
SEQEND
  5
11EB
  8
SAPA_ANSLUTNING
  0
POLYLINE
  5
C93
  8
SAPA_ANSLUTNING
 66
     1
 10
0.0
 20
0.0
 30
0.0
  0
VERTEX
  5
11EC
  8
SAPA_ANSLUTNING
 10
98.498928456659144
 20
110.0000000000001
 30
0.0
 42
0.8812634091771133
  0
VERTEX
  5
11ED
  8
SAPA_ANSLUTNING
 10
98.000000000000057
 20
113.9367680282202
 30
0.0
  0
VERTEX
  5
11EE
  8
SAPA_ANSLUTNING
 10
87.000000000000057
 20
113.9367680282202
 30
0.0
 42
-0.9999999999999998
  0
VERTEX
  5
11EF
  8
SAPA_ANSLUTNING
 10
87.000000000000057
 20
117.9367680282202
 30
0.0
  0
VERTEX
  5
11F0
  8
SAPA_ANSLUTNING
 10
98.000000000000057
 20
117.9367680282202
 30
0.0
 42
0.9999999999999998
  0
VERTEX
  5
11F1
  8
SAPA_ANSLUTNING
 10
98.000000000000057
 20
121.9367680282202
 30
0.0
  0
VERTEX
  5
11F2
  8
SAPA_ANSLUTNING
 10
87.000000000000057
 20
121.9367680282202
 30
0.0
 42
-0.9999999999999998
  0
VERTEX
  5
11F3
  8
SAPA_ANSLUTNING
 10
87.000000000000057
 20
125.9367680282202
 30
0.0
  0
VERTEX
  5
11F4
  8
SAPA_ANSLUTNING
 10
98.000000000000057
 20
125.9367680282202
 30
0.0
 42
0.9999999999999998
  0
VERTEX
  5
11F5
  8
SAPA_ANSLUTNING
 10
98.000000000000057
 20
129.9367680282202
 30
0.0
  0
VERTEX
  5
11F6
  8
SAPA_ANSLUTNING
 10
87.000000000000057
 20
129.9367680282202
 30
0.0
 42
-0.9999999999999998
  0
VERTEX
  5
11F7
  8
SAPA_ANSLUTNING
 10
87.000000000000057
 20
133.9367680282202
 30
0.0
  0
VERTEX
  5
11F8
  8
SAPA_ANSLUTNING
 10
98.000000000000057
 20
133.9367680282202
 30
0.0
 42
0.9999999999999998
  0
VERTEX
  5
11F9
  8
SAPA_ANSLUTNING
 10
98.000000000000057
 20
137.9367680282202
 30
0.0
  0
VERTEX
  5
11FA
  8
SAPA_ANSLUTNING
 10
87.000000000000057
 20
137.9367680282202
 30
0.0
 42
-0.4183530514568368
  0
VERTEX
  5
11FB
  8
SAPA_ANSLUTNING
 10
85.000199156167795
 20
139.96499186580331
 30
0.0
 42
-0.4183530514568368
  0
SEQEND
  5
11FC
  8
SAPA_ANSLUTNING
  0
POLYLINE
  5
F75
  8
SAPA_PROFIL
 62
     4
 66
     1
 10
0.0
 20
0.0
 30
0.0
 70
     1
  0
VERTEX
  5
F76
  8
SAPA_PROFIL
 62
     4
 10
14.649987999994419
 20
96.856217710674471
 30
0.0
 42
0.1316524975873979
  0
VERTEX
  5
F77
  8
SAPA_PROFIL
 62
     4
 10
14.75716767696685
 20
96.456217710674466
 30
0.0
  0
VERTEX
  5
F78
  8
SAPA_PROFIL
 62
     4
 10
15.74998799999628
 20
94.736602468400406
 30
0.0
  0
VERTEX
  5
F79
  8
SAPA_PROFIL
 62
     4
 10
15.749987999996369
 20
94.299999928021947
 30
0.0
 42
-0.4142135623730951
  0
VERTEX
  5
F7A
  8
SAPA_PROFIL
 62
     4
 10
15.49998799999638
 20
94.049999928021975
 30
0.0
  0
VERTEX
  5
F7B
  8
SAPA_PROFIL
 62
     4
 10
11.89997599999632
 20
94.049999928021919
 30
0.0
 42
-0.4142135623731053
  0
VERTEX
  5
F7C
  8
SAPA_PROFIL
 62
     4
 10
11.649975999996309
 20
94.299999928021919
 30
0.0
  0
VERTEX
  5
F7D
  8
SAPA_PROFIL
 62
     4
 10
11.64998764273167
 20
94.73660184960039
 30
0.0
  0
VERTEX
  5
F7E
  8
SAPA_PROFIL
 62
     4
 10
12.64280832302194
 20
96.456217710667786
 30
0.0
 42
0.1316524975874149
  0
VERTEX
  5
F7F
  8
SAPA_PROFIL
 62
     4
 10
12.74998799999444
 20
96.856217710667835
 30
0.0
  0
VERTEX
  5
F80
  8
SAPA_PROFIL
 62
     4
 10
12.749987999994451
 20
121.14378214537609
 30
0.0
 42
0.1316524975874151
  0
VERTEX
  5
F81
  8
SAPA_PROFIL
 62
     4
 10
12.642808323021949
 20
121.5437821453762
 30
0.0
  0
VERTEX
  5
F82
  8
SAPA_PROFIL
 62
     4
 10
11.649987642731681
 20
123.2633980064435
 30
0.0
  0
VERTEX
  5
F83
  8
SAPA_PROFIL
 62
     4
 10
11.64997599999632
 20
123.699999928022
 30
0.0
 42
-0.4142135623731054
  0
VERTEX
  5
F84
  8
SAPA_PROFIL
 62
     4
 10
11.89997599999632
 20
123.949999928022
 30
0.0
  0
VERTEX
  5
F85
  8
SAPA_PROFIL
 62
     4
 10
15.499987999996391
 20
123.949999928022
 30
0.0
 42
-0.4142135623730953
  0
VERTEX
  5
F86
  8
SAPA_PROFIL
 62
     4
 10
15.74998799999638
 20
123.699999928022
 30
0.0
  0
VERTEX
  5
F87
  8
SAPA_PROFIL
 62
     4
 10
15.749987999996289
 20
123.26339738764349
 30
0.0
  0
VERTEX
  5
F88
  8
SAPA_PROFIL
 62
     4
 10
14.75716767696686
 20
121.54378214536951
 30
0.0
 42
0.1316524975873982
  0
VERTEX
  5
F89
  8
SAPA_PROFIL
 62
     4
 10
14.649987999994419
 20
121.1437821453694
 30
0.0
  0
SEQEND
  5
F8A
  8
SAPA_PROFIL
 62
     4
  0
POLYLINE
  5
F8B
  8
SAPA_PROFIL
 66
     1
 10
0.0
 20
0.0
 30
0.0
 70
     1
  0
VERTEX
  5
14DE
  8
SAPA_PROFIL
 10
17.74944465005688
 20
123.7561308870682
 30
0.0
  0
VERTEX
  5
14DF
  8
SAPA_PROFIL
 10
17.749444650053238
 20
122.7999999280328
 30
0.0
 42
0.2418327667557183
  0
VERTEX
  5
14E0
  8
SAPA_PROFIL
 10
17.874722325030191
 20
122.5561308870662
 30
0.0
 42
-0.2418327667535164
  0
VERTEX
  5
14E1
  8
SAPA_PROFIL
 10
18.000000000004398
 20
122.3122618461075
 30
0.0
  0
VERTEX
  5
14E2
  8
SAPA_PROFIL
 10
17.999999999995939
 20
120.0884579684747
 30
0.0
 42
-0.0874886635239214
  0
VERTEX
  5
14E3
  8
SAPA_PROFIL
 10
17.981907786232139
 20
119.9858519254793
 30
0.0
  0
VERTEX
  5
14E4
  8
SAPA_PROFIL
 10
17.46239371855679
 20
118.5584987554339
 30
0.0
 42
-0.4142135623698208
  0
VERTEX
  5
14E5
  8
SAPA_PROFIL
 10
17.07787988931462
 20
118.3791970121965
 30
0.0
  0
VERTEX
  5
14E6
  8
SAPA_PROFIL
 10
16.889941365165921
 20
118.4476010408675
 30
0.0
 42
-0.4142135623730019
  0
VERTEX
  5
14E7
  8
SAPA_PROFIL
 10
16.710639621923391
 20
118.8321148700891
 30
0.0
  0
VERTEX
  5
14E8
  8
SAPA_PROFIL
 10
17.08686177959008
 20
119.8657767529583
 30
0.0
 42
0.41421356237947
  0
VERTEX
  5
14E9
  8
SAPA_PROFIL
 10
16.907560036338928
 20
120.2502905821899
 30
0.0
  0
VERTEX
  5
14EA
  8
SAPA_PROFIL
 10
15.09736995700001
 20
120.9091458894257
 30
0.0
 42
-0.3152987888800591
  0
VERTEX
  5
14EB
  8
SAPA_PROFIL
 10
14.89997599999667
 20
121.19105367566191
 30
0.0
  0
VERTEX
  5
14EC
  8
SAPA_PROFIL
 10
14.89997599999678
 20
121.6107694434813
 30
0.0
 42
-0.1316524975873855
  0
VERTEX
  5
14ED
  8
SAPA_PROFIL
 10
14.94016837886142
 20
121.76076944348119
 30
0.0
  0
VERTEX
  5
14EE
  8
SAPA_PROFIL
 10
15.799975999996731
 20
123.24999992802211
 30
0.0
  0
VERTEX
  5
14EF
  8
SAPA_PROFIL
 10
15.799987999996389
 20
123.699999928022
 30
0.0
 42
0.4142135623731054
  0
VERTEX
  5
14F0
  8
SAPA_PROFIL
 10
15.49998799999638
 20
123.99999992802201
 30
0.0
  0
VERTEX
  5
14F1
  8
SAPA_PROFIL
 10
11.89997599999632
 20
123.99999992802189
 30
0.0
 42
0.414213562373095
  0
VERTEX
  5
14F2
  8
SAPA_PROFIL
 10
11.59997599999633
 20
123.699999928022
 30
0.0
  0
VERTEX
  5
14F3
  8
SAPA_PROFIL
 10
11.599975999996429
 20
123.24999992802189
 30
0.0
  0
VERTEX
  5
14F4
  8
SAPA_PROFIL
 10
12.459800737565409
 20
121.7607397969478
 30
0.0
 42
-0.1316363093594254
  0
VERTEX
  5
14F5
  8
SAPA_PROFIL
 10
12.49999311582237
 20
121.610758891901
 30
0.0
  0
VERTEX
  5
14F6
  8
SAPA_PROFIL
 10
12.50000016561318
 20
121.4999999280153
 30
0.0
  0
VERTEX
  5
14F7
  8
SAPA_PROFIL
 10
10.50000000000005
 20
121.4999999280153
 30
0.0
 42
-0.4142135623730951
  0
VERTEX
  5
14F8
  8
SAPA_PROFIL
 10
10.00000000000005
 20
121.9999999280154
 30
0.0
  0
VERTEX
  5
14F9
  8
SAPA_PROFIL
 10
10.00000000000005
 20
129.14999992829331
 30
0.0
 42
-0.4142135623730935
  0
VERTEX
  5
14FA
  8
SAPA_PROFIL
 10
10.29999999999932
 20
129.44999992828889
 30
0.0
  0
VERTEX
  5
14FB
  8
SAPA_PROFIL
 10
10.950000000000781
 20
129.44999992829261
 30
0.0
 42
0.4142135623730951
  0
VERTEX
  5
14FC
  8
SAPA_PROFIL
 10
11.25000000000005
 20
129.7499999282918
 30
0.0
  0
VERTEX
  5
14FD
  8
SAPA_PROFIL
 10
11.250000000003689
 20
130.44999992817981
 30
0.0
 42
0.4142135623730971
  0
VERTEX
  5
14FE
  8
SAPA_PROFIL
 10
10.950000000000781
 20
130.74999992817541
 30
0.0
  0
VERTEX
  5
14FF
  8
SAPA_PROFIL
 10
-0.9500000000043016
 20
130.7499999281936
 30
0.0
 42
0.4142135623730881
  0
VERTEX
  5
1500
  8
SAPA_PROFIL
 10
-1.250000000003574
 20
130.4499999281943
 30
0.0
  0
VERTEX
  5
1501
  8
SAPA_PROFIL
 10
-1.250000000014502
 20
129.749999927717
 30
0.0
 42
0.4142135623730968
  0
VERTEX
  5
1502
  8
SAPA_PROFIL
 10
-0.9500000000043016
 20
129.44999992770681
 30
0.0
  0
VERTEX
  5
1503
  8
SAPA_PROFIL
 10
-0.2999999999919325
 20
129.44999992772139
 30
0.0
 42
-0.4142135623517844
  0
VERTEX
  5
1504
  8
SAPA_PROFIL
 10
-0.0000000000035776
 20
129.14999992771851
 30
0.0
  0
VERTEX
  5
1505
  8
SAPA_PROFIL
 10
-0.0000000000035776
 20
127.1999999277069
 30
0.0
 42
-0.414213562373103
  0
VERTEX
  5
1506
  8
SAPA_PROFIL
 10
-0.2000000000043052
 20
126.999999927717
 30
0.0
  0
VERTEX
  5
1507
  8
SAPA_PROFIL
 10
-1.3000000000028491
 20
126.999999927717
 30
0.0
 42
-0.4142135623731049
  0
VERTEX
  5
1508
  8
SAPA_PROFIL
 10
-1.5000000000035769
 20
127.1999999277069
 30
0.0
  0
VERTEX
  5
1509
  8
SAPA_PROFIL
 10
-1.5000000000035769
 20
127.999999927717
 30
0.0
 42
0.414213562373094
  0
VERTEX
  5
150A
  8
SAPA_PROFIL
 10
-2.0000000000035771
 20
128.499999927717
 30
0.0
  0
VERTEX
  5
150B
  8
SAPA_PROFIL
 10
-3.0000000000145048
 20
128.49999992819721
 30
0.0
 42
0.4142135623730951
  0
VERTEX
  5
150C
  8
SAPA_PROFIL
 10
-3.5000000000144911
 20
127.9999999281972
 30
0.0
  0
VERTEX
  5
150D
  8
SAPA_PROFIL
 10
-3.5000000000035771
 20
127.1999999281943
 30
0.0
 42
-0.414213562373103
  0
VERTEX
  5
150E
  8
SAPA_PROFIL
 10
-3.7000000000043052
 20
126.9999999281972
 30
0.0
  0
VERTEX
  5
150F
  8
SAPA_PROFIL
 10
-4.8000000000028642
 20
126.9999999282045
 30
0.0
 42
-0.4142135623731049
  0
VERTEX
  5
1510
  8
SAPA_PROFIL
 10
-5.0000000000035909
 20
127.1999999281943
 30
0.0
  0
VERTEX
  5
1511
  8
SAPA_PROFIL
 10
-5.0000000000035882
 20
130.7499999276952
 30
0.0
 42
-0.3389652260127085
  0
VERTEX
  5
1512
  8
SAPA_PROFIL
 10
-4.2605131488012091
 20
131.71547022724019
 30
0.0
 42
-0.0274862826960608
  0
VERTEX
  5
1513
  8
SAPA_PROFIL
 10
10.00000000017466
 20
132.4999999276761
 30
0.0
  0
VERTEX
  5
1514
  8
SAPA_PROFIL
 10
14.999999999901821
 20
132.4999999278335
 30
0.0
 42
-0.4142135623816193
  0
VERTEX
  5
1515
  8
SAPA_PROFIL
 10
17.999999999996412
 20
129.49999992783339
 30
0.0
  0
VERTEX
  5
1516
  8
SAPA_PROFIL
 10
17.999999999996412
 20
124.2438689689771
 30
0.0
 42
-0.2418327667412822
  0
VERTEX
  5
1517
  8
SAPA_PROFIL
 10
17.87472232503286
 20
123.99999992802751
 30
0.0
 42
0.2418327667543803
  0
SEQEND
  5
1518
  8
SAPA_PROFIL
  0
POLYLINE
  5
F8C
  8
SAPA_PROFIL
 66
     1
 10
0.0
 20
0.0
 30
0.0
 70
     1
  0
VERTEX
  5
1519
  8
SAPA_PROFIL
 10
17.74944465005694
 20
94.243868968975733
 30
0.0
  0
VERTEX
  5
151A
  8
SAPA_PROFIL
 10
17.749444650053299
 20
95.199999928011096
 30
0.0
 42
-0.2418327667557183
  0
VERTEX
  5
151B
  8
SAPA_PROFIL
 10
17.874722325030241
 20
95.443868968977668
 30
0.0
 42
0.2418327667535164
  0
VERTEX
  5
151C
  8
SAPA_PROFIL
 10
18.000000000004452
 20
95.68773800993641
 30
0.0
  0
VERTEX
  5
151D
  8
SAPA_PROFIL
 10
17.999999999995989
 20
97.911541887569228
 30
0.0
 42
0.0874886635239214
  0
VERTEX
  5
151E
  8
SAPA_PROFIL
 10
17.981907786232188
 20
98.014147930564619
 30
0.0
  0
VERTEX
  5
151F
  8
SAPA_PROFIL
 10
17.462393718556839
 20
99.441501100610054
 30
0.0
 42
0.4142135623698208
  0
VERTEX
  5
1520
  8
SAPA_PROFIL
 10
17.077879889314669
 20
99.620802843847457
 30
0.0
  0
VERTEX
  5
1521
  8
SAPA_PROFIL
 10
16.889941365165971
 20
99.552398815176389
 30
0.0
 42
0.4142135623730019
  0
VERTEX
  5
1522
  8
SAPA_PROFIL
 10
16.710639621923448
 20
99.167884985954757
 30
0.0
  0
VERTEX
  5
1523
  8
SAPA_PROFIL
 10
17.08686177959013
 20
98.134223103085603
 30
0.0
 42
-0.41421356237947
  0
VERTEX
  5
1524
  8
SAPA_PROFIL
 10
16.907560036338982
 20
97.749709273854052
 30
0.0
  0
VERTEX
  5
1525
  8
SAPA_PROFIL
 10
15.09736995700006
 20
97.090853966618226
 30
0.0
 42
0.3152987888800591
  0
VERTEX
  5
1526
  8
SAPA_PROFIL
 10
14.89997599999673
 20
96.808946180382023
 30
0.0
  0
VERTEX
  5
1527
  8
SAPA_PROFIL
 10
14.89997599999683
 20
96.389230412562668
 30
0.0
 42
0.1316524975873855
  0
VERTEX
  5
1528
  8
SAPA_PROFIL
 10
14.94016837886147
 20
96.239230412562762
 30
0.0
  0
VERTEX
  5
1529
  8
SAPA_PROFIL
 10
15.79997599999678
 20
94.749999928021865
 30
0.0
  0
VERTEX
  5
152A
  8
SAPA_PROFIL
 10
15.799987999996439
 20
94.299999928021919
 30
0.0
 42
-0.4142135623731054
  0
VERTEX
  5
152B
  8
SAPA_PROFIL
 10
15.49998799999644
 20
93.999999928021907
 30
0.0
  0
VERTEX
  5
152C
  8
SAPA_PROFIL
 10
11.89997599999637
 20
93.999999928021964
 30
0.0
 42
-0.414213562373095
  0
VERTEX
  5
152D
  8
SAPA_PROFIL
 10
11.59997599999638
 20
94.299999928021961
 30
0.0
  0
VERTEX
  5
152E
  8
SAPA_PROFIL
 10
11.59997599999647
 20
94.749999928021964
 30
0.0
  0
VERTEX
  5
152F
  8
SAPA_PROFIL
 10
12.459800737565461
 20
96.239260059096154
 30
0.0
 42
0.1316363093594254
  0
VERTEX
  5
1530
  8
SAPA_PROFIL
 10
12.49999311582242
 20
96.389240964142886
 30
0.0
  0
VERTEX
  5
1531
  8
SAPA_PROFIL
 10
12.50000016561323
 20
96.499999928028572
 30
0.0
  0
VERTEX
  5
1532
  8
SAPA_PROFIL
 10
10.500000000000099
 20
96.499999928028572
 30
0.0
 42
0.4142135623730951
  0
VERTEX
  5
1533
  8
SAPA_PROFIL
 10
10.000000000000099
 20
95.999999928028544
 30
0.0
  0
VERTEX
  5
1534
  8
SAPA_PROFIL
 10
10.000000000000099
 20
88.849999927750616
 30
0.0
 42
0.4142135623730935
  0
VERTEX
  5
1535
  8
SAPA_PROFIL
 10
10.29999999999937
 20
88.549999927754982
 30
0.0
  0
VERTEX
  5
1536
  8
SAPA_PROFIL
 10
10.950000000000831
 20
88.549999927751358
 30
0.0
 42
-0.4142135623730951
  0
VERTEX
  5
1537
  8
SAPA_PROFIL
 10
11.250000000000091
 20
88.249999927752086
 30
0.0
  0
VERTEX
  5
1538
  8
SAPA_PROFIL
 10
11.250000000003739
 20
87.549999927864135
 30
0.0
 42
-0.4142135623730971
  0
VERTEX
  5
1539
  8
SAPA_PROFIL
 10
10.950000000000831
 20
87.249999927868487
 30
0.0
  0
VERTEX
  5
153A
  8
SAPA_PROFIL
 10
-0.9500000000042589
 20
87.249999927850311
 30
0.0
 42
-0.4142135623730881
  0
VERTEX
  5
153B
  8
SAPA_PROFIL
 10
-1.250000000003531
 20
87.549999927849569
 30
0.0
  0
VERTEX
  5
153C
  8
SAPA_PROFIL
 10
-1.250000000014452
 20
88.249999928326886
 30
0.0
 42
-0.4142135623730968
  0
VERTEX
  5
153D
  8
SAPA_PROFIL
 10
-0.9500000000042589
 20
88.549999928337073
 30
0.0
  0
VERTEX
  5
153E
  8
SAPA_PROFIL
 10
-0.2999999999918899
 20
88.549999928322535
 30
0.0
 42
0.4142135623517844
  0
VERTEX
  5
153F
  8
SAPA_PROFIL
 10
-0.0000000000035314
 20
88.849999928325431
 30
0.0
  0
VERTEX
  5
1540
  8
SAPA_PROFIL
 10
-0.0000000000035314
 20
90.799999928337073
 30
0.0
 42
0.414213562373103
  0
VERTEX
  5
1541
  8
SAPA_PROFIL
 10
-0.200000000004259
 20
90.999999928326886
 30
0.0
  0
VERTEX
  5
1542
  8
SAPA_PROFIL
 10
-1.3000000000028029
 20
90.999999928326886
 30
0.0
 42
0.4142135623731049
  0
VERTEX
  5
1543
  8
SAPA_PROFIL
 10
-1.500000000003531
 20
90.799999928337073
 30
0.0
  0
VERTEX
  5
1544
  8
SAPA_PROFIL
 10
-1.500000000003531
 20
89.999999928326886
 30
0.0
 42
-0.414213562373094
  0
VERTEX
  5
1545
  8
SAPA_PROFIL
 10
-2.000000000003531
 20
89.499999928326886
 30
0.0
  0
VERTEX
  5
1546
  8
SAPA_PROFIL
 10
-3.000000000014452
 20
89.499999927846702
 30
0.0
 42
-0.4142135623730951
  0
VERTEX
  5
1547
  8
SAPA_PROFIL
 10
-3.5000000000144378
 20
89.999999927846716
 30
0.0
  0
VERTEX
  5
1548
  8
SAPA_PROFIL
 10
-3.500000000003531
 20
90.799999927849598
 30
0.0
 42
0.414213562373103
  0
VERTEX
  5
1549
  8
SAPA_PROFIL
 10
-3.7000000000042581
 20
90.999999927846702
 30
0.0
  0
VERTEX
  5
154A
  8
SAPA_PROFIL
 10
-4.80000000000281
 20
90.999999927839426
 30
0.0
 42
0.4142135623731049
  0
VERTEX
  5
154B
  8
SAPA_PROFIL
 10
-5.0000000000035447
 20
90.799999927849598
 30
0.0
  0
VERTEX
  5
154C
  8
SAPA_PROFIL
 10
-5.0000000000035447
 20
87.249999928348743
 30
0.0
 42
0.3389652260127085
  0
VERTEX
  5
154D
  8
SAPA_PROFIL
 10
-4.2605131488011594
 20
86.284529628803725
 30
0.0
 42
0.0274862826960608
  0
VERTEX
  5
154E
  8
SAPA_PROFIL
 10
10.00000000017471
 20
85.499999928367828
 30
0.0
  0
VERTEX
  5
154F
  8
SAPA_PROFIL
 10
14.99999999990187
 20
85.499999928210485
 30
0.0
 42
0.4142135623816193
  0
VERTEX
  5
1550
  8
SAPA_PROFIL
 10
17.999999999996461
 20
88.499999928210457
 30
0.0
  0
VERTEX
  5
1551
  8
SAPA_PROFIL
 10
17.999999999996469
 20
93.756130887066846
 30
0.0
 42
0.2418327667412822
  0
VERTEX
  5
1552
  8
SAPA_PROFIL
 10
17.874722325032909
 20
93.999999928016422
 30
0.0
 42
-0.2418327667543803
  0
SEQEND
  5
1553
  8
SAPA_PROFIL
  0
POLYLINE
  5
F8D
  8
SAPA_PROFIL
 62
     4
 66
     1
 10
0.0
 20
0.0
 30
-0.2
 70
     1
  0
VERTEX
  5
1554
  8
SAPA_PROFIL
 62
     4
 10
36.592264973109813
 20
96.456217710565625
 30
-0.2
  0
VERTEX
  5
1555
  8
SAPA_PROFIL
 62
     4
 10
35.599444650080379
 20
94.736602468291579
 30
-0.2
  0
VERTEX
  5
1556
  8
SAPA_PROFIL
 62
     4
 10
35.599444650080287
 20
94.29999992791312
 30
-0.2
 42
0.4142135623730951
  0
VERTEX
  5
1557
  8
SAPA_PROFIL
 62
     4
 10
35.849444650080279
 20
94.049999927913134
 30
-0.2
  0
VERTEX
  5
1558
  8
SAPA_PROFIL
 62
     4
 10
39.44945665008035
 20
94.049999927913078
 30
-0.2
 42
0.4142135623731053
  0
VERTEX
  5
1559
  8
SAPA_PROFIL
 62
     4
 10
39.69945665008035
 20
94.299999927913092
 30
-0.2
  0
VERTEX
  5
155A
  8
SAPA_PROFIL
 62
     4
 10
39.699445007344991
 20
94.736601849491549
 30
-0.2
  0
VERTEX
  5
155B
  8
SAPA_PROFIL
 62
     4
 10
38.706624327054719
 20
96.456217710558946
 30
-0.2
 42
-0.1316524975874149
  0
VERTEX
  5
155C
  8
SAPA_PROFIL
 62
     4
 10
38.599444650082219
 20
96.856217710558994
 30
-0.2
  0
VERTEX
  5
155D
  8
SAPA_PROFIL
 62
     4
 10
38.599444650082219
 20
121.14378214526729
 30
-0.2
 42
-0.1316524975874152
  0
VERTEX
  5
155E
  8
SAPA_PROFIL
 62
     4
 10
38.706624327054719
 20
121.5437821452673
 30
-0.2
  0
VERTEX
  5
155F
  8
SAPA_PROFIL
 62
     4
 10
39.699445007344991
 20
123.2633980063347
 30
-0.2
  0
VERTEX
  5
1560
  8
SAPA_PROFIL
 62
     4
 10
39.69945665008035
 20
123.6999999279132
 30
-0.2
 42
0.4142135623731045
  0
VERTEX
  5
1561
  8
SAPA_PROFIL
 62
     4
 10
39.44945665008035
 20
123.9499999279132
 30
-0.2
  0
VERTEX
  5
1562
  8
SAPA_PROFIL
 62
     4
 10
35.849444650080287
 20
123.9499999279131
 30
-0.2
 42
0.4142135623730935
  0
VERTEX
  5
1563
  8
SAPA_PROFIL
 62
     4
 10
35.599444650080287
 20
123.6999999279131
 30
-0.2
  0
VERTEX
  5
1564
  8
SAPA_PROFIL
 62
     4
 10
35.599444650080393
 20
123.2633973875347
 30
-0.2
  0
VERTEX
  5
1565
  8
SAPA_PROFIL
 62
     4
 10
36.59226497310982
 20
121.54378214526059
 30
-0.2
 42
-0.1316524975873982
  0
VERTEX
  5
1566
  8
SAPA_PROFIL
 62
     4
 10
36.699444650082249
 20
121.1437821452606
 30
-0.2
  0
VERTEX
  5
1567
  8
SAPA_PROFIL
 62
     4
 10
36.699444650082242
 20
96.85621771056563
 30
-0.2
 42
-0.1316524975873979
  0
SEQEND
  5
1568
  8
SAPA_PROFIL
 62
     4
  0
POLYLINE
  5
F8E
  8
SAPA_PROFIL
 66
     1
 10
0.0
 20
0.0
 30
0.0
 70
     1
  0
VERTEX
  5
1569
  8
SAPA_PROFIL
 10
2.0000000000204921
 20
161.49999992758569
 30
0.0
  0
VERTEX
  5
156A
  8
SAPA_PROFIL
 10
2.0000000000204921
 20
160.71146095297411
 30
0.0
 42
-0.0577043334240353
  0
VERTEX
  5
156B
  8
SAPA_PROFIL
 10
1.7353819713036669
 20
158.42621744873659
 30
0.0
 42
0.1123270377207732
  0
VERTEX
  5
156C
  8
SAPA_PROFIL
 10
1.583516054202867
 20
136.24125202250619
 30
0.0
 42
0.3636666106259163
  0
VERTEX
  5
156D
  8
SAPA_PROFIL
 10
4.637004045830202
 20
133.88933079964289
 30
0.0
 42
-0.0360286231067385
  0
VERTEX
  5
156E
  8
SAPA_PROFIL
 10
23.338749150973729
 20
133.3138730081038
 30
0.0
 42
-0.0472456768419823
  0
VERTEX
  5
156F
  8
SAPA_PROFIL
 10
25.187819206581509
 20
132.9444200513345
 30
0.0
 42
-0.0120164869908705
  0
VERTEX
  5
1570
  8
SAPA_PROFIL
 10
26.329931278357229
 20
132.57142849920061
 30
0.0
 42
0.0851278882549297
  0
VERTEX
  5
1571
  8
SAPA_PROFIL
 10
29.661903789720359
 20
131.99999992776401
 30
0.0
  0
VERTEX
  5
1572
  8
SAPA_PROFIL
 10
37.000000000049589
 20
131.99999992776401
 30
0.0
 42
-0.4142135623730951
  0
VERTEX
  5
1573
  8
SAPA_PROFIL
 10
42.000000000049589
 20
126.99999992776399
 30
0.0
  0
VERTEX
  5
1574
  8
SAPA_PROFIL
 10
42.000000000038668
 20
124.24386896886389
 30
0.0
 42
-0.2418327667382071
  0
VERTEX
  5
1575
  8
SAPA_PROFIL
 10
41.87472232507249
 20
123.9999999278986
 30
0.0
 42
0.2418327667526432
  0
VERTEX
  5
1576
  8
SAPA_PROFIL
 10
41.749444650079127
 20
123.7561308869623
 30
0.0
  0
VERTEX
  5
1577
  8
SAPA_PROFIL
 10
41.749444650079127
 20
122.7999999279124
 30
0.0
 42
0.3178606011753677
  0
VERTEX
  5
1578
  8
SAPA_PROFIL
 10
41.94946865008037
 20
122.5171487313022
 30
0.0
  0
VERTEX
  5
1579
  8
SAPA_PROFIL
 10
41.94946865008037
 20
120.2141894902868
 30
0.0
 42
-0.6681786379192716
  0
VERTEX
  5
157A
  8
SAPA_PROFIL
 10
40.24236186889388
 20
119.5070827091002
 30
0.0
  0
VERTEX
  5
157B
  8
SAPA_PROFIL
 10
38.937312615724707
 20
120.81213196226921
 30
0.0
 42
-0.1989123673797335
  0
VERTEX
  5
157C
  8
SAPA_PROFIL
 10
38.849444650080599
 20
121.02426399662519
 30
0.0
  0
VERTEX
  5
157D
  8
SAPA_PROFIL
 10
38.849444650080741
 20
121.6107694433724
 30
0.0
 42
-0.1316524975873855
  0
VERTEX
  5
157E
  8
SAPA_PROFIL
 10
38.889637028945387
 20
121.7607694433723
 30
0.0
  0
VERTEX
  5
157F
  8
SAPA_PROFIL
 10
39.74944465008069
 20
123.24999992791319
 30
0.0
  0
VERTEX
  5
1580
  8
SAPA_PROFIL
 10
39.749456650080361
 20
123.6999999279132
 30
0.0
 42
0.4142135623731054
  0
VERTEX
  5
1581
  8
SAPA_PROFIL
 10
39.44945665008035
 20
123.99999992791319
 30
0.0
  0
VERTEX
  5
1582
  8
SAPA_PROFIL
 10
35.849444650080287
 20
123.99999992791309
 30
0.0
 42
0.4142135623730951
  0
VERTEX
  5
1583
  8
SAPA_PROFIL
 10
35.549444650080289
 20
123.6999999279131
 30
0.0
  0
VERTEX
  5
1584
  8
SAPA_PROFIL
 10
35.549444650080389
 20
123.24999992791309
 30
0.0
  0
VERTEX
  5
1585
  8
SAPA_PROFIL
 10
36.409269387649381
 20
121.76073979683891
 30
0.0
 42
-0.1316363093594254
  0
VERTEX
  5
1586
  8
SAPA_PROFIL
 10
36.449461765906342
 20
121.6107588917922
 30
0.0
  0
VERTEX
  5
1587
  8
SAPA_PROFIL
 10
36.449468650080242
 20
121.4999999279064
 30
0.0
  0
VERTEX
  5
1588
  8
SAPA_PROFIL
 10
34.000000000020478
 20
121.49999992791309
 30
0.0
  0
VERTEX
  5
1589
  8
SAPA_PROFIL
 10
31.550531349960728
 20
121.5026019279133
 30
0.0
  0
VERTEX
  5
158A
  8
SAPA_PROFIL
 10
31.550538234134638
 20
121.6107588917922
 30
0.0
 42
-0.1316363093594255
  0
VERTEX
  5
158B
  8
SAPA_PROFIL
 10
31.59073061239161
 20
121.76073979683891
 30
0.0
  0
VERTEX
  5
158C
  8
SAPA_PROFIL
 10
32.450555349960581
 20
123.24999992791309
 30
0.0
  0
VERTEX
  5
158D
  8
SAPA_PROFIL
 10
32.45055534996068
 20
123.6999999279131
 30
0.0
 42
0.4142135623730951
  0
VERTEX
  5
158E
  8
SAPA_PROFIL
 10
32.150555349960683
 20
123.99999992791309
 30
0.0
  0
VERTEX
  5
158F
  8
SAPA_PROFIL
 10
28.55054334996063
 20
123.99999992791319
 30
0.0
 42
0.4142135623731054
  0
VERTEX
  5
1590
  8
SAPA_PROFIL
 10
28.250543349960619
 20
123.6999999279132
 30
0.0
  0
VERTEX
  5
1591
  8
SAPA_PROFIL
 10
28.25055534996028
 20
123.24999992791319
 30
0.0
  0
VERTEX
  5
1592
  8
SAPA_PROFIL
 10
29.11036297109559
 20
121.7607694433723
 30
0.0
 42
-0.1316524975873855
  0
VERTEX
  5
1593
  8
SAPA_PROFIL
 10
29.150555349960229
 20
121.6107694433724
 30
0.0
  0
VERTEX
  5
1594
  8
SAPA_PROFIL
 10
29.150555349960381
 20
121.02426399662519
 30
0.0
 42
-0.1989123673797335
  0
VERTEX
  5
1595
  8
SAPA_PROFIL
 10
29.062687384316259
 20
120.81213196226921
 30
0.0
  0
VERTEX
  5
1596
  8
SAPA_PROFIL
 10
27.75763813114709
 20
119.5070827091002
 30
0.0
 42
-0.6681786379192716
  0
VERTEX
  5
1597
  8
SAPA_PROFIL
 10
26.05053134996059
 20
120.2141894902868
 30
0.0
  0
VERTEX
  5
1598
  8
SAPA_PROFIL
 10
26.05053134996059
 20
122.5171487313026
 30
0.0
 42
0.3178606011750261
  0
VERTEX
  5
1599
  8
SAPA_PROFIL
 10
26.25055534996002
 20
122.7999999279124
 30
0.0
  0
VERTEX
  5
159A
  8
SAPA_PROFIL
 10
26.25055534996002
 20
123.7561308869623
 30
0.0
 42
0.2418327667543857
  0
VERTEX
  5
159B
  8
SAPA_PROFIL
 10
26.12527767497917
 20
123.99999992791319
 30
0.0
 42
-0.2418327667380065
  0
VERTEX
  5
159C
  8
SAPA_PROFIL
 10
25.99999999997587
 20
124.2438689688635
 30
0.0
  0
VERTEX
  5
159D
  8
SAPA_PROFIL
 10
26.000000000020488
 20
124.9999999275857
 30
0.0
 42
-0.4142135623523161
  0
VERTEX
  5
159E
  8
SAPA_PROFIL
 10
26.999999999949541
 20
125.9999999275857
 30
0.0
  0
VERTEX
  5
159F
  8
SAPA_PROFIL
 10
29.500000000178741
 20
125.99999992776399
 30
0.0
 42
0.9999999999627103
  0
VERTEX
  5
15A0
  8
SAPA_PROFIL
 10
29.500000000029591
 20
129.99999992776401
 30
0.0
  0
VERTEX
  5
15A1
  8
SAPA_PROFIL
 10
21.50000000002958
 20
129.99999992776401
 30
0.0
 42
0.4142135623752261
  0
VERTEX
  5
15A2
  8
SAPA_PROFIL
 10
19.50000000002958
 20
127.999999927753
 30
0.0
  0
VERTEX
  5
15A3
  8
SAPA_PROFIL
 10
19.50000000004777
 20
126.29999992757411
 30
0.0
 42
0.4142135623715025
  0
VERTEX
  5
15A4
  8
SAPA_PROFIL
 10
19.800000000059779
 20
125.9999999275857
 30
0.0
  0
VERTEX
  5
15A5
  8
SAPA_PROFIL
 10
20.70000000005032
 20
125.9999999275784
 30
0.0
 42
-0.4142135623730888
  0
VERTEX
  5
15A6
  8
SAPA_PROFIL
 10
21.00000000006051
 20
125.6999999275755
 30
0.0
  0
VERTEX
  5
15A7
  8
SAPA_PROFIL
 10
21.00000000006051
 20
125.29999992757411
 30
0.0
 42
-0.4142135623730982
  0
VERTEX
  5
15A8
  8
SAPA_PROFIL
 10
20.70000000005032
 20
124.99999992756391
 30
0.0
  0
VERTEX
  5
15A9
  8
SAPA_PROFIL
 10
18.30000000003977
 20
124.9999999275821
 30
0.0
 42
-0.4142135623624388
  0
VERTEX
  5
15AA
  8
SAPA_PROFIL
 10
18.000000000038678
 20
125.29999992757411
 30
0.0
  0
VERTEX
  5
15AB
  8
SAPA_PROFIL
 10
18.000000000038678
 20
129.49999992758569
 30
0.0
 42
0.4142135623730951
  0
VERTEX
  5
15AC
  8
SAPA_PROFIL
 10
15.00000000002958
 20
132.49999992757481
 30
0.0
  0
VERTEX
  5
15AD
  8
SAPA_PROFIL
 10
10.00000000003867
 20
132.49999992757481
 30
0.0
 42
0.0279290488515987
  0
VERTEX
  5
15AE
  8
SAPA_PROFIL
 10
-4.4891640866531466
 20
131.69003098287499
 30
0.0
 42
0.3661896282372441
  0
VERTEX
  5
15AF
  8
SAPA_PROFIL
 10
-5.1987897655194848
 20
130.93900302266309
 30
0.0
 42
-0.3981911081684388
  0
VERTEX
  5
15B0
  8
SAPA_PROFIL
 10
-5.3984872069099552
 20
130.74999992685241
 30
0.0
  0
VERTEX
  5
15B1
  8
SAPA_PROFIL
 10
-6.2999999999696916
 20
130.74999992685079
 30
0.0
 42
-0.414213562389099
  0
VERTEX
  5
15B2
  8
SAPA_PROFIL
 10
-6.4999999999667821
 20
130.9499999268624
 30
0.0
  0
VERTEX
  5
15B3
  8
SAPA_PROFIL
 10
-6.4999999999795151
 20
131.17605899533331
 30
0.0
 42
-0.3813405017903993
  0
VERTEX
  5
15B4
  8
SAPA_PROFIL
 10
-4.7265624999795071
 20
133.1631849182485
 30
0.0
 42
-0.0014144096544681
  0
VERTEX
  5
15B5
  8
SAPA_PROFIL
 10
-3.9955725729433591
 20
133.24443481107491
 30
0.0
 42
0.309186963272042
  0
VERTEX
  5
15B6
  8
SAPA_PROFIL
 10
-3.1377397825616811
 20
133.97818650342759
 30
0.0
 42
0.1241407988373373
  0
VERTEX
  5
15B7
  8
SAPA_PROFIL
 10
-2.7353819712560248
 20
158.42621744871931
 30
0.0
 42
-0.0577043334222099
  0
VERTEX
  5
15B8
  8
SAPA_PROFIL
 10
-2.9999999999795
 20
160.7114609528758
 30
0.0
  0
VERTEX
  5
15B9
  8
SAPA_PROFIL
 10
-2.9999999999795
 20
161.49999992758561
 30
0.0
 42
-0.4142135623730951
  0
VERTEX
  5
15BA
  8
SAPA_PROFIL
 10
-1.9999999999795
 20
162.49999992758561
 30
0.0
  0
VERTEX
  5
15BB
  8
SAPA_PROFIL
 10
1.0000000000204841
 20
162.49999992758569
 30
0.0
 42
-0.4142135623730951
  0
SEQEND
  5
15BC
  8
SAPA_PROFIL
  0
POLYLINE
  5
F8F
  8
SAPA_PROFIL
 66
     1
 10
0.0
 20
0.0
 30
0.0
 70
     1
  0
VERTEX
  5
15BD
  8
SAPA_PROFIL
 10
20.70000000005032
 20
92.999999928262667
 30
0.0
  0
VERTEX
  5
15BE
  8
SAPA_PROFIL
 10
18.300000000041582
 20
92.999999928240825
 30
0.0
 42
0.4142135623656343
  0
VERTEX
  5
15BF
  8
SAPA_PROFIL
 10
18.00000000004049
 20
92.699999928252481
 30
0.0
  0
VERTEX
  5
15C0
  8
SAPA_PROFIL
 10
18.00000000004049
 20
88.49999992824084
 30
0.0
 42
-0.4142135623730959
  0
VERTEX
  5
15C1
  8
SAPA_PROFIL
 10
15.00000000002958
 20
85.499999928251754
 30
0.0
  0
VERTEX
  5
15C2
  8
SAPA_PROFIL
 10
10.00000000004052
 20
85.499999928251754
 30
0.0
 42
-0.0279290488516059
  0
VERTEX
  5
15C3
  8
SAPA_PROFIL
 10
-4.4891640866516971
 20
86.309968872948133
 30
0.0
 42
-0.3661896282372283
  0
VERTEX
  5
15C4
  8
SAPA_PROFIL
 10
-5.1987897655195141
 20
87.060996833164126
 30
0.0
 42
0.3981911081684177
  0
VERTEX
  5
15C5
  8
SAPA_PROFIL
 10
-5.3984872069081504
 20
87.249999928972258
 30
0.0
  0
VERTEX
  5
15C6
  8
SAPA_PROFIL
 10
-6.2999999999697058
 20
87.249999928975697
 30
0.0
 42
0.4142135623890976
  0
VERTEX
  5
15C7
  8
SAPA_PROFIL
 10
-6.4999999999704343
 20
87.04999992896407
 30
0.0
  0
VERTEX
  5
15C8
  8
SAPA_PROFIL
 10
-6.4999999999777236
 20
86.823940860493124
 30
0.0
 42
0.3813405017904005
  0
VERTEX
  5
15C9
  8
SAPA_PROFIL
 10
-4.7265624999777174
 20
84.836814937581636
 30
0.0
 42
0.0541306776717632
  0
VERTEX
  5
15CA
  8
SAPA_PROFIL
 10
23.33874915109195
 20
84.686126847730606
 30
0.0
 42
0.0472456768419794
  0
VERTEX
  5
15CB
  8
SAPA_PROFIL
 10
25.187819206586362
 20
85.055579804499388
 30
0.0
 42
0.0120164869908679
  0
VERTEX
  5
15CC
  8
SAPA_PROFIL
 10
26.32993127835578
 20
85.42857135663057
 30
0.0
 42
-0.0851278882549295
  0
VERTEX
  5
15CD
  8
SAPA_PROFIL
 10
29.661903789722171
 20
85.999999928066217
 30
0.0
  0
VERTEX
  5
15CE
  8
SAPA_PROFIL
 10
37.000000000051408
 20
85.999999928066217
 30
0.0
 42
0.4142135623730951
  0
VERTEX
  5
15CF
  8
SAPA_PROFIL
 10
42.000000000051401
 20
90.999999928066217
 30
0.0
  0
VERTEX
  5
15D0
  8
SAPA_PROFIL
 10
42.000000000040487
 20
93.756130886966247
 30
0.0
 42
0.2418327667382104
  0
VERTEX
  5
15D1
  8
SAPA_PROFIL
 10
41.87472232507141
 20
93.999999927930077
 30
0.0
 42
-0.241832766754381
  0
VERTEX
  5
15D2
  8
SAPA_PROFIL
 10
41.749444650080953
 20
94.243868968864234
 30
0.0
  0
VERTEX
  5
15D3
  8
SAPA_PROFIL
 10
41.749444650080953
 20
95.199999927914149
 30
0.0
 42
-0.3178606011698609
  0
VERTEX
  5
15D4
  8
SAPA_PROFIL
 10
41.949468650075069
 20
95.482851124522071
 30
0.0
  0
VERTEX
  5
15D5
  8
SAPA_PROFIL
 10
41.949468650075069
 20
97.785810365546965
 30
0.0
 42
0.6681786379192716
  0
VERTEX
  5
15D6
  8
SAPA_PROFIL
 10
40.242361868888267
 20
98.492917146732836
 30
0.0
  0
VERTEX
  5
15D7
  8
SAPA_PROFIL
 10
38.937312615719677
 20
97.187867893563265
 30
0.0
 42
0.1989123673797334
  0
VERTEX
  5
15D8
  8
SAPA_PROFIL
 10
38.849444650075647
 20
96.975735859207163
 30
0.0
  0
VERTEX
  5
15D9
  8
SAPA_PROFIL
 10
38.849444650076052
 20
96.389230412459966
 30
0.0
 42
0.1316524975873855
  0
VERTEX
  5
15DA
  8
SAPA_PROFIL
 10
38.889637028940761
 20
96.239230412460074
 30
0.0
  0
VERTEX
  5
15DB
  8
SAPA_PROFIL
 10
39.749444650076732
 20
94.749999927919546
 30
0.0
  0
VERTEX
  5
15DC
  8
SAPA_PROFIL
 10
39.749456650076588
 20
94.299999927919615
 30
0.0
 42
-0.4142135623731054
  0
VERTEX
  5
15DD
  8
SAPA_PROFIL
 10
39.449456650076712
 20
93.999999927919475
 30
0.0
  0
VERTEX
  5
15DE
  8
SAPA_PROFIL
 10
35.849444650076649
 20
93.999999927917941
 30
0.0
 42
-0.4142135623730951
  0
VERTEX
  5
15DF
  8
SAPA_PROFIL
 10
35.549444650076531
 20
94.29999992791781
 30
0.0
  0
VERTEX
  5
15E0
  8
SAPA_PROFIL
 10
35.549444650076417
 20
94.749999927917784
 30
0.0
  0
VERTEX
  5
15E1
  8
SAPA_PROFIL
 10
36.409269387644748
 20
96.239260058992343
 30
0.0
 42
0.1316363093594257
  0
VERTEX
  5
15E2
  8
SAPA_PROFIL
 10
36.449461765901653
 20
96.389240964039104
 30
0.0
  0
VERTEX
  5
15E3
  8
SAPA_PROFIL
 10
36.449464137710272
 20
96.499999927924804
 30
0.0
  0
VERTEX
  5
15E4
  8
SAPA_PROFIL
 10
31.550536424988671
 20
96.499999927909315
 30
0.0
  0
VERTEX
  5
15E5
  8
SAPA_PROFIL
 10
31.550538234134631
 20
96.389240964034045
 30
0.0
 42
0.1316363093594255
  0
VERTEX
  5
15E6
  8
SAPA_PROFIL
 10
31.590730612391599
 20
96.239260058987313
 30
0.0
  0
VERTEX
  5
15E7
  8
SAPA_PROFIL
 10
32.450555349960581
 20
94.749999927913137
 30
0.0
  0
VERTEX
  5
15E8
  8
SAPA_PROFIL
 10
32.45055534996068
 20
94.299999927913134
 30
0.0
 42
-0.4142135623730951
  0
VERTEX
  5
15E9
  8
SAPA_PROFIL
 10
32.150555349960683
 20
93.999999927913123
 30
0.0
  0
VERTEX
  5
15EA
  8
SAPA_PROFIL
 10
28.55054334996062
 20
93.99999992791308
 30
0.0
 42
-0.4142135623731054
  0
VERTEX
  5
15EB
  8
SAPA_PROFIL
 10
28.250543349960619
 20
94.299999927913092
 30
0.0
  0
VERTEX
  5
15EC
  8
SAPA_PROFIL
 10
28.25055534996028
 20
94.749999927913024
 30
0.0
  0
VERTEX
  5
15ED
  8
SAPA_PROFIL
 10
29.11036297109559
 20
96.239230412453907
 30
0.0
 42
0.1316524975873855
  0
VERTEX
  5
15EE
  8
SAPA_PROFIL
 10
29.150555349960229
 20
96.389230412453841
 30
0.0
  0
VERTEX
  5
15EF
  8
SAPA_PROFIL
 10
29.150555349960371
 20
96.975735859201023
 30
0.0
 42
0.1989123673797335
  0
VERTEX
  5
15F0
  8
SAPA_PROFIL
 10
29.062687384316249
 20
97.187867893557112
 30
0.0
  0
VERTEX
  5
15F1
  8
SAPA_PROFIL
 10
27.757638131147079
 20
98.492917146726086
 30
0.0
 42
0.6681786379192716
  0
VERTEX
  5
15F2
  8
SAPA_PROFIL
 10
26.05053134996059
 20
97.785810365539476
 30
0.0
  0
VERTEX
  5
15F3
  8
SAPA_PROFIL
 10
26.05053134996059
 20
95.482851124527429
 30
0.0
 42
-0.3178606011758647
  0
VERTEX
  5
15F4
  8
SAPA_PROFIL
 10
26.250555349961839
 20
95.199999927914149
 30
0.0
  0
VERTEX
  5
15F5
  8
SAPA_PROFIL
 10
26.25055534996002
 20
94.243868968864234
 30
0.0
 42
-0.2418327667526379
  0
VERTEX
  5
15F6
  8
SAPA_PROFIL
 10
26.125277674981369
 20
93.999999927913592
 30
0.0
 42
0.2418327667380031
  0
VERTEX
  5
15F7
  8
SAPA_PROFIL
 10
25.9999999999777
 20
93.756130886962964
 30
0.0
  0
VERTEX
  5
15F8
  8
SAPA_PROFIL
 10
26.000000000022311
 20
92.999999928240825
 30
0.0
 42
0.4142135623709635
  0
VERTEX
  5
15F9
  8
SAPA_PROFIL
 10
27.0000000000223
 20
91.99999992824084
 30
0.0
  0
VERTEX
  5
15FA
  8
SAPA_PROFIL
 10
29.500000000178741
 20
91.999999928066217
 30
0.0
 42
-0.9999999999627103
  0
VERTEX
  5
15FB
  8
SAPA_PROFIL
 10
29.50000000002958
 20
87.999999928066217
 30
0.0
  0
VERTEX
  5
15FC
  8
SAPA_PROFIL
 10
21.500000000029591
 20
87.999999928066217
 30
0.0
 42
-0.4142135623752264
  0
VERTEX
  5
15FD
  8
SAPA_PROFIL
 10
19.50000000002958
 20
89.999999928073493
 30
0.0
  0
VERTEX
  5
15FE
  8
SAPA_PROFIL
 10
19.500000000051411
 20
91.699999928249184
 30
0.0
 42
-0.4142135623762961
  0
VERTEX
  5
15FF
  8
SAPA_PROFIL
 10
19.800000000059772
 20
91.99999992824084
 30
0.0
  0
VERTEX
  5
1600
  8
SAPA_PROFIL
 10
20.70000000005032
 20
91.999999928251739
 30
0.0
 42
0.4142135623730957
  0
VERTEX
  5
1601
  8
SAPA_PROFIL
 10
21.000000000060499
 20
92.299999928251026
 30
0.0
  0
VERTEX
  5
1602
  8
SAPA_PROFIL
 10
21.000000000060499
 20
92.699999928252481
 30
0.0
 42
0.4142135623730922
  0
SEQEND
  5
1603
  8
SAPA_PROFIL
  0
POLYLINE
  5
F90
  8
SAPA_PROFIL
 62
     4
 66
     1
 10
0.0
 20
0.0
 30
-0.2
 70
     1
  0
VERTEX
  5
F91
  8
SAPA_PROFIL
 62
     4
 10
31.300555349958721
 20
96.85621771056563
 30
-0.2
 42
0.1316524975873979
  0
VERTEX
  5
F92
  8
SAPA_PROFIL
 62
     4
 10
31.40773502693116
 20
96.456217710565625
 30
-0.2
  0
VERTEX
  5
F93
  8
SAPA_PROFIL
 62
     4
 10
32.400555349960577
 20
94.736602468291579
 30
-0.2
  0
VERTEX
  5
F94
  8
SAPA_PROFIL
 62
     4
 10
32.40055534996069
 20
94.29999992791312
 30
-0.2
 42
-0.4142135623730951
  0
VERTEX
  5
F95
  8
SAPA_PROFIL
 62
     4
 10
32.150555349960683
 20
94.049999927913134
 30
-0.2
  0
VERTEX
  5
F96
  8
SAPA_PROFIL
 62
     4
 10
28.55054334996062
 20
94.049999927913078
 30
-0.2
 42
-0.4142135623731053
  0
VERTEX
  5
F97
  8
SAPA_PROFIL
 62
     4
 10
28.300543349960609
 20
94.299999927913092
 30
-0.2
  0
VERTEX
  5
F98
  8
SAPA_PROFIL
 62
     4
 10
28.300554992695979
 20
94.736601849491549
 30
-0.2
  0
VERTEX
  5
F99
  8
SAPA_PROFIL
 62
     4
 10
29.293375672986251
 20
96.456217710558946
 30
-0.2
 42
0.1316524975874149
  0
VERTEX
  5
F9A
  8
SAPA_PROFIL
 62
     4
 10
29.40055534995874
 20
96.856217710558994
 30
-0.2
  0
VERTEX
  5
F9B
  8
SAPA_PROFIL
 62
     4
 10
29.40055534995874
 20
121.14378214526729
 30
-0.2
 42
0.1316524975874151
  0
VERTEX
  5
F9C
  8
SAPA_PROFIL
 62
     4
 10
29.293375672986251
 20
121.5437821452673
 30
-0.2
  0
VERTEX
  5
F9D
  8
SAPA_PROFIL
 62
     4
 10
28.300554992695979
 20
123.2633980063347
 30
-0.2
  0
VERTEX
  5
F9E
  8
SAPA_PROFIL
 62
     4
 10
28.300543349960609
 20
123.6999999279132
 30
-0.2
 42
-0.4142135623731054
  0
VERTEX
  5
F9F
  8
SAPA_PROFIL
 62
     4
 10
28.55054334996062
 20
123.9499999279132
 30
-0.2
  0
VERTEX
  5
FA0
  8
SAPA_PROFIL
 62
     4
 10
32.150555349960683
 20
123.9499999279131
 30
-0.2
 42
-0.4142135623730953
  0
VERTEX
  5
FA1
  8
SAPA_PROFIL
 62
     4
 10
32.40055534996069
 20
123.6999999279131
 30
-0.2
  0
VERTEX
  5
FA2
  8
SAPA_PROFIL
 62
     4
 10
32.400555349960577
 20
123.2633973875347
 30
-0.2
  0
VERTEX
  5
FA3
  8
SAPA_PROFIL
 62
     4
 10
31.40773502693116
 20
121.54378214526059
 30
-0.2
 42
0.1316524975873982
  0
VERTEX
  5
FA4
  8
SAPA_PROFIL
 62
     4
 10
31.300555349958721
 20
121.1437821452606
 30
-0.2
  0
SEQEND
  5
FA5
  8
SAPA_PROFIL
 62
     4
  0
POLYLINE
  5
FA6
  8
SAPA_PROFIL
 62
     4
 66
     1
 10
0.0
 20
0.0
 30
0.0
 70
     1
  0
VERTEX
  5
1604
  8
SAPA_PROFIL
 62
     4
 10
79.50925230370224
 20
64.725833080859388
 30
0.0
  0
VERTEX
  5
1605
  8
SAPA_PROFIL
 62
     4
 10
78.64944465005992
 20
63.236602540014189
 30
0.0
  0
VERTEX
  5
1606
  8
SAPA_PROFIL
 62
     4
 10
78.64944465005982
 20
62.79999999963573
 30
0.0
 42
0.4142135623730946
  0
VERTEX
  5
1607
  8
SAPA_PROFIL
 62
     4
 10
78.89944465005982
 20
62.549999999635759
 30
0.0
  0
VERTEX
  5
1608
  8
SAPA_PROFIL
 62
     4
 10
82.499456650059884
 20
62.549999999635702
 30
0.0
 42
0.414213562373107
  0
VERTEX
  5
1609
  8
SAPA_PROFIL
 62
     4
 10
82.749456650059884
 20
62.799999999635702
 30
0.0
  0
VERTEX
  5
160A
  8
SAPA_PROFIL
 62
     4
 10
82.749445007324525
 20
63.236601921214167
 30
0.0
  0
VERTEX
  5
160B
  8
SAPA_PROFIL
 62
     4
 10
81.889637061431529
 20
64.725832968251865
 30
0.0
 42
-0.1316524975874248
  0
VERTEX
  5
160C
  8
SAPA_PROFIL
 62
     4
 10
81.849444682566855
 20
64.875832968251899
 30
0.0
  0
VERTEX
  5
160D
  8
SAPA_PROFIL
 62
     4
 10
81.84944468256684
 20
88.124166959503157
 30
0.0
 42
-0.1316524975874248
  0
VERTEX
  5
160E
  8
SAPA_PROFIL
 62
     4
 10
81.889637061431529
 20
88.274166959503191
 30
0.0
  0
VERTEX
  5
160F
  8
SAPA_PROFIL
 62
     4
 10
82.749445007324496
 20
89.763398006540882
 30
0.0
  0
VERTEX
  5
1610
  8
SAPA_PROFIL
 62
     4
 10
82.749456650059855
 20
90.199999928119325
 30
0.0
 42
0.4142135623731049
  0
VERTEX
  5
1611
  8
SAPA_PROFIL
 62
     4
 10
82.499456650059855
 20
90.449999928119325
 30
0.0
  0
VERTEX
  5
1612
  8
SAPA_PROFIL
 62
     4
 10
78.899444650059806
 20
90.449999928119297
 30
0.0
 42
0.4142135623730951
  0
VERTEX
  5
1613
  8
SAPA_PROFIL
 62
     4
 10
78.649444650059806
 20
90.199999928119297
 30
0.0
  0
VERTEX
  5
1614
  8
SAPA_PROFIL
 62
     4
 10
78.649444650059905
 20
89.763397387740838
 30
0.0
  0
VERTEX
  5
1615
  8
SAPA_PROFIL
 62
     4
 10
79.509252303702155
 20
88.274166846895724
 30
0.0
 42
-0.1316524975873867
  0
VERTEX
  5
1616
  8
SAPA_PROFIL
 62
     4
 10
79.549444682566843
 20
88.124166846895747
 30
0.0
  0
VERTEX
  5
1617
  8
SAPA_PROFIL
 62
     4
 10
79.5494446825669
 20
64.875833080859366
 30
0.0
 42
-0.1316524975873873
  0
SEQEND
  5
1618
  8
SAPA_PROFIL
 62
     4
  0
POLYLINE
  5
FA7
  8
SAPA_PROFIL
 66
     1
 10
0.0
 20
0.0
 30
0.0
 70
     1
  0
VERTEX
  5
1619
  8
SAPA_PROFIL
 10
35.000000000032763
 20
17.300000000010311
 30
0.0
 42
-0.4142135623624294
  0
VERTEX
  5
161A
  8
SAPA_PROFIL
 10
35.200000000008011
 20
17.500000000000099
 30
0.0
  0
VERTEX
  5
161B
  8
SAPA_PROFIL
 10
36.05000000000657
 20
17.500000000014651
 30
0.0
 42
0.4142135623730744
  0
VERTEX
  5
161C
  8
SAPA_PROFIL
 10
36.250000000007297
 20
17.700000000019021
 30
0.0
  0
VERTEX
  5
161D
  8
SAPA_PROFIL
 10
36.250000000000007
 20
18.000000000000131
 30
0.0
 42
0.4142135623731035
  0
VERTEX
  5
161E
  8
SAPA_PROFIL
 10
35.750000000000007
 20
18.500000000000131
 30
0.0
  0
VERTEX
  5
161F
  8
SAPA_PROFIL
 10
32.750000000000007
 20
18.500000000000131
 30
0.0
 42
0.4142135623731035
  0
VERTEX
  5
1620
  8
SAPA_PROFIL
 10
32.250000000000007
 20
18.000000000000131
 30
0.0
  0
VERTEX
  5
1621
  8
SAPA_PROFIL
 10
32.250000000000007
 20
17.700000000004461
 30
0.0
 42
0.4142135623730744
  0
VERTEX
  5
1622
  8
SAPA_PROFIL
 10
32.450000000000749
 20
17.500000000000099
 30
0.0
  0
VERTEX
  5
1623
  8
SAPA_PROFIL
 10
33.300000000002932
 20
17.500000000011038
 30
0.0
 42
-0.4142135623730534
  0
VERTEX
  5
1624
  8
SAPA_PROFIL
 10
33.500000000000007
 20
17.300000000010311
 30
0.0
  0
VERTEX
  5
1625
  8
SAPA_PROFIL
 10
33.500000000000007
 20
16.300000000010311
 30
0.0
 42
-0.4142135623731035
  0
VERTEX
  5
1626
  8
SAPA_PROFIL
 10
33.000000000000007
 20
15.800000000010311
 30
0.0
  0
VERTEX
  5
1627
  8
SAPA_PROFIL
 10
27.000000000000021
 20
15.800000000010311
 30
0.0
 42
-0.4142135623731033
  0
VERTEX
  5
1628
  8
SAPA_PROFIL
 10
26.500000000000021
 20
16.300000000010311
 30
0.0
  0
VERTEX
  5
1629
  8
SAPA_PROFIL
 10
26.500000000010939
 20
17.300000000010311
 30
0.0
 42
-0.414213562373064
  0
VERTEX
  5
162A
  8
SAPA_PROFIL
 10
26.700000000000749
 20
17.500000000000099
 30
0.0
  0
VERTEX
  5
162B
  8
SAPA_PROFIL
 10
27.550000000002932
 20
17.500000000000099
 30
0.0
 42
0.414213562373064
  0
VERTEX
  5
162C
  8
SAPA_PROFIL
 10
27.750000000000021
 20
17.700000000004461
 30
0.0
  0
VERTEX
  5
162D
  8
SAPA_PROFIL
 10
27.750000000000021
 20
18.000000000000131
 30
0.0
 42
0.4142135623731035
  0
VERTEX
  5
162E
  8
SAPA_PROFIL
 10
27.250000000000021
 20
18.500000000000131
 30
0.0
  0
VERTEX
  5
162F
  8
SAPA_PROFIL
 10
25.500000000000021
 20
18.500000000000131
 30
0.0
 42
0.4142135623731035
  0
VERTEX
  5
1630
  8
SAPA_PROFIL
 10
25.000000000000021
 20
18.000000000000131
 30
0.0
  0
VERTEX
  5
1631
  8
SAPA_PROFIL
 10
25.000000000000021
 20
15.50000000000013
 30
0.0
 42
0.4142135623730966
  0
VERTEX
  5
1632
  8
SAPA_PROFIL
 10
26.500000000000021
 20
14.000000000000099
 30
0.0
  0
VERTEX
  5
1633
  8
SAPA_PROFIL
 10
84.700000000000728
 20
14.00000000000011
 30
0.0
 42
0.4142135623730935
  0
VERTEX
  5
1634
  8
SAPA_PROFIL
 10
85.000000000000014
 20
14.3000000000103
 30
0.0
  0
VERTEX
  5
1635
  8
SAPA_PROFIL
 10
85.000000000000014
 20
62.256130958696417
 30
0.0
 42
0.2418327667378115
  0
VERTEX
  5
1636
  8
SAPA_PROFIL
 10
84.874722325032906
 20
62.499999999634809
 30
0.0
 42
-0.2418327667509125
  0
VERTEX
  5
1637
  8
SAPA_PROFIL
 10
84.749444650060482
 20
62.743869040590774
 30
0.0
  0
VERTEX
  5
1638
  8
SAPA_PROFIL
 10
84.749444650056844
 20
63.699999999640681
 30
0.0
 42
-0.2418327667448973
  0
VERTEX
  5
1639
  8
SAPA_PROFIL
 10
84.87472232502526
 20
63.943869040595622
 30
0.0
 42
0.2418327667448979
  0
VERTEX
  5
163A
  8
SAPA_PROFIL
 10
84.999999999992454
 20
64.187738081548218
 30
0.0
  0
VERTEX
  5
163B
  8
SAPA_PROFIL
 10
84.999999999992454
 20
66.285810437266178
 30
0.0
 42
0.6681786379192718
  0
VERTEX
  5
163C
  8
SAPA_PROFIL
 10
83.292893218805958
 20
66.992917218452789
 30
0.0
  0
VERTEX
  5
163D
  8
SAPA_PROFIL
 10
81.987843965636785
 20
65.687867965283829
 30
0.0
 42
0.1989123673797335
  0
VERTEX
  5
163E
  8
SAPA_PROFIL
 10
81.899975999992677
 20
65.475735930927755
 30
0.0
  0
VERTEX
  5
163F
  8
SAPA_PROFIL
 10
81.899975999992819
 20
64.889230484180558
 30
0.0
 42
0.1316524975873855
  0
VERTEX
  5
1640
  8
SAPA_PROFIL
 10
81.940168378857464
 20
64.739230484180638
 30
0.0
  0
VERTEX
  5
1641
  8
SAPA_PROFIL
 10
82.799975999992753
 20
63.249999999639748
 30
0.0
  0
VERTEX
  5
1642
  8
SAPA_PROFIL
 10
82.799987999992425
 20
62.799999999639802
 30
0.0
 42
-0.4142135623731054
  0
VERTEX
  5
1643
  8
SAPA_PROFIL
 10
82.499987999992427
 20
62.49999999963979
 30
0.0
  0
VERTEX
  5
1644
  8
SAPA_PROFIL
 10
78.899975999992364
 20
62.49999999963984
 30
0.0
 42
-0.4142135623730951
  0
VERTEX
  5
1645
  8
SAPA_PROFIL
 10
78.599975999992367
 20
62.799999999639851
 30
0.0
  0
VERTEX
  5
1646
  8
SAPA_PROFIL
 10
78.599975999992466
 20
63.24999999963984
 30
0.0
  0
VERTEX
  5
1647
  8
SAPA_PROFIL
 10
79.459800737561451
 20
64.739260130714001
 30
0.0
 42
0.1316363093594257
  0
VERTEX
  5
1648
  8
SAPA_PROFIL
 10
79.499993115818413
 20
64.889241035760762
 30
0.0
  0
VERTEX
  5
1649
  8
SAPA_PROFIL
 10
79.500000165609222
 20
64.999999999643592
 30
0.0
  0
VERTEX
  5
164A
  8
SAPA_PROFIL
 10
77.914359353937485
 20
64.999999999643592
 30
0.0
 42
0.2679491924308306
  0
VERTEX
  5
164B
  8
SAPA_PROFIL
 10
77.048333950158863
 20
64.499999999643592
 30
0.0
  0
VERTEX
  5
164C
  8
SAPA_PROFIL
 10
76.037970979080384
 20
62.749999999643137
 30
0.0
 42
-0.2679491924308306
  0
VERTEX
  5
164D
  8
SAPA_PROFIL
 10
75.60495827718843
 20
62.499999999643592
 30
0.0
  0
VERTEX
  5
164E
  8
SAPA_PROFIL
 10
74.39504172280796
 20
62.499999999643592
 30
0.0
 42
-0.2679491924308304
  0
VERTEX
  5
164F
  8
SAPA_PROFIL
 10
73.96202902091683
 20
62.749999999643592
 30
0.0
  0
VERTEX
  5
1650
  8
SAPA_PROFIL
 10
72.951666049841165
 20
64.499999999643592
 30
0.0
 42
0.2679491924308308
  0
VERTEX
  5
1651
  8
SAPA_PROFIL
 10
72.085640646055268
 20
64.999999999641716
 30
0.0
  0
VERTEX
  5
1652
  8
SAPA_PROFIL
 10
70.499999834387154
 20
64.999999999643876
 30
0.0
  0
VERTEX
  5
1653
  8
SAPA_PROFIL
 10
70.500006884177978
 20
64.889241035760762
 30
0.0
 42
0.1316363093594255
  0
VERTEX
  5
1654
  8
SAPA_PROFIL
 10
70.540199262434939
 20
64.739260130714001
 30
0.0
  0
VERTEX
  5
1655
  8
SAPA_PROFIL
 10
71.400024000003924
 20
63.24999999963984
 30
0.0
  0
VERTEX
  5
1656
  8
SAPA_PROFIL
 10
71.400024000004024
 20
62.799999999639851
 30
0.0
 42
-0.4142135623730951
  0
VERTEX
  5
1657
  8
SAPA_PROFIL
 10
71.100024000004026
 20
62.49999999963984
 30
0.0
  0
VERTEX
  5
1658
  8
SAPA_PROFIL
 10
67.500012000003963
 20
62.49999999963979
 30
0.0
 42
-0.4142135623731054
  0
VERTEX
  5
1659
  8
SAPA_PROFIL
 10
67.200012000003966
 20
62.799999999639802
 30
0.0
  0
VERTEX
  5
165A
  8
SAPA_PROFIL
 10
67.200024000003623
 20
63.249999999639748
 30
0.0
  0
VERTEX
  5
165B
  8
SAPA_PROFIL
 10
68.059831621138926
 20
64.739230484180638
 30
0.0
 42
0.1316524975873855
  0
VERTEX
  5
165C
  8
SAPA_PROFIL
 10
68.100024000003572
 20
64.889230484180558
 30
0.0
  0
VERTEX
  5
165D
  8
SAPA_PROFIL
 10
68.100024000003714
 20
65.475735930927755
 30
0.0
 42
0.1989123673797335
  0
VERTEX
  5
165E
  8
SAPA_PROFIL
 10
68.012156034359606
 20
65.687867965283829
 30
0.0
  0
VERTEX
  5
165F
  8
SAPA_PROFIL
 10
66.707106781190433
 20
66.992917218452789
 30
0.0
 42
0.6681786379192716
  0
VERTEX
  5
1660
  8
SAPA_PROFIL
 10
65.000000000003936
 20
66.285810437266178
 30
0.0
  0
VERTEX
  5
1661
  8
SAPA_PROFIL
 10
65.000000000003936
 20
64.187738081546485
 30
0.0
 42
0.2418327667433386
  0
VERTEX
  5
1662
  8
SAPA_PROFIL
 10
65.125277674969695
 20
63.943869040594933
 30
0.0
 42
-0.2418327667449431
  0
VERTEX
  5
1663
  8
SAPA_PROFIL
 10
65.250555349935894
 20
63.699999999640681
 30
0.0
  0
VERTEX
  5
1664
  8
SAPA_PROFIL
 10
65.250555349939546
 20
62.743869040590774
 30
0.0
 42
-0.2418327667509097
  0
VERTEX
  5
1665
  8
SAPA_PROFIL
 10
65.125277674957132
 20
62.499999999643649
 30
0.0
 42
0.2418327667378167
  0
VERTEX
  5
1666
  8
SAPA_PROFIL
 10
65.000000000003936
 20
62.256130958696417
 30
0.0
  0
VERTEX
  5
1667
  8
SAPA_PROFIL
 10
64.999999999985462
 20
60.443389324929854
 30
0.0
 42
0.1095178116817878
  0
VERTEX
  5
1668
  8
SAPA_PROFIL
 10
65.187384425907297
 20
59.598152801458859
 30
0.0
  0
VERTEX
  5
1669
  8
SAPA_PROFIL
 10
67.812615574068346
 20
53.968326436319437
 30
0.0
 42
-0.1095178116855129
  0
VERTEX
  5
166A
  8
SAPA_PROFIL
 10
68.000000000000014
 20
53.123089912835098
 30
0.0
  0
VERTEX
  5
166B
  8
SAPA_PROFIL
 10
68.00000000000729
 20
45.999999999658137
 30
0.0
 42
-0.4142135623730957
  0
VERTEX
  5
166C
  8
SAPA_PROFIL
 10
67.499999999985462
 20
45.499999999658137
 30
0.0
  0
VERTEX
  5
166D
  8
SAPA_PROFIL
 10
66.499999999985462
 20
45.499999999658137
 30
0.0
 42
-0.4142135623730915
  0
VERTEX
  5
166E
  8
SAPA_PROFIL
 10
65.999999999985462
 20
45.999999999658137
 30
0.0
  0
VERTEX
  5
166F
  8
SAPA_PROFIL
 10
65.999999999985462
 20
46.291287847139863
 30
0.0
 42
0.2982166266909514
  0
VERTEX
  5
1670
  8
SAPA_PROFIL
 10
65.699999999998354
 20
46.749545416629807
 30
0.0
 42
1.5275252316550829
  0
VERTEX
  5
1671
  8
SAPA_PROFIL
 10
65.699999999998454
 20
41.250454582702361
 30
0.0
 42
0.2982166266892446
  0
VERTEX
  5
1672
  8
SAPA_PROFIL
 10
65.999999999976126
 20
41.708712152169142
 30
0.0
  0
VERTEX
  5
1673
  8
SAPA_PROFIL
 10
65.999999999985462
 20
41.999999999658137
 30
0.0
 42
-0.4142135623730915
  0
VERTEX
  5
1674
  8
SAPA_PROFIL
 10
66.499999999985462
 20
42.499999999658137
 30
0.0
  0
VERTEX
  5
1675
  8
SAPA_PROFIL
 10
67.499999999985462
 20
42.499999999658137
 30
0.0
 42
-0.4142135623730918
  0
VERTEX
  5
1676
  8
SAPA_PROFIL
 10
67.999999999985462
 20
41.999999999658137
 30
0.0
  0
VERTEX
  5
1677
  8
SAPA_PROFIL
 10
67.999999999985462
 20
23.0769100868057
 30
0.0
 42
-0.1095178116838485
  0
VERTEX
  5
1678
  8
SAPA_PROFIL
 10
67.812615574065546
 20
22.231673563315901
 30
0.0
  0
VERTEX
  5
1679
  8
SAPA_PROFIL
 10
65.538475052471782
 20
17.35476347652741
 30
0.0
 42
-0.2914734195858569
  0
VERTEX
  5
167A
  8
SAPA_PROFIL
 10
63.725859478388891
 20
16.200000000004479
 30
0.0
  0
VERTEX
  5
167B
  8
SAPA_PROFIL
 10
44.00000000000729
 20
16.200000000004461
 30
0.0
 42
-0.4142135623730951
  0
VERTEX
  5
167C
  8
SAPA_PROFIL
 10
43.50000000000729
 20
16.700000000004461
 30
0.0
  0
VERTEX
  5
167D
  8
SAPA_PROFIL
 10
43.50000000000729
 20
17.000000000021931
 30
0.0
 42
-0.4142135623731035
  0
VERTEX
  5
167E
  8
SAPA_PROFIL
 10
44.00000000000729
 20
17.500000000021931
 30
0.0
  0
VERTEX
  5
167F
  8
SAPA_PROFIL
 10
45.30000000000657
 20
17.500000000021931
 30
0.0
 42
0.4142135623730744
  0
VERTEX
  5
1680
  8
SAPA_PROFIL
 10
45.500000000010942
 20
17.700000000019021
 30
0.0
  0
VERTEX
  5
1681
  8
SAPA_PROFIL
 10
45.500000000007283
 20
18.00000000002192
 30
0.0
 42
0.4142135623731035
  0
VERTEX
  5
1682
  8
SAPA_PROFIL
 10
45.000000000007297
 20
18.500000000021931
 30
0.0
  0
VERTEX
  5
1683
  8
SAPA_PROFIL
 10
41.250000000007297
 20
18.500000000000131
 30
0.0
 42
0.4142135623731035
  0
VERTEX
  5
1684
  8
SAPA_PROFIL
 10
40.750000000007297
 20
18.000000000000131
 30
0.0
  0
VERTEX
  5
1685
  8
SAPA_PROFIL
 10
40.750000000007297
 20
17.700000000004461
 30
0.0
 42
0.4142135623731159
  0
VERTEX
  5
1686
  8
SAPA_PROFIL
 10
40.950000000022563
 20
17.49999999999649
 30
0.0
  0
VERTEX
  5
1687
  8
SAPA_PROFIL
 10
41.800000000006563
 20
17.500000000000099
 30
0.0
 42
-0.4142135623730951
  0
VERTEX
  5
1688
  8
SAPA_PROFIL
 10
42.000000000007297
 20
17.300000000010311
 30
0.0
  0
VERTEX
  5
1689
  8
SAPA_PROFIL
 10
42.000000000007297
 20
16.300000000010311
 30
0.0
 42
-0.4142135623731035
  0
VERTEX
  5
168A
  8
SAPA_PROFIL
 10
41.50000000000729
 20
15.800000000010311
 30
0.0
  0
VERTEX
  5
168B
  8
SAPA_PROFIL
 10
35.50000000000729
 20
15.800000000010311
 30
0.0
 42
-0.4142135623731033
  0
VERTEX
  5
168C
  8
SAPA_PROFIL
 10
35.000000000007297
 20
16.300000000010311
 30
0.0
  0
SEQEND
  5
168D
  8
SAPA_PROFIL
  0
POLYLINE
  5
FA8
  8
SAPA_PROFIL
 66
     1
 10
0.0
 20
0.0
 30
0.0
 70
     1
  0
VERTEX
  5
168E
  8
SAPA_PROFIL
 10
82.199999999986176
 20
59.999999999643592
 30
0.0
  0
VERTEX
  5
168F
  8
SAPA_PROFIL
 10
70.600000000005835
 20
59.999999999643592
 30
0.0
 42
0.4142135623730951
  0
VERTEX
  5
1690
  8
SAPA_PROFIL
 10
70.300000000002925
 20
59.699999999640681
 30
0.0
  0
VERTEX
  5
1691
  8
SAPA_PROFIL
 10
70.299999999981097
 20
16.8000000000103
 30
0.0
 42
0.4142135623730935
  0
VERTEX
  5
1692
  8
SAPA_PROFIL
 10
70.599999999980369
 20
16.500000000011031
 30
0.0
  0
VERTEX
  5
1693
  8
SAPA_PROFIL
 10
82.200000000000728
 20
16.50000000000011
 30
0.0
 42
0.4142135623730935
  0
VERTEX
  5
1694
  8
SAPA_PROFIL
 10
82.500000000000014
 20
16.8000000000103
 30
0.0
  0
VERTEX
  5
1695
  8
SAPA_PROFIL
 10
82.499999999985462
 20
59.699999999640681
 30
0.0
 42
0.4142135623730939
  0
SEQEND
  5
1696
  8
SAPA_PROFIL
  0
POLYLINE
  5
FA9
  8
SAPA_PROFIL
 66
     1
 10
0.0
 20
0.0
 30
0.0
 70
     1
  0
VERTEX
  5
1697
  8
SAPA_PROFIL
 10
35.000000000032742
 20
135.6999999277447
 30
0.0
 42
0.4142135623624294
  0
VERTEX
  5
1698
  8
SAPA_PROFIL
 10
35.200000000007982
 20
135.4999999277548
 30
0.0
  0
VERTEX
  5
1699
  8
SAPA_PROFIL
 10
36.050000000006541
 20
135.4999999277403
 30
0.0
 42
-0.4142135623730744
  0
VERTEX
  5
169A
  8
SAPA_PROFIL
 10
36.250000000007269
 20
135.299999927736
 30
0.0
  0
VERTEX
  5
169B
  8
SAPA_PROFIL
 10
36.249999999999979
 20
134.99999992775491
 30
0.0
 42
-0.4142135623731035
  0
VERTEX
  5
169C
  8
SAPA_PROFIL
 10
35.749999999999979
 20
134.49999992775491
 30
0.0
  0
VERTEX
  5
169D
  8
SAPA_PROFIL
 10
32.749999999999979
 20
134.49999992775491
 30
0.0
 42
-0.4142135623731035
  0
VERTEX
  5
169E
  8
SAPA_PROFIL
 10
32.249999999999979
 20
134.99999992775491
 30
0.0
  0
VERTEX
  5
169F
  8
SAPA_PROFIL
 10
32.249999999999979
 20
135.29999992775049
 30
0.0
 42
-0.4142135623730744
  0
VERTEX
  5
16A0
  8
SAPA_PROFIL
 10
32.45000000000072
 20
135.4999999277548
 30
0.0
  0
VERTEX
  5
16A1
  8
SAPA_PROFIL
 10
33.300000000002903
 20
135.49999992774389
 30
0.0
 42
0.4142135623730534
  0
VERTEX
  5
16A2
  8
SAPA_PROFIL
 10
33.499999999999979
 20
135.6999999277447
 30
0.0
  0
VERTEX
  5
16A3
  8
SAPA_PROFIL
 10
33.499999999999979
 20
136.6999999277447
 30
0.0
 42
0.4142135623731035
  0
VERTEX
  5
16A4
  8
SAPA_PROFIL
 10
32.999999999999979
 20
137.1999999277447
 30
0.0
  0
VERTEX
  5
16A5
  8
SAPA_PROFIL
 10
26.999999999999989
 20
137.1999999277447
 30
0.0
 42
0.4142135623731033
  0
VERTEX
  5
16A6
  8
SAPA_PROFIL
 10
26.499999999999989
 20
136.6999999277447
 30
0.0
  0
VERTEX
  5
16A7
  8
SAPA_PROFIL
 10
26.50000000001091
 20
135.6999999277447
 30
0.0
 42
0.414213562373064
  0
VERTEX
  5
16A8
  8
SAPA_PROFIL
 10
26.70000000000072
 20
135.4999999277548
 30
0.0
  0
VERTEX
  5
16A9
  8
SAPA_PROFIL
 10
27.5500000000029
 20
135.4999999277548
 30
0.0
 42
-0.414213562373064
  0
VERTEX
  5
16AA
  8
SAPA_PROFIL
 10
27.749999999999989
 20
135.29999992775049
 30
0.0
  0
VERTEX
  5
16AB
  8
SAPA_PROFIL
 10
27.749999999999989
 20
134.99999992775491
 30
0.0
 42
-0.4142135623731035
  0
VERTEX
  5
16AC
  8
SAPA_PROFIL
 10
27.25
 20
134.49999992775491
 30
0.0
  0
VERTEX
  5
16AD
  8
SAPA_PROFIL
 10
25.499999999999989
 20
134.49999992775491
 30
0.0
 42
-0.4142135623731035
  0
VERTEX
  5
16AE
  8
SAPA_PROFIL
 10
25.0
 20
134.99999992775491
 30
0.0
  0
VERTEX
  5
16AF
  8
SAPA_PROFIL
 10
25.0
 20
137.49999992775491
 30
0.0
 42
-0.4142135623730966
  0
VERTEX
  5
16B0
  8
SAPA_PROFIL
 10
26.499999999999989
 20
138.99999992775491
 30
0.0
  0
VERTEX
  5
16B1
  8
SAPA_PROFIL
 10
84.700000000000685
 20
138.99999992775491
 30
0.0
 42
-0.4142135623730935
  0
VERTEX
  5
16B2
  8
SAPA_PROFIL
 10
84.999999999999986
 20
138.6999999277447
 30
0.0
  0
VERTEX
  5
16B3
  8
SAPA_PROFIL
 10
85.0
 20
90.743868969058624
 30
0.0
 42
-0.2418327667378115
  0
VERTEX
  5
16B4
  8
SAPA_PROFIL
 10
84.874722325032906
 20
90.499999928120218
 30
0.0
 42
0.2418327667509125
  0
VERTEX
  5
16B5
  8
SAPA_PROFIL
 10
84.749444650060454
 20
90.256130887164261
 30
0.0
  0
VERTEX
  5
16B6
  8
SAPA_PROFIL
 10
84.749444650056816
 20
89.299999928114346
 30
0.0
 42
0.2418327667448973
  0
VERTEX
  5
16B7
  8
SAPA_PROFIL
 10
84.874722325025246
 20
89.056130887159412
 30
0.0
 42
-0.2418327667448979
  0
VERTEX
  5
16B8
  8
SAPA_PROFIL
 10
84.999999999992454
 20
88.812261846206837
 30
0.0
  0
VERTEX
  5
16B9
  8
SAPA_PROFIL
 10
84.999999999992454
 20
86.714189490488835
 30
0.0
 42
-0.6681786379192718
  0
VERTEX
  5
16BA
  8
SAPA_PROFIL
 10
83.292893218805943
 20
86.007082709302239
 30
0.0
  0
VERTEX
  5
16BB
  8
SAPA_PROFIL
 10
81.98784396563677
 20
87.312131962471227
 30
0.0
 42
-0.1989123673797335
  0
VERTEX
  5
16BC
  8
SAPA_PROFIL
 10
81.899975999992662
 20
87.524263996827315
 30
0.0
  0
VERTEX
  5
16BD
  8
SAPA_PROFIL
 10
81.899975999992805
 20
88.110769443574497
 30
0.0
 42
-0.1316524975873855
  0
VERTEX
  5
16BE
  8
SAPA_PROFIL
 10
81.940168378857464
 20
88.260769443574418
 30
0.0
  0
VERTEX
  5
16BF
  8
SAPA_PROFIL
 10
82.799975999992739
 20
89.749999928115315
 30
0.0
  0
VERTEX
  5
16C0
  8
SAPA_PROFIL
 10
82.79998799999241
 20
90.199999928115233
 30
0.0
 42
0.4142135623731054
  0
VERTEX
  5
16C1
  8
SAPA_PROFIL
 10
82.499987999992413
 20
90.499999928115244
 30
0.0
  0
VERTEX
  5
16C2
  8
SAPA_PROFIL
 10
78.89997599999235
 20
90.499999928115187
 30
0.0
 42
0.4142135623730951
  0
VERTEX
  5
16C3
  8
SAPA_PROFIL
 10
78.599975999992353
 20
90.199999928115204
 30
0.0
  0
VERTEX
  5
16C4
  8
SAPA_PROFIL
 10
78.599975999992452
 20
89.749999928115173
 30
0.0
  0
VERTEX
  5
16C5
  8
SAPA_PROFIL
 10
79.459800737561423
 20
88.260739797041026
 30
0.0
 42
-0.1316363093594257
  0
VERTEX
  5
16C6
  8
SAPA_PROFIL
 10
79.499993115818398
 20
88.110758891994294
 30
0.0
  0
VERTEX
  5
16C7
  8
SAPA_PROFIL
 10
79.500000165609194
 20
87.999999928111436
 30
0.0
  0
VERTEX
  5
16C8
  8
SAPA_PROFIL
 10
77.914359353937471
 20
87.999999928111436
 30
0.0
 42
-0.2679491924308306
  0
VERTEX
  5
16C9
  8
SAPA_PROFIL
 10
77.048333950158849
 20
88.499999928111436
 30
0.0
  0
VERTEX
  5
16CA
  8
SAPA_PROFIL
 10
76.03797097908037
 20
90.24999992811189
 30
0.0
 42
0.2679491924308306
  0
VERTEX
  5
16CB
  8
SAPA_PROFIL
 10
75.604958277188416
 20
90.499999928111436
 30
0.0
  0
VERTEX
  5
16CC
  8
SAPA_PROFIL
 10
74.395041722807946
 20
90.499999928111436
 30
0.0
 42
0.2679491924308304
  0
VERTEX
  5
16CD
  8
SAPA_PROFIL
 10
73.962029020916816
 20
90.249999928111436
 30
0.0
  0
VERTEX
  5
16CE
  8
SAPA_PROFIL
 10
72.951666049841151
 20
88.499999928111436
 30
0.0
 42
-0.2679491924308308
  0
VERTEX
  5
16CF
  8
SAPA_PROFIL
 10
72.085640646055253
 20
87.999999928113311
 30
0.0
  0
VERTEX
  5
16D0
  8
SAPA_PROFIL
 10
70.499999834387154
 20
87.99999992811118
 30
0.0
  0
VERTEX
  5
16D1
  8
SAPA_PROFIL
 10
70.500006884177964
 20
88.110758891994294
 30
0.0
 42
-0.1316363093594255
  0
VERTEX
  5
16D2
  8
SAPA_PROFIL
 10
70.540199262434939
 20
88.260739797041026
 30
0.0
  0
VERTEX
  5
16D3
  8
SAPA_PROFIL
 10
71.400024000003896
 20
89.749999928115173
 30
0.0
  0
VERTEX
  5
16D4
  8
SAPA_PROFIL
 10
71.400024000004009
 20
90.199999928115204
 30
0.0
 42
0.4142135623730951
  0
VERTEX
  5
16D5
  8
SAPA_PROFIL
 10
71.100024000004012
 20
90.499999928115187
 30
0.0
  0
VERTEX
  5
16D6
  8
SAPA_PROFIL
 10
67.500012000003963
 20
90.499999928115244
 30
0.0
 42
0.4142135623731054
  0
VERTEX
  5
16D7
  8
SAPA_PROFIL
 10
67.200012000003952
 20
90.199999928115233
 30
0.0
  0
VERTEX
  5
16D8
  8
SAPA_PROFIL
 10
67.200024000003623
 20
89.749999928115315
 30
0.0
  0
VERTEX
  5
16D9
  8
SAPA_PROFIL
 10
68.059831621138912
 20
88.260769443574418
 30
0.0
 42
-0.1316524975873855
  0
VERTEX
  5
16DA
  8
SAPA_PROFIL
 10
68.100024000003557
 20
88.110769443574497
 30
0.0
  0
VERTEX
  5
16DB
  8
SAPA_PROFIL
 10
68.1000240000037
 20
87.524263996827315
 30
0.0
 42
-0.1989123673797335
  0
VERTEX
  5
16DC
  8
SAPA_PROFIL
 10
68.012156034359592
 20
87.312131962471227
 30
0.0
  0
VERTEX
  5
16DD
  8
SAPA_PROFIL
 10
66.707106781190419
 20
86.007082709302239
 30
0.0
 42
-0.6681786379192716
  0
VERTEX
  5
16DE
  8
SAPA_PROFIL
 10
65.000000000003922
 20
86.714189490488835
 30
0.0
  0
VERTEX
  5
16DF
  8
SAPA_PROFIL
 10
65.000000000003922
 20
88.812261846208557
 30
0.0
 42
-0.2418327667433386
  0
VERTEX
  5
16E0
  8
SAPA_PROFIL
 10
65.125277674969681
 20
89.056130887160094
 30
0.0
 42
0.2418327667449431
  0
VERTEX
  5
16E1
  8
SAPA_PROFIL
 10
65.250555349935894
 20
89.299999928114346
 30
0.0
  0
VERTEX
  5
16E2
  8
SAPA_PROFIL
 10
65.250555349939532
 20
90.256130887164261
 30
0.0
 42
0.2418327667509097
  0
VERTEX
  5
16E3
  8
SAPA_PROFIL
 10
65.125277674957104
 20
90.499999928111365
 30
0.0
 42
-0.2418327667378167
  0
VERTEX
  5
16E4
  8
SAPA_PROFIL
 10
65.000000000003922
 20
90.743868969058624
 30
0.0
  0
VERTEX
  5
16E5
  8
SAPA_PROFIL
 10
64.999999999985448
 20
92.556610602825174
 30
0.0
 42
-0.1095178116817878
  0
VERTEX
  5
16E6
  8
SAPA_PROFIL
 10
65.187384425907283
 20
93.401847126296161
 30
0.0
  0
VERTEX
  5
16E7
  8
SAPA_PROFIL
 10
67.812615574068332
 20
99.031673491435583
 30
0.0
 42
0.1095178116855129
  0
VERTEX
  5
16E8
  8
SAPA_PROFIL
 10
68.0
 20
99.876910014919929
 30
0.0
  0
VERTEX
  5
16E9
  8
SAPA_PROFIL
 10
68.000000000007276
 20
106.9999999280969
 30
0.0
 42
0.4142135623730957
  0
VERTEX
  5
16EA
  8
SAPA_PROFIL
 10
67.499999999985448
 20
107.4999999280969
 30
0.0
  0
VERTEX
  5
16EB
  8
SAPA_PROFIL
 10
66.499999999985448
 20
107.4999999280969
 30
0.0
 42
0.4142135623730915
  0
VERTEX
  5
16EC
  8
SAPA_PROFIL
 10
65.999999999985434
 20
106.9999999280969
 30
0.0
  0
VERTEX
  5
16ED
  8
SAPA_PROFIL
 10
65.999999999985434
 20
106.7087120806151
 30
0.0
 42
-0.2982166266909514
  0
VERTEX
  5
16EE
  8
SAPA_PROFIL
 10
65.69999999999834
 20
106.2504545111252
 30
0.0
 42
-1.5275252316550829
  0
VERTEX
  5
16EF
  8
SAPA_PROFIL
 10
65.699999999998425
 20
111.7495453450526
 30
0.0
 42
-0.2982166266892446
  0
VERTEX
  5
16F0
  8
SAPA_PROFIL
 10
65.999999999976126
 20
111.2912877755859
 30
0.0
  0
VERTEX
  5
16F1
  8
SAPA_PROFIL
 10
65.999999999985434
 20
110.9999999280969
 30
0.0
 42
0.4142135623730915
  0
VERTEX
  5
16F2
  8
SAPA_PROFIL
 10
66.499999999985448
 20
110.4999999280969
 30
0.0
  0
VERTEX
  5
16F3
  8
SAPA_PROFIL
 10
67.499999999985448
 20
110.4999999280969
 30
0.0
 42
0.4142135623730918
  0
VERTEX
  5
16F4
  8
SAPA_PROFIL
 10
67.999999999985434
 20
110.9999999280969
 30
0.0
  0
VERTEX
  5
16F5
  8
SAPA_PROFIL
 10
67.999999999985434
 20
129.9230898409493
 30
0.0
 42
0.1095178116838485
  0
VERTEX
  5
16F6
  8
SAPA_PROFIL
 10
67.812615574065504
 20
130.7683263644391
 30
0.0
  0
VERTEX
  5
16F7
  8
SAPA_PROFIL
 10
65.538475052471753
 20
135.64523645122759
 30
0.0
 42
0.2914734195858569
  0
VERTEX
  5
16F8
  8
SAPA_PROFIL
 10
63.72585947838887
 20
136.79999992775049
 30
0.0
  0
VERTEX
  5
16F9
  8
SAPA_PROFIL
 10
44.000000000007262
 20
136.79999992775049
 30
0.0
 42
0.4142135623730951
  0
VERTEX
  5
16FA
  8
SAPA_PROFIL
 10
43.500000000007269
 20
136.29999992775049
 30
0.0
  0
VERTEX
  5
16FB
  8
SAPA_PROFIL
 10
43.500000000007269
 20
135.999999927733
 30
0.0
 42
0.4142135623731035
  0
VERTEX
  5
16FC
  8
SAPA_PROFIL
 10
44.000000000007262
 20
135.49999992773311
 30
0.0
  0
VERTEX
  5
16FD
  8
SAPA_PROFIL
 10
45.300000000006527
 20
135.49999992773311
 30
0.0
 42
-0.4142135623730744
  0
VERTEX
  5
16FE
  8
SAPA_PROFIL
 10
45.5000000000109
 20
135.299999927736
 30
0.0
  0
VERTEX
  5
16FF
  8
SAPA_PROFIL
 10
45.500000000007248
 20
134.99999992773311
 30
0.0
 42
-0.4142135623731035
  0
VERTEX
  5
1700
  8
SAPA_PROFIL
 10
45.000000000007269
 20
134.49999992773311
 30
0.0
  0
VERTEX
  5
1701
  8
SAPA_PROFIL
 10
41.250000000007269
 20
134.49999992775491
 30
0.0
 42
-0.4142135623731035
  0
VERTEX
  5
1702
  8
SAPA_PROFIL
 10
40.750000000007262
 20
134.99999992775491
 30
0.0
  0
VERTEX
  5
1703
  8
SAPA_PROFIL
 10
40.750000000007262
 20
135.29999992775049
 30
0.0
 42
-0.4142135623731159
  0
VERTEX
  5
1704
  8
SAPA_PROFIL
 10
40.950000000022527
 20
135.49999992775849
 30
0.0
  0
VERTEX
  5
1705
  8
SAPA_PROFIL
 10
41.800000000006541
 20
135.4999999277548
 30
0.0
 42
0.4142135623730951
  0
VERTEX
  5
1706
  8
SAPA_PROFIL
 10
42.000000000007262
 20
135.6999999277447
 30
0.0
  0
VERTEX
  5
1707
  8
SAPA_PROFIL
 10
42.000000000007262
 20
136.6999999277447
 30
0.0
 42
0.4142135623731035
  0
VERTEX
  5
1708
  8
SAPA_PROFIL
 10
41.500000000007262
 20
137.1999999277447
 30
0.0
  0
VERTEX
  5
1709
  8
SAPA_PROFIL
 10
35.500000000007248
 20
137.1999999277447
 30
0.0
 42
0.4142135623731033
  0
VERTEX
  5
170A
  8
SAPA_PROFIL
 10
35.000000000007269
 20
136.6999999277447
 30
0.0
  0
SEQEND
  5
170B
  8
SAPA_PROFIL
  0
POLYLINE
  5
FAA
  8
SAPA_PROFIL
 66
     1
 10
0.0
 20
0.0
 30
0.0
 70
     1
  0
VERTEX
  5
170C
  8
SAPA_PROFIL
 10
82.199999999986176
 20
92.999999928111436
 30
0.0
  0
VERTEX
  5
170D
  8
SAPA_PROFIL
 10
70.600000000005821
 20
92.999999928111436
 30
0.0
 42
-0.4142135623730951
  0
VERTEX
  5
170E
  8
SAPA_PROFIL
 10
70.30000000000291
 20
93.299999928114346
 30
0.0
  0
VERTEX
  5
170F
  8
SAPA_PROFIL
 10
70.299999999981068
 20
136.1999999277447
 30
0.0
 42
-0.4142135623730935
  0
VERTEX
  5
1710
  8
SAPA_PROFIL
 10
70.599999999980341
 20
136.499999927744
 30
0.0
  0
VERTEX
  5
1711
  8
SAPA_PROFIL
 10
82.200000000000713
 20
136.49999992775491
 30
0.0
 42
-0.4142135623730935
  0
VERTEX
  5
1712
  8
SAPA_PROFIL
 10
82.499999999999986
 20
136.1999999277447
 30
0.0
  0
VERTEX
  5
1713
  8
SAPA_PROFIL
 10
82.499999999985448
 20
93.299999928114346
 30
0.0
 42
-0.4142135623730939
  0
SEQEND
  5
1714
  8
SAPA_PROFIL
  0
POLYLINE
  5
FAB
  8
SAPA_PROFIL
 62
     4
 66
     1
 10
0.0
 20
0.0
 30
-0.2
 70
     1
1001
RC_PROFILE
1002
{
1000
Region
1002
}
  0
VERTEX
  5
1715
  8
SAPA_PROFIL
 62
     4
 10
41.652820282319411
 20
78.999999996510553
 30
-0.2
  0
VERTEX
  5
1716
  8
SAPA_PROFIL
 62
     4
 10
27.45282028231734
 20
78.999999996510553
 30
-0.2
 42
0.4142135623720297
  0
VERTEX
  5
1717
  8
SAPA_PROFIL
 62
     4
 10
26.95282028231734
 20
78.499999996512372
 30
-0.2
  0
VERTEX
  5
1718
  8
SAPA_PROFIL
 62
     4
 10
26.95282028231437
 20
74.499999995891173
 30
-0.2
 42
0.4142135623730951
  0
VERTEX
  5
1719
  8
SAPA_PROFIL
 62
     4
 10
27.45282028231437
 20
73.999999995891173
 30
-0.2
  0
VERTEX
  5
171A
  8
SAPA_PROFIL
 62
     4
 10
41.652820282318267
 20
73.999999995883897
 30
-0.2
 42
0.414213562373761
  0
VERTEX
  5
171B
  8
SAPA_PROFIL
 62
     4
 10
42.152820282319396
 20
74.499999995883897
 30
-0.2
  0
VERTEX
  5
171C
  8
SAPA_PROFIL
 62
     4
 10
42.152820282319396
 20
78.499999996510553
 30
-0.2
 42
0.4142135623730951
  0
SEQEND
  5
171D
  8
SAPA_PROFIL
 62
     4
  0
POLYLINE
  5
FAC
  8
SAPA_PROFIL
 62
     4
 66
     1
 10
0.0
 20
0.0
 30
0.0
1001
GENIUS_GENOBJ-N-FIL_13
1002
{
1000
OWNER
1000
GEN
1002
}
1001
GENIUS_GENODEF_13
1002
{
1000
HIER
1070
     0
1002
}
1002
{
1000
MANEDIT
1070
     0
1002
}
1002
{
1000
NOSEL
1070
     0
1002
}
1002
{
1000
BEHIND
1070
     0
1002
}
1002
{
1000
OTHER
1070
     0
1002
}
1002
{
1000
REACTOR
1002
}
  0
VERTEX
  5
171E
  8
SAPA_PROFIL
 62
     4
 10
68.416293838728478
 20
65.577259926492104
 30
0.0
 42
-0.131652497587489
  0
VERTEX
  5
171F
  8
SAPA_PROFIL
 62
     4
 10
68.255524323269739
 20
64.977259926491683
 30
0.0
  0
VERTEX
  5
1720
  8
SAPA_PROFIL
 62
     4
 10
67.250554992671866
 20
63.236601985848147
 30
0.0
  0
VERTEX
  5
1721
  8
SAPA_PROFIL
 62
     4
 10
67.250543349936507
 20
62.800000064269682
 30
0.0
 42
0.4142135623731046
  0
VERTEX
  5
1722
  8
SAPA_PROFIL
 62
     4
 10
67.500543349936507
 20
62.550000064269682
 30
0.0
  0
VERTEX
  5
1723
  8
SAPA_PROFIL
 62
     4
 10
71.10055534993657
 20
62.550000064269739
 30
0.0
 42
0.4142135623730957
  0
VERTEX
  5
1724
  8
SAPA_PROFIL
 62
     4
 10
71.35055534993657
 20
62.80000006426971
 30
0.0
  0
VERTEX
  5
1725
  8
SAPA_PROFIL
 62
     4
 10
71.350555349936471
 20
63.236602604648169
 30
0.0
  0
VERTEX
  5
1726
  8
SAPA_PROFIL
 62
     4
 10
70.377063354186404
 20
64.922740202049056
 30
0.0
 42
-0.1316524975873848
  0
VERTEX
  5
1727
  8
SAPA_PROFIL
 62
     4
 10
70.216293838727751
 20
65.522740202048993
 30
0.0
  0
VERTEX
  5
1728
  8
SAPA_PROFIL
 62
     4
 10
70.216293838727736
 20
87.477259790340014
 30
0.0
 42
-0.1316524975873846
  0
VERTEX
  5
1729
  8
SAPA_PROFIL
 62
     4
 10
70.37706335418639
 20
88.07725979033998
 30
0.0
  0
VERTEX
  5
172A
  8
SAPA_PROFIL
 62
     4
 10
71.350555349936457
 20
89.763397387740838
 30
0.0
  0
VERTEX
  5
172B
  8
SAPA_PROFIL
 62
     4
 10
71.350555349936556
 20
90.199999928119297
 30
0.0
 42
0.4142135623730951
  0
VERTEX
  5
172C
  8
SAPA_PROFIL
 62
     4
 10
71.100555349936556
 20
90.449999928119297
 30
0.0
  0
VERTEX
  5
172D
  8
SAPA_PROFIL
 62
     4
 10
67.500543349936493
 20
90.449999928119325
 30
0.0
 42
0.4142135623731046
  0
VERTEX
  5
172E
  8
SAPA_PROFIL
 62
     4
 10
67.250543349936493
 20
90.199999928119325
 30
0.0
  0
VERTEX
  5
172F
  8
SAPA_PROFIL
 62
     4
 10
67.250554992671852
 20
89.763398006540854
 30
0.0
  0
VERTEX
  5
1730
  8
SAPA_PROFIL
 62
     4
 10
68.255524323269725
 20
88.022740065897324
 30
0.0
 42
-0.1316524975874892
  0
VERTEX
  5
1731
  8
SAPA_PROFIL
 62
     4
 10
68.416293838728464
 20
87.422740065896903
 30
0.0
  0
VERTEX
  5
1732
  8
SAPA_PROFIL
 62
     4
 10
68.416293838727782
 20
84.699999928368314
 30
0.0
 42
-0.414213562374094
  0
VERTEX
  5
1733
  8
SAPA_PROFIL
 62
     4
 10
67.216293838723644
 20
83.499999928369405
 30
0.0
  0
VERTEX
  5
1734
  8
SAPA_PROFIL
 62
     4
 10
41.418558811801823
 20
83.499999928458521
 30
0.0
 42
0.4142135623730951
  0
VERTEX
  5
1735
  8
SAPA_PROFIL
 62
     4
 10
40.918558811801823
 20
82.999999928458536
 30
0.0
  0
VERTEX
  5
1736
  8
SAPA_PROFIL
 62
     4
 10
40.918558811801589
 20
82.799999928458703
 30
0.0
 42
0.4142135623730951
  0
VERTEX
  5
1737
  8
SAPA_PROFIL
 62
     4
 10
41.218558811801763
 20
82.499999928458521
 30
0.0
  0
VERTEX
  5
1738
  8
SAPA_PROFIL
 62
     4
 10
41.868558811803673
 20
82.499999928458521
 30
0.0
 42
-0.4142135623730951
  0
VERTEX
  5
1739
  8
SAPA_PROFIL
 62
     4
 10
42.168558811803642
 20
82.19999992845743
 30
0.0
  0
VERTEX
  5
173A
  8
SAPA_PROFIL
 62
     4
 10
42.168558811802733
 20
81.299999928461418
 30
0.0
 42
-0.4142135623730951
  0
VERTEX
  5
173B
  8
SAPA_PROFIL
 62
     4
 10
41.668558811803642
 20
80.799999928461432
 30
0.0
  0
VERTEX
  5
173C
  8
SAPA_PROFIL
 62
     4
 10
35.668558811801809
 20
80.799999928461432
 30
0.0
 42
-0.4142135623730951
  0
VERTEX
  5
173D
  8
SAPA_PROFIL
 62
     4
 10
35.168558811801809
 20
81.299999928461418
 30
0.0
  0
VERTEX
  5
173E
  8
SAPA_PROFIL
 62
     4
 10
35.168558811801809
 20
82.199999928460159
 30
0.0
 42
-0.4142135623710974
  0
VERTEX
  5
173F
  8
SAPA_PROFIL
 62
     4
 10
35.468558811799731
 20
82.499999928459431
 30
0.0
  0
VERTEX
  5
1740
  8
SAPA_PROFIL
 62
     4
 10
36.118558811801627
 20
82.499999928463964
 30
0.0
 42
0.4142135623730951
  0
VERTEX
  5
1741
  8
SAPA_PROFIL
 62
     4
 10
36.418558811799791
 20
82.799999928465965
 30
0.0
  0
VERTEX
  5
1742
  8
SAPA_PROFIL
 62
     4
 10
36.41855881179864
 20
82.999999928458536
 30
0.0
 42
0.4142135623730951
  0
VERTEX
  5
1743
  8
SAPA_PROFIL
 62
     4
 10
35.91855881179864
 20
83.499999928458521
 30
0.0
  0
VERTEX
  5
1744
  8
SAPA_PROFIL
 62
     4
 10
32.91855881179864
 20
83.499999928458521
 30
0.0
 42
0.4142135623730951
  0
VERTEX
  5
1745
  8
SAPA_PROFIL
 62
     4
 10
32.41855881179864
 20
82.999999928458536
 30
0.0
  0
VERTEX
  5
1746
  8
SAPA_PROFIL
 62
     4
 10
32.41855881179864
 20
82.799999928458703
 30
0.0
 42
0.4142135623730951
  0
VERTEX
  5
1747
  8
SAPA_PROFIL
 62
     4
 10
32.718558811798822
 20
82.499999928458521
 30
0.0
  0
VERTEX
  5
1748
  8
SAPA_PROFIL
 62
     4
 10
33.368558811798671
 20
82.499999928458521
 30
0.0
 42
-0.4142135623730951
  0
VERTEX
  5
1749
  8
SAPA_PROFIL
 62
     4
 10
33.66855881179864
 20
82.19999992845743
 30
0.0
  0
VERTEX
  5
174A
  8
SAPA_PROFIL
 62
     4
 10
33.66855881179864
 20
81.299999928461418
 30
0.0
 42
-0.4142135623730951
  0
VERTEX
  5
174B
  8
SAPA_PROFIL
 62
     4
 10
33.16855881179864
 20
80.799999928461432
 30
0.0
  0
VERTEX
  5
174C
  8
SAPA_PROFIL
 62
     4
 10
27.168558811798661
 20
80.799999928461432
 30
0.0
 42
-0.4142135623730951
  0
VERTEX
  5
174D
  8
SAPA_PROFIL
 62
     4
 10
26.66855881179864
 20
81.299999928461418
 30
0.0
  0
VERTEX
  5
174E
  8
SAPA_PROFIL
 62
     4
 10
26.66855881179864
 20
82.19999992845743
 30
0.0
 42
-0.4142135623730951
  0
VERTEX
  5
174F
  8
SAPA_PROFIL
 62
     4
 10
26.96855881179884
 20
82.499999928458521
 30
0.0
  0
VERTEX
  5
1750
  8
SAPA_PROFIL
 62
     4
 10
27.6185588117987
 20
82.499999928458521
 30
0.0
 42
0.4142135623730949
  0
VERTEX
  5
1751
  8
SAPA_PROFIL
 62
     4
 10
27.91855881179864
 20
82.799999928458703
 30
0.0
  0
VERTEX
  5
1752
  8
SAPA_PROFIL
 62
     4
 10
27.91855881179864
 20
82.999999928458536
 30
0.0
 42
0.4142135623730951
  0
VERTEX
  5
1753
  8
SAPA_PROFIL
 62
     4
 10
27.41855881179864
 20
83.499999928458521
 30
0.0
  0
VERTEX
  5
1754
  8
SAPA_PROFIL
 62
     4
 10
25.66855881179864
 20
83.499999928457612
 30
0.0
 42
0.4142135623726955
  0
VERTEX
  5
1755
  8
SAPA_PROFIL
 62
     4
 10
25.16855881179864
 20
82.999999928123827
 30
0.0
  0
VERTEX
  5
1756
  8
SAPA_PROFIL
 62
     4
 10
25.16855881179842
 20
69.999999928116537
 30
0.0
 42
0.4142135623732284
  0
VERTEX
  5
1757
  8
SAPA_PROFIL
 62
     4
 10
25.668558811796821
 20
69.499999927840051
 30
0.0
  0
VERTEX
  5
1758
  8
SAPA_PROFIL
 62
     4
 10
27.418558811796821
 20
69.499999927840051
 30
0.0
 42
0.4142135623730951
  0
VERTEX
  5
1759
  8
SAPA_PROFIL
 62
     4
 10
27.918558811796839
 20
69.999999927840051
 30
0.0
  0
VERTEX
  5
175A
  8
SAPA_PROFIL
 62
     4
 10
27.918558811796839
 20
70.199999927839855
 30
0.0
 42
0.4142135623730951
  0
VERTEX
  5
175B
  8
SAPA_PROFIL
 62
     4
 10
27.618558811796639
 20
70.499999927840051
 30
0.0
  0
VERTEX
  5
175C
  8
SAPA_PROFIL
 62
     4
 10
26.96855881179679
 20
70.499999927840051
 30
0.0
 42
-0.4142135623730951
  0
VERTEX
  5
175D
  8
SAPA_PROFIL
 62
     4
 10
26.668558811796839
 20
70.799999927839323
 30
0.0
  0
VERTEX
  5
175E
  8
SAPA_PROFIL
 62
     4
 10
26.668558811796839
 20
71.69999992783714
 30
0.0
 42
-0.4142135623730951
  0
VERTEX
  5
175F
  8
SAPA_PROFIL
 62
     4
 10
27.168558811796821
 20
72.19999992783714
 30
0.0
  0
VERTEX
  5
1760
  8
SAPA_PROFIL
 62
     4
 10
33.168558811796821
 20
72.19999992783714
 30
0.0
 42
-0.4142135623730951
  0
VERTEX
  5
1761
  8
SAPA_PROFIL
 62
     4
 10
33.668558811796821
 20
71.69999992783714
 30
0.0
  0
VERTEX
  5
1762
  8
SAPA_PROFIL
 62
     4
 10
33.668558811796821
 20
70.799999927839323
 30
0.0
 42
-0.4142135623730953
  0
VERTEX
  5
1763
  8
SAPA_PROFIL
 62
     4
 10
33.368558811796639
 20
70.499999927840051
 30
0.0
  0
VERTEX
  5
1764
  8
SAPA_PROFIL
 62
     4
 10
32.718558811796782
 20
70.499999927840051
 30
0.0
 42
0.4142135623730951
  0
VERTEX
  5
1765
  8
SAPA_PROFIL
 62
     4
 10
32.418558811796821
 20
70.199999927839855
 30
0.0
  0
VERTEX
  5
1766
  8
SAPA_PROFIL
 62
     4
 10
32.418558811796821
 20
69.999999927840051
 30
0.0
 42
0.4142135623730951
  0
VERTEX
  5
1767
  8
SAPA_PROFIL
 62
     4
 10
32.918558811796821
 20
69.499999927840051
 30
0.0
  0
VERTEX
  5
1768
  8
SAPA_PROFIL
 62
     4
 10
35.918558811796821
 20
69.499999927840051
 30
0.0
 42
0.4142135623730951
  0
VERTEX
  5
1769
  8
SAPA_PROFIL
 62
     4
 10
36.418558811796821
 20
69.999999927840051
 30
0.0
  0
VERTEX
  5
176A
  8
SAPA_PROFIL
 62
     4
 10
36.418558811797958
 20
70.199999927832593
 30
0.0
 42
0.414213562372873
  0
VERTEX
  5
176B
  8
SAPA_PROFIL
 62
     4
 10
36.118558811799829
 20
70.499999927834594
 30
0.0
  0
VERTEX
  5
176C
  8
SAPA_PROFIL
 62
     4
 10
35.468558811798822
 20
70.499999927837322
 30
0.0
 42
-0.4142135623722071
  0
VERTEX
  5
176D
  8
SAPA_PROFIL
 62
     4
 10
35.168558811799791
 20
70.799999927838414
 30
0.0
  0
VERTEX
  5
176E
  8
SAPA_PROFIL
 62
     4
 10
35.168558811799791
 20
71.69999992783714
 30
0.0
 42
-0.4142135623730951
  0
VERTEX
  5
176F
  8
SAPA_PROFIL
 62
     4
 10
35.668558811799763
 20
72.19999992783714
 30
0.0
  0
VERTEX
  5
1770
  8
SAPA_PROFIL
 62
     4
 10
41.668558811801823
 20
72.199999927829865
 30
0.0
 42
-0.4142135623730951
  0
VERTEX
  5
1771
  8
SAPA_PROFIL
 62
     4
 10
42.168558811801823
 20
71.699999927829865
 30
0.0
  0
VERTEX
  5
1772
  8
SAPA_PROFIL
 62
     4
 10
42.168558811801823
 20
70.799999927832957
 30
0.0
 42
-0.4142135623730951
  0
VERTEX
  5
1773
  8
SAPA_PROFIL
 62
     4
 10
41.868558811801627
 20
70.499999927832775
 30
0.0
  0
VERTEX
  5
1774
  8
SAPA_PROFIL
 62
     4
 10
41.218558811799731
 20
70.499999927832775
 30
0.0
 42
0.4142135623730951
  0
VERTEX
  5
1775
  8
SAPA_PROFIL
 62
     4
 10
40.918558811799763
 20
70.199999927832593
 30
0.0
  0
VERTEX
  5
1776
  8
SAPA_PROFIL
 62
     4
 10
40.918558811799763
 20
69.999999927832775
 30
0.0
 42
0.4142135623730951
  0
VERTEX
  5
1777
  8
SAPA_PROFIL
 62
     4
 10
41.41855881179977
 20
69.499999927832775
 30
0.0
  0
VERTEX
  5
1778
  8
SAPA_PROFIL
 62
     4
 10
67.216293838723644
 20
69.499999927914644
 30
0.0
 42
-0.414213562374094
  0
VERTEX
  5
1779
  8
SAPA_PROFIL
 62
     4
 10
68.416293838727555
 20
68.299999927914826
 30
0.0
  0
VERTEX
  5
177A
  8
SAPA_PROFIL
 62
     4
 10
68.416293838727796
 20
65.571518577834752
 30
0.0
  0
SEQEND
  5
177B
  8
SAPA_PROFIL
 62
     4
  0
POLYLINE
  5
FAD
  8
SAPA_PROFIL
 62
     4
 66
     1
 10
0.0
 20
0.0
 30
0.0
 70
     1
  0
VERTEX
  5
177C
  8
SAPA_PROFIL
 62
     4
 10
43.452820282317312
 20
73.199999995880077
 30
0.0
  0
VERTEX
  5
177D
  8
SAPA_PROFIL
 62
     4
 10
43.452820282321419
 20
80.699999996438535
 30
0.0
 42
-0.4142135623730951
  0
VERTEX
  5
177E
  8
SAPA_PROFIL
 62
     4
 10
44.452820282321412
 20
81.699999996438521
 30
0.0
  0
VERTEX
  5
177F
  8
SAPA_PROFIL
 62
     4
 10
67.600555309245209
 20
81.699999996453982
 30
0.0
 42
-0.4142135623730949
  0
VERTEX
  5
1780
  8
SAPA_PROFIL
 62
     4
 10
68.400555309245391
 20
80.899999996453801
 30
0.0
  0
VERTEX
  5
1781
  8
SAPA_PROFIL
 62
     4
 10
68.400555309245391
 20
72.099999995935207
 30
0.0
 42
-0.414213562373428
  0
VERTEX
  5
1782
  8
SAPA_PROFIL
 62
     4
 10
67.600555309244299
 20
71.299999995935025
 30
0.0
  0
VERTEX
  5
1783
  8
SAPA_PROFIL
 62
     4
 10
44.452820282317312
 20
71.299999995958657
 30
0.0
 42
-0.4142135623724957
  0
VERTEX
  5
1784
  8
SAPA_PROFIL
 62
     4
 10
43.452820282319351
 20
72.299999995957748
 30
0.0
  0
SEQEND
  5
1785
  8
SAPA_PROFIL
 62
     4
  0
POLYLINE
  5
FAE
  8
SAPA_PROFIL
 66
     1
 10
0.0
 20
0.0
 30
0.0
 70
     1
  0
VERTEX
  5
1786
  8
SAPA_PROFIL
 10
24.999999999998352
 20
14.50000000001341
 30
0.0
  0
VERTEX
  5
1787
  8
SAPA_PROFIL
 10
25.00000000000199
 20
19.500000000013411
 30
0.0
 42
-0.4142135623730951
  0
VERTEX
  5
1788
  8
SAPA_PROFIL
 10
26.00000000000199
 20
20.500000000013411
 30
0.0
  0
VERTEX
  5
1789
  8
SAPA_PROFIL
 10
36.000000000001307
 20
20.500000000006139
 30
0.0
 42
-0.4142135623730951
  0
VERTEX
  5
178A
  8
SAPA_PROFIL
 10
37.000000000001307
 20
19.500000000013411
 30
0.0
  0
VERTEX
  5
178B
  8
SAPA_PROFIL
 10
37.000000000001307
 20
17.749999999977032
 30
0.0
 42
0.9999999999999998
  0
VERTEX
  5
178C
  8
SAPA_PROFIL
 10
38.500000000008569
 20
17.749999999977032
 30
0.0
  0
VERTEX
  5
178D
  8
SAPA_PROFIL
 10
38.500000000012221
 20
19.500000000006139
 30
0.0
 42
0.4142135623730951
  0
VERTEX
  5
178E
  8
SAPA_PROFIL
 10
36.000000000008583
 20
22.000000000013419
 30
0.0
  0
VERTEX
  5
178F
  8
SAPA_PROFIL
 10
26.200000000002721
 20
22.000000000013411
 30
0.0
 42
-0.4142135623730951
  0
VERTEX
  5
1790
  8
SAPA_PROFIL
 10
25.200000000002721
 20
23.000000000013411
 30
0.0
  0
VERTEX
  5
1791
  8
SAPA_PROFIL
 10
25.20000000000271
 20
67.249999999307647
 30
0.0
 42
-0.4142135623730951
  0
VERTEX
  5
1792
  8
SAPA_PROFIL
 10
25.70000000000271
 20
67.749999999307633
 30
0.0
  0
VERTEX
  5
1793
  8
SAPA_PROFIL
 10
43.500000000005613
 20
67.74999999931056
 30
0.0
 42
0.8390996311761574
  0
VERTEX
  5
1794
  8
SAPA_PROFIL
 10
43.602606043003263
 20
68.331907785547401
 30
0.0
  0
VERTEX
  5
1795
  8
SAPA_PROFIL
 10
37.302606043004332
 20
70.624920261431981
 30
0.0
 42
0.4663076581554896
  0
VERTEX
  5
1796
  8
SAPA_PROFIL
 10
36.904557674102463
 20
70.39510692849467
 30
0.0
  0
VERTEX
  5
1797
  8
SAPA_PROFIL
 10
36.775498487606932
 20
69.663175910480945
 30
0.0
 42
-0.3639702342659115
  0
VERTEX
  5
1798
  8
SAPA_PROFIL
 10
36.283094611100907
 20
69.249999999314923
 30
0.0
  0
VERTEX
  5
1799
  8
SAPA_PROFIL
 10
25.500000000001979
 20
69.249999999307647
 30
0.0
 42
-0.4142135623730951
  0
VERTEX
  5
179A
  8
SAPA_PROFIL
 10
25.000000000001979
 20
69.749999999307647
 30
0.0
  0
VERTEX
  5
179B
  8
SAPA_PROFIL
 10
25.000000000009251
 20
82.999999999998863
 30
0.0
 42
0.4142135623730951
  0
VERTEX
  5
179C
  8
SAPA_PROFIL
 10
24.50000000000561
 20
83.499999999998849
 30
0.0
 42
0.4142135623730951
  0
VERTEX
  5
179D
  8
SAPA_PROFIL
 10
23.50000000000561
 20
82.499999999998863
 30
0.0
  0
VERTEX
  5
179E
  8
SAPA_PROFIL
 10
23.50000000000199
 20
15.00000000001341
 30
0.0
 42
0.4142135623730951
  0
VERTEX
  5
179F
  8
SAPA_PROFIL
 10
24.50000000000199
 20
14.00000000001341
 30
0.0
 42
0.4142135623730951
  0
SEQEND
  5
17A0
  8
SAPA_PROFIL
  0
LINE
  5
FDA
  8
SAPA_GLAS
 10
-0.0000000000035855
 20
90.799999928689104
 30
0.0
 11
0.5027779603471566
 21
90.711346608977507
 31
0.0
  0
LINE
  5
FDB
  8
SAPA_GLAS
 10
1.986969785101546
 20
94.809538859322629
 30
0.0
 11
1.986969785101546
 21
94.999999928200566
 31
0.0
  0
ARC
  5
FDC
  8
SAPA_GLAS
 10
-14.584669372814821
 20
92.999999928198747
 30
0.0
 40
9.9869792597787779
 50
348.44779235426699
 51
11.55220764573137
  0
LINE
  5
FDD
  8
SAPA_GLAS
 10
-0.0000000000035788
 20
127.1999999277123
 30
0.0
 11
0.5027779603471633
 21
127.28865324742389
 31
0.0
  0
LINE
  5
FDE
  8
SAPA_GLAS
 10
1.9869697851015511
 20
123.1904609970788
 30
0.0
 11
1.9869697851015511
 21
122.99999992820089
 31
0.0
  0
ARC
  5
FDF
  8
SAPA_GLAS
 10
-14.58466937281481
 20
124.9999999282027
 30
0.0
 40
9.9869792597787779
 50
348.44779235426699
 51
11.552207645732979
  0
POLYLINE
  5
FE0
  8
SAPA_GLAS
 66
     1
 10
0.0
 20
0.0
 30
0.0
 70
     1
  0
VERTEX
  5
1807
  8
SAPA_GLAS
 10
2.7604722664102641
 20
94.87721155776174
 30
0.0
 42
0.1316524975872964
  0
VERTEX
  5
1808
  8
SAPA_GLAS
 10
1.986969784920869
 20
94.809538859424634
 30
0.0
  0
VERTEX
  5
1809
  8
SAPA_GLAS
 10
0.4698463102967487
 20
94.257351072973108
 30
0.0
 42
0.4142135623734131
  0
VERTEX
  5
180A
  8
SAPA_GLAS
 10
0.1710100715623956
 20
93.616494690920035
 30
0.0
  0
VERTEX
  5
180B
  8
SAPA_GLAS
 10
0.2394141002270051
 20
93.428556166760416
 30
0.0
 42
0.4142135623732762
  0
VERTEX
  5
180C
  8
SAPA_GLAS
 10
0.6239279294604817
 20
93.249254423516248
 30
0.0
  0
VERTEX
  5
180D
  8
SAPA_GLAS
 10
0.64714138677839
 20
93.257703431024623
 30
0.0
 42
-0.5773502691875974
  0
VERTEX
  5
180E
  8
SAPA_GLAS
 10
0.912506966044727
 20
93.035035271328042
 30
0.0
  0
VERTEX
  5
180F
  8
SAPA_GLAS
 10
0.1514894435678424
 20
88.719090431831134
 30
0.0
 42
0.4142135623736183
  0
VERTEX
  5
1810
  8
SAPA_GLAS
 10
0.3948373161691686
 20
88.371553652634958
 30
0.0
  0
VERTEX
  5
1811
  8
SAPA_GLAS
 10
0.788760417371338
 20
88.302094381564856
 30
0.0
 42
0.4142135623730951
  0
VERTEX
  5
1812
  8
SAPA_GLAS
 10
1.1362971965765021
 20
88.545442254161998
 30
0.0
  0
VERTEX
  5
1813
  8
SAPA_GLAS
 10
2.00759612339382
 20
93.486824017083393
 30
0.0
 42
-0.4142135623725704
  0
VERTEX
  5
1814
  8
SAPA_GLAS
 10
2.5868240887352369
 20
93.892403804748255
 30
0.0
  0
VERTEX
  5
1815
  8
SAPA_GLAS
 10
9.4131759110623001
 20
92.688733798615402
 30
0.0
 42
0.4663076581553405
  0
VERTEX
  5
1816
  8
SAPA_GLAS
 10
9.9999999998993978
 20
93.181137675121022
 30
0.0
  0
VERTEX
  5
1817
  8
SAPA_GLAS
 10
10.00000000010081
 20
124.81886218128039
 30
0.0
 42
0.4663076581553401
  0
VERTEX
  5
1818
  8
SAPA_GLAS
 10
9.4131759112699331
 20
125.31126605779021
 30
0.0
  0
VERTEX
  5
1819
  8
SAPA_GLAS
 10
2.5868240889276009
 20
124.10759605174751
 30
0.0
 42
-0.4142135623725707
  0
VERTEX
  5
181A
  8
SAPA_GLAS
 10
2.007596123591342
 20
124.5131758394198
 30
0.0
  0
VERTEX
  5
181B
  8
SAPA_GLAS
 10
1.1362971968369451
 20
129.45455760235231
 30
0.0
 42
0.4142135623730951
  0
VERTEX
  5
181C
  8
SAPA_GLAS
 10
0.7887604176348787
 20
129.6979054749539
 30
0.0
  0
VERTEX
  5
181D
  8
SAPA_GLAS
 10
0.3948373164318283
 20
129.62844620388881
 30
0.0
 42
0.4142135623736183
  0
VERTEX
  5
181E
  8
SAPA_GLAS
 10
0.1514894438260682
 20
129.28090942469569
 30
0.0
  0
VERTEX
  5
181F
  8
SAPA_GLAS
 10
0.9125069662480049
 20
124.96496458518909
 30
0.0
 42
-0.5773502691875974
  0
VERTEX
  5
1820
  8
SAPA_GLAS
 10
0.6471413869788326
 20
124.74229642549589
 30
0.0
  0
VERTEX
  5
1821
  8
SAPA_GLAS
 10
0.6239279296610311
 20
124.7507454330046
 30
0.0
 42
0.4142135623732762
  0
VERTEX
  5
1822
  8
SAPA_GLAS
 10
0.2394141004252735
 20
124.5714436897653
 30
0.0
  0
VERTEX
  5
1823
  8
SAPA_GLAS
 10
0.1710100717582695
 20
124.38350516560649
 30
0.0
 42
0.4142135623734131
  0
VERTEX
  5
1824
  8
SAPA_GLAS
 10
0.4698463104844581
 20
123.7426487835497
 30
0.0
  0
VERTEX
  5
1825
  8
SAPA_GLAS
 10
1.9869697851015511
 20
123.1904609970788
 30
0.0
 42
0.1316524975872963
  0
VERTEX
  5
1826
  8
SAPA_GLAS
 10
2.760472266590086
 20
123.1227882987319
 30
0.0
  0
VERTEX
  5
1827
  8
SAPA_GLAS
 10
8.7652703645627756
 20
124.1815962170591
 30
0.0
 42
-0.4663076581547951
  0
VERTEX
  5
1828
  8
SAPA_GLAS
 10
9.0000000000947722
 20
123.98463466645519
 30
0.0
  0
VERTEX
  5
1829
  8
SAPA_GLAS
 10
8.9999999999039808
 20
94.01536518995897
 30
0.0
 42
-0.466307658154795
  0
VERTEX
  5
182A
  8
SAPA_GLAS
 10
8.7652703643694743
 20
93.818403639357996
 30
0.0
  0
SEQEND
  5
182B
  8
SAPA_GLAS
  0
POLYLINE
  5
FE1
  8
SAPA_GLAS
 66
     1
 10
0.0
 20
0.0
 30
0.0
  0
VERTEX
  5
182C
  8
SAPA_GLAS
 10
-23.999999999999879
 20
122.99999992820089
 30
0.0
  0
VERTEX
  5
182D
  8
SAPA_GLAS
 10
8.000000000000119
 20
122.99999992820089
 30
0.0
  0
VERTEX
  5
182E
  8
SAPA_GLAS
 10
8.0000000000001172
 20
118.99999992820089
 30
0.0
  0
VERTEX
  5
182F
  8
SAPA_GLAS
 10
-23.999999999999879
 20
118.99999992820089
 30
0.0
  0
SEQEND
  5
1830
  8
SAPA_GLAS
  0
POLYLINE
  5
FE2
  8
SAPA_GLAS
 66
     1
 10
0.0
 20
0.0
 30
0.0
  0
VERTEX
  5
1831
  8
SAPA_GLAS
 10
-1.9999999999998921
 20
98.999999928200737
 30
0.0
  0
VERTEX
  5
1832
  8
SAPA_GLAS
 10
-1.999999999999885
 20
118.99999992820069
 30
0.0
  0
VERTEX
  5
1833
  8
SAPA_GLAS
 10
8.0000000000001243
 20
118.99999992820069
 30
0.0
  0
VERTEX
  5
1834
  8
SAPA_GLAS
 10
8.0000000000001066
 20
98.999999928200722
 30
0.0
  0
VERTEX
  5
1835
  8
SAPA_GLAS
 10
-1.9999999999998921
 20
98.999999928200737
 30
0.0
  0
SEQEND
  5
1836
  8
SAPA_GLAS
  0
POLYLINE
  5
FE3
  8
SAPA_GLAS
 66
     1
 10
0.0
 20
0.0
 30
0.0
  0
VERTEX
  5
1837
  8
SAPA_GLAS
 10
-23.99999999999989
 20
94.999999928200737
 30
0.0
  0
VERTEX
  5
1838
  8
SAPA_GLAS
 10
8.0000000000001066
 20
94.999999928200722
 30
0.0
  0
VERTEX
  5
1839
  8
SAPA_GLAS
 10
8.0000000000001066
 20
98.999999928200722
 30
0.0
  0
VERTEX
  5
183A
  8
SAPA_GLAS
 10
-23.99999999999989
 20
98.999999928200737
 30
0.0
  0
SEQEND
  5
183B
  8
SAPA_GLAS
  0
INSERT
  5
FE4
  8
SAPA_GLAS
  6
CONTINUOUS
  2
*X48
 10
0.0
 20
0.0
 30
0.0
1001
ACAD
1000
HATCH
1002
{
1070
    19
1000
ANSI37
1040
0.25
1040
-1.5707963267948959
1000
R14_HATCH_DATA
1000
FE4
1011
1.0
1021
0.0
1031
0.0
1021
0.0
1031
0.0
1011
0.0
1021
0.0
1031
0.0
1021
1.0
1031
0.0
1011
0.0
1021
0.0
1031
0.0
1021
0.0
1031
1.0
1040
0.0
1010
0.0
1020
0.0
1030
1.0
1000
ANSI37
1070
     0
1070
     0
1071
        1
1071
        7
1070
     1
1070
     1
1071
       21
1040
-4.8000000000029006
1040
94.999999928200737
1040
-0.1011549434925542
1040
-4.8000000000759506
1040
90.999999927839397
1040
0.0
1040
-3.700000000004259
1040
90.999999927846687
1040
-0.4142135623731029
1040
-3.5000000000035318
1040
90.799999927849598
1040
0.0
1040
-3.5000000000144391
1040
89.999999927846687
1040
0.4142135623730951
1040
-3.0000000000144529
1040
89.499999927846673
1040
0.0
1040
-2.0000000000035318
1040
89.499999928326872
1040
0.414213562373094
1040
-1.5000000000035321
1040
89.999999928326872
1040
0.0
1040
-1.5000000000035321
1040
90.799999928337044
1040
-0.4142135623731048
1040
-1.300000000002804
1040
90.999999928326872
1040
0.0
1040
-0.2000000000042597
1040
90.999999928326872
1040
-0.4142135618575339
1040
-0.0000000000035321
1040
90.799999928689104
1040
0.0
1040
0.5027779601006424
1040
90.711346609020978
1040
0.0
1040
0.912506966044727
1040
93.035035271328042
1040
0.5773502691875974
1040
0.64714138677839
1040
93.257703431024623
1040
0.0
1040
0.6239279294604817
1040
93.249254423516248
1040
-0.4142135623732763
1040
0.2394141002270051
1040
93.428556166760416
1040
0.0
1040
0.1710100715623956
1040
93.616494690920035
1040
-0.4142135623734132
1040
0.4698463102967487
1040
94.257351072973108
1040
0.0
1040
1.986969785101546
1040
94.809538859490388
1040
0.0
1040
1.986969785101546
1040
94.999999928200722
1040
0.0
1071
        0
1070
     0
1070
     1
1040
-1.5707963267948959
1040
0.25
1070
     0
1070
     2
1040
5.4977871437821371
1040
-5.000000000003527
1040
132.4999999277548
1040
0.5612660075668222
1040
0.5612660075668219
1070
     0
1040
0.7853981633974481
1040
-5.000000000003527
1040
132.4999999277548
1040
-0.5612660075668219
1040
0.5612660075668222
1070
     0
1040
0.0554184978666472
1071
        1
1040
-2.3851922194989581
1040
92.977469915190738
1040
0.0
1002
}
  0
INSERT
  5
FE5
  8
SAPA_GLAS
  6
CONTINUOUS
  2
*X49
 10
0.0
 20
0.0
 30
0.0
1001
ACAD
1000
HATCH
1002
{
1070
    19
1000
ANSI37
1040
0.25
1040
-1.5707963267948959
1000
R14_HATCH_DATA
1000
FE5
1011
1.0
1021
0.0
1031
0.0
1021
0.0
1031
0.0
1011
0.0
1021
0.0
1031
0.0
1021
1.0
1031
0.0
1011
0.0
1021
0.0
1031
0.0
1021
0.0
1031
1.0
1040
0.0
1010
0.0
1020
0.0
1030
1.0
1000
ANSI37
1070
     0
1070
     0
1071
        1
1071
        7
1070
     1
1070
     1
1071
       21
1040
1.9869697851015511
1040
122.99999992820089
1040
0.0
1040
1.9869697851015511
1040
123.1904609970788
1040
0.0
1040
0.4698463104844581
1040
123.7426487835497
1040
-0.4142135623734131
1040
0.1710100717582695
1040
124.38350516560649
1040
0.0
1040
0.2394141004252735
1040
124.5714436897653
1040
-0.4142135623732763
1040
0.6239279296610311
1040
124.7507454330046
1040
0.0
1040
0.6471413869788326
1040
124.74229642549589
1040
0.5773502691875974
1040
0.9125069662480049
1040
124.96496458518909
1040
0.0
1040
0.5027779603471628
1040
127.28865324742389
1040
0.0
1040
-0.0000000000035788
1040
127.1999999277123
1040
-0.4142135623811048
1040
-0.2000000000043064
1040
126.999999927717
1040
0.0
1040
-1.3000000000028511
1040
126.999999927717
1040
-0.4142135623731048
1040
-1.500000000003578
1040
127.1999999277068
1040
0.0
1040
-1.500000000003578
1040
127.999999927717
1040
0.414213562373094
1040
-2.000000000003578
1040
128.499999927717
1040
0.0
1040
-3.0000000000145062
1040
128.49999992819721
1040
0.4142135623730951
1040
-3.500000000014492
1040
127.9999999281972
1040
0.0
1040
-3.500000000003578
1040
127.1999999281943
1040
-0.4142135623731029
1040
-3.7000000000043061
1040
126.9999999281972
1040
0.0
1040
-4.8000000000028651
1040
126.9999999282045
1040
-0.101154943483322
1040
-4.8000000000028651
1040
122.99999992820089
1040
0.0
1071
        0
1070
     0
1070
     1
1040
-1.5707963267948959
1040
0.25
1070
     0
1070
     2
1040
5.4977871437821371
1040
-5.000000000003527
1040
132.4999999277548
1040
0.5612660075668222
1040
0.5612660075668219
1070
     0
1040
0.7853981633974481
1040
-5.000000000003527
1040
132.4999999277548
1040
-0.5612660075668219
1040
0.5612660075668222
1070
     0
1040
0.0245236365555031
1071
        1
1040
-1.809426762816462
1040
124.9429814047698
1040
0.0
1002
}
  0
POLYLINE
  5
1000
  8
SAPA_FOGBAND
 66
     1
 10
0.0
 20
0.0
 30
0.0
 70
     1
  0
VERTEX
  5
191B
  8
SAPA_FOGBAND
 10
35.350000000017587
 20
136.7499999277446
 30
0.0
  0
VERTEX
  5
191C
  8
SAPA_FOGBAND
 10
35.350000000017587
 20
135.94999992774439
 30
0.0
  0
VERTEX
  5
191D
  8
SAPA_FOGBAND
 10
41.650000000014671
 20
135.94999992774439
 30
0.0
  0
VERTEX
  5
191E
  8
SAPA_FOGBAND
 10
41.650000000014671
 20
136.7499999277446
 30
0.0
  0
SEQEND
  5
191F
  8
SAPA_FOGBAND
  0
POLYLINE
  5
1001
  8
SAPA_FOGBAND
 66
     1
 10
0.0
 20
0.0
 30
0.0
  0
VERTEX
  5
1920
  8
SAPA_FOGBAND
 10
40.072689603157173
 20
135.94999992774439
 30
0.0
  0
VERTEX
  5
1921
  8
SAPA_FOGBAND
 10
41.198136200473087
 20
132.4999999277446
 30
0.0
  0
VERTEX
  5
1922
  8
SAPA_FOGBAND
 10
38.759998153924563
 20
132.4999999277446
 30
0.0
  0
VERTEX
  5
1923
  8
SAPA_FOGBAND
 10
38.650000000017592
 20
135.94999992774439
 30
0.0
  0
SEQEND
  5
1924
  8
SAPA_FOGBAND
  0
POLYLINE
  5
1002
  8
SAPA_FOGBAND
 66
     1
 10
0.0
 20
0.0
 30
0.0
  0
VERTEX
  5
1925
  8
SAPA_FOGBAND
 10
38.575000000016857
 20
135.94999992774439
 30
0.0
  0
VERTEX
  5
1926
  8
SAPA_FOGBAND
 10
38.575000000013581
 20
132.4999999277446
 30
0.0
  0
VERTEX
  5
1927
  8
SAPA_FOGBAND
 10
38.425000000015388
 20
132.4999999277446
 30
0.0
  0
VERTEX
  5
1928
  8
SAPA_FOGBAND
 10
38.425000000015402
 20
135.94999992774439
 30
0.0
  0
SEQEND
  5
1929
  8
SAPA_FOGBAND
  0
POLYLINE
  5
1003
  8
SAPA_FOGBAND
 66
     1
 10
0.0
 20
0.0
 30
0.0
  0
VERTEX
  5
192A
  8
SAPA_FOGBAND
 10
38.350000000014681
 20
135.94999992774439
 30
0.0
  0
VERTEX
  5
192B
  8
SAPA_FOGBAND
 10
38.240002614832427
 20
132.4999999277446
 30
0.0
  0
VERTEX
  5
192C
  8
SAPA_FOGBAND
 10
35.801909274410271
 20
132.4999999277446
 30
0.0
  0
VERTEX
  5
192D
  8
SAPA_FOGBAND
 10
36.927310396875093
 20
135.94999992774439
 30
0.0
  0
SEQEND
  5
192E
  8
SAPA_FOGBAND
  0
POLYLINE
  5
1004
  8
SAPA_FOGBAND
 66
     1
 10
0.0
 20
0.0
 30
0.0
 70
     1
  0
VERTEX
  5
192F
  8
SAPA_FOGBAND
 10
26.850000000003039
 20
136.7499999277446
 30
0.0
  0
VERTEX
  5
1930
  8
SAPA_FOGBAND
 10
26.850000000003039
 20
135.94999992774439
 30
0.0
  0
VERTEX
  5
1931
  8
SAPA_FOGBAND
 10
33.150000000000119
 20
135.94999992774439
 30
0.0
  0
VERTEX
  5
1932
  8
SAPA_FOGBAND
 10
33.150000000000119
 20
136.7499999277446
 30
0.0
  0
SEQEND
  5
1933
  8
SAPA_FOGBAND
  0
POLYLINE
  5
1005
  8
SAPA_FOGBAND
 66
     1
 10
0.0
 20
0.0
 30
0.0
  0
VERTEX
  5
1934
  8
SAPA_FOGBAND
 10
31.572689603142621
 20
135.94999992774439
 30
0.0
  0
VERTEX
  5
1935
  8
SAPA_FOGBAND
 10
32.698136200458542
 20
132.4999999277446
 30
0.0
  0
VERTEX
  5
1936
  8
SAPA_FOGBAND
 10
30.259998153910011
 20
132.4999999277446
 30
0.0
  0
VERTEX
  5
1937
  8
SAPA_FOGBAND
 10
30.150000000003029
 20
135.94999992774439
 30
0.0
  0
SEQEND
  5
1938
  8
SAPA_FOGBAND
  0
POLYLINE
  5
1006
  8
SAPA_FOGBAND
 66
     1
 10
0.0
 20
0.0
 30
0.0
  0
VERTEX
  5
1939
  8
SAPA_FOGBAND
 10
30.075000000002309
 20
135.94999992774439
 30
0.0
  0
VERTEX
  5
193A
  8
SAPA_FOGBAND
 10
30.074999999999029
 20
132.4999999277446
 30
0.0
  0
VERTEX
  5
193B
  8
SAPA_FOGBAND
 10
29.925000000000839
 20
132.4999999277446
 30
0.0
  0
VERTEX
  5
193C
  8
SAPA_FOGBAND
 10
29.92500000000085
 20
135.94999992774439
 30
0.0
  0
SEQEND
  5
193D
  8
SAPA_FOGBAND
  0
POLYLINE
  5
1007
  8
SAPA_FOGBAND
 66
     1
 10
0.0
 20
0.0
 30
0.0
  0
VERTEX
  5
193E
  8
SAPA_FOGBAND
 10
29.850000000000119
 20
135.94999992774439
 30
0.0
  0
VERTEX
  5
193F
  8
SAPA_FOGBAND
 10
29.740002614817872
 20
132.4999999277446
 30
0.0
  0
VERTEX
  5
1940
  8
SAPA_FOGBAND
 10
27.301909274395712
 20
132.4999999277446
 30
0.0
  0
VERTEX
  5
1941
  8
SAPA_FOGBAND
 10
28.427310396860541
 20
135.94999992774439
 30
0.0
  0
SEQEND
  5
1942
  8
SAPA_FOGBAND
  0
POLYLINE
  5
1008
  8
SAPA_FOGBAND
 66
     1
 10
0.0
 20
0.0
 30
0.0
 70
     1
  0
VERTEX
  5
1943
  8
SAPA_FOGBAND
 10
35.568558811853343
 20
81.249999928082246
 30
0.0
  0
VERTEX
  5
1944
  8
SAPA_FOGBAND
 10
35.568558811853343
 20
82.049999928082457
 30
0.0
  0
VERTEX
  5
1945
  8
SAPA_FOGBAND
 10
41.868558811850413
 20
82.049999928082457
 30
0.0
  0
VERTEX
  5
1946
  8
SAPA_FOGBAND
 10
41.868558811850413
 20
81.249999928082246
 30
0.0
  0
SEQEND
  5
1947
  8
SAPA_FOGBAND
  0
POLYLINE
  5
1009
  8
SAPA_FOGBAND
 66
     1
 10
0.0
 20
0.0
 30
0.0
  0
VERTEX
  5
1948
  8
SAPA_FOGBAND
 10
40.291248414992907
 20
82.049999928082457
 30
0.0
  0
VERTEX
  5
1949
  8
SAPA_FOGBAND
 10
41.416695012308843
 20
85.499999928082261
 30
0.0
  0
VERTEX
  5
194A
  8
SAPA_FOGBAND
 10
38.978556965760298
 20
85.499999928082261
 30
0.0
  0
VERTEX
  5
194B
  8
SAPA_FOGBAND
 10
38.868558811853333
 20
82.049999928082457
 30
0.0
  0
SEQEND
  5
194C
  8
SAPA_FOGBAND
  0
POLYLINE
  5
100A
  8
SAPA_FOGBAND
 66
     1
 10
0.0
 20
0.0
 30
0.0
  0
VERTEX
  5
194D
  8
SAPA_FOGBAND
 10
38.793558811852613
 20
82.049999928082457
 30
0.0
  0
VERTEX
  5
194E
  8
SAPA_FOGBAND
 10
38.79355881184933
 20
85.499999928082261
 30
0.0
  0
VERTEX
  5
194F
  8
SAPA_FOGBAND
 10
38.643558811851143
 20
85.499999928082261
 30
0.0
  0
VERTEX
  5
1950
  8
SAPA_FOGBAND
 10
38.64355881185115
 20
82.049999928082457
 30
0.0
  0
SEQEND
  5
1951
  8
SAPA_FOGBAND
  0
POLYLINE
  5
100B
  8
SAPA_FOGBAND
 66
     1
 10
0.0
 20
0.0
 30
0.0
  0
VERTEX
  5
1952
  8
SAPA_FOGBAND
 10
38.568558811850423
 20
82.049999928082457
 30
0.0
  0
VERTEX
  5
1953
  8
SAPA_FOGBAND
 10
38.458561426668183
 20
85.499999928082261
 30
0.0
  0
VERTEX
  5
1954
  8
SAPA_FOGBAND
 10
36.020468086246019
 20
85.499999928082261
 30
0.0
  0
VERTEX
  5
1955
  8
SAPA_FOGBAND
 10
37.145869208710828
 20
82.049999928082457
 30
0.0
  0
SEQEND
  5
1956
  8
SAPA_FOGBAND
  0
POLYLINE
  5
100C
  8
SAPA_FOGBAND
 66
     1
 10
0.0
 20
0.0
 30
0.0
 70
     1
  0
VERTEX
  5
1957
  8
SAPA_FOGBAND
 10
27.068558811838791
 20
81.249999928082246
 30
0.0
  0
VERTEX
  5
1958
  8
SAPA_FOGBAND
 10
27.068558811838791
 20
82.049999928082457
 30
0.0
  0
VERTEX
  5
1959
  8
SAPA_FOGBAND
 10
33.368558811835868
 20
82.049999928082457
 30
0.0
  0
VERTEX
  5
195A
  8
SAPA_FOGBAND
 10
33.368558811835868
 20
81.249999928082246
 30
0.0
  0
SEQEND
  5
195B
  8
SAPA_FOGBAND
  0
POLYLINE
  5
100D
  8
SAPA_FOGBAND
 66
     1
 10
0.0
 20
0.0
 30
0.0
  0
VERTEX
  5
195C
  8
SAPA_FOGBAND
 10
31.791248414978369
 20
82.049999928082457
 30
0.0
  0
VERTEX
  5
195D
  8
SAPA_FOGBAND
 10
32.916695012294291
 20
85.499999928082261
 30
0.0
  0
VERTEX
  5
195E
  8
SAPA_FOGBAND
 10
30.47855696574576
 20
85.499999928082261
 30
0.0
  0
VERTEX
  5
195F
  8
SAPA_FOGBAND
 10
30.368558811838781
 20
82.049999928082457
 30
0.0
  0
SEQEND
  5
1960
  8
SAPA_FOGBAND
  0
POLYLINE
  5
100E
  8
SAPA_FOGBAND
 66
     1
 10
0.0
 20
0.0
 30
0.0
  0
VERTEX
  5
1961
  8
SAPA_FOGBAND
 10
30.293558811838061
 20
82.049999928082457
 30
0.0
  0
VERTEX
  5
1962
  8
SAPA_FOGBAND
 10
30.293558811834782
 20
85.499999928082261
 30
0.0
  0
VERTEX
  5
1963
  8
SAPA_FOGBAND
 10
30.143558811836591
 20
85.499999928082261
 30
0.0
  0
VERTEX
  5
1964
  8
SAPA_FOGBAND
 10
30.143558811836598
 20
82.049999928082457
 30
0.0
  0
SEQEND
  5
1965
  8
SAPA_FOGBAND
  0
POLYLINE
  5
100F
  8
SAPA_FOGBAND
 66
     1
 10
0.0
 20
0.0
 30
0.0
  0
VERTEX
  5
1966
  8
SAPA_FOGBAND
 10
30.068558811835871
 20
82.049999928082457
 30
0.0
  0
VERTEX
  5
1967
  8
SAPA_FOGBAND
 10
29.95856142665362
 20
85.499999928082261
 30
0.0
  0
VERTEX
  5
1968
  8
SAPA_FOGBAND
 10
27.52046808623146
 20
85.499999928082261
 30
0.0
  0
VERTEX
  5
1969
  8
SAPA_FOGBAND
 10
28.645869208696279
 20
82.049999928082457
 30
0.0
  0
SEQEND
  5
196A
  8
SAPA_FOGBAND
  0
POLYLINE
  5
1010
  8
SAPA_FOGBAND
 66
     1
 10
0.0
 20
0.0
 30
0.0
 70
     1
  0
VERTEX
  5
196B
  8
SAPA_FOGBAND
 10
26.85000000000306
 20
16.2500000000237
 30
0.0
  0
VERTEX
  5
196C
  8
SAPA_FOGBAND
 10
26.85000000000306
 20
17.050000000023878
 30
0.0
  0
VERTEX
  5
196D
  8
SAPA_FOGBAND
 10
33.150000000000148
 20
17.050000000023878
 30
0.0
  0
VERTEX
  5
196E
  8
SAPA_FOGBAND
 10
33.150000000000148
 20
16.2500000000237
 30
0.0
  0
SEQEND
  5
196F
  8
SAPA_FOGBAND
  0
POLYLINE
  5
1011
  8
SAPA_FOGBAND
 66
     1
 10
0.0
 20
0.0
 30
0.0
  0
VERTEX
  5
1970
  8
SAPA_FOGBAND
 10
31.572689603142649
 20
17.050000000023878
 30
0.0
  0
VERTEX
  5
1971
  8
SAPA_FOGBAND
 10
32.69813620045857
 20
20.5000000000237
 30
0.0
  0
VERTEX
  5
1972
  8
SAPA_FOGBAND
 10
30.259998153910029
 20
20.5000000000237
 30
0.0
  0
VERTEX
  5
1973
  8
SAPA_FOGBAND
 10
30.150000000003061
 20
17.050000000023878
 30
0.0
  0
SEQEND
  5
1974
  8
SAPA_FOGBAND
  0
POLYLINE
  5
1012
  8
SAPA_FOGBAND
 66
     1
 10
0.0
 20
0.0
 30
0.0
  0
VERTEX
  5
1975
  8
SAPA_FOGBAND
 10
30.07500000000233
 20
17.050000000023878
 30
0.0
  0
VERTEX
  5
1976
  8
SAPA_FOGBAND
 10
30.074999999999061
 20
20.5000000000237
 30
0.0
  0
VERTEX
  5
1977
  8
SAPA_FOGBAND
 10
29.925000000000871
 20
20.5000000000237
 30
0.0
  0
VERTEX
  5
1978
  8
SAPA_FOGBAND
 10
29.925000000000878
 20
17.050000000023878
 30
0.0
  0
SEQEND
  5
1979
  8
SAPA_FOGBAND
  0
POLYLINE
  5
1013
  8
SAPA_FOGBAND
 66
     1
 10
0.0
 20
0.0
 30
0.0
  0
VERTEX
  5
197A
  8
SAPA_FOGBAND
 10
29.850000000000151
 20
17.050000000023878
 30
0.0
  0
VERTEX
  5
197B
  8
SAPA_FOGBAND
 10
29.740002614817911
 20
20.5000000000237
 30
0.0
  0
VERTEX
  5
197C
  8
SAPA_FOGBAND
 10
27.30190927439574
 20
20.5000000000237
 30
0.0
  0
VERTEX
  5
197D
  8
SAPA_FOGBAND
 10
28.427310396860559
 20
17.050000000023878
 30
0.0
  0
SEQEND
  5
197E
  8
SAPA_FOGBAND
  0
POLYLINE
  5
1014
  8
SAPA_FOGBAND
 66
     1
 10
0.0
 20
0.0
 30
0.0
 70
     1
  0
VERTEX
  5
197F
  8
SAPA_FOGBAND
 10
55.365900619755529
 20
123.4999999281525
 30
0.0
 42
0.1850472530618334
  0
VERTEX
  5
1980
  8
SAPA_FOGBAND
 10
59.55692446205606
 20
125.773218411456
 30
0.0
  0
VERTEX
  5
1981
  8
SAPA_FOGBAND
 10
65.047352108296749
 20
134.22773564020301
 30
0.0
 42
-0.9741568709149724
  0
VERTEX
  5
1982
  8
SAPA_FOGBAND
 10
65.899700095854243
 20
133.70541612545401
 30
0.0
  0
VERTEX
  5
1983
  8
SAPA_FOGBAND
 10
60.65220104745044
 20
124.61648109300469
 30
0.0
 42
0.1225854743533026
  0
VERTEX
  5
1984
  8
SAPA_FOGBAND
 10
60.250277310636172
 20
123.1170119969869
 30
0.0
  0
VERTEX
  5
1985
  8
SAPA_FOGBAND
 10
60.250277310574774
 20
115.7422176634378
 30
0.0
 42
0.7231341048822281
  0
VERTEX
  5
1986
  8
SAPA_FOGBAND
 10
62.368520553540677
 20
114.37555190671181
 30
0.0
 42
-0.2949636304573953
  0
VERTEX
  5
1987
  8
SAPA_FOGBAND
 10
67.950277310531618
 20
113.9887372432575
 30
0.0
  0
VERTEX
  5
1988
  8
SAPA_FOGBAND
 10
67.950277310528776
 20
111.2499999280634
 30
0.0
  0
VERTEX
  5
1989
  8
SAPA_FOGBAND
 10
66.996584605867383
 20
110.6306646440913
 30
0.0
 42
-0.1449930994868795
  0
VERTEX
  5
198A
  8
SAPA_FOGBAND
 10
66.724265088368341
 20
110.5499999280668
 30
0.0
  0
VERTEX
  5
198B
  8
SAPA_FOGBAND
 10
66.650277310521403
 20
110.5499999280691
 30
0.0
 42
-0.4142135623645706
  0
VERTEX
  5
198C
  8
SAPA_FOGBAND
 10
66.150277310524586
 20
111.0499999280723
 30
0.0
  0
VERTEX
  5
198D
  8
SAPA_FOGBAND
 10
66.150277310527045
 20
111.43721146119189
 30
0.0
 42
0.3292444226696578
  0
VERTEX
  5
198E
  8
SAPA_FOGBAND
 10
65.726747897976978
 20
112.0106729958914
 30
0.0
 42
1.4872944655697831
  0
VERTEX
  5
198F
  8
SAPA_FOGBAND
 10
65.726747897938722
 20
105.98932686027091
 30
0.0
 42
0.3292444226696604
  0
VERTEX
  5
1990
  8
SAPA_FOGBAND
 10
66.150277310496065
 20
106.562788394965
 30
0.0
  0
VERTEX
  5
1991
  8
SAPA_FOGBAND
 10
66.150277310498524
 20
106.9499999280856
 30
0.0
 42
-0.4142135623651035
  0
VERTEX
  5
1992
  8
SAPA_FOGBAND
 10
66.650277310487155
 20
107.4499999280833
 30
0.0
  0
VERTEX
  5
1993
  8
SAPA_FOGBAND
 10
66.724265088341369
 20
107.44999992808469
 30
0.0
 42
-0.1449930994868797
  0
VERTEX
  5
1994
  8
SAPA_FOGBAND
 10
66.996584605846664
 20
107.3693352120567
 30
0.0
  0
VERTEX
  5
1995
  8
SAPA_FOGBAND
 10
67.950277310500184
 20
106.74999992806519
 30
0.0
  0
VERTEX
  5
1996
  8
SAPA_FOGBAND
 10
67.950277310482775
 20
104.01126261287111
 30
0.0
 42
-0.2484312924681684
  0
VERTEX
  5
1997
  8
SAPA_FOGBAND
 10
62.368520553472393
 20
103.62444794948409
 30
0.0
 42
0.5855924822446267
  0
VERTEX
  5
1998
  8
SAPA_FOGBAND
 10
60.250277310474559
 20
102.25778219278681
 30
0.0
  0
VERTEX
  5
1999
  8
SAPA_FOGBAND
 10
60.250277263483227
 20
94.883518773873504
 30
0.0
 42
0.1316524983794406
  0
VERTEX
  5
199A
  8
SAPA_FOGBAND
 10
60.652201047252028
 20
93.383518763216671
 30
0.0
  0
VERTEX
  5
199B
  8
SAPA_FOGBAND
 10
65.899700095539757
 20
84.294583730697823
 30
0.0
 42
-0.9741568709149699
  0
VERTEX
  5
199C
  8
SAPA_FOGBAND
 10
65.047352107964031
 20
83.772264215964839
 30
0.0
  0
VERTEX
  5
199D
  8
SAPA_FOGBAND
 10
59.559253468096841
 20
92.223195089578795
 30
0.0
 42
0.2539676473361846
  0
VERTEX
  5
199E
  8
SAPA_FOGBAND
 10
55.365900619571313
 20
94.499999928144263
 30
0.0
  0
VERTEX
  5
199F
  8
SAPA_FOGBAND
 10
53.036053409600839
 20
94.49999992815907
 30
0.0
 42
0.2216946624071653
  0
VERTEX
  5
19A0
  8
SAPA_FOGBAND
 10
49.205831196869113
 20
92.71393798006153
 30
0.0
  0
VERTEX
  5
19A1
  8
SAPA_FOGBAND
 10
43.675512525320833
 20
86.123160847136717
 30
0.0
 42
-1.126857075054595
  0
VERTEX
  5
19A2
  8
SAPA_FOGBAND
 10
41.166984180095582
 20
87.721269654289429
 30
0.0
  0
VERTEX
  5
19A3
  8
SAPA_FOGBAND
 10
42.416351811880723
 20
90.400547186871776
 30
0.0
 42
-0.0436609429066319
  0
VERTEX
  5
19A4
  8
SAPA_FOGBAND
 10
42.590663297372508
 20
90.702463536082263
 30
0.0
  0
VERTEX
  5
19A5
  8
SAPA_FOGBAND
 10
43.866804987606251
 20
92.52498274722528
 30
0.0
 42
-0.957291742260092
  0
VERTEX
  5
19A6
  8
SAPA_FOGBAND
 10
44.540875966826768
 20
92.095552172676776
 30
0.0
  0
VERTEX
  5
19A7
  8
SAPA_FOGBAND
 10
43.362941982171883
 20
90.055310663385043
 30
0.0
 42
0.0218200776225929
  0
VERTEX
  5
19A8
  8
SAPA_FOGBAND
 10
43.322659598917312
 20
89.977928925127813
 30
0.0
  0
VERTEX
  5
19A9
  8
SAPA_FOGBAND
 10
42.073291967145259
 20
87.298651392544812
 30
0.0
 42
0.2887584577560343
  0
VERTEX
  5
19AA
  8
SAPA_FOGBAND
 10
42.14022358356123
 20
86.769801157756717
 30
0.0
 42
1.2247448713754381
  0
VERTEX
  5
19AB
  8
SAPA_FOGBAND
 10
42.487859413580843
 20
86.588833399062025
 30
0.0
 42
0.2887584577534809
  0
VERTEX
  5
19AC
  8
SAPA_FOGBAND
 10
42.959458562546793
 20
86.837342261670884
 30
0.0
  0
VERTEX
  5
19AD
  8
SAPA_FOGBAND
 10
46.821857718099793
 20
92.350102746099395
 30
0.0
 42
0.1539147210599354
  0
VERTEX
  5
19AE
  8
SAPA_FOGBAND
 10
48.630337275242837
 20
98.085867109603981
 30
0.0
  0
VERTEX
  5
19AF
  8
SAPA_FOGBAND
 10
48.630337275352403
 20
119.9141327467798
 30
0.0
 42
0.1539147210595579
  0
VERTEX
  5
19B0
  8
SAPA_FOGBAND
 10
46.821857718269413
 20
125.649897110314
 30
0.0
  0
VERTEX
  5
19B1
  8
SAPA_FOGBAND
 10
42.936021883074709
 20
131.19944581293899
 30
0.0
 42
0.2652670038588143
  0
VERTEX
  5
19B2
  8
SAPA_FOGBAND
 10
42.487859413856221
 20
131.41116645737671
 30
0.0
 42
1.2247448713754421
  0
VERTEX
  5
19B3
  8
SAPA_FOGBAND
 10
42.140223583843678
 20
131.23019869868509
 30
0.0
 42
0.288758457756027
  0
VERTEX
  5
19B4
  8
SAPA_FOGBAND
 10
42.073291967414448
 20
130.70134846389769
 30
0.0
  0
VERTEX
  5
19B5
  8
SAPA_FOGBAND
 10
43.322659599157532
 20
128.0220709313007
 30
0.0
 42
0.0218200776226741
  0
VERTEX
  5
19B6
  8
SAPA_FOGBAND
 10
43.362941982411719
 20
127.9446891930389
 30
0.0
  0
VERTEX
  5
19B7
  8
SAPA_FOGBAND
 10
44.540875967039433
 20
125.9044476837345
 30
0.0
 42
-0.9572917422600935
  0
VERTEX
  5
19B8
  8
SAPA_FOGBAND
 10
43.866804987810497
 20
125.47501710919749
 30
0.0
  0
VERTEX
  5
19B9
  8
SAPA_FOGBAND
 10
42.590663297605872
 20
127.2975363203516
 30
0.0
 42
-0.0436609429066254
  0
VERTEX
  5
19BA
  8
SAPA_FOGBAND
 10
42.41635181211997
 20
127.5994526695643
 30
0.0
  0
VERTEX
  5
19BB
  8
SAPA_FOGBAND
 10
41.166984180365937
 20
130.2787302021658
 30
0.0
 42
-0.8895204030443752
  0
VERTEX
  5
19BC
  8
SAPA_FOGBAND
 10
43.675512525611481
 20
131.8768390092867
 30
0.0
  0
VERTEX
  5
19BD
  8
SAPA_FOGBAND
 10
49.20583119707576
 20
125.28606187631451
 30
0.0
 42
0.2216946624071884
  0
VERTEX
  5
19BE
  8
SAPA_FOGBAND
 10
53.036053409785062
 20
123.4999999281679
 30
0.0
  0
SEQEND
  5
19BF
  8
SAPA_FOGBAND
  0
POLYLINE
  5
1015
  8
SAPA_FOGBAND
 66
     1
 10
0.0
 20
0.0
 30
0.0
 70
     1
  0
VERTEX
  5
19C0
  8
SAPA_FOGBAND
 10
56.750277310441149
 20
96.999999928146622
 30
0.0
 42
0.4142135623714636
  0
VERTEX
  5
19C1
  8
SAPA_FOGBAND
 10
58.75027731045386
 20
98.999999928122776
 30
0.0
  0
VERTEX
  5
19C2
  8
SAPA_FOGBAND
 10
58.750277310580913
 20
118.99999992813029
 30
0.0
 42
0.4142135623715295
  0
VERTEX
  5
19C3
  8
SAPA_FOGBAND
 10
56.750277310593617
 20
120.9999999281434
 30
0.0
  0
VERTEX
  5
19C4
  8
SAPA_FOGBAND
 10
52.130337275388399
 20
120.99999992817391
 30
0.0
 42
0.4142135623718642
  0
VERTEX
  5
19C5
  8
SAPA_FOGBAND
 10
50.130337275375688
 20
118.999999928188
 30
0.0
  0
VERTEX
  5
19C6
  8
SAPA_FOGBAND
 10
50.13033727524865
 20
98.999999928176621
 30
0.0
 42
0.4142135623719296
  0
VERTEX
  5
19C7
  8
SAPA_FOGBAND
 10
52.130337275235938
 20
96.999999928171874
 30
0.0
  0
SEQEND
  5
19C8
  8
SAPA_FOGBAND
  0
DIMENSION
  5
1021
  8
SAPA_MATT
  2
*D43
 10
85.0
 20
180.99999985600741
 30
0.0
 11
39.250000000011141
 21
183.74999985600741
 31
0.0
 70
     0
 13
-6.4999999999777174
 23
131.17605899532811
 33
0.0
 14
85.0
 24
138.69999985599719
 34
0.0
 50
180.0
1001
ACAD
1000
DSTYLE
1002
{
1070
    40
1040
1.0
1002
}
  0
DIMENSION
  5
1022
  8
SAPA_MATT
  2
*D42
 10
25.000000000000121
 20
168.99999985600741
 30
0.0
 11
55.000000000000057
 21
171.74999985600741
 31
0.0
 70
     0
 13
85.0
 23
138.69999985599719
 33
0.0
 14
25.00000000000011
 24
137.49999985600741
 34
0.0
 50
180.0
1001
ACAD
1000
DSTYLE
1002
{
1070
    40
1040
1.0
1002
}
  0
DIMENSION
  5
1023
  8
SAPA_MATT
  2
*D41
 10
-60.999999999999972
 20
13.999999928252739
 30
0.0
 11
-60.999999999999972
 21
76.499999928003746
 31
0.0
 70
   128
 13
26.50000000000011
 23
138.9999999277548
 33
0.0
 14
24.500000000000139
 24
13.99999992825272
 34
0.0
 50
270.0
1001
ACAD
1000
DSTYLE
1002
{
1070
    40
1040
1.0
1002
}
  0
DIMENSION
  5
1024
  8
SAPA_MATT
  2
*D40
 10
-49.0
 20
13.999999928252739
 30
0.0
 11
-48.239486851189753
 21
50.142264778476473
 31
0.0
 70
   128
 13
10.000000000071729
 23
83.999999928250375
 33
0.0
 14
24.500000000000139
 24
13.99999992825272
 34
0.0
 50
270.0
1001
ACAD
1000
DSTYLE
1002
{
1070
   287
1070
     4
1070
    40
1040
1.0
1070
   279
1070
     1
1002
}
  0
DIMENSION
  5
1025
  8
SAPA_MATT
  2
*D39
 10
-49.0
 20
83.999999928250389
 30
0.0
 11
-51.750000000000007
 21
108.99999992791059
 31
0.0
 70
     0
 13
10.000000000071729
 23
133.9999999275708
 33
0.0
 14
10.000000000071729
 24
83.999999928250375
 34
0.0
 50
270.0
1001
ACAD
1000
DSTYLE
1002
{
1070
   287
1070
     4
1070
    40
1040
1.0
1070
   279
1070
     1
1002
}
  0
DIMENSION
  5
1026
  8
SAPA_MATT
  2
*D38
 10
-48.999999999999979
 20
133.9999999275708
 30
0.0
 11
-49.0
 21
136.4999999276628
 31
0.0
 70
   128
 13
26.50000000000011
 23
138.9999999277548
 33
0.0
 14
10.000000000071729
 24
133.9999999275708
 34
0.0
 50
270.0
1001
ACAD
1000
DSTYLE
1002
{
1070
    40
1040
1.0
1002
}
  0
DIMENSION
  5
1027
  8
SAPA_MATT
  2
*D37
 10
-6.4999999999777138
 20
168.9999999277548
 30
0.0
 11
9.2500000000112017
 21
171.7499999277548
 31
0.0
 70
     0
 13
25.00000000000011
 23
137.49999992775469
 33
0.0
 14
-6.4999999999777174
 24
131.17605899532811
 34
0.0
 50
180.0
1001
ACAD
1000
DSTYLE
1002
{
1070
   287
1070
     4
1070
    40
1040
1.0
1070
   279
1070
     1
1002
}
  0
VIEWPORT
  5
C4
 67
     1
  8
0
 10
160.5543545598442
 20
116.00969601843509
 30
0.0
 40
404.96977709277462
 41
256.8421457311839
 68
     1
 69
     1
1001
ACAD
1000
MVIEW
1002
{
1070
    16
1010
0.0
1020
0.0
1030
0.0
1010
0.0
1020
0.0
1030
1.0
1040
0.0
1040
256.8421457311839
1040
99.206250190734863
1040
130.70624923706049
1040
50.0
1040
0.0
1040
0.0
1070
     0
1070
     0
1070
     1
1070
     1
1070
     0
1070
     0
1070
     0
1070
     0
1040
0.0
1040
0.0
1040
0.0
1040
10.0
1040
10.0
1040
10.0
1040
10.0
1070
     0
1002
{
1002
}
1002
}
  0
ENDSEC
  0
EOF
