  0
SECTION
  2
HEADER
  9
$ACADVER
  1
AC1009
  9
$INSBASE
 10
0.0
 20
0.0
 30
0.0
  9
$EXTMIN
 10
-19.755365308950608
 20
-30.619466477045751
 30
-0.2
  9
$EXTMAX
 10
147.49999999999989
 20
194.0032559344132
 30
0.0000000048844772
  9
$LIMMIN
 10
0.0
 20
0.0
  9
$LIMMAX
 10
790.0
 20
790.0
  9
$ORTHOMODE
 70
     1
  9
$REGENMODE
 70
     1
  9
$FILLMODE
 70
     1
  9
$QTEXTMODE
 70
     0
  9
$MIRRTEXT
 70
     1
  9
$DRAGMODE
 70
     2
  9
$LTSCALE
 40
4.0
  9
$OSMODE
 70
   167
  9
$ATTMODE
 70
     1
  9
$TEXTSIZE
 40
3.5
  9
$TRACEWID
 40
0.05
  9
$TEXTSTYLE
  7
ISO
  9
$CLAYER
  8
0
  9
$CELTYPE
  6
BYLAYER
  9
$CECOLOR
 62
   256
  9
$DIMSCALE
 40
0.0
  9
$DIMASZ
 40
3.0
  9
$DIMEXO
 40
1.5
  9
$DIMDLI
 40
10.0
  9
$DIMRND
 40
0.0
  9
$DIMDLE
 40
0.0
  9
$DIMEXE
 40
1.5
  9
$DIMTP
 40
0.0
  9
$DIMTM
 40
0.0
  9
$DIMTXT
 40
3.5
  9
$DIMCEN
 40
-5.0
  9
$DIMTSZ
 40
0.0
  9
$DIMTOL
 70
     0
  9
$DIMLIM
 70
     0
  9
$DIMTIH
 70
     0
  9
$DIMTOH
 70
     0
  9
$DIMSE1
 70
     0
  9
$DIMSE2
 70
     0
  9
$DIMTAD
 70
     1
  9
$DIMZIN
 70
     8
  9
$DIMBLK
  1

  9
$DIMASO
 70
     1
  9
$DIMSHO
 70
     1
  9
$DIMPOST
  1

  9
$DIMAPOST
  1

  9
$DIMALT
 70
     0
  9
$DIMALTD
 70
     0
  9
$DIMALTF
 40
25.399999999999999
  9
$DIMLFAC
 40
-1.0
  9
$DIMTOFL
 70
     1
  9
$DIMTVP
 40
0.0
  9
$DIMTIX
 70
     0
  9
$DIMSOXD
 70
     0
  9
$DIMSAH
 70
     0
  9
$DIMBLK1
  1

  9
$DIMBLK2
  1

  9
$DIMSTYLE
  2
MASKIN
  9
$DIMCLRD
 70
   256
  9
$DIMCLRE
 70
   256
  9
$DIMCLRT
 70
     2
  9
$DIMTFAC
 40
1.0
  9
$DIMGAP
 40
1.0
  9
$LUNITS
 70
     2
  9
$LUPREC
 70
     8
  9
$SKETCHINC
 40
0.1
  9
$FILLETRAD
 40
0.0
  9
$AUNITS
 70
     0
  9
$AUPREC
 70
     8
  9
$MENU
  1
ACAD
  9
$ELEVATION
 40
0.0
  9
$PELEVATION
 40
0.0
  9
$THICKNESS
 40
0.0
  9
$LIMCHECK
 70
     0
  9
$BLIPMODE
 70
     0
  9
$CHAMFERA
 40
0.0
  9
$CHAMFERB
 40
0.0
  9
$SKPOLY
 70
     0
  9
$TDCREATE
 40
2455734.518348461
  9
$TDUPDATE
 40
2455994.5027693519
  9
$TDINDWG
 40
2.1622447106
  9
$TDUSRTIMER
 40
2.1622445254999998
  9
$USRTIMER
 70
     1
  9
$ANGBASE
 50
0.0
  9
$ANGDIR
 70
     0
  9
$PDMODE
 70
     0
  9
$PDSIZE
 40
0.0
  9
$PLINEWID
 40
0.0
  9
$COORDS
 70
     1
  9
$SPLFRAME
 70
     0
  9
$SPLINETYPE
 70
     6
  9
$SPLINESEGS
 70
     8
  9
$ATTDIA
 70
     0
  9
$ATTREQ
 70
     1
  9
$HANDLING
 70
     1
  9
$HANDSEED
  5
1997
  9
$SURFTAB1
 70
     6
  9
$SURFTAB2
 70
     6
  9
$SURFTYPE
 70
     6
  9
$SURFU
 70
     6
  9
$SURFV
 70
     6
  9
$UCSNAME
  2

  9
$UCSORG
 10
0.0
 20
0.0
 30
0.0
  9
$UCSXDIR
 10
1.0
 20
0.0
 30
0.0
  9
$UCSYDIR
 10
0.0
 20
1.0
 30
0.0
  9
$PUCSNAME
  2

  9
$PUCSORG
 10
0.0
 20
0.0
 30
0.0
  9
$PUCSXDIR
 10
1.0
 20
0.0
 30
0.0
  9
$PUCSYDIR
 10
0.0
 20
1.0
 30
0.0
  9
$USERI1
 70
     0
  9
$USERI2
 70
     0
  9
$USERI3
 70
     0
  9
$USERI4
 70
     0
  9
$USERI5
 70
     0
  9
$USERR1
 40
0.0
  9
$USERR2
 40
0.0
  9
$USERR3
 40
0.0
  9
$USERR4
 40
0.0
  9
$USERR5
 40
0.0
  9
$WORLDVIEW
 70
     1
  9
$SHADEDGE
 70
     3
  9
$SHADEDIF
 70
    70
  9
$TILEMODE
 70
     1
  9
$MAXACTVP
 70
    16
  9
$PLIMCHECK
 70
     0
  9
$PEXTMIN
 10
1.0000000000000000E+020
 20
1.0000000000000000E+020
 30
1.0000000000000000E+020
  9
$PEXTMAX
 10
-1.0000000000000000E+020
 20
-1.0000000000000000E+020
 30
-1.0000000000000000E+020
  9
$PLIMMIN
 10
-5.069427490234375
 20
-5.8737497329711914
  9
$PLIMMAX
 10
291.89889526367187
 20
204.0995779037475
  9
$UNITMODE
 70
     0
  9
$VISRETAIN
 70
     1
  9
$PLINEGEN
 70
     0
  9
$PSLTSCALE
 70
     1
  0
ENDSEC
  0
SECTION
  2
TABLES
  0
TABLE
  2
VPORT
 70
     1
  0
VPORT
  2
*ACTIVE
 70
     0
 10
0.0
 20
0.0
 11
1.0
 21
1.0
 12
72.191774548453367
 22
141.88881062592569
 13
0.0
 23
0.0
 14
1.0
 24
1.0
 15
0.0
 25
0.0
 16
0.0
 26
0.0
 36
1.0
 17
0.0
 27
0.0
 37
0.0
 40
225.5660125721746
 41
2.37391304347826
 42
50.0
 43
0.0
 44
0.0
 50
0.0
 51
0.0
 71
     0
 72
   100
 73
     1
 74
     1
 75
     0
 76
     0
 77
     0
 78
     0
  0
ENDTAB
  0
TABLE
  2
LTYPE
 70
     5
  0
LTYPE
  2
CONTINUOUS
 70
     0
  3
Solid line
 72
    65
 73
     0
 40
0.0
  0
LTYPE
  2
BYGG-027390$0$NEWDOT
 70
     0
  3
____ . ____ . ____ . ____ . ____ . ____ . ____
 72
    65
 73
     4
 40
2.0
 49
1.0
 49
-0.5
 49
0.0
 49
-0.5
  0
LTYPE
  2
BYGG-027368$0$NEWDOT
 70
     0
  3
____ . ____ . ____ . ____ . ____ . ____ . ____
 72
    65
 73
     4
 40
2.0
 49
1.0
 49
-0.5
 49
0.0
 49
-0.5
  0
LTYPE
  2
BYGG-027387$0$NEWDOT
 70
     0
  3
____ . ____ . ____ . ____ . ____ . ____ . ____
 72
    65
 73
     4
 40
2.0
 49
1.0
 49
-0.5
 49
0.0
 49
-0.5
  0
LTYPE
  2
BYGG-027378$0$NEWDOT
 70
     0
  3
____ . ____ . ____ . ____ . ____ . ____ . ____
 72
    65
 73
     4
 40
2.0
 49
1.0
 49
-0.5
 49
0.0
 49
-0.5
  0
ENDTAB
  0
TABLE
  2
LAYER
 70
    41
  0
LAYER
  2
0
 70
     0
 62
     7
  6
CONTINUOUS
  0
LAYER
  2
DEFPOINTS
 70
     0
 62
     7
  6
CONTINUOUS
  0
LAYER
  2
SAPA_ARTIKELNR
 70
     0
 62
     4
  6
CONTINUOUS
  0
LAYER
  2
SAPA_ANSLUTNING
 70
     0
 62
     6
  6
CONTINUOUS
  0
LAYER
  2
SAPA_MATT
 70
     0
 62
     1
  6
CONTINUOUS
  0
LAYER
  2
SAPA_GLAS
 70
     0
 62
     4
  6
CONTINUOUS
  0
LAYER
  2
SAPA_FOGBAND
 70
     0
 62
     2
  6
CONTINUOUS
  0
LAYER
  2
SAPA_PROFIL
 70
     0
 62
     7
  6
CONTINUOUS
  0
ENDTAB
  0
TABLE
  2
STYLE
 70
    22
  0
STYLE
  2
STANDARD
 70
     0
 40
0.0
 41
1.0
 50
0.0
 71
     0
 42
0.2
  3
txt
  4

  0
STYLE
  2
ISO
 70
     0
 40
0.0
 41
1.0
 50
0.0
 71
     0
 42
3.5
  3
txt
  4

  0
STYLE
  2
BYGG-027392$0$STANDARD
 70
     0
 40
0.0
 41
1.0
 50
0.0
 71
     0
 42
0.2
  3
txt
  4

  0
STYLE
  2
BYGG-027392$0$ISO
 70
     0
 40
0.0
 41
1.0
 50
0.0
 71
     0
 42
3.5
  3
txt
  4

  0
STYLE
  2
BYGG-027457$0$STANDARD
 70
     0
 40
0.0
 41
1.0
 50
0.0
 71
     0
 42
0.2
  3
txt
  4

  0
STYLE
  2
BYGG-027457$0$ISO
 70
     0
 40
0.0
 41
1.0
 50
0.0
 71
     0
 42
3.5
  3
txt
  4

  0
STYLE
  2
BYGG-027390$0$STANDARD
 70
     0
 40
0.0
 41
1.0
 50
0.0
 71
     0
 42
0.2
  3
txt
  4

  0
STYLE
  2
BYGG-027390$0$ISO
 70
     0
 40
0.0
 41
1.0
 50
0.0
 71
     0
 42
3.5
  3
txt
  4

  0
STYLE
  2
BYGG-027458$0$STANDARD
 70
     0
 40
0.0
 41
1.0
 50
0.0
 71
     0
 42
0.2
  3
txt
  4

  0
STYLE
  2
BYGG-027458$0$ISO
 70
     0
 40
0.0
 41
1.0
 50
0.0
 71
     0
 42
3.5
  3
txt
  4

  0
STYLE
  2
BYGG-027368$0$STANDARD
 70
     0
 40
0.0
 41
1.0
 50
0.0
 71
     0
 42
0.2
  3
txt
  4

  0
STYLE
  2
BYGG-027368$0$ISO
 70
     0
 40
0.0
 41
1.0
 50
0.0
 71
     0
 42
3.5
  3
txt
  4

  0
STYLE
  2
BYGG-027460$0$STANDARD
 70
     0
 40
0.0
 41
1.0
 50
0.0
 71
     0
 42
0.2
  3
txt
  4

  0
STYLE
  2
BYGG-027460$0$ISO
 70
     0
 40
0.0
 41
1.0
 50
0.0
 71
     0
 42
3.5
  3
txt
  4

  0
STYLE
  2
BYGG-027387$0$STANDARD
 70
     0
 40
0.0
 41
1.0
 50
0.0
 71
     0
 42
0.2
  3
txt
  4

  0
STYLE
  2
BYGG-027387$0$ISO
 70
     0
 40
0.0
 41
1.0
 50
0.0
 71
     0
 42
3.5
  3
txt
  4

  0
STYLE
  2
BYGG-027394$0$STANDARD
 70
     0
 40
0.0
 41
1.0
 50
0.0
 71
     0
 42
0.2
  3
txt
  4

  0
STYLE
  2
BYGG-027394$0$ISO
 70
     0
 40
0.0
 41
1.0
 50
0.0
 71
     0
 42
3.5
  3
txt
  4

  0
STYLE
  2
BYGG-027398$0$STANDARD
 70
     0
 40
0.0
 41
1.0
 50
0.0
 71
     0
 42
0.2
  3
txt
  4

  0
STYLE
  2
BYGG-027398$0$ISO
 70
     0
 40
0.0
 41
1.0
 50
0.0
 71
     0
 42
3.5
  3
txt
  4

  0
STYLE
  2
BYGG-027378$0$STANDARD
 70
     0
 40
0.0
 41
1.0
 50
0.0
 71
     0
 42
0.2
  3
txt
  4

  0
STYLE
  2
BYGG-027378$0$ISO
 70
     0
 40
0.0
 41
1.0
 50
0.0
 71
     0
 42
3.5
  3
txt
  4

  0
ENDTAB
  0
TABLE
  2
VIEW
 70
     0
  0
ENDTAB
  0
TABLE
  2
UCS
 70
     0
  0
ENDTAB
  0
TABLE
  2
APPID
 70
    28
  0
APPID
  2
ACAD
 70
     0
  0
APPID
  2
ACAD_DSTYLE_DIMTEXT_FILL
 70
     0
  0
APPID
  2
ACAD_DSTYLE_DIMEXT_LENGTH
 70
     0
  0
APPID
  2
ACAD_DSTYLE_DIMEXT_ENABLED
 70
     0
  0
APPID
  2
ACAD_DSTYLE_DIM_LINETYPE
 70
     0
  0
APPID
  2
ACAD_DSTYLE_DIM_EXT1_LINETYPE
 70
     0
  0
APPID
  2
ACAD_DSTYLE_DIM_EXT2_LINETYPE
 70
     0
  0
APPID
  2
ACAD_DSTYLE_DIMJOGGED_JOGA
 70
     0
  0
APPID
  2
ACAD_DSTYLE_DIMARC_LENGTH_
 70
     0
  0
APPID
  2
ACAD_PSEXT
 70
     0
  0
APPID
  2
ACAD_MLEADERVER
 70
     0
  0
APPID
  2
GENIUS_GENODEF_13
 70
     0
  0
APPID
  2
RC_PROFILE
 70
     0
  0
APPID
  2
ACAECLAYERSTANDARD
 70
     0
  0
APPID
  2
GENIUS_GENOBJ-N-FIL_13
 70
     0
  0
APPID
  2
ACADANNOTATIVE
 70
     0
  0
APPID
  2
ACAD_EXEMPT_FROM_CAD_STANDARDS
 70
     0
  0
APPID
  2
AEC_XDATA_BOUND_SPACE
 70
     0
  0
APPID
  2
ACAD_DSTYLE_DIMJAG
 70
     0
  0
APPID
  2
ACAD_DSTYLE_DIMTALN
 70
     0
  0
APPID
  2
GENIUS_GENREC_14
 70
     0
  0
APPID
  2
GENIUS_GENOBJ-N-REC_13
 70
     0
  0
APPID
  2
ACDBDYNAMICBLOCKTRUENAME
 70
     0
  0
APPID
  2
ACDBBLOCKREPETAG
 70
     0
  0
APPID
  2
ACDBDYNAMICBLOCKGUID
 70
     0
  0
APPID
  2
ACDBBLOCKREPBTAG
 70
     0
  0
APPID
  2
ACAD_NAV_VCDISPLAY
 70
     0
  0
APPID
  2
ACCMTRANSPARENCY
 70
     0
  0
ENDTAB
  0
TABLE
  2
DIMSTYLE
 70
    11
  0
DIMSTYLE
  2
MASKIN
 70
     0
  3

  4

  5

  6

  7

 40
0.0
 41
3.0
 42
1.5
 43
10.0
 44
1.5
 45
0.0
 46
0.0
 47
0.0
 48
0.0
140
3.5
141
-5.0
142
0.0
143
25.399999999999999
144
-1.0
145
0.0
146
1.0
147
1.0
 71
     0
 72
     0
 73
     0
 74
     0
 75
     0
 76
     0
 77
     1
 78
     8
170
     0
171
     0
172
     1
173
     0
174
     0
175
     0
176
   256
177
   256
178
     2
  0
DIMSTYLE
  2
BYGG-027392$0$MASKIN
 70
     0
  3

  4

  5

  6

  7

 40
0.0
 41
3.0
 42
1.5
 43
10.0
 44
1.5
 45
0.0
 46
0.0
 47
0.0
 48
0.0
140
3.0
141
-5.0
142
0.0
143
25.399999999999999
144
-1.0
145
0.0
146
1.0
147
1.0
 71
     0
 72
     0
 73
     0
 74
     0
 75
     0
 76
     0
 77
     1
 78
     8
170
     0
171
     0
172
     1
173
     0
174
     0
175
     0
176
   256
177
   256
178
     2
  0
DIMSTYLE
  2
BYGG-027457$0$MASKIN
 70
     0
  3

  4

  5

  6

  7

 40
0.0
 41
3.0
 42
1.5
 43
10.0
 44
1.5
 45
0.0
 46
0.0
 47
0.0
 48
0.0
140
3.0
141
-5.0
142
0.0
143
25.399999999999999
144
-1.0
145
0.0
146
1.0
147
1.0
 71
     0
 72
     0
 73
     0
 74
     0
 75
     0
 76
     0
 77
     1
 78
     8
170
     0
171
     0
172
     1
173
     0
174
     0
175
     0
176
   256
177
   256
178
     2
  0
DIMSTYLE
  2
BYGG-027390$0$MASKIN
 70
     0
  3

  4

  5

  6

  7

 40
0.0
 41
3.0
 42
1.5
 43
10.0
 44
1.5
 45
0.0
 46
0.0
 47
0.0
 48
0.0
140
3.0
141
-5.0
142
0.0
143
25.399999999999999
144
-1.0
145
0.0
146
1.0
147
1.0
 71
     0
 72
     0
 73
     0
 74
     0
 75
     0
 76
     0
 77
     1
 78
     8
170
     0
171
     0
172
     1
173
     0
174
     0
175
     0
176
   256
177
   256
178
     2
  0
DIMSTYLE
  2
BYGG-027458$0$MASKIN
 70
     0
  3

  4

  5

  6

  7

 40
0.0
 41
3.0
 42
1.5
 43
10.0
 44
1.5
 45
0.0
 46
0.0
 47
0.0
 48
0.0
140
3.0
141
-5.0
142
0.0
143
25.399999999999999
144
-1.0
145
0.0
146
1.0
147
1.0
 71
     0
 72
     0
 73
     0
 74
     0
 75
     0
 76
     0
 77
     1
 78
     8
170
     0
171
     0
172
     1
173
     0
174
     0
175
     0
176
   256
177
   256
178
     2
  0
DIMSTYLE
  2
BYGG-027368$0$MASKIN
 70
     0
  3

  4

  5

  6

  7

 40
0.0
 41
3.0
 42
1.5
 43
10.0
 44
1.5
 45
0.0
 46
0.0
 47
0.0
 48
0.0
140
3.0
141
-5.0
142
0.0
143
25.399999999999999
144
-1.0
145
0.0
146
1.0
147
1.0
 71
     0
 72
     0
 73
     0
 74
     0
 75
     0
 76
     0
 77
     1
 78
     8
170
     0
171
     0
172
     1
173
     0
174
     0
175
     0
176
   256
177
   256
178
     2
  0
DIMSTYLE
  2
BYGG-027460$0$MASKIN
 70
     0
  3

  4

  5

  6

  7

 40
0.0
 41
3.0
 42
1.5
 43
10.0
 44
1.5
 45
0.0
 46
0.0
 47
0.0
 48
0.0
140
3.0
141
-5.0
142
0.0
143
25.399999999999999
144
-1.0
145
0.0
146
1.0
147
1.0
 71
     0
 72
     0
 73
     0
 74
     0
 75
     0
 76
     0
 77
     1
 78
     8
170
     0
171
     0
172
     1
173
     0
174
     0
175
     0
176
   256
177
   256
178
     2
  0
DIMSTYLE
  2
BYGG-027387$0$MASKIN
 70
     0
  3

  4

  5

  6

  7

 40
0.0
 41
3.0
 42
1.5
 43
10.0
 44
1.5
 45
0.0
 46
0.0
 47
0.0
 48
0.0
140
3.0
141
-5.0
142
0.0
143
25.399999999999999
144
-1.0
145
0.0
146
1.0
147
1.0
 71
     0
 72
     0
 73
     0
 74
     0
 75
     0
 76
     0
 77
     1
 78
     8
170
     0
171
     0
172
     1
173
     0
174
     0
175
     0
176
   256
177
   256
178
     2
  0
DIMSTYLE
  2
BYGG-027394$0$MASKIN
 70
     0
  3

  4

  5

  6

  7

 40
0.0
 41
3.0
 42
1.5
 43
10.0
 44
1.5
 45
0.0
 46
0.0
 47
0.0
 48
0.0
140
3.0
141
-5.0
142
0.0
143
25.399999999999999
144
-1.0
145
0.0
146
1.0
147
1.0
 71
     0
 72
     0
 73
     0
 74
     0
 75
     0
 76
     0
 77
     1
 78
     8
170
     0
171
     0
172
     1
173
     0
174
     0
175
     0
176
   256
177
   256
178
     2
  0
DIMSTYLE
  2
BYGG-027398$0$MASKIN
 70
     0
  3

  4

  5

  6

  7

 40
0.0
 41
3.0
 42
1.5
 43
10.0
 44
1.5
 45
0.0
 46
0.0
 47
0.0
 48
0.0
140
3.0
141
-5.0
142
0.0
143
25.399999999999999
144
-1.0
145
0.0
146
1.0
147
1.0
 71
     0
 72
     0
 73
     0
 74
     0
 75
     0
 76
     0
 77
     1
 78
     8
170
     0
171
     0
172
     1
173
     0
174
     0
175
     0
176
   256
177
   256
178
     2
  0
DIMSTYLE
  2
BYGG-027378$0$MASKIN
 70
     0
  3

  4

  5

  6

  7

 40
0.0
 41
3.0
 42
1.5
 43
10.0
 44
1.5
 45
0.0
 46
0.0
 47
0.0
 48
0.0
140
3.0
141
-5.0
142
0.0
143
25.399999999999999
144
-1.0
145
0.0
146
1.0
147
1.0
 71
     0
 72
     0
 73
     0
 74
     0
 75
     0
 76
     0
 77
     1
 78
     8
170
     0
171
     0
172
     1
173
     0
174
     0
175
     0
176
   256
177
   256
178
     2
  0
ENDTAB
  0
ENDSEC
  0
SECTION
  2
BLOCKS
  0
BLOCK
  8
0
  2
$MODEL_SPACE
 70
     0
 10
0.0
 20
0.0
 30
0.0
  3
$MODEL_SPACE
  1

  0
ENDBLK
  5
37
  8
0
  0
BLOCK
 67
     1
  8
0
  2
$PAPER_SPACE
 70
     0
 10
0.0
 20
0.0
 30
0.0
  3
$PAPER_SPACE
  1

  0
ENDBLK
  5
35
 67
     1
  8
0
  0
BLOCK
  8
0
  2
*D37
 70
     1
 10
0.0
 20
0.0
 30
0.0
  3
*D37
  1

  0
LINE
  5
18F9
  8
SAPA_MATT
 10
59.999999999999801
 20
14.00000000000014
 30
0.0
 11
59.999999999999801
 21
-7.4999999999999138
 31
0.0
  0
LINE
  5
18FA
  8
SAPA_MATT
 10
91.499999999977632
 20
20.323940932426812
 30
0.0
 11
91.499999999977632
 21
-7.4999999999999138
 31
0.0
  0
LINE
  5
18FB
  8
SAPA_MATT
 10
62.999999999999801
 20
-5.9999999999999138
 30
0.0
 11
88.499999999977632
 21
-5.9999999999999138
 31
0.0
  0
SOLID
  5
18FC
  8
SAPA_MATT
 10
62.999999999999801
 20
-5.4999999999999138
 30
0.0
 11
62.999999999999801
 21
-6.4999999999999138
 31
0.0
 12
59.999999999999801
 22
-5.9999999999999138
 32
0.0
 13
59.999999999999801
 23
-5.9999999999999138
 33
0.0
  0
SOLID
  5
18FD
  8
SAPA_MATT
 10
88.499999999977632
 20
-5.4999999999999138
 30
0.0
 11
88.499999999977632
 21
-6.4999999999999138
 31
0.0
 12
91.499999999977632
 22
-5.9999999999999138
 32
0.0
 13
91.499999999977632
 23
-5.9999999999999138
 33
0.0
  0
TEXT
  8
SAPA_MATT
  40
3.5
  5
1912
  62
2
  72
0
  71
0
 10
68.7500
 20
-9.44500
 30
0.000000
  1
31.5
  7
ISO
  0
POINT
  5
18FF
  8
DEFPOINTS
 62
     0
 10
59.999999999999801
 20
15.50000000000014
 30
0.0
  0
POINT
  5
1900
  8
DEFPOINTS
 62
     0
 10
91.499999999977632
 20
21.823940932426812
 30
0.0
  0
POINT
  5
1901
  8
DEFPOINTS
 62
     0
 10
91.499999999977632
 20
-5.9999999999999138
 30
0.0
  0
ENDBLK
  5
F48
  8
0
  0
BLOCK
  8
0
  2
*D38
 70
     1
 10
0.0
 20
0.0
 30
0.0
  3
*D38
  1

  0
LINE
  5
FC9
  8
SAPA_MATT
 10
59.999999999999801
 20
14.00000000000014
 30
0.0
 11
135.49999999999989
 21
14.000000000000121
 31
0.0
  0
LINE
  5
FCA
  8
SAPA_MATT
 10
76.499999999928178
 20
19.000000000184059
 30
0.0
 11
135.49999999999989
 21
19.000000000184041
 31
0.0
  0
LINE
  5
FCB
  8
SAPA_MATT
 10
133.99999999999989
 20
11.000000000000121
 30
0.0
 11
133.99999999999989
 21
8.000000000000119
 31
0.0
  0
LINE
  5
FCC
  8
SAPA_MATT
 10
133.99999999999989
 20
22.000000000184048
 30
0.0
 11
133.99999999999989
 21
25.000000000184048
 31
0.0
  0
LINE
  5
FCD
  8
SAPA_MATT
 10
133.99999999999989
 20
14.000000000000121
 30
0.0
 11
133.99999999999989
 21
19.000000000184041
 31
0.0
  0
SOLID
  5
FCE
  8
SAPA_MATT
 10
133.49999999999989
 20
11.000000000000121
 30
0.0
 11
134.49999999999989
 21
11.000000000000121
 31
0.0
 12
133.99999999999989
 22
14.000000000000121
 32
0.0
 13
133.99999999999989
 23
14.000000000000121
 33
0.0
  0
SOLID
  5
FCF
  8
SAPA_MATT
 10
133.49999999999989
 20
22.000000000184048
 30
0.0
 11
134.49999999999989
 21
22.000000000184048
 31
0.0
 12
133.99999999999989
 22
19.000000000184041
 32
0.0
 13
133.99999999999989
 23
19.000000000184041
 33
0.0
  0
INSERT
  5
FD0
  8
0
  2
*U53
 10
0.0
 20
0.0
 30
0.0
  0
POINT
  5
FD1
  8
DEFPOINTS
 62
     0
 10
58.499999999999801
 20
14.00000000000014
 30
0.0
  0
POINT
  5
FD2
  8
DEFPOINTS
 62
     0
 10
74.999999999928178
 20
19.000000000184059
 30
0.0
  0
POINT
  5
FD3
  8
DEFPOINTS
 62
     0
 10
133.99999999999989
 20
19.000000000184041
 30
0.0
  0
ENDBLK
  5
F54
  8
0
  0
BLOCK
  8
0
  2
*D39
 70
     1
 10
0.0
 20
0.0
 30
0.0
  3
*D39
  1

  0
LINE
  5
18F0
  8
SAPA_MATT
 10
76.499999999928178
 20
19.000000000184059
 30
0.0
 11
135.49999999999989
 21
19.000000000184041
 31
0.0
  0
LINE
  5
18F1
  8
SAPA_MATT
 10
76.499999999928178
 20
68.999999999504539
 30
0.0
 11
135.49999999999989
 21
68.999999999504524
 31
0.0
  0
LINE
  5
18F2
  8
SAPA_MATT
 10
133.99999999999989
 20
22.000000000184048
 30
0.0
 11
133.99999999999989
 21
65.999999999504524
 31
0.0
  0
SOLID
  5
18F3
  8
SAPA_MATT
 10
133.49999999999989
 20
22.000000000184048
 30
0.0
 11
134.49999999999989
 21
22.000000000184048
 31
0.0
 12
133.99999999999989
 22
19.000000000184041
 32
0.0
 13
133.99999999999989
 23
19.000000000184041
 33
0.0
  0
SOLID
  5
18F4
  8
SAPA_MATT
 10
133.49999999999989
 20
65.999999999504524
 30
0.0
 11
134.49999999999989
 21
65.999999999504524
 31
0.0
 12
133.99999999999989
 22
68.999999999504524
 32
0.0
 13
133.99999999999989
 23
68.999999999504524
 33
0.0
  0
TEXT
  8
SAPA_MATT
  40
3.5
  5
1913
  62
2
  72
0
  71
0
 10
124.250
 20
37.8050
 30
0.000000
  1
50
  7
ISO
  0
POINT
  5
18F6
  8
DEFPOINTS
 62
     0
 10
74.999999999928178
 20
19.000000000184059
 30
0.0
  0
POINT
  5
18F7
  8
DEFPOINTS
 62
     0
 10
74.999999999928178
 20
68.999999999504539
 30
0.0
  0
POINT
  5
18F8
  8
DEFPOINTS
 62
     0
 10
133.99999999999989
 20
68.999999999504524
 30
0.0
  0
ENDBLK
  5
F62
  8
0
  0
BLOCK
  8
0
  2
*D40
 70
     1
 10
0.0
 20
0.0
 30
0.0
  3
*D40
  1

  0
LINE
  5
18E7
  8
SAPA_MATT
 10
76.499999999928178
 20
68.999999999504539
 30
0.0
 11
135.49999999999989
 21
68.999999999504524
 31
0.0
  0
LINE
  5
18E8
  8
SAPA_MATT
 10
61.999999999999773
 20
138.99999999950219
 30
0.0
 11
135.49999999999989
 21
138.99999999950211
 31
0.0
  0
LINE
  5
18E9
  8
SAPA_MATT
 10
133.99999999999989
 20
71.999999999504524
 30
0.0
 11
133.99999999999989
 21
135.99999999950211
 31
0.0
  0
TEXT
  8
SAPA_MATT
  40
3.5
  5
1914
  62
2
  72
0
  71
0
 10
123.489
 20
96.6627
 30
0.000000
  1
70
  7
ISO
  0
SOLID
  5
18EB
  8
SAPA_MATT
 10
133.49999999999989
 20
71.999999999504524
 30
0.0
 11
134.49999999999989
 21
71.999999999504524
 31
0.0
 12
133.99999999999989
 22
68.999999999504524
 32
0.0
 13
133.99999999999989
 23
68.999999999504524
 33
0.0
  0
SOLID
  5
18EC
  8
SAPA_MATT
 10
133.49999999999989
 20
135.99999999950211
 30
0.0
 11
134.49999999999989
 21
135.99999999950211
 31
0.0
 12
133.99999999999989
 22
138.99999999950211
 32
0.0
 13
133.99999999999989
 23
138.99999999950211
 33
0.0
  0
POINT
  5
18ED
  8
DEFPOINTS
 62
     0
 10
74.999999999928178
 20
68.999999999504539
 30
0.0
  0
POINT
  5
18EE
  8
DEFPOINTS
 62
     0
 10
60.499999999999773
 20
138.99999999950219
 30
0.0
  0
POINT
  5
18EF
  8
DEFPOINTS
 62
     0
 10
133.99999999999989
 20
138.99999999950211
 30
0.0
  0
ENDBLK
  5
F6E
  8
0
  0
BLOCK
  8
0
  2
*D41
 70
     1
 10
0.0
 20
0.0
 30
0.0
  3
*D41
  1

  0
LINE
  5
FAE
  8
SAPA_MATT
 10
59.999999999999801
 20
14.00000000000014
 30
0.0
 11
147.49999999999989
 21
14.000000000000121
 31
0.0
  0
LINE
  5
FAF
  8
SAPA_MATT
 10
61.999999999999773
 20
138.99999999950219
 30
0.0
 11
147.49999999999989
 21
138.99999999950211
 31
0.0
  0
LINE
  5
FB0
  8
SAPA_MATT
 10
145.99999999999989
 20
17.00000000000011
 30
0.0
 11
145.99999999999989
 21
135.99999999950211
 31
0.0
  0
SOLID
  5
FB1
  8
SAPA_MATT
 10
145.49999999999989
 20
17.00000000000011
 30
0.0
 11
146.49999999999989
 21
17.00000000000011
 31
0.0
 12
145.99999999999989
 22
14.000000000000121
 32
0.0
 13
145.99999999999989
 23
14.000000000000121
 33
0.0
  0
SOLID
  5
FB2
  8
SAPA_MATT
 10
145.49999999999989
 20
135.99999999950211
 30
0.0
 11
146.49999999999989
 21
135.99999999950211
 31
0.0
 12
145.99999999999989
 22
138.99999999950211
 32
0.0
 13
145.99999999999989
 23
138.99999999950211
 33
0.0
  0
INSERT
  5
FB3
  8
0
  2
*U52
 10
0.0
 20
0.0
 30
0.0
  0
POINT
  5
FB4
  8
DEFPOINTS
 62
     0
 10
58.499999999999801
 20
14.00000000000014
 30
0.0
  0
POINT
  5
FB5
  8
DEFPOINTS
 62
     0
 10
60.499999999999773
 20
138.99999999950219
 30
0.0
  0
POINT
  5
FB6
  8
DEFPOINTS
 62
     0
 10
145.99999999999989
 20
138.99999999950211
 30
0.0
  0
ENDBLK
  5
F7A
  8
0
  0
BLOCK
  8
0
  2
*D42
 70
     1
 10
0.0
 20
0.0
 30
0.0
  3
*D42
  1

  0
LINE
  5
FA5
  8
SAPA_MATT
 10
-0.0000000000000783
 20
12.80000007175766
 30
0.0
 11
-0.0000000000000795
 21
-7.49999992825252
 31
0.0
  0
LINE
  5
FA6
  8
SAPA_MATT
 10
59.999999999999801
 20
14.000000071747531
 30
0.0
 11
59.999999999999801
 21
-7.49999992825252
 31
0.0
  0
LINE
  5
FA7
  8
SAPA_MATT
 10
2.9999999999999201
 20
-5.99999992825252
 30
0.0
 11
56.999999999999801
 21
-5.99999992825252
 31
0.0
  0
SOLID
  5
FA8
  8
SAPA_MATT
 10
2.9999999999999201
 20
-5.49999992825252
 30
0.0
 11
2.9999999999999201
 21
-6.49999992825252
 31
0.0
 12
-0.0000000000000794
 22
-5.99999992825252
 32
0.0
 13
-0.0000000000000794
 23
-5.99999992825252
 33
0.0
  0
SOLID
  5
FA9
  8
SAPA_MATT
 10
56.999999999999801
 20
-5.49999992825252
 30
0.0
 11
56.999999999999801
 21
-6.49999992825252
 31
0.0
 12
59.999999999999801
 22
-5.99999992825252
 32
0.0
 13
59.999999999999801
 23
-5.99999992825252
 33
0.0
  0
INSERT
  5
FAA
  8
0
  2
*U51
 10
0.0
 20
0.0
 30
0.0
  0
POINT
  5
FAB
  8
DEFPOINTS
 62
     0
 10
-0.0000000000000782
 20
14.30000007175766
 30
0.0
  0
POINT
  5
FAC
  8
DEFPOINTS
 62
     0
 10
59.999999999999801
 20
15.500000071747531
 30
0.0
  0
POINT
  5
FAD
  8
DEFPOINTS
 62
     0
 10
59.999999999999801
 20
-5.99999992825252
 30
0.0
  0
ENDBLK
  5
F86
  8
0
  0
BLOCK
  8
0
  2
*D43
 70
     1
 10
0.0
 20
0.0
 30
0.0
  3
*D43
  1

  0
LINE
  5
F9C
  8
SAPA_MATT
 10
91.499999999977632
 20
20.323940932426812
 30
0.0
 11
91.499999999977632
 21
-19.499999928252489
 31
0.0
  0
LINE
  5
F9D
  8
SAPA_MATT
 10
-0.0000000000000783
 20
12.80000007175766
 30
0.0
 11
-0.0000000000000802
 21
-19.499999928252489
 31
0.0
  0
LINE
  5
F9E
  8
SAPA_MATT
 10
88.499999999977632
 20
-17.999999928252489
 30
0.0
 11
2.9999999999999201
 21
-17.999999928252489
 31
0.0
  0
SOLID
  5
F9F
  8
SAPA_MATT
 10
88.499999999977632
 20
-17.499999928252489
 30
0.0
 11
88.499999999977632
 21
-18.499999928252489
 31
0.0
 12
91.499999999977632
 22
-17.999999928252489
 32
0.0
 13
91.499999999977632
 23
-17.999999928252489
 33
0.0
  0
SOLID
  5
FA0
  8
SAPA_MATT
 10
2.9999999999999201
 20
-17.499999928252489
 30
0.0
 11
2.9999999999999201
 21
-18.499999928252489
 31
0.0
 12
-0.0000000000000801
 22
-17.999999928252489
 32
0.0
 13
-0.0000000000000801
 23
-17.999999928252489
 33
0.0
  0
INSERT
  5
FA1
  8
0
  2
*U50
 10
0.0
 20
0.0
 30
0.0
  0
POINT
  5
FA2
  8
DEFPOINTS
 62
     0
 10
91.499999999977632
 20
21.823940932426812
 30
0.0
  0
POINT
  5
FA3
  8
DEFPOINTS
 62
     0
 10
-0.0000000000000782
 20
14.30000007175766
 30
0.0
  0
POINT
  5
FA4
  8
DEFPOINTS
 62
     0
 10
-0.0000000000000801
 20
-17.999999928252489
 30
0.0
  0
ENDBLK
  5
F92
  8
0
  0
BLOCK
  8
0
  2
*X44
 70
     1
 10
0.0
 20
0.0
 30
0.0
  3
*X44
  1

  0
LINE
  5
1023
  8
0
 62
     0
 10
48.417626185631661
 20
139.04522034171541
 30
0.0
 11
48.462846599592268
 21
138.9999999277548
 31
0.0
  0
LINE
  5
1024
  8
0
 62
     0
 10
49.353891074297039
 20
139.2314874681837
 30
0.0
 11
49.585378614725911
 21
138.9999999277548
 31
0.0
  0
LINE
  5
1025
  8
0
 62
     0
 10
50.17915830317807
 20
139.52875225443631
 30
0.0
 11
50.707910629859541
 21
138.9999999277548
 31
0.0
  0
LINE
  5
1026
  8
0
 62
     0
 10
50.91128093276712
 20
139.9191616399809
 30
0.0
 11
51.83044264499317
 21
138.9999999277548
 31
0.0
  0
LINE
  5
1027
  8
0
 62
     0
 10
51.558159871227708
 20
140.39481471665391
 30
0.0
 11
52.952974660126799
 21
138.9999999277548
 31
0.0
  0
LINE
  5
1028
  8
0
 62
     0
 10
52.12120297814964
 20
140.95430362486559
 30
0.0
 11
54.075506675260442
 21
138.9999999277548
 31
0.0
  0
LINE
  5
1029
  8
0
 62
     0
 10
52.595862886813123
 20
141.60217573133579
 30
0.0
 11
55.198038690394071
 21
138.9999999277548
 31
0.0
  0
LINE
  5
102A
  8
0
 62
     0
 10
52.969816222516592
 20
142.350754410766
 30
0.0
 11
56.320570705527722
 21
138.99999992775491
 31
0.0
  0
LINE
  5
102B
  8
0
 62
     0
 10
53.216716930054062
 20
143.22638571836211
 30
0.0
 11
57.443102720661308
 21
138.99999992775491
 31
0.0
  0
LINE
  5
102C
  8
0
 62
     0
 10
53.274895235139383
 20
144.29073942841049
 30
0.0
 11
58.567137992395388
 21
138.9984966711545
 31
0.0
  0
LINE
  5
102D
  8
0
 62
     0
 10
48.565634735794958
 20
148.99999992775491
 30
0.0
 11
48.641998577528653
 21
148.92363608602119
 31
0.0
  0
LINE
  5
102E
  8
0
 62
     0
 10
52.922080112788159
 20
145.76608656589531
 30
0.0
 11
59.428786392219621
 21
139.2593802864638
 31
0.0
  0
LINE
  5
102F
  8
0
 62
     0
 10
49.688166750928602
 20
148.99999992775491
 30
0.0
 11
50.248176609026622
 21
148.43999006965689
 31
0.0
  0
LINE
  5
1030
  8
0
 62
     0
 10
50.810698766062252
 20
148.99999992775491
 30
0.0
 11
59.245579622006566
 21
140.56511907181061
 31
0.0
  0
LINE
  5
1031
  8
0
 62
     0
 10
51.933230781195881
 20
148.99999992775491
 30
0.0
 11
59.147310800350141
 21
141.78591990860059
 31
0.0
  0
LINE
  5
1032
  8
0
 62
     0
 10
53.055762796329539
 20
148.99999992775491
 30
0.0
 11
59.118381360752842
 21
142.93738136333161
 31
0.0
  0
LINE
  5
1033
  8
0
 62
     0
 10
54.178294811463189
 20
148.99999992775491
 30
0.0
 11
59.147934326235742
 21
144.0303604129823
 31
0.0
  0
LINE
  5
1034
  8
0
 62
     0
 10
55.300826826596811
 20
148.99999992775491
 30
0.0
 11
59.228057718884898
 21
145.07276903546679
 31
0.0
  0
LINE
  5
1035
  8
0
 62
     0
 10
56.423358841730469
 20
148.99999992775491
 30
0.0
 11
59.3527821543437
 21
146.07057661514159
 31
0.0
  0
LINE
  5
1036
  8
0
 62
     0
 10
57.545890856864112
 20
148.99999992775491
 30
0.0
 11
59.517481205004181
 21
147.02840957961479
 31
0.0
  0
LINE
  5
1037
  8
0
 62
     0
 10
58.668422871997763
 20
148.99999992775491
 30
0.0
 11
59.718492678349861
 21
147.94993012140279
 31
0.0
  0
LINE
  5
1038
  8
0
 62
     0
 10
59.790954887131399
 20
148.99999992775491
 30
0.0
 11
59.952868784146069
 21
148.83808603074019
 31
0.0
  0
LINE
  5
1039
  8
0
 62
     0
 10
59.15140228894451
 20
138.85117536343199
 30
0.0
 11
59.44821243674658
 21
139.14798551123411
 31
0.0
  0
LINE
  5
103A
  8
0
 62
     0
 10
58.17769483813376
 20
138.99999992775491
 30
0.0
 11
59.298745946847909
 21
140.121051036469
 31
0.0
  0
LINE
  5
103B
  8
0
 62
     0
 10
57.055162823000103
 20
138.99999992775491
 30
0.0
 11
59.190940553902912
 21
141.1357776586577
 31
0.0
  0
LINE
  5
103C
  8
0
 62
     0
 10
55.932630807866431
 20
138.9999999277548
 30
0.0
 11
59.129895951056952
 21
142.19726507094541
 31
0.0
  0
LINE
  5
103D
  8
0
 62
     0
 10
54.810098792732781
 20
138.9999999277548
 30
0.0
 11
59.122256885253982
 21
143.312158020276
 31
0.0
  0
LINE
  5
103E
  8
0
 62
     0
 10
53.687566777599152
 20
138.9999999277548
 30
0.0
 11
59.176941766328099
 21
144.4893749164838
 31
0.0
  0
LINE
  5
103F
  8
0
 62
     0
 10
52.565034762465501
 20
138.9999999277548
 30
0.0
 11
59.306391782148772
 21
145.74135694743811
 31
0.0
  0
LINE
  5
1040
  8
0
 62
     0
 10
51.442502747331808
 20
138.9999999277548
 30
0.0
 11
59.52888505291196
 21
147.08638223333489
 31
0.0
  0
LINE
  5
1041
  8
0
 62
     0
 10
50.319970732198151
 20
138.9999999277548
 30
0.0
 11
59.873300009077703
 21
148.55332920463431
 31
0.0
  0
LINE
  5
1042
  8
0
 62
     0
 10
53.162728229411897
 20
142.9652894401022
 30
0.0
 11
59.197438717064642
 21
148.99999992775491
 31
0.0
  0
LINE
  5
1043
  8
0
 62
     0
 10
49.197438717064507
 20
138.9999999277548
 30
0.0
 11
49.45960619902371
 21
139.26216740971401
 31
0.0
  0
LINE
  5
1044
  8
0
 62
     0
 10
53.279689699576537
 20
144.20478292540051
 30
0.0
 11
58.074906701930978
 21
148.99999992775491
 31
0.0
  0
LINE
  5
1045
  8
0
 62
     0
 10
48.074906701930857
 20
138.9999999277548
 30
0.0
 11
48.089281819712291
 21
139.01437504553621
 31
0.0
  0
LINE
  5
1046
  8
0
 62
     0
 10
53.127072635733228
 20
145.1746978766908
 30
0.0
 11
56.95237468679732
 21
148.99999992775491
 31
0.0
  0
LINE
  5
1047
  8
0
 62
     0
 10
52.819965127778602
 20
145.99012238386979
 30
0.0
 11
55.829842671663677
 21
148.99999992775491
 31
0.0
  0
LINE
  5
1048
  8
0
 62
     0
 10
52.399801624591447
 20
146.69249089581629
 30
0.0
 11
54.707310656530048
 21
148.99999992775491
 31
0.0
  0
LINE
  5
1049
  8
0
 62
     0
 10
51.885521754950958
 20
147.30074304130949
 30
0.0
 11
53.584778641396397
 21
148.99999992775491
 31
0.0
  0
LINE
  5
104A
  8
0
 62
     0
 10
51.285633273872499
 20
147.82338657536459
 30
0.0
 11
52.462246626262761
 21
148.99999992775491
 31
0.0
  0
LINE
  5
104B
  8
0
 62
     0
 10
50.60200774408645
 20
148.2622930607123
 30
0.0
 11
51.339714611129111
 21
148.99999992775491
 31
0.0
  0
LINE
  5
104C
  8
0
 62
     0
 10
49.830598385962077
 20
148.61341571772149
 30
0.0
 11
50.217182595995467
 21
148.99999992775491
 31
0.0
  0
LINE
  5
104D
  8
0
 62
     0
 10
48.959836431735809
 20
148.8651857786289
 30
0.0
 11
49.094650580861831
 21
148.99999992775491
 31
0.0
  0
LINE
  5
104E
  8
0
 62
     0
 10
47.964917615998161
 20
148.99279897802489
 30
0.0
 11
47.972118565728167
 21
148.99999992775491
 31
0.0
  0
ENDBLK
  5
1050
  8
0
  0
BLOCK
  8
0
  2
*X45
 70
     1
 10
0.0
 20
0.0
 30
0.0
  3
*X45
  1

  0
LINE
  5
1052
  8
0
 62
     0
 10
52.930401645337817
 20
142.47810508528681
 30
0.0
 11
53.039881642181221
 21
142.54131339093519
 31
0.0
  0
LINE
  5
1053
  8
0
 62
     0
 10
50.868178652576127
 20
141.2874800852868
 30
0.0
 11
51.555586316830031
 21
141.6843550852868
 31
0.0
  0
LINE
  5
1054
  8
0
 62
     0
 10
48.805955659814437
 20
140.09685508528679
 30
0.0
 11
49.493363324068341
 21
140.49373008528681
 31
0.0
  0
LINE
  5
1055
  8
0
 62
     0
 10
46.971915255690831
 20
139.03797136426141
 30
0.0
 11
47.431140331306651
 21
139.3031050852868
 31
0.0
  0
LINE
  5
1056
  8
0
 62
     0
 10
52.242994145337832
 20
143.66872980079069
 30
0.0
 11
52.930401809591729
 21
144.06560480079071
 31
0.0
  0
LINE
  5
1057
  8
0
 62
     0
 10
50.180771152576142
 20
142.4781048007907
 30
0.0
 11
50.868178816830032
 21
142.8749798007907
 31
0.0
  0
LINE
  5
1058
  8
0
 62
     0
 10
48.118548159814452
 20
141.28747980079069
 30
0.0
 11
48.805955824068349
 21
141.68435480079069
 31
0.0
  0
LINE
  5
1059
  8
0
 62
     0
 10
46.056325167052762
 20
140.09685480079071
 30
0.0
 11
46.743732831306652
 21
140.4937298007907
 31
0.0
  0
LINE
  5
105A
  8
0
 62
     0
 10
51.555586645337847
 20
144.85935451629459
 30
0.0
 11
52.242994309591737
 21
145.2562295162945
 31
0.0
  0
LINE
  5
105B
  8
0
 62
     0
 10
49.49336365257615
 20
143.6687295162946
 30
0.0
 11
50.180771316830047
 21
144.0656045162946
 31
0.0
  0
LINE
  5
105C
  8
0
 62
     0
 10
47.431140659814467
 20
142.47810451629459
 30
0.0
 11
48.118548324068371
 21
142.87497951629459
 31
0.0
  0
LINE
  5
105D
  8
0
 62
     0
 10
45.36891766705277
 20
141.28747951629461
 30
0.0
 11
46.056325331306667
 21
141.6843545162946
 31
0.0
  0
LINE
  5
105E
  8
0
 62
     0
 10
43.790474005804249
 20
140.37616464357211
 30
0.0
 11
43.994102338544977
 21
140.49372951629459
 31
0.0
  0
LINE
  5
105F
  8
0
 62
     0
 10
50.868179145337848
 20
146.04997923179849
 30
0.0
 11
51.555586809591752
 21
146.44685423179851
 31
0.0
  0
LINE
  5
1060
  8
0
 62
     0
 10
48.805956152576158
 20
144.85935423179851
 30
0.0
 11
49.493363816830062
 21
145.2562292317985
 31
0.0
  0
LINE
  5
1061
  8
0
 62
     0
 10
46.743733159814468
 20
143.66872923179849
 30
0.0
 11
47.431140824068372
 21
144.06560423179849
 31
0.0
  0
LINE
  5
1062
  8
0
 62
     0
 10
44.681510167052778
 20
142.47810423179851
 30
0.0
 11
45.368917831306682
 21
142.87497923179851
 31
0.0
  0
LINE
  5
1063
  8
0
 62
     0
 10
42.848528887597681
 20
141.41983199668559
 30
0.0
 11
43.306694838544992
 21
141.68435423179849
 31
0.0
  0
LINE
  5
1064
  8
0
 62
     0
 10
50.180771645337842
 20
147.24060394730239
 30
0.0
 11
50.868179309591739
 21
147.63747894730241
 31
0.0
  0
LINE
  5
1065
  8
0
 62
     0
 10
48.118548652576152
 20
146.04997894730241
 30
0.0
 11
48.805956316830049
 21
146.4468539473024
 31
0.0
  0
LINE
  5
1066
  8
0
 62
     0
 10
46.056325659814462
 20
144.8593539473024
 30
0.0
 11
46.743733324068359
 21
145.25622894730239
 31
0.0
  0
LINE
  5
1067
  8
0
 62
     0
 10
43.994102667052772
 20
143.66872894730241
 30
0.0
 11
44.681510331306661
 21
144.06560394730241
 31
0.0
  0
LINE
  5
1068
  8
0
 62
     0
 10
42.247765428852077
 20
142.66048067273141
 30
0.0
 11
42.619287338544979
 21
142.87497894730251
 31
0.0
  0
LINE
  5
1069
  8
0
 62
     0
 10
49.493364145337843
 20
148.43122866280629
 30
0.0
 11
49.817392765984131
 21
148.6183066741616
 31
0.0
  0
LINE
  5
106A
  8
0
 62
     0
 10
47.431141152576153
 20
147.24060366280631
 30
0.0
 11
48.118548816830049
 21
147.6374786628063
 31
0.0
  0
LINE
  5
106B
  8
0
 62
     0
 10
45.368918159814463
 20
146.0499786628063
 30
0.0
 11
46.05632582406836
 21
146.44685366280629
 31
0.0
  0
LINE
  5
106C
  8
0
 62
     0
 10
43.306695167052773
 20
144.8593536628064
 30
0.0
 11
43.994102831306662
 21
145.25622866280631
 31
0.0
  0
LINE
  5
106D
  8
0
 62
     0
 10
46.743733652576132
 20
148.43122837831021
 30
0.0
 11
47.431141316830029
 21
148.8281033783102
 31
0.0
  0
LINE
  5
106E
  8
0
 62
     0
 10
44.681510659814442
 20
147.2406033783102
 30
0.0
 11
45.368918324068332
 21
147.63747837831019
 31
0.0
  0
LINE
  5
106F
  8
0
 62
     0
 10
42.619287667052753
 20
146.04997837831019
 30
0.0
 11
43.306695331306649
 21
146.44685337831021
 31
0.0
  0
LINE
  5
1070
  8
0
 62
     0
 10
47.431111586874479
 20
139.30309512792351
 30
0.0
 11
47.945194537720809
 21
139.00628919786649
 31
0.0
  0
LINE
  5
1071
  8
0
 62
     0
 10
45.368888594112804
 20
140.49372012792341
 30
0.0
 11
46.056296258366693
 21
140.0968451279235
 31
0.0
  0
LINE
  5
1072
  8
0
 62
     0
 10
43.306665601351099
 20
141.68434512792339
 30
0.0
 11
43.994073265605003
 21
141.2874701279234
 31
0.0
  0
LINE
  5
1073
  8
0
 62
     0
 10
48.118519086874478
 20
140.4937198434273
 30
0.0
 11
48.805926751128382
 21
140.09684484342739
 31
0.0
  0
LINE
  5
1074
  8
0
 62
     0
 10
46.056296094112803
 20
141.68434484342731
 30
0.0
 11
46.743703758366692
 21
141.28746984342729
 31
0.0
  0
LINE
  5
1075
  8
0
 62
     0
 10
43.994073101351098
 20
142.87496984342729
 30
0.0
 11
44.681480765605002
 21
142.4780948434273
 31
0.0
  0
LINE
  5
1076
  8
0
 62
     0
 10
42.04229172357126
 20
144.0018313472878
 30
0.0
 11
42.619257772843312
 21
143.66871984342731
 31
0.0
  0
LINE
  5
1077
  8
0
 62
     0
 10
50.868149579636182
 20
140.4937195589313
 30
0.0
 11
51.342524516820937
 21
140.21983906125081
 31
0.0
  0
LINE
  5
1078
  8
0
 62
     0
 10
48.805926586874477
 20
141.68434455893129
 30
0.0
 11
49.493334251128381
 21
141.28746955893129
 31
0.0
  0
LINE
  5
1079
  8
0
 62
     0
 10
46.743703594112787
 20
142.87496955893121
 30
0.0
 11
47.431111258366677
 21
142.47809455893119
 31
0.0
  0
LINE
  5
107A
  8
0
 62
     0
 10
44.681480601351097
 20
144.0655945589312
 30
0.0
 11
45.368888265605001
 21
143.6687195589312
 31
0.0
  0
LINE
  5
107B
  8
0
 62
     0
 10
42.619257608589407
 20
145.25621955893121
 30
0.0
 11
43.306665272843311
 21
144.85934455893121
 31
0.0
  0
LINE
  5
107C
  8
0
 62
     0
 10
51.555557079636159
 20
141.6843442744352
 30
0.0
 11
52.242964743890063
 21
141.28746927443521
 31
0.0
  0
LINE
  5
107D
  8
0
 62
     0
 10
49.493334086874469
 20
142.87496927443519
 30
0.0
 11
50.180741751128359
 21
142.47809427443519
 31
0.0
  0
LINE
  5
107E
  8
0
 62
     0
 10
47.431111094112779
 20
144.06559427443511
 30
0.0
 11
48.118518758366669
 21
143.6687192744352
 31
0.0
  0
LINE
  5
107F
  8
0
 62
     0
 10
45.368888101351089
 20
145.2562192744351
 30
0.0
 11
46.056295765604979
 21
144.8593442744351
 31
0.0
  0
LINE
  5
1080
  8
0
 62
     0
 10
43.306665108589392
 20
146.44684427443511
 30
0.0
 11
43.994072772843289
 21
146.04996927443511
 31
0.0
  0
LINE
  5
1081
  8
0
 62
     0
 10
52.242964579636208
 20
142.87496898993911
 30
0.0
 11
52.930372243890098
 21
142.47809398993911
 31
0.0
  0
LINE
  5
1082
  8
0
 62
     0
 10
50.180741586874511
 20
144.06559398993909
 30
0.0
 11
50.868149251128408
 21
143.66871898993909
 31
0.0
  0
LINE
  5
1083
  8
0
 62
     0
 10
48.118518594112828
 20
145.2562189899391
 30
0.0
 11
48.805926258366732
 21
144.85934398993911
 31
0.0
  0
LINE
  5
1084
  8
0
 62
     0
 10
46.056295601351131
 20
146.446843989939
 30
0.0
 11
46.743703265605028
 21
146.04996898993909
 31
0.0
  0
LINE
  5
1085
  8
0
 62
     0
 10
43.994072608589448
 20
147.63746898993901
 30
0.0
 11
44.681480272843352
 21
147.24059398993899
 31
0.0
  0
LINE
  5
1086
  8
0
 62
     0
 10
52.930372079636157
 20
144.06559370544301
 30
0.0
 11
53.282277868003469
 21
143.86242080379981
 31
0.0
  0
LINE
  5
1087
  8
0
 62
     0
 10
50.868149086874467
 20
145.25621870544299
 30
0.0
 11
51.555556751128357
 21
144.859343705443
 31
0.0
  0
LINE
  5
1088
  8
0
 62
     0
 10
48.80592609411277
 20
146.446843705443
 30
0.0
 11
49.493333758366667
 21
146.04996870544301
 31
0.0
  0
LINE
  5
1089
  8
0
 62
     0
 10
46.743703101351088
 20
147.63746870544301
 30
0.0
 11
47.431110765604977
 21
147.24059370544299
 31
0.0
  0
LINE
  5
108A
  8
0
 62
     0
 10
45.234175940090992
 20
148.5089946183455
 30
0.0
 11
45.368887772843287
 21
148.43121870544289
 31
0.0
  0
LINE
  5
108B
  8
0
 62
     0
 10
51.555556586874509
 20
146.44684342094689
 30
0.0
 11
52.242964251128413
 21
146.0499684209469
 31
0.0
  0
LINE
  5
108C
  8
0
 62
     0
 10
49.493333594112833
 20
147.6374684209469
 30
0.0
 11
50.18074125836673
 21
147.24059342094691
 31
0.0
  0
LINE
  5
108D
  8
0
 62
     0
 10
47.431110601351129
 20
148.82809342094691
 30
0.0
 11
48.118518265605033
 21
148.43121842094689
 31
0.0
  0
LINE
  5
108E
  8
0
 62
     0
 10
52.24297000001485
 20
145.25625000001361
 30
0.0
 11
52.24297000001485
 21
146.0500000000136
 31
0.0
  0
LINE
  5
108F
  8
0
 62
     0
 10
52.24297000001485
 20
142.87500000001361
 30
0.0
 11
52.24297000001485
 21
143.6687500000136
 31
0.0
  0
LINE
  5
1090
  8
0
 62
     0
 10
52.24297000001485
 20
141.1007687474137
 30
0.0
 11
52.24297000001485
 21
141.28750000001361
 31
0.0
  0
LINE
  5
1091
  8
0
 62
     0
 10
50.868155000014838
 20
147.6375000000136
 30
0.0
 11
50.868155000014838
 21
148.10772746508269
 31
0.0
  0
LINE
  5
1092
  8
0
 62
     0
 10
50.868155000014838
 20
145.25625000001361
 30
0.0
 11
50.868155000014838
 21
146.0500000000136
 31
0.0
  0
LINE
  5
1093
  8
0
 62
     0
 10
50.868155000014838
 20
142.87500000001361
 30
0.0
 11
50.868155000014838
 21
143.6687500000136
 31
0.0
  0
LINE
  5
1094
  8
0
 62
     0
 10
50.868155000014838
 20
140.49375000001359
 30
0.0
 11
50.868155000014838
 21
141.28750000001361
 31
0.0
  0
LINE
  5
1095
  8
0
 62
     0
 10
49.49334000001484
 20
147.6375000000136
 30
0.0
 11
49.49334000001484
 21
148.43125000001359
 31
0.0
  0
LINE
  5
1096
  8
0
 62
     0
 10
49.49334000001484
 20
145.25625000001361
 30
0.0
 11
49.49334000001484
 21
146.0500000000136
 31
0.0
  0
LINE
  5
1097
  8
0
 62
     0
 10
49.49334000001484
 20
142.87500000001361
 30
0.0
 11
49.49334000001484
 21
143.6687500000136
 31
0.0
  0
LINE
  5
1098
  8
0
 62
     0
 10
49.49334000001484
 20
140.49375000001359
 30
0.0
 11
49.49334000001484
 21
141.28750000001361
 31
0.0
  0
LINE
  5
1099
  8
0
 62
     0
 10
48.118525000014841
 20
147.6375000000136
 30
0.0
 11
48.118525000014841
 21
148.43125000001359
 31
0.0
  0
LINE
  5
109A
  8
0
 62
     0
 10
48.118525000014841
 20
145.25625000001361
 30
0.0
 11
48.118525000014841
 21
146.0500000000136
 31
0.0
  0
LINE
  5
109B
  8
0
 62
     0
 10
48.118525000014841
 20
142.87500000001361
 30
0.0
 11
48.118525000014841
 21
143.6687500000136
 31
0.0
  0
LINE
  5
109C
  8
0
 62
     0
 10
48.118525000014841
 20
140.49375000001359
 30
0.0
 11
48.118525000014841
 21
141.28750000001361
 31
0.0
  0
LINE
  5
109D
  8
0
 62
     0
 10
46.743710000014829
 20
147.6375000000136
 30
0.0
 11
46.743710000014829
 21
148.43125000001359
 31
0.0
  0
LINE
  5
109E
  8
0
 62
     0
 10
46.743710000014829
 20
145.25625000001361
 30
0.0
 11
46.743710000014829
 21
146.0500000000136
 31
0.0
  0
LINE
  5
109F
  8
0
 62
     0
 10
46.743710000014829
 20
142.87500000001361
 30
0.0
 11
46.743710000014829
 21
143.6687500000136
 31
0.0
  0
LINE
  5
10A0
  8
0
 62
     0
 10
46.743710000014829
 20
140.49375000001359
 30
0.0
 11
46.743710000014829
 21
141.28750000001361
 31
0.0
  0
LINE
  5
10A1
  8
0
 62
     0
 10
45.368895000014838
 20
147.6375000000136
 30
0.0
 11
45.368895000014838
 21
148.43125000001359
 31
0.0
  0
LINE
  5
10A2
  8
0
 62
     0
 10
45.368895000014838
 20
145.25625000001361
 30
0.0
 11
45.368895000014838
 21
146.0500000000136
 31
0.0
  0
LINE
  5
10A3
  8
0
 62
     0
 10
45.368895000014838
 20
142.87500000001361
 30
0.0
 11
45.368895000014838
 21
143.6687500000136
 31
0.0
  0
LINE
  5
10A4
  8
0
 62
     0
 10
45.368895000014838
 20
140.49375000001359
 30
0.0
 11
45.368895000014838
 21
141.28750000001361
 31
0.0
  0
LINE
  5
10A5
  8
0
 62
     0
 10
43.99408000001484
 20
147.6375000000136
 30
0.0
 11
43.99408000001484
 21
147.78777218175779
 31
0.0
  0
LINE
  5
10A6
  8
0
 62
     0
 10
43.99408000001484
 20
145.25625000001361
 30
0.0
 11
43.99408000001484
 21
146.0500000000136
 31
0.0
  0
LINE
  5
10A7
  8
0
 62
     0
 10
43.99408000001484
 20
142.87500000001361
 30
0.0
 11
43.99408000001484
 21
143.6687500000136
 31
0.0
  0
LINE
  5
10A8
  8
0
 62
     0
 10
43.99408000001484
 20
140.49375000001359
 30
0.0
 11
43.99408000001484
 21
141.28750000001361
 31
0.0
  0
LINE
  5
10A9
  8
0
 62
     0
 10
42.619265000014842
 20
145.25625000001361
 30
0.0
 11
42.619265000014842
 21
146.0500000000136
 31
0.0
  0
LINE
  5
10AA
  8
0
 62
     0
 10
42.619265000014842
 20
142.87500000001361
 30
0.0
 11
42.619265000014842
 21
143.6687500000136
 31
0.0
  0
ENDBLK
  5
10AC
  8
0
  0
BLOCK
  8
0
  2
*X46
 70
     1
 10
0.0
 20
0.0
 30
0.0
  3
*X46
  1

  0
LINE
  5
16F5
  8
0
 62
     0
 10
84.620560742152364
 20
62.266905377762079
 30
0.0
 11
84.466162761347235
 21
62.112507396956957
 31
0.0
  0
LINE
  5
16F6
  8
0
 62
     0
 10
85.476187378951948
 20
61.999999999428042
 30
0.0
 11
84.225857838946155
 21
60.749670459422227
 31
0.0
  0
LINE
  5
16F7
  8
0
 62
     0
 10
86.975591235795122
 20
63.499403856271201
 30
0.0
 11
86.500596143160266
 21
63.024408763636352
 31
0.0
  0
LINE
  5
16F8
  8
0
 62
     0
 10
88.090467012420945
 20
63.491747617763387
 30
0.0
 11
84.335606271088508
 21
59.736886876430937
 31
0.0
  0
LINE
  5
16F9
  8
0
 62
     0
 10
84.425986512790544
 20
58.704735102999301
 30
0.0
 11
83.721251409345399
 21
57.999999999554198
 31
0.0
  0
LINE
  5
16FA
  8
0
 62
     0
 10
88.50000000001134
 20
62.778748590220118
 30
0.0
 11
84.852498149075885
 21
59.131246739284663
 31
0.0
  0
LINE
  5
16FB
  8
0
 62
     0
 10
88.843783424834044
 20
61.999999999909178
 30
0.0
 11
84.843783424479057
 21
57.999999999554198
 31
0.0
  0
LINE
  5
16FC
  8
0
 62
     0
 10
89.76010446252242
 20
61.793789022463912
 30
0.0
 11
85.966315439612714
 21
57.999999999554198
 31
0.0
  0
LINE
  5
16FD
  8
0
 62
     0
 10
89.611368701420744
 20
60.522521246228621
 30
0.0
 11
87.088847454746343
 21
57.999999999554191
 31
0.0
  0
LINE
  5
16FE
  8
0
 62
     0
 10
89.615483700585244
 20
59.404104230259442
 30
0.0
 11
88.211379469879986
 21
57.999999999554191
 31
0.0
  0
LINE
  5
16FF
  8
0
 62
     0
 10
89.727700253679686
 20
58.393788768220261
 30
0.0
 11
89.333911485013616
 21
57.999999999554191
 31
0.0
  0
LINE
  5
1700
  8
0
 62
     0
 10
88.500000000006324
 20
62.411152544808409
 30
0.0
 11
87.411152545189253
 21
63.499999999625473
 31
0.0
  0
LINE
  5
1701
  8
0
 62
     0
 10
89.674545384435362
 20
61.236607160379371
 30
0.0
 11
88.911152544905136
 21
61.999999999909612
 31
0.0
  0
LINE
  5
1702
  8
0
 62
     0
 10
89.599481288333493
 20
60.189139241347611
 30
0.0
 11
86.556923721321269
 21
63.231696808359807
 31
0.0
  0
LINE
  5
1703
  8
0
 62
     0
 10
89.645867209303063
 20
59.020221305244377
 30
0.0
 11
86.497515438593084
 21
62.16857307595437
 31
0.0
  0
LINE
  5
1704
  8
0
 62
     0
 10
89.543556499859605
 20
57.999999999554191
 30
0.0
 11
85.543556499985783
 21
61.999999999428042
 31
0.0
  0
LINE
  5
1705
  8
0
 62
     0
 10
88.421024484725976
 20
57.99999999955417
 30
0.0
 11
84.442532268993475
 21
61.978492215286678
 31
0.0
  0
LINE
  5
1706
  8
0
 62
     0
 10
87.298492469592333
 20
57.999999999554191
 30
0.0
 11
84.274268950861256
 21
61.024223518285247
 31
0.0
  0
LINE
  5
1707
  8
0
 62
     0
 10
84.414145666471384
 20
59.761814787541482
 30
0.0
 11
84.106005632729065
 21
60.06995482128378
 31
0.0
  0
LINE
  5
1708
  8
0
 62
     0
 10
86.175960454458675
 20
57.999999999554191
 30
0.0
 11
84.844876863001744
 21
59.331083591011122
 31
0.0
  0
LINE
  5
1709
  8
0
 62
     0
 10
85.053428439325046
 20
57.999999999554191
 30
0.0
 11
84.369318724176466
 21
58.684109714702778
 31
0.0
  0
LINE
  5
170A
  8
0
 62
     0
 10
83.930896424191388
 20
57.999999999554198
 30
0.0
 11
83.546330079011895
 21
58.38456634473367
 31
0.0
  0
ENDBLK
  5
170C
  8
0
  0
BLOCK
  8
0
  2
*X47
 70
     1
 10
0.0
 20
0.0
 30
0.0
  3
*X47
  1

  0
LINE
  5
170E
  8
0
 62
     0
 10
83.78455178768634
 20
29.999999999554021
 30
0.0
 11
83.439036948264942
 21
29.65448516013263
 31
0.0
  0
LINE
  5
170F
  8
0
 62
     0
 10
84.907083802819983
 20
29.999999999554021
 30
0.0
 11
84.262025593420773
 21
29.354941790154829
 31
0.0
  0
LINE
  5
1710
  8
0
 62
     0
 10
84.298861242184955
 20
28.26924542378535
 30
0.0
 11
84.084974138670503
 21
28.055358320270908
 31
0.0
  0
LINE
  5
1711
  8
0
 62
     0
 10
86.029615817953626
 20
29.999999999554021
 30
0.0
 11
84.857509674924657
 21
28.827893856525051
 31
0.0
  0
LINE
  5
1712
  8
0
 62
     0
 10
87.15214783308727
 20
29.999999999554031
 30
0.0
 11
84.252332441236305
 21
27.10018460770306
 31
0.0
  0
LINE
  5
1713
  8
0
 62
     0
 10
88.274679848220899
 20
29.999999999554031
 30
0.0
 11
84.420595759357838
 21
26.14591591069097
 31
0.0
  0
LINE
  5
1714
  8
0
 62
     0
 10
89.397211863354556
 20
29.999999999554031
 30
0.0
 11
85.397211863838379
 21
26.000000000037861
 31
0.0
  0
LINE
  5
1715
  8
0
 62
     0
 10
89.663387499864385
 20
29.14364362093022
 30
0.0
 11
86.450948318840261
 21
25.931204439906072
 31
0.0
  0
LINE
  5
1716
  8
0
 62
     0
 10
89.597789195853892
 20
27.95551330178608
 30
0.0
 11
86.516165217101715
 21
24.8738893230339
 31
0.0
  0
LINE
  5
1717
  8
0
 62
     0
 10
88.500000000004377
 20
25.735192090802911
 30
0.0
 11
87.264807909112164
 21
24.499999999910688
 31
0.0
  0
LINE
  5
1718
  8
0
 62
     0
 10
89.659089240548695
 20
26.894281331347219
 30
0.0
 11
88.764807908758698
 21
25.999999999557229
 31
0.0
  0
LINE
  5
1719
  8
0
 62
     0
 10
89.748908577741389
 20
29.731347543331299
 30
0.0
 11
89.480256121518678
 21
29.999999999554021
 31
0.0
  0
LINE
  5
171A
  8
0
 62
     0
 10
89.624632643827525
 20
28.733091462111521
 30
0.0
 11
88.357724106385035
 21
29.999999999554021
 31
0.0
  0
LINE
  5
171B
  8
0
 62
     0
 10
89.604521554114129
 20
27.630670536691269
 30
0.0
 11
87.235192091251392
 21
29.999999999554021
 31
0.0
  0
LINE
  5
171C
  8
0
 62
     0
 10
89.729425954771884
 20
26.383234120899889
 30
0.0
 11
86.112660076117734
 21
29.999999999554021
 31
0.0
  0
LINE
  5
171D
  8
0
 62
     0
 10
88.990128060982371
 20
25.999999999555751
 30
0.0
 11
84.990128060984105
 21
29.999999999554021
 31
0.0
  0
LINE
  5
171E
  8
0
 62
     0
 10
88.500000000009408
 20
25.367596045395079
 30
0.0
 11
83.867596045850462
 21
29.999999999554021
 31
0.0
  0
LINE
  5
171F
  8
0
 62
     0
 10
88.202307564622856
 20
24.54275646564799
 30
0.0
 11
84.512040856677373
 21
28.233023173593459
 31
0.0
  0
LINE
  5
1720
  8
0
 62
     0
 10
85.622532015099353
 20
26.000000000037851
 30
0.0
 11
84.194529256455255
 21
27.428002758681949
 31
0.0
  0
LINE
  5
1721
  8
0
 62
     0
 10
87.122532015158185
 20
24.499999999979021
 30
0.0
 11
86.500000000003524
 21
25.122532015133689
 31
0.0
  0
LINE
  5
1722
  8
0
 62
     0
 10
84.744968869234228
 20
25.7550311307693
 30
0.0
 11
84.434834178834606
 21
26.06516582116895
 31
0.0
  0
ENDBLK
  5
1724
  8
0
  0
BLOCK
  8
0
  2
*X48
 70
     1
 10
0.0
 20
0.0
 30
0.0
  3
*X48
  1

  0
LINE
  5
175B
  8
0
 62
     0
 10
84.620560742152364
 20
62.266905377762079
 30
0.0
 11
84.466162761347235
 21
62.112507396956957
 31
0.0
  0
LINE
  5
175C
  8
0
 62
     0
 10
85.476187378951948
 20
61.999999999428042
 30
0.0
 11
84.225857838946155
 21
60.749670459422227
 31
0.0
  0
LINE
  5
175D
  8
0
 62
     0
 10
86.975591235795122
 20
63.499403856271201
 30
0.0
 11
86.500596143160266
 21
63.024408763636352
 31
0.0
  0
LINE
  5
175E
  8
0
 62
     0
 10
88.090467012420945
 20
63.491747617763387
 30
0.0
 11
84.335606271088508
 21
59.736886876430937
 31
0.0
  0
LINE
  5
175F
  8
0
 62
     0
 10
84.425986512790544
 20
58.704735102999301
 30
0.0
 11
83.721251409345399
 21
57.999999999554198
 31
0.0
  0
LINE
  5
1760
  8
0
 62
     0
 10
88.50000000001134
 20
62.778748590220118
 30
0.0
 11
84.852498149075885
 21
59.131246739284663
 31
0.0
  0
LINE
  5
1761
  8
0
 62
     0
 10
88.843783424834044
 20
61.999999999909178
 30
0.0
 11
84.843783424479057
 21
57.999999999554198
 31
0.0
  0
LINE
  5
1762
  8
0
 62
     0
 10
89.76010446252242
 20
61.793789022463912
 30
0.0
 11
85.966315439612714
 21
57.999999999554198
 31
0.0
  0
LINE
  5
1763
  8
0
 62
     0
 10
89.611368701420744
 20
60.522521246228621
 30
0.0
 11
87.088847454746343
 21
57.999999999554191
 31
0.0
  0
LINE
  5
1764
  8
0
 62
     0
 10
89.615483700585244
 20
59.404104230259442
 30
0.0
 11
88.211379469879986
 21
57.999999999554191
 31
0.0
  0
LINE
  5
1765
  8
0
 62
     0
 10
89.727700253679686
 20
58.393788768220261
 30
0.0
 11
89.333911485013616
 21
57.999999999554191
 31
0.0
  0
LINE
  5
1766
  8
0
 62
     0
 10
88.500000000006324
 20
62.411152544808409
 30
0.0
 11
87.411152545189253
 21
63.499999999625473
 31
0.0
  0
LINE
  5
1767
  8
0
 62
     0
 10
89.674545384435362
 20
61.236607160379371
 30
0.0
 11
88.911152544905136
 21
61.999999999909612
 31
0.0
  0
LINE
  5
1768
  8
0
 62
     0
 10
89.599481288333493
 20
60.189139241347611
 30
0.0
 11
86.556923721321269
 21
63.231696808359807
 31
0.0
  0
LINE
  5
1769
  8
0
 62
     0
 10
89.645867209303063
 20
59.020221305244377
 30
0.0
 11
86.497515438593084
 21
62.16857307595437
 31
0.0
  0
LINE
  5
176A
  8
0
 62
     0
 10
89.543556499859605
 20
57.999999999554191
 30
0.0
 11
85.543556499985783
 21
61.999999999428042
 31
0.0
  0
LINE
  5
176B
  8
0
 62
     0
 10
88.421024484725976
 20
57.99999999955417
 30
0.0
 11
84.442532268993475
 21
61.978492215286678
 31
0.0
  0
LINE
  5
176C
  8
0
 62
     0
 10
87.298492469592333
 20
57.999999999554191
 30
0.0
 11
84.274268950861256
 21
61.024223518285247
 31
0.0
  0
LINE
  5
176D
  8
0
 62
     0
 10
84.414145666471384
 20
59.761814787541482
 30
0.0
 11
84.106005632729065
 21
60.06995482128378
 31
0.0
  0
LINE
  5
176E
  8
0
 62
     0
 10
86.175960454458675
 20
57.999999999554191
 30
0.0
 11
84.844876863001744
 21
59.331083591011122
 31
0.0
  0
LINE
  5
176F
  8
0
 62
     0
 10
85.053428439325046
 20
57.999999999554191
 30
0.0
 11
84.369318724176466
 21
58.684109714702778
 31
0.0
  0
LINE
  5
1770
  8
0
 62
     0
 10
83.930896424191388
 20
57.999999999554198
 30
0.0
 11
83.546330079011895
 21
58.38456634473367
 31
0.0
  0
ENDBLK
  5
1772
  8
0
  0
BLOCK
  8
0
  2
*X49
 70
     1
 10
0.0
 20
0.0
 30
0.0
  3
*X49
  1

  0
LINE
  5
1774
  8
0
 62
     0
 10
83.78455178768634
 20
29.999999999554021
 30
0.0
 11
83.439036948264942
 21
29.65448516013263
 31
0.0
  0
LINE
  5
1775
  8
0
 62
     0
 10
84.907083802819983
 20
29.999999999554021
 30
0.0
 11
84.262025593420773
 21
29.354941790154829
 31
0.0
  0
LINE
  5
1776
  8
0
 62
     0
 10
84.298861242184955
 20
28.26924542378535
 30
0.0
 11
84.084974138670503
 21
28.055358320270908
 31
0.0
  0
LINE
  5
1777
  8
0
 62
     0
 10
86.029615817953626
 20
29.999999999554021
 30
0.0
 11
84.857509674924657
 21
28.827893856525051
 31
0.0
  0
LINE
  5
1778
  8
0
 62
     0
 10
87.15214783308727
 20
29.999999999554031
 30
0.0
 11
84.252332441236305
 21
27.10018460770306
 31
0.0
  0
LINE
  5
1779
  8
0
 62
     0
 10
88.274679848220899
 20
29.999999999554031
 30
0.0
 11
84.420595759357838
 21
26.14591591069097
 31
0.0
  0
LINE
  5
177A
  8
0
 62
     0
 10
89.397211863354556
 20
29.999999999554031
 30
0.0
 11
85.397211863838379
 21
26.000000000037861
 31
0.0
  0
LINE
  5
177B
  8
0
 62
     0
 10
89.663387499864385
 20
29.14364362093022
 30
0.0
 11
86.450948318840261
 21
25.931204439906072
 31
0.0
  0
LINE
  5
177C
  8
0
 62
     0
 10
89.597789195853892
 20
27.95551330178608
 30
0.0
 11
86.516165217101715
 21
24.8738893230339
 31
0.0
  0
LINE
  5
177D
  8
0
 62
     0
 10
88.500000000004377
 20
25.735192090802911
 30
0.0
 11
87.264807909112164
 21
24.499999999910688
 31
0.0
  0
LINE
  5
177E
  8
0
 62
     0
 10
89.659089240548695
 20
26.894281331347219
 30
0.0
 11
88.764807908758698
 21
25.999999999557229
 31
0.0
  0
LINE
  5
177F
  8
0
 62
     0
 10
89.748908577741389
 20
29.731347543331299
 30
0.0
 11
89.480256121518678
 21
29.999999999554021
 31
0.0
  0
LINE
  5
1780
  8
0
 62
     0
 10
89.624632643827525
 20
28.733091462111521
 30
0.0
 11
88.357724106385035
 21
29.999999999554021
 31
0.0
  0
LINE
  5
1781
  8
0
 62
     0
 10
89.604521554114129
 20
27.630670536691269
 30
0.0
 11
87.235192091251392
 21
29.999999999554021
 31
0.0
  0
LINE
  5
1782
  8
0
 62
     0
 10
89.729425954771884
 20
26.383234120899889
 30
0.0
 11
86.112660076117734
 21
29.999999999554021
 31
0.0
  0
LINE
  5
1783
  8
0
 62
     0
 10
88.990128060982371
 20
25.999999999555751
 30
0.0
 11
84.990128060984105
 21
29.999999999554021
 31
0.0
  0
LINE
  5
1784
  8
0
 62
     0
 10
88.500000000009408
 20
25.367596045395079
 30
0.0
 11
83.867596045850462
 21
29.999999999554021
 31
0.0
  0
LINE
  5
1785
  8
0
 62
     0
 10
88.202307564622856
 20
24.54275646564799
 30
0.0
 11
84.512040856677373
 21
28.233023173593459
 31
0.0
  0
LINE
  5
1786
  8
0
 62
     0
 10
85.622532015099353
 20
26.000000000037851
 30
0.0
 11
84.194529256455255
 21
27.428002758681949
 31
0.0
  0
LINE
  5
1787
  8
0
 62
     0
 10
87.122532015158185
 20
24.499999999979021
 30
0.0
 11
86.500000000003524
 21
25.122532015133689
 31
0.0
  0
LINE
  5
1788
  8
0
 62
     0
 10
84.744968869234228
 20
25.7550311307693
 30
0.0
 11
84.434834178834606
 21
26.06516582116895
 31
0.0
  0
ENDBLK
  5
178A
  8
0
  0
BLOCK
  8
0
  2
*U50
 70
     1
 10
0.0
 20
0.0
 30
0.0
  3
*U50
  1

  0
TEXT
  5
1903
  8
SAPA_MATT
 62
     2
 10
41.899999999988772
 20
-16.999999928252489
 30
0.0
 40
3.5
  1
91.5
  7
ISO
  0
ENDBLK
  5
1905
  8
0
  0
BLOCK
  8
0
  2
*U51
 70
     1
 10
0.0
 20
0.0
 30
0.0
  3
*U51
  1

  0
TEXT
  5
1907
  8
SAPA_MATT
 62
     2
 10
27.549999999999859
 20
-4.99999992825252
 30
0.0
 40
3.5
  1
60
  7
ISO
  0
ENDBLK
  5
1909
  8
0
  0
BLOCK
  8
0
  2
*U52
 70
     1
 10
0.0
 20
0.0
 30
0.0
  3
*U52
  1

  0
TEXT
  5
190B
  8
SAPA_MATT
 62
     2
 10
144.99999999999989
 20
73.174999999751179
 30
0.0
 40
3.5
  1
125
 50
90.0
  7
ISO
  0
ENDBLK
  5
190D
  8
0
  0
BLOCK
  8
0
  2
*U53
 70
     1
 10
0.0
 20
0.0
 30
0.0
  3
*U53
  1

  0
TEXT
  5
190F
  8
SAPA_MATT
 62
     2
 10
132.99999999999989
 20
15.275000000092099
 30
0.0
 40
3.5
  1
5
 50
90.0
  7
ISO
  0
ENDBLK
  5
1911
  8
0
  0
ENDSEC
  0
SECTION
  2
ENTITIES
  0
TEXT
  5
70A
  8
SAPA_ARTIKELNR
 10
20.10863763778001
 20
9.0911439009736341
 30
0.0000000048844772
 40
3.5
  1
D8K025
  7
ISO
  0
TEXT
  5
722
  8
SAPA_ARTIKELNR
 10
91.811836860531443
 20
23.376208805822639
 30
0.0000000048844772
 40
3.5
  1
D8V001
  7
ISO
  0
TEXT
  5
8BF
  8
SAPA_ARTIKELNR
 10
66.617162345126928
 20
101.5879484317109
 30
0.0000000048844772
 40
3.5
  1
D8V020
 50
90.0
  7
ISO
  0
TEXT
  5
B34
  8
SAPA_ARTIKELNR
 10
66.103081755358744
 20
70.326635686177411
 30
0.0000000048844772
 40
3.5
  1
D8V007
  7
ISO
  0
INSERT
  5
BA4
  8
SAPA_ANSLUTNING
  6
CONTINUOUS
  2
*X44
 10
0.0
 20
0.0
 30
0.0
1001
ACAD
1000
HATCH
1002
{
1070
    19
1000
ANSI37
1040
0.25
1040
1.5707963267948959
1000
R14_HATCH_DATA
1000
BA4
1011
1.0
1021
0.0
1031
0.0
1021
0.0
1031
0.0
1011
0.0
1021
0.0
1031
0.0
1021
1.0
1031
0.0
1011
0.0
1021
0.0
1031
0.0
1021
0.0
1031
1.0
1040
0.0
1010
0.0
1020
0.0
1030
1.0
1000
ANSI37
1070
     0
1070
     0
1071
        1
1071
        5
1071
        6
1070
     2
1040
58.500000000014779
1040
137.49999992775491
1040
1.4999999999999989
1040
7.0685834705769874
1040
7.8539816339744544
1070
     1
1070
     1
1040
58.500000000014829
1040
138.99999992775491
1040
47.663348763324308
1040
138.9999999277548
1070
     3
1040
47.663348763324002
1040
143.99999992775491
1040
-5.6210574168242138
1040
0.0000000000000003
1040
0.8895123513655372
1040
1.5707963267948959
1040
2.144309431217978
1070
     1
1070
     3
1040
47.663348763324002
1040
143.99999992775491
1040
-5.6210574168242138
1040
0.0000000000000003
1040
0.8895123513655372
1040
2.144309431217978
1040
4.7123889803846888
1070
     1
1070
     1
1040
47.66334876332467
1040
148.99999992775491
1040
59.999999999999893
1040
148.99999992775491
1070
     2
1040
80.646721299902254
1040
142.90216751658329
1040
21.528368738726542
1040
2.8544152276706032
1040
3.344649678800613
1070
     1
1071
        0
1070
     0
1070
     1
1040
1.5707963267948959
1040
0.25
1070
     0
1070
     2
1040
0.7853981633974481
1040
0.0000000000148361
1040
0.0000000000136566
1040
0.5612660075668221
1040
-0.5612660075668221
1070
     0
1040
5.4977871437821371
1040
0.0000000000148361
1040
0.0000000000136566
1040
-0.5612660075668221
1040
-0.5612660075668221
1070
     0
1040
0.0591690278051155
1071
        1
1040
56.420364712940739
1040
142.9986763470032
1040
0.0
1002
}
  0
LINE
  5
BA5
  8
SAPA_ANSLUTNING
 10
-15.000000000005629
 20
14.000000000000121
 30
0.0
 11
-15.000000000005571
 21
148.99999992775491
 31
0.0
  0
LINE
  5
BA6
  8
SAPA_ANSLUTNING
 10
59.999999999999893
 20
148.99999992775491
 30
0.0
 11
59.999999999999893
 21
194.0032559344132
 31
0.0
  0
LINE
  5
BA7
  8
SAPA_ANSLUTNING
 10
-15.000000000005571
 20
148.99999992775491
 30
0.0
 11
59.999999999999893
 21
148.99999992775491
 31
0.0
  0
ARC
  5
BA8
  8
SAPA_ANSLUTNING
 10
80.646721299902367
 20
142.90216751658329
 30
0.0
 40
21.52836873872667
 50
163.54594552340069
 51
191.63431054506049
  0
INSERT
  5
BA9
  8
SAPA_ANSLUTNING
  6
CONTINUOUS
  2
*X45
 10
0.0
 20
0.0
 30
0.0
1001
ACAD
1000
HATCH
1002
{
1070
    19
1000
HEX
1040
0.25
1040
1.5707963267948959
1000
ASC_BOUNDS
1070
     1
1070
     1
1070
     1
1005
BAA
1000
ASC_SEEDPOINT
1011
47.781686452380697
1021
0.0
1031
0.0
1021
144.2421099378295
1031
0.0
1000
R14_HATCH_DATA
1000
BA9
1011
1.0
1021
0.0
1031
0.0
1021
0.0
1031
0.0
1011
0.0
1021
0.0
1031
0.0
1021
1.0
1031
0.0
1011
0.0
1021
0.0
1031
0.0
1021
0.0
1031
1.0
1040
0.0
1010
0.0
1020
0.0
1030
1.0
1000
HEX
1070
     0
1070
     1
1071
        1
1071
        5
1071
        1
1070
     3
1040
47.663348763324002
1040
143.99999992775491
1040
-5.6210574168242138
1040
0.0000000000000003
1040
0.8895123513655372
1040
0.0
1040
6.2831853071795862
1070
     0
1071
        1
1005
BAA
1070
     0
1070
     1
1040
1.5707963267948959
1040
0.25
1070
     0
1070
     3
1040
1.5707963267948959
1040
0.0000000000148361
1040
0.0000000000136566
1040
1.374814999999999
1040
-0.0000000000000001
1070
     2
1040
0.79375
1040
-1.587499999999999
1040
5.7595865315812871
1040
0.0000000000148361
1040
0.0000000000136566
1040
-0.6874074999999998
1040
-1.190624715503902
1070
     2
1040
0.7937499999999993
1040
-1.5874999999999979
1040
0.5235987755982992
1040
0.0000000000148361
1040
0.7937500000136453
1040
0.6874075
1040
-1.190624715503902
1070
     2
1040
0.79375
1040
-1.587499999999999
1040
0.0591690278051155
1071
        1
1040
47.781686452380697
1040
144.2421099378295
1040
0.0
1002
}
  0
POLYLINE
  5
BAA
  8
SAPA_ANSLUTNING
 10
42.042291346499788
 20
143.99999992775491
 30
0.0
 66
     1
 70
     8
  0
VERTEX
  8
SAPA_ANSLUTNING
  5
1915
 10
42.0423
 20
144.000
 30
0.000000
  70
    32
  0
VERTEX
  8
SAPA_ANSLUTNING
  5
1916
 10
42.0491
 20
144.245
 30
0.000000
  70
    32
  0
VERTEX
  8
SAPA_ANSLUTNING
  5
1917
 10
42.0694
 20
144.490
 30
0.000000
  70
    32
  0
VERTEX
  8
SAPA_ANSLUTNING
  5
1918
 10
42.1031
 20
144.734
 30
0.000000
  70
    32
  0
VERTEX
  8
SAPA_ANSLUTNING
  5
1919
 10
42.1503
 20
144.975
 30
0.000000
  70
    32
  0
VERTEX
  8
SAPA_ANSLUTNING
  5
191A
 10
42.2107
 20
145.215
 30
0.000000
  70
    32
  0
VERTEX
  8
SAPA_ANSLUTNING
  5
191B
 10
42.2843
 20
145.451
 30
0.000000
  70
    32
  0
VERTEX
  8
SAPA_ANSLUTNING
  5
191C
 10
42.3709
 20
145.684
 30
0.000000
  70
    32
  0
VERTEX
  8
SAPA_ANSLUTNING
  5
191D
 10
42.4702
 20
145.913
 30
0.000000
  70
    32
  0
VERTEX
  8
SAPA_ANSLUTNING
  5
191E
 10
42.5820
 20
146.138
 30
0.000000
  70
    32
  0
VERTEX
  8
SAPA_ANSLUTNING
  5
191F
 10
42.7060
 20
146.357
 30
0.000000
  70
    32
  0
VERTEX
  8
SAPA_ANSLUTNING
  5
1920
 10
42.8420
 20
146.571
 30
0.000000
  70
    32
  0
VERTEX
  8
SAPA_ANSLUTNING
  5
1921
 10
42.9896
 20
146.778
 30
0.000000
  70
    32
  0
VERTEX
  8
SAPA_ANSLUTNING
  5
1922
 10
43.1485
 20
146.978
 30
0.000000
  70
    32
  0
VERTEX
  8
SAPA_ANSLUTNING
  5
1923
 10
43.3182
 20
147.172
 30
0.000000
  70
    32
  0
VERTEX
  8
SAPA_ANSLUTNING
  5
1924
 10
43.4984
 20
147.358
 30
0.000000
  70
    32
  0
VERTEX
  8
SAPA_ANSLUTNING
  5
1925
 10
43.6887
 20
147.536
 30
0.000000
  70
    32
  0
VERTEX
  8
SAPA_ANSLUTNING
  5
1926
 10
43.8885
 20
147.705
 30
0.000000
  70
    32
  0
VERTEX
  8
SAPA_ANSLUTNING
  5
1927
 10
44.0974
 20
147.865
 30
0.000000
  70
    32
  0
VERTEX
  8
SAPA_ANSLUTNING
  5
1928
 10
44.3149
 20
148.016
 30
0.000000
  70
    32
  0
VERTEX
  8
SAPA_ANSLUTNING
  5
1929
 10
44.5405
 20
148.157
 30
0.000000
  70
    32
  0
VERTEX
  8
SAPA_ANSLUTNING
  5
192A
 10
44.7735
 20
148.289
 30
0.000000
  70
    32
  0
VERTEX
  8
SAPA_ANSLUTNING
  5
192B
 10
45.0136
 20
148.410
 30
0.000000
  70
    32
  0
VERTEX
  8
SAPA_ANSLUTNING
  5
192C
 10
45.2600
 20
148.520
 30
0.000000
  70
    32
  0
VERTEX
  8
SAPA_ANSLUTNING
  5
192D
 10
45.5123
 20
148.619
 30
0.000000
  70
    32
  0
VERTEX
  8
SAPA_ANSLUTNING
  5
192E
 10
45.7697
 20
148.708
 30
0.000000
  70
    32
  0
VERTEX
  8
SAPA_ANSLUTNING
  5
192F
 10
46.0316
 20
148.785
 30
0.000000
  70
    32
  0
VERTEX
  8
SAPA_ANSLUTNING
  5
1930
 10
46.2975
 20
148.850
 30
0.000000
  70
    32
  0
VERTEX
  8
SAPA_ANSLUTNING
  5
1931
 10
46.5667
 20
148.904
 30
0.000000
  70
    32
  0
VERTEX
  8
SAPA_ANSLUTNING
  5
1932
 10
46.8386
 20
148.946
 30
0.000000
  70
    32
  0
VERTEX
  8
SAPA_ANSLUTNING
  5
1933
 10
47.1124
 20
148.976
 30
0.000000
  70
    32
  0
VERTEX
  8
SAPA_ANSLUTNING
  5
1934
 10
47.3875
 20
148.994
 30
0.000000
  70
    32
  0
VERTEX
  8
SAPA_ANSLUTNING
  5
1935
 10
47.6633
 20
149.000
 30
0.000000
  70
    32
  0
VERTEX
  8
SAPA_ANSLUTNING
  5
1936
 10
47.9392
 20
148.994
 30
0.000000
  70
    32
  0
VERTEX
  8
SAPA_ANSLUTNING
  5
1937
 10
48.2143
 20
148.976
 30
0.000000
  70
    32
  0
VERTEX
  8
SAPA_ANSLUTNING
  5
1938
 10
48.4881
 20
148.946
 30
0.000000
  70
    32
  0
VERTEX
  8
SAPA_ANSLUTNING
  5
1939
 10
48.7600
 20
148.904
 30
0.000000
  70
    32
  0
VERTEX
  8
SAPA_ANSLUTNING
  5
193A
 10
49.0292
 20
148.850
 30
0.000000
  70
    32
  0
VERTEX
  8
SAPA_ANSLUTNING
  5
193B
 10
49.2951
 20
148.785
 30
0.000000
  70
    32
  0
VERTEX
  8
SAPA_ANSLUTNING
  5
193C
 10
49.5570
 20
148.708
 30
0.000000
  70
    32
  0
VERTEX
  8
SAPA_ANSLUTNING
  5
193D
 10
49.8144
 20
148.619
 30
0.000000
  70
    32
  0
VERTEX
  8
SAPA_ANSLUTNING
  5
193E
 10
50.0667
 20
148.520
 30
0.000000
  70
    32
  0
VERTEX
  8
SAPA_ANSLUTNING
  5
193F
 10
50.3131
 20
148.410
 30
0.000000
  70
    32
  0
VERTEX
  8
SAPA_ANSLUTNING
  5
1940
 10
50.5531
 20
148.289
 30
0.000000
  70
    32
  0
VERTEX
  8
SAPA_ANSLUTNING
  5
1941
 10
50.7862
 20
148.157
 30
0.000000
  70
    32
  0
VERTEX
  8
SAPA_ANSLUTNING
  5
1942
 10
51.0118
 20
148.016
 30
0.000000
  70
    32
  0
VERTEX
  8
SAPA_ANSLUTNING
  5
1943
 10
51.2293
 20
147.865
 30
0.000000
  70
    32
  0
VERTEX
  8
SAPA_ANSLUTNING
  5
1944
 10
51.4382
 20
147.705
 30
0.000000
  70
    32
  0
VERTEX
  8
SAPA_ANSLUTNING
  5
1945
 10
51.6380
 20
147.536
 30
0.000000
  70
    32
  0
VERTEX
  8
SAPA_ANSLUTNING
  5
1946
 10
51.8283
 20
147.358
 30
0.000000
  70
    32
  0
VERTEX
  8
SAPA_ANSLUTNING
  5
1947
 10
52.0085
 20
147.172
 30
0.000000
  70
    32
  0
VERTEX
  8
SAPA_ANSLUTNING
  5
1948
 10
52.1782
 20
146.978
 30
0.000000
  70
    32
  0
VERTEX
  8
SAPA_ANSLUTNING
  5
1949
 10
52.3371
 20
146.778
 30
0.000000
  70
    32
  0
VERTEX
  8
SAPA_ANSLUTNING
  5
194A
 10
52.4847
 20
146.571
 30
0.000000
  70
    32
  0
VERTEX
  8
SAPA_ANSLUTNING
  5
194B
 10
52.6207
 20
146.357
 30
0.000000
  70
    32
  0
VERTEX
  8
SAPA_ANSLUTNING
  5
194C
 10
52.7447
 20
146.138
 30
0.000000
  70
    32
  0
VERTEX
  8
SAPA_ANSLUTNING
  5
194D
 10
52.8565
 20
145.913
 30
0.000000
  70
    32
  0
VERTEX
  8
SAPA_ANSLUTNING
  5
194E
 10
52.9558
 20
145.684
 30
0.000000
  70
    32
  0
VERTEX
  8
SAPA_ANSLUTNING
  5
194F
 10
53.0424
 20
145.451
 30
0.000000
  70
    32
  0
VERTEX
  8
SAPA_ANSLUTNING
  5
1950
 10
53.1160
 20
145.215
 30
0.000000
  70
    32
  0
VERTEX
  8
SAPA_ANSLUTNING
  5
1951
 10
53.1764
 20
144.975
 30
0.000000
  70
    32
  0
VERTEX
  8
SAPA_ANSLUTNING
  5
1952
 10
53.2236
 20
144.734
 30
0.000000
  70
    32
  0
VERTEX
  8
SAPA_ANSLUTNING
  5
1953
 10
53.2573
 20
144.490
 30
0.000000
  70
    32
  0
VERTEX
  8
SAPA_ANSLUTNING
  5
1954
 10
53.2776
 20
144.245
 30
0.000000
  70
    32
  0
VERTEX
  8
SAPA_ANSLUTNING
  5
1955
 10
53.2844
 20
144.000
 30
0.000000
  70
    32
  0
VERTEX
  8
SAPA_ANSLUTNING
  5
1956
 10
53.2776
 20
143.755
 30
0.000000
  70
    32
  0
VERTEX
  8
SAPA_ANSLUTNING
  5
1957
 10
53.2573
 20
143.510
 30
0.000000
  70
    32
  0
VERTEX
  8
SAPA_ANSLUTNING
  5
1958
 10
53.2236
 20
143.266
 30
0.000000
  70
    32
  0
VERTEX
  8
SAPA_ANSLUTNING
  5
1959
 10
53.1764
 20
143.025
 30
0.000000
  70
    32
  0
VERTEX
  8
SAPA_ANSLUTNING
  5
195A
 10
53.1160
 20
142.785
 30
0.000000
  70
    32
  0
VERTEX
  8
SAPA_ANSLUTNING
  5
195B
 10
53.0424
 20
142.549
 30
0.000000
  70
    32
  0
VERTEX
  8
SAPA_ANSLUTNING
  5
195C
 10
52.9558
 20
142.316
 30
0.000000
  70
    32
  0
VERTEX
  8
SAPA_ANSLUTNING
  5
195D
 10
52.8565
 20
142.087
 30
0.000000
  70
    32
  0
VERTEX
  8
SAPA_ANSLUTNING
  5
195E
 10
52.7447
 20
141.862
 30
0.000000
  70
    32
  0
VERTEX
  8
SAPA_ANSLUTNING
  5
195F
 10
52.6207
 20
141.643
 30
0.000000
  70
    32
  0
VERTEX
  8
SAPA_ANSLUTNING
  5
1960
 10
52.4847
 20
141.429
 30
0.000000
  70
    32
  0
VERTEX
  8
SAPA_ANSLUTNING
  5
1961
 10
52.3371
 20
141.222
 30
0.000000
  70
    32
  0
VERTEX
  8
SAPA_ANSLUTNING
  5
1962
 10
52.1782
 20
141.022
 30
0.000000
  70
    32
  0
VERTEX
  8
SAPA_ANSLUTNING
  5
1963
 10
52.0085
 20
140.828
 30
0.000000
  70
    32
  0
VERTEX
  8
SAPA_ANSLUTNING
  5
1964
 10
51.8283
 20
140.642
 30
0.000000
  70
    32
  0
VERTEX
  8
SAPA_ANSLUTNING
  5
1965
 10
51.6380
 20
140.464
 30
0.000000
  70
    32
  0
VERTEX
  8
SAPA_ANSLUTNING
  5
1966
 10
51.4382
 20
140.295
 30
0.000000
  70
    32
  0
VERTEX
  8
SAPA_ANSLUTNING
  5
1967
 10
51.2293
 20
140.135
 30
0.000000
  70
    32
  0
VERTEX
  8
SAPA_ANSLUTNING
  5
1968
 10
51.0118
 20
139.984
 30
0.000000
  70
    32
  0
VERTEX
  8
SAPA_ANSLUTNING
  5
1969
 10
50.7862
 20
139.843
 30
0.000000
  70
    32
  0
VERTEX
  8
SAPA_ANSLUTNING
  5
196A
 10
50.5531
 20
139.711
 30
0.000000
  70
    32
  0
VERTEX
  8
SAPA_ANSLUTNING
  5
196B
 10
50.3131
 20
139.590
 30
0.000000
  70
    32
  0
VERTEX
  8
SAPA_ANSLUTNING
  5
196C
 10
50.0667
 20
139.480
 30
0.000000
  70
    32
  0
VERTEX
  8
SAPA_ANSLUTNING
  5
196D
 10
49.8144
 20
139.381
 30
0.000000
  70
    32
  0
VERTEX
  8
SAPA_ANSLUTNING
  5
196E
 10
49.5570
 20
139.292
 30
0.000000
  70
    32
  0
VERTEX
  8
SAPA_ANSLUTNING
  5
196F
 10
49.2951
 20
139.215
 30
0.000000
  70
    32
  0
VERTEX
  8
SAPA_ANSLUTNING
  5
1970
 10
49.0292
 20
139.150
 30
0.000000
  70
    32
  0
VERTEX
  8
SAPA_ANSLUTNING
  5
1971
 10
48.7600
 20
139.096
 30
0.000000
  70
    32
  0
VERTEX
  8
SAPA_ANSLUTNING
  5
1972
 10
48.4881
 20
139.054
 30
0.000000
  70
    32
  0
VERTEX
  8
SAPA_ANSLUTNING
  5
1973
 10
48.2143
 20
139.024
 30
0.000000
  70
    32
  0
VERTEX
  8
SAPA_ANSLUTNING
  5
1974
 10
47.9392
 20
139.006
 30
0.000000
  70
    32
  0
VERTEX
  8
SAPA_ANSLUTNING
  5
1975
 10
47.6633
 20
139.000
 30
0.000000
  70
    32
  0
VERTEX
  8
SAPA_ANSLUTNING
  5
1976
 10
47.3875
 20
139.006
 30
0.000000
  70
    32
  0
VERTEX
  8
SAPA_ANSLUTNING
  5
1977
 10
47.1124
 20
139.024
 30
0.000000
  70
    32
  0
VERTEX
  8
SAPA_ANSLUTNING
  5
1978
 10
46.8386
 20
139.054
 30
0.000000
  70
    32
  0
VERTEX
  8
SAPA_ANSLUTNING
  5
1979
 10
46.5667
 20
139.096
 30
0.000000
  70
    32
  0
VERTEX
  8
SAPA_ANSLUTNING
  5
197A
 10
46.2975
 20
139.150
 30
0.000000
  70
    32
  0
VERTEX
  8
SAPA_ANSLUTNING
  5
197B
 10
46.0316
 20
139.215
 30
0.000000
  70
    32
  0
VERTEX
  8
SAPA_ANSLUTNING
  5
197C
 10
45.7697
 20
139.292
 30
0.000000
  70
    32
  0
VERTEX
  8
SAPA_ANSLUTNING
  5
197D
 10
45.5123
 20
139.381
 30
0.000000
  70
    32
  0
VERTEX
  8
SAPA_ANSLUTNING
  5
197E
 10
45.2600
 20
139.480
 30
0.000000
  70
    32
  0
VERTEX
  8
SAPA_ANSLUTNING
  5
197F
 10
45.0136
 20
139.590
 30
0.000000
  70
    32
  0
VERTEX
  8
SAPA_ANSLUTNING
  5
1980
 10
44.7735
 20
139.711
 30
0.000000
  70
    32
  0
VERTEX
  8
SAPA_ANSLUTNING
  5
1981
 10
44.5405
 20
139.843
 30
0.000000
  70
    32
  0
VERTEX
  8
SAPA_ANSLUTNING
  5
1982
 10
44.3149
 20
139.984
 30
0.000000
  70
    32
  0
VERTEX
  8
SAPA_ANSLUTNING
  5
1983
 10
44.0974
 20
140.135
 30
0.000000
  70
    32
  0
VERTEX
  8
SAPA_ANSLUTNING
  5
1984
 10
43.8885
 20
140.295
 30
0.000000
  70
    32
  0
VERTEX
  8
SAPA_ANSLUTNING
  5
1985
 10
43.6887
 20
140.464
 30
0.000000
  70
    32
  0
VERTEX
  8
SAPA_ANSLUTNING
  5
1986
 10
43.4984
 20
140.642
 30
0.000000
  70
    32
  0
VERTEX
  8
SAPA_ANSLUTNING
  5
1987
 10
43.3182
 20
140.828
 30
0.000000
  70
    32
  0
VERTEX
  8
SAPA_ANSLUTNING
  5
1988
 10
43.1485
 20
141.022
 30
0.000000
  70
    32
  0
VERTEX
  8
SAPA_ANSLUTNING
  5
1989
 10
42.9896
 20
141.222
 30
0.000000
  70
    32
  0
VERTEX
  8
SAPA_ANSLUTNING
  5
198A
 10
42.8420
 20
141.429
 30
0.000000
  70
    32
  0
VERTEX
  8
SAPA_ANSLUTNING
  5
198B
 10
42.7060
 20
141.643
 30
0.000000
  70
    32
  0
VERTEX
  8
SAPA_ANSLUTNING
  5
198C
 10
42.5820
 20
141.862
 30
0.000000
  70
    32
  0
VERTEX
  8
SAPA_ANSLUTNING
  5
198D
 10
42.4702
 20
142.087
 30
0.000000
  70
    32
  0
VERTEX
  8
SAPA_ANSLUTNING
  5
198E
 10
42.3709
 20
142.316
 30
0.000000
  70
    32
  0
VERTEX
  8
SAPA_ANSLUTNING
  5
198F
 10
42.2843
 20
142.549
 30
0.000000
  70
    32
  0
VERTEX
  8
SAPA_ANSLUTNING
  5
1990
 10
42.2107
 20
142.785
 30
0.000000
  70
    32
  0
VERTEX
  8
SAPA_ANSLUTNING
  5
1991
 10
42.1503
 20
143.025
 30
0.000000
  70
    32
  0
VERTEX
  8
SAPA_ANSLUTNING
  5
1992
 10
42.1031
 20
143.266
 30
0.000000
  70
    32
  0
VERTEX
  8
SAPA_ANSLUTNING
  5
1993
 10
42.0694
 20
143.510
 30
0.000000
  70
    32
  0
VERTEX
  8
SAPA_ANSLUTNING
  5
1994
 10
42.0491
 20
143.755
 30
0.000000
  70
    32
  0
VERTEX
  8
SAPA_ANSLUTNING
  5
1995
 10
42.0423
 20
144.000
 30
0.000000
  70
    32
  0
SEQEND
  8
SAPA_ANSLUTNING
  5
1996
  0
POLYLINE
  5
BAB
  8
SAPA_ANSLUTNING
 66
     1
 10
0.0
 20
0.0
 30
0.0
  0
VERTEX
  5
10AD
  8
SAPA_ANSLUTNING
 10
43.647930409453288
 20
140.5010714710958
 30
0.0
 42
-0.8812634091771133
  0
VERTEX
  5
10AE
  8
SAPA_ANSLUTNING
 10
39.71116238123313
 20
140.99999992775491
 30
0.0
  0
VERTEX
  5
10AF
  8
SAPA_ANSLUTNING
 10
39.71116238123313
 20
146.99999992775491
 30
0.0
 42
0.9999999999999998
  0
VERTEX
  5
10B0
  8
SAPA_ANSLUTNING
 10
35.71116238123313
 20
146.99999992775491
 30
0.0
  0
VERTEX
  5
10B1
  8
SAPA_ANSLUTNING
 10
35.71116238123313
 20
140.99999992775491
 30
0.0
 42
-0.9999999999999998
  0
VERTEX
  5
10B2
  8
SAPA_ANSLUTNING
 10
31.71116238123313
 20
140.99999992775491
 30
0.0
  0
VERTEX
  5
10B3
  8
SAPA_ANSLUTNING
 10
31.71116238123313
 20
146.99999992775491
 30
0.0
 42
0.9999999999999998
  0
VERTEX
  5
10B4
  8
SAPA_ANSLUTNING
 10
27.71116238123312
 20
146.99999992775491
 30
0.0
  0
VERTEX
  5
10B5
  8
SAPA_ANSLUTNING
 10
27.71116238123312
 20
140.99999992775491
 30
0.0
 42
-0.9999999999999998
  0
VERTEX
  5
10B6
  8
SAPA_ANSLUTNING
 10
23.71116238123312
 20
140.99999992775491
 30
0.0
  0
VERTEX
  5
10B7
  8
SAPA_ANSLUTNING
 10
23.71116238123312
 20
146.99999992775491
 30
0.0
 42
0.9999999999999998
  0
VERTEX
  5
10B8
  8
SAPA_ANSLUTNING
 10
19.71116238123312
 20
146.99999992775491
 30
0.0
  0
VERTEX
  5
10B9
  8
SAPA_ANSLUTNING
 10
19.71116238123312
 20
140.99999992775491
 30
0.0
 42
-0.9999999999999998
  0
VERTEX
  5
10BA
  8
SAPA_ANSLUTNING
 10
15.71116238123312
 20
140.99999992775491
 30
0.0
  0
VERTEX
  5
10BB
  8
SAPA_ANSLUTNING
 10
15.71116238123312
 20
146.99999992775491
 30
0.0
 42
0.9999999999999998
  0
VERTEX
  5
10BC
  8
SAPA_ANSLUTNING
 10
11.71116238123312
 20
146.99999992775491
 30
0.0
  0
VERTEX
  5
10BD
  8
SAPA_ANSLUTNING
 10
11.71116238123312
 20
140.99999992775491
 30
0.0
 42
-0.9999999999999998
  0
VERTEX
  5
10BE
  8
SAPA_ANSLUTNING
 10
7.7111623812331231
 20
140.99999992775491
 30
0.0
  0
VERTEX
  5
10BF
  8
SAPA_ANSLUTNING
 10
7.7111623812331231
 20
146.99999992775491
 30
0.0
 42
0.9999999999999998
  0
VERTEX
  5
10C0
  8
SAPA_ANSLUTNING
 10
3.7111623812331231
 20
146.99999992775491
 30
0.0
  0
VERTEX
  5
10C1
  8
SAPA_ANSLUTNING
 10
3.7111623812331231
 20
140.99999992775491
 30
0.0
 42
-0.9999999999999998
  0
VERTEX
  5
10C2
  8
SAPA_ANSLUTNING
 10
-0.2888376187668768
 20
140.99999992775491
 30
0.0
  0
VERTEX
  5
10C3
  8
SAPA_ANSLUTNING
 10
-0.2888376187668768
 20
146.99999992775491
 30
0.0
 42
0.9999999999999998
  0
VERTEX
  5
10C4
  8
SAPA_ANSLUTNING
 10
-4.288837618766876
 20
146.99999992775491
 30
0.0
  0
VERTEX
  5
10C5
  8
SAPA_ANSLUTNING
 10
-4.288837618766876
 20
140.99999992775491
 30
0.0
 42
-0.9999999999999998
  0
VERTEX
  5
10C6
  8
SAPA_ANSLUTNING
 10
-8.2888376187668769
 20
140.99999992775491
 30
0.0
  0
VERTEX
  5
10C7
  8
SAPA_ANSLUTNING
 10
-8.2888376187668769
 20
146.99999992775491
 30
0.0
 42
0.9999999999999998
  0
VERTEX
  5
10C8
  8
SAPA_ANSLUTNING
 10
-12.28883761876687
 20
146.99999992775491
 30
0.0
  0
VERTEX
  5
10C9
  8
SAPA_ANSLUTNING
 10
-12.28883761876687
 20
140.99999992775491
 30
0.0
 42
-0.5251735434384823
  0
VERTEX
  5
10CA
  8
SAPA_ANSLUTNING
 10
-15.000000000005571
 20
139.1307091350983
 30
0.0
 42
-0.5251735434384823
  0
SEQEND
  5
10CB
  8
SAPA_ANSLUTNING
  0
LINE
  5
BAC
  8
SAPA_ANSLUTNING
 10
59.999999999999893
 20
14.000000000000121
 30
0.0
 11
59.999999999999893
 21
-30.619466477045751
 31
0.0
  0
LINE
  5
BAD
  8
SAPA_ANSLUTNING
 10
59.999999999999893
 20
14.000000000000121
 30
0.0
 11
-15.000000000005629
 21
14.000000000000121
 31
0.0
  0
POLYLINE
  5
BAE
  8
SAPA_ANSLUTNING
 66
     1
 10
0.0
 20
0.0
 30
0.0
  0
VERTEX
  5
10CC
  8
SAPA_ANSLUTNING
 10
-13.4989284566592
 20
14.000000000000121
 30
0.0
 42
-0.8812634091771133
  0
VERTEX
  5
10CD
  8
SAPA_ANSLUTNING
 10
-13.00000000000011
 20
17.9367680282203
 30
0.0
  0
VERTEX
  5
10CE
  8
SAPA_ANSLUTNING
 10
-2.0000000000001128
 20
17.9367680282203
 30
0.0
 42
0.9999999999999998
  0
VERTEX
  5
10CF
  8
SAPA_ANSLUTNING
 10
-2.0000000000001128
 20
21.9367680282203
 30
0.0
  0
VERTEX
  5
10D0
  8
SAPA_ANSLUTNING
 10
-13.00000000000011
 20
21.9367680282203
 30
0.0
 42
-0.9999999999999998
  0
VERTEX
  5
10D1
  8
SAPA_ANSLUTNING
 10
-13.00000000000006
 20
25.9367680282203
 30
0.0
  0
VERTEX
  5
10D2
  8
SAPA_ANSLUTNING
 10
-2.000000000000056
 20
25.9367680282203
 30
0.0
 42
0.9999999999999998
  0
VERTEX
  5
10D3
  8
SAPA_ANSLUTNING
 10
-2.000000000000056
 20
29.9367680282203
 30
0.0
  0
VERTEX
  5
10D4
  8
SAPA_ANSLUTNING
 10
-13.00000000000006
 20
29.9367680282203
 30
0.0
 42
-0.9999999999999998
  0
VERTEX
  5
10D5
  8
SAPA_ANSLUTNING
 10
-13.00000000000006
 20
33.9367680282203
 30
0.0
  0
VERTEX
  5
10D6
  8
SAPA_ANSLUTNING
 10
-2.000000000000056
 20
33.9367680282203
 30
0.0
 42
0.9999999999999998
  0
VERTEX
  5
10D7
  8
SAPA_ANSLUTNING
 10
-2.000000000000056
 20
37.9367680282203
 30
0.0
  0
VERTEX
  5
10D8
  8
SAPA_ANSLUTNING
 10
-13.00000000000006
 20
37.9367680282203
 30
0.0
 42
-0.9999999999999998
  0
VERTEX
  5
10D9
  8
SAPA_ANSLUTNING
 10
-13.00000000000006
 20
41.9367680282203
 30
0.0
  0
VERTEX
  5
10DA
  8
SAPA_ANSLUTNING
 10
-2.000000000000056
 20
41.9367680282203
 30
0.0
 42
0.9999999999999998
  0
VERTEX
  5
10DB
  8
SAPA_ANSLUTNING
 10
-2.000000000000056
 20
45.9367680282203
 30
0.0
  0
VERTEX
  5
10DC
  8
SAPA_ANSLUTNING
 10
-13.00000000000006
 20
45.9367680282203
 30
0.0
 42
-0.9999999999999998
  0
VERTEX
  5
10DD
  8
SAPA_ANSLUTNING
 10
-13.00000000000006
 20
49.936768028220293
 30
0.0
  0
VERTEX
  5
10DE
  8
SAPA_ANSLUTNING
 10
-2.000000000000056
 20
49.936768028220293
 30
0.0
 42
0.9999999999999998
  0
VERTEX
  5
10DF
  8
SAPA_ANSLUTNING
 10
-2.000000000000056
 20
53.9367680282203
 30
0.0
  0
VERTEX
  5
10E0
  8
SAPA_ANSLUTNING
 10
-13.00000000000006
 20
53.9367680282203
 30
0.0
 42
-0.9999999999999998
  0
VERTEX
  5
10E1
  8
SAPA_ANSLUTNING
 10
-13.00000000000006
 20
57.9367680282203
 30
0.0
  0
VERTEX
  5
10E2
  8
SAPA_ANSLUTNING
 10
-2.000000000000056
 20
57.9367680282203
 30
0.0
 42
0.9999999999999998
  0
VERTEX
  5
10E3
  8
SAPA_ANSLUTNING
 10
-2.000000000000056
 20
61.9367680282203
 30
0.0
  0
VERTEX
  5
10E4
  8
SAPA_ANSLUTNING
 10
-13.00000000000006
 20
61.9367680282203
 30
0.0
 42
-0.9999999999999998
  0
VERTEX
  5
10E5
  8
SAPA_ANSLUTNING
 10
-13.00000000000006
 20
65.9367680282203
 30
0.0
  0
VERTEX
  5
10E6
  8
SAPA_ANSLUTNING
 10
-2.000000000000056
 20
65.9367680282203
 30
0.0
 42
0.9999999999999998
  0
VERTEX
  5
10E7
  8
SAPA_ANSLUTNING
 10
-2.000000000000056
 20
69.936768028220285
 30
0.0
  0
VERTEX
  5
10E8
  8
SAPA_ANSLUTNING
 10
-13.00000000000006
 20
69.936768028220285
 30
0.0
 42
-0.5251735434384823
  0
VERTEX
  5
10E9
  8
SAPA_ANSLUTNING
 10
-14.869290792656731
 20
72.647930409458993
 30
0.0
 42
-0.5251735434384823
  0
SEQEND
  5
10EA
  8
SAPA_ANSLUTNING
  0
POLYLINE
  5
BAF
  8
SAPA_ANSLUTNING
 66
     1
 10
0.0
 20
0.0
 30
0.0
  0
VERTEX
  5
10EB
  8
SAPA_ANSLUTNING
 10
-13.4989284566592
 20
62.000000000000128
 30
0.0
 42
-0.8812634091771133
  0
VERTEX
  5
10EC
  8
SAPA_ANSLUTNING
 10
-13.00000000000011
 20
65.9367680282203
 30
0.0
  0
VERTEX
  5
10ED
  8
SAPA_ANSLUTNING
 10
-2.0000000000001128
 20
65.9367680282203
 30
0.0
 42
0.9999999999999998
  0
VERTEX
  5
10EE
  8
SAPA_ANSLUTNING
 10
-2.0000000000001128
 20
69.936768028220285
 30
0.0
  0
VERTEX
  5
10EF
  8
SAPA_ANSLUTNING
 10
-13.00000000000011
 20
69.936768028220243
 30
0.0
 42
-0.9999999999999998
  0
VERTEX
  5
10F0
  8
SAPA_ANSLUTNING
 10
-13.00000000000006
 20
73.936768028220243
 30
0.0
  0
VERTEX
  5
10F1
  8
SAPA_ANSLUTNING
 10
-2.000000000000056
 20
73.9367680282203
 30
0.0
 42
0.9999999999999998
  0
VERTEX
  5
10F2
  8
SAPA_ANSLUTNING
 10
-2.000000000000056
 20
77.9367680282203
 30
0.0
  0
VERTEX
  5
10F3
  8
SAPA_ANSLUTNING
 10
-13.00000000000006
 20
77.936768028220243
 30
0.0
 42
-0.9999999999999998
  0
VERTEX
  5
10F4
  8
SAPA_ANSLUTNING
 10
-13.00000000000006
 20
81.936768028220229
 30
0.0
  0
VERTEX
  5
10F5
  8
SAPA_ANSLUTNING
 10
-2.000000000000056
 20
81.936768028220229
 30
0.0
 42
0.9999999999999998
  0
VERTEX
  5
10F6
  8
SAPA_ANSLUTNING
 10
-2.000000000000056
 20
85.936768028220243
 30
0.0
  0
VERTEX
  5
10F7
  8
SAPA_ANSLUTNING
 10
-13.00000000000006
 20
85.936768028220243
 30
0.0
 42
-0.9999999999999998
  0
VERTEX
  5
10F8
  8
SAPA_ANSLUTNING
 10
-13.00000000000006
 20
89.936768028220243
 30
0.0
  0
VERTEX
  5
10F9
  8
SAPA_ANSLUTNING
 10
-2.000000000000056
 20
89.936768028220243
 30
0.0
 42
0.9999999999999998
  0
VERTEX
  5
10FA
  8
SAPA_ANSLUTNING
 10
-2.000000000000056
 20
93.936768028220243
 30
0.0
  0
VERTEX
  5
10FB
  8
SAPA_ANSLUTNING
 10
-13.00000000000006
 20
93.936768028220243
 30
0.0
 42
-0.9999999999999998
  0
VERTEX
  5
10FC
  8
SAPA_ANSLUTNING
 10
-13.00000000000006
 20
97.936768028220257
 30
0.0
  0
VERTEX
  5
10FD
  8
SAPA_ANSLUTNING
 10
-2.000000000000056
 20
97.936768028220257
 30
0.0
 42
0.9999999999999998
  0
VERTEX
  5
10FE
  8
SAPA_ANSLUTNING
 10
-2.000000000000056
 20
101.9367680282202
 30
0.0
  0
VERTEX
  5
10FF
  8
SAPA_ANSLUTNING
 10
-13.00000000000006
 20
101.9367680282202
 30
0.0
 42
-0.9999999999999998
  0
VERTEX
  5
1100
  8
SAPA_ANSLUTNING
 10
-13.00000000000006
 20
105.9367680282202
 30
0.0
  0
VERTEX
  5
1101
  8
SAPA_ANSLUTNING
 10
-2.000000000000056
 20
105.9367680282202
 30
0.0
 42
0.9999999999999998
  0
VERTEX
  5
1102
  8
SAPA_ANSLUTNING
 10
-2.000000000000056
 20
109.9367680282202
 30
0.0
  0
VERTEX
  5
1103
  8
SAPA_ANSLUTNING
 10
-13.00000000000006
 20
109.9367680282202
 30
0.0
 42
-0.9999999999999998
  0
VERTEX
  5
1104
  8
SAPA_ANSLUTNING
 10
-13.00000000000006
 20
113.9367680282202
 30
0.0
  0
VERTEX
  5
1105
  8
SAPA_ANSLUTNING
 10
-2.000000000000056
 20
113.9367680282202
 30
0.0
 42
0.9999999999999998
  0
VERTEX
  5
1106
  8
SAPA_ANSLUTNING
 10
-2.000000000000056
 20
117.9367680282202
 30
0.0
  0
VERTEX
  5
1107
  8
SAPA_ANSLUTNING
 10
-13.00000000000006
 20
117.9367680282202
 30
0.0
 42
-0.5251735434384823
  0
VERTEX
  5
1108
  8
SAPA_ANSLUTNING
 10
-14.869290792656731
 20
120.64793040945899
 30
0.0
 42
-0.5251735434384823
  0
SEQEND
  5
1109
  8
SAPA_ANSLUTNING
  0
POLYLINE
  5
BB0
  8
SAPA_ANSLUTNING
 66
     1
 10
0.0
 20
0.0
 30
0.0
  0
VERTEX
  5
110A
  8
SAPA_ANSLUTNING
 10
-13.4989284566592
 20
110.0000000000001
 30
0.0
 42
-0.8812634091771133
  0
VERTEX
  5
110B
  8
SAPA_ANSLUTNING
 10
-13.00000000000011
 20
113.9367680282202
 30
0.0
  0
VERTEX
  5
110C
  8
SAPA_ANSLUTNING
 10
-2.0000000000001128
 20
113.9367680282202
 30
0.0
 42
0.9999999999999998
  0
VERTEX
  5
110D
  8
SAPA_ANSLUTNING
 10
-2.0000000000001128
 20
117.9367680282202
 30
0.0
  0
VERTEX
  5
110E
  8
SAPA_ANSLUTNING
 10
-13.00000000000011
 20
117.9367680282202
 30
0.0
 42
-0.9999999999999998
  0
VERTEX
  5
110F
  8
SAPA_ANSLUTNING
 10
-13.00000000000006
 20
121.9367680282202
 30
0.0
  0
VERTEX
  5
1110
  8
SAPA_ANSLUTNING
 10
-2.000000000000056
 20
121.9367680282202
 30
0.0
 42
0.9999999999999998
  0
VERTEX
  5
1111
  8
SAPA_ANSLUTNING
 10
-2.000000000000056
 20
125.9367680282202
 30
0.0
  0
VERTEX
  5
1112
  8
SAPA_ANSLUTNING
 10
-13.00000000000006
 20
125.9367680282202
 30
0.0
 42
-0.9999999999999998
  0
VERTEX
  5
1113
  8
SAPA_ANSLUTNING
 10
-13.00000000000006
 20
129.9367680282202
 30
0.0
  0
VERTEX
  5
1114
  8
SAPA_ANSLUTNING
 10
-2.000000000000056
 20
129.9367680282202
 30
0.0
 42
0.9999999999999998
  0
VERTEX
  5
1115
  8
SAPA_ANSLUTNING
 10
-2.000000000000056
 20
133.9367680282202
 30
0.0
  0
VERTEX
  5
1116
  8
SAPA_ANSLUTNING
 10
-13.00000000000006
 20
133.9367680282202
 30
0.0
 42
-0.9999999999999998
  0
VERTEX
  5
1117
  8
SAPA_ANSLUTNING
 10
-13.00000000000006
 20
137.9367680282202
 30
0.0
  0
VERTEX
  5
1118
  8
SAPA_ANSLUTNING
 10
-2.000000000000056
 20
137.9367680282202
 30
0.0
 42
0.4183530514568368
  0
VERTEX
  5
1119
  8
SAPA_ANSLUTNING
 10
-0.0001991561678665
 20
139.96499186580331
 30
0.0
 42
0.4183530514568368
  0
SEQEND
  5
111A
  8
SAPA_ANSLUTNING
  0
POLYLINE
  5
E9E
  8
SAPA_PROFIL
 62
     4
 66
     1
 10
0.0
 20
0.0
 30
0.0
 70
     1
  0
VERTEX
  5
E9F
  8
SAPA_PROFIL
 62
     4
 10
70.350012000005464
 20
56.143782217080449
 30
0.0
 42
0.1316524975873979
  0
VERTEX
  5
EA0
  8
SAPA_PROFIL
 62
     4
 10
70.242832323033042
 20
56.543782217080462
 30
0.0
  0
VERTEX
  5
EA1
  8
SAPA_PROFIL
 62
     4
 10
69.250012000003622
 20
58.263397459354508
 30
0.0
  0
VERTEX
  5
EA2
  8
SAPA_PROFIL
 62
     4
 10
69.250012000003522
 20
58.69999999973296
 30
0.0
 42
-0.4142135623730951
  0
VERTEX
  5
EA3
  8
SAPA_PROFIL
 62
     4
 10
69.500012000003522
 20
58.949999999732938
 30
0.0
  0
VERTEX
  5
EA4
  8
SAPA_PROFIL
 62
     4
 10
73.100024000003586
 20
58.949999999733002
 30
0.0
 42
-0.4142135623731053
  0
VERTEX
  5
EA5
  8
SAPA_PROFIL
 62
     4
 10
73.350024000003586
 20
58.699999999732988
 30
0.0
  0
VERTEX
  5
EA6
  8
SAPA_PROFIL
 62
     4
 10
73.350012357268227
 20
58.26339807815453
 30
0.0
  0
VERTEX
  5
EA7
  8
SAPA_PROFIL
 62
     4
 10
72.357191676977962
 20
56.543782217087127
 30
0.0
 42
0.1316524975874149
  0
VERTEX
  5
EA8
  8
SAPA_PROFIL
 62
     4
 10
72.250012000005455
 20
56.143782217087079
 30
0.0
  0
VERTEX
  5
EA9
  8
SAPA_PROFIL
 62
     4
 10
72.250012000005455
 20
31.856217782378788
 30
0.0
 42
0.1316524975874151
  0
VERTEX
  5
EAA
  8
SAPA_PROFIL
 62
     4
 10
72.357191676977934
 20
31.45621778237874
 30
0.0
  0
VERTEX
  5
EAB
  8
SAPA_PROFIL
 62
     4
 10
73.350012357268227
 20
29.736601921311362
 30
0.0
  0
VERTEX
  5
EAC
  8
SAPA_PROFIL
 62
     4
 10
73.350024000003586
 20
29.29999999973289
 30
0.0
 42
-0.4142135623731054
  0
VERTEX
  5
EAD
  8
SAPA_PROFIL
 62
     4
 10
73.100024000003572
 20
29.049999999732879
 30
0.0
  0
VERTEX
  5
EAE
  8
SAPA_PROFIL
 62
     4
 10
69.500012000003522
 20
29.04999999973294
 30
0.0
 42
-0.4142135623730953
  0
VERTEX
  5
EAF
  8
SAPA_PROFIL
 62
     4
 10
69.250012000003522
 20
29.299999999732929
 30
0.0
  0
VERTEX
  5
EB0
  8
SAPA_PROFIL
 62
     4
 10
69.250012000003608
 20
29.736602540111381
 30
0.0
  0
VERTEX
  5
EB1
  8
SAPA_PROFIL
 62
     4
 10
70.242832323033042
 20
31.456217782385419
 30
0.0
 42
0.1316524975873982
  0
VERTEX
  5
EB2
  8
SAPA_PROFIL
 62
     4
 10
70.350012000005464
 20
31.856217782385439
 30
0.0
  0
SEQEND
  5
EB3
  8
SAPA_PROFIL
 62
     4
  0
POLYLINE
  5
EB4
  8
SAPA_PROFIL
 66
     1
 10
0.0
 20
0.0
 30
0.0
 70
     1
  0
VERTEX
  5
13FC
  8
SAPA_PROFIL
 10
67.250555349943028
 20
29.243869040686711
 30
0.0
  0
VERTEX
  5
13FD
  8
SAPA_PROFIL
 10
67.250555349946666
 20
30.199999999722081
 30
0.0
 42
0.2418327667557183
  0
VERTEX
  5
13FE
  8
SAPA_PROFIL
 10
67.125277674969709
 20
30.443869040688639
 30
0.0
 42
-0.2418327667535164
  0
VERTEX
  5
13FF
  8
SAPA_PROFIL
 10
66.999999999995509
 20
30.687738081647389
 30
0.0
  0
VERTEX
  5
1400
  8
SAPA_PROFIL
 10
67.000000000003965
 20
32.911541959280207
 30
0.0
 42
-0.0874886635239214
  0
VERTEX
  5
1401
  8
SAPA_PROFIL
 10
67.018092213767773
 20
33.014148002275597
 30
0.0
  0
VERTEX
  5
1402
  8
SAPA_PROFIL
 10
67.537606281443118
 20
34.441501172321033
 30
0.0
 42
-0.4142135623698208
  0
VERTEX
  5
1403
  8
SAPA_PROFIL
 10
67.922120110685285
 20
34.620802915558407
 30
0.0
  0
VERTEX
  5
1404
  8
SAPA_PROFIL
 10
68.11005863483399
 20
34.55239888688736
 30
0.0
 42
-0.4142135623730019
  0
VERTEX
  5
1405
  8
SAPA_PROFIL
 10
68.289360378076495
 20
34.167885057665728
 30
0.0
  0
VERTEX
  5
1406
  8
SAPA_PROFIL
 10
67.91313822040982
 20
33.134223174796581
 30
0.0
 42
0.41421356237947
  0
VERTEX
  5
1407
  8
SAPA_PROFIL
 10
68.092439963660979
 20
32.749709345565023
 30
0.0
  0
VERTEX
  5
1408
  8
SAPA_PROFIL
 10
69.902630042999888
 20
32.090854038329212
 30
0.0
 42
-0.3152987888800591
  0
VERTEX
  5
1409
  8
SAPA_PROFIL
 10
70.100024000003231
 20
31.80894625209298
 30
0.0
  0
VERTEX
  5
140A
  8
SAPA_PROFIL
 10
70.100024000003131
 20
31.38923048427365
 30
0.0
 42
-0.1316524975873855
  0
VERTEX
  5
140B
  8
SAPA_PROFIL
 10
70.059831621138486
 20
31.23923048427373
 30
0.0
  0
VERTEX
  5
140C
  8
SAPA_PROFIL
 10
69.200024000003168
 20
29.74999999973285
 30
0.0
  0
VERTEX
  5
140D
  8
SAPA_PROFIL
 10
69.200012000003511
 20
29.299999999732901
 30
0.0
 42
0.4142135623731054
  0
VERTEX
  5
140E
  8
SAPA_PROFIL
 10
69.500012000003522
 20
28.999999999732889
 30
0.0
  0
VERTEX
  5
140F
  8
SAPA_PROFIL
 10
73.100024000003572
 20
28.999999999732939
 30
0.0
 42
0.414213562373095
  0
VERTEX
  5
1410
  8
SAPA_PROFIL
 10
73.400024000003583
 20
29.29999999973294
 30
0.0
  0
VERTEX
  5
1411
  8
SAPA_PROFIL
 10
73.400024000003469
 20
29.749999999732939
 30
0.0
  0
VERTEX
  5
1412
  8
SAPA_PROFIL
 10
72.540199262434498
 20
31.239260130807111
 30
0.0
 42
-0.1316363093594254
  0
VERTEX
  5
1413
  8
SAPA_PROFIL
 10
72.500006884177523
 20
31.38924103585385
 30
0.0
  0
VERTEX
  5
1414
  8
SAPA_PROFIL
 10
72.499999834386728
 20
31.49999999973954
 30
0.0
  0
VERTEX
  5
1415
  8
SAPA_PROFIL
 10
74.499999999999844
 20
31.49999999973954
 30
0.0
 42
-0.4142135623730951
  0
VERTEX
  5
1416
  8
SAPA_PROFIL
 10
74.999999999999844
 20
30.99999999973954
 30
0.0
  0
VERTEX
  5
1417
  8
SAPA_PROFIL
 10
74.999999999999844
 20
23.849999999461598
 30
0.0
 42
-0.4142135623730935
  0
VERTEX
  5
1418
  8
SAPA_PROFIL
 10
74.700000000000571
 20
23.54999999946596
 30
0.0
  0
VERTEX
  5
1419
  8
SAPA_PROFIL
 10
74.049999999999116
 20
23.549999999462319
 30
0.0
 42
0.4142135623730951
  0
VERTEX
  5
141A
  8
SAPA_PROFIL
 10
73.749999999999844
 20
23.24999999946305
 30
0.0
  0
VERTEX
  5
141B
  8
SAPA_PROFIL
 10
73.749999999996206
 20
22.5499999995751
 30
0.0
 42
0.4142135623730971
  0
VERTEX
  5
141C
  8
SAPA_PROFIL
 10
74.049999999999116
 20
22.249999999579469
 30
0.0
  0
VERTEX
  5
141D
  8
SAPA_PROFIL
 10
85.950000000004209
 20
22.249999999561279
 30
0.0
 42
0.4142135623730881
  0
VERTEX
  5
141E
  8
SAPA_PROFIL
 10
86.250000000003482
 20
22.549999999560551
 30
0.0
  0
VERTEX
  5
141F
  8
SAPA_PROFIL
 10
86.250000000014396
 20
23.250000000037851
 30
0.0
 42
0.4142135623730968
  0
VERTEX
  5
1420
  8
SAPA_PROFIL
 10
85.950000000004209
 20
23.550000000048041
 30
0.0
  0
VERTEX
  5
1421
  8
SAPA_PROFIL
 10
85.29999999999184
 20
23.550000000033481
 30
0.0
 42
-0.4142135623517844
  0
VERTEX
  5
1422
  8
SAPA_PROFIL
 10
85.000000000003482
 20
23.850000000036388
 30
0.0
  0
VERTEX
  5
1423
  8
SAPA_PROFIL
 10
85.000000000003482
 20
25.800000000048041
 30
0.0
 42
-0.414213562373103
  0
VERTEX
  5
1424
  8
SAPA_PROFIL
 10
85.200000000004195
 20
26.000000000037851
 30
0.0
  0
VERTEX
  5
1425
  8
SAPA_PROFIL
 10
86.300000000002754
 20
26.000000000037851
 30
0.0
 42
-0.4142135623731049
  0
VERTEX
  5
1426
  8
SAPA_PROFIL
 10
86.500000000003482
 20
25.80000000004803
 30
0.0
  0
VERTEX
  5
1427
  8
SAPA_PROFIL
 10
86.500000000003482
 20
25.00000000003784
 30
0.0
 42
0.414213562373094
  0
VERTEX
  5
1428
  8
SAPA_PROFIL
 10
87.000000000003496
 20
24.500000000037851
 30
0.0
  0
VERTEX
  5
1429
  8
SAPA_PROFIL
 10
88.00000000001441
 20
24.499999999557659
 30
0.0
 42
0.4142135623730951
  0
VERTEX
  5
142A
  8
SAPA_PROFIL
 10
88.500000000014396
 20
24.999999999557659
 30
0.0
  0
VERTEX
  5
142B
  8
SAPA_PROFIL
 10
88.500000000003467
 20
25.799999999560569
 30
0.0
 42
-0.414213562373103
  0
VERTEX
  5
142C
  8
SAPA_PROFIL
 10
88.700000000004209
 20
25.999999999557659
 30
0.0
  0
VERTEX
  5
142D
  8
SAPA_PROFIL
 10
89.800000000002768
 20
25.999999999550379
 30
0.0
 42
-0.4142135623731049
  0
VERTEX
  5
142E
  8
SAPA_PROFIL
 10
90.000000000003496
 20
25.799999999560569
 30
0.0
  0
VERTEX
  5
142F
  8
SAPA_PROFIL
 10
90.000000000003496
 20
22.2500000000597
 30
0.0
 42
-0.3389652260127085
  0
VERTEX
  5
1430
  8
SAPA_PROFIL
 10
89.260513148801124
 20
21.2845297005147
 30
0.0
 42
-0.0274862826960608
  0
VERTEX
  5
1431
  8
SAPA_PROFIL
 10
74.999999999825249
 20
20.500000000078789
 30
0.0
  0
VERTEX
  5
1432
  8
SAPA_PROFIL
 10
70.000000000098083
 20
20.499999999921432
 30
0.0
 42
-0.4142135623816193
  0
VERTEX
  5
1433
  8
SAPA_PROFIL
 10
67.000000000003496
 20
23.499999999921439
 30
0.0
  0
VERTEX
  5
1434
  8
SAPA_PROFIL
 10
67.000000000003482
 20
28.75613095877781
 30
0.0
 42
-0.2418327667412822
  0
VERTEX
  5
1435
  8
SAPA_PROFIL
 10
67.125277674967052
 20
28.9999999997274
 30
0.0
 42
0.2418327667543803
  0
SEQEND
  5
1436
  8
SAPA_PROFIL
  0
POLYLINE
  5
EB5
  8
SAPA_PROFIL
 66
     1
 10
0.0
 20
0.0
 30
0.0
 70
     1
  0
VERTEX
  5
1437
  8
SAPA_PROFIL
 10
67.250555349942971
 20
58.756130958779167
 30
0.0
  0
VERTEX
  5
1438
  8
SAPA_PROFIL
 10
67.250555349946609
 20
57.799999999743811
 30
0.0
 42
-0.2418327667557183
  0
VERTEX
  5
1439
  8
SAPA_PROFIL
 10
67.125277674969666
 20
57.556130958777239
 30
0.0
 42
0.2418327667535164
  0
VERTEX
  5
143A
  8
SAPA_PROFIL
 10
66.999999999995453
 20
57.312261917818503
 30
0.0
  0
VERTEX
  5
143B
  8
SAPA_PROFIL
 10
67.000000000003894
 20
55.088458040185692
 30
0.0
 42
0.0874886635239214
  0
VERTEX
  5
143C
  8
SAPA_PROFIL
 10
67.018092213767716
 20
54.985851997190302
 30
0.0
  0
VERTEX
  5
143D
  8
SAPA_PROFIL
 10
67.537606281443061
 20
53.558498827144859
 30
0.0
 42
0.4142135623698208
  0
VERTEX
  5
143E
  8
SAPA_PROFIL
 10
67.922120110685228
 20
53.379197083907471
 30
0.0
  0
VERTEX
  5
143F
  8
SAPA_PROFIL
 10
68.110058634833933
 20
53.447601112578518
 30
0.0
 42
0.4142135623730019
  0
VERTEX
  5
1440
  8
SAPA_PROFIL
 10
68.289360378076452
 20
53.832114941800157
 30
0.0
  0
VERTEX
  5
1441
  8
SAPA_PROFIL
 10
67.913138220409763
 20
54.865776824669311
 30
0.0
 42
-0.41421356237947
  0
VERTEX
  5
1442
  8
SAPA_PROFIL
 10
68.092439963660922
 20
55.250290653900862
 30
0.0
  0
VERTEX
  5
1443
  8
SAPA_PROFIL
 10
69.902630042999846
 20
55.909145961136687
 30
0.0
 42
0.3152987888800591
  0
VERTEX
  5
1444
  8
SAPA_PROFIL
 10
70.100024000003174
 20
56.191053747372912
 30
0.0
  0
VERTEX
  5
1445
  8
SAPA_PROFIL
 10
70.100024000003074
 20
56.610769515192239
 30
0.0
 42
0.1316524975873855
  0
VERTEX
  5
1446
  8
SAPA_PROFIL
 10
70.059831621138414
 20
56.760769515192173
 30
0.0
  0
VERTEX
  5
1447
  8
SAPA_PROFIL
 10
69.200024000003125
 20
58.249999999733049
 30
0.0
  0
VERTEX
  5
1448
  8
SAPA_PROFIL
 10
69.200012000003454
 20
58.699999999732988
 30
0.0
 42
-0.4142135623731054
  0
VERTEX
  5
1449
  8
SAPA_PROFIL
 10
69.500012000003466
 20
58.999999999732992
 30
0.0
  0
VERTEX
  5
144A
  8
SAPA_PROFIL
 10
73.100024000003529
 20
58.999999999732943
 30
0.0
 42
-0.414213562373095
  0
VERTEX
  5
144B
  8
SAPA_PROFIL
 10
73.400024000003526
 20
58.699999999732952
 30
0.0
  0
VERTEX
  5
144C
  8
SAPA_PROFIL
 10
73.400024000003427
 20
58.249999999732943
 30
0.0
  0
VERTEX
  5
144D
  8
SAPA_PROFIL
 10
72.540199262434442
 20
56.760739868658767
 30
0.0
 42
0.1316363093594254
  0
VERTEX
  5
144E
  8
SAPA_PROFIL
 10
72.500006884177481
 20
56.610758963612028
 30
0.0
  0
VERTEX
  5
144F
  8
SAPA_PROFIL
 10
72.499999834386671
 20
56.499999999726349
 30
0.0
  0
VERTEX
  5
1450
  8
SAPA_PROFIL
 10
74.499999999999801
 20
56.499999999726349
 30
0.0
 42
0.4142135623730951
  0
VERTEX
  5
1451
  8
SAPA_PROFIL
 10
74.999999999999801
 20
56.999999999726349
 30
0.0
  0
VERTEX
  5
1452
  8
SAPA_PROFIL
 10
74.999999999999801
 20
64.150000000004283
 30
0.0
 42
0.4142135623730935
  0
VERTEX
  5
1453
  8
SAPA_PROFIL
 10
74.700000000000529
 20
64.449999999999932
 30
0.0
  0
VERTEX
  5
1454
  8
SAPA_PROFIL
 10
74.049999999999073
 20
64.450000000003556
 30
0.0
 42
-0.4142135623730951
  0
VERTEX
  5
1455
  8
SAPA_PROFIL
 10
73.749999999999801
 20
64.750000000002814
 30
0.0
  0
VERTEX
  5
1456
  8
SAPA_PROFIL
 10
73.749999999996163
 20
65.449999999890764
 30
0.0
 42
-0.4142135623730971
  0
VERTEX
  5
1457
  8
SAPA_PROFIL
 10
74.049999999999073
 20
65.749999999886427
 30
0.0
  0
VERTEX
  5
1458
  8
SAPA_PROFIL
 10
85.950000000004167
 20
65.749999999904603
 30
0.0
 42
-0.4142135623730881
  0
VERTEX
  5
1459
  8
SAPA_PROFIL
 10
86.250000000003439
 20
65.44999999990533
 30
0.0
  0
VERTEX
  5
145A
  8
SAPA_PROFIL
 10
86.250000000014353
 20
64.749999999428013
 30
0.0
 42
-0.4142135623730968
  0
VERTEX
  5
145B
  8
SAPA_PROFIL
 10
85.950000000004167
 20
64.449999999417841
 30
0.0
  0
VERTEX
  5
145C
  8
SAPA_PROFIL
 10
85.299999999991797
 20
64.449999999432393
 30
0.0
 42
0.4142135623517844
  0
VERTEX
  5
145D
  8
SAPA_PROFIL
 10
85.000000000003439
 20
64.149999999429483
 30
0.0
  0
VERTEX
  5
145E
  8
SAPA_PROFIL
 10
85.000000000003439
 20
62.199999999417841
 30
0.0
 42
0.414213562373103
  0
VERTEX
  5
145F
  8
SAPA_PROFIL
 10
85.200000000004167
 20
61.999999999428027
 30
0.0
  0
VERTEX
  5
1460
  8
SAPA_PROFIL
 10
86.300000000002697
 20
61.999999999428027
 30
0.0
 42
0.4142135623731049
  0
VERTEX
  5
1461
  8
SAPA_PROFIL
 10
86.500000000003439
 20
62.199999999417841
 30
0.0
  0
VERTEX
  5
1462
  8
SAPA_PROFIL
 10
86.500000000003439
 20
62.99999999942802
 30
0.0
 42
-0.414213562373094
  0
VERTEX
  5
1463
  8
SAPA_PROFIL
 10
87.000000000003425
 20
63.49999999942802
 30
0.0
  0
VERTEX
  5
1464
  8
SAPA_PROFIL
 10
88.000000000014353
 20
63.499999999908212
 30
0.0
 42
-0.4142135623730951
  0
VERTEX
  5
1465
  8
SAPA_PROFIL
 10
88.500000000014339
 20
62.999999999908212
 30
0.0
  0
VERTEX
  5
1466
  8
SAPA_PROFIL
 10
88.500000000003439
 20
62.199999999905302
 30
0.0
 42
0.414213562373103
  0
VERTEX
  5
1467
  8
SAPA_PROFIL
 10
88.700000000004167
 20
61.999999999908219
 30
0.0
  0
VERTEX
  5
1468
  8
SAPA_PROFIL
 10
89.800000000002726
 20
61.999999999915488
 30
0.0
 42
0.4142135623731049
  0
VERTEX
  5
1469
  8
SAPA_PROFIL
 10
90.000000000003439
 20
62.199999999905302
 30
0.0
  0
VERTEX
  5
146A
  8
SAPA_PROFIL
 10
90.000000000003439
 20
65.749999999406171
 30
0.0
 42
0.3389652260127085
  0
VERTEX
  5
146B
  8
SAPA_PROFIL
 10
89.260513148801067
 20
66.715470298951175
 30
0.0
 42
0.0274862826960608
  0
VERTEX
  5
146C
  8
SAPA_PROFIL
 10
74.999999999825192
 20
67.499999999387086
 30
0.0
  0
VERTEX
  5
146D
  8
SAPA_PROFIL
 10
70.000000000098026
 20
67.499999999544443
 30
0.0
 42
0.4142135623816193
  0
VERTEX
  5
146E
  8
SAPA_PROFIL
 10
67.000000000003425
 20
64.499999999544457
 30
0.0
  0
VERTEX
  5
146F
  8
SAPA_PROFIL
 10
67.000000000003425
 20
59.243869040688068
 30
0.0
 42
0.2418327667412822
  0
VERTEX
  5
1470
  8
SAPA_PROFIL
 10
67.125277674966995
 20
58.999999999738478
 30
0.0
 42
-0.2418327667543803
  0
SEQEND
  5
1471
  8
SAPA_PROFIL
  0
POLYLINE
  5
EB6
  8
SAPA_PROFIL
 62
     4
 66
     1
 10
0.0
 20
0.0
 30
-0.2
 70
     1
  0
VERTEX
  5
1472
  8
SAPA_PROFIL
 62
     4
 10
48.407735026890101
 20
31.456217782499291
 30
-0.2
  0
VERTEX
  5
1473
  8
SAPA_PROFIL
 62
     4
 10
49.400555349919529
 20
29.736602540225238
 30
-0.2
  0
VERTEX
  5
1474
  8
SAPA_PROFIL
 62
     4
 10
49.400555349919621
 20
29.29999999984679
 30
-0.2
 42
-0.4142135623730951
  0
VERTEX
  5
1475
  8
SAPA_PROFIL
 62
     4
 10
49.150555349919642
 20
29.049999999846801
 30
-0.2
  0
VERTEX
  5
1476
  8
SAPA_PROFIL
 62
     4
 10
45.550543349919558
 20
29.049999999846751
 30
-0.2
 42
-0.4142135623731053
  0
VERTEX
  5
1477
  8
SAPA_PROFIL
 62
     4
 10
45.300543349919558
 20
29.299999999846751
 30
-0.2
  0
VERTEX
  5
1478
  8
SAPA_PROFIL
 62
     4
 10
45.300554992654916
 20
29.736601921425219
 30
-0.2
  0
VERTEX
  5
1479
  8
SAPA_PROFIL
 62
     4
 10
46.293375672945189
 20
31.456217782492612
 30
-0.2
 42
0.1316524975874149
  0
VERTEX
  5
147A
  8
SAPA_PROFIL
 62
     4
 10
46.400555349917688
 20
31.85621778249266
 30
-0.2
  0
VERTEX
  5
147B
  8
SAPA_PROFIL
 62
     4
 10
46.400555349917681
 20
56.14378221720095
 30
-0.2
 42
0.1316524975874152
  0
VERTEX
  5
147C
  8
SAPA_PROFIL
 62
     4
 10
46.293375672945189
 20
56.543782217201013
 30
-0.2
  0
VERTEX
  5
147D
  8
SAPA_PROFIL
 62
     4
 10
45.300554992654916
 20
58.263398078268402
 30
-0.2
  0
VERTEX
  5
147E
  8
SAPA_PROFIL
 62
     4
 10
45.30054334991955
 20
58.69999999984686
 30
-0.2
 42
-0.4142135623731045
  0
VERTEX
  5
147F
  8
SAPA_PROFIL
 62
     4
 10
45.550543349919558
 20
58.949999999846867
 30
-0.2
  0
VERTEX
  5
1480
  8
SAPA_PROFIL
 62
     4
 10
49.150555349919621
 20
58.94999999984681
 30
-0.2
 42
-0.4142135623730935
  0
VERTEX
  5
1481
  8
SAPA_PROFIL
 62
     4
 10
49.400555349919621
 20
58.699999999846817
 30
-0.2
  0
VERTEX
  5
1482
  8
SAPA_PROFIL
 62
     4
 10
49.400555349919522
 20
58.263397459468358
 30
-0.2
  0
VERTEX
  5
1483
  8
SAPA_PROFIL
 62
     4
 10
48.407735026890087
 20
56.543782217194327
 30
-0.2
 42
0.1316524975873982
  0
VERTEX
  5
1484
  8
SAPA_PROFIL
 62
     4
 10
48.300555349917659
 20
56.143782217194307
 30
-0.2
  0
VERTEX
  5
1485
  8
SAPA_PROFIL
 62
     4
 10
48.300555349917673
 20
31.8562177824993
 30
-0.2
 42
0.1316524975873979
  0
SEQEND
  5
1486
  8
SAPA_PROFIL
 62
     4
  0
POLYLINE
  5
EB7
  8
SAPA_PROFIL
 66
     1
 10
0.0
 20
0.0
 30
0.0
 70
     1
  0
VERTEX
  5
1487
  8
SAPA_PROFIL
 10
82.999999999979408
 20
96.499999999519403
 30
0.0
  0
VERTEX
  5
1488
  8
SAPA_PROFIL
 10
82.999999999979408
 20
95.71146102490782
 30
0.0
 42
0.0577043334240353
  0
VERTEX
  5
1489
  8
SAPA_PROFIL
 10
83.264618028696248
 20
93.42621752067032
 30
0.0
 42
-0.1123270377207732
  0
VERTEX
  5
148A
  8
SAPA_PROFIL
 10
83.416483945797054
 20
71.241252094439844
 30
0.0
 42
-0.3636666106259163
  0
VERTEX
  5
148B
  8
SAPA_PROFIL
 10
80.362995954169676
 20
68.889330871576576
 30
0.0
 42
0.0360286231067385
  0
VERTEX
  5
148C
  8
SAPA_PROFIL
 10
61.661250849026167
 20
68.313873080037524
 30
0.0
 42
0.0472456768419823
  0
VERTEX
  5
148D
  8
SAPA_PROFIL
 10
59.812180793418399
 20
67.94442012326823
 30
0.0
 42
0.0120164869908705
  0
VERTEX
  5
148E
  8
SAPA_PROFIL
 10
58.670068721642672
 20
67.571428571134334
 30
0.0
 42
-0.0851278882549297
  0
VERTEX
  5
148F
  8
SAPA_PROFIL
 10
55.338096210279552
 20
66.99999999969765
 30
0.0
  0
VERTEX
  5
1490
  8
SAPA_PROFIL
 10
47.999999999950319
 20
66.99999999969765
 30
0.0
 42
0.4142135623730951
  0
VERTEX
  5
1491
  8
SAPA_PROFIL
 10
42.999999999950312
 20
61.99999999969765
 30
0.0
  0
VERTEX
  5
1492
  8
SAPA_PROFIL
 10
42.999999999961233
 20
59.24386904079762
 30
0.0
 42
0.2418327667382071
  0
VERTEX
  5
1493
  8
SAPA_PROFIL
 10
43.12527767492741
 20
58.999999999832312
 30
0.0
 42
-0.2418327667526432
  0
VERTEX
  5
1494
  8
SAPA_PROFIL
 10
43.250555349920774
 20
58.756130958895987
 30
0.0
  0
VERTEX
  5
1495
  8
SAPA_PROFIL
 10
43.250555349920774
 20
57.799999999846079
 30
0.0
 42
-0.3178606011753677
  0
VERTEX
  5
1496
  8
SAPA_PROFIL
 10
43.050531349919531
 20
57.517148803235912
 30
0.0
  0
VERTEX
  5
1497
  8
SAPA_PROFIL
 10
43.050531349919531
 20
55.214189562220469
 30
0.0
 42
0.6681786379192716
  0
VERTEX
  5
1498
  8
SAPA_PROFIL
 10
44.75763813110602
 20
54.507082781033873
 30
0.0
  0
VERTEX
  5
1499
  8
SAPA_PROFIL
 10
46.062687384275193
 20
55.81213203420284
 30
0.0
 42
0.1989123673797335
  0
VERTEX
  5
149A
  8
SAPA_PROFIL
 10
46.150555349919301
 20
56.024264068558907
 30
0.0
  0
VERTEX
  5
149B
  8
SAPA_PROFIL
 10
46.150555349919159
 20
56.61076951530611
 30
0.0
 42
0.1316524975873855
  0
VERTEX
  5
149C
  8
SAPA_PROFIL
 10
46.110362971054521
 20
56.760769515306031
 30
0.0
  0
VERTEX
  5
149D
  8
SAPA_PROFIL
 10
45.25055534991921
 20
58.249999999846906
 30
0.0
  0
VERTEX
  5
149E
  8
SAPA_PROFIL
 10
45.250543349919553
 20
58.699999999846852
 30
0.0
 42
-0.4142135623731054
  0
VERTEX
  5
149F
  8
SAPA_PROFIL
 10
45.550543349919558
 20
58.999999999846857
 30
0.0
  0
VERTEX
  5
14A0
  8
SAPA_PROFIL
 10
49.150555349919621
 20
58.999999999846807
 30
0.0
 42
-0.4142135623730951
  0
VERTEX
  5
14A1
  8
SAPA_PROFIL
 10
49.450555349919611
 20
58.69999999984681
 30
0.0
  0
VERTEX
  5
14A2
  8
SAPA_PROFIL
 10
49.450555349919519
 20
58.2499999998468
 30
0.0
  0
VERTEX
  5
14A3
  8
SAPA_PROFIL
 10
48.590730612350526
 20
56.760739868772639
 30
0.0
 42
0.1316363093594254
  0
VERTEX
  5
14A4
  8
SAPA_PROFIL
 10
48.550538234093572
 20
56.6107589637259
 30
0.0
  0
VERTEX
  5
14A5
  8
SAPA_PROFIL
 10
48.550531349919659
 20
56.499999999840078
 30
0.0
  0
VERTEX
  5
14A6
  8
SAPA_PROFIL
 10
50.999999999979423
 20
56.499999999846807
 30
0.0
  0
VERTEX
  5
14A7
  8
SAPA_PROFIL
 10
53.449468650039179
 20
56.502601999847002
 30
0.0
  0
VERTEX
  5
14A8
  8
SAPA_PROFIL
 10
53.449461765865273
 20
56.6107589637259
 30
0.0
 42
0.1316363093594255
  0
VERTEX
  5
14A9
  8
SAPA_PROFIL
 10
53.409269387608298
 20
56.760739868772639
 30
0.0
  0
VERTEX
  5
14AA
  8
SAPA_PROFIL
 10
52.549444650039327
 20
58.2499999998468
 30
0.0
  0
VERTEX
  5
14AB
  8
SAPA_PROFIL
 10
52.549444650039227
 20
58.69999999984681
 30
0.0
 42
-0.4142135623730951
  0
VERTEX
  5
14AC
  8
SAPA_PROFIL
 10
52.849444650039217
 20
58.999999999846807
 30
0.0
  0
VERTEX
  5
14AD
  8
SAPA_PROFIL
 10
56.449456650039281
 20
58.999999999846857
 30
0.0
 42
-0.4142135623731054
  0
VERTEX
  5
14AE
  8
SAPA_PROFIL
 10
56.749456650039278
 20
58.699999999846852
 30
0.0
  0
VERTEX
  5
14AF
  8
SAPA_PROFIL
 10
56.749444650039628
 20
58.249999999846899
 30
0.0
  0
VERTEX
  5
14B0
  8
SAPA_PROFIL
 10
55.889637028904318
 20
56.760769515306031
 30
0.0
 42
0.1316524975873855
  0
VERTEX
  5
14B1
  8
SAPA_PROFIL
 10
55.849444650039672
 20
56.610769515306103
 30
0.0
  0
VERTEX
  5
14B2
  8
SAPA_PROFIL
 10
55.84944465003953
 20
56.024264068558907
 30
0.0
 42
0.1989123673797335
  0
VERTEX
  5
14B3
  8
SAPA_PROFIL
 10
55.937312615683652
 20
55.81213203420284
 30
0.0
  0
VERTEX
  5
14B4
  8
SAPA_PROFIL
 10
57.242361868852818
 20
54.507082781033873
 30
0.0
 42
0.6681786379192716
  0
VERTEX
  5
14B5
  8
SAPA_PROFIL
 10
58.949468650039307
 20
55.214189562220469
 30
0.0
  0
VERTEX
  5
14B6
  8
SAPA_PROFIL
 10
58.949468650039307
 20
57.517148803236282
 30
0.0
 42
-0.3178606011750261
  0
VERTEX
  5
14B7
  8
SAPA_PROFIL
 10
58.749444650039891
 20
57.799999999846079
 30
0.0
  0
VERTEX
  5
14B8
  8
SAPA_PROFIL
 10
58.749444650039891
 20
58.756130958895987
 30
0.0
 42
-0.2418327667543857
  0
VERTEX
  5
14B9
  8
SAPA_PROFIL
 10
58.874722325020741
 20
58.999999999846921
 30
0.0
 42
0.2418327667380065
  0
VERTEX
  5
14BA
  8
SAPA_PROFIL
 10
59.000000000024038
 20
59.243869040797229
 30
0.0
  0
VERTEX
  5
14BB
  8
SAPA_PROFIL
 10
58.999999999979423
 20
59.999999999519389
 30
0.0
 42
0.4142135623523161
  0
VERTEX
  5
14BC
  8
SAPA_PROFIL
 10
58.000000000050363
 20
60.999999999519389
 30
0.0
  0
VERTEX
  5
14BD
  8
SAPA_PROFIL
 10
55.499999999821171
 20
60.99999999969765
 30
0.0
 42
-0.9999999999627103
  0
VERTEX
  5
14BE
  8
SAPA_PROFIL
 10
55.499999999970328
 20
64.99999999969765
 30
0.0
  0
VERTEX
  5
14BF
  8
SAPA_PROFIL
 10
63.499999999970328
 20
64.99999999969765
 30
0.0
 42
-0.4142135623752261
  0
VERTEX
  5
14C0
  8
SAPA_PROFIL
 10
65.499999999970328
 20
62.999999999686743
 30
0.0
  0
VERTEX
  5
14C1
  8
SAPA_PROFIL
 10
65.499999999952138
 20
61.299999999507762
 30
0.0
 42
-0.4142135623715025
  0
VERTEX
  5
14C2
  8
SAPA_PROFIL
 10
65.199999999940133
 20
60.999999999519403
 30
0.0
  0
VERTEX
  5
14C3
  8
SAPA_PROFIL
 10
64.299999999949591
 20
60.99999999951212
 30
0.0
 42
0.4142135623730888
  0
VERTEX
  5
14C4
  8
SAPA_PROFIL
 10
63.999999999939412
 20
60.69999999950921
 30
0.0
  0
VERTEX
  5
14C5
  8
SAPA_PROFIL
 10
63.999999999939412
 20
60.299999999507747
 30
0.0
 42
0.4142135623730982
  0
VERTEX
  5
14C6
  8
SAPA_PROFIL
 10
64.299999999949591
 20
59.999999999497568
 30
0.0
  0
VERTEX
  5
14C7
  8
SAPA_PROFIL
 10
66.699999999960141
 20
59.999999999515758
 30
0.0
 42
0.4142135623624388
  0
VERTEX
  5
14C8
  8
SAPA_PROFIL
 10
66.999999999961233
 20
60.299999999507747
 30
0.0
  0
VERTEX
  5
14C9
  8
SAPA_PROFIL
 10
66.999999999961233
 20
64.499999999519389
 30
0.0
 42
-0.4142135623730951
  0
VERTEX
  5
14CA
  8
SAPA_PROFIL
 10
69.999999999970328
 20
67.499999999508475
 30
0.0
  0
VERTEX
  5
14CB
  8
SAPA_PROFIL
 10
74.999999999961233
 20
67.499999999508475
 30
0.0
 42
-0.0279290488515987
  0
VERTEX
  5
14CC
  8
SAPA_PROFIL
 10
89.489164086653062
 20
66.690031054808657
 30
0.0
 42
-0.3661896282372441
  0
VERTEX
  5
14CD
  8
SAPA_PROFIL
 10
90.198789765519393
 20
65.939003094596785
 30
0.0
 42
0.3981911081684388
  0
VERTEX
  5
14CE
  8
SAPA_PROFIL
 10
90.398487206909863
 20
65.749999998786109
 30
0.0
  0
VERTEX
  5
14CF
  8
SAPA_PROFIL
 10
91.299999999969586
 20
65.749999998784475
 30
0.0
 42
0.414213562389099
  0
VERTEX
  5
14D0
  8
SAPA_PROFIL
 10
91.49999999996669
 20
65.949999998796116
 30
0.0
  0
VERTEX
  5
14D1
  8
SAPA_PROFIL
 10
91.499999999979437
 20
66.176059067267047
 30
0.0
 42
0.3813405017903993
  0
VERTEX
  5
14D2
  8
SAPA_PROFIL
 10
89.726562499979408
 20
68.163184990182231
 30
0.0
 42
0.0014144096544681
  0
VERTEX
  5
14D3
  8
SAPA_PROFIL
 10
88.99557257294326
 20
68.24443488300858
 30
0.0
 42
-0.309186963272042
  0
VERTEX
  5
14D4
  8
SAPA_PROFIL
 10
88.137739782561582
 20
68.978186575361292
 30
0.0
 42
-0.1241407988373373
  0
VERTEX
  5
14D5
  8
SAPA_PROFIL
 10
87.735381971255947
 20
93.426217520652955
 30
0.0
 42
0.0577043334222099
  0
VERTEX
  5
14D6
  8
SAPA_PROFIL
 10
87.999999999979408
 20
95.711461024809537
 30
0.0
  0
VERTEX
  5
14D7
  8
SAPA_PROFIL
 10
87.999999999979408
 20
96.499999999519346
 30
0.0
 42
0.4142135623730951
  0
VERTEX
  5
14D8
  8
SAPA_PROFIL
 10
86.999999999979394
 20
97.499999999519346
 30
0.0
  0
VERTEX
  5
14D9
  8
SAPA_PROFIL
 10
83.999999999979437
 20
97.499999999519403
 30
0.0
 42
0.4142135623730951
  0
SEQEND
  5
14DA
  8
SAPA_PROFIL
  0
POLYLINE
  5
EB8
  8
SAPA_PROFIL
 66
     1
 10
0.0
 20
0.0
 30
0.0
 70
     1
  0
VERTEX
  5
14DB
  8
SAPA_PROFIL
 10
64.299999999949591
 20
28.000000000196351
 30
0.0
  0
VERTEX
  5
14DC
  8
SAPA_PROFIL
 10
66.699999999958322
 20
28.000000000174509
 30
0.0
 42
-0.4142135623656343
  0
VERTEX
  5
14DD
  8
SAPA_PROFIL
 10
66.999999999959414
 20
27.700000000186161
 30
0.0
  0
VERTEX
  5
14DE
  8
SAPA_PROFIL
 10
66.999999999959414
 20
23.50000000017452
 30
0.0
 42
0.4142135623730959
  0
VERTEX
  5
14DF
  8
SAPA_PROFIL
 10
69.999999999970328
 20
20.50000000018543
 30
0.0
  0
VERTEX
  5
14E0
  8
SAPA_PROFIL
 10
74.999999999959385
 20
20.50000000018543
 30
0.0
 42
0.0279290488516059
  0
VERTEX
  5
14E1
  8
SAPA_PROFIL
 10
89.489164086651598
 20
21.30996894488181
 30
0.0
 42
0.3661896282372283
  0
VERTEX
  5
14E2
  8
SAPA_PROFIL
 10
90.198789765519408
 20
22.060996905097799
 30
0.0
 42
-0.3981911081684177
  0
VERTEX
  5
14E3
  8
SAPA_PROFIL
 10
90.398487206908072
 20
22.250000000905938
 30
0.0
  0
VERTEX
  5
14E4
  8
SAPA_PROFIL
 10
91.299999999969629
 20
22.250000000909392
 30
0.0
 42
-0.4142135623890976
  0
VERTEX
  5
14E5
  8
SAPA_PROFIL
 10
91.499999999970356
 20
22.05000000089775
 30
0.0
  0
VERTEX
  5
14E6
  8
SAPA_PROFIL
 10
91.499999999977632
 20
21.823940932426819
 30
0.0
 42
-0.3813405017904005
  0
VERTEX
  5
14E7
  8
SAPA_PROFIL
 10
89.726562499977632
 20
19.836815009515309
 30
0.0
 42
-0.0541306776717632
  0
VERTEX
  5
14E8
  8
SAPA_PROFIL
 10
61.661250848907969
 20
19.686126919664279
 30
0.0
 42
-0.0472456768419794
  0
VERTEX
  5
14E9
  8
SAPA_PROFIL
 10
59.812180793413553
 20
20.055579876433061
 30
0.0
 42
-0.0120164869908679
  0
VERTEX
  5
14EA
  8
SAPA_PROFIL
 10
58.670068721644128
 20
20.42857142856424
 30
0.0
 42
0.0851278882549295
  0
VERTEX
  5
14EB
  8
SAPA_PROFIL
 10
55.33809621027774
 20
20.99999999999989
 30
0.0
  0
VERTEX
  5
14EC
  8
SAPA_PROFIL
 10
47.999999999948507
 20
20.999999999999879
 30
0.0
 42
-0.4142135623730951
  0
VERTEX
  5
14ED
  8
SAPA_PROFIL
 10
42.999999999948507
 20
25.99999999999989
 30
0.0
  0
VERTEX
  5
14EE
  8
SAPA_PROFIL
 10
42.999999999959421
 20
28.75613095889992
 30
0.0
 42
-0.2418327667382104
  0
VERTEX
  5
14EF
  8
SAPA_PROFIL
 10
43.125277674928498
 20
28.99999999986375
 30
0.0
 42
0.241832766754381
  0
VERTEX
  5
14F0
  8
SAPA_PROFIL
 10
43.250555349918947
 20
29.243869040797911
 30
0.0
  0
VERTEX
  5
14F1
  8
SAPA_PROFIL
 10
43.250555349918947
 20
30.199999999847819
 30
0.0
 42
0.3178606011698609
  0
VERTEX
  5
14F2
  8
SAPA_PROFIL
 10
43.050531349924839
 20
30.482851196455741
 30
0.0
  0
VERTEX
  5
14F3
  8
SAPA_PROFIL
 10
43.050531349924839
 20
32.785810437480649
 30
0.0
 42
-0.6681786379192716
  0
VERTEX
  5
14F4
  8
SAPA_PROFIL
 10
44.757638131111641
 20
33.492917218666491
 30
0.0
  0
VERTEX
  5
14F5
  8
SAPA_PROFIL
 10
46.062687384280231
 20
32.187867965496942
 30
0.0
 42
-0.1989123673797334
  0
VERTEX
  5
14F6
  8
SAPA_PROFIL
 10
46.150555349924268
 20
31.975735931140829
 30
0.0
  0
VERTEX
  5
14F7
  8
SAPA_PROFIL
 10
46.150555349923863
 20
31.389230484393639
 30
0.0
 42
-0.1316524975873855
  0
VERTEX
  5
14F8
  8
SAPA_PROFIL
 10
46.110362971059153
 20
31.23923048439373
 30
0.0
  0
VERTEX
  5
14F9
  8
SAPA_PROFIL
 10
45.250555349923182
 20
29.74999999985323
 30
0.0
  0
VERTEX
  5
14FA
  8
SAPA_PROFIL
 10
45.250543349923319
 20
29.299999999853291
 30
0.0
 42
0.4142135623731054
  0
VERTEX
  5
14FB
  8
SAPA_PROFIL
 10
45.550543349923203
 20
28.999999999853149
 30
0.0
  0
VERTEX
  5
14FC
  8
SAPA_PROFIL
 10
49.150555349923259
 20
28.99999999985161
 30
0.0
 42
0.4142135623730951
  0
VERTEX
  5
14FD
  8
SAPA_PROFIL
 10
49.450555349923391
 20
29.299999999851469
 30
0.0
  0
VERTEX
  5
14FE
  8
SAPA_PROFIL
 10
49.450555349923491
 20
29.749999999851472
 30
0.0
  0
VERTEX
  5
14FF
  8
SAPA_PROFIL
 10
48.590730612355159
 20
31.239260130926031
 30
0.0
 42
-0.1316363093594257
  0
VERTEX
  5
1500
  8
SAPA_PROFIL
 10
48.550538234098269
 20
31.389241035972791
 30
0.0
  0
VERTEX
  5
1501
  8
SAPA_PROFIL
 10
48.550535862289642
 20
31.499999999858481
 30
0.0
  0
VERTEX
  5
1502
  8
SAPA_PROFIL
 10
53.449463575011237
 20
31.499999999842991
 30
0.0
  0
VERTEX
  5
1503
  8
SAPA_PROFIL
 10
53.44946176586528
 20
31.389241035967721
 30
0.0
 42
-0.1316363093594255
  0
VERTEX
  5
1504
  8
SAPA_PROFIL
 10
53.409269387608319
 20
31.239260130920979
 30
0.0
  0
VERTEX
  5
1505
  8
SAPA_PROFIL
 10
52.549444650039341
 20
29.749999999846811
 30
0.0
  0
VERTEX
  5
1506
  8
SAPA_PROFIL
 10
52.549444650039227
 20
29.299999999846801
 30
0.0
 42
0.4142135623730951
  0
VERTEX
  5
1507
  8
SAPA_PROFIL
 10
52.849444650039231
 20
28.999999999846811
 30
0.0
  0
VERTEX
  5
1508
  8
SAPA_PROFIL
 10
56.449456650039302
 20
28.999999999846761
 30
0.0
 42
0.4142135623731054
  0
VERTEX
  5
1509
  8
SAPA_PROFIL
 10
56.749456650039299
 20
29.299999999846762
 30
0.0
  0
VERTEX
  5
150A
  8
SAPA_PROFIL
 10
56.749444650039642
 20
29.749999999846711
 30
0.0
  0
VERTEX
  5
150B
  8
SAPA_PROFIL
 10
55.889637028904332
 20
31.239230484387591
 30
0.0
 42
-0.1316524975873855
  0
VERTEX
  5
150C
  8
SAPA_PROFIL
 10
55.849444650039679
 20
31.389230484387511
 30
0.0
  0
VERTEX
  5
150D
  8
SAPA_PROFIL
 10
55.849444650039537
 20
31.975735931134711
 30
0.0
 42
-0.1989123673797335
  0
VERTEX
  5
150E
  8
SAPA_PROFIL
 10
55.937312615683659
 20
32.187867965490781
 30
0.0
  0
VERTEX
  5
150F
  8
SAPA_PROFIL
 10
57.242361868852818
 20
33.492917218659763
 30
0.0
 42
-0.6681786379192716
  0
VERTEX
  5
1510
  8
SAPA_PROFIL
 10
58.949468650039321
 20
32.785810437473152
 30
0.0
  0
VERTEX
  5
1511
  8
SAPA_PROFIL
 10
58.949468650039329
 20
30.482851196461102
 30
0.0
 42
0.3178606011758647
  0
VERTEX
  5
1512
  8
SAPA_PROFIL
 10
58.749444650038079
 20
30.199999999847819
 30
0.0
  0
VERTEX
  5
1513
  8
SAPA_PROFIL
 10
58.749444650039898
 20
29.243869040797911
 30
0.0
 42
0.2418327667526379
  0
VERTEX
  5
1514
  8
SAPA_PROFIL
 10
58.874722325018539
 20
28.999999999847269
 30
0.0
 42
-0.2418327667380031
  0
VERTEX
  5
1515
  8
SAPA_PROFIL
 10
59.000000000022212
 20
28.75613095889662
 30
0.0
  0
VERTEX
  5
1516
  8
SAPA_PROFIL
 10
58.999999999977597
 20
28.000000000174509
 30
0.0
 42
-0.4142135623709635
  0
VERTEX
  5
1517
  8
SAPA_PROFIL
 10
57.999999999977611
 20
27.000000000174509
 30
0.0
  0
VERTEX
  5
1518
  8
SAPA_PROFIL
 10
55.499999999821178
 20
26.99999999999989
 30
0.0
 42
0.9999999999627103
  0
VERTEX
  5
1519
  8
SAPA_PROFIL
 10
55.499999999970342
 20
22.99999999999989
 30
0.0
  0
VERTEX
  5
151A
  8
SAPA_PROFIL
 10
63.499999999970328
 20
22.99999999999989
 30
0.0
 42
0.4142135623752264
  0
VERTEX
  5
151B
  8
SAPA_PROFIL
 10
65.499999999970328
 20
25.000000000007169
 30
0.0
  0
VERTEX
  5
151C
  8
SAPA_PROFIL
 10
65.4999999999485
 20
26.700000000182861
 30
0.0
 42
0.4142135623762961
  0
VERTEX
  5
151D
  8
SAPA_PROFIL
 10
65.199999999940133
 20
27.00000000017452
 30
0.0
  0
VERTEX
  5
151E
  8
SAPA_PROFIL
 10
64.299999999949591
 20
27.00000000018543
 30
0.0
 42
-0.4142135623730957
  0
VERTEX
  5
151F
  8
SAPA_PROFIL
 10
63.999999999939412
 20
27.300000000184699
 30
0.0
  0
VERTEX
  5
1520
  8
SAPA_PROFIL
 10
63.999999999939412
 20
27.700000000186161
 30
0.0
 42
-0.4142135623730922
  0
SEQEND
  5
1521
  8
SAPA_PROFIL
  0
LINE
  5
EB9
  8
SAPA_PROFIL
 62
     4
 10
53.699444650041187
 20
56.143782217194307
 30
-0.2
 11
53.699444650041187
 21
31.8562177824993
 31
-0.2
  0
ARC
  5
EBA
  8
SAPA_PROFIL
 62
     4
 10
52.899444650041168
 20
56.143782217194349
 30
-0.2
 40
0.8000000000000166
 50
359.99999999999761
 51
29.999999999997939
  0
LINE
  5
EBB
  8
SAPA_PROFIL
 62
     4
 10
52.599444650039331
 20
58.263397459468358
 30
-0.2
 11
53.592264973068751
 21
56.543782217194327
 31
-0.2
  0
LINE
  5
EBC
  8
SAPA_PROFIL
 62
     4
 10
52.599444650039217
 20
58.699999999846817
 30
-0.2
 11
52.599444650039331
 21
58.263397459468358
 31
-0.2
  0
ARC
  5
EBD
  8
SAPA_PROFIL
 62
     4
 10
52.84944465003921
 20
58.69999999984681
 30
-0.2
 40
0.2499999999999928
 50
89.999999999998366
 51
179.99999999999841
  0
LINE
  5
EBE
  8
SAPA_PROFIL
 62
     4
 10
56.449456650039288
 20
58.949999999846867
 30
-0.2
 11
52.849444650039217
 21
58.94999999984681
 31
-0.2
  0
ARC
  5
EBF
  8
SAPA_PROFIL
 62
     4
 10
56.449456650039288
 20
58.699999999846867
 30
-0.2
 40
0.2500000000000027
 50
359.99999999999841
 51
90.000000000000796
  0
LINE
  5
EC0
  8
SAPA_PROFIL
 62
     4
 10
56.699445007303929
 20
58.263398078268402
 30
-0.2
 11
56.699456650039288
 21
58.69999999984686
 31
-0.2
  0
LINE
  5
EC1
  8
SAPA_PROFIL
 62
     4
 10
55.70662432701365
 20
56.543782217201013
 30
-0.2
 11
56.699445007303929
 21
58.263398078268402
 31
-0.2
  0
ARC
  5
EC2
  8
SAPA_PROFIL
 62
     4
 10
56.399444650041161
 20
56.143782217200922
 30
-0.2
 40
0.8000000000000007
 50
149.99999999999309
 51
179.9999999999975
  0
LINE
  5
EC3
  8
SAPA_PROFIL
 62
     4
 10
55.599444650041157
 20
31.856217782492671
 30
-0.2
 11
55.599444650041157
 21
56.14378221720095
 31
-0.2
  0
ARC
  5
EC4
  8
SAPA_PROFIL
 62
     4
 10
56.399444650041161
 20
31.856217782492699
 30
-0.2
 40
0.8000000000000019
 50
180.00000000000239
 51
210.00000000000691
  0
LINE
  5
EC5
  8
SAPA_PROFIL
 62
     4
 10
56.699445007303943
 20
29.736601921425219
 30
-0.2
 11
55.706624327013657
 21
31.456217782492619
 31
-0.2
  0
LINE
  5
EC6
  8
SAPA_PROFIL
 62
     4
 10
56.699456650039302
 20
29.299999999846762
 30
-0.2
 11
56.699445007303943
 21
29.736601921425219
 31
-0.2
  0
ARC
  5
EC7
  8
SAPA_PROFIL
 62
     4
 10
56.449456650039302
 20
29.299999999846762
 30
-0.2
 40
0.2499999999999992
 50
269.99999999999841
 51
0.0
  0
LINE
  5
EC8
  8
SAPA_PROFIL
 62
     4
 10
52.849444650039231
 20
29.049999999846801
 30
-0.2
 11
56.449456650039302
 21
29.049999999846762
 31
-0.2
  0
ARC
  5
EC9
  8
SAPA_PROFIL
 62
     4
 10
52.849444650039217
 20
29.299999999846801
 30
-0.2
 40
0.2499999999999929
 50
180.00000000000159
 51
270.00000000000171
  0
LINE
  5
ECA
  8
SAPA_PROFIL
 62
     4
 10
52.599444650039331
 20
29.736602540225238
 30
-0.2
 11
52.599444650039231
 21
29.29999999984679
 31
-0.2
  0
LINE
  5
ECB
  8
SAPA_PROFIL
 62
     4
 10
53.592264973068751
 20
31.456217782499291
 30
-0.2
 11
52.599444650039331
 21
29.736602540225238
 31
-0.2
  0
ARC
  5
ECC
  8
SAPA_PROFIL
 62
     4
 10
52.899444650041183
 20
31.856217782499272
 30
-0.2
 40
0.8000000000000053
 50
330.0000000000021
 51
0.0000000000024427
  0
POLYLINE
  5
ECD
  8
SAPA_PROFIL
 62
     4
 66
     1
 10
0.0
 20
0.0
 30
0.0
 70
     1
  0
VERTEX
  5
1522
  8
SAPA_PROFIL
 62
     4
 10
5.4907476962976718
 20
64.725833080859275
 30
0.0
  0
VERTEX
  5
1523
  8
SAPA_PROFIL
 62
     4
 10
6.3505553499399916
 20
63.236602540014069
 30
0.0
  0
VERTEX
  5
1524
  8
SAPA_PROFIL
 62
     4
 10
6.350555349940084
 20
62.79999999963561
 30
0.0
 42
-0.4142135623730946
  0
VERTEX
  5
1525
  8
SAPA_PROFIL
 62
     4
 10
6.1005553499400911
 20
62.549999999635652
 30
0.0
  0
VERTEX
  5
1526
  8
SAPA_PROFIL
 62
     4
 10
2.500543349940028
 20
62.549999999635581
 30
0.0
 42
-0.414213562373107
  0
VERTEX
  5
1527
  8
SAPA_PROFIL
 62
     4
 10
2.2505433499400209
 20
62.799999999635588
 30
0.0
  0
VERTEX
  5
1528
  8
SAPA_PROFIL
 62
     4
 10
2.2505549926753869
 20
63.23660192121406
 30
0.0
  0
VERTEX
  5
1529
  8
SAPA_PROFIL
 62
     4
 10
3.1103629385683691
 20
64.725832968251751
 30
0.0
 42
0.1316524975874248
  0
VERTEX
  5
152A
  8
SAPA_PROFIL
 62
     4
 10
3.1505553174330569
 20
64.875832968251785
 30
0.0
  0
VERTEX
  5
152B
  8
SAPA_PROFIL
 62
     4
 10
3.1505553174330618
 20
88.124166959503043
 30
0.0
 42
0.1316524975874248
  0
VERTEX
  5
152C
  8
SAPA_PROFIL
 62
     4
 10
3.1103629385683811
 20
88.274166959503077
 30
0.0
  0
VERTEX
  5
152D
  8
SAPA_PROFIL
 62
     4
 10
2.2505549926753918
 20
89.763398006540768
 30
0.0
  0
VERTEX
  5
152E
  8
SAPA_PROFIL
 62
     4
 10
2.2505433499400329
 20
90.199999928119212
 30
0.0
 42
-0.4142135623731049
  0
VERTEX
  5
152F
  8
SAPA_PROFIL
 62
     4
 10
2.5005433499400329
 20
90.449999928119226
 30
0.0
  0
VERTEX
  5
1530
  8
SAPA_PROFIL
 62
     4
 10
6.1005553499400973
 20
90.449999928119183
 30
0.0
 42
-0.4142135623730951
  0
VERTEX
  5
1531
  8
SAPA_PROFIL
 62
     4
 10
6.3505553499400973
 20
90.199999928119183
 30
0.0
  0
VERTEX
  5
1532
  8
SAPA_PROFIL
 62
     4
 10
6.3505553499399969
 20
89.763397387740724
 30
0.0
  0
VERTEX
  5
1533
  8
SAPA_PROFIL
 62
     4
 10
5.4907476962977331
 20
88.274166846895611
 30
0.0
 42
0.1316524975873867
  0
VERTEX
  5
1534
  8
SAPA_PROFIL
 62
     4
 10
5.4505553174330661
 20
88.124166846895633
 30
0.0
  0
VERTEX
  5
1535
  8
SAPA_PROFIL
 62
     4
 10
5.4505553174330119
 20
64.875833080859252
 30
0.0
 42
0.1316524975873873
  0
SEQEND
  5
1536
  8
SAPA_PROFIL
 62
     4
  0
POLYLINE
  5
ECE
  8
SAPA_PROFIL
 66
     1
 10
0.0
 20
0.0
 30
0.0
 70
     1
  0
VERTEX
  5
1537
  8
SAPA_PROFIL
 10
49.999999999967152
 20
17.300000000010201
 30
0.0
 42
0.4142135623624294
  0
VERTEX
  5
1538
  8
SAPA_PROFIL
 10
49.799999999991897
 20
17.499999999999979
 30
0.0
  0
VERTEX
  5
1539
  8
SAPA_PROFIL
 10
48.949999999993352
 20
17.500000000014541
 30
0.0
 42
-0.4142135623730744
  0
VERTEX
  5
153A
  8
SAPA_PROFIL
 10
48.74999999999261
 20
17.7000000000189
 30
0.0
  0
VERTEX
  5
153B
  8
SAPA_PROFIL
 10
48.749999999999908
 20
18.000000000000011
 30
0.0
 42
-0.4142135623731035
  0
VERTEX
  5
153C
  8
SAPA_PROFIL
 10
49.249999999999901
 20
18.500000000000011
 30
0.0
  0
VERTEX
  5
153D
  8
SAPA_PROFIL
 10
52.249999999999901
 20
18.500000000000011
 30
0.0
 42
-0.4142135623731035
  0
VERTEX
  5
153E
  8
SAPA_PROFIL
 10
52.749999999999908
 20
18.000000000000011
 30
0.0
  0
VERTEX
  5
153F
  8
SAPA_PROFIL
 10
52.749999999999908
 20
17.700000000004351
 30
0.0
 42
-0.4142135623730744
  0
VERTEX
  5
1540
  8
SAPA_PROFIL
 10
52.549999999999173
 20
17.499999999999979
 30
0.0
  0
VERTEX
  5
1541
  8
SAPA_PROFIL
 10
51.699999999996983
 20
17.500000000010932
 30
0.0
 42
0.4142135623730534
  0
VERTEX
  5
1542
  8
SAPA_PROFIL
 10
51.499999999999908
 20
17.300000000010201
 30
0.0
  0
VERTEX
  5
1543
  8
SAPA_PROFIL
 10
51.499999999999908
 20
16.300000000010201
 30
0.0
 42
0.4142135623731035
  0
VERTEX
  5
1544
  8
SAPA_PROFIL
 10
51.999999999999908
 20
15.800000000010201
 30
0.0
  0
VERTEX
  5
1545
  8
SAPA_PROFIL
 10
57.999999999999901
 20
15.800000000010201
 30
0.0
 42
0.4142135623731033
  0
VERTEX
  5
1546
  8
SAPA_PROFIL
 10
58.499999999999893
 20
16.300000000010201
 30
0.0
  0
VERTEX
  5
1547
  8
SAPA_PROFIL
 10
58.499999999988979
 20
17.300000000010201
 30
0.0
 42
0.414213562373064
  0
VERTEX
  5
1548
  8
SAPA_PROFIL
 10
58.299999999999159
 20
17.499999999999979
 30
0.0
  0
VERTEX
  5
1549
  8
SAPA_PROFIL
 10
57.44999999999699
 20
17.499999999999979
 30
0.0
 42
-0.414213562373064
  0
VERTEX
  5
154A
  8
SAPA_PROFIL
 10
57.249999999999893
 20
17.700000000004351
 30
0.0
  0
VERTEX
  5
154B
  8
SAPA_PROFIL
 10
57.249999999999893
 20
18.000000000000011
 30
0.0
 42
-0.4142135623731035
  0
VERTEX
  5
154C
  8
SAPA_PROFIL
 10
57.749999999999893
 20
18.500000000000011
 30
0.0
  0
VERTEX
  5
154D
  8
SAPA_PROFIL
 10
59.499999999999893
 20
18.500000000000011
 30
0.0
 42
-0.4142135623731035
  0
VERTEX
  5
154E
  8
SAPA_PROFIL
 10
59.999999999999893
 20
18.000000000000011
 30
0.0
  0
VERTEX
  5
154F
  8
SAPA_PROFIL
 10
59.999999999999893
 20
15.500000000000011
 30
0.0
 42
-0.4142135623730966
  0
VERTEX
  5
1550
  8
SAPA_PROFIL
 10
58.499999999999893
 20
13.99999999999998
 30
0.0
  0
VERTEX
  5
1551
  8
SAPA_PROFIL
 10
0.2999999999991758
 20
14.0
 30
0.0
 42
-0.4142135623730935
  0
VERTEX
  5
1552
  8
SAPA_PROFIL
 10
-0.0000000000001036
 20
14.300000000010179
 30
0.0
  0
VERTEX
  5
1553
  8
SAPA_PROFIL
 10
-0.000000000000109
 20
62.256130958696303
 30
0.0
 42
-0.2418327667378115
  0
VERTEX
  5
1554
  8
SAPA_PROFIL
 10
0.1252776749669924
 20
62.499999999634703
 30
0.0
 42
0.2418327667509125
  0
VERTEX
  5
1555
  8
SAPA_PROFIL
 10
0.2505553499394301
 20
62.743869040590653
 30
0.0
  0
VERTEX
  5
1556
  8
SAPA_PROFIL
 10
0.2505553499430682
 20
63.699999999640568
 30
0.0
 42
0.2418327667448973
  0
VERTEX
  5
1557
  8
SAPA_PROFIL
 10
0.1252776749746523
 20
63.943869040595501
 30
0.0
 42
-0.2418327667448979
  0
VERTEX
  5
1558
  8
SAPA_PROFIL
 10
0.0000000000074586
 20
64.187738081548105
 30
0.0
  0
VERTEX
  5
1559
  8
SAPA_PROFIL
 10
0.000000000007459
 20
66.285810437266065
 30
0.0
 42
-0.6681786379192718
  0
VERTEX
  5
155A
  8
SAPA_PROFIL
 10
1.7071067811939551
 20
66.992917218452675
 30
0.0
  0
VERTEX
  5
155B
  8
SAPA_PROFIL
 10
3.012156034363128
 20
65.687867965283715
 30
0.0
 42
-0.1989123673797335
  0
VERTEX
  5
155C
  8
SAPA_PROFIL
 10
3.1000240000072359
 20
65.475735930927641
 30
0.0
  0
VERTEX
  5
155D
  8
SAPA_PROFIL
 10
3.1000240000070929
 20
64.889230484180445
 30
0.0
 42
-0.1316524975873855
  0
VERTEX
  5
155E
  8
SAPA_PROFIL
 10
3.0598316211424552
 20
64.739230484180524
 30
0.0
  0
VERTEX
  5
155F
  8
SAPA_PROFIL
 10
2.200024000007144
 20
63.249999999639641
 30
0.0
  0
VERTEX
  5
1560
  8
SAPA_PROFIL
 10
2.200012000007487
 20
62.799999999639681
 30
0.0
 42
0.4142135623731054
  0
VERTEX
  5
1561
  8
SAPA_PROFIL
 10
2.5000120000074841
 20
62.49999999963967
 30
0.0
  0
VERTEX
  5
1562
  8
SAPA_PROFIL
 10
6.1000240000075481
 20
62.499999999639719
 30
0.0
 42
0.4142135623730951
  0
VERTEX
  5
1563
  8
SAPA_PROFIL
 10
6.4000240000075452
 20
62.799999999639731
 30
0.0
  0
VERTEX
  5
1564
  8
SAPA_PROFIL
 10
6.4000240000074449
 20
63.249999999639719
 30
0.0
  0
VERTEX
  5
1565
  8
SAPA_PROFIL
 10
5.5401992624384606
 20
64.739260130713873
 30
0.0
 42
-0.1316363093594257
  0
VERTEX
  5
1566
  8
SAPA_PROFIL
 10
5.5000068841815004
 20
64.889241035760634
 30
0.0
  0
VERTEX
  5
1567
  8
SAPA_PROFIL
 10
5.4999998343906897
 20
64.999999999643478
 30
0.0
  0
VERTEX
  5
1568
  8
SAPA_PROFIL
 10
7.0856406460624282
 20
64.999999999643478
 30
0.0
 42
-0.2679491924308306
  0
VERTEX
  5
1569
  8
SAPA_PROFIL
 10
7.951666049841049
 20
64.499999999643464
 30
0.0
  0
VERTEX
  5
156A
  8
SAPA_PROFIL
 10
8.9620290209195286
 20
62.749999999643023
 30
0.0
 42
0.2679491924308306
  0
VERTEX
  5
156B
  8
SAPA_PROFIL
 10
9.3950417228114826
 20
62.499999999643478
 30
0.0
  0
VERTEX
  5
156C
  8
SAPA_PROFIL
 10
10.604958277191949
 20
62.499999999643478
 30
0.0
 42
0.2679491924308304
  0
VERTEX
  5
156D
  8
SAPA_PROFIL
 10
11.037970979083079
 20
62.749999999643471
 30
0.0
  0
VERTEX
  5
156E
  8
SAPA_PROFIL
 10
12.048333950158749
 20
64.499999999643464
 30
0.0
 42
-0.2679491924308308
  0
VERTEX
  5
156F
  8
SAPA_PROFIL
 10
12.91435935394464
 20
64.999999999641602
 30
0.0
  0
VERTEX
  5
1570
  8
SAPA_PROFIL
 10
14.50000016561274
 20
64.999999999643762
 30
0.0
  0
VERTEX
  5
1571
  8
SAPA_PROFIL
 10
14.49999311582193
 20
64.889241035760634
 30
0.0
 42
-0.1316363093594255
  0
VERTEX
  5
1572
  8
SAPA_PROFIL
 10
14.45980073756496
 20
64.739260130713873
 30
0.0
  0
VERTEX
  5
1573
  8
SAPA_PROFIL
 10
13.599975999995991
 20
63.249999999639719
 30
0.0
  0
VERTEX
  5
1574
  8
SAPA_PROFIL
 10
13.599975999995889
 20
62.799999999639731
 30
0.0
 42
0.4142135623730951
  0
VERTEX
  5
1575
  8
SAPA_PROFIL
 10
13.899975999995879
 20
62.499999999639719
 30
0.0
  0
VERTEX
  5
1576
  8
SAPA_PROFIL
 10
17.499987999995941
 20
62.49999999963967
 30
0.0
 42
0.4142135623731054
  0
VERTEX
  5
1577
  8
SAPA_PROFIL
 10
17.799987999995938
 20
62.799999999639681
 30
0.0
  0
VERTEX
  5
1578
  8
SAPA_PROFIL
 10
17.799975999996281
 20
63.249999999639641
 30
0.0
  0
VERTEX
  5
1579
  8
SAPA_PROFIL
 10
16.940168378860971
 20
64.739230484180524
 30
0.0
 42
-0.1316524975873855
  0
VERTEX
  5
157A
  8
SAPA_PROFIL
 10
16.899975999996329
 20
64.889230484180445
 30
0.0
  0
VERTEX
  5
157B
  8
SAPA_PROFIL
 10
16.89997599999619
 20
65.475735930927641
 30
0.0
 42
-0.1989123673797335
  0
VERTEX
  5
157C
  8
SAPA_PROFIL
 10
16.987843965640302
 20
65.687867965283715
 30
0.0
  0
VERTEX
  5
157D
  8
SAPA_PROFIL
 10
18.292893218809478
 20
66.992917218452675
 30
0.0
 42
-0.6681786379192716
  0
VERTEX
  5
157E
  8
SAPA_PROFIL
 10
19.999999999995971
 20
66.285810437266065
 30
0.0
  0
VERTEX
  5
157F
  8
SAPA_PROFIL
 10
19.999999999995971
 20
64.187738081546371
 30
0.0
 42
-0.2418327667433386
  0
VERTEX
  5
1580
  8
SAPA_PROFIL
 10
19.874722325030209
 20
63.943869040594819
 30
0.0
 42
0.2418327667449431
  0
VERTEX
  5
1581
  8
SAPA_PROFIL
 10
19.749444650064
 20
63.699999999640568
 30
0.0
  0
VERTEX
  5
1582
  8
SAPA_PROFIL
 10
19.749444650060362
 20
62.743869040590653
 30
0.0
 42
0.2418327667509097
  0
VERTEX
  5
1583
  8
SAPA_PROFIL
 10
19.874722325042779
 20
62.499999999643528
 30
0.0
 42
-0.2418327667378167
  0
VERTEX
  5
1584
  8
SAPA_PROFIL
 10
19.999999999995971
 20
62.256130958696303
 30
0.0
  0
VERTEX
  5
1585
  8
SAPA_PROFIL
 10
20.000000000014449
 20
60.44338932492974
 30
0.0
 42
-0.1095178116817878
  0
VERTEX
  5
1586
  8
SAPA_PROFIL
 10
19.812615574092611
 20
59.598152801458752
 30
0.0
  0
VERTEX
  5
1587
  8
SAPA_PROFIL
 10
17.187384425931558
 20
53.96832643631933
 30
0.0
 42
0.1095178116855129
  0
VERTEX
  5
1588
  8
SAPA_PROFIL
 10
16.99999999999989
 20
53.123089912834978
 30
0.0
  0
VERTEX
  5
1589
  8
SAPA_PROFIL
 10
16.999999999992621
 20
45.999999999658023
 30
0.0
 42
0.4142135623730957
  0
VERTEX
  5
158A
  8
SAPA_PROFIL
 10
17.500000000014438
 20
45.49999999965803
 30
0.0
  0
VERTEX
  5
158B
  8
SAPA_PROFIL
 10
18.500000000014438
 20
45.49999999965803
 30
0.0
 42
0.4142135623730915
  0
VERTEX
  5
158C
  8
SAPA_PROFIL
 10
19.000000000014438
 20
45.999999999658023
 30
0.0
  0
VERTEX
  5
158D
  8
SAPA_PROFIL
 10
19.000000000014438
 20
46.291287847139763
 30
0.0
 42
-0.2982166266909514
  0
VERTEX
  5
158E
  8
SAPA_PROFIL
 10
19.30000000000155
 20
46.749545416629701
 30
0.0
 42
-1.5275252316550829
  0
VERTEX
  5
158F
  8
SAPA_PROFIL
 10
19.30000000000145
 20
41.25045458270224
 30
0.0
 42
-0.2982166266892446
  0
VERTEX
  5
1590
  8
SAPA_PROFIL
 10
19.000000000023771
 20
41.708712152169021
 30
0.0
  0
VERTEX
  5
1591
  8
SAPA_PROFIL
 10
19.000000000014438
 20
41.99999999965803
 30
0.0
 42
0.4142135623730915
  0
VERTEX
  5
1592
  8
SAPA_PROFIL
 10
18.500000000014438
 20
42.49999999965803
 30
0.0
  0
VERTEX
  5
1593
  8
SAPA_PROFIL
 10
17.500000000014438
 20
42.49999999965803
 30
0.0
 42
0.4142135623730918
  0
VERTEX
  5
1594
  8
SAPA_PROFIL
 10
17.000000000014438
 20
41.99999999965803
 30
0.0
  0
VERTEX
  5
1595
  8
SAPA_PROFIL
 10
17.000000000014438
 20
23.076910086805579
 30
0.0
 42
0.1095178116838485
  0
VERTEX
  5
1596
  8
SAPA_PROFIL
 10
17.187384425934351
 20
22.23167356331578
 30
0.0
  0
VERTEX
  5
1597
  8
SAPA_PROFIL
 10
19.46152494752813
 20
17.354763476527289
 30
0.0
 42
0.2914734195858569
  0
VERTEX
  5
1598
  8
SAPA_PROFIL
 10
21.27414052161102
 20
16.200000000004358
 30
0.0
  0
VERTEX
  5
1599
  8
SAPA_PROFIL
 10
40.99999999999261
 20
16.200000000004351
 30
0.0
 42
0.4142135623730951
  0
VERTEX
  5
159A
  8
SAPA_PROFIL
 10
41.499999999992617
 20
16.700000000004351
 30
0.0
  0
VERTEX
  5
159B
  8
SAPA_PROFIL
 10
41.499999999992617
 20
17.00000000002181
 30
0.0
 42
0.4142135623731035
  0
VERTEX
  5
159C
  8
SAPA_PROFIL
 10
40.99999999999261
 20
17.50000000002181
 30
0.0
  0
VERTEX
  5
159D
  8
SAPA_PROFIL
 10
39.699999999993338
 20
17.50000000002181
 30
0.0
 42
-0.4142135623730744
  0
VERTEX
  5
159E
  8
SAPA_PROFIL
 10
39.499999999988979
 20
17.7000000000189
 30
0.0
  0
VERTEX
  5
159F
  8
SAPA_PROFIL
 10
39.499999999992632
 20
18.00000000002181
 30
0.0
 42
-0.4142135623731035
  0
VERTEX
  5
15A0
  8
SAPA_PROFIL
 10
39.999999999992617
 20
18.50000000002181
 30
0.0
  0
VERTEX
  5
15A1
  8
SAPA_PROFIL
 10
43.74999999999261
 20
18.500000000000011
 30
0.0
 42
-0.4142135623731035
  0
VERTEX
  5
15A2
  8
SAPA_PROFIL
 10
44.24999999999261
 20
18.000000000000011
 30
0.0
  0
VERTEX
  5
15A3
  8
SAPA_PROFIL
 10
44.24999999999261
 20
17.700000000004351
 30
0.0
 42
-0.4142135623731159
  0
VERTEX
  5
15A4
  8
SAPA_PROFIL
 10
44.049999999977352
 20
17.499999999996369
 30
0.0
  0
VERTEX
  5
15A5
  8
SAPA_PROFIL
 10
43.199999999993352
 20
17.499999999999979
 30
0.0
 42
0.4142135623730951
  0
VERTEX
  5
15A6
  8
SAPA_PROFIL
 10
42.99999999999261
 20
17.300000000010201
 30
0.0
  0
VERTEX
  5
15A7
  8
SAPA_PROFIL
 10
42.99999999999261
 20
16.300000000010201
 30
0.0
 42
0.4142135623731035
  0
VERTEX
  5
15A8
  8
SAPA_PROFIL
 10
43.49999999999261
 20
15.800000000010201
 30
0.0
  0
VERTEX
  5
15A9
  8
SAPA_PROFIL
 10
49.499999999992632
 20
15.800000000010201
 30
0.0
 42
0.4142135623731033
  0
VERTEX
  5
15AA
  8
SAPA_PROFIL
 10
49.99999999999261
 20
16.300000000010201
 30
0.0
  0
SEQEND
  5
15AB
  8
SAPA_PROFIL
  0
POLYLINE
  5
ECF
  8
SAPA_PROFIL
 66
     1
 10
0.0
 20
0.0
 30
0.0
 70
     1
  0
VERTEX
  5
15AC
  8
SAPA_PROFIL
 10
2.8000000000137208
 20
59.999999999643478
 30
0.0
  0
VERTEX
  5
15AD
  8
SAPA_PROFIL
 10
14.39999999999408
 20
59.999999999643478
 30
0.0
 42
-0.4142135623730951
  0
VERTEX
  5
15AE
  8
SAPA_PROFIL
 10
14.69999999999699
 20
59.699999999640561
 30
0.0
  0
VERTEX
  5
15AF
  8
SAPA_PROFIL
 10
14.700000000018809
 20
16.800000000010179
 30
0.0
 42
-0.4142135623730935
  0
VERTEX
  5
15B0
  8
SAPA_PROFIL
 10
14.40000000001953
 20
16.50000000001091
 30
0.0
  0
VERTEX
  5
15B1
  8
SAPA_PROFIL
 10
2.799999999999176
 20
16.5
 30
0.0
 42
-0.4142135623730935
  0
VERTEX
  5
15B2
  8
SAPA_PROFIL
 10
2.4999999999998961
 20
16.800000000010179
 30
0.0
  0
VERTEX
  5
15B3
  8
SAPA_PROFIL
 10
2.5000000000144489
 20
59.699999999640561
 30
0.0
 42
-0.4142135623730939
  0
SEQEND
  5
15B4
  8
SAPA_PROFIL
  0
POLYLINE
  5
ED0
  8
SAPA_PROFIL
 66
     1
 10
0.0
 20
0.0
 30
0.0
 70
     1
  0
VERTEX
  5
15B5
  8
SAPA_PROFIL
 10
49.999999999967173
 20
135.69999992774461
 30
0.0
 42
-0.4142135623624294
  0
VERTEX
  5
15B6
  8
SAPA_PROFIL
 10
49.799999999991932
 20
135.49999992775469
 30
0.0
  0
VERTEX
  5
15B7
  8
SAPA_PROFIL
 10
48.949999999993359
 20
135.49999992774019
 30
0.0
 42
0.4142135623730744
  0
VERTEX
  5
15B8
  8
SAPA_PROFIL
 10
48.749999999992639
 20
135.2999999277358
 30
0.0
  0
VERTEX
  5
15B9
  8
SAPA_PROFIL
 10
48.749999999999922
 20
134.99999992775469
 30
0.0
 42
0.4142135623731035
  0
VERTEX
  5
15BA
  8
SAPA_PROFIL
 10
49.249999999999929
 20
134.49999992775469
 30
0.0
  0
VERTEX
  5
15BB
  8
SAPA_PROFIL
 10
52.249999999999929
 20
134.49999992775469
 30
0.0
 42
0.4142135623731035
  0
VERTEX
  5
15BC
  8
SAPA_PROFIL
 10
52.749999999999929
 20
134.99999992775469
 30
0.0
  0
VERTEX
  5
15BD
  8
SAPA_PROFIL
 10
52.749999999999929
 20
135.29999992775041
 30
0.0
 42
0.4142135623730744
  0
VERTEX
  5
15BE
  8
SAPA_PROFIL
 10
52.549999999999187
 20
135.49999992775469
 30
0.0
  0
VERTEX
  5
15BF
  8
SAPA_PROFIL
 10
51.699999999996997
 20
135.4999999277438
 30
0.0
 42
-0.4142135623730534
  0
VERTEX
  5
15C0
  8
SAPA_PROFIL
 10
51.499999999999929
 20
135.69999992774461
 30
0.0
  0
VERTEX
  5
15C1
  8
SAPA_PROFIL
 10
51.499999999999929
 20
136.69999992774461
 30
0.0
 42
-0.4142135623731035
  0
VERTEX
  5
15C2
  8
SAPA_PROFIL
 10
51.999999999999929
 20
137.19999992774461
 30
0.0
  0
VERTEX
  5
15C3
  8
SAPA_PROFIL
 10
57.999999999999908
 20
137.19999992774461
 30
0.0
 42
-0.4142135623731033
  0
VERTEX
  5
15C4
  8
SAPA_PROFIL
 10
58.499999999999908
 20
136.69999992774461
 30
0.0
  0
VERTEX
  5
15C5
  8
SAPA_PROFIL
 10
58.499999999989001
 20
135.69999992774461
 30
0.0
 42
-0.414213562373064
  0
VERTEX
  5
15C6
  8
SAPA_PROFIL
 10
58.299999999999187
 20
135.49999992775469
 30
0.0
  0
VERTEX
  5
15C7
  8
SAPA_PROFIL
 10
57.449999999996997
 20
135.49999992775469
 30
0.0
 42
0.414213562373064
  0
VERTEX
  5
15C8
  8
SAPA_PROFIL
 10
57.249999999999908
 20
135.29999992775041
 30
0.0
  0
VERTEX
  5
15C9
  8
SAPA_PROFIL
 10
57.249999999999908
 20
134.99999992775469
 30
0.0
 42
0.4142135623731035
  0
VERTEX
  5
15CA
  8
SAPA_PROFIL
 10
57.749999999999908
 20
134.49999992775469
 30
0.0
  0
VERTEX
  5
15CB
  8
SAPA_PROFIL
 10
59.499999999999922
 20
134.49999992775469
 30
0.0
 42
0.4142135623731035
  0
VERTEX
  5
15CC
  8
SAPA_PROFIL
 10
59.999999999999922
 20
134.99999992775469
 30
0.0
  0
VERTEX
  5
15CD
  8
SAPA_PROFIL
 10
59.999999999999922
 20
137.49999992775469
 30
0.0
 42
0.4142135623730966
  0
VERTEX
  5
15CE
  8
SAPA_PROFIL
 10
58.499999999999908
 20
138.9999999277548
 30
0.0
  0
VERTEX
  5
15CF
  8
SAPA_PROFIL
 10
0.2999999999991988
 20
138.9999999277548
 30
0.0
 42
0.4142135623730935
  0
VERTEX
  5
15D0
  8
SAPA_PROFIL
 10
-0.0000000000000808
 20
138.69999992774461
 30
0.0
  0
VERTEX
  5
15D1
  8
SAPA_PROFIL
 10
-0.0000000000000967
 20
90.743868969058497
 30
0.0
 42
0.2418327667378115
  0
VERTEX
  5
15D2
  8
SAPA_PROFIL
 10
0.1252776749670046
 20
90.499999928120104
 30
0.0
 42
-0.2418327667509125
  0
VERTEX
  5
15D3
  8
SAPA_PROFIL
 10
0.2505553499394351
 20
90.256130887164147
 30
0.0
  0
VERTEX
  5
15D4
  8
SAPA_PROFIL
 10
0.250555349943073
 20
89.299999928114218
 30
0.0
 42
-0.2418327667448973
  0
VERTEX
  5
15D5
  8
SAPA_PROFIL
 10
0.1252776749746569
 20
89.056130887159284
 30
0.0
 42
0.2418327667448979
  0
VERTEX
  5
15D6
  8
SAPA_PROFIL
 10
0.0000000000074631
 20
88.812261846206724
 30
0.0
  0
VERTEX
  5
15D7
  8
SAPA_PROFIL
 10
0.0000000000074627
 20
86.714189490488735
 30
0.0
 42
0.6681786379192718
  0
VERTEX
  5
15D8
  8
SAPA_PROFIL
 10
1.707106781193958
 20
86.007082709302125
 30
0.0
  0
VERTEX
  5
15D9
  8
SAPA_PROFIL
 10
3.012156034363132
 20
87.312131962471113
 30
0.0
 42
0.1989123673797335
  0
VERTEX
  5
15DA
  8
SAPA_PROFIL
 10
3.1000240000072399
 20
87.524263996827173
 30
0.0
  0
VERTEX
  5
15DB
  8
SAPA_PROFIL
 10
3.1000240000070982
 20
88.110769443574384
 30
0.0
 42
0.1316524975873855
  0
VERTEX
  5
15DC
  8
SAPA_PROFIL
 10
3.0598316211424592
 20
88.260769443574304
 30
0.0
  0
VERTEX
  5
15DD
  8
SAPA_PROFIL
 10
2.2000240000071489
 20
89.749999928115173
 30
0.0
  0
VERTEX
  5
15DE
  8
SAPA_PROFIL
 10
2.2000120000074919
 20
90.199999928115105
 30
0.0
 42
-0.4142135623731054
  0
VERTEX
  5
15DF
  8
SAPA_PROFIL
 10
2.500012000007489
 20
90.499999928115116
 30
0.0
  0
VERTEX
  5
15E0
  8
SAPA_PROFIL
 10
6.1000240000075534
 20
90.499999928115074
 30
0.0
 42
-0.4142135623730951
  0
VERTEX
  5
15E1
  8
SAPA_PROFIL
 10
6.4000240000075497
 20
90.199999928115091
 30
0.0
  0
VERTEX
  5
15E2
  8
SAPA_PROFIL
 10
6.4000240000074511
 20
89.749999928115074
 30
0.0
  0
VERTEX
  5
15E3
  8
SAPA_PROFIL
 10
5.540199262438473
 20
88.260739797040912
 30
0.0
 42
0.1316363093594257
  0
VERTEX
  5
15E4
  8
SAPA_PROFIL
 10
5.5000068841815031
 20
88.11075889199418
 30
0.0
  0
VERTEX
  5
15E5
  8
SAPA_PROFIL
 10
5.4999998343906942
 20
87.999999928111322
 30
0.0
  0
VERTEX
  5
15E6
  8
SAPA_PROFIL
 10
7.0856406460624308
 20
87.999999928111322
 30
0.0
 42
0.2679491924308306
  0
VERTEX
  5
15E7
  8
SAPA_PROFIL
 10
7.9516660498410543
 20
88.499999928111336
 30
0.0
  0
VERTEX
  5
15E8
  8
SAPA_PROFIL
 10
8.9620290209195321
 20
90.249999928111777
 30
0.0
 42
-0.2679491924308306
  0
VERTEX
  5
15E9
  8
SAPA_PROFIL
 10
9.3950417228114862
 20
90.499999928111322
 30
0.0
  0
VERTEX
  5
15EA
  8
SAPA_PROFIL
 10
10.60495827719196
 20
90.499999928111322
 30
0.0
 42
-0.2679491924308304
  0
VERTEX
  5
15EB
  8
SAPA_PROFIL
 10
11.03797097908309
 20
90.249999928111322
 30
0.0
  0
VERTEX
  5
15EC
  8
SAPA_PROFIL
 10
12.048333950158749
 20
88.499999928111336
 30
0.0
 42
0.2679491924308308
  0
VERTEX
  5
15ED
  8
SAPA_PROFIL
 10
12.914359353944651
 20
87.999999928113198
 30
0.0
  0
VERTEX
  5
15EE
  8
SAPA_PROFIL
 10
14.50000016561274
 20
87.999999928111066
 30
0.0
  0
VERTEX
  5
15EF
  8
SAPA_PROFIL
 10
14.49999311582194
 20
88.11075889199418
 30
0.0
 42
0.1316363093594255
  0
VERTEX
  5
15F0
  8
SAPA_PROFIL
 10
14.45980073756497
 20
88.260739797040912
 30
0.0
  0
VERTEX
  5
15F1
  8
SAPA_PROFIL
 10
13.599975999995991
 20
89.749999928115074
 30
0.0
  0
VERTEX
  5
15F2
  8
SAPA_PROFIL
 10
13.599975999995889
 20
90.199999928115091
 30
0.0
 42
-0.4142135623730951
  0
VERTEX
  5
15F3
  8
SAPA_PROFIL
 10
13.89997599999589
 20
90.499999928115074
 30
0.0
  0
VERTEX
  5
15F4
  8
SAPA_PROFIL
 10
17.499987999995941
 20
90.499999928115116
 30
0.0
 42
-0.4142135623731054
  0
VERTEX
  5
15F5
  8
SAPA_PROFIL
 10
17.799987999995949
 20
90.199999928115105
 30
0.0
  0
VERTEX
  5
15F6
  8
SAPA_PROFIL
 10
17.799975999996281
 20
89.749999928115173
 30
0.0
  0
VERTEX
  5
15F7
  8
SAPA_PROFIL
 10
16.940168378860989
 20
88.260769443574304
 30
0.0
 42
0.1316524975873855
  0
VERTEX
  5
15F8
  8
SAPA_PROFIL
 10
16.899975999996339
 20
88.110769443574384
 30
0.0
  0
VERTEX
  5
15F9
  8
SAPA_PROFIL
 10
16.899975999996201
 20
87.524263996827173
 30
0.0
 42
0.1989123673797335
  0
VERTEX
  5
15FA
  8
SAPA_PROFIL
 10
16.987843965640309
 20
87.312131962471113
 30
0.0
  0
VERTEX
  5
15FB
  8
SAPA_PROFIL
 10
18.292893218809478
 20
86.007082709302125
 30
0.0
 42
0.6681786379192716
  0
VERTEX
  5
15FC
  8
SAPA_PROFIL
 10
19.999999999995978
 20
86.714189490488735
 30
0.0
  0
VERTEX
  5
15FD
  8
SAPA_PROFIL
 10
19.999999999995978
 20
88.812261846208415
 30
0.0
 42
0.2418327667433386
  0
VERTEX
  5
15FE
  8
SAPA_PROFIL
 10
19.87472232503022
 20
89.056130887159981
 30
0.0
 42
-0.2418327667449431
  0
VERTEX
  5
15FF
  8
SAPA_PROFIL
 10
19.74944465006401
 20
89.299999928114218
 30
0.0
  0
VERTEX
  5
1600
  8
SAPA_PROFIL
 10
19.749444650060369
 20
90.256130887164147
 30
0.0
 42
-0.2418327667509097
  0
VERTEX
  5
1601
  8
SAPA_PROFIL
 10
19.874722325042779
 20
90.499999928111265
 30
0.0
 42
0.2418327667378167
  0
VERTEX
  5
1602
  8
SAPA_PROFIL
 10
19.999999999995978
 20
90.743868969058497
 30
0.0
  0
VERTEX
  5
1603
  8
SAPA_PROFIL
 10
20.000000000014449
 20
92.55661060282506
 30
0.0
 42
0.1095178116817878
  0
VERTEX
  5
1604
  8
SAPA_PROFIL
 10
19.812615574092622
 20
93.401847126296047
 30
0.0
  0
VERTEX
  5
1605
  8
SAPA_PROFIL
 10
17.187384425931569
 20
99.03167349143547
 30
0.0
 42
-0.1095178116855129
  0
VERTEX
  5
1606
  8
SAPA_PROFIL
 10
16.999999999999901
 20
99.876910014919815
 30
0.0
  0
VERTEX
  5
1607
  8
SAPA_PROFIL
 10
16.999999999992632
 20
106.9999999280968
 30
0.0
 42
-0.4142135623730957
  0
VERTEX
  5
1608
  8
SAPA_PROFIL
 10
17.500000000014449
 20
107.4999999280968
 30
0.0
  0
VERTEX
  5
1609
  8
SAPA_PROFIL
 10
18.500000000014449
 20
107.4999999280968
 30
0.0
 42
-0.4142135623730915
  0
VERTEX
  5
160A
  8
SAPA_PROFIL
 10
19.000000000014449
 20
106.9999999280968
 30
0.0
  0
VERTEX
  5
160B
  8
SAPA_PROFIL
 10
19.000000000014449
 20
106.708712080615
 30
0.0
 42
0.2982166266909514
  0
VERTEX
  5
160C
  8
SAPA_PROFIL
 10
19.30000000000156
 20
106.2504545111251
 30
0.0
 42
1.5275252316550829
  0
VERTEX
  5
160D
  8
SAPA_PROFIL
 10
19.300000000001472
 20
111.7495453450525
 30
0.0
 42
0.2982166266892446
  0
VERTEX
  5
160E
  8
SAPA_PROFIL
 10
19.000000000023778
 20
111.2912877755857
 30
0.0
  0
VERTEX
  5
160F
  8
SAPA_PROFIL
 10
19.00000000001446
 20
110.9999999280968
 30
0.0
 42
-0.4142135623730915
  0
VERTEX
  5
1610
  8
SAPA_PROFIL
 10
18.50000000001446
 20
110.4999999280968
 30
0.0
  0
VERTEX
  5
1611
  8
SAPA_PROFIL
 10
17.50000000001446
 20
110.4999999280968
 30
0.0
 42
-0.4142135623730918
  0
VERTEX
  5
1612
  8
SAPA_PROFIL
 10
17.00000000001446
 20
110.9999999280968
 30
0.0
  0
VERTEX
  5
1613
  8
SAPA_PROFIL
 10
17.00000000001447
 20
129.92308984094919
 30
0.0
 42
-0.1095178116838485
  0
VERTEX
  5
1614
  8
SAPA_PROFIL
 10
17.187384425934379
 20
130.76832636443899
 30
0.0
  0
VERTEX
  5
1615
  8
SAPA_PROFIL
 10
19.461524947528151
 20
135.6452364512275
 30
0.0
 42
-0.2914734195858569
  0
VERTEX
  5
1616
  8
SAPA_PROFIL
 10
21.274140521611031
 20
136.79999992775041
 30
0.0
  0
VERTEX
  5
1617
  8
SAPA_PROFIL
 10
40.999999999992639
 20
136.79999992775041
 30
0.0
 42
-0.4142135623730951
  0
VERTEX
  5
1618
  8
SAPA_PROFIL
 10
41.499999999992639
 20
136.29999992775041
 30
0.0
  0
VERTEX
  5
1619
  8
SAPA_PROFIL
 10
41.499999999992639
 20
135.99999992773289
 30
0.0
 42
-0.4142135623731035
  0
VERTEX
  5
161A
  8
SAPA_PROFIL
 10
40.999999999992639
 20
135.499999927733
 30
0.0
  0
VERTEX
  5
161B
  8
SAPA_PROFIL
 10
39.699999999993373
 20
135.499999927733
 30
0.0
 42
0.4142135623730744
  0
VERTEX
  5
161C
  8
SAPA_PROFIL
 10
39.499999999989001
 20
135.29999992773591
 30
0.0
  0
VERTEX
  5
161D
  8
SAPA_PROFIL
 10
39.49999999999266
 20
134.99999992773289
 30
0.0
 42
0.4142135623731035
  0
VERTEX
  5
161E
  8
SAPA_PROFIL
 10
39.999999999992639
 20
134.499999927733
 30
0.0
  0
VERTEX
  5
161F
  8
SAPA_PROFIL
 10
43.749999999992632
 20
134.49999992775469
 30
0.0
 42
0.4142135623731035
  0
VERTEX
  5
1620
  8
SAPA_PROFIL
 10
44.249999999992639
 20
134.99999992775469
 30
0.0
  0
VERTEX
  5
1621
  8
SAPA_PROFIL
 10
44.249999999992639
 20
135.29999992775041
 30
0.0
 42
0.4142135623731159
  0
VERTEX
  5
1622
  8
SAPA_PROFIL
 10
44.049999999977373
 20
135.49999992775841
 30
0.0
  0
VERTEX
  5
1623
  8
SAPA_PROFIL
 10
43.199999999993359
 20
135.49999992775469
 30
0.0
 42
-0.4142135623730951
  0
VERTEX
  5
1624
  8
SAPA_PROFIL
 10
42.999999999992639
 20
135.69999992774461
 30
0.0
  0
VERTEX
  5
1625
  8
SAPA_PROFIL
 10
42.999999999992639
 20
136.69999992774461
 30
0.0
 42
-0.4142135623731035
  0
VERTEX
  5
1626
  8
SAPA_PROFIL
 10
43.499999999992639
 20
137.19999992774461
 30
0.0
  0
VERTEX
  5
1627
  8
SAPA_PROFIL
 10
49.499999999992653
 20
137.19999992774461
 30
0.0
 42
-0.4142135623731033
  0
VERTEX
  5
1628
  8
SAPA_PROFIL
 10
49.999999999992639
 20
136.69999992774461
 30
0.0
  0
SEQEND
  5
1629
  8
SAPA_PROFIL
  0
POLYLINE
  5
ED1
  8
SAPA_PROFIL
 66
     1
 10
0.0
 20
0.0
 30
0.0
 70
     1
  0
VERTEX
  5
162A
  8
SAPA_PROFIL
 10
2.800000000013728
 20
92.999999928111322
 30
0.0
  0
VERTEX
  5
162B
  8
SAPA_PROFIL
 10
14.39999999999408
 20
92.999999928111322
 30
0.0
 42
0.4142135623730951
  0
VERTEX
  5
162C
  8
SAPA_PROFIL
 10
14.69999999999699
 20
93.299999928114232
 30
0.0
  0
VERTEX
  5
162D
  8
SAPA_PROFIL
 10
14.700000000018839
 20
136.19999992774461
 30
0.0
 42
0.4142135623730935
  0
VERTEX
  5
162E
  8
SAPA_PROFIL
 10
14.40000000001956
 20
136.49999992774389
 30
0.0
  0
VERTEX
  5
162F
  8
SAPA_PROFIL
 10
2.7999999999991978
 20
136.4999999277548
 30
0.0
 42
0.4142135623730935
  0
VERTEX
  5
1630
  8
SAPA_PROFIL
 10
2.4999999999999178
 20
136.19999992774461
 30
0.0
  0
VERTEX
  5
1631
  8
SAPA_PROFIL
 10
2.5000000000144622
 20
93.299999928114232
 30
0.0
 42
0.4142135623730939
  0
SEQEND
  5
1632
  8
SAPA_PROFIL
  0
POLYLINE
  5
ED2
  8
SAPA_PROFIL
 62
     4
 66
     1
 10
0.0
 20
0.0
 30
-0.2
 70
     1
1001
RC_PROFILE
1002
{
1000
Region
1002
}
  0
VERTEX
  5
1633
  8
SAPA_PROFIL
 62
     4
 10
43.34717971768049
 20
78.999999996510425
 30
-0.2
  0
VERTEX
  5
1634
  8
SAPA_PROFIL
 62
     4
 10
57.547179717682567
 20
78.999999996510425
 30
-0.2
 42
-0.4142135623720297
  0
VERTEX
  5
1635
  8
SAPA_PROFIL
 62
     4
 10
58.047179717682567
 20
78.499999996512258
 30
-0.2
  0
VERTEX
  5
1636
  8
SAPA_PROFIL
 62
     4
 10
58.04717971768553
 20
74.499999995891059
 30
-0.2
 42
-0.4142135623730951
  0
VERTEX
  5
1637
  8
SAPA_PROFIL
 62
     4
 10
57.54717971768553
 20
73.999999995891045
 30
-0.2
  0
VERTEX
  5
1638
  8
SAPA_PROFIL
 62
     4
 10
43.347179717681627
 20
73.999999995883783
 30
-0.2
 42
-0.414213562373761
  0
VERTEX
  5
1639
  8
SAPA_PROFIL
 62
     4
 10
42.847179717680497
 20
74.499999995883783
 30
-0.2
  0
VERTEX
  5
163A
  8
SAPA_PROFIL
 62
     4
 10
42.847179717680497
 20
78.499999996510439
 30
-0.2
 42
-0.4142135623730951
  0
SEQEND
  5
163B
  8
SAPA_PROFIL
 62
     4
  0
POLYLINE
  5
ED3
  8
SAPA_PROFIL
 62
     4
 66
     1
 10
0.0
 20
0.0
 30
0.0
1001
GENIUS_GENOBJ-N-FIL_13
1002
{
1000
OWNER
1000
GEN
1002
}
1001
GENIUS_GENODEF_13
1002
{
1000
HIER
1070
     0
1002
}
1002
{
1000
MANEDIT
1070
     0
1002
}
1002
{
1000
NOSEL
1070
     0
1002
}
1002
{
1000
BEHIND
1070
     0
1002
}
1002
{
1000
OTHER
1070
     0
1002
}
1002
{
1000
REACTOR
1002
}
  0
VERTEX
  5
163C
  8
SAPA_PROFIL
 62
     4
 10
16.583706161271429
 20
65.57725992649199
 30
0.0
 42
0.131652497587489
  0
VERTEX
  5
163D
  8
SAPA_PROFIL
 62
     4
 10
16.744475676730168
 20
64.97725992649157
 30
0.0
  0
VERTEX
  5
163E
  8
SAPA_PROFIL
 62
     4
 10
17.749445007328038
 20
63.236601985848033
 30
0.0
  0
VERTEX
  5
163F
  8
SAPA_PROFIL
 62
     4
 10
17.749456650063401
 20
62.800000064269561
 30
0.0
 42
-0.4142135623731046
  0
VERTEX
  5
1640
  8
SAPA_PROFIL
 62
     4
 10
17.499456650063401
 20
62.550000064269568
 30
0.0
  0
VERTEX
  5
1641
  8
SAPA_PROFIL
 62
     4
 10
13.899444650063341
 20
62.550000064269618
 30
0.0
 42
-0.4142135623730957
  0
VERTEX
  5
1642
  8
SAPA_PROFIL
 62
     4
 10
13.649444650063341
 20
62.800000064269589
 30
0.0
  0
VERTEX
  5
1643
  8
SAPA_PROFIL
 62
     4
 10
13.64944465006344
 20
63.236602604648048
 30
0.0
  0
VERTEX
  5
1644
  8
SAPA_PROFIL
 62
     4
 10
14.62293664581351
 20
64.922740202048942
 30
0.0
 42
0.1316524975873848
  0
VERTEX
  5
1645
  8
SAPA_PROFIL
 62
     4
 10
14.783706161272161
 20
65.52274020204888
 30
0.0
  0
VERTEX
  5
1646
  8
SAPA_PROFIL
 62
     4
 10
14.783706161272161
 20
87.4772597903399
 30
0.0
 42
0.1316524975873846
  0
VERTEX
  5
1647
  8
SAPA_PROFIL
 62
     4
 10
14.62293664581351
 20
88.077259790339866
 30
0.0
  0
VERTEX
  5
1648
  8
SAPA_PROFIL
 62
     4
 10
13.649444650063449
 20
89.763397387740724
 30
0.0
  0
VERTEX
  5
1649
  8
SAPA_PROFIL
 62
     4
 10
13.64944465006335
 20
90.199999928119183
 30
0.0
 42
-0.4142135623730951
  0
VERTEX
  5
164A
  8
SAPA_PROFIL
 62
     4
 10
13.89944465006335
 20
90.449999928119183
 30
0.0
  0
VERTEX
  5
164B
  8
SAPA_PROFIL
 62
     4
 10
17.499456650063411
 20
90.449999928119226
 30
0.0
 42
-0.4142135623731046
  0
VERTEX
  5
164C
  8
SAPA_PROFIL
 62
     4
 10
17.749456650063411
 20
90.199999928119212
 30
0.0
  0
VERTEX
  5
164D
  8
SAPA_PROFIL
 62
     4
 10
17.749445007328049
 20
89.763398006540768
 30
0.0
  0
VERTEX
  5
164E
  8
SAPA_PROFIL
 62
     4
 10
16.744475676730168
 20
88.02274006589721
 30
0.0
 42
0.1316524975874892
  0
VERTEX
  5
164F
  8
SAPA_PROFIL
 62
     4
 10
16.583706161271429
 20
87.422740065896804
 30
0.0
  0
VERTEX
  5
1650
  8
SAPA_PROFIL
 62
     4
 10
16.583706161272119
 20
84.699999928368186
 30
0.0
 42
0.414213562374094
  0
VERTEX
  5
1651
  8
SAPA_PROFIL
 62
     4
 10
17.78370616127626
 20
83.499999928369263
 30
0.0
  0
VERTEX
  5
1652
  8
SAPA_PROFIL
 62
     4
 10
43.581441188198092
 20
83.499999928458408
 30
0.0
 42
-0.4142135623730951
  0
VERTEX
  5
1653
  8
SAPA_PROFIL
 62
     4
 10
44.081441188198092
 20
82.999999928458394
 30
0.0
  0
VERTEX
  5
1654
  8
SAPA_PROFIL
 62
     4
 10
44.081441188198319
 20
82.799999928458575
 30
0.0
 42
-0.4142135623730951
  0
VERTEX
  5
1655
  8
SAPA_PROFIL
 62
     4
 10
43.781441188198151
 20
82.499999928458408
 30
0.0
  0
VERTEX
  5
1656
  8
SAPA_PROFIL
 62
     4
 10
43.131441188196241
 20
82.499999928458408
 30
0.0
 42
0.4142135623730951
  0
VERTEX
  5
1657
  8
SAPA_PROFIL
 62
     4
 10
42.831441188196273
 20
82.199999928457316
 30
0.0
  0
VERTEX
  5
1658
  8
SAPA_PROFIL
 62
     4
 10
42.831441188197182
 20
81.299999928461318
 30
0.0
 42
0.4142135623730951
  0
VERTEX
  5
1659
  8
SAPA_PROFIL
 62
     4
 10
43.331441188196258
 20
80.799999928461304
 30
0.0
  0
VERTEX
  5
165A
  8
SAPA_PROFIL
 62
     4
 10
49.331441188198099
 20
80.799999928461304
 30
0.0
 42
0.4142135623730951
  0
VERTEX
  5
165B
  8
SAPA_PROFIL
 62
     4
 10
49.831441188198113
 20
81.299999928461318
 30
0.0
  0
VERTEX
  5
165C
  8
SAPA_PROFIL
 62
     4
 10
49.831441188198113
 20
82.199999928460045
 30
0.0
 42
0.4142135623710974
  0
VERTEX
  5
165D
  8
SAPA_PROFIL
 62
     4
 10
49.531441188200183
 20
82.499999928459317
 30
0.0
  0
VERTEX
  5
165E
  8
SAPA_PROFIL
 62
     4
 10
48.881441188198288
 20
82.499999928463865
 30
0.0
 42
-0.4142135623730951
  0
VERTEX
  5
165F
  8
SAPA_PROFIL
 62
     4
 10
48.581441188200117
 20
82.799999928465866
 30
0.0
  0
VERTEX
  5
1660
  8
SAPA_PROFIL
 62
     4
 10
48.581441188201282
 20
82.999999928458394
 30
0.0
 42
-0.4142135623730951
  0
VERTEX
  5
1661
  8
SAPA_PROFIL
 62
     4
 10
49.081441188201282
 20
83.499999928458408
 30
0.0
  0
VERTEX
  5
1662
  8
SAPA_PROFIL
 62
     4
 10
52.081441188201268
 20
83.499999928458408
 30
0.0
 42
-0.4142135623730951
  0
VERTEX
  5
1663
  8
SAPA_PROFIL
 62
     4
 10
52.581441188201268
 20
82.999999928458394
 30
0.0
  0
VERTEX
  5
1664
  8
SAPA_PROFIL
 62
     4
 10
52.581441188201268
 20
82.799999928458575
 30
0.0
 42
-0.4142135623730951
  0
VERTEX
  5
1665
  8
SAPA_PROFIL
 62
     4
 10
52.281441188201093
 20
82.499999928458408
 30
0.0
  0
VERTEX
  5
1666
  8
SAPA_PROFIL
 62
     4
 10
51.631441188201237
 20
82.499999928458408
 30
0.0
 42
0.4142135623730951
  0
VERTEX
  5
1667
  8
SAPA_PROFIL
 62
     4
 10
51.331441188201268
 20
82.199999928457316
 30
0.0
  0
VERTEX
  5
1668
  8
SAPA_PROFIL
 62
     4
 10
51.331441188201268
 20
81.299999928461318
 30
0.0
 42
0.4142135623730951
  0
VERTEX
  5
1669
  8
SAPA_PROFIL
 62
     4
 10
51.831441188201268
 20
80.799999928461304
 30
0.0
  0
VERTEX
  5
166A
  8
SAPA_PROFIL
 62
     4
 10
57.831441188201246
 20
80.799999928461304
 30
0.0
 42
0.4142135623730951
  0
VERTEX
  5
166B
  8
SAPA_PROFIL
 62
     4
 10
58.331441188201268
 20
81.299999928461318
 30
0.0
  0
VERTEX
  5
166C
  8
SAPA_PROFIL
 62
     4
 10
58.331441188201268
 20
82.199999928457316
 30
0.0
 42
0.4142135623730951
  0
VERTEX
  5
166D
  8
SAPA_PROFIL
 62
     4
 10
58.031441188201079
 20
82.499999928458408
 30
0.0
  0
VERTEX
  5
166E
  8
SAPA_PROFIL
 62
     4
 10
57.381441188201208
 20
82.499999928458408
 30
0.0
 42
-0.4142135623730949
  0
VERTEX
  5
166F
  8
SAPA_PROFIL
 62
     4
 10
57.081441188201268
 20
82.799999928458575
 30
0.0
  0
VERTEX
  5
1670
  8
SAPA_PROFIL
 62
     4
 10
57.081441188201268
 20
82.999999928458394
 30
0.0
 42
-0.4142135623730951
  0
VERTEX
  5
1671
  8
SAPA_PROFIL
 62
     4
 10
57.581441188201268
 20
83.499999928458408
 30
0.0
  0
VERTEX
  5
1672
  8
SAPA_PROFIL
 62
     4
 10
59.331441188201268
 20
83.499999928457498
 30
0.0
 42
-0.4142135623726955
  0
VERTEX
  5
1673
  8
SAPA_PROFIL
 62
     4
 10
59.831441188201282
 20
82.999999928123714
 30
0.0
  0
VERTEX
  5
1674
  8
SAPA_PROFIL
 62
     4
 10
59.831441188201488
 20
69.999999928116424
 30
0.0
 42
-0.4142135623732284
  0
VERTEX
  5
1675
  8
SAPA_PROFIL
 62
     4
 10
59.33144118820308
 20
69.499999927839923
 30
0.0
  0
VERTEX
  5
1676
  8
SAPA_PROFIL
 62
     4
 10
57.58144118820308
 20
69.499999927839923
 30
0.0
 42
-0.4142135623730951
  0
VERTEX
  5
1677
  8
SAPA_PROFIL
 62
     4
 10
57.081441188203073
 20
69.999999927839937
 30
0.0
  0
VERTEX
  5
1678
  8
SAPA_PROFIL
 62
     4
 10
57.081441188203073
 20
70.199999927839755
 30
0.0
 42
-0.4142135623730951
  0
VERTEX
  5
1679
  8
SAPA_PROFIL
 62
     4
 10
57.381441188203269
 20
70.499999927839937
 30
0.0
  0
VERTEX
  5
167A
  8
SAPA_PROFIL
 62
     4
 10
58.031441188203118
 20
70.499999927839937
 30
0.0
 42
0.4142135623730951
  0
VERTEX
  5
167B
  8
SAPA_PROFIL
 62
     4
 10
58.331441188203073
 20
70.79999992783921
 30
0.0
  0
VERTEX
  5
167C
  8
SAPA_PROFIL
 62
     4
 10
58.331441188203073
 20
71.699999927837027
 30
0.0
 42
0.4142135623730951
  0
VERTEX
  5
167D
  8
SAPA_PROFIL
 62
     4
 10
57.831441188203087
 20
72.199999927837027
 30
0.0
  0
VERTEX
  5
167E
  8
SAPA_PROFIL
 62
     4
 10
51.83144118820308
 20
72.199999927837027
 30
0.0
 42
0.4142135623730951
  0
VERTEX
  5
167F
  8
SAPA_PROFIL
 62
     4
 10
51.33144118820308
 20
71.699999927837027
 30
0.0
  0
VERTEX
  5
1680
  8
SAPA_PROFIL
 62
     4
 10
51.33144118820308
 20
70.79999992783921
 30
0.0
 42
0.4142135623730953
  0
VERTEX
  5
1681
  8
SAPA_PROFIL
 62
     4
 10
51.631441188203262
 20
70.499999927839937
 30
0.0
  0
VERTEX
  5
1682
  8
SAPA_PROFIL
 62
     4
 10
52.281441188203132
 20
70.499999927839937
 30
0.0
 42
-0.4142135623730951
  0
VERTEX
  5
1683
  8
SAPA_PROFIL
 62
     4
 10
52.58144118820308
 20
70.199999927839755
 30
0.0
  0
VERTEX
  5
1684
  8
SAPA_PROFIL
 62
     4
 10
52.58144118820308
 20
69.999999927839937
 30
0.0
 42
-0.4142135623730951
  0
VERTEX
  5
1685
  8
SAPA_PROFIL
 62
     4
 10
52.081441188203087
 20
69.499999927839923
 30
0.0
  0
VERTEX
  5
1686
  8
SAPA_PROFIL
 62
     4
 10
49.081441188203087
 20
69.499999927839923
 30
0.0
 42
-0.4142135623730951
  0
VERTEX
  5
1687
  8
SAPA_PROFIL
 62
     4
 10
48.581441188203087
 20
69.999999927839937
 30
0.0
  0
VERTEX
  5
1688
  8
SAPA_PROFIL
 62
     4
 10
48.58144118820195
 20
70.199999927832465
 30
0.0
 42
-0.414213562372873
  0
VERTEX
  5
1689
  8
SAPA_PROFIL
 62
     4
 10
48.881441188200078
 20
70.49999992783448
 30
0.0
  0
VERTEX
  5
168A
  8
SAPA_PROFIL
 62
     4
 10
49.531441188201093
 20
70.499999927837209
 30
0.0
 42
0.4142135623722071
  0
VERTEX
  5
168B
  8
SAPA_PROFIL
 62
     4
 10
49.83144118820011
 20
70.7999999278383
 30
0.0
  0
VERTEX
  5
168C
  8
SAPA_PROFIL
 62
     4
 10
49.83144118820011
 20
71.699999927837027
 30
0.0
 42
0.4142135623730951
  0
VERTEX
  5
168D
  8
SAPA_PROFIL
 62
     4
 10
49.331441188200138
 20
72.199999927837027
 30
0.0
  0
VERTEX
  5
168E
  8
SAPA_PROFIL
 62
     4
 10
43.331441188198077
 20
72.199999927829751
 30
0.0
 42
0.4142135623730951
  0
VERTEX
  5
168F
  8
SAPA_PROFIL
 62
     4
 10
42.831441188198077
 20
71.699999927829751
 30
0.0
  0
VERTEX
  5
1690
  8
SAPA_PROFIL
 62
     4
 10
42.831441188198077
 20
70.799999927832843
 30
0.0
 42
0.4142135623730951
  0
VERTEX
  5
1691
  8
SAPA_PROFIL
 62
     4
 10
43.131441188198274
 20
70.499999927832661
 30
0.0
  0
VERTEX
  5
1692
  8
SAPA_PROFIL
 62
     4
 10
43.781441188200169
 20
70.499999927832661
 30
0.0
 42
-0.4142135623730951
  0
VERTEX
  5
1693
  8
SAPA_PROFIL
 62
     4
 10
44.081441188200138
 20
70.199999927832465
 30
0.0
  0
VERTEX
  5
1694
  8
SAPA_PROFIL
 62
     4
 10
44.081441188200138
 20
69.999999927832661
 30
0.0
 42
-0.4142135623730951
  0
VERTEX
  5
1695
  8
SAPA_PROFIL
 62
     4
 10
43.581441188200131
 20
69.499999927832661
 30
0.0
  0
VERTEX
  5
1696
  8
SAPA_PROFIL
 62
     4
 10
17.78370616127625
 20
69.49999992791453
 30
0.0
 42
0.414213562374094
  0
VERTEX
  5
1697
  8
SAPA_PROFIL
 62
     4
 10
16.583706161272339
 20
68.299999927914712
 30
0.0
  0
VERTEX
  5
1698
  8
SAPA_PROFIL
 62
     4
 10
16.583706161272112
 20
65.571518577834624
 30
0.0
  0
SEQEND
  5
1699
  8
SAPA_PROFIL
 62
     4
  0
POLYLINE
  5
ED4
  8
SAPA_PROFIL
 62
     4
 66
     1
 10
0.0
 20
0.0
 30
0.0
 70
     1
  0
VERTEX
  5
169A
  8
SAPA_PROFIL
 62
     4
 10
41.547179717682589
 20
73.199999995879963
 30
0.0
  0
VERTEX
  5
169B
  8
SAPA_PROFIL
 62
     4
 10
41.547179717678489
 20
80.699999996438393
 30
0.0
 42
0.4142135623730951
  0
VERTEX
  5
169C
  8
SAPA_PROFIL
 62
     4
 10
40.547179717678489
 20
81.699999996438393
 30
0.0
  0
VERTEX
  5
169D
  8
SAPA_PROFIL
 62
     4
 10
17.399444690754699
 20
81.699999996453869
 30
0.0
 42
0.4142135623730949
  0
VERTEX
  5
169E
  8
SAPA_PROFIL
 62
     4
 10
16.59944469075452
 20
80.899999996453687
 30
0.0
  0
VERTEX
  5
169F
  8
SAPA_PROFIL
 62
     4
 10
16.59944469075452
 20
72.099999995935093
 30
0.0
 42
0.414213562373428
  0
VERTEX
  5
16A0
  8
SAPA_PROFIL
 62
     4
 10
17.399444690755612
 20
71.299999995934911
 30
0.0
  0
VERTEX
  5
16A1
  8
SAPA_PROFIL
 62
     4
 10
40.547179717682589
 20
71.299999995958544
 30
0.0
 42
0.4142135623724957
  0
VERTEX
  5
16A2
  8
SAPA_PROFIL
 62
     4
 10
41.54717971768055
 20
72.299999995957634
 30
0.0
  0
SEQEND
  5
16A3
  8
SAPA_PROFIL
 62
     4
  0
POLYLINE
  5
ED5
  8
SAPA_PROFIL
 66
     1
 10
0.0
 20
0.0
 30
0.0
 70
     1
  0
VERTEX
  5
16A4
  8
SAPA_PROFIL
 10
60.000000000001563
 20
138.4999999277415
 30
0.0
  0
VERTEX
  5
16A5
  8
SAPA_PROFIL
 10
59.999999999997932
 20
133.4999999277415
 30
0.0
 42
-0.4142135623730951
  0
VERTEX
  5
16A6
  8
SAPA_PROFIL
 10
58.999999999997918
 20
132.4999999277415
 30
0.0
  0
VERTEX
  5
16A7
  8
SAPA_PROFIL
 10
48.9999999999986
 20
132.49999992774869
 30
0.0
 42
-0.4142135623730951
  0
VERTEX
  5
16A8
  8
SAPA_PROFIL
 10
47.999999999998607
 20
133.4999999277415
 30
0.0
  0
VERTEX
  5
16A9
  8
SAPA_PROFIL
 10
47.999999999998607
 20
135.24999992777791
 30
0.0
 42
0.9999999999999998
  0
VERTEX
  5
16AA
  8
SAPA_PROFIL
 10
46.499999999991338
 20
135.24999992777791
 30
0.0
  0
VERTEX
  5
16AB
  8
SAPA_PROFIL
 10
46.499999999987693
 20
133.49999992774869
 30
0.0
 42
0.4142135623730951
  0
VERTEX
  5
16AC
  8
SAPA_PROFIL
 10
48.999999999991338
 20
130.9999999277415
 30
0.0
  0
VERTEX
  5
16AD
  8
SAPA_PROFIL
 10
58.799999999997198
 20
130.9999999277415
 30
0.0
 42
-0.4142135623730951
  0
VERTEX
  5
16AE
  8
SAPA_PROFIL
 10
59.799999999997191
 20
129.9999999277415
 30
0.0
  0
VERTEX
  5
16AF
  8
SAPA_PROFIL
 10
59.799999999997212
 20
85.749999928447266
 30
0.0
 42
-0.4142135623730951
  0
VERTEX
  5
16B0
  8
SAPA_PROFIL
 10
59.299999999997212
 20
85.249999928447281
 30
0.0
  0
VERTEX
  5
16B1
  8
SAPA_PROFIL
 10
41.499999999994301
 20
85.249999928444353
 30
0.0
 42
0.8390996311761574
  0
VERTEX
  5
16B2
  8
SAPA_PROFIL
 10
41.397393956996652
 20
84.668092142207499
 30
0.0
  0
VERTEX
  5
16B3
  8
SAPA_PROFIL
 10
47.697393956995583
 20
82.375079666322932
 30
0.0
 42
0.4663076581554896
  0
VERTEX
  5
16B4
  8
SAPA_PROFIL
 10
48.095442325897451
 20
82.604892999260244
 30
0.0
  0
VERTEX
  5
16B5
  8
SAPA_PROFIL
 10
48.22450151239299
 20
83.336824017273955
 30
0.0
 42
-0.3639702342659115
  0
VERTEX
  5
16B6
  8
SAPA_PROFIL
 10
48.716905388899001
 20
83.749999928439991
 30
0.0
  0
VERTEX
  5
16B7
  8
SAPA_PROFIL
 10
59.499999999997939
 20
83.749999928447266
 30
0.0
 42
-0.4142135623730951
  0
VERTEX
  5
16B8
  8
SAPA_PROFIL
 10
59.999999999997932
 20
83.249999928447266
 30
0.0
  0
VERTEX
  5
16B9
  8
SAPA_PROFIL
 10
59.999999999990663
 20
69.999999927756051
 30
0.0
 42
0.4142135623730951
  0
VERTEX
  5
16BA
  8
SAPA_PROFIL
 10
60.499999999994301
 20
69.499999927756051
 30
0.0
 42
0.4142135623730951
  0
VERTEX
  5
16BB
  8
SAPA_PROFIL
 10
61.499999999994301
 20
70.499999927756051
 30
0.0
  0
VERTEX
  5
16BC
  8
SAPA_PROFIL
 10
61.499999999997918
 20
137.9999999277415
 30
0.0
 42
0.4142135623730951
  0
VERTEX
  5
16BD
  8
SAPA_PROFIL
 10
60.499999999997918
 20
138.9999999277415
 30
0.0
 42
0.4142135623730951
  0
SEQEND
  5
16BE
  8
SAPA_PROFIL
  0
LINE
  5
EF8
  8
SAPA_GLAS
 10
85.000000000003496
 20
62.199999999065788
 30
0.0
 11
84.497222039652755
 21
62.288653318777413
 31
0.0
  0
LINE
  5
EF9
  8
SAPA_GLAS
 10
83.013030214898365
 20
58.190461068432278
 30
0.0
 11
83.013030214898365
 21
57.99999999955434
 31
0.0
  0
ARC
  5
EFA
  8
SAPA_GLAS
 10
99.58466937281473
 20
59.999999999556152
 30
0.0
 40
9.9869792597787779
 50
168.4477923542679
 51
191.5522076457321
  0
LINE
  5
EFB
  8
SAPA_GLAS
 10
85.000000000003496
 20
25.800000000042569
 30
0.0
 11
84.497222039652755
 21
25.711346680330958
 31
0.0
  0
LINE
  5
EFC
  8
SAPA_GLAS
 10
83.013030214898365
 20
29.80953893067608
 30
0.0
 11
83.013030214898365
 21
29.999999999554021
 31
0.0
  0
ARC
  5
EFD
  8
SAPA_GLAS
 10
99.58466937281473
 20
27.999999999552202
 30
0.0
 40
9.9869792597787779
 50
168.4477923542677
 51
191.5522076457323
  0
POLYLINE
  5
EFE
  8
SAPA_GLAS
 66
     1
 10
0.0
 20
0.0
 30
0.0
 70
     1
  0
VERTEX
  5
1725
  8
SAPA_GLAS
 10
82.239527733589654
 20
58.122788369993167
 30
0.0
 42
0.1316524975872964
  0
VERTEX
  5
1726
  8
SAPA_GLAS
 10
83.013030215079027
 20
58.190461068330272
 30
0.0
  0
VERTEX
  5
1727
  8
SAPA_GLAS
 10
84.530153689703155
 20
58.742648854781791
 30
0.0
 42
0.4142135623734131
  0
VERTEX
  5
1728
  8
SAPA_GLAS
 10
84.828989928437494
 20
59.383505236834893
 30
0.0
  0
VERTEX
  5
1729
  8
SAPA_GLAS
 10
84.760585899772906
 20
59.571443760994498
 30
0.0
 42
0.4142135623732762
  0
VERTEX
  5
172A
  8
SAPA_GLAS
 10
84.376072070539408
 20
59.750745504238672
 30
0.0
  0
VERTEX
  5
172B
  8
SAPA_GLAS
 10
84.352858613221514
 20
59.742296496730297
 30
0.0
 42
-0.5773502691875974
  0
VERTEX
  5
172C
  8
SAPA_GLAS
 10
84.087493033955184
 20
59.964964656426858
 30
0.0
  0
VERTEX
  5
172D
  8
SAPA_GLAS
 10
84.848510556432061
 20
64.280909495923765
 30
0.0
 42
0.4142135623736183
  0
VERTEX
  5
172E
  8
SAPA_GLAS
 10
84.605162683830741
 20
64.628446275119956
 30
0.0
  0
VERTEX
  5
172F
  8
SAPA_GLAS
 10
84.211239582628565
 20
64.697905546190071
 30
0.0
 42
0.4142135623730951
  0
VERTEX
  5
1730
  8
SAPA_GLAS
 10
83.863702803423394
 20
64.454557673592916
 30
0.0
  0
VERTEX
  5
1731
  8
SAPA_GLAS
 10
82.992403876606076
 20
59.513175910671521
 30
0.0
 42
-0.4142135623725704
  0
VERTEX
  5
1732
  8
SAPA_GLAS
 10
82.413175911264673
 20
59.107596123006651
 30
0.0
  0
VERTEX
  5
1733
  8
SAPA_GLAS
 10
75.586824088937604
 20
60.311266129139511
 30
0.0
 42
0.4663076581553405
  0
VERTEX
  5
1734
  8
SAPA_GLAS
 10
75.000000000100513
 20
59.818862252633899
 30
0.0
  0
VERTEX
  5
1735
  8
SAPA_GLAS
 10
74.999999999899103
 20
28.18113774647448
 30
0.0
 42
0.4663076581553401
  0
VERTEX
  5
1736
  8
SAPA_GLAS
 10
75.586824088729983
 20
27.688733869964729
 30
0.0
  0
VERTEX
  5
1737
  8
SAPA_GLAS
 10
82.413175911072315
 20
28.89240387600735
 30
0.0
 42
-0.4142135623725707
  0
VERTEX
  5
1738
  8
SAPA_GLAS
 10
82.992403876408574
 20
28.486824088335091
 30
0.0
  0
VERTEX
  5
1739
  8
SAPA_GLAS
 10
83.863702803162965
 20
23.545442325402611
 30
0.0
 42
0.4142135623730951
  0
VERTEX
  5
173A
  8
SAPA_GLAS
 10
84.211239582365039
 20
23.302094452801018
 30
0.0
  0
VERTEX
  5
173B
  8
SAPA_GLAS
 10
84.605162683568082
 20
23.371553723866139
 30
0.0
 42
0.4142135623736183
  0
VERTEX
  5
173C
  8
SAPA_GLAS
 10
84.848510556173849
 20
23.719090503059199
 30
0.0
  0
VERTEX
  5
173D
  8
SAPA_GLAS
 10
84.087493033751912
 20
28.035035342565809
 30
0.0
 42
-0.5773502691875974
  0
VERTEX
  5
173E
  8
SAPA_GLAS
 10
84.352858613021084
 20
28.257703502259002
 30
0.0
  0
VERTEX
  5
173F
  8
SAPA_GLAS
 10
84.376072070338878
 20
28.249254494750321
 30
0.0
 42
0.4142135623732762
  0
VERTEX
  5
1740
  8
SAPA_GLAS
 10
84.760585899574636
 20
28.428556237989611
 30
0.0
  0
VERTEX
  5
1741
  8
SAPA_GLAS
 10
84.82898992824164
 20
28.61649476214836
 30
0.0
 42
0.4142135623734131
  0
VERTEX
  5
1742
  8
SAPA_GLAS
 10
84.530153689515444
 20
29.257351144205241
 30
0.0
  0
VERTEX
  5
1743
  8
SAPA_GLAS
 10
83.013030214898365
 20
29.80953893067608
 30
0.0
 42
0.1316524975872963
  0
VERTEX
  5
1744
  8
SAPA_GLAS
 10
82.239527733409815
 20
29.87721162902303
 30
0.0
  0
VERTEX
  5
1745
  8
SAPA_GLAS
 10
76.234729635437134
 20
28.81840371069574
 30
0.0
 42
-0.4663076581547951
  0
VERTEX
  5
1746
  8
SAPA_GLAS
 10
75.999999999905143
 20
29.015365261299689
 30
0.0
  0
VERTEX
  5
1747
  8
SAPA_GLAS
 10
76.000000000095923
 20
58.98463473779595
 30
0.0
 42
-0.466307658154795
  0
VERTEX
  5
1748
  8
SAPA_GLAS
 10
76.23472963563043
 20
59.181596288396918
 30
0.0
  0
SEQEND
  5
1749
  8
SAPA_GLAS
  0
POLYLINE
  5
EFF
  8
SAPA_GLAS
 66
     1
 10
0.0
 20
0.0
 30
0.0
  0
VERTEX
  5
174A
  8
SAPA_GLAS
 10
108.9999999999998
 20
29.999999999554031
 30
0.0
  0
VERTEX
  5
174B
  8
SAPA_GLAS
 10
76.999999999999787
 20
29.999999999554021
 30
0.0
  0
VERTEX
  5
174C
  8
SAPA_GLAS
 10
76.999999999999787
 20
33.999999999554021
 30
0.0
  0
VERTEX
  5
174D
  8
SAPA_GLAS
 10
108.9999999999998
 20
33.999999999554021
 30
0.0
  0
SEQEND
  5
174E
  8
SAPA_GLAS
  0
POLYLINE
  5
F00
  8
SAPA_GLAS
 66
     1
 10
0.0
 20
0.0
 30
0.0
  0
VERTEX
  5
174F
  8
SAPA_GLAS
 10
86.999999999999787
 20
53.999999999554177
 30
0.0
  0
VERTEX
  5
1750
  8
SAPA_GLAS
 10
86.999999999999787
 20
33.999999999554191
 30
0.0
  0
VERTEX
  5
1751
  8
SAPA_GLAS
 10
76.999999999999787
 20
33.999999999554191
 30
0.0
  0
VERTEX
  5
1752
  8
SAPA_GLAS
 10
76.999999999999801
 20
53.999999999554191
 30
0.0
  0
VERTEX
  5
1753
  8
SAPA_GLAS
 10
86.999999999999787
 20
53.999999999554177
 30
0.0
  0
SEQEND
  5
1754
  8
SAPA_GLAS
  0
POLYLINE
  5
F01
  8
SAPA_GLAS
 66
     1
 10
0.0
 20
0.0
 30
0.0
  0
VERTEX
  5
1755
  8
SAPA_GLAS
 10
108.9999999999998
 20
57.99999999955417
 30
0.0
  0
VERTEX
  5
1756
  8
SAPA_GLAS
 10
76.999999999999801
 20
57.999999999554191
 30
0.0
  0
VERTEX
  5
1757
  8
SAPA_GLAS
 10
76.999999999999801
 20
53.999999999554191
 30
0.0
  0
VERTEX
  5
1758
  8
SAPA_GLAS
 10
108.9999999999998
 20
53.999999999554177
 30
0.0
  0
SEQEND
  5
1759
  8
SAPA_GLAS
  0
INSERT
  5
F02
  8
SAPA_GLAS
  6
CONTINUOUS
  2
*X48
 10
0.0
 20
0.0
 30
0.0
1001
ACAD
1000
HATCH
1002
{
1070
    19
1000
ANSI37
1040
0.25
1040
1.5707963267948959
1000
R14_HATCH_DATA
1000
F02
1011
1.0
1021
0.0
1031
0.0
1021
0.0
1031
0.0
1011
0.0
1021
0.0
1031
0.0
1021
1.0
1031
0.0
1011
0.0
1021
0.0
1031
0.0
1021
0.0
1031
1.0
1040
0.0
1010
0.0
1020
0.0
1030
1.0
1000
ANSI37
1070
     0
1070
     0
1071
        1
1071
        7
1070
     1
1070
     1
1071
       21
1040
89.800000000002811
1040
57.999999999554177
1040
-0.1011549434925542
1040
89.800000000075855
1040
61.999999999915502
1040
0.0
1040
88.700000000004167
1040
61.999999999908219
1040
-0.4142135623731029
1040
88.500000000003439
1040
62.199999999905302
1040
0.0
1040
88.500000000014339
1040
62.999999999908219
1040
0.4142135623730951
1040
88.000000000014367
1040
63.499999999908219
1040
0.0
1040
87.000000000003425
1040
63.499999999428027
1040
0.414213562373094
1040
86.500000000003439
1040
62.999999999428027
1040
0.0
1040
86.500000000003439
1040
62.199999999417841
1040
-0.4142135623731048
1040
86.300000000002697
1040
61.999999999428042
1040
0.0
1040
85.200000000004167
1040
61.999999999428042
1040
-0.4142135618575339
1040
85.000000000003439
1040
62.199999999065803
1040
0.0
1040
84.497222039899256
1040
62.288653318733928
1040
0.0
1040
84.087493033955184
1040
59.964964656426858
1040
0.5773502691875974
1040
84.352858613221514
1040
59.742296496730297
1040
0.0
1040
84.376072070539408
1040
59.750745504238672
1040
-0.4142135623732763
1040
84.760585899772906
1040
59.571443760994498
1040
0.0
1040
84.828989928437494
1040
59.383505236834893
1040
-0.4142135623734132
1040
84.530153689703155
1040
58.742648854781791
1040
0.0
1040
83.013030214898365
1040
58.190461068264518
1040
0.0
1040
83.013030214898365
1040
57.999999999554191
1040
0.0
1071
        0
1070
     0
1070
     1
1040
1.5707963267948959
1040
0.25
1070
     0
1070
     2
1040
2.3561944901923439
1040
90.000000000003439
1040
20.50000000000011
1040
-0.5612660075668221
1040
-0.5612660075668221
1070
     0
1040
3.926990816987241
1040
90.000000000003439
1040
20.50000000000011
1040
0.5612660075668221
1040
-0.5612660075668221
1070
     0
1040
0.0554184978666472
1071
        1
1040
87.385192219498862
1040
60.022530012564161
1040
0.0
1002
}
  0
INSERT
  5
F03
  8
SAPA_GLAS
  6
CONTINUOUS
  2
*X49
 10
0.0
 20
0.0
 30
0.0
1001
ACAD
1000
HATCH
1002
{
1070
    19
1000
ANSI37
1040
0.25
1040
1.5707963267948959
1000
R14_HATCH_DATA
1000
F03
1011
1.0
1021
0.0
1031
0.0
1021
0.0
1031
0.0
1011
0.0
1021
0.0
1031
0.0
1021
1.0
1031
0.0
1011
0.0
1021
0.0
1031
0.0
1021
0.0
1031
1.0
1040
0.0
1010
0.0
1020
0.0
1030
1.0
1000
ANSI37
1070
     0
1070
     0
1071
        1
1071
        7
1070
     1
1070
     1
1071
       21
1040
83.013030214898365
1040
29.999999999554021
1040
0.0
1040
83.013030214898365
1040
29.80953893067608
1040
0.0
1040
84.530153689515444
1040
29.257351144205241
1040
-0.4142135623734131
1040
84.82898992824164
1040
28.61649476214836
1040
0.0
1040
84.760585899574636
1040
28.428556237989611
1040
-0.4142135623732763
1040
84.376072070338878
1040
28.249254494750321
1040
0.0
1040
84.352858613021084
1040
28.257703502259002
1040
0.5773502691875974
1040
84.087493033751912
1040
28.035035342565809
1040
0.0
1040
84.497222039652755
1040
25.711346680330958
1040
0.0
1040
85.000000000003496
1040
25.800000000042569
1040
-0.4142135623811048
1040
85.200000000004223
1040
26.000000000037851
1040
0.0
1040
86.300000000002768
1040
26.000000000037851
1040
-0.4142135623731048
1040
86.500000000003496
1040
25.800000000048041
1040
0.0
1040
86.500000000003496
1040
25.000000000037851
1040
0.414213562373094
1040
87.000000000003496
1040
24.500000000037851
1040
0.0
1040
88.000000000014424
1040
24.499999999557669
1040
0.4142135623730951
1040
88.500000000014424
1040
24.999999999557669
1040
0.0
1040
88.500000000003496
1040
25.79999999956058
1040
-0.4142135623731029
1040
88.700000000004209
1040
25.999999999557669
1040
0.0
1040
89.800000000002797
1040
25.99999999955039
1040
-0.101154943483322
1040
89.800000000002797
1040
29.999999999554021
1040
0.0
1071
        0
1070
     0
1070
     1
1040
1.5707963267948959
1040
0.25
1070
     0
1070
     2
1040
2.3561944901923439
1040
90.000000000003439
1040
20.50000000000011
1040
-0.5612660075668221
1040
-0.5612660075668221
1070
     0
1040
3.926990816987241
1040
90.000000000003439
1040
20.50000000000011
1040
0.5612660075668221
1040
-0.5612660075668221
1070
     0
1040
0.0245236365555031
1071
        1
1040
86.809426762816358
1040
28.057018522985111
1040
0.0
1002
}
  0
POLYLINE
  5
F1E
  8
SAPA_FOGBAND
 66
     1
 10
0.0
 20
0.0
 30
0.0
 70
     1
  0
VERTEX
  5
1839
  8
SAPA_FOGBAND
 10
49.649999999982327
 20
16.250000000010321
 30
0.0
  0
VERTEX
  5
183A
  8
SAPA_FOGBAND
 10
49.649999999982327
 20
17.050000000010488
 30
0.0
  0
VERTEX
  5
183B
  8
SAPA_FOGBAND
 10
43.349999999985243
 20
17.050000000010499
 30
0.0
  0
VERTEX
  5
183C
  8
SAPA_FOGBAND
 10
43.349999999985243
 20
16.250000000010321
 30
0.0
  0
SEQEND
  5
183D
  8
SAPA_FOGBAND
  0
POLYLINE
  5
F1F
  8
SAPA_FOGBAND
 66
     1
 10
0.0
 20
0.0
 30
0.0
  0
VERTEX
  5
183E
  8
SAPA_FOGBAND
 10
44.927310396842742
 20
17.050000000010499
 30
0.0
  0
VERTEX
  5
183F
  8
SAPA_FOGBAND
 10
43.801863799526807
 20
20.500000000010321
 30
0.0
  0
VERTEX
  5
1840
  8
SAPA_FOGBAND
 10
46.240001846075359
 20
20.500000000010321
 30
0.0
  0
VERTEX
  5
1841
  8
SAPA_FOGBAND
 10
46.34999999998233
 20
17.050000000010499
 30
0.0
  0
SEQEND
  5
1842
  8
SAPA_FOGBAND
  0
POLYLINE
  5
F20
  8
SAPA_FOGBAND
 66
     1
 10
0.0
 20
0.0
 30
0.0
  0
VERTEX
  5
1843
  8
SAPA_FOGBAND
 10
46.424999999983058
 20
17.050000000010499
 30
0.0
  0
VERTEX
  5
1844
  8
SAPA_FOGBAND
 10
46.424999999986333
 20
20.500000000010321
 30
0.0
  0
VERTEX
  5
1845
  8
SAPA_FOGBAND
 10
46.57499999998452
 20
20.500000000010321
 30
0.0
  0
VERTEX
  5
1846
  8
SAPA_FOGBAND
 10
46.574999999984513
 20
17.050000000010499
 30
0.0
  0
SEQEND
  5
1847
  8
SAPA_FOGBAND
  0
POLYLINE
  5
F21
  8
SAPA_FOGBAND
 66
     1
 10
0.0
 20
0.0
 30
0.0
  0
VERTEX
  5
1848
  8
SAPA_FOGBAND
 10
46.649999999985234
 20
17.050000000010488
 30
0.0
  0
VERTEX
  5
1849
  8
SAPA_FOGBAND
 10
46.759997385167487
 20
20.500000000010321
 30
0.0
  0
VERTEX
  5
184A
  8
SAPA_FOGBAND
 10
49.198090725589651
 20
20.500000000010321
 30
0.0
  0
VERTEX
  5
184B
  8
SAPA_FOGBAND
 10
48.072689603124829
 20
17.050000000010499
 30
0.0
  0
SEQEND
  5
184C
  8
SAPA_FOGBAND
  0
POLYLINE
  5
F22
  8
SAPA_FOGBAND
 66
     1
 10
0.0
 20
0.0
 30
0.0
 70
     1
  0
VERTEX
  5
184D
  8
SAPA_FOGBAND
 10
58.149999999996879
 20
16.250000000010321
 30
0.0
  0
VERTEX
  5
184E
  8
SAPA_FOGBAND
 10
58.149999999996879
 20
17.050000000010488
 30
0.0
  0
VERTEX
  5
184F
  8
SAPA_FOGBAND
 10
51.849999999999802
 20
17.050000000010499
 30
0.0
  0
VERTEX
  5
1850
  8
SAPA_FOGBAND
 10
51.849999999999802
 20
16.250000000010321
 30
0.0
  0
SEQEND
  5
1851
  8
SAPA_FOGBAND
  0
POLYLINE
  5
F23
  8
SAPA_FOGBAND
 66
     1
 10
0.0
 20
0.0
 30
0.0
  0
VERTEX
  5
1852
  8
SAPA_FOGBAND
 10
53.427310396857287
 20
17.050000000010499
 30
0.0
  0
VERTEX
  5
1853
  8
SAPA_FOGBAND
 10
52.301863799541373
 20
20.500000000010321
 30
0.0
  0
VERTEX
  5
1854
  8
SAPA_FOGBAND
 10
54.74000184608991
 20
20.500000000010321
 30
0.0
  0
VERTEX
  5
1855
  8
SAPA_FOGBAND
 10
54.849999999996882
 20
17.050000000010499
 30
0.0
  0
SEQEND
  5
1856
  8
SAPA_FOGBAND
  0
POLYLINE
  5
F24
  8
SAPA_FOGBAND
 66
     1
 10
0.0
 20
0.0
 30
0.0
  0
VERTEX
  5
1857
  8
SAPA_FOGBAND
 10
54.92499999999761
 20
17.050000000010499
 30
0.0
  0
VERTEX
  5
1858
  8
SAPA_FOGBAND
 10
54.925000000000878
 20
20.500000000010321
 30
0.0
  0
VERTEX
  5
1859
  8
SAPA_FOGBAND
 10
55.074999999999072
 20
20.500000000010321
 30
0.0
  0
VERTEX
  5
185A
  8
SAPA_FOGBAND
 10
55.074999999999072
 20
17.050000000010499
 30
0.0
  0
SEQEND
  5
185B
  8
SAPA_FOGBAND
  0
POLYLINE
  5
F25
  8
SAPA_FOGBAND
 66
     1
 10
0.0
 20
0.0
 30
0.0
  0
VERTEX
  5
185C
  8
SAPA_FOGBAND
 10
55.149999999999793
 20
17.050000000010488
 30
0.0
  0
VERTEX
  5
185D
  8
SAPA_FOGBAND
 10
55.259997385182039
 20
20.500000000010321
 30
0.0
  0
VERTEX
  5
185E
  8
SAPA_FOGBAND
 10
57.698090725604203
 20
20.500000000010321
 30
0.0
  0
VERTEX
  5
185F
  8
SAPA_FOGBAND
 10
56.572689603139381
 20
17.050000000010499
 30
0.0
  0
SEQEND
  5
1860
  8
SAPA_FOGBAND
  0
POLYLINE
  5
F26
  8
SAPA_FOGBAND
 66
     1
 10
0.0
 20
0.0
 30
0.0
 70
     1
  0
VERTEX
  5
1861
  8
SAPA_FOGBAND
 10
49.431441188146572
 20
71.749999999672653
 30
0.0
  0
VERTEX
  5
1862
  8
SAPA_FOGBAND
 10
49.431441188146572
 20
70.949999999672471
 30
0.0
  0
VERTEX
  5
1863
  8
SAPA_FOGBAND
 10
43.131441188149488
 20
70.949999999672471
 30
0.0
  0
VERTEX
  5
1864
  8
SAPA_FOGBAND
 10
43.131441188149488
 20
71.749999999672653
 30
0.0
  0
SEQEND
  5
1865
  8
SAPA_FOGBAND
  0
POLYLINE
  5
F27
  8
SAPA_FOGBAND
 66
     1
 10
0.0
 20
0.0
 30
0.0
  0
VERTEX
  5
1866
  8
SAPA_FOGBAND
 10
44.708751585006993
 20
70.949999999672471
 30
0.0
  0
VERTEX
  5
1867
  8
SAPA_FOGBAND
 10
43.583304987691072
 20
67.499999999672653
 30
0.0
  0
VERTEX
  5
1868
  8
SAPA_FOGBAND
 10
46.02144303423961
 20
67.499999999672653
 30
0.0
  0
VERTEX
  5
1869
  8
SAPA_FOGBAND
 10
46.131441188146582
 20
70.949999999672471
 30
0.0
  0
SEQEND
  5
186A
  8
SAPA_FOGBAND
  0
POLYLINE
  5
F28
  8
SAPA_FOGBAND
 66
     1
 10
0.0
 20
0.0
 30
0.0
  0
VERTEX
  5
186B
  8
SAPA_FOGBAND
 10
46.206441188147302
 20
70.949999999672471
 30
0.0
  0
VERTEX
  5
186C
  8
SAPA_FOGBAND
 10
46.206441188150578
 20
67.499999999672653
 30
0.0
  0
VERTEX
  5
186D
  8
SAPA_FOGBAND
 10
46.356441188148771
 20
67.499999999672653
 30
0.0
  0
VERTEX
  5
186E
  8
SAPA_FOGBAND
 10
46.356441188148757
 20
70.949999999672471
 30
0.0
  0
SEQEND
  5
186F
  8
SAPA_FOGBAND
  0
POLYLINE
  5
F29
  8
SAPA_FOGBAND
 66
     1
 10
0.0
 20
0.0
 30
0.0
  0
VERTEX
  5
1870
  8
SAPA_FOGBAND
 10
46.431441188149492
 20
70.949999999672471
 30
0.0
  0
VERTEX
  5
1871
  8
SAPA_FOGBAND
 10
46.541438573331732
 20
67.499999999672653
 30
0.0
  0
VERTEX
  5
1872
  8
SAPA_FOGBAND
 10
48.979531913753902
 20
67.499999999672653
 30
0.0
  0
VERTEX
  5
1873
  8
SAPA_FOGBAND
 10
47.85413079128908
 20
70.949999999672471
 30
0.0
  0
SEQEND
  5
1874
  8
SAPA_FOGBAND
  0
POLYLINE
  5
F2A
  8
SAPA_FOGBAND
 66
     1
 10
0.0
 20
0.0
 30
0.0
 70
     1
  0
VERTEX
  5
1875
  8
SAPA_FOGBAND
 10
57.931441188161131
 20
71.749999999672653
 30
0.0
  0
VERTEX
  5
1876
  8
SAPA_FOGBAND
 10
57.931441188161131
 20
70.949999999672471
 30
0.0
  0
VERTEX
  5
1877
  8
SAPA_FOGBAND
 10
51.63144118816404
 20
70.949999999672471
 30
0.0
  0
VERTEX
  5
1878
  8
SAPA_FOGBAND
 10
51.63144118816404
 20
71.749999999672653
 30
0.0
  0
SEQEND
  5
1879
  8
SAPA_FOGBAND
  0
POLYLINE
  5
F2B
  8
SAPA_FOGBAND
 66
     1
 10
0.0
 20
0.0
 30
0.0
  0
VERTEX
  5
187A
  8
SAPA_FOGBAND
 10
53.208751585021538
 20
70.949999999672471
 30
0.0
  0
VERTEX
  5
187B
  8
SAPA_FOGBAND
 10
52.083304987705617
 20
67.499999999672653
 30
0.0
  0
VERTEX
  5
187C
  8
SAPA_FOGBAND
 10
54.521443034254162
 20
67.499999999672653
 30
0.0
  0
VERTEX
  5
187D
  8
SAPA_FOGBAND
 10
54.631441188161141
 20
70.949999999672471
 30
0.0
  0
SEQEND
  5
187E
  8
SAPA_FOGBAND
  0
POLYLINE
  5
F2C
  8
SAPA_FOGBAND
 66
     1
 10
0.0
 20
0.0
 30
0.0
  0
VERTEX
  5
187F
  8
SAPA_FOGBAND
 10
54.706441188161861
 20
70.949999999672471
 30
0.0
  0
VERTEX
  5
1880
  8
SAPA_FOGBAND
 10
54.706441188165137
 20
67.499999999672653
 30
0.0
  0
VERTEX
  5
1881
  8
SAPA_FOGBAND
 10
54.856441188163323
 20
67.499999999672653
 30
0.0
  0
VERTEX
  5
1882
  8
SAPA_FOGBAND
 10
54.856441188163309
 20
70.949999999672471
 30
0.0
  0
SEQEND
  5
1883
  8
SAPA_FOGBAND
  0
POLYLINE
  5
F2D
  8
SAPA_FOGBAND
 66
     1
 10
0.0
 20
0.0
 30
0.0
  0
VERTEX
  5
1884
  8
SAPA_FOGBAND
 10
54.931441188164037
 20
70.949999999672471
 30
0.0
  0
VERTEX
  5
1885
  8
SAPA_FOGBAND
 10
55.041438573346291
 20
67.499999999672653
 30
0.0
  0
VERTEX
  5
1886
  8
SAPA_FOGBAND
 10
57.479531913768447
 20
67.499999999672653
 30
0.0
  0
VERTEX
  5
1887
  8
SAPA_FOGBAND
 10
56.354130791303632
 20
70.949999999672471
 30
0.0
  0
SEQEND
  5
1888
  8
SAPA_FOGBAND
  0
POLYLINE
  5
F2E
  8
SAPA_FOGBAND
 66
     1
 10
0.0
 20
0.0
 30
0.0
 70
     1
  0
VERTEX
  5
1889
  8
SAPA_FOGBAND
 10
58.149999999996851
 20
136.74999992773121
 30
0.0
  0
VERTEX
  5
188A
  8
SAPA_FOGBAND
 10
58.149999999996851
 20
135.949999927731
 30
0.0
  0
VERTEX
  5
188B
  8
SAPA_FOGBAND
 10
51.849999999999767
 20
135.949999927731
 30
0.0
  0
VERTEX
  5
188C
  8
SAPA_FOGBAND
 10
51.849999999999767
 20
136.74999992773121
 30
0.0
  0
SEQEND
  5
188D
  8
SAPA_FOGBAND
  0
POLYLINE
  5
F2F
  8
SAPA_FOGBAND
 66
     1
 10
0.0
 20
0.0
 30
0.0
  0
VERTEX
  5
188E
  8
SAPA_FOGBAND
 10
53.427310396857273
 20
135.949999927731
 30
0.0
  0
VERTEX
  5
188F
  8
SAPA_FOGBAND
 10
52.301863799541337
 20
132.49999992773121
 30
0.0
  0
VERTEX
  5
1890
  8
SAPA_FOGBAND
 10
54.740001846089882
 20
132.49999992773121
 30
0.0
  0
VERTEX
  5
1891
  8
SAPA_FOGBAND
 10
54.849999999996847
 20
135.949999927731
 30
0.0
  0
SEQEND
  5
1892
  8
SAPA_FOGBAND
  0
POLYLINE
  5
F30
  8
SAPA_FOGBAND
 66
     1
 10
0.0
 20
0.0
 30
0.0
  0
VERTEX
  5
1893
  8
SAPA_FOGBAND
 10
54.924999999997581
 20
135.949999927731
 30
0.0
  0
VERTEX
  5
1894
  8
SAPA_FOGBAND
 10
54.92500000000085
 20
132.49999992773121
 30
0.0
  0
VERTEX
  5
1895
  8
SAPA_FOGBAND
 10
55.074999999999037
 20
132.49999992773121
 30
0.0
  0
VERTEX
  5
1896
  8
SAPA_FOGBAND
 10
55.074999999999037
 20
135.949999927731
 30
0.0
  0
SEQEND
  5
1897
  8
SAPA_FOGBAND
  0
POLYLINE
  5
F31
  8
SAPA_FOGBAND
 66
     1
 10
0.0
 20
0.0
 30
0.0
  0
VERTEX
  5
1898
  8
SAPA_FOGBAND
 10
55.149999999999757
 20
135.949999927731
 30
0.0
  0
VERTEX
  5
1899
  8
SAPA_FOGBAND
 10
55.259997385182011
 20
132.49999992773121
 30
0.0
  0
VERTEX
  5
189A
  8
SAPA_FOGBAND
 10
57.698090725604168
 20
132.49999992773121
 30
0.0
  0
VERTEX
  5
189B
  8
SAPA_FOGBAND
 10
56.572689603139352
 20
135.949999927731
 30
0.0
  0
SEQEND
  5
189C
  8
SAPA_FOGBAND
  0
POLYLINE
  5
F32
  8
SAPA_FOGBAND
 66
     1
 10
0.0
 20
0.0
 30
0.0
 70
     1
  0
VERTEX
  5
189D
  8
SAPA_FOGBAND
 10
29.634099380244379
 20
29.499999999602348
 30
0.0
 42
0.1850472530618334
  0
VERTEX
  5
189E
  8
SAPA_FOGBAND
 10
25.443075537943859
 20
27.226781516298889
 30
0.0
  0
VERTEX
  5
189F
  8
SAPA_FOGBAND
 10
19.952647891703162
 20
18.772264287551899
 30
0.0
 42
-0.9741568709149724
  0
VERTEX
  5
18A0
  8
SAPA_FOGBAND
 10
19.100299904145661
 20
19.294583802300941
 30
0.0
  0
VERTEX
  5
18A1
  8
SAPA_FOGBAND
 10
24.347798952549471
 20
28.383518834750198
 30
0.0
 42
0.1225854743533026
  0
VERTEX
  5
18A2
  8
SAPA_FOGBAND
 10
24.74972268936375
 20
29.882987930767982
 30
0.0
  0
VERTEX
  5
18A3
  8
SAPA_FOGBAND
 10
24.749722689425141
 20
37.257782264317044
 30
0.0
 42
0.7231341048822281
  0
VERTEX
  5
18A4
  8
SAPA_FOGBAND
 10
22.631479446459231
 20
38.624448021043129
 30
0.0
 42
-0.2949636304573953
  0
VERTEX
  5
18A5
  8
SAPA_FOGBAND
 10
17.0497226894683
 20
39.011262684497339
 30
0.0
  0
VERTEX
  5
18A6
  8
SAPA_FOGBAND
 10
17.049722689471139
 20
41.749999999691489
 30
0.0
  0
VERTEX
  5
18A7
  8
SAPA_FOGBAND
 10
18.003415394132521
 20
42.369335283663652
 30
0.0
 42
-0.1449930994868795
  0
VERTEX
  5
18A8
  8
SAPA_FOGBAND
 10
18.275734911631581
 20
42.449999999688067
 30
0.0
  0
VERTEX
  5
18A9
  8
SAPA_FOGBAND
 10
18.349722689478501
 20
42.449999999685787
 30
0.0
 42
-0.4142135623645706
  0
VERTEX
  5
18AA
  8
SAPA_FOGBAND
 10
18.849722689475328
 20
41.949999999682603
 30
0.0
  0
VERTEX
  5
18AB
  8
SAPA_FOGBAND
 10
18.849722689472859
 20
41.562788466562978
 30
0.0
 42
0.3292444226696578
  0
VERTEX
  5
18AC
  8
SAPA_FOGBAND
 10
19.273252102022941
 20
40.989326931863467
 30
0.0
 42
1.4872944655697831
  0
VERTEX
  5
18AD
  8
SAPA_FOGBAND
 10
19.273252102061189
 20
47.010673067483992
 30
0.0
 42
0.3292444226696604
  0
VERTEX
  5
18AE
  8
SAPA_FOGBAND
 10
18.849722689503832
 20
46.43721153278986
 30
0.0
  0
VERTEX
  5
18AF
  8
SAPA_FOGBAND
 10
18.84972268950137
 20
46.049999999669318
 30
0.0
 42
-0.4142135623651035
  0
VERTEX
  5
18B0
  8
SAPA_FOGBAND
 10
18.349722689512738
 20
45.549999999671591
 30
0.0
  0
VERTEX
  5
18B1
  8
SAPA_FOGBAND
 10
18.275734911658539
 20
45.549999999670241
 30
0.0
 42
-0.1449930994868797
  0
VERTEX
  5
18B2
  8
SAPA_FOGBAND
 10
18.003415394153251
 20
45.630664715698153
 30
0.0
  0
VERTEX
  5
18B3
  8
SAPA_FOGBAND
 10
17.049722689499731
 20
46.24999999968967
 30
0.0
  0
VERTEX
  5
18B4
  8
SAPA_FOGBAND
 10
17.049722689517122
 20
48.988737314883828
 30
0.0
 42
-0.2484312924681684
  0
VERTEX
  5
18B5
  8
SAPA_FOGBAND
 10
22.631479446527521
 20
49.375551978270757
 30
0.0
 42
0.5855924822446267
  0
VERTEX
  5
18B6
  8
SAPA_FOGBAND
 10
24.74972268952536
 20
50.742217734968122
 30
0.0
  0
VERTEX
  5
18B7
  8
SAPA_FOGBAND
 10
24.749722736516681
 20
58.116481153881423
 30
0.0
 42
0.1316524983794406
  0
VERTEX
  5
18B8
  8
SAPA_FOGBAND
 10
24.34779895274788
 20
59.61648116453825
 30
0.0
  0
VERTEX
  5
18B9
  8
SAPA_FOGBAND
 10
19.100299904460162
 20
68.705416197057076
 30
0.0
 42
-0.9741568709149699
  0
VERTEX
  5
18BA
  8
SAPA_FOGBAND
 10
19.952647892035881
 20
69.227735711790075
 30
0.0
  0
VERTEX
  5
18BB
  8
SAPA_FOGBAND
 10
25.44074653190307
 20
60.776804838176112
 30
0.0
 42
0.2539676473361846
  0
VERTEX
  5
18BC
  8
SAPA_FOGBAND
 10
29.634099380428609
 20
58.499999999610637
 30
0.0
  0
VERTEX
  5
18BD
  8
SAPA_FOGBAND
 10
31.963946590399068
 20
58.499999999595843
 30
0.0
 42
0.2216946624071653
  0
VERTEX
  5
18BE
  8
SAPA_FOGBAND
 10
35.794168803130802
 20
60.286061947693383
 30
0.0
  0
VERTEX
  5
18BF
  8
SAPA_FOGBAND
 10
41.324487474679067
 20
66.876839080618197
 30
0.0
 42
-1.126857075054595
  0
VERTEX
  5
18C0
  8
SAPA_FOGBAND
 10
43.833015819904318
 20
65.27873027346547
 30
0.0
  0
VERTEX
  5
18C1
  8
SAPA_FOGBAND
 10
42.583648188119192
 20
62.59945274088313
 30
0.0
 42
-0.0436609429066319
  0
VERTEX
  5
18C2
  8
SAPA_FOGBAND
 10
42.4093367026274
 20
62.297536391672658
 30
0.0
  0
VERTEX
  5
18C3
  8
SAPA_FOGBAND
 10
41.133195012393656
 20
60.475017180529633
 30
0.0
 42
-0.957291742260092
  0
VERTEX
  5
18C4
  8
SAPA_FOGBAND
 10
40.45912403317314
 20
60.904447755078131
 30
0.0
  0
VERTEX
  5
18C5
  8
SAPA_FOGBAND
 10
41.637058017828032
 20
62.944689264369849
 30
0.0
 42
0.0218200776225929
  0
VERTEX
  5
18C6
  8
SAPA_FOGBAND
 10
41.677340401082603
 20
63.022071002627079
 30
0.0
  0
VERTEX
  5
18C7
  8
SAPA_FOGBAND
 10
42.926708032854648
 20
65.701348535210101
 30
0.0
 42
0.2887584577560343
  0
VERTEX
  5
18C8
  8
SAPA_FOGBAND
 10
42.85977641643867
 20
66.230198769998196
 30
0.0
 42
1.2247448713754381
  0
VERTEX
  5
18C9
  8
SAPA_FOGBAND
 10
42.512140586419058
 20
66.411166528692888
 30
0.0
 42
0.2887584577534809
  0
VERTEX
  5
18CA
  8
SAPA_FOGBAND
 10
42.040541437453108
 20
66.162657666084044
 30
0.0
  0
VERTEX
  5
18CB
  8
SAPA_FOGBAND
 10
38.178142281900122
 20
60.649897181655518
 30
0.0
 42
0.1539147210599354
  0
VERTEX
  5
18CC
  8
SAPA_FOGBAND
 10
36.369662724757077
 20
54.914132818150939
 30
0.0
  0
VERTEX
  5
18CD
  8
SAPA_FOGBAND
 10
36.369662724647512
 20
33.085867180975107
 30
0.0
 42
0.1539147210595579
  0
VERTEX
  5
18CE
  8
SAPA_FOGBAND
 10
38.178142281730501
 20
27.350102817440948
 30
0.0
  0
VERTEX
  5
18CF
  8
SAPA_FOGBAND
 10
42.063978116925199
 20
21.800554114815849
 30
0.0
 42
0.2652670038588143
  0
VERTEX
  5
18D0
  8
SAPA_FOGBAND
 10
42.51214058614368
 20
21.58883347037823
 30
0.0
 42
1.2247448713754421
  0
VERTEX
  5
18D1
  8
SAPA_FOGBAND
 10
42.85977641615623
 20
21.769801229069831
 30
0.0
 42
0.288758457756027
  0
VERTEX
  5
18D2
  8
SAPA_FOGBAND
 10
42.926708032585459
 20
22.29865146385724
 30
0.0
  0
VERTEX
  5
18D3
  8
SAPA_FOGBAND
 10
41.677340400842382
 20
24.97792899645415
 30
0.0
 42
0.0218200776226741
  0
VERTEX
  5
18D4
  8
SAPA_FOGBAND
 10
41.637058017588181
 20
25.05531073471602
 30
0.0
  0
VERTEX
  5
18D5
  8
SAPA_FOGBAND
 10
40.459124032960489
 20
27.095552244020421
 30
0.0
 42
-0.9572917422600935
  0
VERTEX
  5
18D6
  8
SAPA_FOGBAND
 10
41.133195012189411
 20
27.524982818557429
 30
0.0
  0
VERTEX
  5
18D7
  8
SAPA_FOGBAND
 10
42.409336702394043
 20
25.70246360740331
 30
0.0
 42
-0.0436609429066254
  0
VERTEX
  5
18D8
  8
SAPA_FOGBAND
 10
42.583648187879938
 20
25.40054725819056
 30
0.0
  0
VERTEX
  5
18D9
  8
SAPA_FOGBAND
 10
43.833015819633957
 20
22.72126972558905
 30
0.0
 42
-0.8895204030443752
  0
VERTEX
  5
18DA
  8
SAPA_FOGBAND
 10
41.324487474388427
 20
21.123160918468209
 30
0.0
  0
VERTEX
  5
18DB
  8
SAPA_FOGBAND
 10
35.794168802924162
 20
27.71393805144044
 30
0.0
 42
0.2216946624071884
  0
VERTEX
  5
18DC
  8
SAPA_FOGBAND
 10
31.963946590214849
 20
29.499999999586969
 30
0.0
  0
SEQEND
  5
18DD
  8
SAPA_FOGBAND
  0
POLYLINE
  5
F33
  8
SAPA_FOGBAND
 66
     1
 10
0.0
 20
0.0
 30
0.0
 70
     1
  0
VERTEX
  5
18DE
  8
SAPA_FOGBAND
 10
28.249722689558759
 20
55.999999999608299
 30
0.0
 42
0.4142135623714636
  0
VERTEX
  5
18DF
  8
SAPA_FOGBAND
 10
26.249722689546061
 20
53.999999999632138
 30
0.0
  0
VERTEX
  5
18E0
  8
SAPA_FOGBAND
 10
26.249722689418999
 20
33.999999999624642
 30
0.0
 42
0.4142135623715295
  0
VERTEX
  5
18E1
  8
SAPA_FOGBAND
 10
28.249722689406301
 20
31.999999999611479
 30
0.0
  0
VERTEX
  5
18E2
  8
SAPA_FOGBAND
 10
32.869662724611509
 20
31.999999999580989
 30
0.0
 42
0.4142135623718642
  0
VERTEX
  5
18E3
  8
SAPA_FOGBAND
 10
34.86966272462422
 20
33.999999999566931
 30
0.0
  0
VERTEX
  5
18E4
  8
SAPA_FOGBAND
 10
34.869662724751272
 20
53.9999999995783
 30
0.0
 42
0.4142135623719296
  0
VERTEX
  5
18E5
  8
SAPA_FOGBAND
 10
32.86966272476397
 20
55.999999999583039
 30
0.0
  0
SEQEND
  5
18E6
  8
SAPA_FOGBAND
  0
DIMENSION
  5
F3F
  8
SAPA_MATT
  2
*D43
 10
-0.0000000000000801
 20
-17.999999928252489
 30
0.0
 11
45.749999999988773
 21
-15.249999928252491
 31
0.0
 70
     0
 13
91.499999999977632
 23
21.823940932426812
 33
0.0
 14
-0.0000000000000782
 24
14.30000007175766
 34
0.0
1001
ACAD
1000
DSTYLE
1002
{
1070
    40
1040
1.0
1002
}
  0
DIMENSION
  5
F40
  8
SAPA_MATT
  2
*D42
 10
59.999999999999801
 20
-5.99999992825252
 30
0.0
 11
29.999999999999861
 21
-3.24999992825252
 31
0.0
 70
     0
 13
-0.0000000000000782
 23
14.30000007175766
 33
0.0
 14
59.999999999999801
 24
15.500000071747531
 34
0.0
1001
ACAD
1000
DSTYLE
1002
{
1070
    40
1040
1.0
1002
}
  0
DIMENSION
  5
F41
  8
SAPA_MATT
  2
*D41
 10
145.99999999999989
 20
138.99999999950211
 30
0.0
 11
145.99999999999989
 21
76.499999999751168
 31
0.0
 70
   128
 13
58.499999999999801
 23
14.00000000000014
 33
0.0
 14
60.499999999999773
 24
138.99999999950219
 34
0.0
 50
90.000000000000028
1001
ACAD
1000
DSTYLE
1002
{
1070
    40
1040
1.0
1002
}
  0
DIMENSION
  5
F42
  8
SAPA_MATT
  2
*D40
 10
133.99999999999989
 20
138.99999999950211
 30
0.0
 11
133.23948685118961
 21
102.8577351492784
 31
0.0
 70
   128
 13
74.999999999928178
 23
68.999999999504539
 33
0.0
 14
60.499999999999773
 24
138.99999999950219
 34
0.0
 50
90.000000000000028
1001
ACAD
1000
DSTYLE
1002
{
1070
   287
1070
     4
1070
    40
1040
1.0
1070
   279
1070
     1
1002
}
  0
DIMENSION
  5
F43
  8
SAPA_MATT
  2
*D39
 10
133.99999999999989
 20
68.999999999504524
 30
0.0
 11
131.24999999999989
 21
43.999999999844299
 31
0.0
 70
     0
 13
74.999999999928178
 23
19.000000000184059
 33
0.0
 14
74.999999999928178
 24
68.999999999504539
 34
0.0
 50
90.000000000000028
1001
ACAD
1000
DSTYLE
1002
{
1070
   287
1070
     4
1070
    40
1040
1.0
1070
   279
1070
     1
1002
}
  0
DIMENSION
  5
F44
  8
SAPA_MATT
  2
*D38
 10
133.99999999999989
 20
19.000000000184041
 30
0.0
 11
133.99999999999989
 21
16.500000000092101
 31
0.0
 70
   128
 13
58.499999999999801
 23
14.00000000000014
 33
0.0
 14
74.999999999928178
 24
19.000000000184059
 34
0.0
 50
90.000000000000028
1001
ACAD
1000
DSTYLE
1002
{
1070
    40
1040
1.0
1002
}
  0
DIMENSION
  5
F45
  8
SAPA_MATT
  2
*D37
 10
91.499999999977632
 20
-5.9999999999999138
 30
0.0
 11
75.749999999988717
 21
-3.2499999999999138
 31
0.0
 70
     0
 13
59.999999999999801
 23
15.50000000000014
 33
0.0
 14
91.499999999977632
 24
21.823940932426812
 34
0.0
1001
ACAD
1000
DSTYLE
1002
{
1070
   287
1070
     4
1070
    40
1040
1.0
1070
   279
1070
     1
1002
}
  0
VIEWPORT
  5
C4
 67
     1
  8
0
 10
160.5543545598442
 20
116.00969601843509
 30
0.0
 40
404.96977709277462
 41
256.8421457311839
 68
     1
 69
     1
1001
ACAD
1000
MVIEW
1002
{
1070
    16
1010
0.0
1020
0.0
1030
0.0
1010
0.0
1020
0.0
1030
1.0
1040
0.0
1040
256.8421457311839
1040
99.206250190734863
1040
130.70624923706049
1040
50.0
1040
0.0
1040
0.0
1070
     0
1070
     0
1070
     1
1070
     1
1070
     0
1070
     0
1070
     0
1070
     0
1040
0.0
1040
0.0
1040
0.0
1040
10.0
1040
10.0
1040
10.0
1040
10.0
1070
     0
1002
{
1002
}
1002
}
  0
ENDSEC
  0
EOF
