  0
SECTION
  2
HEADER
  9
$ACADVER
  1
AC1009
  9
$INSBASE
 10
0.0
 20
0.0
 30
0.0
  9
$EXTMIN
 10
-119.49147905908529
 20
-111.2928327096284
 30
-0.2
  9
$EXTMAX
 10
194.00325593439959
 20
119.2500000000001
 30
0.0000000048844772
  9
$LIMMIN
 10
0.0
 20
0.0
  9
$LIMMAX
 10
790.0
 20
790.0
  9
$ORTHOMODE
 70
     1
  9
$REGENMODE
 70
     1
  9
$FILLMODE
 70
     1
  9
$QTEXTMODE
 70
     0
  9
$MIRRTEXT
 70
     1
  9
$DRAGMODE
 70
     2
  9
$LTSCALE
 40
4.0
  9
$OSMODE
 70
    37
  9
$ATTMODE
 70
     1
  9
$TEXTSIZE
 40
3.5
  9
$TRACEWID
 40
0.05
  9
$TEXTSTYLE
  7
ISO
  9
$CLAYER
  8
0
  9
$CELTYPE
  6
BYLAYER
  9
$CECOLOR
 62
   256
  9
$DIMSCALE
 40
0.0
  9
$DIMASZ
 40
3.0
  9
$DIMEXO
 40
1.5
  9
$DIMDLI
 40
10.0
  9
$DIMRND
 40
0.0
  9
$DIMDLE
 40
0.0
  9
$DIMEXE
 40
1.5
  9
$DIMTP
 40
0.0
  9
$DIMTM
 40
0.0
  9
$DIMTXT
 40
3.5
  9
$DIMCEN
 40
-5.0
  9
$DIMTSZ
 40
0.0
  9
$DIMTOL
 70
     0
  9
$DIMLIM
 70
     0
  9
$DIMTIH
 70
     0
  9
$DIMTOH
 70
     0
  9
$DIMSE1
 70
     0
  9
$DIMSE2
 70
     0
  9
$DIMTAD
 70
     1
  9
$DIMZIN
 70
     8
  9
$DIMBLK
  1

  9
$DIMASO
 70
     1
  9
$DIMSHO
 70
     1
  9
$DIMPOST
  1

  9
$DIMAPOST
  1

  9
$DIMALT
 70
     0
  9
$DIMALTD
 70
     0
  9
$DIMALTF
 40
25.399999999999999
  9
$DIMLFAC
 40
-1.0
  9
$DIMTOFL
 70
     1
  9
$DIMTVP
 40
0.0
  9
$DIMTIX
 70
     0
  9
$DIMSOXD
 70
     0
  9
$DIMSAH
 70
     0
  9
$DIMBLK1
  1

  9
$DIMBLK2
  1

  9
$DIMSTYLE
  2
MASKIN
  9
$DIMCLRD
 70
   256
  9
$DIMCLRE
 70
   256
  9
$DIMCLRT
 70
     2
  9
$DIMTFAC
 40
1.0
  9
$DIMGAP
 40
1.0
  9
$LUNITS
 70
     2
  9
$LUPREC
 70
     8
  9
$SKETCHINC
 40
0.1
  9
$FILLETRAD
 40
0.0
  9
$AUNITS
 70
     0
  9
$AUPREC
 70
     8
  9
$MENU
  1
ACAD
  9
$ELEVATION
 40
0.0
  9
$PELEVATION
 40
0.0
  9
$THICKNESS
 40
0.0
  9
$LIMCHECK
 70
     0
  9
$BLIPMODE
 70
     0
  9
$CHAMFERA
 40
0.0
  9
$CHAMFERB
 40
0.0
  9
$SKPOLY
 70
     0
  9
$TDCREATE
 40
2455734.560015128
  9
$TDUPDATE
 40
2455782.4918606831
  9
$TDINDWG
 40
5.4435602893999997
  9
$TDUSRTIMER
 40
5.4435601042000004
  9
$USRTIMER
 70
     1
  9
$ANGBASE
 50
0.0
  9
$ANGDIR
 70
     0
  9
$PDMODE
 70
     0
  9
$PDSIZE
 40
0.0
  9
$PLINEWID
 40
0.0
  9
$COORDS
 70
     1
  9
$SPLFRAME
 70
     0
  9
$SPLINETYPE
 70
     6
  9
$SPLINESEGS
 70
     8
  9
$ATTDIA
 70
     0
  9
$ATTREQ
 70
     1
  9
$HANDLING
 70
     1
  9
$HANDSEED
  5
204C
  9
$SURFTAB1
 70
     6
  9
$SURFTAB2
 70
     6
  9
$SURFTYPE
 70
     6
  9
$SURFU
 70
     6
  9
$SURFV
 70
     6
  9
$UCSNAME
  2

  9
$UCSORG
 10
0.0
 20
0.0
 30
0.0
  9
$UCSXDIR
 10
1.0
 20
0.0
 30
0.0
  9
$UCSYDIR
 10
0.0
 20
1.0
 30
0.0
  9
$PUCSNAME
  2

  9
$PUCSORG
 10
0.0
 20
0.0
 30
0.0
  9
$PUCSXDIR
 10
1.0
 20
0.0
 30
0.0
  9
$PUCSYDIR
 10
0.0
 20
1.0
 30
0.0
  9
$USERI1
 70
     0
  9
$USERI2
 70
     0
  9
$USERI3
 70
     0
  9
$USERI4
 70
     0
  9
$USERI5
 70
     0
  9
$USERR1
 40
0.0
  9
$USERR2
 40
0.0
  9
$USERR3
 40
0.0
  9
$USERR4
 40
0.0
  9
$USERR5
 40
0.0
  9
$WORLDVIEW
 70
     1
  9
$SHADEDGE
 70
     3
  9
$SHADEDIF
 70
    70
  9
$TILEMODE
 70
     1
  9
$MAXACTVP
 70
    16
  9
$PLIMCHECK
 70
     0
  9
$PEXTMIN
 10
1.0000000000000000E+020
 20
1.0000000000000000E+020
 30
1.0000000000000000E+020
  9
$PEXTMAX
 10
-1.0000000000000000E+020
 20
-1.0000000000000000E+020
 30
-1.0000000000000000E+020
  9
$PLIMMIN
 10
-5.069427490234375
 20
-5.8737497329711914
  9
$PLIMMAX
 10
291.89889526367187
 20
204.0995779037475
  9
$UNITMODE
 70
     0
  9
$VISRETAIN
 70
     1
  9
$PLINEGEN
 70
     0
  9
$PSLTSCALE
 70
     1
  0
ENDSEC
  0
SECTION
  2
TABLES
  0
TABLE
  2
VPORT
 70
     1
  0
VPORT
  2
*ACTIVE
 70
     0
 10
0.0
 20
0.0
 11
1.0
 21
1.0
 12
43.362454372103571
 22
3.995526795763908
 13
0.0
 23
0.0
 14
1.0
 24
1.0
 15
0.0
 25
0.0
 16
0.0
 26
0.0
 36
1.0
 17
0.0
 27
0.0
 37
0.0
 40
232.36579848577671
 41
2.362397820163487
 42
50.0
 43
0.0
 44
0.0
 50
0.0
 51
0.0
 71
     0
 72
   100
 73
     1
 74
     1
 75
     0
 76
     0
 77
     0
 78
     0
  0
ENDTAB
  0
TABLE
  2
LTYPE
 70
     4
  0
LTYPE
  2
CONTINUOUS
 70
     0
  3
Solid line
 72
    65
 73
     0
 40
0.0
  0
LTYPE
  2
BYGG-027377$0$NEWDOT
 70
     0
  3
____ . ____ . ____ . ____ . ____ . ____ . ____
 72
    65
 73
     4
 40
2.0
 49
1.0
 49
-0.5
 49
0.0
 49
-0.5
  0
LTYPE
  2
BYGG-027379$0$NEWDOT
 70
     0
  3
____ . ____ . ____ . ____ . ____ . ____ . ____
 72
    65
 73
     4
 40
2.0
 49
1.0
 49
-0.5
 49
0.0
 49
-0.5
  0
LTYPE
  2
BYGG-027050$0$NEWDOT
 70
     0
  3
____ . ____ . ____ . ____ . ____ . ____ . ____
 72
    65
 73
     4
 40
2.0
 49
1.0
 49
-0.5
 49
0.0
 49
-0.5
  0
ENDTAB
  0
TABLE
  2
LAYER
 70
    38
  0
LAYER
  2
0
 70
     0
 62
     7
  6
CONTINUOUS
  0
LAYER
  2
DEFPOINTS
 70
     0
 62
     7
  6
CONTINUOUS
  0
LAYER
  2
SAPA_ARTIKELNR
 70
     0
 62
     4
  6
CONTINUOUS
  0
LAYER
  2
SAPA_BESLAG
 70
     0
 62
     1
  6
CONTINUOUS
  0
LAYER
  2
SAPA_ANSLUTNING
 70
     0
 62
     6
  6
CONTINUOUS
  0
LAYER
  2
SAPA_MATT
 70
     0
 62
     1
  6
CONTINUOUS
  0
LAYER
  2
SAPA_GLAS
 70
     0
 62
     4
  6
CONTINUOUS
  0
LAYER
  2
SAPA_FOGBAND
 70
     0
 62
     2
  6
CONTINUOUS
  0
LAYER
  2
SAPA_PROFIL
 70
     0
 62
     7
  6
CONTINUOUS
  0
ENDTAB
  0
TABLE
  2
STYLE
 70
    20
  0
STYLE
  2
STANDARD
 70
     0
 40
0.0
 41
1.0
 50
0.0
 71
     0
 42
0.2
  3
txt
  4

  0
STYLE
  2
ISO
 70
     0
 40
0.0
 41
1.0
 50
0.0
 71
     0
 42
3.5
  3
txt
  4

  0
STYLE
  2
BYGG-027459$0$STANDARD
 70
     0
 40
0.0
 41
1.0
 50
0.0
 71
     0
 42
0.2
  3
txt
  4

  0
STYLE
  2
BYGG-027459$0$ISO
 70
     0
 40
0.0
 41
1.0
 50
0.0
 71
     0
 42
3.5
  3
txt
  4

  0
STYLE
  2
BYGG-027377$0$STANDARD
 70
     0
 40
0.0
 41
1.0
 50
0.0
 71
     0
 42
0.2
  3
txt
  4

  0
STYLE
  2
BYGG-027377$0$ISO
 70
     0
 40
0.0
 41
1.0
 50
0.0
 71
     0
 42
3.5
  3
txt
  4

  0
STYLE
  2
BYGG-027396$0$STANDARD
 70
     0
 40
0.0
 41
1.0
 50
0.0
 71
     0
 42
0.2
  3
txt
  4

  0
STYLE
  2
BYGG-027396$0$ISO
 70
     0
 40
0.0
 41
1.0
 50
0.0
 71
     0
 42
3.5
  3
txt
  4

  0
STYLE
  2
BYGG-027379$0$STANDARD
 70
     0
 40
0.0
 41
1.0
 50
0.0
 71
     0
 42
0.2
  3
txt
  4

  0
STYLE
  2
BYGG-027379$0$ISO
 70
     0
 40
0.0
 41
1.0
 50
0.0
 71
     0
 42
3.5
  3
txt
  4

  0
STYLE
  2
BYGG-027392$0$STANDARD
 70
     0
 40
0.0
 41
1.0
 50
0.0
 71
     0
 42
0.2
  3
txt
  4

  0
STYLE
  2
BYGG-027392$0$ISO
 70
     0
 40
0.0
 41
1.0
 50
0.0
 71
     0
 42
3.5
  3
txt
  4

  0
STYLE
  2
BYGG-027052$0$STANDARD
 70
     0
 40
0.0
 41
1.0
 50
0.0
 71
     0
 42
0.2
  3
txt
  4

  0
STYLE
  2
BYGG-027052$0$ISO
 70
     0
 40
0.0
 41
1.0
 50
0.0
 71
     0
 42
3.5
  3
txt
  4

  0
STYLE
  2
BYGG-027050$0$STANDARD
 70
     0
 40
0.0
 41
1.0
 50
0.0
 71
     0
 42
0.2
  3
txt
  4

  0
STYLE
  2
BYGG-027050$0$ISO
 70
     0
 40
0.0
 41
1.0
 50
0.0
 71
     0
 42
3.5
  3
txt
  4

  0
STYLE
  2
BYGG-027471$0$STANDARD
 70
     0
 40
0.0
 41
1.0
 50
0.0
 71
     0
 42
0.2
  3
txt
  4

  0
STYLE
  2
BYGG-027471$0$ISO
 70
     0
 40
0.0
 41
1.0
 50
0.0
 71
     0
 42
3.5
  3
txt
  4

  0
STYLE
  2
BYGG-027470$0$STANDARD
 70
     0
 40
0.0
 41
1.0
 50
0.0
 71
     0
 42
0.2
  3
txt
  4

  0
STYLE
  2
BYGG-027470$0$ISO
 70
     0
 40
0.0
 41
1.0
 50
0.0
 71
     0
 42
3.5
  3
txt
  4

  0
ENDTAB
  0
TABLE
  2
VIEW
 70
     0
  0
ENDTAB
  0
TABLE
  2
UCS
 70
     0
  0
ENDTAB
  0
TABLE
  2
APPID
 70
    24
  0
APPID
  2
ACAD
 70
     0
  0
APPID
  2
ACAD_DSTYLE_DIMTEXT_FILL
 70
     0
  0
APPID
  2
ACAD_DSTYLE_DIMEXT_LENGTH
 70
     0
  0
APPID
  2
ACAD_DSTYLE_DIMEXT_ENABLED
 70
     0
  0
APPID
  2
ACAD_DSTYLE_DIM_LINETYPE
 70
     0
  0
APPID
  2
ACAD_DSTYLE_DIM_EXT1_LINETYPE
 70
     0
  0
APPID
  2
ACAD_DSTYLE_DIM_EXT2_LINETYPE
 70
     0
  0
APPID
  2
ACAD_DSTYLE_DIMJOGGED_JOGA
 70
     0
  0
APPID
  2
ACAD_DSTYLE_DIMARC_LENGTH_
 70
     0
  0
APPID
  2
ACAD_PSEXT
 70
     0
  0
APPID
  2
ACAD_MLEADERVER
 70
     0
  0
APPID
  2
GENIUS_GENODEF_13
 70
     0
  0
APPID
  2
RC_PROFILE
 70
     0
  0
APPID
  2
ACAECLAYERSTANDARD
 70
     0
  0
APPID
  2
GENIUS_GENOBJ-N-FIL_13
 70
     0
  0
APPID
  2
ACADANNOTATIVE
 70
     0
  0
APPID
  2
ACAD_EXEMPT_FROM_CAD_STANDARDS
 70
     0
  0
APPID
  2
AEC_XDATA_BOUND_SPACE
 70
     0
  0
APPID
  2
ACAD_DSTYLE_DIMJAG
 70
     0
  0
APPID
  2
ACAD_DSTYLE_DIMTALN
 70
     0
  0
APPID
  2
GENIUS_GENREC_14
 70
     0
  0
APPID
  2
GENIUS_GENOBJ-N-REC_13
 70
     0
  0
APPID
  2
GENIUS_GENOREF_13
 70
     0
  0
APPID
  2
GENIUS_GENBH_13
 70
     0
  0
ENDTAB
  0
TABLE
  2
DIMSTYLE
 70
    10
  0
DIMSTYLE
  2
MASKIN
 70
     0
  3

  4

  5

  6

  7

 40
0.0
 41
3.0
 42
1.5
 43
10.0
 44
1.5
 45
0.0
 46
0.0
 47
0.0
 48
0.0
140
3.5
141
-5.0
142
0.0
143
25.399999999999999
144
-1.0
145
0.0
146
1.0
147
1.0
 71
     0
 72
     0
 73
     0
 74
     0
 75
     0
 76
     0
 77
     1
 78
     8
170
     0
171
     0
172
     1
173
     0
174
     0
175
     0
176
   256
177
   256
178
     2
  0
DIMSTYLE
  2
BYGG-027459$0$MASKIN
 70
     0
  3

  4

  5

  6

  7

 40
0.0
 41
3.0
 42
1.5
 43
10.0
 44
1.5
 45
0.0
 46
0.0
 47
0.0
 48
0.0
140
3.0
141
-5.0
142
0.0
143
25.399999999999999
144
-1.0
145
0.0
146
1.0
147
1.0
 71
     0
 72
     0
 73
     0
 74
     0
 75
     0
 76
     0
 77
     1
 78
     8
170
     0
171
     0
172
     1
173
     0
174
     0
175
     0
176
   256
177
   256
178
     2
  0
DIMSTYLE
  2
BYGG-027377$0$MASKIN
 70
     0
  3

  4

  5

  6

  7

 40
0.0
 41
3.0
 42
1.5
 43
10.0
 44
1.5
 45
0.0
 46
0.0
 47
0.0
 48
0.0
140
3.0
141
-5.0
142
0.0
143
25.399999999999999
144
-1.0
145
0.0
146
1.0
147
1.0
 71
     0
 72
     0
 73
     0
 74
     0
 75
     0
 76
     0
 77
     1
 78
     8
170
     0
171
     0
172
     1
173
     0
174
     0
175
     0
176
   256
177
   256
178
     2
  0
DIMSTYLE
  2
BYGG-027396$0$MASKIN
 70
     0
  3

  4

  5

  6

  7

 40
0.0
 41
3.0
 42
1.5
 43
10.0
 44
1.5
 45
0.0
 46
0.0
 47
0.0
 48
0.0
140
3.0
141
-5.0
142
0.0
143
25.399999999999999
144
-1.0
145
0.0
146
1.0
147
1.0
 71
     0
 72
     0
 73
     0
 74
     0
 75
     0
 76
     0
 77
     1
 78
     8
170
     0
171
     0
172
     1
173
     0
174
     0
175
     0
176
   256
177
   256
178
     2
  0
DIMSTYLE
  2
BYGG-027379$0$MASKIN
 70
     0
  3

  4

  5

  6

  7

 40
0.0
 41
3.0
 42
1.5
 43
10.0
 44
1.5
 45
0.0
 46
0.0
 47
0.0
 48
0.0
140
3.0
141
-5.0
142
0.0
143
25.399999999999999
144
-1.0
145
0.0
146
1.0
147
1.0
 71
     0
 72
     0
 73
     0
 74
     0
 75
     0
 76
     0
 77
     1
 78
     8
170
     0
171
     0
172
     1
173
     0
174
     0
175
     0
176
   256
177
   256
178
     2
  0
DIMSTYLE
  2
BYGG-027392$0$MASKIN
 70
     0
  3

  4

  5

  6

  7

 40
0.0
 41
3.0
 42
1.5
 43
10.0
 44
1.5
 45
0.0
 46
0.0
 47
0.0
 48
0.0
140
3.0
141
-5.0
142
0.0
143
25.399999999999999
144
-1.0
145
0.0
146
1.0
147
1.0
 71
     0
 72
     0
 73
     0
 74
     0
 75
     0
 76
     0
 77
     1
 78
     8
170
     0
171
     0
172
     1
173
     0
174
     0
175
     0
176
   256
177
   256
178
     2
  0
DIMSTYLE
  2
BYGG-027052$0$MASKIN
 70
     0
  3

  4

  5

  6

  7

 40
0.0
 41
3.0
 42
1.5
 43
10.0
 44
1.5
 45
0.0
 46
0.0
 47
0.0
 48
0.0
140
3.0
141
-5.0
142
0.0
143
25.399999999999999
144
-1.0
145
0.0
146
1.0
147
1.0
 71
     0
 72
     0
 73
     0
 74
     0
 75
     0
 76
     0
 77
     1
 78
     8
170
     0
171
     0
172
     1
173
     0
174
     0
175
     0
176
   256
177
   256
178
     2
  0
DIMSTYLE
  2
BYGG-027050$0$MASKIN
 70
     0
  3

  4

  5

  6

  7

 40
0.0
 41
3.0
 42
1.5
 43
10.0
 44
1.5
 45
0.0
 46
0.0
 47
0.0
 48
0.0
140
3.0
141
-5.0
142
0.0
143
25.399999999999999
144
-1.0
145
0.0
146
1.0
147
1.0
 71
     0
 72
     0
 73
     0
 74
     0
 75
     0
 76
     0
 77
     1
 78
     8
170
     0
171
     0
172
     1
173
     0
174
     0
175
     0
176
   256
177
   256
178
     2
  0
DIMSTYLE
  2
BYGG-027471$0$MASKIN
 70
     0
  3

  4

  5

  6

  7

 40
0.0
 41
3.0
 42
1.5
 43
10.0
 44
1.5
 45
0.0
 46
0.0
 47
0.0
 48
0.0
140
3.0
141
-5.0
142
0.0
143
25.399999999999999
144
-1.0
145
0.0
146
1.0
147
1.0
 71
     0
 72
     0
 73
     0
 74
     0
 75
     0
 76
     0
 77
     1
 78
     8
170
     0
171
     0
172
     1
173
     0
174
     0
175
     0
176
   256
177
   256
178
     2
  0
DIMSTYLE
  2
BYGG-027470$0$MASKIN
 70
     0
  3

  4

  5

  6

  7

 40
0.0
 41
3.0
 42
1.5
 43
10.0
 44
1.5
 45
0.0
 46
0.0
 47
0.0
 48
0.0
140
3.0
141
-5.0
142
0.0
143
25.399999999999999
144
-1.0
145
0.0
146
1.0
147
1.0
 71
     0
 72
     0
 73
     0
 74
     0
 75
     0
 76
     0
 77
     1
 78
     8
170
     0
171
     0
172
     1
173
     0
174
     0
175
     0
176
   256
177
   256
178
     2
  0
ENDTAB
  0
ENDSEC
  0
SECTION
  2
BLOCKS
  0
BLOCK
  8
0
  2
$MODEL_SPACE
 70
     0
 10
0.0
 20
0.0
 30
0.0
  3
$MODEL_SPACE
  1

  0
ENDBLK
  5
37
  8
0
  0
BLOCK
 67
     1
  8
0
  2
$PAPER_SPACE
 70
     0
 10
0.0
 20
0.0
 30
0.0
  3
$PAPER_SPACE
  1

  0
ENDBLK
  5
35
 67
     1
  8
0
  0
BLOCK
  8
0
  2
*D37
 70
     1
 10
0.0
 20
0.0
 30
0.0
  3
*D37
  1

  0
LINE
  5
122C
  8
SAPA_MATT
 10
13.87500000000003
 20
-56.999999999999972
 30
0.0
 11
-95.500000000000014
 21
-56.999999999999943
 31
0.0
  0
LINE
  5
122D
  8
SAPA_MATT
 10
-73.499999999998096
 20
60.00000000000103
 30
0.0
 11
-95.5
 21
60.00000000000103
 31
0.0
  0
LINE
  5
122E
  8
SAPA_MATT
 10
-94.000000000000028
 20
-53.99999999999995
 30
0.0
 11
-94.0
 21
57.00000000000103
 31
0.0
  0
SOLID
  5
122F
  8
SAPA_MATT
 10
-94.500000000000014
 20
-53.99999999999995
 30
0.0
 11
-93.500000000000028
 21
-53.99999999999995
 31
0.0
 12
-94.000000000000028
 22
-56.999999999999943
 32
0.0
 13
-94.000000000000028
 23
-56.999999999999943
 33
0.0
  0
SOLID
  5
1230
  8
SAPA_MATT
 10
-94.500000000000014
 20
57.00000000000103
 30
0.0
 11
-93.499999999999986
 21
57.00000000000103
 31
0.0
 12
-94.0
 22
60.00000000000103
 32
0.0
 13
-94.0
 23
60.00000000000103
 33
0.0
  0
INSERT
  5
1231
  8
0
  2
*U84
 10
0.0
 20
0.0
 30
0.0
  0
POINT
  5
1232
  8
DEFPOINTS
 62
     0
 10
15.37500000000003
 20
-56.999999999999972
 30
0.0
  0
POINT
  5
1233
  8
DEFPOINTS
 62
     0
 10
-71.999999999998096
 20
60.00000000000103
 30
0.0
  0
POINT
  5
1234
  8
DEFPOINTS
 62
     0
 10
-94.0
 20
60.00000000000103
 30
0.0
  0
ENDBLK
  5
118B
  8
0
  0
BLOCK
  8
0
  2
*D38
 70
     1
 10
0.0
 20
0.0
 30
0.0
  3
*D38
  1

  0
LINE
  5
1FAA
  8
SAPA_MATT
 10
-73.499999999998096
 20
60.00000000000103
 30
0.0
 11
-95.5
 21
60.00000000000103
 31
0.0
  0
LINE
  5
1FAB
  8
SAPA_MATT
 10
20.750000000175579
 20
70.000000000011042
 30
0.0
 11
-95.5
 21
70.00000000001107
 31
0.0
  0
LINE
  5
1FAC
  8
SAPA_MATT
 10
-94.0
 20
63.00000000000103
 30
0.0
 11
-94.0
 21
67.00000000001107
 31
0.0
  0
SOLID
  5
1FAD
  8
SAPA_MATT
 10
-94.500000000000014
 20
63.00000000000103
 30
0.0
 11
-93.499999999999986
 21
63.00000000000103
 31
0.0
 12
-94.0
 22
60.00000000000103
 32
0.0
 13
-94.0
 23
60.00000000000103
 33
0.0
  0
SOLID
  5
1FAE
  8
SAPA_MATT
 10
-94.500000000000014
 20
67.00000000001107
 30
0.0
 11
-93.499999999999986
 21
67.00000000001107
 31
0.0
 12
-94.0
 22
70.00000000001107
 32
0.0
 13
-94.0
 23
70.00000000001107
 33
0.0
  0
TEXT
  8
SAPA_MATT
  40
3.5
  5
1FC7
  62
2
  72
0
  71
0
 10
-103.750
 20
58.8050
 30
0.000000
  1
10
  7
ISO
  0
POINT
  5
1FB0
  8
DEFPOINTS
 62
     0
 10
-71.999999999998096
 20
60.00000000000103
 30
0.0
  0
POINT
  5
1FB1
  8
DEFPOINTS
 62
     0
 10
22.250000000175579
 20
70.000000000011042
 30
0.0
  0
POINT
  5
1FB2
  8
DEFPOINTS
 62
     0
 10
-94.0
 20
70.00000000001107
 30
0.0
  0
ENDBLK
  5
1197
  8
0
  0
BLOCK
  8
0
  2
*D39
 70
     1
 10
0.0
 20
0.0
 30
0.0
  3
*D39
  1

  0
LINE
  5
1218
  8
SAPA_MATT
 10
14.00000000000003
 20
60.0
 30
0.0
 11
14.00000000000003
 21
102.5000000000001
 31
0.0
  0
LINE
  5
1219
  8
SAPA_MATT
 10
20.500000000180631
 20
56.500000000019412
 30
0.0
 11
20.500000000180631
 21
102.5000000000001
 31
0.0
  0
LINE
  5
121A
  8
SAPA_MATT
 10
11.00000000000003
 20
101.0000000000001
 30
0.0
 11
8.0000000000000302
 21
101.0000000000001
 31
0.0
  0
LINE
  5
121B
  8
SAPA_MATT
 10
23.500000000180631
 20
101.0000000000001
 30
0.0
 11
26.500000000180631
 21
101.0000000000001
 31
0.0
  0
LINE
  5
121C
  8
SAPA_MATT
 10
14.00000000000003
 20
101.0000000000001
 30
0.0
 11
20.500000000180631
 21
101.0000000000001
 31
0.0
  0
SOLID
  5
121D
  8
SAPA_MATT
 10
11.00000000000003
 20
101.5000000000001
 30
0.0
 11
11.00000000000003
 21
100.5000000000001
 31
0.0
 12
14.00000000000003
 22
101.0000000000001
 32
0.0
 13
14.00000000000003
 23
101.0000000000001
 33
0.0
  0
SOLID
  5
121E
  8
SAPA_MATT
 10
23.500000000180631
 20
101.5000000000001
 30
0.0
 11
23.500000000180631
 21
100.5000000000001
 31
0.0
 12
20.500000000180631
 22
101.0000000000001
 32
0.0
 13
20.500000000180631
 23
101.0000000000001
 33
0.0
  0
INSERT
  5
121F
  8
0
  2
*U83
 10
0.0
 20
0.0
 30
0.0
  0
POINT
  5
1220
  8
DEFPOINTS
 62
     0
 10
14.00000000000003
 20
58.5
 30
0.0
  0
POINT
  5
1221
  8
DEFPOINTS
 62
     0
 10
20.500000000180631
 20
55.000000000019412
 30
0.0
  0
POINT
  5
1222
  8
DEFPOINTS
 62
     0
 10
20.500000000180631
 20
101.0000000000001
 30
0.0
  0
ENDBLK
  5
11A3
  8
0
  0
BLOCK
  8
0
  2
*D40
 70
     1
 10
0.0
 20
0.0
 30
0.0
  3
*D40
  1

  0
LINE
  5
1FA1
  8
SAPA_MATT
 10
20.500000000180631
 20
56.500000000019412
 30
0.0
 11
20.500000000180631
 21
102.5000000000001
 31
0.0
  0
LINE
  5
1FA2
  8
SAPA_MATT
 10
67.499999999502137
 20
56.500000000019412
 30
0.0
 11
67.499999999502137
 21
102.5000000000001
 31
0.0
  0
LINE
  5
1FA3
  8
SAPA_MATT
 10
23.500000000180631
 20
101.0000000000001
 30
0.0
 11
64.499999999502137
 21
101.0000000000001
 31
0.0
  0
SOLID
  5
1FA4
  8
SAPA_MATT
 10
23.500000000180631
 20
101.5000000000001
 30
0.0
 11
23.500000000180631
 21
100.5000000000001
 31
0.0
 12
20.500000000180631
 22
101.0000000000001
 32
0.0
 13
20.500000000180631
 23
101.0000000000001
 33
0.0
  0
SOLID
  5
1FA5
  8
SAPA_MATT
 10
64.499999999502137
 20
101.5000000000001
 30
0.0
 11
64.499999999502137
 21
100.5000000000001
 31
0.0
 12
67.499999999502137
 22
101.0000000000001
 32
0.0
 13
67.499999999502137
 23
101.0000000000001
 33
0.0
  0
TEXT
  8
SAPA_MATT
  40
3.5
  5
1FC8
  62
2
  72
0
  71
0
 10
37.0000
 20
97.5550
 30
0.000000
  1
47
  7
ISO
  0
POINT
  5
1FA7
  8
DEFPOINTS
 62
     0
 10
20.500000000180631
 20
55.000000000019412
 30
0.0
  0
POINT
  5
1FA8
  8
DEFPOINTS
 62
     0
 10
67.499999999502137
 20
55.000000000019412
 30
0.0
  0
POINT
  5
1FA9
  8
DEFPOINTS
 62
     0
 10
67.499999999502137
 20
101.0000000000001
 30
0.0
  0
ENDBLK
  5
11B1
  8
0
  0
BLOCK
  8
0
  2
*D41
 70
     1
 10
0.0
 20
0.0
 30
0.0
  3
*D41
  1

  0
LINE
  5
1F98
  8
SAPA_MATT
 10
67.499999999502137
 20
56.500000000019412
 30
0.0
 11
67.499999999502137
 21
102.5000000000001
 31
0.0
  0
LINE
  5
1F99
  8
SAPA_MATT
 10
138.99999999950211
 20
60.0
 30
0.0
 11
138.99999999950211
 21
102.5000000000001
 31
0.0
  0
LINE
  5
1F9A
  8
SAPA_MATT
 10
70.499999999502137
 20
101.0000000000001
 30
0.0
 11
135.99999999950211
 21
101.0000000000001
 31
0.0
  0
SOLID
  5
1F9B
  8
SAPA_MATT
 10
70.499999999502137
 20
101.5000000000001
 30
0.0
 11
70.499999999502137
 21
100.5000000000001
 31
0.0
 12
67.499999999502137
 22
101.0000000000001
 32
0.0
 13
67.499999999502137
 23
101.0000000000001
 33
0.0
  0
SOLID
  5
1F9C
  8
SAPA_MATT
 10
135.99999999950211
 20
101.5000000000001
 30
0.0
 11
135.99999999950211
 21
100.5000000000001
 31
0.0
 12
138.99999999950211
 22
101.0000000000001
 32
0.0
 13
138.99999999950211
 23
101.0000000000001
 33
0.0
  0
TEXT
  8
SAPA_MATT
  40
3.5
  5
1FC9
  62
2
  72
0
  71
0
 10
96.2500
 20
97.5550
 30
0.000000
  1
71.5
  7
ISO
  0
POINT
  5
1F9E
  8
DEFPOINTS
 62
     0
 10
67.499999999502137
 20
55.000000000019412
 30
0.0
  0
POINT
  5
1F9F
  8
DEFPOINTS
 62
     0
 10
138.99999999950211
 20
58.5
 30
0.0
  0
POINT
  5
1FA0
  8
DEFPOINTS
 62
     0
 10
138.99999999950211
 20
101.0000000000001
 30
0.0
  0
ENDBLK
  5
11BD
  8
0
  0
BLOCK
  8
0
  2
*D42
 70
     1
 10
0.0
 20
0.0
 30
0.0
  3
*D42
  1

  0
LINE
  5
11FD
  8
SAPA_MATT
 10
14.00000000000003
 20
60.0
 30
0.0
 11
14.00000000000003
 21
114.5000000000001
 31
0.0
  0
LINE
  5
11FE
  8
SAPA_MATT
 10
138.99999999950211
 20
61.5
 30
0.0
 11
138.99999999950211
 21
114.5000000000001
 31
0.0
  0
LINE
  5
11FF
  8
SAPA_MATT
 10
17.000000000000028
 20
113.0000000000001
 30
0.0
 11
135.99999999950211
 21
113.0000000000001
 31
0.0
  0
SOLID
  5
1200
  8
SAPA_MATT
 10
17.000000000000028
 20
113.5000000000001
 30
0.0
 11
17.000000000000028
 21
112.5000000000001
 31
0.0
 12
14.00000000000003
 22
113.0000000000001
 32
0.0
 13
14.00000000000003
 23
113.0000000000001
 33
0.0
  0
SOLID
  5
1201
  8
SAPA_MATT
 10
135.99999999950211
 20
113.5000000000001
 30
0.0
 11
135.99999999950211
 21
112.5000000000001
 31
0.0
 12
138.99999999950211
 22
113.0000000000001
 32
0.0
 13
138.99999999950211
 23
113.0000000000001
 33
0.0
  0
INSERT
  5
1202
  8
0
  2
*U82
 10
0.0
 20
0.0
 30
0.0
  0
POINT
  5
1203
  8
DEFPOINTS
 62
     0
 10
14.00000000000003
 20
58.5
 30
0.0
  0
POINT
  5
1204
  8
DEFPOINTS
 62
     0
 10
138.99999999950211
 20
60.0
 30
0.0
  0
POINT
  5
1205
  8
DEFPOINTS
 62
     0
 10
138.99999999950211
 20
113.0000000000001
 30
0.0
  0
ENDBLK
  5
11C9
  8
0
  0
BLOCK
  8
0
  2
*D43
 70
     1
 10
0.0
 20
0.0
 30
0.0
  3
*D43
  1

  0
LINE
  5
11F4
  8
SAPA_MATT
 10
-73.999999999999886
 20
59.500000000001229
 30
0.0
 11
-73.999999999999886
 21
102.5000000000001
 31
0.0
  0
LINE
  5
11F5
  8
SAPA_MATT
 10
14.00000000000011
 20
59.999999999999432
 30
0.0
 11
14.000000000000121
 21
102.5000000000001
 31
0.0
  0
LINE
  5
11F6
  8
SAPA_MATT
 10
-70.999999999999886
 20
101.0000000000001
 30
0.0
 11
11.00000000000011
 21
101.0000000000001
 31
0.0
  0
SOLID
  5
11F7
  8
SAPA_MATT
 10
-70.999999999999886
 20
101.5000000000001
 30
0.0
 11
-70.999999999999886
 21
100.5000000000001
 31
0.0
 12
-73.999999999999886
 22
101.0000000000001
 32
0.0
 13
-73.999999999999886
 23
101.0000000000001
 33
0.0
  0
SOLID
  5
11F8
  8
SAPA_MATT
 10
11.00000000000011
 20
101.5000000000001
 30
0.0
 11
11.00000000000011
 21
100.5000000000001
 31
0.0
 12
14.00000000000011
 22
101.0000000000001
 32
0.0
 13
14.00000000000011
 23
101.0000000000001
 33
0.0
  0
INSERT
  5
11F9
  8
0
  2
*U81
 10
0.0
 20
0.0
 30
0.0
  0
POINT
  5
11FA
  8
DEFPOINTS
 62
     0
 10
-73.999999999999886
 20
58.000000000001243
 30
0.0
  0
POINT
  5
11FB
  8
DEFPOINTS
 62
     0
 10
14.00000000000011
 20
58.499999999999417
 30
0.0
  0
POINT
  5
11FC
  8
DEFPOINTS
 62
     0
 10
14.00000000000011
 20
101.0000000000001
 30
0.0
  0
ENDBLK
  5
11D5
  8
0
  0
BLOCK
  8
0
  2
*D44
 70
     1
 10
0.0
 20
0.0
 30
0.0
  3
*D44
  1

  0
LINE
  5
11EB
  8
SAPA_MATT
 10
-80.499999999999815
 20
-70.000000000020279
 30
0.0
 11
-107.5
 21
-70.000000000020265
 31
0.0
  0
LINE
  5
11EC
  8
SAPA_MATT
 10
-97.499999999998096
 20
60.00000000000103
 30
0.0
 11
-107.5
 21
60.00000000000103
 31
0.0
  0
LINE
  5
11ED
  8
SAPA_MATT
 10
-106.0
 20
-67.000000000020265
 30
0.0
 11
-106.0
 21
57.000000000001023
 31
0.0
  0
SOLID
  5
11EE
  8
SAPA_MATT
 10
-106.5
 20
-67.000000000020265
 30
0.0
 11
-105.5
 21
-67.000000000020265
 31
0.0
 12
-106.0
 22
-70.000000000020265
 32
0.0
 13
-106.0
 23
-70.000000000020265
 33
0.0
  0
SOLID
  5
11EF
  8
SAPA_MATT
 10
-106.5
 20
57.000000000001023
 30
0.0
 11
-105.5
 21
57.000000000001023
 31
0.0
 12
-106.0
 22
60.00000000000103
 32
0.0
 13
-106.0
 23
60.00000000000103
 33
0.0
  0
INSERT
  5
11F0
  8
0
  2
*U80
 10
0.0
 20
0.0
 30
0.0
  0
POINT
  5
11F1
  8
DEFPOINTS
 62
     0
 10
-78.999999999999829
 20
-70.000000000020279
 30
0.0
  0
POINT
  5
11F2
  8
DEFPOINTS
 62
     0
 10
-95.999999999998096
 20
60.00000000000103
 30
0.0
  0
POINT
  5
11F3
  8
DEFPOINTS
 62
     0
 10
-106.0
 20
60.00000000000103
 30
0.0
  0
ENDBLK
  5
11E1
  8
0
  0
BLOCK
  8
0
  2
*X45
 70
     1
 10
0.0
 20
0.0
 30
0.0
  3
*X45
  1

  0
LINE
  5
12B1
  8
0
 62
     0
 10
148.9999999277413
 20
59.790954887116641
 30
0.0
 11
148.8380860307266
 21
59.952868784131361
 31
0.0
  0
LINE
  5
12B2
  8
0
 62
     0
 10
148.9999999277413
 20
58.668422871983012
 30
0.0
 11
147.94993012138909
 21
59.718492678335153
 31
0.0
  0
LINE
  5
12B3
  8
0
 62
     0
 10
148.9999999277413
 20
57.545890856849361
 30
0.0
 11
147.0284095796012
 21
59.517481204989473
 31
0.0
  0
LINE
  5
12B4
  8
0
 62
     0
 10
148.9999999277413
 20
56.423358841715711
 30
0.0
 11
146.070576615128
 21
59.352782154328978
 31
0.0
  0
LINE
  5
12B5
  8
0
 62
     0
 10
148.9999999277413
 20
55.300826826582067
 30
0.0
 11
145.07276903545321
 21
59.228057718870183
 31
0.0
  0
LINE
  5
12B6
  8
0
 62
     0
 10
148.9999999277413
 20
54.178294811448417
 30
0.0
 11
144.03036041296869
 21
59.147934326221019
 31
0.0
  0
LINE
  5
12B7
  8
0
 62
     0
 10
148.9999999277413
 20
53.055762796314781
 30
0.0
 11
142.93738136331791
 21
59.118381360738127
 31
0.0
  0
LINE
  5
12B8
  8
0
 62
     0
 10
148.9999999277413
 20
51.933230781181138
 30
0.0
 11
141.785919908587
 21
59.14731080033544
 31
0.0
  0
LINE
  5
12B9
  8
0
 62
     0
 10
148.9999999277413
 20
50.810698766047487
 30
0.0
 11
140.565119071797
 21
59.245579621991872
 31
0.0
  0
LINE
  5
12BA
  8
0
 62
     0
 10
145.76608656588169
 20
52.922080112773429
 30
0.0
 11
139.25938028645021
 21
59.428786392204927
 31
0.0
  0
LINE
  5
12BB
  8
0
 62
     0
 10
148.9999999277413
 20
49.688166750913851
 30
0.0
 11
148.4399900696433
 21
50.248176609011892
 31
0.0
  0
LINE
  5
12BC
  8
0
 62
     0
 10
144.2907394283969
 20
53.274895235124653
 30
0.0
 11
138.99849667114091
 21
58.567137992380651
 31
0.0
  0
LINE
  5
12BD
  8
0
 62
     0
 10
148.9999999277413
 20
48.565634735780193
 30
0.0
 11
148.9236360860076
 21
48.64199857751391
 31
0.0
  0
LINE
  5
12BE
  8
0
 62
     0
 10
143.2263857183485
 20
53.21671693003934
 30
0.0
 11
138.9999999277413
 21
57.443102720646571
 31
0.0
  0
LINE
  5
12BF
  8
0
 62
     0
 10
142.35075441075239
 20
52.969816222501862
 30
0.0
 11
138.9999999277413
 21
56.320570705512942
 31
0.0
  0
LINE
  5
12C0
  8
0
 62
     0
 10
141.60217573132221
 20
52.595862886798407
 30
0.0
 11
138.9999999277413
 21
55.198038690379313
 31
0.0
  0
LINE
  5
12C1
  8
0
 62
     0
 10
140.954303624852
 20
52.12120297813491
 30
0.0
 11
138.9999999277413
 21
54.075506675245691
 31
0.0
  0
LINE
  5
12C2
  8
0
 62
     0
 10
140.3948147166403
 20
51.558159871212993
 30
0.0
 11
138.9999999277413
 21
52.952974660112062
 31
0.0
  0
LINE
  5
12C3
  8
0
 62
     0
 10
139.91916163996731
 20
50.911280932752391
 30
0.0
 11
138.9999999277413
 21
51.830442644978412
 31
0.0
  0
LINE
  5
12C4
  8
0
 62
     0
 10
139.52875225442261
 20
50.179158303163341
 30
0.0
 11
138.99999992774119
 21
50.707910629844783
 31
0.0
  0
LINE
  5
12C5
  8
0
 62
     0
 10
139.23148746817009
 20
49.353891074282309
 30
0.0
 11
138.99999992774119
 21
49.585378614711153
 31
0.0
  0
LINE
  5
12C6
  8
0
 62
     0
 10
139.04522034170179
 20
48.417626185616911
 30
0.0
 11
138.99999992774119
 21
48.462846599577531
 31
0.0
  0
LINE
  5
12C7
  8
0
 62
     0
 10
148.99279897801119
 20
47.96491761598336
 30
0.0
 11
148.9999999277413
 21
47.972118565713387
 31
0.0
  0
LINE
  5
12C8
  8
0
 62
     0
 10
148.86518577861531
 20
48.959836431721008
 30
0.0
 11
148.9999999277413
 21
49.094650580847038
 31
0.0
  0
LINE
  5
12C9
  8
0
 62
     0
 10
148.61341571770791
 20
49.830598385947283
 30
0.0
 11
148.9999999277413
 21
50.217182595980688
 31
0.0
  0
LINE
  5
12CA
  8
0
 62
     0
 10
148.2622930606986
 20
50.602007744071649
 30
0.0
 11
148.9999999277413
 21
51.339714611114331
 31
0.0
  0
LINE
  5
12CB
  8
0
 62
     0
 10
147.82338657535101
 20
51.285633273857719
 30
0.0
 11
148.9999999277413
 21
52.462246626247982
 31
0.0
  0
LINE
  5
12CC
  8
0
 62
     0
 10
147.3007430412959
 20
51.885521754936192
 30
0.0
 11
148.9999999277413
 21
53.584778641381618
 31
0.0
  0
LINE
  5
12CD
  8
0
 62
     0
 10
146.69249089580271
 20
52.399801624576703
 30
0.0
 11
148.9999999277413
 21
54.707310656515247
 31
0.0
  0
LINE
  5
12CE
  8
0
 62
     0
 10
145.9901223838562
 20
52.819965127763851
 30
0.0
 11
148.9999999277413
 21
55.82984267164889
 31
0.0
  0
LINE
  5
12CF
  8
0
 62
     0
 10
145.17469787667719
 20
53.127072635718477
 30
0.0
 11
148.9999999277413
 21
56.952374686782548
 31
0.0
  0
LINE
  5
12D0
  8
0
 62
     0
 10
144.20478292538689
 20
53.279689699561779
 30
0.0
 11
148.9999999277413
 21
58.074906701916191
 31
0.0
  0
LINE
  5
12D1
  8
0
 62
     0
 10
138.99999992774119
 20
48.074906701916078
 30
0.0
 11
139.0143750455226
 21
48.089281819697511
 31
0.0
  0
LINE
  5
12D2
  8
0
 62
     0
 10
142.96528944008861
 20
53.162728229397182
 30
0.0
 11
148.9999999277413
 21
59.197438717049842
 31
0.0
  0
LINE
  5
12D3
  8
0
 62
     0
 10
138.99999992774119
 20
49.197438717049756
 30
0.0
 11
139.26216740970031
 21
49.459606199008881
 31
0.0
  0
LINE
  5
12D4
  8
0
 62
     0
 10
138.99999992774119
 20
50.319970732183393
 30
0.0
 11
148.55332920462081
 21
59.87330000906303
 31
0.0
  0
LINE
  5
12D5
  8
0
 62
     0
 10
138.99999992774119
 20
51.442502747317057
 30
0.0
 11
147.08638223332139
 21
59.52888505289728
 31
0.0
  0
LINE
  5
12D6
  8
0
 62
     0
 10
138.99999992774119
 20
52.565034762450708
 30
0.0
 11
145.74135694742461
 21
59.306391782134078
 31
0.0
  0
LINE
  5
12D7
  8
0
 62
     0
 10
138.9999999277413
 20
53.687566777584358
 30
0.0
 11
144.4893749164703
 21
59.176941766313391
 31
0.0
  0
LINE
  5
12D8
  8
0
 62
     0
 10
138.9999999277413
 20
54.810098792718037
 30
0.0
 11
143.3121580202625
 21
59.122256885239281
 31
0.0
  0
LINE
  5
12D9
  8
0
 62
     0
 10
138.9999999277413
 20
55.932630807851702
 30
0.0
 11
142.19726507093179
 21
59.129895951042251
 31
0.0
  0
LINE
  5
12DA
  8
0
 62
     0
 10
138.9999999277413
 20
57.055162822985338
 30
0.0
 11
141.1357776586442
 21
59.190940553888211
 31
0.0
  0
LINE
  5
12DB
  8
0
 62
     0
 10
138.9999999277413
 20
58.177694838119002
 30
0.0
 11
140.1210510364555
 21
59.298745946833222
 31
0.0
  0
LINE
  5
12DC
  8
0
 62
     0
 10
138.85117536341841
 20
59.151402288929759
 30
0.0
 11
139.1479855112205
 21
59.448212436731872
 31
0.0
  0
ENDBLK
  5
12DE
  8
0
  0
BLOCK
  8
0
  2
*X46
 70
     1
 10
0.0
 20
0.0
 30
0.0
  3
*X46
  1

  0
LINE
  5
12F4
  8
0
 62
     0
 10
148.43122837829659
 20
46.743733652561431
 30
0.0
 11
148.82810337829659
 21
47.431141316815321
 31
0.0
  0
LINE
  5
12F5
  8
0
 62
     0
 10
147.24060337829661
 20
44.681510659799741
 30
0.0
 11
147.63747837829661
 21
45.368918324053631
 31
0.0
  0
LINE
  5
12F6
  8
0
 62
     0
 10
146.0499783782966
 20
42.619287667038051
 30
0.0
 11
146.44685337829659
 21
43.306695331291948
 31
0.0
  0
LINE
  5
12F7
  8
0
 62
     0
 10
148.43122866279271
 20
49.493364145323113
 30
0.0
 11
148.61830667414799
 21
49.81739276596938
 31
0.0
  0
LINE
  5
12F8
  8
0
 62
     0
 10
147.24060366279269
 20
47.431141152561423
 30
0.0
 11
147.63747866279269
 21
48.11854881681532
 31
0.0
  0
LINE
  5
12F9
  8
0
 62
     0
 10
146.04997866279271
 20
45.368918159799733
 30
0.0
 11
146.44685366279271
 21
46.056325824053623
 31
0.0
  0
LINE
  5
12FA
  8
0
 62
     0
 10
144.85935366279281
 20
43.306695167038043
 30
0.0
 11
145.25622866279269
 21
43.99410283129194
 31
0.0
  0
LINE
  5
12FB
  8
0
 62
     0
 10
147.2406039472888
 20
50.180771645323119
 30
0.0
 11
147.6374789472888
 21
50.868179309577009
 31
0.0
  0
LINE
  5
12FC
  8
0
 62
     0
 10
146.04997894728879
 20
48.118548652561429
 30
0.0
 11
146.44685394728879
 21
48.805956316815333
 31
0.0
  0
LINE
  5
12FD
  8
0
 62
     0
 10
144.85935394728881
 20
46.056325659799732
 30
0.0
 11
145.2562289472888
 21
46.743733324053629
 31
0.0
  0
LINE
  5
12FE
  8
0
 62
     0
 10
143.6687289472888
 20
43.99410266703805
 30
0.0
 11
144.06560394728879
 21
44.681510331291953
 31
0.0
  0
LINE
  5
12FF
  8
0
 62
     0
 10
142.6604806727178
 20
42.247765428837333
 30
0.0
 11
142.87497894728881
 21
42.619287338530249
 31
0.0
  0
LINE
  5
1300
  8
0
 62
     0
 10
146.0499792317849
 20
50.868179145323118
 30
0.0
 11
146.4468542317849
 21
51.555586809577008
 31
0.0
  0
LINE
  5
1301
  8
0
 62
     0
 10
144.85935423178489
 20
48.805956152561428
 30
0.0
 11
145.25622923178491
 21
49.493363816815332
 31
0.0
  0
LINE
  5
1302
  8
0
 62
     0
 10
143.66872923178491
 20
46.743733159799731
 30
0.0
 11
144.0656042317849
 21
47.431140824053628
 31
0.0
  0
LINE
  5
1303
  8
0
 62
     0
 10
142.4781042317849
 20
44.681510167038049
 30
0.0
 11
142.87497923178489
 21
45.368917831291952
 31
0.0
  0
LINE
  5
1304
  8
0
 62
     0
 10
141.419831996672
 20
42.84852888758293
 30
0.0
 11
141.68435423178491
 21
43.306694838530248
 31
0.0
  0
LINE
  5
1305
  8
0
 62
     0
 10
144.85935451628089
 20
51.55558664532311
 30
0.0
 11
145.25622951628091
 21
52.242994309577
 31
0.0
  0
LINE
  5
1306
  8
0
 62
     0
 10
143.66872951628099
 20
49.49336365256142
 30
0.0
 11
144.06560451628101
 21
50.180771316815317
 31
0.0
  0
LINE
  5
1307
  8
0
 62
     0
 10
142.47810451628101
 20
47.431140659799723
 30
0.0
 11
142.874979516281
 21
48.11854832405362
 31
0.0
  0
LINE
  5
1308
  8
0
 62
     0
 10
141.287479516281
 20
45.368917667038041
 30
0.0
 11
141.68435451628099
 21
46.056325331291937
 31
0.0
  0
LINE
  5
1309
  8
0
 62
     0
 10
140.3761646435585
 20
43.79047400578952
 30
0.0
 11
140.49372951628101
 21
43.99410233853024
 31
0.0
  0
LINE
  5
130A
  8
0
 62
     0
 10
143.6687298007771
 20
52.242994145323109
 30
0.0
 11
144.06560480077709
 21
52.930401809577013
 31
0.0
  0
LINE
  5
130B
  8
0
 62
     0
 10
142.47810480077709
 20
50.180771152561427
 30
0.0
 11
142.87497980077711
 21
50.86817881681533
 31
0.0
  0
LINE
  5
130C
  8
0
 62
     0
 10
141.28747980077711
 20
48.11854815979973
 30
0.0
 11
141.6843548007771
 21
48.805955824053633
 31
0.0
  0
LINE
  5
130D
  8
0
 62
     0
 10
140.09685480077709
 20
46.056325167038047
 30
0.0
 11
140.49372980077709
 21
46.743732831291943
 31
0.0
  0
LINE
  5
130E
  8
0
 62
     0
 10
142.4781050852732
 20
52.930401645323109
 30
0.0
 11
142.5413133909216
 21
53.039881642166513
 31
0.0
  0
LINE
  5
130F
  8
0
 62
     0
 10
141.28748008527319
 20
50.868178652561433
 30
0.0
 11
141.68435508527321
 21
51.555586316815322
 31
0.0
  0
LINE
  5
1310
  8
0
 62
     0
 10
140.09685508527321
 20
48.805955659799729
 30
0.0
 11
140.4937300852732
 21
49.493363324053632
 31
0.0
  0
LINE
  5
1311
  8
0
 62
     0
 10
139.0379713642478
 20
46.971915255676087
 30
0.0
 11
139.30310508527319
 21
47.431140331291942
 31
0.0
  0
LINE
  5
1312
  8
0
 62
     0
 10
146.44684342093331
 20
51.555556586859758
 30
0.0
 11
146.04996842093331
 21
52.242964251113648
 31
0.0
  0
LINE
  5
1313
  8
0
 62
     0
 10
147.63746842093329
 20
49.493333594098068
 30
0.0
 11
147.24059342093329
 21
50.180741258351958
 31
0.0
  0
LINE
  5
1314
  8
0
 62
     0
 10
148.8280934209333
 20
47.431110601336378
 30
0.0
 11
148.43121842093331
 21
48.118518265590282
 31
0.0
  0
LINE
  5
1315
  8
0
 62
     0
 10
144.06559370542939
 20
52.930372079621449
 30
0.0
 11
143.86242080378611
 21
53.282277867988782
 31
0.0
  0
LINE
  5
1316
  8
0
 62
     0
 10
145.2562187054294
 20
50.868149086859759
 30
0.0
 11
144.85934370542941
 21
51.555556751113649
 31
0.0
  0
LINE
  5
1317
  8
0
 62
     0
 10
146.44684370542939
 20
48.805926094098069
 30
0.0
 11
146.04996870542939
 21
49.493333758351959
 31
0.0
  0
LINE
  5
1318
  8
0
 62
     0
 10
147.6374687054294
 20
46.743703101336379
 30
0.0
 11
147.24059370542929
 21
47.431110765590269
 31
0.0
  0
LINE
  5
1319
  8
0
 62
     0
 10
148.508994618332
 20
45.23417594007622
 30
0.0
 11
148.4312187054293
 21
45.368887772828579
 31
0.0
  0
LINE
  5
131A
  8
0
 62
     0
 10
142.87496898992549
 20
52.242964579621443
 30
0.0
 11
142.4780939899255
 21
52.93037224387534
 31
0.0
  0
LINE
  5
131B
  8
0
 62
     0
 10
144.0655939899255
 20
50.180741586859753
 30
0.0
 11
143.66871898992551
 21
50.86814925111365
 31
0.0
  0
LINE
  5
131C
  8
0
 62
     0
 10
145.25621898992549
 20
48.118518594098063
 30
0.0
 11
144.85934398992549
 21
48.80592625835196
 31
0.0
  0
LINE
  5
131D
  8
0
 62
     0
 10
146.44684398992541
 20
46.056295601336373
 30
0.0
 11
146.0499689899255
 21
46.74370326559027
 31
0.0
  0
LINE
  5
131E
  8
0
 62
     0
 10
147.6374689899254
 20
43.994072608574683
 30
0.0
 11
147.2405939899254
 21
44.681480272828573
 31
0.0
  0
LINE
  5
131F
  8
0
 62
     0
 10
141.68434427442159
 20
51.555557079621437
 30
0.0
 11
141.2874692744216
 21
52.242964743875341
 31
0.0
  0
LINE
  5
1320
  8
0
 62
     0
 10
142.8749692744216
 20
49.493334086859747
 30
0.0
 11
142.47809427442161
 21
50.180741751113651
 31
0.0
  0
LINE
  5
1321
  8
0
 62
     0
 10
144.06559427442161
 20
47.431111094098057
 30
0.0
 11
143.66871927442159
 21
48.118518758351961
 31
0.0
  0
LINE
  5
1322
  8
0
 62
     0
 10
145.25621927442151
 20
45.368888101336367
 30
0.0
 11
144.8593442744216
 21
46.056295765590271
 31
0.0
  0
LINE
  5
1323
  8
0
 62
     0
 10
146.44684427442149
 20
43.306665108574677
 30
0.0
 11
146.0499692744215
 21
43.994072772828581
 31
0.0
  0
LINE
  5
1324
  8
0
 62
     0
 10
140.49371955891769
 20
50.868149579621452
 30
0.0
 11
140.2198390612372
 21
51.342524516806201
 31
0.0
  0
LINE
  5
1325
  8
0
 62
     0
 10
141.6843445589177
 20
48.805926586859762
 30
0.0
 11
141.28746955891771
 21
49.493334251113652
 31
0.0
  0
LINE
  5
1326
  8
0
 62
     0
 10
142.87496955891771
 20
46.743703594098072
 30
0.0
 11
142.47809455891769
 21
47.431111258351969
 31
0.0
  0
LINE
  5
1327
  8
0
 62
     0
 10
144.0655945589177
 20
44.681480601336382
 30
0.0
 11
143.66871955891759
 21
45.368888265590272
 31
0.0
  0
LINE
  5
1328
  8
0
 62
     0
 10
145.25621955891759
 20
42.619257608574692
 30
0.0
 11
144.8593445589176
 21
43.306665272828589
 31
0.0
  0
LINE
  5
1329
  8
0
 62
     0
 10
140.49371984341369
 20
48.118519086859749
 30
0.0
 11
140.09684484341381
 21
48.805926751113653
 31
0.0
  0
LINE
  5
132A
  8
0
 62
     0
 10
141.6843448434137
 20
46.056296094098052
 30
0.0
 11
141.2874698434137
 21
46.743703758351948
 31
0.0
  0
LINE
  5
132B
  8
0
 62
     0
 10
142.87496984341371
 20
43.994073101336369
 30
0.0
 11
142.47809484341369
 21
44.681480765590258
 31
0.0
  0
LINE
  5
132C
  8
0
 62
     0
 10
144.00183134727419
 20
42.042291723556588
 30
0.0
 11
143.6687198434137
 21
42.619257772828568
 31
0.0
  0
LINE
  5
132D
  8
0
 62
     0
 10
139.3030951279099
 20
47.431111586859757
 30
0.0
 11
139.00628919785299
 21
47.94519453770598
 31
0.0
  0
LINE
  5
132E
  8
0
 62
     0
 10
140.4937201279098
 20
45.368888594098067
 30
0.0
 11
140.0968451279098
 21
46.056296258351971
 31
0.0
  0
LINE
  5
132F
  8
0
 62
     0
 10
141.68434512790981
 20
43.306665601336377
 30
0.0
 11
141.28747012790981
 21
43.994073265590274
 31
0.0
  0
LINE
  5
1330
  8
0
 62
     0
 10
145.25624999999999
 20
42.619265000000119
 30
0.0
 11
146.05000000000001
 21
42.619265000000119
 31
0.0
  0
LINE
  5
1331
  8
0
 62
     0
 10
142.875
 20
42.619265000000119
 30
0.0
 11
143.66874999999999
 21
42.619265000000119
 31
0.0
  0
LINE
  5
1332
  8
0
 62
     0
 10
147.63749999999999
 20
43.994080000000118
 30
0.0
 11
147.7877721817442
 21
43.994080000000118
 31
0.0
  0
LINE
  5
1333
  8
0
 62
     0
 10
145.25624999999999
 20
43.994080000000118
 30
0.0
 11
146.05000000000001
 21
43.994080000000118
 31
0.0
  0
LINE
  5
1334
  8
0
 62
     0
 10
142.875
 20
43.994080000000118
 30
0.0
 11
143.66874999999999
 21
43.994080000000118
 31
0.0
  0
LINE
  5
1335
  8
0
 62
     0
 10
140.49375000000001
 20
43.994080000000118
 30
0.0
 11
141.28749999999999
 21
43.994080000000118
 31
0.0
  0
LINE
  5
1336
  8
0
 62
     0
 10
147.63749999999999
 20
45.368895000000123
 30
0.0
 11
148.43125000000001
 21
45.368895000000123
 31
0.0
  0
LINE
  5
1337
  8
0
 62
     0
 10
145.25624999999999
 20
45.368895000000123
 30
0.0
 11
146.05000000000001
 21
45.368895000000123
 31
0.0
  0
LINE
  5
1338
  8
0
 62
     0
 10
142.875
 20
45.368895000000123
 30
0.0
 11
143.66874999999999
 21
45.368895000000123
 31
0.0
  0
LINE
  5
1339
  8
0
 62
     0
 10
140.49375000000001
 20
45.368895000000123
 30
0.0
 11
141.28749999999999
 21
45.368895000000123
 31
0.0
  0
LINE
  5
133A
  8
0
 62
     0
 10
147.63749999999999
 20
46.743710000000121
 30
0.0
 11
148.43125000000001
 21
46.743710000000121
 31
0.0
  0
LINE
  5
133B
  8
0
 62
     0
 10
145.25624999999999
 20
46.743710000000121
 30
0.0
 11
146.05000000000001
 21
46.743710000000121
 31
0.0
  0
LINE
  5
133C
  8
0
 62
     0
 10
142.875
 20
46.743710000000121
 30
0.0
 11
143.66874999999999
 21
46.743710000000121
 31
0.0
  0
LINE
  5
133D
  8
0
 62
     0
 10
140.49375000000001
 20
46.743710000000121
 30
0.0
 11
141.28749999999999
 21
46.743710000000121
 31
0.0
  0
LINE
  5
133E
  8
0
 62
     0
 10
147.63749999999999
 20
48.118525000000119
 30
0.0
 11
148.43125000000001
 21
48.118525000000119
 31
0.0
  0
LINE
  5
133F
  8
0
 62
     0
 10
145.25624999999999
 20
48.118525000000119
 30
0.0
 11
146.05000000000001
 21
48.118525000000119
 31
0.0
  0
LINE
  5
1340
  8
0
 62
     0
 10
142.875
 20
48.118525000000119
 30
0.0
 11
143.66874999999999
 21
48.118525000000119
 31
0.0
  0
LINE
  5
1341
  8
0
 62
     0
 10
140.49375000000001
 20
48.118525000000119
 30
0.0
 11
141.28749999999999
 21
48.118525000000119
 31
0.0
  0
LINE
  5
1342
  8
0
 62
     0
 10
147.63749999999999
 20
49.493340000000117
 30
0.0
 11
148.43125000000001
 21
49.493340000000117
 31
0.0
  0
LINE
  5
1343
  8
0
 62
     0
 10
145.25624999999999
 20
49.493340000000117
 30
0.0
 11
146.05000000000001
 21
49.493340000000117
 31
0.0
  0
LINE
  5
1344
  8
0
 62
     0
 10
142.875
 20
49.493340000000117
 30
0.0
 11
143.66874999999999
 21
49.493340000000117
 31
0.0
  0
LINE
  5
1345
  8
0
 62
     0
 10
140.49375000000001
 20
49.493340000000117
 30
0.0
 11
141.28749999999999
 21
49.493340000000117
 31
0.0
  0
LINE
  5
1346
  8
0
 62
     0
 10
147.63749999999999
 20
50.868155000000122
 30
0.0
 11
148.1077274650691
 21
50.868155000000122
 31
0.0
  0
LINE
  5
1347
  8
0
 62
     0
 10
145.25624999999999
 20
50.868155000000122
 30
0.0
 11
146.05000000000001
 21
50.868155000000122
 31
0.0
  0
LINE
  5
1348
  8
0
 62
     0
 10
142.875
 20
50.868155000000122
 30
0.0
 11
143.66874999999999
 21
50.868155000000122
 31
0.0
  0
LINE
  5
1349
  8
0
 62
     0
 10
140.49375000000001
 20
50.868155000000122
 30
0.0
 11
141.28749999999999
 21
50.868155000000122
 31
0.0
  0
LINE
  5
134A
  8
0
 62
     0
 10
145.25624999999999
 20
52.242970000000128
 30
0.0
 11
146.05000000000001
 21
52.242970000000128
 31
0.0
  0
LINE
  5
134B
  8
0
 62
     0
 10
142.875
 20
52.242970000000128
 30
0.0
 11
143.66874999999999
 21
52.242970000000128
 31
0.0
  0
LINE
  5
134C
  8
0
 62
     0
 10
141.10076874740011
 20
52.242970000000128
 30
0.0
 11
141.28749999999999
 21
52.242970000000128
 31
0.0
  0
ENDBLK
  5
134E
  8
0
  0
BLOCK
  8
0
  2
*U47
 70
     1
 10
0.0
 20
0.0
 30
0.0
  3
*U47
  1

  0
TEXT
  5
139A
  8
0
 62
     2
 10
-107.0026515151515
 20
-13.22500000000964
 30
0.0
 40
3.5
  1
min. 130
 50
90.0
  7
ISO
  0
ENDBLK
  5
139C
  8
0
  0
BLOCK
  8
0
  2
*U48
 70
     1
 10
0.0
 20
0.0
 30
0.0
  3
*U48
  1

  0
TEXT
  5
151E
  8
0
 62
     2
 10
59.174999963870683
 20
-11.46275614065862
 30
0.0
 40
3.5
  1
125
  7
BYGG-027377$0$ISO
  0
ENDBLK
  5
1520
  8
0
  0
BLOCK
  8
0
  2
*U49
 70
     1
 10
0.0
 20
0.0
 30
0.0
  3
*U49
  1

  0
TEXT
  5
1522
  8
0
 62
     2
 10
138.9070189266192
 20
55.525000000000013
 30
0.0
 40
3.5
  1
117
 50
90.0
  7
BYGG-027377$0$ISO
  0
ENDBLK
  5
1524
  8
0
  0
BLOCK
  8
0
  2
*X50
 70
     1
 10
0.0
 20
0.0
 30
0.0
  3
*X50
  1

  0
LINE
  5
1526
  8
0
 62
     0
 10
76.199999999999989
 20
70.599975999985048
 30
0.0
 11
76.199999999999989
 21
74.699456650023421
 31
0.0
  0
LINE
  5
1527
  8
0
 62
     0
 10
74.612499999999983
 20
71.26391552932489
 30
0.0
 11
74.612499999999983
 21
74.034973770722118
 31
0.0
  0
LINE
  5
1528
  8
0
 62
     0
 10
73.024999999999991
 20
71.73370616123222
 30
0.0
 11
73.024999999999991
 21
73.533706161232203
 31
0.0
  0
LINE
  5
1529
  8
0
 62
     0
 10
71.4375
 20
71.73370616123222
 30
0.0
 11
71.4375
 21
73.533706161232345
 31
0.0
  0
LINE
  5
152A
  8
0
 62
     0
 10
69.849999999999994
 20
71.73370616123222
 30
0.0
 11
69.849999999999994
 21
73.88665244376044
 31
0.0
  0
LINE
  5
152B
  8
0
 62
     0
 10
68.262500000000003
 20
106.77485855299869
 30
0.0
 11
68.262500000000003
 21
108.28802382332501
 31
0.0
  0
LINE
  5
152C
  8
0
 62
     0
 10
68.262500000000003
 20
115.27485855300129
 30
0.0
 11
68.262500000000017
 21
116.78144118816149
 31
0.0
  0
LINE
  5
152D
  8
0
 62
     0
 10
68.262500000000003
 20
71.73370616123222
 30
0.0
 11
68.262500000000003
 21
99.788023823318554
 31
0.0
  0
LINE
  5
152E
  8
0
 62
     0
 10
66.674999999999997
 20
98.497179717640634
 30
0.0
 11
66.675000000000011
 21
116.78144118816149
 31
0.0
  0
LINE
  5
152F
  8
0
 62
     0
 10
66.674999999999997
 20
71.73370616123222
 30
0.0
 11
66.674999999999997
 21
73.54944469071458
 31
0.0
  0
LINE
  5
1530
  8
0
 62
     0
 10
65.087499999999991
 20
98.497179717642254
 30
0.0
 11
65.087500000000006
 21
116.78144118816139
 31
0.0
  0
LINE
  5
1531
  8
0
 62
     0
 10
65.087499999999991
 20
71.73370616123222
 30
0.0
 11
65.087499999999991
 21
73.54944469071458
 31
0.0
  0
LINE
  5
1532
  8
0
 62
     0
 10
63.500000000000007
 20
98.497179717641387
 30
0.0
 11
63.500000000000007
 21
99.797179717640546
 31
0.0
  0
LINE
  5
1533
  8
0
 62
     0
 10
63.500000000000007
 20
114.9971797176448
 30
0.0
 11
63.500000000000007
 21
116.78144118816139
 31
0.0
  0
LINE
  5
1534
  8
0
 62
     0
 10
63.500000000000007
 20
71.73370616123222
 30
0.0
 11
63.500000000000007
 21
73.54944469071458
 31
0.0
  0
LINE
  5
1535
  8
0
 62
     0
 10
61.912500000000001
 20
98.49717971764052
 30
0.0
 11
61.912500000000001
 21
99.797179717640546
 31
0.0
  0
LINE
  5
1536
  8
0
 62
     0
 10
61.912500000000001
 20
114.9971797176436
 30
0.0
 11
61.912500000000001
 21
116.78144118816139
 31
0.0
  0
LINE
  5
1537
  8
0
 62
     0
 10
61.912500000000001
 20
71.73370616123222
 30
0.0
 11
61.912500000000001
 21
73.54944469071458
 31
0.0
  0
LINE
  5
1538
  8
0
 62
     0
 10
60.325000000000003
 20
98.497179717639654
 30
0.0
 11
60.325000000000003
 21
99.828804842068848
 31
0.0
  0
LINE
  5
1539
  8
0
 62
     0
 10
60.325000000000003
 20
114.96555459321431
 30
0.0
 11
60.325000000000003
 21
116.78144118816139
 31
0.0
  0
LINE
  5
153A
  8
0
 62
     0
 10
60.325000000000003
 20
71.73370616123222
 30
0.0
 11
60.325000000000003
 21
73.54944469071458
 31
0.0
  0
LINE
  5
153B
  8
0
 62
     0
 10
58.737500000000011
 20
98.497179717638801
 30
0.0
 11
58.737500000000011
 21
116.7814411881613
 31
0.0
  0
LINE
  5
153C
  8
0
 62
     0
 10
58.737500000000011
 20
71.73370616123222
 30
0.0
 11
58.737500000000011
 21
73.54944469071458
 31
0.0
  0
LINE
  5
153D
  8
0
 62
     0
 10
57.149999999999999
 20
106.7814411881581
 30
0.0
 11
57.149999999999999
 21
108.2814411881613
 31
0.0
  0
LINE
  5
153E
  8
0
 62
     0
 10
57.149999999999999
 20
115.2814411881613
 30
0.0
 11
57.149999999999999
 21
116.7814411881613
 31
0.0
  0
LINE
  5
153F
  8
0
 62
     0
 10
57.149999999999999
 20
71.73370616123222
 30
0.0
 11
57.149999999999999
 21
99.781441188156677
 31
0.0
  0
LINE
  5
1540
  8
0
 62
     0
 10
55.562500000000007
 20
105.7893797277396
 30
0.0
 11
55.562500000000007
 21
109.273502648583
 31
0.0
  0
LINE
  5
1541
  8
0
 62
     0
 10
55.562500000000007
 20
114.2893797277396
 30
0.0
 11
55.562500000000007
 21
116.5235026484573
 31
0.0
  0
LINE
  5
1542
  8
0
 62
     0
 10
55.562500000000007
 20
71.73370616123222
 30
0.0
 11
55.562500000000007
 21
100.77350264857979
 31
0.0
  0
LINE
  5
1543
  8
0
 62
     0
 10
53.975000000000001
 20
71.73370616123222
 30
0.0
 11
53.975000000000001
 21
73.533706161232089
 31
0.0
  0
LINE
  5
1544
  8
0
 62
     0
 10
52.387500000000003
 20
71.73370616123222
 30
0.0
 11
52.387500000000003
 21
73.533706161231692
 31
0.0
  0
LINE
  5
1545
  8
0
 62
     0
 10
50.799999999999997
 20
71.502072594400531
 30
0.0
 11
50.799999999999997
 21
73.796816705646393
 31
0.0
  0
LINE
  5
1546
  8
0
 62
     0
 10
49.212499999999999
 20
70.599975999985134
 30
0.0
 11
49.212499999999999
 21
74.69944565000695
 31
0.0
  0
ENDBLK
  5
1548
  8
0
  0
BLOCK
  8
0
  2
*X51
 70
     1
 10
0.0
 20
0.0
 30
0.0
  3
*X51
  1

  0
LINE
  5
154A
  8
0
 62
     0
 10
76.199999999999989
 20
59.299444650023403
 30
0.0
 11
76.199999999999989
 21
63.39945665002346
 31
0.0
  0
LINE
  5
154B
  8
0
 62
     0
 10
74.612499999999983
 20
59.963915566641319
 30
0.0
 11
74.612499999999983
 21
62.734973733405681
 31
0.0
  0
LINE
  5
154C
  8
0
 62
     0
 10
73.024999999999991
 20
60.199444682530469
 30
0.0
 11
73.024999999999991
 21
62.499444682530417
 31
0.0
  0
LINE
  5
154D
  8
0
 62
     0
 10
71.4375
 20
60.199444682530462
 30
0.0
 11
71.4375
 21
62.499444682530417
 31
0.0
  0
LINE
  5
154E
  8
0
 62
     0
 10
69.849999999999994
 20
60.199444682530462
 30
0.0
 11
69.849999999999994
 21
62.499444682530417
 31
0.0
  0
LINE
  5
154F
  8
0
 62
     0
 10
68.262500000000003
 20
60.199444682530448
 30
0.0
 11
68.262500000000003
 21
62.499444682530417
 31
0.0
  0
LINE
  5
1550
  8
0
 62
     0
 10
66.674999999999997
 20
60.199444682530448
 30
0.0
 11
66.674999999999997
 21
62.499444682530417
 31
0.0
  0
LINE
  5
1551
  8
0
 62
     0
 10
65.087499999999991
 20
60.199444682530448
 30
0.0
 11
65.087499999999991
 21
62.499444682530417
 31
0.0
  0
LINE
  5
1552
  8
0
 62
     0
 10
63.500000000000007
 20
60.199444682530441
 30
0.0
 11
63.500000000000007
 21
62.499444682530417
 31
0.0
  0
LINE
  5
1553
  8
0
 62
     0
 10
61.912500000000001
 20
60.199444682530441
 30
0.0
 11
61.912500000000001
 21
62.499444682530417
 31
0.0
  0
LINE
  5
1554
  8
0
 62
     0
 10
60.325000000000003
 20
60.199444682530441
 30
0.0
 11
60.325000000000003
 21
62.499444682530417
 31
0.0
  0
LINE
  5
1555
  8
0
 62
     0
 10
58.737500000000011
 20
60.199444682530441
 30
0.0
 11
58.737500000000011
 21
62.499444682530417
 31
0.0
  0
LINE
  5
1556
  8
0
 62
     0
 10
57.149999999999999
 20
60.199444682530441
 30
0.0
 11
57.149999999999999
 21
62.499444682530417
 31
0.0
  0
LINE
  5
1557
  8
0
 62
     0
 10
55.562500000000007
 20
60.199444682530441
 30
0.0
 11
55.562500000000007
 21
62.499444682530417
 31
0.0
  0
LINE
  5
1558
  8
0
 62
     0
 10
53.975000000000001
 20
60.199444682530441
 30
0.0
 11
53.975000000000001
 21
62.499444682530417
 31
0.0
  0
LINE
  5
1559
  8
0
 62
     0
 10
52.387500000000003
 20
60.199444682530427
 30
0.0
 11
52.387500000000003
 21
62.499444682530417
 31
0.0
  0
LINE
  5
155A
  8
0
 62
     0
 10
50.799999999999997
 20
60.18970205771393
 30
0.0
 11
50.799999999999997
 21
62.509187277926962
 31
0.0
  0
LINE
  5
155B
  8
0
 62
     0
 10
49.212499999999999
 20
59.299444650023482
 30
0.0
 11
49.212499999999999
 21
63.39944565000696
 31
0.0
  0
ENDBLK
  5
155D
  8
0
  0
BLOCK
  8
0
  2
*X52
 70
     1
 10
0.0
 20
0.0
 30
0.0
  3
*X52
  1

  0
LINE
  5
1595
  8
0
 62
     0
 10
30.000000000144279
 20
9.5435564980156862
 30
0.0
 11
29.785044591094451
 21
9.7585119070655093
 31
0.0
  0
LINE
  5
1596
  8
0
 62
     0
 10
30.000000000144279
 20
8.4210244828820446
 30
0.0
 11
28.791889535733919
 21
9.6291349472923944
 31
0.0
  0
LINE
  5
1597
  8
0
 62
     0
 10
30.000000000144279
 20
7.2984924677484013
 30
0.0
 11
27.696179936233221
 21
9.6023125316594591
 31
0.0
  0
LINE
  5
1598
  8
0
 62
     0
 10
30.000000000144279
 20
6.175960452614758
 30
0.0
 11
26.458603330105699
 21
9.7173571226533326
 31
0.0
  0
LINE
  5
1599
  8
0
 62
     0
 10
30.000000000144279
 20
5.0534284374811138
 30
0.0
 11
25.999999999665711
 21
9.0534284379596741
 31
0.0
  0
LINE
  5
159A
  8
0
 62
     0
 10
30.000000000144279
 20
3.9308964223474661
 30
0.0
 11
25.43089642247649
 21
8.50000000001525
 31
0.0
  0
LINE
  5
159B
  8
0
 62
     0
 10
28.243737768197231
 20
4.5646266391608687
 30
0.0
 11
24.563860370612751
 21
8.2445040367453561
 31
0.0
  0
LINE
  5
159C
  8
0
 62
     0
 10
25.18583239221595
 20
6.5000000000084981
 30
0.0
 11
24.500000000050491
 21
7.1858323921739551
 31
0.0
  0
LINE
  5
159D
  8
0
 62
     0
 10
27.50485410063979
 20
4.1809782915846601
 30
0.0
 11
26.000000000144802
 21
5.6858323920796439
 31
0.0
  0
LINE
  5
159E
  8
0
 62
     0
 10
26.142017163115931
 20
4.4212832139748857
 30
0.0
 11
25.76451961880031
 21
4.798780758290504
 31
0.0
  0
LINE
  5
159F
  8
0
 62
     0
 10
29.637593697385569
 20
3.4854458626051388
 30
0.0
 11
30.000000000144279
 21
3.847852165363848
 31
0.0
  0
LINE
  5
15A0
  8
0
 62
     0
 10
29.338050327412109
 20
4.3084345077653303
 30
0.0
 11
30.000000000144279
 21
4.9703841804974882
 31
0.0
  0
LINE
  5
15A1
  8
0
 62
     0
 10
28.765754104161111
 20
4.8586702996479607
 30
0.0
 11
30.000000000144279
 21
6.0929161956311351
 31
0.0
  0
LINE
  5
15A2
  8
0
 62
     0
 10
28.00064141575114
 20
4.0935576112380021
 30
0.0
 11
28.258294972524499
 21
4.3512111680113597
 31
0.0
  0
LINE
  5
15A3
  8
0
 62
     0
 10
27.046372718744379
 20
4.2618209293648777
 30
0.0
 11
30.000000000144279
 21
7.2154482107647828
 31
0.0
  0
LINE
  5
15A4
  8
0
 62
     0
 10
26.092104021737601
 20
4.4300842474917523
 30
0.0
 11
30.000000000144279
 21
8.3379802258984235
 31
0.0
  0
LINE
  5
15A5
  8
0
 62
     0
 10
26.00000000014667
 20
5.4605122410344631
 30
0.0
 11
30.000000000144279
 21
9.4605122410320703
 31
0.0
  0
LINE
  5
15A6
  8
0
 62
     0
 10
25.893666306773039
 20
6.4767105627944801
 30
0.0
 11
29.072388621534511
 21
9.6554328775559455
 31
0.0
  0
LINE
  5
15A7
  8
0
 62
     0
 10
24.825764097368861
 20
6.5313403685239448
 30
0.0
 11
27.892690376955638
 21
9.5982666481107142
 31
0.0
  0
LINE
  5
15A8
  8
0
 62
     0
 10
25.99999999966759
 20
8.8281082859563096
 30
0.0
 11
26.837474026840582
 21
9.6655823131293044
 31
0.0
  0
LINE
  5
15A9
  8
0
 62
     0
 10
24.49999999998218
 20
7.3281082862709086
 30
0.0
 11
25.671891713723781
 21
8.5000000000125002
 31
0.0
  0
ENDBLK
  5
15AB
  8
0
  0
BLOCK
  8
0
  2
*X53
 70
     1
 10
0.0
 20
0.0
 30
0.0
  3
*X53
  1

  0
LINE
  5
15AD
  8
0
 62
     0
 10
62.000000000016399
 20
8.9744529218855842
 30
0.0
 11
61.292741409379012
 21
9.681711512522984
 31
0.0
  0
LINE
  5
15AE
  8
0
 62
     0
 10
63.499999999770871
 20
7.4744529221311238
 30
0.0
 11
62.474452921887817
 21
8.5000000000141718
 31
0.0
  0
LINE
  5
15AF
  8
0
 62
     0
 10
63.27167441811244
 20
6.5802464886559022
 30
0.0
 11
60.251074271029843
 21
9.6008466357385114
 31
0.0
  0
LINE
  5
15B0
  8
0
 62
     0
 10
62.229388891634201
 20
6.5000000000005018
 30
0.0
 11
59.09016882870268
 21
9.6392200629320186
 31
0.0
  0
LINE
  5
15B1
  8
0
 62
     0
 10
61.999999999537323
 20
5.606856876963751
 30
0.0
 11
58.000000000144432
 21
9.6068568763566304
 31
0.0
  0
LINE
  5
15B2
  8
0
 62
     0
 10
62.032304104628871
 20
4.4520207567385457
 30
0.0
 11
58.000000000144439
 21
8.48432486122298
 31
0.0
  0
LINE
  5
15B3
  8
0
 62
     0
 10
61.078035407622089
 20
4.2837574386116737
 30
0.0
 11
58.000000000144432
 21
7.3617928460893367
 31
0.0
  0
LINE
  5
15B4
  8
0
 62
     0
 10
59.425587647328541
 20
4.8136731837715816
 30
0.0
 11
58.000000000144439
 21
6.2392608309556943
 31
0.0
  0
LINE
  5
15B5
  8
0
 62
     0
 10
60.123766710615328
 20
4.1154941204847999
 30
0.0
 11
59.768727145435207
 21
4.4705336856649156
 31
0.0
  0
LINE
  5
15B6
  8
0
 62
     0
 10
58.701001178447513
 20
4.4157276375189713
 30
0.0
 11
58.000000000144432
 21
5.1167288158220501
 31
0.0
  0
LINE
  5
15B7
  8
0
 62
     0
 10
58.401457808474063
 20
3.592738992358782
 30
0.0
 11
58.000000000144439
 21
3.994196800688405
 31
0.0
  0
LINE
  5
15B8
  8
0
 62
     0
 10
62.035656054452978
 20
4.452611795930518
 30
0.0
 11
62.25741688991679
 21
4.6743726313943368
 31
0.0
  0
LINE
  5
15B9
  8
0
 62
     0
 10
62.960512243399322
 20
6.5000000000104983
 30
0.0
 11
63.499999999562
 21
7.039487756173183
 31
0.0
  0
LINE
  5
15BA
  8
0
 62
     0
 10
60.672819116929119
 20
4.2123068735402951
 30
0.0
 11
61.999999999536762
 21
5.5394877561479383
 31
0.0
  0
LINE
  5
15BB
  8
0
 62
     0
 10
59.76421902896228
 20
4.426238800707103
 30
0.0
 11
63.479541786705823
 21
8.1415615584506433
 31
0.0
  0
LINE
  5
15BC
  8
0
 62
     0
 10
59.04608802924534
 20
4.8306398161238064
 30
0.0
 11
62.715448213138451
 21
8.5000000000169216
 31
0.0
  0
LINE
  5
15BD
  8
0
 62
     0
 10
58.000000000144418
 20
3.7845517870228949
 30
0.0
 11
58.740958963897668
 21
4.5255107507761423
 31
0.0
  0
LINE
  5
15BE
  8
0
 62
     0
 10
58.000000000144418
 20
4.9070838021565448
 30
0.0
 11
62.000000000015838
 21
8.9070838020279623
 31
0.0
  0
LINE
  5
15BF
  8
0
 62
     0
 10
58.000000000144432
 20
6.0296158172901917
 30
0.0
 11
61.716731080143859
 21
9.7463468972896194
 31
0.0
  0
LINE
  5
15C0
  8
0
 62
     0
 10
58.000000000144439
 20
7.152147832423835
 30
0.0
 11
60.455956059016017
 21
9.6081038912954142
 31
0.0
  0
LINE
  5
15C1
  8
0
 62
     0
 10
58.000000000144432
 20
8.2746798475574792
 30
0.0
 11
59.344542698422529
 21
9.6192225458355765
 31
0.0
  0
LINE
  5
15C2
  8
0
 62
     0
 10
58.000000000144418
 20
9.3972118626911154
 30
0.0
 11
58.339490121961418
 21
9.7367019845081089
 31
0.0
  0
ENDBLK
  5
15C4
  8
0
  0
BLOCK
  8
0
  2
*U54
 70
     1
 10
0.0
 20
0.0
 30
0.0
  3
*U54
  1

  0
TEXT
  5
1703
  8
0
 62
     2
 10
57.551991686137953
 20
11.550000000630281
 30
0.0
 40
3.5
  1
28
 50
90.0
  7
BYGG-027379$0$ISO
  0
ENDBLK
  5
1705
  8
0
  0
BLOCK
  8
0
  2
*U55
 70
     1
 10
0.0
 20
0.0
 30
0.0
  3
*U55
  1

  0
TEXT
  5
1707
  8
0
 62
     2
 10
20.874999999841279
 20
-6.9002964607942188
 30
0.0
 40
3.5
  1
47
  7
BYGG-027379$0$ISO
  0
ENDBLK
  5
1709
  8
0
  0
BLOCK
  8
0
  2
*X56
 70
     1
 10
0.0
 20
0.0
 30
0.0
  3
*X56
  1

  0
LINE
  5
170B
  8
0
 62
     0
 10
38.100000000000001
 20
7.2500120012615357
 30
0.0
 11
38.100000000000001
 21
11.35002133459092
 31
0.0
  0
LINE
  5
170C
  8
0
 62
     0
 10
36.512500000000003
 20
7.9722179862110449
 30
0.0
 11
36.512500000000003
 21
10.62780601631216
 31
0.0
  0
LINE
  5
170D
  8
0
 62
     0
 10
34.924999999999997
 20
8.3500120012634689
 30
0.0
 11
34.924999999999997
 21
10.250012001263441
 31
0.0
  0
LINE
  5
170E
  8
0
 62
     0
 10
33.337499999999999
 20
8.3500120012634689
 30
0.0
 11
33.337499999999999
 21
10.250012001263441
 31
0.0
  0
LINE
  5
170F
  8
0
 62
     0
 10
31.75
 20
8.3500120012634689
 30
0.0
 11
31.75
 21
10.250012001263441
 31
0.0
  0
LINE
  5
1710
  8
0
 62
     0
 10
30.162500000000001
 20
8.3500120012634689
 30
0.0
 11
30.162500000000001
 21
10.250012001263441
 31
0.0
  0
LINE
  5
1711
  8
0
 62
     0
 10
28.574999999999999
 20
8.3500120012634689
 30
0.0
 11
28.574999999999999
 21
10.250012001263441
 31
0.0
  0
LINE
  5
1712
  8
0
 62
     0
 10
26.987500000000001
 20
8.3500120012634689
 30
0.0
 11
26.987500000000001
 21
10.250012001263441
 31
0.0
  0
LINE
  5
1713
  8
0
 62
     0
 10
25.399999999999999
 20
8.3500120012634689
 30
0.0
 11
25.399999999999999
 21
10.250012001263441
 31
0.0
  0
LINE
  5
1714
  8
0
 62
     0
 10
23.8125
 20
8.3500120012634689
 30
0.0
 11
23.8125
 21
10.250012001263441
 31
0.0
  0
LINE
  5
1715
  8
0
 62
     0
 10
22.225000000000001
 20
8.3500120012634689
 30
0.0
 11
22.225000000000001
 21
10.250012001263441
 31
0.0
  0
LINE
  5
1716
  8
0
 62
     0
 10
20.637499999999999
 20
8.3500120012634689
 30
0.0
 11
20.637499999999999
 21
10.250012001263441
 31
0.0
  0
LINE
  5
1717
  8
0
 62
     0
 10
19.050000000000001
 20
8.3500120012634689
 30
0.0
 11
19.050000000000001
 21
10.250012001263441
 31
0.0
  0
LINE
  5
1718
  8
0
 62
     0
 10
17.462499999999999
 20
8.3500120012634689
 30
0.0
 11
17.462499999999999
 21
10.250012001263441
 31
0.0
  0
LINE
  5
1719
  8
0
 62
     0
 10
15.875
 20
8.3500120012634689
 30
0.0
 11
15.875
 21
10.250012001263441
 31
0.0
  0
LINE
  5
171A
  8
0
 62
     0
 10
14.2875
 20
8.3500120012634689
 30
0.0
 11
14.2875
 21
10.250012001263441
 31
0.0
  0
LINE
  5
171B
  8
0
 62
     0
 10
12.699999999999999
 20
8.3500120012634689
 30
0.0
 11
12.699999999999999
 21
10.250012001263441
 31
0.0
  0
LINE
  5
171C
  8
0
 62
     0
 10
11.112500000000001
 20
8.3119842071189947
 30
0.0
 11
11.112500000000001
 21
10.28803979540581
 31
0.0
  0
LINE
  5
171D
  8
0
 62
     0
 10
9.5249999999999986
 20
7.4165183522993479
 30
0.0
 11
9.5249999999999986
 21
11.18350565022406
 31
0.0
  0
ENDBLK
  5
171F
  8
0
  0
BLOCK
  8
0
  2
*U57
 70
     1
 10
0.0
 20
0.0
 30
0.0
  3
*U57
  1

  0
TEXT
  5
1766
  8
0
 62
     2
 10
41.549999999999997
 20
-11.884580595029099
 30
0.0
 40
3.5
  1
88
  7
BYGG-027050$0$ISO
  0
ENDBLK
  5
1768
  8
0
  0
BLOCK
  8
0
  2
*U58
 70
     1
 10
0.0
 20
0.0
 30
0.0
  3
*U58
  1

  0
TEXT
  5
176A
  8
0
 62
     2
 10
101.19279663991669
 20
27.550000000002019
 30
0.0
 40
3.5
  1
60
 50
90.0
  7
BYGG-027050$0$ISO
  0
ENDBLK
  5
176C
  8
0
  0
BLOCK
  8
0
  2
*U59
 70
     1
 10
0.0
 20
0.0
 30
0.0
  3
*U59
  1

  0
TEXT
  5
178E
  8
0
 62
     2
 10
-5.9215024024452729
 20
13.649999999996981
 30
0.0
 40
3.0
  1
34.8
 50
90.0
  7
BYGG-027470$0$ISO
  0
ENDBLK
  5
1790
  8
0
  0
BLOCK
  8
0
  2
*U60
 70
     1
 10
0.0
 20
0.0
 30
0.0
  3
*U60
  1

  0
TEXT
  5
1792
  8
0
 62
     2
 10
5.7000000000036382
 20
-7.2519065737358392
 30
0.0
 40
3.0
  1
15
  7
BYGG-027470$0$ISO
  0
ENDBLK
  5
1794
  8
0
  0
BLOCK
  8
0
  2
*U61
 70
     1
 10
0.0
 20
0.0
 30
0.0
  3
*U61
  1

  0
TEXT
  5
1797
  8
0
 62
     2
 10
-32.449999999999889
 20
102.0000000000001
 30
0.0
 40
3.5
  1
88
  7
ISO
  0
ENDBLK
  5
1799
  8
0
  0
BLOCK
  8
0
  2
*U62
 70
     1
 10
0.0
 20
0.0
 30
0.0
  3
*U62
  1

  0
TEXT
  5
179B
  8
0
 62
     2
 10
-95.000000000000014
 20
62.900000000006031
 30
0.0
 40
3.5
  1
10
 50
90.0
  7
ISO
  0
ENDBLK
  5
179D
  8
0
  0
BLOCK
  8
0
  2
*U63
 70
     1
 10
0.0
 20
0.0
 30
0.0
  3
*U63
  1

  0
TEXT
  5
179F
  8
0
 62
     2
 10
14.27500000009033
 20
102.0000000000001
 30
0.0
 40
3.5
  1
6.5
  7
ISO
  0
ENDBLK
  5
17A1
  8
0
  0
BLOCK
  8
0
  2
*U64
 70
     1
 10
0.0
 20
0.0
 30
0.0
  3
*U64
  1

  0
TEXT
  5
17A3
  8
0
 62
     2
 10
41.374999999841393
 20
102.0000000000001
 30
0.0
 40
3.5
  1
47
  7
ISO
  0
ENDBLK
  5
17A5
  8
0
  0
BLOCK
  8
0
  2
*U65
 70
     1
 10
0.0
 20
0.0
 30
0.0
  3
*U65
  1

  0
TEXT
  5
17A7
  8
0
 62
     2
 10
99.399999999502128
 20
102.0000000000001
 30
0.0
 40
3.5
  1
71.5
  7
ISO
  0
ENDBLK
  5
17A9
  8
0
  0
BLOCK
  8
0
  2
*U66
 70
     1
 10
0.0
 20
0.0
 30
0.0
  3
*U66
  1

  0
TEXT
  5
17AB
  8
0
 62
     2
 10
73.17499999975108
 20
114.0000000000001
 30
0.0
 40
3.5
  1
125
  7
ISO
  0
ENDBLK
  5
17AD
  8
0
  0
BLOCK
  8
0
  2
*U67
 70
     1
 10
0.0
 20
0.0
 30
0.0
  3
*U67
  1

  0
TEXT
  5
17AF
  8
0
 62
     2
 10
-95.000000000000014
 20
-1.4749999999994721
 30
0.0
 40
3.5
  1
117
 50
90.0
  7
ISO
  0
ENDBLK
  5
17B1
  8
0
  0
BLOCK
  8
0
  2
*U68
 70
     1
 10
0.0
 20
0.0
 30
0.0
  3
*U68
  1

  0
TEXT
  5
17B3
  8
0
 62
     2
 10
73.174999963870675
 20
-68.462756140658584
 30
0.0
 40
3.5
  1
125
  7
BYGG-027377$0$ISO
  0
ENDBLK
  5
17B5
  8
0
  0
BLOCK
  8
0
  2
*U69
 70
     1
 10
0.0
 20
0.0
 30
0.0
  3
*U69
  1

  0
TEXT
  5
1D71
  8
0
 62
     2
 10
-6.9215024024523242
 20
35.850000000000477
 30
0.0
 40
3.0
  1
34.8
 50
90.0
  7
BYGG-027470$0$ISO
  0
ENDBLK
  5
1D73
  8
0
  0
BLOCK
  8
0
  2
*U70
 70
     1
 10
0.0
 20
0.0
 30
0.0
  3
*U70
  1

  0
TEXT
  5
1D75
  8
0
 62
     2
 10
4.6999999999965931
 20
14.948093426267651
 30
0.0
 40
3.0
  1
15
  7
BYGG-027470$0$ISO
  0
ENDBLK
  5
1D77
  8
0
  0
BLOCK
  8
0
  2
*U71
 70
     1
 10
0.0
 20
0.0
 30
0.0
  3
*U71
  1

  0
TEXT
  5
1D79
  8
0
 62
     2
 10
-32.449999999999889
 20
-11.884580595028069
 30
0.0
 40
3.5
  1
88
  7
BYGG-027050$0$ISO
  0
ENDBLK
  5
1D7B
  8
0
  0
BLOCK
  8
0
  2
*U72
 70
     1
 10
0.0
 20
0.0
 30
0.0
  3
*U72
  1

  0
TEXT
  5
1D7D
  8
0
 62
     2
 10
27.192796639916871
 20
27.550000000003031
 30
0.0
 40
3.5
  1
60
 50
90.0
  7
BYGG-027050$0$ISO
  0
ENDBLK
  5
1D7F
  8
0
  0
BLOCK
  8
0
  2
*U73
 70
     1
 10
0.0
 20
0.0
 30
0.0
  3
*U73
  1

  0
TEXT
  5
1D81
  8
0
 62
     2
 10
78.051991686138024
 20
53.549999999379871
 30
0.0
 40
3.5
  1
28
 50
90.0
  7
BYGG-027379$0$ISO
  0
ENDBLK
  5
1D83
  8
0
  0
BLOCK
  8
0
  2
*U74
 70
     1
 10
0.0
 20
0.0
 30
0.0
  3
*U74
  1

  0
TEXT
  5
1D85
  8
0
 62
     2
 10
41.374999999841378
 20
35.099703537955378
 30
0.0
 40
3.5
  1
47
  7
BYGG-027379$0$ISO
  0
ENDBLK
  5
1D87
  8
0
  0
BLOCK
  8
0
  2
*U75
 70
     1
 10
0.0
 20
0.0
 30
0.0
  3
*U75
  1

  0
TEXT
  5
1D89
  8
0
 62
     2
 10
152.90701892661929
 20
-1.474999999999967
 30
0.0
 40
3.5
  1
117
 50
90.0
  7
BYGG-027377$0$ISO
  0
ENDBLK
  5
1D8B
  8
0
  0
BLOCK
  8
0
  2
*X76
 70
     1
 10
0.0
 20
0.0
 30
0.0
  3
*X76
  1

  0
LINE
  5
1DC2
  8
0
 62
     0
 10
62.000000000016399
 20
68.9744529218856
 30
0.0
 11
61.292741409379012
 21
69.68171151252298
 31
0.0
  0
LINE
  5
1DC3
  8
0
 62
     0
 10
63.499999999770878
 20
67.474452922131121
 30
0.0
 11
62.474452921887817
 21
68.500000000014168
 31
0.0
  0
LINE
  5
1DC4
  8
0
 62
     0
 10
63.271674418112447
 20
66.580246488655902
 30
0.0
 11
60.251074271029843
 21
69.600846635738506
 31
0.0
  0
LINE
  5
1DC5
  8
0
 62
     0
 10
62.229388891634201
 20
66.500000000000512
 30
0.0
 11
59.090168828702687
 21
69.639220062932026
 31
0.0
  0
LINE
  5
1DC6
  8
0
 62
     0
 10
61.999999999537323
 20
65.606856876963761
 30
0.0
 11
58.000000000144439
 21
69.606856876356645
 31
0.0
  0
LINE
  5
1DC7
  8
0
 62
     0
 10
62.032304104628871
 20
64.452020756738534
 30
0.0
 11
58.000000000144439
 21
68.484324861222973
 31
0.0
  0
LINE
  5
1DC8
  8
0
 62
     0
 10
61.078035407622082
 20
64.283757438611673
 30
0.0
 11
58.000000000144432
 21
67.361792846089344
 31
0.0
  0
LINE
  5
1DC9
  8
0
 62
     0
 10
59.425587647328527
 20
64.813673183771613
 30
0.0
 11
58.000000000144439
 21
66.2392608309557
 31
0.0
  0
LINE
  5
1DCA
  8
0
 62
     0
 10
60.123766710615328
 20
64.115494120484811
 30
0.0
 11
59.768727145435207
 21
64.470533685664932
 31
0.0
  0
LINE
  5
1DCB
  8
0
 62
     0
 10
58.701001178447513
 20
64.41572763751897
 30
0.0
 11
58.000000000144432
 21
65.116728815822057
 31
0.0
  0
LINE
  5
1DCC
  8
0
 62
     0
 10
58.401457808474063
 20
63.59273899235879
 30
0.0
 11
58.000000000144439
 21
63.994196800688421
 31
0.0
  0
LINE
  5
1DCD
  8
0
 62
     0
 10
62.035656054452978
 20
64.452611795930522
 30
0.0
 11
62.25741688991679
 21
64.674372631394334
 31
0.0
  0
LINE
  5
1DCE
  8
0
 62
     0
 10
62.960512243399322
 20
66.500000000010502
 30
0.0
 11
63.499999999562
 21
67.039487756173187
 31
0.0
  0
LINE
  5
1DCF
  8
0
 62
     0
 10
60.672819116929119
 20
64.2123068735403
 30
0.0
 11
61.999999999536747
 21
65.539487756147935
 31
0.0
  0
LINE
  5
1DD0
  8
0
 62
     0
 10
59.764219028962273
 20
64.426238800707097
 30
0.0
 11
63.479541786705823
 21
68.141561558450647
 31
0.0
  0
LINE
  5
1DD1
  8
0
 62
     0
 10
59.04608802924534
 20
64.830639816123806
 30
0.0
 11
62.715448213138437
 21
68.500000000016911
 31
0.0
  0
LINE
  5
1DD2
  8
0
 62
     0
 10
58.000000000144432
 20
63.784551787022899
 30
0.0
 11
58.740958963897668
 21
64.525510750776135
 31
0.0
  0
LINE
  5
1DD3
  8
0
 62
     0
 10
58.000000000144418
 20
64.907083802156549
 30
0.0
 11
62.000000000015838
 21
68.907083802027955
 31
0.0
  0
LINE
  5
1DD4
  8
0
 62
     0
 10
58.000000000144432
 20
66.029615817290193
 30
0.0
 11
61.716731080143859
 21
69.746346897289612
 31
0.0
  0
LINE
  5
1DD5
  8
0
 62
     0
 10
58.000000000144439
 20
67.152147832423836
 30
0.0
 11
60.455956059016003
 21
69.6081038912954
 31
0.0
  0
LINE
  5
1DD6
  8
0
 62
     0
 10
58.000000000144432
 20
68.274679847557479
 30
0.0
 11
59.344542698422529
 21
69.619222545835569
 31
0.0
  0
LINE
  5
1DD7
  8
0
 62
     0
 10
58.000000000144418
 20
69.397211862691094
 30
0.0
 11
58.339490121961397
 21
69.736701984508102
 31
0.0
  0
ENDBLK
  5
1DD9
  8
0
  0
BLOCK
  8
0
  2
*X77
 70
     1
 10
0.0
 20
0.0
 30
0.0
  3
*X77
  1

  0
LINE
  5
1DDB
  8
0
 62
     0
 10
30.000000000144279
 20
69.54355649801569
 30
0.0
 11
29.785044591094461
 21
69.758511907065511
 31
0.0
  0
LINE
  5
1DDC
  8
0
 62
     0
 10
30.000000000144279
 20
68.421024482882046
 30
0.0
 11
28.79188953573393
 21
69.6291349472924
 31
0.0
  0
LINE
  5
1DDD
  8
0
 62
     0
 10
30.000000000144279
 20
67.298492467748403
 30
0.0
 11
27.696179936233221
 21
69.60231253165945
 31
0.0
  0
LINE
  5
1DDE
  8
0
 62
     0
 10
30.000000000144279
 20
66.17596045261476
 30
0.0
 11
26.458603330105699
 21
69.71735712265334
 31
0.0
  0
LINE
  5
1DDF
  8
0
 62
     0
 10
30.000000000144279
 20
65.053428437481116
 30
0.0
 11
25.999999999665722
 21
69.053428437959667
 31
0.0
  0
LINE
  5
1DE0
  8
0
 62
     0
 10
30.000000000144269
 20
63.930896422347473
 30
0.0
 11
25.43089642247649
 21
68.500000000015248
 31
0.0
  0
LINE
  5
1DE1
  8
0
 62
     0
 10
28.243737768197231
 20
64.564626639160878
 30
0.0
 11
24.563860370612741
 21
68.244504036745354
 31
0.0
  0
LINE
  5
1DE2
  8
0
 62
     0
 10
25.18583239221595
 20
66.500000000008498
 30
0.0
 11
24.500000000050498
 21
67.185832392173936
 31
0.0
  0
LINE
  5
1DE3
  8
0
 62
     0
 10
27.50485410063979
 20
64.180978291584665
 30
0.0
 11
26.000000000144802
 21
65.685832392079647
 31
0.0
  0
LINE
  5
1DE4
  8
0
 62
     0
 10
26.142017163115931
 20
64.421283213974888
 30
0.0
 11
25.76451961880031
 21
64.798780758290505
 31
0.0
  0
LINE
  5
1DE5
  8
0
 62
     0
 10
29.637593697385569
 20
63.485445862605147
 30
0.0
 11
30.000000000144279
 21
63.847852165363861
 31
0.0
  0
LINE
  5
1DE6
  8
0
 62
     0
 10
29.33805032741212
 20
64.308434507765341
 30
0.0
 11
30.000000000144279
 21
64.970384180497504
 31
0.0
  0
LINE
  5
1DE7
  8
0
 62
     0
 10
28.765754104161111
 20
64.858670299647969
 30
0.0
 11
30.000000000144279
 21
66.092916195631148
 31
0.0
  0
LINE
  5
1DE8
  8
0
 62
     0
 10
28.000641415751151
 20
64.093557611238012
 30
0.0
 11
28.25829497252451
 21
64.351211168011375
 31
0.0
  0
LINE
  5
1DE9
  8
0
 62
     0
 10
27.046372718744379
 20
64.261820929364887
 30
0.0
 11
30.000000000144279
 21
67.215448210764791
 31
0.0
  0
LINE
  5
1DEA
  8
0
 62
     0
 10
26.092104021737601
 20
64.430084247491763
 30
0.0
 11
30.000000000144279
 21
68.337980225898434
 31
0.0
  0
LINE
  5
1DEB
  8
0
 62
     0
 10
26.00000000014667
 20
65.460512241034465
 30
0.0
 11
30.000000000144279
 21
69.460512241032063
 31
0.0
  0
LINE
  5
1DEC
  8
0
 62
     0
 10
25.893666306773039
 20
66.47671056279448
 30
0.0
 11
29.0723886215345
 21
69.655432877555924
 31
0.0
  0
LINE
  5
1DED
  8
0
 62
     0
 10
24.825764097368861
 20
66.531340368523956
 30
0.0
 11
27.892690376955638
 21
69.598266648110723
 31
0.0
  0
LINE
  5
1DEE
  8
0
 62
     0
 10
25.99999999966759
 20
68.828108285956318
 30
0.0
 11
26.837474026840571
 21
69.665582313129306
 31
0.0
  0
LINE
  5
1DEF
  8
0
 62
     0
 10
24.49999999998219
 20
67.328108286270918
 30
0.0
 11
25.67189171372377
 21
68.500000000012506
 31
0.0
  0
ENDBLK
  5
1DF1
  8
0
  0
BLOCK
  8
0
  2
*X78
 70
     1
 10
0.0
 20
0.0
 30
0.0
  3
*X78
  1

  0
LINE
  5
1E28
  8
0
 62
     0
 10
62.000000000016399
 20
68.9744529218856
 30
0.0
 11
61.292741409379012
 21
69.68171151252298
 31
0.0
  0
LINE
  5
1E29
  8
0
 62
     0
 10
63.499999999770878
 20
67.474452922131121
 30
0.0
 11
62.474452921887817
 21
68.500000000014168
 31
0.0
  0
LINE
  5
1E2A
  8
0
 62
     0
 10
63.271674418112447
 20
66.580246488655902
 30
0.0
 11
60.251074271029843
 21
69.600846635738506
 31
0.0
  0
LINE
  5
1E2B
  8
0
 62
     0
 10
62.229388891634201
 20
66.500000000000512
 30
0.0
 11
59.090168828702687
 21
69.639220062932026
 31
0.0
  0
LINE
  5
1E2C
  8
0
 62
     0
 10
61.999999999537323
 20
65.606856876963761
 30
0.0
 11
58.000000000144439
 21
69.606856876356645
 31
0.0
  0
LINE
  5
1E2D
  8
0
 62
     0
 10
62.032304104628871
 20
64.452020756738534
 30
0.0
 11
58.000000000144439
 21
68.484324861222973
 31
0.0
  0
LINE
  5
1E2E
  8
0
 62
     0
 10
61.078035407622082
 20
64.283757438611673
 30
0.0
 11
58.000000000144432
 21
67.361792846089344
 31
0.0
  0
LINE
  5
1E2F
  8
0
 62
     0
 10
59.425587647328527
 20
64.813673183771613
 30
0.0
 11
58.000000000144439
 21
66.2392608309557
 31
0.0
  0
LINE
  5
1E30
  8
0
 62
     0
 10
60.123766710615328
 20
64.115494120484811
 30
0.0
 11
59.768727145435207
 21
64.470533685664932
 31
0.0
  0
LINE
  5
1E31
  8
0
 62
     0
 10
58.701001178447513
 20
64.41572763751897
 30
0.0
 11
58.000000000144432
 21
65.116728815822057
 31
0.0
  0
LINE
  5
1E32
  8
0
 62
     0
 10
58.401457808474063
 20
63.59273899235879
 30
0.0
 11
58.000000000144439
 21
63.994196800688421
 31
0.0
  0
LINE
  5
1E33
  8
0
 62
     0
 10
62.035656054452978
 20
64.452611795930522
 30
0.0
 11
62.25741688991679
 21
64.674372631394334
 31
0.0
  0
LINE
  5
1E34
  8
0
 62
     0
 10
62.960512243399322
 20
66.500000000010502
 30
0.0
 11
63.499999999562
 21
67.039487756173187
 31
0.0
  0
LINE
  5
1E35
  8
0
 62
     0
 10
60.672819116929119
 20
64.2123068735403
 30
0.0
 11
61.999999999536747
 21
65.539487756147935
 31
0.0
  0
LINE
  5
1E36
  8
0
 62
     0
 10
59.764219028962273
 20
64.426238800707097
 30
0.0
 11
63.479541786705823
 21
68.141561558450647
 31
0.0
  0
LINE
  5
1E37
  8
0
 62
     0
 10
59.04608802924534
 20
64.830639816123806
 30
0.0
 11
62.715448213138437
 21
68.500000000016911
 31
0.0
  0
LINE
  5
1E38
  8
0
 62
     0
 10
58.000000000144432
 20
63.784551787022899
 30
0.0
 11
58.740958963897668
 21
64.525510750776135
 31
0.0
  0
LINE
  5
1E39
  8
0
 62
     0
 10
58.000000000144418
 20
64.907083802156549
 30
0.0
 11
62.000000000015838
 21
68.907083802027955
 31
0.0
  0
LINE
  5
1E3A
  8
0
 62
     0
 10
58.000000000144432
 20
66.029615817290193
 30
0.0
 11
61.716731080143859
 21
69.746346897289612
 31
0.0
  0
LINE
  5
1E3B
  8
0
 62
     0
 10
58.000000000144439
 20
67.152147832423836
 30
0.0
 11
60.455956059016003
 21
69.6081038912954
 31
0.0
  0
LINE
  5
1E3C
  8
0
 62
     0
 10
58.000000000144432
 20
68.274679847557479
 30
0.0
 11
59.344542698422529
 21
69.619222545835569
 31
0.0
  0
LINE
  5
1E3D
  8
0
 62
     0
 10
58.000000000144418
 20
69.397211862691094
 30
0.0
 11
58.339490121961397
 21
69.736701984508102
 31
0.0
  0
ENDBLK
  5
1E3F
  8
0
  0
BLOCK
  8
0
  2
*X79
 70
     1
 10
0.0
 20
0.0
 30
0.0
  3
*X79
  1

  0
LINE
  5
1E41
  8
0
 62
     0
 10
30.000000000144279
 20
69.54355649801569
 30
0.0
 11
29.785044591094461
 21
69.758511907065511
 31
0.0
  0
LINE
  5
1E42
  8
0
 62
     0
 10
30.000000000144279
 20
68.421024482882046
 30
0.0
 11
28.79188953573393
 21
69.6291349472924
 31
0.0
  0
LINE
  5
1E43
  8
0
 62
     0
 10
30.000000000144279
 20
67.298492467748403
 30
0.0
 11
27.696179936233221
 21
69.60231253165945
 31
0.0
  0
LINE
  5
1E44
  8
0
 62
     0
 10
30.000000000144279
 20
66.17596045261476
 30
0.0
 11
26.458603330105699
 21
69.71735712265334
 31
0.0
  0
LINE
  5
1E45
  8
0
 62
     0
 10
30.000000000144279
 20
65.053428437481116
 30
0.0
 11
25.999999999665722
 21
69.053428437959667
 31
0.0
  0
LINE
  5
1E46
  8
0
 62
     0
 10
30.000000000144269
 20
63.930896422347473
 30
0.0
 11
25.43089642247649
 21
68.500000000015248
 31
0.0
  0
LINE
  5
1E47
  8
0
 62
     0
 10
28.243737768197231
 20
64.564626639160878
 30
0.0
 11
24.563860370612741
 21
68.244504036745354
 31
0.0
  0
LINE
  5
1E48
  8
0
 62
     0
 10
25.18583239221595
 20
66.500000000008498
 30
0.0
 11
24.500000000050498
 21
67.185832392173936
 31
0.0
  0
LINE
  5
1E49
  8
0
 62
     0
 10
27.50485410063979
 20
64.180978291584665
 30
0.0
 11
26.000000000144802
 21
65.685832392079647
 31
0.0
  0
LINE
  5
1E4A
  8
0
 62
     0
 10
26.142017163115931
 20
64.421283213974888
 30
0.0
 11
25.76451961880031
 21
64.798780758290505
 31
0.0
  0
LINE
  5
1E4B
  8
0
 62
     0
 10
29.637593697385569
 20
63.485445862605147
 30
0.0
 11
30.000000000144279
 21
63.847852165363861
 31
0.0
  0
LINE
  5
1E4C
  8
0
 62
     0
 10
29.33805032741212
 20
64.308434507765341
 30
0.0
 11
30.000000000144279
 21
64.970384180497504
 31
0.0
  0
LINE
  5
1E4D
  8
0
 62
     0
 10
28.765754104161111
 20
64.858670299647969
 30
0.0
 11
30.000000000144279
 21
66.092916195631148
 31
0.0
  0
LINE
  5
1E4E
  8
0
 62
     0
 10
28.000641415751151
 20
64.093557611238012
 30
0.0
 11
28.25829497252451
 21
64.351211168011375
 31
0.0
  0
LINE
  5
1E4F
  8
0
 62
     0
 10
27.046372718744379
 20
64.261820929364887
 30
0.0
 11
30.000000000144279
 21
67.215448210764791
 31
0.0
  0
LINE
  5
1E50
  8
0
 62
     0
 10
26.092104021737601
 20
64.430084247491763
 30
0.0
 11
30.000000000144279
 21
68.337980225898434
 31
0.0
  0
LINE
  5
1E51
  8
0
 62
     0
 10
26.00000000014667
 20
65.460512241034465
 30
0.0
 11
30.000000000144279
 21
69.460512241032063
 31
0.0
  0
LINE
  5
1E52
  8
0
 62
     0
 10
25.893666306773039
 20
66.47671056279448
 30
0.0
 11
29.0723886215345
 21
69.655432877555924
 31
0.0
  0
LINE
  5
1E53
  8
0
 62
     0
 10
24.825764097368861
 20
66.531340368523956
 30
0.0
 11
27.892690376955638
 21
69.598266648110723
 31
0.0
  0
LINE
  5
1E54
  8
0
 62
     0
 10
25.99999999966759
 20
68.828108285956318
 30
0.0
 11
26.837474026840571
 21
69.665582313129306
 31
0.0
  0
LINE
  5
1E55
  8
0
 62
     0
 10
24.49999999998219
 20
67.328108286270918
 30
0.0
 11
25.67189171372377
 21
68.500000000012506
 31
0.0
  0
ENDBLK
  5
1E57
  8
0
  0
BLOCK
  8
0
  2
*U80
 70
     1
 10
0.0
 20
0.0
 30
0.0
  3
*U80
  1

  0
TEXT
  5
1FB4
  8
SAPA_MATT
 62
     2
 10
-107.0026515151515
 20
-13.22500000000964
 30
0.0
 40
3.5
  1
min. 130
 50
90.0
  7
ISO
  0
ENDBLK
  5
1FB6
  8
0
  0
BLOCK
  8
0
  2
*U81
 70
     1
 10
0.0
 20
0.0
 30
0.0
  3
*U81
  1

  0
TEXT
  5
1FB8
  8
SAPA_MATT
 62
     2
 10
-32.449999999999889
 20
102.0000000000001
 30
0.0
 40
3.5
  1
88
  7
ISO
  0
ENDBLK
  5
1FBA
  8
0
  0
BLOCK
  8
0
  2
*U82
 70
     1
 10
0.0
 20
0.0
 30
0.0
  3
*U82
  1

  0
TEXT
  5
1FBC
  8
SAPA_MATT
 62
     2
 10
73.17499999975108
 20
114.0000000000001
 30
0.0
 40
3.5
  1
125
  7
ISO
  0
ENDBLK
  5
1FBE
  8
0
  0
BLOCK
  8
0
  2
*U83
 70
     1
 10
0.0
 20
0.0
 30
0.0
  3
*U83
  1

  0
TEXT
  5
1FC0
  8
SAPA_MATT
 62
     2
 10
14.27500000009033
 20
102.0000000000001
 30
0.0
 40
3.5
  1
6.5
  7
ISO
  0
ENDBLK
  5
1FC2
  8
0
  0
BLOCK
  8
0
  2
*U84
 70
     1
 10
0.0
 20
0.0
 30
0.0
  3
*U84
  1

  0
TEXT
  5
1FC4
  8
SAPA_MATT
 62
     2
 10
-95.000000000000014
 20
-1.4749999999994721
 30
0.0
 40
3.5
  1
117
 50
90.0
  7
ISO
  0
ENDBLK
  5
1FC6
  8
0
  0
ENDSEC
  0
SECTION
  2
ENTITIES
  0
TEXT
  5
70A
  8
SAPA_ARTIKELNR
 10
12.345450637514279
 20
-32.243587403564142
 30
0.0000000048844772
 40
3.5
  1
D8K029
 50
90.0
  7
ISO
  0
TEXT
  5
722
  8
SAPA_ARTIKELNR
 10
25.501548181574201
 20
71.432510928874734
 30
0.0000000048844772
 40
3.5
  1
D8V002
 50
90.0
  7
ISO
  0
POLYLINE
  5
85A
  8
SAPA_BESLAG
 66
     1
 10
0.0
 20
0.0
 30
0.0
 70
     1
  0
VERTEX
  5
1256
  8
SAPA_BESLAG
 10
55.500000001612129
 20
27.50000000268366
 30
0.0
 42
-0.4142135623733615
  0
VERTEX
  5
1257
  8
SAPA_BESLAG
 10
55.000000001612129
 20
27.000000002683201
 30
0.0
  0
VERTEX
  5
1258
  8
SAPA_BESLAG
 10
50.700000001609233
 20
27.000000002683201
 30
0.0
 42
-0.4142135623730951
  0
VERTEX
  5
1259
  8
SAPA_BESLAG
 10
50.200000001609233
 20
27.500000002683201
 30
0.0
  0
VERTEX
  5
125A
  8
SAPA_BESLAG
 10
50.200000001609233
 20
46.934173753879989
 30
0.0
 42
-0.0655434628193178
  0
VERTEX
  5
125B
  8
SAPA_BESLAG
 10
50.2170370884674
 20
47.063583276432567
 30
0.0
  0
VERTEX
  5
125C
  8
SAPA_BESLAG
 10
50.904548159767572
 20
49.629409525242558
 30
0.0
 42
-0.3394542588589677
  0
VERTEX
  5
125D
  8
SAPA_BESLAG
 10
51.387511072910058
 20
50.000000002683649
 30
0.0
  0
VERTEX
  5
125E
  8
SAPA_BESLAG
 10
53.205309252629888
 20
50.000000002683649
 30
0.0
 42
-0.3394542588711624
  0
VERTEX
  5
125F
  8
SAPA_BESLAG
 10
53.6882721657717
 20
49.62940952523077
 30
0.0
  0
VERTEX
  5
1260
  8
SAPA_BESLAG
 10
54.400700581730611
 20
46.970590480043661
 30
0.0
 42
0.3394542588715295
  0
VERTEX
  5
1261
  8
SAPA_BESLAG
 10
54.883663494878931
 20
46.600000002580792
 30
0.0
  0
VERTEX
  5
1262
  8
SAPA_BESLAG
 10
57.116336509014722
 20
46.600000002581247
 30
0.0
 42
0.2360679770209484
  0
VERTEX
  5
1263
  8
SAPA_BESLAG
 10
57.516336508470523
 20
46.800000001847771
 30
0.0
 42
-0.2360679770747178
  0
VERTEX
  5
1264
  8
SAPA_BESLAG
 10
57.91633650802811
 20
47.000000001122046
 30
0.0
  0
VERTEX
  5
1265
  8
SAPA_BESLAG
 10
65.000000003169191
 20
46.999999999689607
 30
0.0
 42
-0.4142135623134248
  0
VERTEX
  5
1266
  8
SAPA_BESLAG
 10
65.500000003067328
 20
46.499999999689607
 30
0.0
  0
VERTEX
  5
1267
  8
SAPA_BESLAG
 10
65.500000003052776
 20
44.100000002683572
 30
0.0
 42
-0.4142135623730951
  0
VERTEX
  5
1268
  8
SAPA_BESLAG
 10
65.000000003052776
 20
43.600000002683558
 30
0.0
  0
VERTEX
  5
1269
  8
SAPA_BESLAG
 10
57.000000001612129
 20
43.600000002684467
 30
0.0
 42
0.4142135623730951
  0
VERTEX
  5
126A
  8
SAPA_BESLAG
 10
55.500000001612129
 20
42.100000002684467
 30
0.0
  0
VERTEX
  5
126B
  8
SAPA_BESLAG
 10
55.500000001597591
 20
38.846410164153639
 30
0.0
  0
VERTEX
  5
126C
  8
SAPA_BESLAG
 10
55.300000001629591
 20
38.500000002685013
 30
0.0
  0
VERTEX
  5
126D
  8
SAPA_BESLAG
 10
55.500000001612129
 20
38.153589841166387
 30
0.0
  0
VERTEX
  5
126E
  8
SAPA_BESLAG
 10
55.500000001597591
 20
36.846410164171367
 30
0.0
  0
VERTEX
  5
126F
  8
SAPA_BESLAG
 10
55.300000001629591
 20
36.500000002683208
 30
0.0
  0
VERTEX
  5
1270
  8
SAPA_BESLAG
 10
55.500000001612129
 20
36.153589841164568
 30
0.0
  0
SEQEND
  5
1271
  8
SAPA_BESLAG
  0
POLYLINE
  5
85B
  8
SAPA_BESLAG
 66
     1
 10
0.0
 20
0.0
 30
0.0
 70
     1
  0
VERTEX
  5
1272
  8
SAPA_BESLAG
 10
32.500000001117371
 20
27.50000000268366
 30
0.0
 42
0.4142135623733615
  0
VERTEX
  5
1273
  8
SAPA_BESLAG
 10
33.000000001117371
 20
27.000000002683201
 30
0.0
  0
VERTEX
  5
1274
  8
SAPA_BESLAG
 10
37.300000001120281
 20
27.000000002683201
 30
0.0
 42
0.4142135623730951
  0
VERTEX
  5
1275
  8
SAPA_BESLAG
 10
37.800000001120281
 20
27.500000002683201
 30
0.0
  0
VERTEX
  5
1276
  8
SAPA_BESLAG
 10
37.800000001120281
 20
46.934173753879989
 30
0.0
 42
0.0655434628193178
  0
VERTEX
  5
1277
  8
SAPA_BESLAG
 10
37.7829629142621
 20
47.063583276432567
 30
0.0
  0
VERTEX
  5
1278
  8
SAPA_BESLAG
 10
37.095451842961943
 20
49.629409525242558
 30
0.0
 42
0.3394542588589676
  0
VERTEX
  5
1279
  8
SAPA_BESLAG
 10
36.612488929819449
 20
50.000000002683649
 30
0.0
  0
VERTEX
  5
127A
  8
SAPA_BESLAG
 10
34.794690750099619
 20
50.000000002683649
 30
0.0
 42
0.3394542588711624
  0
VERTEX
  5
127B
  8
SAPA_BESLAG
 10
34.3117278369578
 20
49.62940952523077
 30
0.0
  0
VERTEX
  5
127C
  8
SAPA_BESLAG
 10
33.599299420998911
 20
46.970590480043661
 30
0.0
 42
-0.3394542588715294
  0
VERTEX
  5
127D
  8
SAPA_BESLAG
 10
33.116336507850583
 20
46.600000002580792
 30
0.0
  0
VERTEX
  5
127E
  8
SAPA_BESLAG
 10
30.883663493714781
 20
46.600000002581247
 30
0.0
 42
-0.2360679770209483
  0
VERTEX
  5
127F
  8
SAPA_BESLAG
 10
30.48366349425898
 20
46.800000001847749
 30
0.0
 42
0.2360679770747184
  0
VERTEX
  5
1280
  8
SAPA_BESLAG
 10
30.083663494701401
 20
47.000000001122046
 30
0.0
  0
VERTEX
  5
1281
  8
SAPA_BESLAG
 10
22.99999999956033
 20
46.999999999689607
 30
0.0
 42
0.4142135623134248
  0
VERTEX
  5
1282
  8
SAPA_BESLAG
 10
22.49999999966218
 20
46.499999999689607
 30
0.0
  0
VERTEX
  5
1283
  8
SAPA_BESLAG
 10
22.499999999676731
 20
44.100000002683572
 30
0.0
 42
0.4142135623730951
  0
VERTEX
  5
1284
  8
SAPA_BESLAG
 10
22.999999999676731
 20
43.600000002683558
 30
0.0
  0
VERTEX
  5
1285
  8
SAPA_BESLAG
 10
31.000000001117371
 20
43.600000002684467
 30
0.0
 42
-0.4142135623730951
  0
VERTEX
  5
1286
  8
SAPA_BESLAG
 10
32.500000001117371
 20
42.100000002684467
 30
0.0
  0
VERTEX
  5
1287
  8
SAPA_BESLAG
 10
32.50000000113193
 20
38.846410164153639
 30
0.0
  0
VERTEX
  5
1288
  8
SAPA_BESLAG
 10
32.700000001099909
 20
38.500000002685013
 30
0.0
  0
VERTEX
  5
1289
  8
SAPA_BESLAG
 10
32.500000001117371
 20
38.153589841166387
 30
0.0
  0
VERTEX
  5
128A
  8
SAPA_BESLAG
 10
32.50000000113193
 20
36.846410164171367
 30
0.0
  0
VERTEX
  5
128B
  8
SAPA_BESLAG
 10
32.700000001099909
 20
36.500000002683208
 30
0.0
  0
VERTEX
  5
128C
  8
SAPA_BESLAG
 10
32.500000001117371
 20
36.153589841164568
 30
0.0
  0
SEQEND
  5
128D
  8
SAPA_BESLAG
  0
POLYLINE
  5
85C
  8
SAPA_BESLAG
 66
     1
 10
0.0
 20
0.0
 30
0.0
  0
VERTEX
  5
128E
  8
SAPA_BESLAG
 10
37.79999998578257
 20
28.000000002376702
 30
0.0
  0
VERTEX
  5
128F
  8
SAPA_BESLAG
 10
37.79999998578257
 20
50.350000002367949
 30
0.0
  0
SEQEND
  5
1290
  8
SAPA_BESLAG
  0
POLYLINE
  5
85D
  8
SAPA_BESLAG
 66
     1
 10
0.0
 20
0.0
 30
0.0
  0
VERTEX
  5
1291
  8
SAPA_BESLAG
 10
50.199999985776742
 20
50.350000002383489
 30
0.0
  0
VERTEX
  5
1292
  8
SAPA_BESLAG
 10
50.199999985776742
 20
28.000000002376702
 30
0.0
  0
SEQEND
  5
1293
  8
SAPA_BESLAG
  0
POLYLINE
  5
85E
  8
SAPA_BESLAG
 66
     1
 10
0.0
 20
0.0
 30
0.0
  0
VERTEX
  5
1294
  8
SAPA_BESLAG
 10
38.000000001350202
 20
50.350000002368212
 30
0.0
  0
VERTEX
  5
1295
  8
SAPA_BESLAG
 10
38.000000001350202
 20
22.750000002376709
 30
0.0
  0
VERTEX
  5
1296
  8
SAPA_BESLAG
 10
38.250000001350202
 20
22.50000000236852
 30
0.0
  0
VERTEX
  5
1297
  8
SAPA_BESLAG
 10
38.250000001350202
 20
50.35000000236851
 30
0.0
  0
SEQEND
  5
1298
  8
SAPA_BESLAG
  0
POLYLINE
  5
85F
  8
SAPA_BESLAG
 66
     1
 10
0.0
 20
0.0
 30
0.0
  0
VERTEX
  5
1299
  8
SAPA_BESLAG
 10
49.750000001350202
 20
50.35000000238292
 30
0.0
  0
VERTEX
  5
129A
  8
SAPA_BESLAG
 10
49.750000001350202
 20
22.50000000236852
 30
0.0
  0
VERTEX
  5
129B
  8
SAPA_BESLAG
 10
50.000000001364747
 20
22.750000002376709
 30
0.0
  0
VERTEX
  5
129C
  8
SAPA_BESLAG
 10
50.000000001352007
 20
50.350000002383261
 30
0.0
  0
SEQEND
  5
129D
  8
SAPA_BESLAG
  0
POLYLINE
  5
860
  8
SAPA_BESLAG
 66
     1
 10
0.0
 20
0.0
 30
0.0
  0
VERTEX
  5
129E
  8
SAPA_BESLAG
 10
38.250000001350202
 20
22.50000000236852
 30
0.0
  0
VERTEX
  5
129F
  8
SAPA_BESLAG
 10
41.719649151156247
 20
22.500000002372872
 30
0.0
 42
-0.4385290096522839
  0
VERTEX
  5
12A0
  8
SAPA_BESLAG
 10
46.280350851544142
 20
22.500000002372872
 30
0.0
  0
VERTEX
  5
12A1
  8
SAPA_BESLAG
 10
49.750000001350202
 20
22.50000000236761
 30
0.0
  0
SEQEND
  5
12A2
  8
SAPA_BESLAG
  0
LINE
  5
861
  8
SAPA_BESLAG
 10
37.79999998578257
 20
50.350000002367949
 30
0.0
 11
50.199999985776742
 21
50.350000002383489
 31
0.0
  0
TEXT
  5
8F1
  8
SAPA_ARTIKELNR
 10
-44.589521848821633
 20
4.9093443358980551
 30
0.0000000048844772
 40
3.5
  1
D8A002
  7
ISO
  0
LINE
  5
927
  8
SAPA_BESLAG
 10
-58.500000000005443
 20
58.499999999995772
 30
0.0
 11
-58.500000000005443
 21
59.999999999995772
 31
0.0
  0
LINE
  5
928
  8
SAPA_BESLAG
 10
-16.50000000000545
 20
58.49999999999617
 30
0.0
 11
-16.50000000000545
 21
59.999999999996163
 31
0.0
  0
POLYLINE
  5
929
  8
SAPA_BESLAG
 66
     1
 10
0.0
 20
0.0
 30
0.0
 70
     1
  0
VERTEX
  5
12A3
  8
SAPA_BESLAG
 10
-7.4999999999836291
 20
3.0000000000046181
 30
0.0
  0
VERTEX
  5
12A4
  8
SAPA_BESLAG
 10
-7.4999999999906626
 20
57.999999999977803
 30
0.0
 42
0.4142135623729689
  0
VERTEX
  5
12A5
  8
SAPA_BESLAG
 10
-7.9999999999905143
 20
58.499999999977732
 30
0.0
  0
VERTEX
  5
12A6
  8
SAPA_BESLAG
 10
-67.000000000005372
 20
58.499999999995602
 30
0.0
 42
0.4142135623731455
  0
VERTEX
  5
12A7
  8
SAPA_BESLAG
 10
-67.500000000005528
 20
57.99999999999568
 30
0.0
  0
VERTEX
  5
12A8
  8
SAPA_BESLAG
 10
-67.500000000012733
 20
3.0000000000066862
 30
0.0
  0
VERTEX
  5
12A9
  8
SAPA_BESLAG
 10
-68.999999999998181
 20
3.0000000000066862
 30
0.0
  0
VERTEX
  5
12AA
  8
SAPA_BESLAG
 10
-69.000000000005471
 20
58.499999999995772
 30
0.0
 42
-0.4142135623730951
  0
VERTEX
  5
12AB
  8
SAPA_BESLAG
 10
-67.500000000005471
 20
59.999999999995772
 30
0.0
  0
VERTEX
  5
12AC
  8
SAPA_BESLAG
 10
-7.4999999999908367
 20
59.999999999993364
 30
0.0
 42
-0.4142135623730951
  0
VERTEX
  5
12AD
  8
SAPA_BESLAG
 10
-5.9999999999908971
 20
58.49999999999369
 30
0.0
  0
VERTEX
  5
12AE
  8
SAPA_BESLAG
 10
-5.9999999999784057
 20
3.000000000004718
 30
0.0
  0
SEQEND
  5
12AF
  8
SAPA_BESLAG
  0
LINE
  5
92A
  8
SAPA_BESLAG
 10
-7.4999999999888507
 20
43.99999999999396
 30
0.0
 11
-67.500000000010445
 21
43.999999999993939
 31
0.0
  0
LINE
  5
936
  8
SAPA_ANSLUTNING
 10
-78.999999999999886
 20
60.00000000000103
 30
0.0
 11
-119.49147905908529
 21
60.00000000000103
 31
0.0
  0
LINE
  5
A31
  8
SAPA_ANSLUTNING
 10
-78.999999999999886
 20
30.999999999985022
 30
0.0
 11
-119.49147905908529
 21
30.999999999985022
 31
0.0
1001
GENIUS_GENREC_14
1002
{
1000
PYDIR
1011
-121.50000003612899
1021
0.0
1031
0.0
1021
30.999999999985022
1031
0.0
1002
}
1002
{
1000
PXDIR
1011
-56.000000000007162
1021
0.0
1031
0.0
1021
-70.000000000014978
1031
0.0
1002
}
1002
{
1000
PORI
1011
-111.50000003612899
1021
0.0
1031
0.0
1021
-70.000000000014978
1031
0.0
1002
}
1002
{
1000
PINS
1011
-111.50000003612899
1021
0.0
1031
0.0
1021
-70.000000000014978
1031
0.0
1002
}
1002
{
1000
PINS2
1011
8.9999999999783995
1021
0.0
1031
0.0
1021
30.999999999985022
1031
0.0
1002
}
1002
{
1000
C
1070
     1
1002
}
1001
GENIUS_GENOBJ-N-REC_13
1002
{
1000
OWNER
1000
GEN
1002
}
1001
GENIUS_GENODEF_13
1002
{
1000
HIER
1070
     0
1002
}
1002
{
1000
MANEDIT
1070
     0
1002
}
1002
{
1000
NOSEL
1070
     0
1002
}
1002
{
1000
BEHIND
1070
     0
1002
}
1002
{
1000
OTHER
1070
     0
1002
}
1002
{
1000
REACTOR
1002
}
  0
INSERT
  5
D81
  8
SAPA_ANSLUTNING
  6
CONTINUOUS
  2
*X45
 10
0.0
 20
0.0
 30
0.0
1001
ACAD
1000
HATCH
1002
{
1070
    19
1000
ANSI37
1040
0.25
1040
0.0
1000
R14_HATCH_DATA
1000
D81
1011
1.0
1021
0.0
1031
0.0
1021
0.0
1031
0.0
1011
0.0
1021
0.0
1031
0.0
1021
1.0
1031
0.0
1011
0.0
1021
0.0
1031
0.0
1021
0.0
1031
1.0
1040
0.0
1010
0.0
1020
0.0
1030
1.0
1000
ANSI37
1070
     0
1070
     0
1071
        1
1071
        5
1071
        6
1070
     2
1040
137.4999999277413
1040
58.500000000000078
1040
1.4999999999999989
1040
5.49778714378209
1040
6.2831853071795569
1070
     0
1070
     1
1040
138.9999999277413
1040
58.500000000000121
1040
138.99999992774119
1040
47.6633487633096
1070
     3
1040
143.9999999277413
1040
47.663348763309287
1040
0.0
1040
-5.6210574168242138
1040
0.8895123513655372
1040
1.5707963267948959
1040
2.144309431217978
1070
     0
1070
     3
1040
143.9999999277413
1040
47.663348763309287
1040
0.0
1040
-5.6210574168242138
1040
0.8895123513655372
1040
2.144309431217978
1040
4.7123889803846888
1070
     0
1070
     1
1040
148.9999999277413
1040
47.663348763309934
1040
148.9999999277413
1040
59.999999999985143
1070
     2
1040
142.9021675165697
1040
80.646721299887545
1040
21.528368738726542
1040
1.2836189008757071
1040
1.773853352005716
1070
     0
1071
        0
1070
     0
1070
     1
1040
0.0
1040
0.25
1070
     0
1070
     2
1040
0.7853981633974483
1040
0.0000000000000568
1040
0.0000000000001279
1040
-0.5612660075668221
1040
0.5612660075668221
1070
     0
1040
2.3561944901923439
1040
0.0000000000000568
1040
0.0000000000001279
1040
-0.5612660075668221
1040
-0.5612660075668221
1070
     0
1040
0.0591690278051155
1071
        1
1040
142.99867634698961
1040
56.42036471292603
1040
0.0
1002
}
  0
LINE
  5
D82
  8
SAPA_ANSLUTNING
 10
-78.999999999999844
 20
-70.000000000020293
 30
0.0
 11
148.9999999277413
 21
-70.000000000020293
 31
0.0
  0
LINE
  5
D83
  8
SAPA_ANSLUTNING
 10
-78.999999999999844
 20
-70.000000000020293
 30
0.0
 11
-78.999999999999829
 21
60.000000000001158
 31
0.0
  0
POLYLINE
  5
D84
  8
SAPA_ANSLUTNING
 66
     1
 10
0.0
 20
0.0
 30
0.0
 70
     1
  0
VERTEX
  5
12DF
  8
SAPA_ANSLUTNING
 10
69.749999999999886
 20
-67.000000000020307
 30
0.0
 42
-0.4142135623730951
  0
VERTEX
  5
12E0
  8
SAPA_ANSLUTNING
 10
71.749999999999886
 20
-69.000000000020293
 30
0.0
  0
VERTEX
  5
12E1
  8
SAPA_ANSLUTNING
 10
71.749999999999886
 20
-70.000000000020307
 30
0.0
  0
VERTEX
  5
12E2
  8
SAPA_ANSLUTNING
 10
16.75
 20
-70.000000000020307
 30
0.0
  0
VERTEX
  5
12E3
  8
SAPA_ANSLUTNING
 10
16.749999999999879
 20
-10.000000000020311
 30
0.0
  0
VERTEX
  5
12E4
  8
SAPA_ANSLUTNING
 10
17.749999999999879
 20
-10.000000000020311
 30
0.0
 42
-0.4142135623730951
  0
VERTEX
  5
12E5
  8
SAPA_ANSLUTNING
 10
19.749999999999879
 20
-12.0000000000203
 30
0.0
  0
VERTEX
  5
12E6
  8
SAPA_ANSLUTNING
 10
19.75
 20
-65.000000000020307
 30
0.0
 42
0.4142135623730951
  0
VERTEX
  5
12E7
  8
SAPA_ANSLUTNING
 10
21.75
 20
-67.000000000020307
 30
0.0
  0
SEQEND
  5
12E8
  8
SAPA_ANSLUTNING
  0
POLYLINE
  5
D85
  8
SAPA_ANSLUTNING
 66
     1
 10
0.0
 20
0.0
 30
0.0
 70
     1
1001
GENIUS_GENOREF_13
1005
0
  0
VERTEX
  5
12E9
  8
SAPA_ANSLUTNING
 10
133.2499999277413
 20
-12.0000000000203
 30
0.0
  0
VERTEX
  5
12EA
  8
SAPA_ANSLUTNING
 10
133.2499999277413
 20
-65.000000000020307
 30
0.0
 42
-0.4142135623730951
  0
VERTEX
  5
12EB
  8
SAPA_ANSLUTNING
 10
131.2499999277413
 20
-67.000000000020307
 30
0.0
  0
VERTEX
  5
12EC
  8
SAPA_ANSLUTNING
 10
83.249999927741328
 20
-67.000000000020307
 30
0.0
 42
0.4142135623730951
  0
VERTEX
  5
12ED
  8
SAPA_ANSLUTNING
 10
81.249999927741328
 20
-69.000000000020293
 30
0.0
  0
VERTEX
  5
12EE
  8
SAPA_ANSLUTNING
 10
81.249999927741328
 20
-70.000000000020307
 30
0.0
  0
VERTEX
  5
12EF
  8
SAPA_ANSLUTNING
 10
136.2499999277413
 20
-70.000000000020307
 30
0.0
  0
VERTEX
  5
12F0
  8
SAPA_ANSLUTNING
 10
136.2499999277413
 20
-10.000000000020311
 30
0.0
  0
VERTEX
  5
12F1
  8
SAPA_ANSLUTNING
 10
135.2499999277413
 20
-10.000000000020311
 30
0.0
 42
0.4142135623730951
  0
SEQEND
  5
12F2
  8
SAPA_ANSLUTNING
  0
LINE
  5
D86
  8
SAPA_ANSLUTNING
 10
148.9999999277413
 20
59.999999999985143
 30
0.0
 11
194.00325593439959
 21
59.999999999985143
 31
0.0
  0
LINE
  5
D87
  8
SAPA_ANSLUTNING
 10
194.0032559343995
 20
30.99999999998515
 30
0.0
 11
148.99999992774119
 21
30.99999999998515
 31
0.0
  0
LINE
  5
D88
  8
SAPA_ANSLUTNING
 10
148.9999999277413
 20
-70.000000000020293
 30
0.0
 11
148.9999999277413
 21
59.999999999985143
 31
0.0
  0
ARC
  5
D89
  8
SAPA_ANSLUTNING
 10
142.9021675165697
 20
80.646721299887673
 30
0.0
 40
21.52836873872667
 50
258.3656894549402
 51
286.45405447660011
  0
INSERT
  5
D8A
  8
SAPA_ANSLUTNING
  6
CONTINUOUS
  2
*X46
 10
0.0
 20
0.0
 30
0.0
1001
ACAD
1000
HATCH
1002
{
1070
    19
1000
HEX
1040
0.25
1040
0.0
1000
ASC_BOUNDS
1070
     1
1070
     1
1070
     1
1005
D8B
1000
ASC_SEEDPOINT
1011
144.24210993781591
1021
0.0
1031
0.0
1021
47.781686452366003
1031
0.0
1000
R14_HATCH_DATA
1000
D8A
1011
1.0
1021
0.0
1031
0.0
1021
0.0
1031
0.0
1011
0.0
1021
0.0
1031
0.0
1021
1.0
1031
0.0
1011
0.0
1021
0.0
1031
0.0
1021
0.0
1031
1.0
1040
0.0
1010
0.0
1020
0.0
1030
1.0
1000
HEX
1070
     0
1070
     1
1071
        1
1071
        5
1071
        1
1070
     3
1040
143.9999999277413
1040
47.663348763309287
1040
0.0
1040
-5.6210574168242138
1040
0.8895123513655372
1040
0.0
1040
6.2831853071795862
1070
     1
1071
        1
1005
D8B
1070
     0
1070
     1
1040
0.0
1040
0.25
1070
     0
1070
     3
1040
0.0
1040
0.0000000000000568
1040
0.0000000000001279
1040
0.0
1040
1.374814999999999
1070
     2
1040
0.79375
1040
-1.587499999999999
1040
2.0943951023931948
1040
0.0000000000000568
1040
0.0000000000001279
1040
-1.190624715503902
1040
-0.6874074999999996
1070
     2
1040
0.7937499999999997
1040
-1.587499999999999
1040
1.047197551196597
1040
0.7937500000000455
1040
0.0000000000001279
1040
-1.190624715503902
1040
0.6874075000000001
1070
     2
1040
0.79375
1040
-1.587499999999999
1040
0.0591690278051155
1071
        1
1040
144.24210993781591
1040
47.781686452366003
1040
0.0
1002
}
  0
POLYLINE
  5
D8B
  8
SAPA_ANSLUTNING
 10
143.9999999277413
 20
42.042291346485072
 30
0.0
 66
     1
 70
     8
  0
VERTEX
  8
SAPA_ANSLUTNING
  5
1FCA
 10
144.000
 20
42.0423
 30
0.000000
  70
    32
  0
VERTEX
  8
SAPA_ANSLUTNING
  5
1FCB
 10
144.245
 20
42.0491
 30
0.000000
  70
    32
  0
VERTEX
  8
SAPA_ANSLUTNING
  5
1FCC
 10
144.490
 20
42.0694
 30
0.000000
  70
    32
  0
VERTEX
  8
SAPA_ANSLUTNING
  5
1FCD
 10
144.734
 20
42.1031
 30
0.000000
  70
    32
  0
VERTEX
  8
SAPA_ANSLUTNING
  5
1FCE
 10
144.975
 20
42.1503
 30
0.000000
  70
    32
  0
VERTEX
  8
SAPA_ANSLUTNING
  5
1FCF
 10
145.215
 20
42.2107
 30
0.000000
  70
    32
  0
VERTEX
  8
SAPA_ANSLUTNING
  5
1FD0
 10
145.451
 20
42.2843
 30
0.000000
  70
    32
  0
VERTEX
  8
SAPA_ANSLUTNING
  5
1FD1
 10
145.684
 20
42.3709
 30
0.000000
  70
    32
  0
VERTEX
  8
SAPA_ANSLUTNING
  5
1FD2
 10
145.913
 20
42.4702
 30
0.000000
  70
    32
  0
VERTEX
  8
SAPA_ANSLUTNING
  5
1FD3
 10
146.138
 20
42.5820
 30
0.000000
  70
    32
  0
VERTEX
  8
SAPA_ANSLUTNING
  5
1FD4
 10
146.357
 20
42.7060
 30
0.000000
  70
    32
  0
VERTEX
  8
SAPA_ANSLUTNING
  5
1FD5
 10
146.571
 20
42.8420
 30
0.000000
  70
    32
  0
VERTEX
  8
SAPA_ANSLUTNING
  5
1FD6
 10
146.778
 20
42.9896
 30
0.000000
  70
    32
  0
VERTEX
  8
SAPA_ANSLUTNING
  5
1FD7
 10
146.978
 20
43.1485
 30
0.000000
  70
    32
  0
VERTEX
  8
SAPA_ANSLUTNING
  5
1FD8
 10
147.172
 20
43.3182
 30
0.000000
  70
    32
  0
VERTEX
  8
SAPA_ANSLUTNING
  5
1FD9
 10
147.358
 20
43.4984
 30
0.000000
  70
    32
  0
VERTEX
  8
SAPA_ANSLUTNING
  5
1FDA
 10
147.536
 20
43.6887
 30
0.000000
  70
    32
  0
VERTEX
  8
SAPA_ANSLUTNING
  5
1FDB
 10
147.705
 20
43.8885
 30
0.000000
  70
    32
  0
VERTEX
  8
SAPA_ANSLUTNING
  5
1FDC
 10
147.865
 20
44.0974
 30
0.000000
  70
    32
  0
VERTEX
  8
SAPA_ANSLUTNING
  5
1FDD
 10
148.016
 20
44.3149
 30
0.000000
  70
    32
  0
VERTEX
  8
SAPA_ANSLUTNING
  5
1FDE
 10
148.157
 20
44.5405
 30
0.000000
  70
    32
  0
VERTEX
  8
SAPA_ANSLUTNING
  5
1FDF
 10
148.289
 20
44.7735
 30
0.000000
  70
    32
  0
VERTEX
  8
SAPA_ANSLUTNING
  5
1FE0
 10
148.410
 20
45.0136
 30
0.000000
  70
    32
  0
VERTEX
  8
SAPA_ANSLUTNING
  5
1FE1
 10
148.520
 20
45.2600
 30
0.000000
  70
    32
  0
VERTEX
  8
SAPA_ANSLUTNING
  5
1FE2
 10
148.619
 20
45.5123
 30
0.000000
  70
    32
  0
VERTEX
  8
SAPA_ANSLUTNING
  5
1FE3
 10
148.708
 20
45.7697
 30
0.000000
  70
    32
  0
VERTEX
  8
SAPA_ANSLUTNING
  5
1FE4
 10
148.785
 20
46.0316
 30
0.000000
  70
    32
  0
VERTEX
  8
SAPA_ANSLUTNING
  5
1FE5
 10
148.850
 20
46.2975
 30
0.000000
  70
    32
  0
VERTEX
  8
SAPA_ANSLUTNING
  5
1FE6
 10
148.904
 20
46.5667
 30
0.000000
  70
    32
  0
VERTEX
  8
SAPA_ANSLUTNING
  5
1FE7
 10
148.946
 20
46.8386
 30
0.000000
  70
    32
  0
VERTEX
  8
SAPA_ANSLUTNING
  5
1FE8
 10
148.976
 20
47.1124
 30
0.000000
  70
    32
  0
VERTEX
  8
SAPA_ANSLUTNING
  5
1FE9
 10
148.994
 20
47.3875
 30
0.000000
  70
    32
  0
VERTEX
  8
SAPA_ANSLUTNING
  5
1FEA
 10
149.000
 20
47.6633
 30
0.000000
  70
    32
  0
VERTEX
  8
SAPA_ANSLUTNING
  5
1FEB
 10
148.994
 20
47.9392
 30
0.000000
  70
    32
  0
VERTEX
  8
SAPA_ANSLUTNING
  5
1FEC
 10
148.976
 20
48.2143
 30
0.000000
  70
    32
  0
VERTEX
  8
SAPA_ANSLUTNING
  5
1FED
 10
148.946
 20
48.4881
 30
0.000000
  70
    32
  0
VERTEX
  8
SAPA_ANSLUTNING
  5
1FEE
 10
148.904
 20
48.7600
 30
0.000000
  70
    32
  0
VERTEX
  8
SAPA_ANSLUTNING
  5
1FEF
 10
148.850
 20
49.0292
 30
0.000000
  70
    32
  0
VERTEX
  8
SAPA_ANSLUTNING
  5
1FF0
 10
148.785
 20
49.2951
 30
0.000000
  70
    32
  0
VERTEX
  8
SAPA_ANSLUTNING
  5
1FF1
 10
148.708
 20
49.5570
 30
0.000000
  70
    32
  0
VERTEX
  8
SAPA_ANSLUTNING
  5
1FF2
 10
148.619
 20
49.8144
 30
0.000000
  70
    32
  0
VERTEX
  8
SAPA_ANSLUTNING
  5
1FF3
 10
148.520
 20
50.0667
 30
0.000000
  70
    32
  0
VERTEX
  8
SAPA_ANSLUTNING
  5
1FF4
 10
148.410
 20
50.3131
 30
0.000000
  70
    32
  0
VERTEX
  8
SAPA_ANSLUTNING
  5
1FF5
 10
148.289
 20
50.5531
 30
0.000000
  70
    32
  0
VERTEX
  8
SAPA_ANSLUTNING
  5
1FF6
 10
148.157
 20
50.7862
 30
0.000000
  70
    32
  0
VERTEX
  8
SAPA_ANSLUTNING
  5
1FF7
 10
148.016
 20
51.0118
 30
0.000000
  70
    32
  0
VERTEX
  8
SAPA_ANSLUTNING
  5
1FF8
 10
147.865
 20
51.2293
 30
0.000000
  70
    32
  0
VERTEX
  8
SAPA_ANSLUTNING
  5
1FF9
 10
147.705
 20
51.4382
 30
0.000000
  70
    32
  0
VERTEX
  8
SAPA_ANSLUTNING
  5
1FFA
 10
147.536
 20
51.6380
 30
0.000000
  70
    32
  0
VERTEX
  8
SAPA_ANSLUTNING
  5
1FFB
 10
147.358
 20
51.8283
 30
0.000000
  70
    32
  0
VERTEX
  8
SAPA_ANSLUTNING
  5
1FFC
 10
147.172
 20
52.0085
 30
0.000000
  70
    32
  0
VERTEX
  8
SAPA_ANSLUTNING
  5
1FFD
 10
146.978
 20
52.1782
 30
0.000000
  70
    32
  0
VERTEX
  8
SAPA_ANSLUTNING
  5
1FFE
 10
146.778
 20
52.3371
 30
0.000000
  70
    32
  0
VERTEX
  8
SAPA_ANSLUTNING
  5
1FFF
 10
146.571
 20
52.4847
 30
0.000000
  70
    32
  0
VERTEX
  8
SAPA_ANSLUTNING
  5
2000
 10
146.357
 20
52.6207
 30
0.000000
  70
    32
  0
VERTEX
  8
SAPA_ANSLUTNING
  5
2001
 10
146.138
 20
52.7447
 30
0.000000
  70
    32
  0
VERTEX
  8
SAPA_ANSLUTNING
  5
2002
 10
145.913
 20
52.8565
 30
0.000000
  70
    32
  0
VERTEX
  8
SAPA_ANSLUTNING
  5
2003
 10
145.684
 20
52.9558
 30
0.000000
  70
    32
  0
VERTEX
  8
SAPA_ANSLUTNING
  5
2004
 10
145.451
 20
53.0424
 30
0.000000
  70
    32
  0
VERTEX
  8
SAPA_ANSLUTNING
  5
2005
 10
145.215
 20
53.1160
 30
0.000000
  70
    32
  0
VERTEX
  8
SAPA_ANSLUTNING
  5
2006
 10
144.975
 20
53.1764
 30
0.000000
  70
    32
  0
VERTEX
  8
SAPA_ANSLUTNING
  5
2007
 10
144.734
 20
53.2236
 30
0.000000
  70
    32
  0
VERTEX
  8
SAPA_ANSLUTNING
  5
2008
 10
144.490
 20
53.2573
 30
0.000000
  70
    32
  0
VERTEX
  8
SAPA_ANSLUTNING
  5
2009
 10
144.245
 20
53.2776
 30
0.000000
  70
    32
  0
VERTEX
  8
SAPA_ANSLUTNING
  5
200A
 10
144.000
 20
53.2844
 30
0.000000
  70
    32
  0
VERTEX
  8
SAPA_ANSLUTNING
  5
200B
 10
143.755
 20
53.2776
 30
0.000000
  70
    32
  0
VERTEX
  8
SAPA_ANSLUTNING
  5
200C
 10
143.510
 20
53.2573
 30
0.000000
  70
    32
  0
VERTEX
  8
SAPA_ANSLUTNING
  5
200D
 10
143.266
 20
53.2236
 30
0.000000
  70
    32
  0
VERTEX
  8
SAPA_ANSLUTNING
  5
200E
 10
143.025
 20
53.1764
 30
0.000000
  70
    32
  0
VERTEX
  8
SAPA_ANSLUTNING
  5
200F
 10
142.785
 20
53.1160
 30
0.000000
  70
    32
  0
VERTEX
  8
SAPA_ANSLUTNING
  5
2010
 10
142.549
 20
53.0424
 30
0.000000
  70
    32
  0
VERTEX
  8
SAPA_ANSLUTNING
  5
2011
 10
142.316
 20
52.9558
 30
0.000000
  70
    32
  0
VERTEX
  8
SAPA_ANSLUTNING
  5
2012
 10
142.087
 20
52.8565
 30
0.000000
  70
    32
  0
VERTEX
  8
SAPA_ANSLUTNING
  5
2013
 10
141.862
 20
52.7447
 30
0.000000
  70
    32
  0
VERTEX
  8
SAPA_ANSLUTNING
  5
2014
 10
141.643
 20
52.6207
 30
0.000000
  70
    32
  0
VERTEX
  8
SAPA_ANSLUTNING
  5
2015
 10
141.429
 20
52.4847
 30
0.000000
  70
    32
  0
VERTEX
  8
SAPA_ANSLUTNING
  5
2016
 10
141.222
 20
52.3371
 30
0.000000
  70
    32
  0
VERTEX
  8
SAPA_ANSLUTNING
  5
2017
 10
141.022
 20
52.1782
 30
0.000000
  70
    32
  0
VERTEX
  8
SAPA_ANSLUTNING
  5
2018
 10
140.828
 20
52.0085
 30
0.000000
  70
    32
  0
VERTEX
  8
SAPA_ANSLUTNING
  5
2019
 10
140.642
 20
51.8283
 30
0.000000
  70
    32
  0
VERTEX
  8
SAPA_ANSLUTNING
  5
201A
 10
140.464
 20
51.6380
 30
0.000000
  70
    32
  0
VERTEX
  8
SAPA_ANSLUTNING
  5
201B
 10
140.295
 20
51.4382
 30
0.000000
  70
    32
  0
VERTEX
  8
SAPA_ANSLUTNING
  5
201C
 10
140.135
 20
51.2293
 30
0.000000
  70
    32
  0
VERTEX
  8
SAPA_ANSLUTNING
  5
201D
 10
139.984
 20
51.0118
 30
0.000000
  70
    32
  0
VERTEX
  8
SAPA_ANSLUTNING
  5
201E
 10
139.843
 20
50.7862
 30
0.000000
  70
    32
  0
VERTEX
  8
SAPA_ANSLUTNING
  5
201F
 10
139.711
 20
50.5531
 30
0.000000
  70
    32
  0
VERTEX
  8
SAPA_ANSLUTNING
  5
2020
 10
139.590
 20
50.3131
 30
0.000000
  70
    32
  0
VERTEX
  8
SAPA_ANSLUTNING
  5
2021
 10
139.480
 20
50.0667
 30
0.000000
  70
    32
  0
VERTEX
  8
SAPA_ANSLUTNING
  5
2022
 10
139.381
 20
49.8144
 30
0.000000
  70
    32
  0
VERTEX
  8
SAPA_ANSLUTNING
  5
2023
 10
139.292
 20
49.5570
 30
0.000000
  70
    32
  0
VERTEX
  8
SAPA_ANSLUTNING
  5
2024
 10
139.215
 20
49.2951
 30
0.000000
  70
    32
  0
VERTEX
  8
SAPA_ANSLUTNING
  5
2025
 10
139.150
 20
49.0292
 30
0.000000
  70
    32
  0
VERTEX
  8
SAPA_ANSLUTNING
  5
2026
 10
139.096
 20
48.7600
 30
0.000000
  70
    32
  0
VERTEX
  8
SAPA_ANSLUTNING
  5
2027
 10
139.054
 20
48.4881
 30
0.000000
  70
    32
  0
VERTEX
  8
SAPA_ANSLUTNING
  5
2028
 10
139.024
 20
48.2143
 30
0.000000
  70
    32
  0
VERTEX
  8
SAPA_ANSLUTNING
  5
2029
 10
139.006
 20
47.9392
 30
0.000000
  70
    32
  0
VERTEX
  8
SAPA_ANSLUTNING
  5
202A
 10
139.000
 20
47.6633
 30
0.000000
  70
    32
  0
VERTEX
  8
SAPA_ANSLUTNING
  5
202B
 10
139.006
 20
47.3875
 30
0.000000
  70
    32
  0
VERTEX
  8
SAPA_ANSLUTNING
  5
202C
 10
139.024
 20
47.1124
 30
0.000000
  70
    32
  0
VERTEX
  8
SAPA_ANSLUTNING
  5
202D
 10
139.054
 20
46.8386
 30
0.000000
  70
    32
  0
VERTEX
  8
SAPA_ANSLUTNING
  5
202E
 10
139.096
 20
46.5667
 30
0.000000
  70
    32
  0
VERTEX
  8
SAPA_ANSLUTNING
  5
202F
 10
139.150
 20
46.2975
 30
0.000000
  70
    32
  0
VERTEX
  8
SAPA_ANSLUTNING
  5
2030
 10
139.215
 20
46.0316
 30
0.000000
  70
    32
  0
VERTEX
  8
SAPA_ANSLUTNING
  5
2031
 10
139.292
 20
45.7697
 30
0.000000
  70
    32
  0
VERTEX
  8
SAPA_ANSLUTNING
  5
2032
 10
139.381
 20
45.5123
 30
0.000000
  70
    32
  0
VERTEX
  8
SAPA_ANSLUTNING
  5
2033
 10
139.480
 20
45.2600
 30
0.000000
  70
    32
  0
VERTEX
  8
SAPA_ANSLUTNING
  5
2034
 10
139.590
 20
45.0136
 30
0.000000
  70
    32
  0
VERTEX
  8
SAPA_ANSLUTNING
  5
2035
 10
139.711
 20
44.7735
 30
0.000000
  70
    32
  0
VERTEX
  8
SAPA_ANSLUTNING
  5
2036
 10
139.843
 20
44.5405
 30
0.000000
  70
    32
  0
VERTEX
  8
SAPA_ANSLUTNING
  5
2037
 10
139.984
 20
44.3149
 30
0.000000
  70
    32
  0
VERTEX
  8
SAPA_ANSLUTNING
  5
2038
 10
140.135
 20
44.0974
 30
0.000000
  70
    32
  0
VERTEX
  8
SAPA_ANSLUTNING
  5
2039
 10
140.295
 20
43.8885
 30
0.000000
  70
    32
  0
VERTEX
  8
SAPA_ANSLUTNING
  5
203A
 10
140.464
 20
43.6887
 30
0.000000
  70
    32
  0
VERTEX
  8
SAPA_ANSLUTNING
  5
203B
 10
140.642
 20
43.4984
 30
0.000000
  70
    32
  0
VERTEX
  8
SAPA_ANSLUTNING
  5
203C
 10
140.828
 20
43.3182
 30
0.000000
  70
    32
  0
VERTEX
  8
SAPA_ANSLUTNING
  5
203D
 10
141.022
 20
43.1485
 30
0.000000
  70
    32
  0
VERTEX
  8
SAPA_ANSLUTNING
  5
203E
 10
141.222
 20
42.9896
 30
0.000000
  70
    32
  0
VERTEX
  8
SAPA_ANSLUTNING
  5
203F
 10
141.429
 20
42.8420
 30
0.000000
  70
    32
  0
VERTEX
  8
SAPA_ANSLUTNING
  5
2040
 10
141.643
 20
42.7060
 30
0.000000
  70
    32
  0
VERTEX
  8
SAPA_ANSLUTNING
  5
2041
 10
141.862
 20
42.5820
 30
0.000000
  70
    32
  0
VERTEX
  8
SAPA_ANSLUTNING
  5
2042
 10
142.087
 20
42.4702
 30
0.000000
  70
    32
  0
VERTEX
  8
SAPA_ANSLUTNING
  5
2043
 10
142.316
 20
42.3709
 30
0.000000
  70
    32
  0
VERTEX
  8
SAPA_ANSLUTNING
  5
2044
 10
142.549
 20
42.2843
 30
0.000000
  70
    32
  0
VERTEX
  8
SAPA_ANSLUTNING
  5
2045
 10
142.785
 20
42.2107
 30
0.000000
  70
    32
  0
VERTEX
  8
SAPA_ANSLUTNING
  5
2046
 10
143.025
 20
42.1503
 30
0.000000
  70
    32
  0
VERTEX
  8
SAPA_ANSLUTNING
  5
2047
 10
143.266
 20
42.1031
 30
0.000000
  70
    32
  0
VERTEX
  8
SAPA_ANSLUTNING
  5
2048
 10
143.510
 20
42.0694
 30
0.000000
  70
    32
  0
VERTEX
  8
SAPA_ANSLUTNING
  5
2049
 10
143.755
 20
42.0491
 30
0.000000
  70
    32
  0
VERTEX
  8
SAPA_ANSLUTNING
  5
204A
 10
144.000
 20
42.0423
 30
0.000000
  70
    32
  0
SEQEND
  8
SAPA_ANSLUTNING
  5
204B
  0
LINE
  5
D8C
  8
SAPA_ANSLUTNING
 10
-15.99999999999994
 20
-70.000000000020293
 30
0.0
 11
-16.0
 21
-111.2928327096284
 31
0.0
  0
POLYLINE
  5
D8D
  8
SAPA_ANSLUTNING
 66
     1
 10
0.0
 20
0.0
 30
0.0
  0
VERTEX
  5
134F
  8
SAPA_ANSLUTNING
 10
140.50107147108221
 20
43.647930409438558
 30
0.0
 42
0.8812634091771057
  0
VERTEX
  5
1350
  8
SAPA_ANSLUTNING
 10
140.9999999277413
 20
39.711162381218422
 30
0.0
  0
VERTEX
  5
1351
  8
SAPA_ANSLUTNING
 10
146.9999999277413
 20
39.711162381218422
 30
0.0
 42
-0.9999999999999998
  0
VERTEX
  5
1352
  8
SAPA_ANSLUTNING
 10
146.9999999277413
 20
35.711162381218422
 30
0.0
  0
VERTEX
  5
1353
  8
SAPA_ANSLUTNING
 10
140.9999999277413
 20
35.711162381218422
 30
0.0
 42
0.9999999999999998
  0
VERTEX
  5
1354
  8
SAPA_ANSLUTNING
 10
140.9999999277413
 20
31.711162381218418
 30
0.0
  0
VERTEX
  5
1355
  8
SAPA_ANSLUTNING
 10
146.9999999277413
 20
31.711162381218418
 30
0.0
 42
-0.9999999999999998
  0
VERTEX
  5
1356
  8
SAPA_ANSLUTNING
 10
146.9999999277413
 20
27.711162381218411
 30
0.0
  0
VERTEX
  5
1357
  8
SAPA_ANSLUTNING
 10
140.9999999277413
 20
27.711162381218418
 30
0.0
 42
0.9999999999999998
  0
VERTEX
  5
1358
  8
SAPA_ANSLUTNING
 10
140.9999999277413
 20
23.711162381218418
 30
0.0
  0
VERTEX
  5
1359
  8
SAPA_ANSLUTNING
 10
146.9999999277413
 20
23.711162381218418
 30
0.0
 42
-0.9999999999999998
  0
VERTEX
  5
135A
  8
SAPA_ANSLUTNING
 10
146.9999999277413
 20
19.711162381218411
 30
0.0
  0
VERTEX
  5
135B
  8
SAPA_ANSLUTNING
 10
140.9999999277413
 20
19.711162381218418
 30
0.0
 42
0.9999999999999998
  0
VERTEX
  5
135C
  8
SAPA_ANSLUTNING
 10
140.9999999277413
 20
15.71116238121842
 30
0.0
  0
VERTEX
  5
135D
  8
SAPA_ANSLUTNING
 10
146.9999999277413
 20
15.71116238121841
 30
0.0
 42
-0.9999999999999998
  0
VERTEX
  5
135E
  8
SAPA_ANSLUTNING
 10
146.9999999277413
 20
11.71116238121841
 30
0.0
  0
VERTEX
  5
135F
  8
SAPA_ANSLUTNING
 10
140.9999999277413
 20
11.71116238121842
 30
0.0
 42
0.9999999999999998
  0
VERTEX
  5
1360
  8
SAPA_ANSLUTNING
 10
140.9999999277413
 20
7.711162381218422
 30
0.0
  0
VERTEX
  5
1361
  8
SAPA_ANSLUTNING
 10
146.9999999277413
 20
7.711162381218414
 30
0.0
 42
-0.9999999999999998
  0
VERTEX
  5
1362
  8
SAPA_ANSLUTNING
 10
146.9999999277413
 20
3.711162381218414
 30
0.0
  0
VERTEX
  5
1363
  8
SAPA_ANSLUTNING
 10
140.9999999277413
 20
3.711162381218422
 30
0.0
 42
0.9999999999999998
  0
VERTEX
  5
1364
  8
SAPA_ANSLUTNING
 10
140.9999999277413
 20
-0.288837618781578
 30
0.0
  0
VERTEX
  5
1365
  8
SAPA_ANSLUTNING
 10
146.9999999277413
 20
-0.2888376187815851
 30
0.0
 42
-0.9999999999999998
  0
VERTEX
  5
1366
  8
SAPA_ANSLUTNING
 10
146.9999999277413
 20
-4.2888376187815851
 30
0.0
  0
VERTEX
  5
1367
  8
SAPA_ANSLUTNING
 10
140.9999999277413
 20
-4.2888376187815771
 30
0.0
 42
0.9999999999999998
  0
VERTEX
  5
1368
  8
SAPA_ANSLUTNING
 10
140.9999999277413
 20
-8.2888376187815762
 30
0.0
  0
VERTEX
  5
1369
  8
SAPA_ANSLUTNING
 10
146.9999999277413
 20
-8.2888376187815851
 30
0.0
 42
-0.9999999999999998
  0
VERTEX
  5
136A
  8
SAPA_ANSLUTNING
 10
146.9999999277413
 20
-12.28883761878158
 30
0.0
  0
VERTEX
  5
136B
  8
SAPA_ANSLUTNING
 10
140.9999999277413
 20
-12.28883761878158
 30
0.0
 42
0.9999999999999998
  0
VERTEX
  5
136C
  8
SAPA_ANSLUTNING
 10
140.9999999277413
 20
-16.288837618781582
 30
0.0
  0
VERTEX
  5
136D
  8
SAPA_ANSLUTNING
 10
146.9999999277413
 20
-16.288837618781582
 30
0.0
 42
-0.9999999999999998
  0
VERTEX
  5
136E
  8
SAPA_ANSLUTNING
 10
146.99999992774119
 20
-20.288837618781589
 30
0.0
  0
VERTEX
  5
136F
  8
SAPA_ANSLUTNING
 10
140.99999992774119
 20
-20.288837618781582
 30
0.0
 42
0.9999999999999998
  0
VERTEX
  5
1370
  8
SAPA_ANSLUTNING
 10
140.99999992774119
 20
-24.288837618781582
 30
0.0
  0
VERTEX
  5
1371
  8
SAPA_ANSLUTNING
 10
146.99999992774119
 20
-24.288837618781589
 30
0.0
 42
-0.9999999999999998
  0
VERTEX
  5
1372
  8
SAPA_ANSLUTNING
 10
146.99999992774119
 20
-28.288837618781589
 30
0.0
  0
VERTEX
  5
1373
  8
SAPA_ANSLUTNING
 10
140.99999992774119
 20
-28.288837618781582
 30
0.0
 42
0.9999999999999998
  0
VERTEX
  5
1374
  8
SAPA_ANSLUTNING
 10
140.99999992774119
 20
-32.288837618781578
 30
0.0
  0
VERTEX
  5
1375
  8
SAPA_ANSLUTNING
 10
146.99999992774119
 20
-32.288837618781578
 30
0.0
 42
-0.9999999999999998
  0
VERTEX
  5
1376
  8
SAPA_ANSLUTNING
 10
146.99999992774119
 20
-36.288837618781592
 30
0.0
  0
VERTEX
  5
1377
  8
SAPA_ANSLUTNING
 10
140.99999992774119
 20
-36.288837618781578
 30
0.0
 42
0.9999999999999998
  0
VERTEX
  5
1378
  8
SAPA_ANSLUTNING
 10
140.99999992774119
 20
-40.288837618781578
 30
0.0
  0
VERTEX
  5
1379
  8
SAPA_ANSLUTNING
 10
146.99999992774119
 20
-40.288837618781578
 30
0.0
 42
-0.9999999999999998
  0
VERTEX
  5
137A
  8
SAPA_ANSLUTNING
 10
146.99999992774119
 20
-44.288837618781578
 30
0.0
  0
VERTEX
  5
137B
  8
SAPA_ANSLUTNING
 10
140.99999992774119
 20
-44.288837618781571
 30
0.0
 42
0.9999999999999998
  0
VERTEX
  5
137C
  8
SAPA_ANSLUTNING
 10
140.99999992774119
 20
-48.288837618781578
 30
0.0
  0
VERTEX
  5
137D
  8
SAPA_ANSLUTNING
 10
146.99999992774119
 20
-48.288837618781592
 30
0.0
 42
-0.9999999999999998
  0
VERTEX
  5
137E
  8
SAPA_ANSLUTNING
 10
146.99999992774119
 20
-52.288837618781578
 30
0.0
  0
VERTEX
  5
137F
  8
SAPA_ANSLUTNING
 10
140.99999992774119
 20
-52.288837618781578
 30
0.0
 42
0.9999999999999998
  0
VERTEX
  5
1380
  8
SAPA_ANSLUTNING
 10
140.99999992774119
 20
-56.288837618781571
 30
0.0
  0
VERTEX
  5
1381
  8
SAPA_ANSLUTNING
 10
146.99999992774119
 20
-56.288837618781578
 30
0.0
 42
-0.9999999999999998
  0
VERTEX
  5
1382
  8
SAPA_ANSLUTNING
 10
146.99999992774119
 20
-60.288837618781592
 30
0.0
  0
VERTEX
  5
1383
  8
SAPA_ANSLUTNING
 10
138.2499999277413
 20
-60.288837618781578
 30
0.0
 42
0.9999999999999998
  0
VERTEX
  5
1384
  8
SAPA_ANSLUTNING
 10
138.2499999277413
 20
-64.288837618781585
 30
0.0
  0
VERTEX
  5
1385
  8
SAPA_ANSLUTNING
 10
146.99999992774119
 20
-64.288837618781585
 30
0.0
 42
-0.9999999999999998
  0
VERTEX
  5
1386
  8
SAPA_ANSLUTNING
 10
146.99999992774119
 20
-68.288837618781585
 30
0.0
  0
VERTEX
  5
1387
  8
SAPA_ANSLUTNING
 10
138.2499999277413
 20
-68.288837618781585
 30
0.0
 42
0.3723754158642647
  0
VERTEX
  5
1388
  8
SAPA_ANSLUTNING
 10
136.2709666207987
 20
-70.000000000020293
 30
0.0
  0
SEQEND
  5
1389
  8
SAPA_ANSLUTNING
  0
POLYLINE
  5
D8E
  8
SAPA_ANSLUTNING
 66
     1
 10
0.0
 20
0.0
 30
0.0
  0
VERTEX
  5
138A
  8
SAPA_ANSLUTNING
 10
21.094751612380719
 20
-66.889616244264417
 30
0.0
 42
0.4609155493572824
  0
VERTEX
  5
138B
  8
SAPA_ANSLUTNING
 10
31.49999999971465
 20
-58.000000000022183
 30
0.0
  0
VERTEX
  5
138C
  8
SAPA_ANSLUTNING
 10
31.49999999971465
 20
-9.0000000000050733
 30
0.0
 42
-0.9999999999999998
  0
VERTEX
  5
138D
  8
SAPA_ANSLUTNING
 10
49.499999999714639
 20
-9.0000000000050733
 30
0.0
  0
VERTEX
  5
138E
  8
SAPA_ANSLUTNING
 10
49.499999999714639
 20
-58.000000000022183
 30
0.0
 42
0.9999999999999998
  0
VERTEX
  5
138F
  8
SAPA_ANSLUTNING
 10
67.499999999714646
 20
-58.000000000022183
 30
0.0
  0
VERTEX
  5
1390
  8
SAPA_ANSLUTNING
 10
67.499999999714646
 20
-5.8005553174693647
 30
0.0
 42
-0.9999999999999998
  0
VERTEX
  5
1391
  8
SAPA_ANSLUTNING
 10
85.499999999714746
 20
-5.8005553174693647
 30
0.0
  0
VERTEX
  5
1392
  8
SAPA_ANSLUTNING
 10
85.499999999714746
 20
-58.000000000022183
 30
0.0
 42
0.9999999999999998
  0
VERTEX
  5
1393
  8
SAPA_ANSLUTNING
 10
103.4999999997147
 20
-58.000000000022183
 30
0.0
  0
VERTEX
  5
1394
  8
SAPA_ANSLUTNING
 10
103.4999999997147
 20
-9.0000000000050733
 30
0.0
 42
-0.9999999999999998
  0
VERTEX
  5
1395
  8
SAPA_ANSLUTNING
 10
121.4999999997147
 20
-9.0000000000050733
 30
0.0
  0
VERTEX
  5
1396
  8
SAPA_ANSLUTNING
 10
121.4999999997147
 20
-58.000000000022183
 30
0.0
 42
0.4609155448655906
  0
VERTEX
  5
1397
  8
SAPA_ANSLUTNING
 10
131.90524825531651
 20
-66.889616265088307
 30
0.0
 42
0.4609155448655906
  0
SEQEND
  5
1398
  8
SAPA_ANSLUTNING
  0
POLYLINE
  5
109C
  8
SAPA_PROFIL
 66
     1
 10
0.0
 20
0.0
 30
0.0
 70
     1
  0
VERTEX
  5
1A93
  8
SAPA_PROFIL
 10
-0.5000000000070415
 20
22.200000000003019
 30
0.0
 42
-0.4142135623730951
  0
VERTEX
  5
1A94
  8
SAPA_PROFIL
 10
-1.000000000007041
 20
22.700000000003019
 30
0.0
  0
VERTEX
  5
1A95
  8
SAPA_PROFIL
 10
-1.0000000000070499
 20
23.700000000006661
 30
0.0
 42
-0.4142135623720291
  0
VERTEX
  5
1A96
  8
SAPA_PROFIL
 10
-0.5000000000070415
 20
24.200000000006661
 30
0.0
  0
VERTEX
  5
1A97
  8
SAPA_PROFIL
 10
11.500000000000229
 20
24.200000000013929
 30
0.0
 42
0.4142135623730951
  0
VERTEX
  5
1A98
  8
SAPA_PROFIL
 10
12.000000000000229
 20
24.700000000013929
 30
0.0
  0
VERTEX
  5
1A99
  8
SAPA_PROFIL
 10
11.99999999999295
 20
30.853589838489391
 30
0.0
  0
VERTEX
  5
1A9A
  8
SAPA_PROFIL
 10
12.19999999999731
 20
31.200000000003019
 30
0.0
  0
VERTEX
  5
1A9B
  8
SAPA_PROFIL
 10
11.99999999998567
 20
31.55627758058337
 30
0.0
  0
VERTEX
  5
1A9C
  8
SAPA_PROFIL
 10
11.99999999999295
 20
37.95735931289029
 30
0.0
 42
0.1989123673783206
  0
VERTEX
  5
1A9D
  8
SAPA_PROFIL
 10
11.70710678118507
 20
38.664466094075138
 30
0.0
  0
VERTEX
  5
1A9E
  8
SAPA_PROFIL
 10
9.6786796564180264
 20
40.692893218861101
 30
0.0
 42
-0.1989123673783208
  0
VERTEX
  5
1A9F
  8
SAPA_PROFIL
 10
8.7999999999885858
 20
42.814213562413471
 30
0.0
  0
VERTEX
  5
1AA0
  8
SAPA_PROFIL
 10
8.7999999999958618
 20
56.799999999997929
 30
0.0
 42
-0.414213562373095
  0
VERTEX
  5
1AA1
  8
SAPA_PROFIL
 10
9.0000000000002274
 20
56.999999999997932
 30
0.0
  0
VERTEX
  5
1AA2
  8
SAPA_PROFIL
 10
9.3398526890089215
 20
57.000000000002302
 30
0.0
 42
-0.3394542588645143
  0
VERTEX
  5
1AA3
  8
SAPA_PROFIL
 10
10.305778515299041
 20
56.258819045100871
 30
0.0
  0
VERTEX
  5
1AA4
  8
SAPA_PROFIL
 10
11.28296291312313
 20
52.611917223991007
 30
0.0
 42
-0.0655434628306237
  0
VERTEX
  5
1AA5
  8
SAPA_PROFIL
 10
11.29999999998131
 20
52.48250770141069
 30
0.0
  0
VERTEX
  5
1AA6
  8
SAPA_PROFIL
 10
11.299999999988581
 20
52.407106781162398
 30
0.0
 42
-0.1989123673734313
  0
VERTEX
  5
1AA7
  8
SAPA_PROFIL
 10
11.15355339058004
 20
52.053553390581847
 30
0.0
  0
VERTEX
  5
1AA8
  8
SAPA_PROFIL
 10
10.646446609418719
 20
51.546446609429523
 30
0.0
 42
0.198912367380327
  0
VERTEX
  5
1AA9
  8
SAPA_PROFIL
 10
10.5000000000075
 20
51.192893218833461
 30
0.0
  0
VERTEX
  5
1AAA
  8
SAPA_PROFIL
 10
10.49999999998567
 20
43.114213562412729
 30
0.0
 42
0.1989123673792659
  0
VERTEX
  5
1AAB
  8
SAPA_PROFIL
 10
10.79289321879549
 20
42.40710678122619
 30
0.0
  0
VERTEX
  5
1AAC
  8
SAPA_PROFIL
 10
13.121320343562051
 20
40.078679656430282
 30
0.0
 42
-0.1989123673796578
  0
VERTEX
  5
1AAD
  8
SAPA_PROFIL
 10
14.000000000000229
 20
37.957359312875738
 30
0.0
  0
VERTEX
  5
1AAE
  8
SAPA_PROFIL
 10
14.000000000000229
 20
23.200000000006661
 30
0.0
 42
-0.4142135623730951
  0
VERTEX
  5
1AAF
  8
SAPA_PROFIL
 10
13.000000000000229
 20
22.200000000006661
 30
0.0
  0
SEQEND
  5
1AB0
  8
SAPA_PROFIL
  0
POLYLINE
  5
109D
  8
SAPA_PROFIL
 66
     1
 10
0.0
 20
0.0
 30
0.0
 70
     1
  0
VERTEX
  5
1AB1
  8
SAPA_PROFIL
 10
-69.000000000007162
 20
57.499999999999389
 30
0.0
  0
VERTEX
  5
1AB2
  8
SAPA_PROFIL
 10
-68.999999999999886
 20
59.499999999995786
 30
0.0
 42
0.4142135623730951
  0
VERTEX
  5
1AB3
  8
SAPA_PROFIL
 10
-69.499999999999901
 20
59.999999999992127
 30
0.0
  0
VERTEX
  5
1AB4
  8
SAPA_PROFIL
 10
-71.999999999999901
 20
60.000000000003027
 30
0.0
 42
0.4142135623730951
  0
VERTEX
  5
1AB5
  8
SAPA_PROFIL
 10
-73.999999999999886
 20
57.999999999999417
 30
0.0
  0
VERTEX
  5
1AB6
  8
SAPA_PROFIL
 10
-73.999999999999886
 20
4.0000000000030482
 30
0.0
 42
0.4142135623730951
  0
VERTEX
  5
1AB7
  8
SAPA_PROFIL
 10
-70.000000000007162
 20
-0.0000000000005898
 30
0.0
  0
VERTEX
  5
1AB8
  8
SAPA_PROFIL
 10
-5.0000000000071623
 20
0.000000000003034
 30
0.0
 42
0.4142135623730951
  0
VERTEX
  5
1AB9
  8
SAPA_PROFIL
 10
-1.000000000007162
 20
3.9999999999994098
 30
0.0
  0
VERTEX
  5
1ABA
  8
SAPA_PROFIL
 10
-0.9999999999998863
 20
55.000000000003027
 30
0.0
 42
-0.4142135623730951
  0
VERTEX
  5
1ABB
  8
SAPA_PROFIL
 10
1.000000000000113
 20
56.999999999999389
 30
0.0
  0
VERTEX
  5
1ABC
  8
SAPA_PROFIL
 10
9.5000000000001137
 20
57.000000000003027
 30
0.0
 42
-0.4142135623730951
  0
VERTEX
  5
1ABD
  8
SAPA_PROFIL
 10
11.50000000000011
 20
54.999999999999389
 30
0.0
  0
VERTEX
  5
1ABE
  8
SAPA_PROFIL
 10
11.50000000000739
 20
52.20710678119881
 30
0.0
 42
-0.1989123673802842
  0
VERTEX
  5
1ABF
  8
SAPA_PROFIL
 10
11.35355339059617
 20
51.853553390602727
 30
0.0
  0
VERTEX
  5
1AC0
  8
SAPA_PROFIL
 10
11.112372435730091
 20
51.61237243574768
 30
0.0
 42
0.2679491924377356
  0
VERTEX
  5
1AC1
  8
SAPA_PROFIL
 10
10.724143868050421
 20
50.163483696287322
 30
0.0
  0
VERTEX
  5
1AC2
  8
SAPA_PROFIL
 10
11.43185165258569
 20
47.522282287465302
 30
0.0
 42
-0.065543462814752
  0
VERTEX
  5
1AC3
  8
SAPA_PROFIL
 10
11.50000000000739
 20
47.004644197264
 30
0.0
  0
VERTEX
  5
1AC4
  8
SAPA_PROFIL
 10
11.50000000001466
 20
43.000000000010303
 30
0.0
 42
0.4142135623698985
  0
VERTEX
  5
1AC5
  8
SAPA_PROFIL
 10
12.50000000000739
 20
42.000000000013941
 30
0.0
  0
VERTEX
  5
1AC6
  8
SAPA_PROFIL
 10
12.99999999998556
 20
42.000000000010317
 30
0.0
 42
0.4142135623773572
  0
VERTEX
  5
1AC7
  8
SAPA_PROFIL
 10
14.00000000000011
 20
43.000000000010303
 30
0.0
  0
VERTEX
  5
1AC8
  8
SAPA_PROFIL
 10
14.00000000000011
 20
58.499999999999417
 30
0.0
 42
0.4142135623730951
  0
VERTEX
  5
1AC9
  8
SAPA_PROFIL
 10
12.50000000000011
 20
60.000000000003027
 30
0.0
  0
VERTEX
  5
1ACA
  8
SAPA_PROFIL
 10
-2.4999999999998859
 20
59.999999999999389
 30
0.0
 42
0.4142135623730951
  0
VERTEX
  5
1ACB
  8
SAPA_PROFIL
 10
-3.9999999999998859
 20
58.500000000003027
 30
0.0
  0
VERTEX
  5
1ACC
  8
SAPA_PROFIL
 10
-4.0000000000071623
 20
4.9999999999994102
 30
0.0
 42
-0.4142135623730951
  0
VERTEX
  5
1ACD
  8
SAPA_PROFIL
 10
-6.0000000000071623
 20
3.000000000003034
 30
0.0
  0
VERTEX
  5
1ACE
  8
SAPA_PROFIL
 10
-68.999999999999886
 20
3.0000000000066862
 30
0.0
 42
-0.4142135623730951
  0
VERTEX
  5
1ACF
  8
SAPA_PROFIL
 10
-70.999999999999901
 20
5.0000000000103242
 30
0.0
  0
VERTEX
  5
1AD0
  8
SAPA_PROFIL
 10
-70.999999999999901
 20
57.000000000003027
 30
0.0
  0
VERTEX
  5
1AD1
  8
SAPA_PROFIL
 10
-69.500000000007162
 20
57.000000000003027
 30
0.0
 42
0.4142135623730951
  0
SEQEND
  5
1AD2
  8
SAPA_PROFIL
  0
POLYLINE
  5
109E
  8
SAPA_PROFIL
 66
     1
 10
0.0
 20
0.0
 30
0.0
 70
     1
  0
VERTEX
  5
1AD3
  8
SAPA_PROFIL
 10
63.000000000023228
 20
68.500000000020165
 30
0.0
  0
VERTEX
  5
1AD4
  8
SAPA_PROFIL
 10
62.20000000001307
 20
68.500000000011042
 30
0.0
 42
-0.4142135623731159
  0
VERTEX
  5
1AD5
  8
SAPA_PROFIL
 10
62.000000000014133
 20
68.70000000000995
 30
0.0
  0
VERTEX
  5
1AD6
  8
SAPA_PROFIL
 10
62.000000000023263
 20
69.800000000010343
 30
0.0
 42
-0.4142135623730744
  0
VERTEX
  5
1AD7
  8
SAPA_PROFIL
 10
62.20000000001307
 20
70.000000000000171
 30
0.0
  0
VERTEX
  5
1AD8
  8
SAPA_PROFIL
 10
65.749999999510294
 20
70.000000000011042
 30
0.0
 42
-0.3389652260119365
  0
VERTEX
  5
1AD9
  8
SAPA_PROFIL
 10
66.715470299054601
 20
69.260513148811256
 30
0.0
 42
-0.0274862826956062
  0
VERTEX
  5
1ADA
  8
SAPA_PROFIL
 10
67.499999999502137
 20
55.000000000019412
 30
0.0
  0
VERTEX
  5
1ADB
  8
SAPA_PROFIL
 10
67.499999999863178
 20
42.199999998760319
 30
0.0
 42
-0.4142135623889429
  0
VERTEX
  5
1ADC
  8
SAPA_PROFIL
 10
67.29999999986245
 20
41.999999998748699
 30
0.0
  0
VERTEX
  5
1ADD
  8
SAPA_PROFIL
 10
66.965470053602587
 20
41.999999998750489
 30
0.0
 42
-0.2679491924396797
  0
VERTEX
  5
1ADE
  8
SAPA_PROFIL
 10
66.792264972843441
 20
42.099999998755493
 30
0.0
  0
VERTEX
  5
1ADF
  8
SAPA_PROFIL
 10
65.77679491925079
 20
43.858845725149983
 30
0.0
 42
-0.1316524975842002
  0
VERTEX
  5
1AE0
  8
SAPA_PROFIL
 10
65.750000000008214
 20
43.958845725150347
 30
0.0
  0
VERTEX
  5
1AE1
  8
SAPA_PROFIL
 10
65.750000000012335
 20
46.80000000001035
 30
0.0
 42
0.4142135623731472
  0
VERTEX
  5
1AE2
  8
SAPA_PROFIL
 10
65.550000000011607
 20
47.000000000011099
 30
0.0
  0
VERTEX
  5
1AE3
  8
SAPA_PROFIL
 10
59.243869040803077
 20
47.000000000011021
 30
0.0
 42
-0.2418327667441306
  0
VERTEX
  5
1AE4
  8
SAPA_PROFIL
 10
58.999999999851582
 20
47.125277674977262
 30
0.0
 42
0.2418327667529517
  0
VERTEX
  5
1AE5
  8
SAPA_PROFIL
 10
58.756130958890537
 20
47.250555349950581
 30
0.0
  0
VERTEX
  5
1AE6
  8
SAPA_PROFIL
 10
57.799999999851543
 20
47.250555349950552
 30
0.0
 42
0.2418327667504456
  0
VERTEX
  5
1AE7
  8
SAPA_PROFIL
 10
57.556130958888829
 20
47.125277674979607
 30
0.0
 42
-0.2418327667464157
  0
VERTEX
  5
1AE8
  8
SAPA_PROFIL
 10
57.312261917935253
 20
47.000000000011021
 30
0.0
  0
VERTEX
  5
1AE9
  8
SAPA_PROFIL
 10
55.21418956221499
 20
47.000000000011021
 30
0.0
 42
-0.6681786379192718
  0
VERTEX
  5
1AEA
  8
SAPA_PROFIL
 10
54.507082781028387
 20
48.70710678119751
 30
0.0
  0
VERTEX
  5
1AEB
  8
SAPA_PROFIL
 10
55.812132034197369
 20
50.012156034366683
 30
0.0
 42
-0.1989123673797335
  0
VERTEX
  5
1AEC
  8
SAPA_PROFIL
 10
56.024264068553443
 20
50.100024000010812
 30
0.0
  0
VERTEX
  5
1AED
  8
SAPA_PROFIL
 10
56.610769515300639
 20
50.10002400001067
 30
0.0
 42
-0.1316524975873855
  0
VERTEX
  5
1AEE
  8
SAPA_PROFIL
 10
56.760769515300559
 20
50.059831621146017
 30
0.0
  0
VERTEX
  5
1AEF
  8
SAPA_PROFIL
 10
58.249999999841442
 20
49.200024000010707
 30
0.0
  0
VERTEX
  5
1AF0
  8
SAPA_PROFIL
 10
58.699999999841388
 20
49.200012000011043
 30
0.0
 42
0.4142135623731054
  0
VERTEX
  5
1AF1
  8
SAPA_PROFIL
 10
58.999999999841393
 20
49.500012000011047
 30
0.0
  0
VERTEX
  5
1AF2
  8
SAPA_PROFIL
 10
58.999999999841343
 20
53.100024000011118
 30
0.0
 42
0.4142135623730951
  0
VERTEX
  5
1AF3
  8
SAPA_PROFIL
 10
58.699999999841339
 20
53.400024000011108
 30
0.0
  0
VERTEX
  5
1AF4
  8
SAPA_PROFIL
 10
58.249999999841343
 20
53.400024000011001
 30
0.0
  0
VERTEX
  5
1AF5
  8
SAPA_PROFIL
 10
56.76073986876716
 20
52.54019926244203
 30
0.0
 42
-0.1316363093594254
  0
VERTEX
  5
1AF6
  8
SAPA_PROFIL
 10
56.610758963720421
 20
52.500006884185062
 30
0.0
  0
VERTEX
  5
1AF7
  8
SAPA_PROFIL
 10
56.500999999839301
 20
52.499999898044088
 30
0.0
  0
VERTEX
  5
1AF8
  8
SAPA_PROFIL
 10
56.499999999841329
 20
52.50099983439425
 30
0.0
  0
VERTEX
  5
1AF9
  8
SAPA_PROFIL
 10
56.49999999984135
 20
54.500000000000128
 30
0.0
 42
-0.4142135623731035
  0
VERTEX
  5
1AFA
  8
SAPA_PROFIL
 10
56.999999999841357
 20
55.000000000000099
 30
0.0
  0
VERTEX
  5
1AFB
  8
SAPA_PROFIL
 10
64.150000000112016
 20
55.000000000000128
 30
0.0
 42
-0.4142135623731022
  0
VERTEX
  5
1AFC
  8
SAPA_PROFIL
 10
64.450000000111288
 20
54.700000000000848
 30
0.0
  0
VERTEX
  5
1AFD
  8
SAPA_PROFIL
 10
64.45000000011126
 20
54.049999999999429
 30
0.0
 42
0.4142135623730534
  0
VERTEX
  5
1AFE
  8
SAPA_PROFIL
 10
64.75000000011056
 20
53.750000000000099
 30
0.0
  0
VERTEX
  5
1AFF
  8
SAPA_PROFIL
 10
65.450000000002134
 20
53.750000000000149
 30
0.0
 42
0.4142135623730884
  0
VERTEX
  5
1B00
  8
SAPA_PROFIL
 10
65.750000000001393
 20
54.049999999999429
 30
0.0
  0
VERTEX
  5
1B01
  8
SAPA_PROFIL
 10
65.750000000021402
 20
65.950000000009979
 30
0.0
 42
0.4142135623730466
  0
VERTEX
  5
1B02
  8
SAPA_PROFIL
 10
65.45000000002031
 20
66.25000000001107
 30
0.0
  0
VERTEX
  5
1B03
  8
SAPA_PROFIL
 10
64.749999999543007
 20
66.250000000020165
 30
0.0
 42
0.4142135623731437
  0
VERTEX
  5
1B04
  8
SAPA_PROFIL
 10
64.449999999532849
 20
65.950000000009979
 30
0.0
  0
VERTEX
  5
1B05
  8
SAPA_PROFIL
 10
64.449999999540125
 20
65.2999999999994
 30
0.0
 42
-0.4142135623535671
  0
VERTEX
  5
1B06
  8
SAPA_PROFIL
 10
64.149999999540853
 20
65.000000000011042
 30
0.0
  0
VERTEX
  5
1B07
  8
SAPA_PROFIL
 10
62.199999999532857
 20
65.000000000011042
 30
0.0
 42
-0.4142135623731159
  0
VERTEX
  5
1B08
  8
SAPA_PROFIL
 10
61.999999999533941
 20
65.200000000009965
 30
0.0
  0
VERTEX
  5
1B09
  8
SAPA_PROFIL
 10
61.999999999543043
 20
66.300000000010314
 30
0.0
 42
-0.4142135623730326
  0
VERTEX
  5
1B0A
  8
SAPA_PROFIL
 10
62.199999999532857
 20
66.500000000000099
 30
0.0
  0
VERTEX
  5
1B0B
  8
SAPA_PROFIL
 10
62.999999999543022
 20
66.500000000011042
 30
0.0
 42
0.4142135623730991
  0
VERTEX
  5
1B0C
  8
SAPA_PROFIL
 10
63.499999999543043
 20
67.000000000011042
 30
0.0
  0
VERTEX
  5
1B0D
  8
SAPA_PROFIL
 10
63.500000000023228
 20
68.000000000020165
 30
0.0
 42
0.4142135623730992
  0
SEQEND
  5
1B0E
  8
SAPA_PROFIL
  0
POLYLINE
  5
109F
  8
SAPA_PROFIL
 66
     1
 10
0.0
 20
0.0
 30
0.0
 70
     1
  0
VERTEX
  5
1B0F
  8
SAPA_PROFIL
 10
24.999999999659551
 20
68.500000000020165
 30
0.0
  0
VERTEX
  5
1B10
  8
SAPA_PROFIL
 10
25.799999999669701
 20
68.500000000011042
 30
0.0
 42
0.4142135623731159
  0
VERTEX
  5
1B11
  8
SAPA_PROFIL
 10
25.999999999668638
 20
68.70000000000995
 30
0.0
  0
VERTEX
  5
1B12
  8
SAPA_PROFIL
 10
25.999999999659519
 20
69.800000000010343
 30
0.0
 42
0.4142135623730744
  0
VERTEX
  5
1B13
  8
SAPA_PROFIL
 10
25.799999999669701
 20
70.000000000000171
 30
0.0
  0
VERTEX
  5
1B14
  8
SAPA_PROFIL
 10
22.250000000172481
 20
70.000000000011042
 30
0.0
 42
0.3389652260119365
  0
VERTEX
  5
1B15
  8
SAPA_PROFIL
 10
21.28452970062817
 20
69.260513148811256
 30
0.0
 42
0.0274862826956062
  0
VERTEX
  5
1B16
  8
SAPA_PROFIL
 10
20.500000000180631
 20
55.000000000019412
 30
0.0
  0
VERTEX
  5
1B17
  8
SAPA_PROFIL
 10
20.49999999981959
 20
42.199999998760319
 30
0.0
 42
0.4142135623889429
  0
VERTEX
  5
1B18
  8
SAPA_PROFIL
 10
20.69999999982031
 20
41.999999998748699
 30
0.0
  0
VERTEX
  5
1B19
  8
SAPA_PROFIL
 10
21.03452994608018
 20
41.999999998750489
 30
0.0
 42
0.2679491924396797
  0
VERTEX
  5
1B1A
  8
SAPA_PROFIL
 10
21.20773502683933
 20
42.099999998755493
 30
0.0
  0
VERTEX
  5
1B1B
  8
SAPA_PROFIL
 10
22.223205080431981
 20
43.858845725149983
 30
0.0
 42
0.1316524975842002
  0
VERTEX
  5
1B1C
  8
SAPA_PROFIL
 10
22.24999999967455
 20
43.958845725150347
 30
0.0
  0
VERTEX
  5
1B1D
  8
SAPA_PROFIL
 10
22.249999999670429
 20
46.80000000001035
 30
0.0
 42
-0.4142135623731472
  0
VERTEX
  5
1B1E
  8
SAPA_PROFIL
 10
22.44999999967116
 20
47.000000000011099
 30
0.0
  0
VERTEX
  5
1B1F
  8
SAPA_PROFIL
 10
28.756130958879691
 20
47.000000000011021
 30
0.0
 42
0.2418327667441306
  0
VERTEX
  5
1B20
  8
SAPA_PROFIL
 10
28.999999999831179
 20
47.125277674977262
 30
0.0
 42
-0.2418327667529517
  0
VERTEX
  5
1B21
  8
SAPA_PROFIL
 10
29.24386904079223
 20
47.250555349950581
 30
0.0
  0
VERTEX
  5
1B22
  8
SAPA_PROFIL
 10
30.199999999831231
 20
47.250555349950552
 30
0.0
 42
-0.2418327667504456
  0
VERTEX
  5
1B23
  8
SAPA_PROFIL
 10
30.443869040793949
 20
47.125277674979607
 30
0.0
 42
0.2418327667464157
  0
VERTEX
  5
1B24
  8
SAPA_PROFIL
 10
30.687738081747529
 20
47.000000000011021
 30
0.0
  0
VERTEX
  5
1B25
  8
SAPA_PROFIL
 10
32.785810437467788
 20
47.000000000011021
 30
0.0
 42
0.6681786379192718
  0
VERTEX
  5
1B26
  8
SAPA_PROFIL
 10
33.492917218654377
 20
48.70710678119751
 30
0.0
  0
VERTEX
  5
1B27
  8
SAPA_PROFIL
 10
32.18786796548541
 20
50.012156034366683
 30
0.0
 42
0.1989123673797335
  0
VERTEX
  5
1B28
  8
SAPA_PROFIL
 10
31.975735931129339
 20
50.100024000010812
 30
0.0
  0
VERTEX
  5
1B29
  8
SAPA_PROFIL
 10
31.389230484382139
 20
50.10002400001067
 30
0.0
 42
0.1316524975873855
  0
VERTEX
  5
1B2A
  8
SAPA_PROFIL
 10
31.239230484382219
 20
50.059831621146017
 30
0.0
  0
VERTEX
  5
1B2B
  8
SAPA_PROFIL
 10
29.749999999841339
 20
49.200024000010707
 30
0.0
  0
VERTEX
  5
1B2C
  8
SAPA_PROFIL
 10
29.2999999998414
 20
49.200012000011043
 30
0.0
 42
-0.4142135623731054
  0
VERTEX
  5
1B2D
  8
SAPA_PROFIL
 10
28.999999999841389
 20
49.500012000011047
 30
0.0
  0
VERTEX
  5
1B2E
  8
SAPA_PROFIL
 10
28.999999999841439
 20
53.100024000011118
 30
0.0
 42
-0.4142135623730951
  0
VERTEX
  5
1B2F
  8
SAPA_PROFIL
 10
29.29999999984144
 20
53.400024000011108
 30
0.0
  0
VERTEX
  5
1B30
  8
SAPA_PROFIL
 10
29.749999999841439
 20
53.400024000011001
 30
0.0
  0
VERTEX
  5
1B31
  8
SAPA_PROFIL
 10
31.239260130915611
 20
52.54019926244203
 30
0.0
 42
0.1316363093594254
  0
VERTEX
  5
1B32
  8
SAPA_PROFIL
 10
31.38924103596235
 20
52.500006884185062
 30
0.0
  0
VERTEX
  5
1B33
  8
SAPA_PROFIL
 10
31.49899999984347
 20
52.499999898044088
 30
0.0
  0
VERTEX
  5
1B34
  8
SAPA_PROFIL
 10
31.499999999841449
 20
52.50099983439425
 30
0.0
  0
VERTEX
  5
1B35
  8
SAPA_PROFIL
 10
31.49999999984141
 20
54.500000000000128
 30
0.0
 42
0.4142135623731035
  0
VERTEX
  5
1B36
  8
SAPA_PROFIL
 10
30.999999999841421
 20
55.000000000000099
 30
0.0
  0
VERTEX
  5
1B37
  8
SAPA_PROFIL
 10
23.849999999570748
 20
55.000000000000128
 30
0.0
 42
0.4142135623731022
  0
VERTEX
  5
1B38
  8
SAPA_PROFIL
 10
23.549999999571479
 20
54.700000000000848
 30
0.0
  0
VERTEX
  5
1B39
  8
SAPA_PROFIL
 10
23.549999999571511
 20
54.049999999999429
 30
0.0
 42
-0.4142135623730534
  0
VERTEX
  5
1B3A
  8
SAPA_PROFIL
 10
23.249999999572211
 20
53.750000000000099
 30
0.0
  0
VERTEX
  5
1B3B
  8
SAPA_PROFIL
 10
22.549999999680612
 20
53.750000000000149
 30
0.0
 42
-0.4142135623730884
  0
VERTEX
  5
1B3C
  8
SAPA_PROFIL
 10
22.249999999681371
 20
54.049999999999429
 30
0.0
  0
VERTEX
  5
1B3D
  8
SAPA_PROFIL
 10
22.249999999661359
 20
65.950000000009979
 30
0.0
 42
-0.4142135623730466
  0
VERTEX
  5
1B3E
  8
SAPA_PROFIL
 10
22.549999999662461
 20
66.25000000001107
 30
0.0
  0
VERTEX
  5
1B3F
  8
SAPA_PROFIL
 10
23.25000000013976
 20
66.250000000020165
 30
0.0
 42
-0.4142135623731437
  0
VERTEX
  5
1B40
  8
SAPA_PROFIL
 10
23.550000000149911
 20
65.950000000009979
 30
0.0
  0
VERTEX
  5
1B41
  8
SAPA_PROFIL
 10
23.550000000142639
 20
65.2999999999994
 30
0.0
 42
0.4142135623535671
  0
VERTEX
  5
1B42
  8
SAPA_PROFIL
 10
23.850000000141911
 20
65.000000000011042
 30
0.0
  0
VERTEX
  5
1B43
  8
SAPA_PROFIL
 10
25.800000000149922
 20
65.000000000011042
 30
0.0
 42
0.4142135623731159
  0
VERTEX
  5
1B44
  8
SAPA_PROFIL
 10
26.00000000014882
 20
65.200000000009965
 30
0.0
  0
VERTEX
  5
1B45
  8
SAPA_PROFIL
 10
26.000000000139728
 20
66.300000000010314
 30
0.0
 42
0.4142135623730326
  0
VERTEX
  5
1B46
  8
SAPA_PROFIL
 10
25.800000000149922
 20
66.500000000000099
 30
0.0
  0
VERTEX
  5
1B47
  8
SAPA_PROFIL
 10
25.00000000013976
 20
66.500000000011042
 30
0.0
 42
-0.4142135623730991
  0
VERTEX
  5
1B48
  8
SAPA_PROFIL
 10
24.500000000139728
 20
67.000000000011042
 30
0.0
  0
VERTEX
  5
1B49
  8
SAPA_PROFIL
 10
24.499999999659551
 20
68.000000000020165
 30
0.0
 42
-0.4142135623730992
  0
SEQEND
  5
1B4A
  8
SAPA_PROFIL
  0
POLYLINE
  5
10A0
  8
SAPA_PROFIL
 66
     1
 10
0.0
 20
0.0
 30
0.0
 70
     1
  0
VERTEX
  5
1B4B
  8
SAPA_PROFIL
 10
24.999999999659551
 20
68.500000000020165
 30
0.0
  0
VERTEX
  5
1B4C
  8
SAPA_PROFIL
 10
25.799999999669701
 20
68.500000000011042
 30
0.0
 42
0.4142135623731159
  0
VERTEX
  5
1B4D
  8
SAPA_PROFIL
 10
25.999999999668638
 20
68.70000000000995
 30
0.0
  0
VERTEX
  5
1B4E
  8
SAPA_PROFIL
 10
25.999999999659519
 20
69.800000000010343
 30
0.0
 42
0.4142135623730744
  0
VERTEX
  5
1B4F
  8
SAPA_PROFIL
 10
25.799999999669701
 20
70.000000000000171
 30
0.0
  0
VERTEX
  5
1B50
  8
SAPA_PROFIL
 10
22.250000000172481
 20
70.000000000011042
 30
0.0
 42
0.3389652260119365
  0
VERTEX
  5
1B51
  8
SAPA_PROFIL
 10
21.28452970062817
 20
69.260513148811256
 30
0.0
 42
0.0274862826956062
  0
VERTEX
  5
1B52
  8
SAPA_PROFIL
 10
20.500000000180631
 20
55.000000000019412
 30
0.0
  0
VERTEX
  5
1B53
  8
SAPA_PROFIL
 10
20.49999999981959
 20
42.199999998760319
 30
0.0
 42
0.4142135623889429
  0
VERTEX
  5
1B54
  8
SAPA_PROFIL
 10
20.69999999982031
 20
41.999999998748699
 30
0.0
  0
VERTEX
  5
1B55
  8
SAPA_PROFIL
 10
21.03452994608018
 20
41.999999998750489
 30
0.0
 42
0.2679491924396797
  0
VERTEX
  5
1B56
  8
SAPA_PROFIL
 10
21.20773502683933
 20
42.099999998755493
 30
0.0
  0
VERTEX
  5
1B57
  8
SAPA_PROFIL
 10
22.223205080431981
 20
43.858845725149983
 30
0.0
 42
0.1316524975842002
  0
VERTEX
  5
1B58
  8
SAPA_PROFIL
 10
22.24999999967455
 20
43.958845725150347
 30
0.0
  0
VERTEX
  5
1B59
  8
SAPA_PROFIL
 10
22.249999999670429
 20
46.80000000001035
 30
0.0
 42
-0.4142135623731472
  0
VERTEX
  5
1B5A
  8
SAPA_PROFIL
 10
22.44999999967116
 20
47.000000000011099
 30
0.0
  0
VERTEX
  5
1B5B
  8
SAPA_PROFIL
 10
28.756130958879691
 20
47.000000000011021
 30
0.0
 42
0.2418327667441306
  0
VERTEX
  5
1B5C
  8
SAPA_PROFIL
 10
28.999999999831179
 20
47.125277674977262
 30
0.0
 42
-0.2418327667529517
  0
VERTEX
  5
1B5D
  8
SAPA_PROFIL
 10
29.24386904079223
 20
47.250555349950581
 30
0.0
  0
VERTEX
  5
1B5E
  8
SAPA_PROFIL
 10
30.199999999831231
 20
47.250555349950552
 30
0.0
 42
-0.2418327667504456
  0
VERTEX
  5
1B5F
  8
SAPA_PROFIL
 10
30.443869040793949
 20
47.125277674979607
 30
0.0
 42
0.2418327667464157
  0
VERTEX
  5
1B60
  8
SAPA_PROFIL
 10
30.687738081747529
 20
47.000000000011021
 30
0.0
  0
VERTEX
  5
1B61
  8
SAPA_PROFIL
 10
32.785810437467788
 20
47.000000000011021
 30
0.0
 42
0.6681786379192718
  0
VERTEX
  5
1B62
  8
SAPA_PROFIL
 10
33.492917218654377
 20
48.70710678119751
 30
0.0
  0
VERTEX
  5
1B63
  8
SAPA_PROFIL
 10
32.18786796548541
 20
50.012156034366683
 30
0.0
 42
0.1989123673797335
  0
VERTEX
  5
1B64
  8
SAPA_PROFIL
 10
31.975735931129339
 20
50.100024000010812
 30
0.0
  0
VERTEX
  5
1B65
  8
SAPA_PROFIL
 10
31.389230484382139
 20
50.10002400001067
 30
0.0
 42
0.1316524975873855
  0
VERTEX
  5
1B66
  8
SAPA_PROFIL
 10
31.239230484382219
 20
50.059831621146017
 30
0.0
  0
VERTEX
  5
1B67
  8
SAPA_PROFIL
 10
29.749999999841339
 20
49.200024000010707
 30
0.0
  0
VERTEX
  5
1B68
  8
SAPA_PROFIL
 10
29.2999999998414
 20
49.200012000011043
 30
0.0
 42
-0.4142135623731054
  0
VERTEX
  5
1B69
  8
SAPA_PROFIL
 10
28.999999999841389
 20
49.500012000011047
 30
0.0
  0
VERTEX
  5
1B6A
  8
SAPA_PROFIL
 10
28.999999999841439
 20
53.100024000011118
 30
0.0
 42
-0.4142135623730951
  0
VERTEX
  5
1B6B
  8
SAPA_PROFIL
 10
29.29999999984144
 20
53.400024000011108
 30
0.0
  0
VERTEX
  5
1B6C
  8
SAPA_PROFIL
 10
29.749999999841439
 20
53.400024000011001
 30
0.0
  0
VERTEX
  5
1B6D
  8
SAPA_PROFIL
 10
31.239260130915611
 20
52.54019926244203
 30
0.0
 42
0.1316363093594254
  0
VERTEX
  5
1B6E
  8
SAPA_PROFIL
 10
31.38924103596235
 20
52.500006884185062
 30
0.0
  0
VERTEX
  5
1B6F
  8
SAPA_PROFIL
 10
31.49899999984347
 20
52.499999898044088
 30
0.0
  0
VERTEX
  5
1B70
  8
SAPA_PROFIL
 10
31.499999999841449
 20
52.50099983439425
 30
0.0
  0
VERTEX
  5
1B71
  8
SAPA_PROFIL
 10
31.49999999984141
 20
54.500000000000128
 30
0.0
 42
0.4142135623731035
  0
VERTEX
  5
1B72
  8
SAPA_PROFIL
 10
30.999999999841421
 20
55.000000000000099
 30
0.0
  0
VERTEX
  5
1B73
  8
SAPA_PROFIL
 10
23.849999999570748
 20
55.000000000000128
 30
0.0
 42
0.4142135623731022
  0
VERTEX
  5
1B74
  8
SAPA_PROFIL
 10
23.549999999571479
 20
54.700000000000848
 30
0.0
  0
VERTEX
  5
1B75
  8
SAPA_PROFIL
 10
23.549999999571511
 20
54.049999999999429
 30
0.0
 42
-0.4142135623730534
  0
VERTEX
  5
1B76
  8
SAPA_PROFIL
 10
23.249999999572211
 20
53.750000000000099
 30
0.0
  0
VERTEX
  5
1B77
  8
SAPA_PROFIL
 10
22.549999999680612
 20
53.750000000000149
 30
0.0
 42
-0.4142135623730884
  0
VERTEX
  5
1B78
  8
SAPA_PROFIL
 10
22.249999999681371
 20
54.049999999999429
 30
0.0
  0
VERTEX
  5
1B79
  8
SAPA_PROFIL
 10
22.249999999661359
 20
65.950000000009979
 30
0.0
 42
-0.4142135623730466
  0
VERTEX
  5
1B7A
  8
SAPA_PROFIL
 10
22.549999999662461
 20
66.25000000001107
 30
0.0
  0
VERTEX
  5
1B7B
  8
SAPA_PROFIL
 10
23.25000000013976
 20
66.250000000020165
 30
0.0
 42
-0.4142135623731437
  0
VERTEX
  5
1B7C
  8
SAPA_PROFIL
 10
23.550000000149911
 20
65.950000000009979
 30
0.0
  0
VERTEX
  5
1B7D
  8
SAPA_PROFIL
 10
23.550000000142639
 20
65.2999999999994
 30
0.0
 42
0.4142135623535671
  0
VERTEX
  5
1B7E
  8
SAPA_PROFIL
 10
23.850000000141911
 20
65.000000000011042
 30
0.0
  0
VERTEX
  5
1B7F
  8
SAPA_PROFIL
 10
25.800000000149922
 20
65.000000000011042
 30
0.0
 42
0.4142135623731159
  0
VERTEX
  5
1B80
  8
SAPA_PROFIL
 10
26.00000000014882
 20
65.200000000009965
 30
0.0
  0
VERTEX
  5
1B81
  8
SAPA_PROFIL
 10
26.000000000139728
 20
66.300000000010314
 30
0.0
 42
0.4142135623730326
  0
VERTEX
  5
1B82
  8
SAPA_PROFIL
 10
25.800000000149922
 20
66.500000000000099
 30
0.0
  0
VERTEX
  5
1B83
  8
SAPA_PROFIL
 10
25.00000000013976
 20
66.500000000011042
 30
0.0
 42
-0.4142135623730991
  0
VERTEX
  5
1B84
  8
SAPA_PROFIL
 10
24.500000000139728
 20
67.000000000011042
 30
0.0
  0
VERTEX
  5
1B85
  8
SAPA_PROFIL
 10
24.499999999659551
 20
68.000000000020165
 30
0.0
 42
-0.4142135623730992
  0
SEQEND
  5
1B86
  8
SAPA_PROFIL
  0
POLYLINE
  5
10A1
  8
SAPA_PROFIL
 66
     1
 10
0.0
 20
0.0
 30
0.0
 70
     1
  0
VERTEX
  5
1B87
  8
SAPA_PROFIL
 10
63.000000000023228
 20
68.500000000020165
 30
0.0
  0
VERTEX
  5
1B88
  8
SAPA_PROFIL
 10
62.20000000001307
 20
68.500000000011042
 30
0.0
 42
-0.4142135623731159
  0
VERTEX
  5
1B89
  8
SAPA_PROFIL
 10
62.000000000014133
 20
68.70000000000995
 30
0.0
  0
VERTEX
  5
1B8A
  8
SAPA_PROFIL
 10
62.000000000023263
 20
69.800000000010343
 30
0.0
 42
-0.4142135623730744
  0
VERTEX
  5
1B8B
  8
SAPA_PROFIL
 10
62.20000000001307
 20
70.000000000000171
 30
0.0
  0
VERTEX
  5
1B8C
  8
SAPA_PROFIL
 10
65.749999999510294
 20
70.000000000011042
 30
0.0
 42
-0.3389652260119365
  0
VERTEX
  5
1B8D
  8
SAPA_PROFIL
 10
66.715470299054601
 20
69.260513148811256
 30
0.0
 42
-0.0274862826956062
  0
VERTEX
  5
1B8E
  8
SAPA_PROFIL
 10
67.499999999502137
 20
55.000000000019412
 30
0.0
  0
VERTEX
  5
1B8F
  8
SAPA_PROFIL
 10
67.499999999863178
 20
42.199999998760319
 30
0.0
 42
-0.4142135623889429
  0
VERTEX
  5
1B90
  8
SAPA_PROFIL
 10
67.29999999986245
 20
41.999999998748699
 30
0.0
  0
VERTEX
  5
1B91
  8
SAPA_PROFIL
 10
66.965470053602587
 20
41.999999998750489
 30
0.0
 42
-0.2679491924396797
  0
VERTEX
  5
1B92
  8
SAPA_PROFIL
 10
66.792264972843441
 20
42.099999998755493
 30
0.0
  0
VERTEX
  5
1B93
  8
SAPA_PROFIL
 10
65.77679491925079
 20
43.858845725149983
 30
0.0
 42
-0.1316524975842002
  0
VERTEX
  5
1B94
  8
SAPA_PROFIL
 10
65.750000000008214
 20
43.958845725150347
 30
0.0
  0
VERTEX
  5
1B95
  8
SAPA_PROFIL
 10
65.750000000012335
 20
46.80000000001035
 30
0.0
 42
0.4142135623731472
  0
VERTEX
  5
1B96
  8
SAPA_PROFIL
 10
65.550000000011607
 20
47.000000000011099
 30
0.0
  0
VERTEX
  5
1B97
  8
SAPA_PROFIL
 10
59.243869040803077
 20
47.000000000011021
 30
0.0
 42
-0.2418327667441306
  0
VERTEX
  5
1B98
  8
SAPA_PROFIL
 10
58.999999999851582
 20
47.125277674977262
 30
0.0
 42
0.2418327667529517
  0
VERTEX
  5
1B99
  8
SAPA_PROFIL
 10
58.756130958890537
 20
47.250555349950581
 30
0.0
  0
VERTEX
  5
1B9A
  8
SAPA_PROFIL
 10
57.799999999851543
 20
47.250555349950552
 30
0.0
 42
0.2418327667504456
  0
VERTEX
  5
1B9B
  8
SAPA_PROFIL
 10
57.556130958888829
 20
47.125277674979607
 30
0.0
 42
-0.2418327667464157
  0
VERTEX
  5
1B9C
  8
SAPA_PROFIL
 10
57.312261917935253
 20
47.000000000011021
 30
0.0
  0
VERTEX
  5
1B9D
  8
SAPA_PROFIL
 10
55.21418956221499
 20
47.000000000011021
 30
0.0
 42
-0.6681786379192718
  0
VERTEX
  5
1B9E
  8
SAPA_PROFIL
 10
54.507082781028387
 20
48.70710678119751
 30
0.0
  0
VERTEX
  5
1B9F
  8
SAPA_PROFIL
 10
55.812132034197369
 20
50.012156034366683
 30
0.0
 42
-0.1989123673797335
  0
VERTEX
  5
1BA0
  8
SAPA_PROFIL
 10
56.024264068553443
 20
50.100024000010812
 30
0.0
  0
VERTEX
  5
1BA1
  8
SAPA_PROFIL
 10
56.610769515300639
 20
50.10002400001067
 30
0.0
 42
-0.1316524975873855
  0
VERTEX
  5
1BA2
  8
SAPA_PROFIL
 10
56.760769515300559
 20
50.059831621146017
 30
0.0
  0
VERTEX
  5
1BA3
  8
SAPA_PROFIL
 10
58.249999999841442
 20
49.200024000010707
 30
0.0
  0
VERTEX
  5
1BA4
  8
SAPA_PROFIL
 10
58.699999999841388
 20
49.200012000011043
 30
0.0
 42
0.4142135623731054
  0
VERTEX
  5
1BA5
  8
SAPA_PROFIL
 10
58.999999999841393
 20
49.500012000011047
 30
0.0
  0
VERTEX
  5
1BA6
  8
SAPA_PROFIL
 10
58.999999999841343
 20
53.100024000011118
 30
0.0
 42
0.4142135623730951
  0
VERTEX
  5
1BA7
  8
SAPA_PROFIL
 10
58.699999999841339
 20
53.400024000011108
 30
0.0
  0
VERTEX
  5
1BA8
  8
SAPA_PROFIL
 10
58.249999999841343
 20
53.400024000011001
 30
0.0
  0
VERTEX
  5
1BA9
  8
SAPA_PROFIL
 10
56.76073986876716
 20
52.54019926244203
 30
0.0
 42
-0.1316363093594254
  0
VERTEX
  5
1BAA
  8
SAPA_PROFIL
 10
56.610758963720421
 20
52.500006884185062
 30
0.0
  0
VERTEX
  5
1BAB
  8
SAPA_PROFIL
 10
56.500999999839301
 20
52.499999898044088
 30
0.0
  0
VERTEX
  5
1BAC
  8
SAPA_PROFIL
 10
56.499999999841329
 20
52.50099983439425
 30
0.0
  0
VERTEX
  5
1BAD
  8
SAPA_PROFIL
 10
56.49999999984135
 20
54.500000000000128
 30
0.0
 42
-0.4142135623731035
  0
VERTEX
  5
1BAE
  8
SAPA_PROFIL
 10
56.999999999841357
 20
55.000000000000099
 30
0.0
  0
VERTEX
  5
1BAF
  8
SAPA_PROFIL
 10
64.150000000112016
 20
55.000000000000128
 30
0.0
 42
-0.4142135623731022
  0
VERTEX
  5
1BB0
  8
SAPA_PROFIL
 10
64.450000000111288
 20
54.700000000000848
 30
0.0
  0
VERTEX
  5
1BB1
  8
SAPA_PROFIL
 10
64.45000000011126
 20
54.049999999999429
 30
0.0
 42
0.4142135623730534
  0
VERTEX
  5
1BB2
  8
SAPA_PROFIL
 10
64.75000000011056
 20
53.750000000000099
 30
0.0
  0
VERTEX
  5
1BB3
  8
SAPA_PROFIL
 10
65.450000000002134
 20
53.750000000000149
 30
0.0
 42
0.4142135623730884
  0
VERTEX
  5
1BB4
  8
SAPA_PROFIL
 10
65.750000000001393
 20
54.049999999999429
 30
0.0
  0
VERTEX
  5
1BB5
  8
SAPA_PROFIL
 10
65.750000000021402
 20
65.950000000009979
 30
0.0
 42
0.4142135623730466
  0
VERTEX
  5
1BB6
  8
SAPA_PROFIL
 10
65.45000000002031
 20
66.25000000001107
 30
0.0
  0
VERTEX
  5
1BB7
  8
SAPA_PROFIL
 10
64.749999999543007
 20
66.250000000020165
 30
0.0
 42
0.4142135623731437
  0
VERTEX
  5
1BB8
  8
SAPA_PROFIL
 10
64.449999999532849
 20
65.950000000009979
 30
0.0
  0
VERTEX
  5
1BB9
  8
SAPA_PROFIL
 10
64.449999999540125
 20
65.2999999999994
 30
0.0
 42
-0.4142135623535671
  0
VERTEX
  5
1BBA
  8
SAPA_PROFIL
 10
64.149999999540853
 20
65.000000000011042
 30
0.0
  0
VERTEX
  5
1BBB
  8
SAPA_PROFIL
 10
62.199999999532857
 20
65.000000000011042
 30
0.0
 42
-0.4142135623731159
  0
VERTEX
  5
1BBC
  8
SAPA_PROFIL
 10
61.999999999533941
 20
65.200000000009965
 30
0.0
  0
VERTEX
  5
1BBD
  8
SAPA_PROFIL
 10
61.999999999543043
 20
66.300000000010314
 30
0.0
 42
-0.4142135623730326
  0
VERTEX
  5
1BBE
  8
SAPA_PROFIL
 10
62.199999999532857
 20
66.500000000000099
 30
0.0
  0
VERTEX
  5
1BBF
  8
SAPA_PROFIL
 10
62.999999999543022
 20
66.500000000011042
 30
0.0
 42
0.4142135623730991
  0
VERTEX
  5
1BC0
  8
SAPA_PROFIL
 10
63.499999999543043
 20
67.000000000011042
 30
0.0
  0
VERTEX
  5
1BC1
  8
SAPA_PROFIL
 10
63.500000000023228
 20
68.000000000020165
 30
0.0
 42
0.4142135623730992
  0
SEQEND
  5
1BC2
  8
SAPA_PROFIL
  0
POLYLINE
  5
10A2
  8
SAPA_PROFIL
 66
     1
 10
0.0
 20
0.0
 30
0.0
 70
     1
  0
VERTEX
  5
1BC3
  8
SAPA_PROFIL
 10
24.999999999659551
 20
68.500000000020165
 30
0.0
  0
VERTEX
  5
1BC4
  8
SAPA_PROFIL
 10
25.799999999669701
 20
68.500000000011042
 30
0.0
 42
0.4142135623731159
  0
VERTEX
  5
1BC5
  8
SAPA_PROFIL
 10
25.999999999668638
 20
68.70000000000995
 30
0.0
  0
VERTEX
  5
1BC6
  8
SAPA_PROFIL
 10
25.999999999659519
 20
69.800000000010343
 30
0.0
 42
0.4142135623730744
  0
VERTEX
  5
1BC7
  8
SAPA_PROFIL
 10
25.799999999669701
 20
70.000000000000171
 30
0.0
  0
VERTEX
  5
1BC8
  8
SAPA_PROFIL
 10
22.250000000172481
 20
70.000000000011042
 30
0.0
 42
0.3389652260119365
  0
VERTEX
  5
1BC9
  8
SAPA_PROFIL
 10
21.28452970062817
 20
69.260513148811256
 30
0.0
 42
0.0274862826956062
  0
VERTEX
  5
1BCA
  8
SAPA_PROFIL
 10
20.500000000180631
 20
55.000000000019412
 30
0.0
  0
VERTEX
  5
1BCB
  8
SAPA_PROFIL
 10
20.49999999981959
 20
42.199999998760319
 30
0.0
 42
0.4142135623889429
  0
VERTEX
  5
1BCC
  8
SAPA_PROFIL
 10
20.69999999982031
 20
41.999999998748699
 30
0.0
  0
VERTEX
  5
1BCD
  8
SAPA_PROFIL
 10
21.03452994608018
 20
41.999999998750489
 30
0.0
 42
0.2679491924396797
  0
VERTEX
  5
1BCE
  8
SAPA_PROFIL
 10
21.20773502683933
 20
42.099999998755493
 30
0.0
  0
VERTEX
  5
1BCF
  8
SAPA_PROFIL
 10
22.223205080431981
 20
43.858845725149983
 30
0.0
 42
0.1316524975842002
  0
VERTEX
  5
1BD0
  8
SAPA_PROFIL
 10
22.24999999967455
 20
43.958845725150347
 30
0.0
  0
VERTEX
  5
1BD1
  8
SAPA_PROFIL
 10
22.249999999670429
 20
46.80000000001035
 30
0.0
 42
-0.4142135623731472
  0
VERTEX
  5
1BD2
  8
SAPA_PROFIL
 10
22.44999999967116
 20
47.000000000011099
 30
0.0
  0
VERTEX
  5
1BD3
  8
SAPA_PROFIL
 10
28.756130958879691
 20
47.000000000011021
 30
0.0
 42
0.2418327667441306
  0
VERTEX
  5
1BD4
  8
SAPA_PROFIL
 10
28.999999999831179
 20
47.125277674977262
 30
0.0
 42
-0.2418327667529517
  0
VERTEX
  5
1BD5
  8
SAPA_PROFIL
 10
29.24386904079223
 20
47.250555349950581
 30
0.0
  0
VERTEX
  5
1BD6
  8
SAPA_PROFIL
 10
30.199999999831231
 20
47.250555349950552
 30
0.0
 42
-0.2418327667504456
  0
VERTEX
  5
1BD7
  8
SAPA_PROFIL
 10
30.443869040793949
 20
47.125277674979607
 30
0.0
 42
0.2418327667464157
  0
VERTEX
  5
1BD8
  8
SAPA_PROFIL
 10
30.687738081747529
 20
47.000000000011021
 30
0.0
  0
VERTEX
  5
1BD9
  8
SAPA_PROFIL
 10
32.785810437467788
 20
47.000000000011021
 30
0.0
 42
0.6681786379192718
  0
VERTEX
  5
1BDA
  8
SAPA_PROFIL
 10
33.492917218654377
 20
48.70710678119751
 30
0.0
  0
VERTEX
  5
1BDB
  8
SAPA_PROFIL
 10
32.18786796548541
 20
50.012156034366683
 30
0.0
 42
0.1989123673797335
  0
VERTEX
  5
1BDC
  8
SAPA_PROFIL
 10
31.975735931129339
 20
50.100024000010812
 30
0.0
  0
VERTEX
  5
1BDD
  8
SAPA_PROFIL
 10
31.389230484382139
 20
50.10002400001067
 30
0.0
 42
0.1316524975873855
  0
VERTEX
  5
1BDE
  8
SAPA_PROFIL
 10
31.239230484382219
 20
50.059831621146017
 30
0.0
  0
VERTEX
  5
1BDF
  8
SAPA_PROFIL
 10
29.749999999841339
 20
49.200024000010707
 30
0.0
  0
VERTEX
  5
1BE0
  8
SAPA_PROFIL
 10
29.2999999998414
 20
49.200012000011043
 30
0.0
 42
-0.4142135623731054
  0
VERTEX
  5
1BE1
  8
SAPA_PROFIL
 10
28.999999999841389
 20
49.500012000011047
 30
0.0
  0
VERTEX
  5
1BE2
  8
SAPA_PROFIL
 10
28.999999999841439
 20
53.100024000011118
 30
0.0
 42
-0.4142135623730951
  0
VERTEX
  5
1BE3
  8
SAPA_PROFIL
 10
29.29999999984144
 20
53.400024000011108
 30
0.0
  0
VERTEX
  5
1BE4
  8
SAPA_PROFIL
 10
29.749999999841439
 20
53.400024000011001
 30
0.0
  0
VERTEX
  5
1BE5
  8
SAPA_PROFIL
 10
31.239260130915611
 20
52.54019926244203
 30
0.0
 42
0.1316363093594254
  0
VERTEX
  5
1BE6
  8
SAPA_PROFIL
 10
31.38924103596235
 20
52.500006884185062
 30
0.0
  0
VERTEX
  5
1BE7
  8
SAPA_PROFIL
 10
31.49899999984347
 20
52.499999898044088
 30
0.0
  0
VERTEX
  5
1BE8
  8
SAPA_PROFIL
 10
31.499999999841449
 20
52.50099983439425
 30
0.0
  0
VERTEX
  5
1BE9
  8
SAPA_PROFIL
 10
31.49999999984141
 20
54.500000000000128
 30
0.0
 42
0.4142135623731035
  0
VERTEX
  5
1BEA
  8
SAPA_PROFIL
 10
30.999999999841421
 20
55.000000000000099
 30
0.0
  0
VERTEX
  5
1BEB
  8
SAPA_PROFIL
 10
23.849999999570748
 20
55.000000000000128
 30
0.0
 42
0.4142135623731022
  0
VERTEX
  5
1BEC
  8
SAPA_PROFIL
 10
23.549999999571479
 20
54.700000000000848
 30
0.0
  0
VERTEX
  5
1BED
  8
SAPA_PROFIL
 10
23.549999999571511
 20
54.049999999999429
 30
0.0
 42
-0.4142135623730534
  0
VERTEX
  5
1BEE
  8
SAPA_PROFIL
 10
23.249999999572211
 20
53.750000000000099
 30
0.0
  0
VERTEX
  5
1BEF
  8
SAPA_PROFIL
 10
22.549999999680612
 20
53.750000000000149
 30
0.0
 42
-0.4142135623730884
  0
VERTEX
  5
1BF0
  8
SAPA_PROFIL
 10
22.249999999681371
 20
54.049999999999429
 30
0.0
  0
VERTEX
  5
1BF1
  8
SAPA_PROFIL
 10
22.249999999661359
 20
65.950000000009979
 30
0.0
 42
-0.4142135623730466
  0
VERTEX
  5
1BF2
  8
SAPA_PROFIL
 10
22.549999999662461
 20
66.25000000001107
 30
0.0
  0
VERTEX
  5
1BF3
  8
SAPA_PROFIL
 10
23.25000000013976
 20
66.250000000020165
 30
0.0
 42
-0.4142135623731437
  0
VERTEX
  5
1BF4
  8
SAPA_PROFIL
 10
23.550000000149911
 20
65.950000000009979
 30
0.0
  0
VERTEX
  5
1BF5
  8
SAPA_PROFIL
 10
23.550000000142639
 20
65.2999999999994
 30
0.0
 42
0.4142135623535671
  0
VERTEX
  5
1BF6
  8
SAPA_PROFIL
 10
23.850000000141911
 20
65.000000000011042
 30
0.0
  0
VERTEX
  5
1BF7
  8
SAPA_PROFIL
 10
25.800000000149922
 20
65.000000000011042
 30
0.0
 42
0.4142135623731159
  0
VERTEX
  5
1BF8
  8
SAPA_PROFIL
 10
26.00000000014882
 20
65.200000000009965
 30
0.0
  0
VERTEX
  5
1BF9
  8
SAPA_PROFIL
 10
26.000000000139728
 20
66.300000000010314
 30
0.0
 42
0.4142135623730326
  0
VERTEX
  5
1BFA
  8
SAPA_PROFIL
 10
25.800000000149922
 20
66.500000000000099
 30
0.0
  0
VERTEX
  5
1BFB
  8
SAPA_PROFIL
 10
25.00000000013976
 20
66.500000000011042
 30
0.0
 42
-0.4142135623730991
  0
VERTEX
  5
1BFC
  8
SAPA_PROFIL
 10
24.500000000139728
 20
67.000000000011042
 30
0.0
  0
VERTEX
  5
1BFD
  8
SAPA_PROFIL
 10
24.499999999659551
 20
68.000000000020165
 30
0.0
 42
-0.4142135623730992
  0
SEQEND
  5
1BFE
  8
SAPA_PROFIL
  0
POLYLINE
  5
10A3
  8
SAPA_PROFIL
 62
     4
 66
     1
 10
0.0
 20
0.0
 30
0.0
 70
     1
  0
VERTEX
  5
10A4
  8
SAPA_PROFIL
 62
     4
 10
31.856217782493879
 20
50.350012000013074
 30
0.0
 42
0.1316524975873979
  0
VERTEX
  5
10A5
  8
SAPA_PROFIL
 62
     4
 10
31.456217782493869
 20
50.242832323040631
 30
0.0
  0
VERTEX
  5
10A6
  8
SAPA_PROFIL
 62
     4
 10
29.736602540219831
 20
49.25001200001121
 30
0.0
  0
VERTEX
  5
10A7
  8
SAPA_PROFIL
 62
     4
 10
29.299999999841368
 20
49.250012000011111
 30
0.0
 42
-0.4142135623730951
  0
VERTEX
  5
10A8
  8
SAPA_PROFIL
 62
     4
 10
29.04999999984139
 20
49.500012000011111
 30
0.0
  0
VERTEX
  5
10A9
  8
SAPA_PROFIL
 62
     4
 10
29.04999999984134
 20
53.100024000011167
 30
0.0
 42
-0.4142135623731053
  0
VERTEX
  5
10AA
  8
SAPA_PROFIL
 62
     4
 10
29.29999999984134
 20
53.350024000011167
 30
0.0
  0
VERTEX
  5
10AB
  8
SAPA_PROFIL
 62
     4
 10
29.736601921419801
 20
53.350012357275808
 30
0.0
  0
VERTEX
  5
10AC
  8
SAPA_PROFIL
 62
     4
 10
31.45621778248719
 20
52.357191676985543
 30
0.0
 42
0.1316524975874149
  0
VERTEX
  5
10AD
  8
SAPA_PROFIL
 62
     4
 10
31.856217782487239
 20
52.250012000013051
 30
0.0
  0
VERTEX
  5
10AE
  8
SAPA_PROFIL
 62
     4
 10
56.14378221719555
 20
52.250012000013051
 30
0.0
 42
0.1316524975874151
  0
VERTEX
  5
10AF
  8
SAPA_PROFIL
 62
     4
 10
56.543782217195591
 20
52.357191676985543
 30
0.0
  0
VERTEX
  5
10B0
  8
SAPA_PROFIL
 62
     4
 10
58.263398078262973
 20
53.350012357275808
 30
0.0
  0
VERTEX
  5
10B1
  8
SAPA_PROFIL
 62
     4
 10
58.699999999841452
 20
53.350024000011167
 30
0.0
 42
-0.4142135623731054
  0
VERTEX
  5
10B2
  8
SAPA_PROFIL
 62
     4
 10
58.949999999841438
 20
53.100024000011167
 30
0.0
  0
VERTEX
  5
10B3
  8
SAPA_PROFIL
 62
     4
 10
58.949999999841388
 20
49.500012000011111
 30
0.0
 42
-0.4142135623730953
  0
VERTEX
  5
10B4
  8
SAPA_PROFIL
 62
     4
 10
58.699999999841403
 20
49.250012000011111
 30
0.0
  0
VERTEX
  5
10B5
  8
SAPA_PROFIL
 62
     4
 10
58.263397459462936
 20
49.25001200001121
 30
0.0
  0
VERTEX
  5
10B6
  8
SAPA_PROFIL
 62
     4
 10
56.543782217188912
 20
50.242832323040631
 30
0.0
 42
0.1316524975873982
  0
VERTEX
  5
10B7
  8
SAPA_PROFIL
 62
     4
 10
56.143782217188893
 20
50.350012000013074
 30
0.0
  0
SEQEND
  5
10B8
  8
SAPA_PROFIL
 62
     4
  0
POLYLINE
  5
10B9
  8
SAPA_PROFIL
 66
     1
 10
0.0
 20
0.0
 30
0.0
 70
     1
  0
VERTEX
  5
1BFF
  8
SAPA_PROFIL
 10
135.64523645122861
 20
19.46152494752096
 30
0.0
 42
0.2914734195858593
  0
VERTEX
  5
1C00
  8
SAPA_PROFIL
 10
136.79999992774421
 20
21.274140521607482
 30
0.0
  0
VERTEX
  5
1C01
  8
SAPA_PROFIL
 10
136.79999992774421
 20
40.999999999985441
 30
0.0
 42
0.4142135623731033
  0
VERTEX
  5
1C02
  8
SAPA_PROFIL
 10
136.29999992774421
 20
41.499999999985441
 30
0.0
  0
VERTEX
  5
1C03
  8
SAPA_PROFIL
 10
135.999999927734
 20
41.499999999985441
 30
0.0
 42
0.4142135623731035
  0
VERTEX
  5
1C04
  8
SAPA_PROFIL
 10
135.499999927734
 20
40.999999999985441
 30
0.0
  0
VERTEX
  5
1C05
  8
SAPA_PROFIL
 10
135.499999927734
 20
39.699999999986183
 30
0.0
 42
-0.4142135623731159
  0
VERTEX
  5
1C06
  8
SAPA_PROFIL
 10
135.29999992771511
 20
39.499999999974541
 30
0.0
  0
VERTEX
  5
1C07
  8
SAPA_PROFIL
 10
134.999999927734
 20
39.499999999985448
 30
0.0
 42
-0.4142135623731035
  0
VERTEX
  5
1C08
  8
SAPA_PROFIL
 10
134.499999927734
 20
39.999999999985448
 30
0.0
  0
VERTEX
  5
1C09
  8
SAPA_PROFIL
 10
134.4999999277413
 20
43.749999999985448
 30
0.0
 42
-0.4142135623731035
  0
VERTEX
  5
1C0A
  8
SAPA_PROFIL
 10
134.9999999277413
 20
44.249999999985441
 30
0.0
  0
VERTEX
  5
1C0B
  8
SAPA_PROFIL
 10
135.29999992774421
 20
44.249999999985441
 30
0.0
 42
-0.4142135623731159
  0
VERTEX
  5
1C0C
  8
SAPA_PROFIL
 10
135.49999992775221
 20
44.049999999973807
 30
0.0
  0
VERTEX
  5
1C0D
  8
SAPA_PROFIL
 10
135.4999999277413
 20
43.199999999986169
 30
0.0
 42
0.4142135623730951
  0
VERTEX
  5
1C0E
  8
SAPA_PROFIL
 10
135.69999992773111
 20
42.999999999985441
 30
0.0
  0
VERTEX
  5
1C0F
  8
SAPA_PROFIL
 10
136.69999992773111
 20
42.999999999985441
 30
0.0
 42
0.4142135623731035
  0
VERTEX
  5
1C10
  8
SAPA_PROFIL
 10
137.19999992773111
 20
43.499999999985441
 30
0.0
  0
VERTEX
  5
1C11
  8
SAPA_PROFIL
 10
137.19999992773111
 20
49.499999999985448
 30
0.0
 42
0.4142135623731033
  0
VERTEX
  5
1C12
  8
SAPA_PROFIL
 10
136.69999992773111
 20
49.999999999985448
 30
0.0
  0
VERTEX
  5
1C13
  8
SAPA_PROFIL
 10
135.69999992773111
 20
49.999999999985448
 30
0.0
 42
0.4142135623731054
  0
VERTEX
  5
1C14
  8
SAPA_PROFIL
 10
135.4999999277413
 20
49.799999999973807
 30
0.0
  0
VERTEX
  5
1C15
  8
SAPA_PROFIL
 10
135.499999927734
 20
48.949999999986169
 30
0.0
 42
-0.4142135623731159
  0
VERTEX
  5
1C16
  8
SAPA_PROFIL
 10
135.29999992771511
 20
48.749999999974527
 30
0.0
  0
VERTEX
  5
1C17
  8
SAPA_PROFIL
 10
134.9999999277413
 20
48.75
 30
0.0
 42
-0.4142135623731035
  0
VERTEX
  5
1C18
  8
SAPA_PROFIL
 10
134.4999999277413
 20
49.25
 30
0.0
  0
VERTEX
  5
1C19
  8
SAPA_PROFIL
 10
134.4999999277413
 20
52.25
 30
0.0
 42
-0.4142135623731035
  0
VERTEX
  5
1C1A
  8
SAPA_PROFIL
 10
134.9999999277413
 20
52.75
 30
0.0
  0
VERTEX
  5
1C1B
  8
SAPA_PROFIL
 10
135.29999992774421
 20
52.75
 30
0.0
 42
-0.4142135623730744
  0
VERTEX
  5
1C1C
  8
SAPA_PROFIL
 10
135.4999999277413
 20
52.549999999999272
 30
0.0
  0
VERTEX
  5
1C1D
  8
SAPA_PROFIL
 10
135.49999992773041
 20
51.70000000000072
 30
0.0
 42
0.4142135623730534
  0
VERTEX
  5
1C1E
  8
SAPA_PROFIL
 10
135.69999992773111
 20
51.5
 30
0.0
  0
VERTEX
  5
1C1F
  8
SAPA_PROFIL
 10
136.69999992773111
 20
51.5
 30
0.0
 42
0.4142135623731035
  0
VERTEX
  5
1C20
  8
SAPA_PROFIL
 10
137.19999992773111
 20
52.0
 30
0.0
  0
VERTEX
  5
1C21
  8
SAPA_PROFIL
 10
137.19999992773111
 20
58.0
 30
0.0
 42
0.4142135623730869
  0
VERTEX
  5
1C22
  8
SAPA_PROFIL
 10
136.69999992773111
 20
58.5
 30
0.0
  0
VERTEX
  5
1C23
  8
SAPA_PROFIL
 10
135.69999992773111
 20
58.499999999989079
 30
0.0
 42
0.4142135623730534
  0
VERTEX
  5
1C24
  8
SAPA_PROFIL
 10
135.4999999277413
 20
58.299999999999272
 30
0.0
  0
VERTEX
  5
1C25
  8
SAPA_PROFIL
 10
135.4999999277486
 20
57.45000000000072
 30
0.0
 42
-0.4142135623730744
  0
VERTEX
  5
1C26
  8
SAPA_PROFIL
 10
135.29999992774421
 20
57.25
 30
0.0
  0
VERTEX
  5
1C27
  8
SAPA_PROFIL
 10
134.9999999277413
 20
57.25
 30
0.0
 42
-0.4142135623731035
  0
VERTEX
  5
1C28
  8
SAPA_PROFIL
 10
134.4999999277413
 20
57.75
 30
0.0
  0
VERTEX
  5
1C29
  8
SAPA_PROFIL
 10
134.4999999277413
 20
59.5
 30
0.0
 42
-0.4142135623731035
  0
VERTEX
  5
1C2A
  8
SAPA_PROFIL
 10
134.9999999277413
 20
60.0
 30
0.0
  0
VERTEX
  5
1C2B
  8
SAPA_PROFIL
 10
137.4999999277413
 20
60.0
 30
0.0
 42
-0.4142135623730951
  0
VERTEX
  5
1C2C
  8
SAPA_PROFIL
 10
138.9999999277413
 20
58.5
 30
0.0
  0
VERTEX
  5
1C2D
  8
SAPA_PROFIL
 10
138.9999999277413
 20
-55.625
 30
0.0
 42
-0.9999999999999792
  0
VERTEX
  5
1C2E
  8
SAPA_PROFIL
 10
136.2499999277413
 20
-55.625
 30
0.0
  0
VERTEX
  5
1C2F
  8
SAPA_PROFIL
 10
136.2499999277413
 20
-3.9999999999999849
 30
0.0
 42
0.4142135623730959
  0
VERTEX
  5
1C30
  8
SAPA_PROFIL
 10
132.2499999277413
 20
0.0000000000000142
 30
0.0
  0
VERTEX
  5
1C31
  8
SAPA_PROFIL
 10
90.743868969062234
 20
-0.0000000000109139
 30
0.0
 42
-0.2418327667378102
  0
VERTEX
  5
1C32
  8
SAPA_PROFIL
 10
90.499999928123856
 20
0.1252776749561804
 30
0.0
 42
0.2418327667509117
  0
VERTEX
  5
1C33
  8
SAPA_PROFIL
 10
90.256130887167899
 20
0.2505553499286179
 30
0.0
  0
VERTEX
  5
1C34
  8
SAPA_PROFIL
 10
89.299999928117984
 20
0.2505553499322559
 30
0.0
 42
0.2418327667448982
  0
VERTEX
  5
1C35
  8
SAPA_PROFIL
 10
89.056130887163064
 20
0.12527767496384
 30
0.0
 42
-0.2418327667448982
  0
VERTEX
  5
1C36
  8
SAPA_PROFIL
 10
88.812261846210475
 20
-0.0000000000033538
 30
0.0
  0
VERTEX
  5
1C37
  8
SAPA_PROFIL
 10
86.714189490492487
 20
-0.0000000000033538
 30
0.0
 42
-0.6681786379192726
  0
VERTEX
  5
1C38
  8
SAPA_PROFIL
 10
86.007082709305891
 20
1.707106781183142
 30
0.0
  0
VERTEX
  5
1C39
  8
SAPA_PROFIL
 10
87.312131962474865
 20
3.0121560343523011
 30
0.0
 42
-0.1989123673797352
  0
VERTEX
  5
1C3A
  8
SAPA_PROFIL
 10
87.524263996830925
 20
3.100023999996437
 30
0.0
  0
VERTEX
  5
1C3B
  8
SAPA_PROFIL
 10
88.110769443578135
 20
3.1000239999962811
 30
0.0
 42
-0.1316524975873824
  0
VERTEX
  5
1C3C
  8
SAPA_PROFIL
 10
88.260769443578056
 20
3.059831621131635
 30
0.0
  0
VERTEX
  5
1C3D
  8
SAPA_PROFIL
 10
89.749999928118925
 20
2.2000239999963318
 30
0.0
  0
VERTEX
  5
1C3E
  8
SAPA_PROFIL
 10
90.199999928118885
 20
2.2000119999966752
 30
0.0
 42
0.4142135623731039
  0
VERTEX
  5
1C3F
  8
SAPA_PROFIL
 10
90.499999928118896
 20
2.5000119999966719
 30
0.0
  0
VERTEX
  5
1C40
  8
SAPA_PROFIL
 10
90.499999928118825
 20
6.1000239999967363
 30
0.0
 42
0.4142135623730826
  0
VERTEX
  5
1C41
  8
SAPA_PROFIL
 10
90.199999928118842
 20
6.4000239999967334
 30
0.0
  0
VERTEX
  5
1C42
  8
SAPA_PROFIL
 10
89.749999928118839
 20
6.4000239999966331
 30
0.0
  0
VERTEX
  5
1C43
  8
SAPA_PROFIL
 10
88.260739797044664
 20
5.5401992624276479
 30
0.0
 42
-0.1316363093594268
  0
VERTEX
  5
1C44
  8
SAPA_PROFIL
 10
88.110758891997904
 20
5.5000068841706868
 30
0.0
  0
VERTEX
  5
1C45
  8
SAPA_PROFIL
 10
87.999999928115074
 20
5.4999998343798771
 30
0.0
  0
VERTEX
  5
1C46
  8
SAPA_PROFIL
 10
87.999999928115074
 20
7.0856406460516146
 30
0.0
 42
-0.2679491924308297
  0
VERTEX
  5
1C47
  8
SAPA_PROFIL
 10
88.499999928115074
 20
7.9516660498302372
 30
0.0
  0
VERTEX
  5
1C48
  8
SAPA_PROFIL
 10
90.249999928115528
 20
8.9620290209087141
 30
0.0
 42
0.2679491924308301
  0
VERTEX
  5
1C49
  8
SAPA_PROFIL
 10
90.499999928115074
 20
9.3950417228006682
 30
0.0
  0
VERTEX
  5
1C4A
  8
SAPA_PROFIL
 10
90.499999928115074
 20
10.60495827718114
 30
0.0
 42
0.267949192430829
  0
VERTEX
  5
1C4B
  8
SAPA_PROFIL
 10
90.249999928115059
 20
11.03797097907227
 30
0.0
  0
VERTEX
  5
1C4C
  8
SAPA_PROFIL
 10
88.499999928115074
 20
12.04833395014793
 30
0.0
 42
-0.2679491924308297
  0
VERTEX
  5
1C4D
  8
SAPA_PROFIL
 10
87.999999928116949
 20
12.914359353933831
 30
0.0
  0
VERTEX
  5
1C4E
  8
SAPA_PROFIL
 10
87.999999928114818
 20
14.50000016560193
 30
0.0
  0
VERTEX
  5
1C4F
  8
SAPA_PROFIL
 10
88.110758891997904
 20
14.499993115811121
 30
0.0
 42
-0.1316363093594264
  0
VERTEX
  5
1C50
  8
SAPA_PROFIL
 10
88.260739797044664
 20
14.45980073755416
 30
0.0
  0
VERTEX
  5
1C51
  8
SAPA_PROFIL
 10
89.749999928118839
 20
13.599975999985171
 30
0.0
  0
VERTEX
  5
1C52
  8
SAPA_PROFIL
 10
90.199999928118842
 20
13.59997599998507
 30
0.0
 42
0.4142135623730951
  0
VERTEX
  5
1C53
  8
SAPA_PROFIL
 10
90.499999928118825
 20
13.89997599998507
 30
0.0
  0
VERTEX
  5
1C54
  8
SAPA_PROFIL
 10
90.499999928118896
 20
17.499987999985141
 30
0.0
 42
0.4142135623731165
  0
VERTEX
  5
1C55
  8
SAPA_PROFIL
 10
90.199999928118885
 20
17.799987999985131
 30
0.0
  0
VERTEX
  5
1C56
  8
SAPA_PROFIL
 10
89.749999928118925
 20
17.799975999985481
 30
0.0
  0
VERTEX
  5
1C57
  8
SAPA_PROFIL
 10
88.260769443578056
 20
16.940168378850171
 30
0.0
 42
-0.1316524975873824
  0
VERTEX
  5
1C58
  8
SAPA_PROFIL
 10
88.110769443578135
 20
16.899975999985529
 30
0.0
  0
VERTEX
  5
1C59
  8
SAPA_PROFIL
 10
87.524263996830925
 20
16.89997599998539
 30
0.0
 42
-0.1989123673797351
  0
VERTEX
  5
1C5A
  8
SAPA_PROFIL
 10
87.312131962474865
 20
16.987843965629509
 30
0.0
  0
VERTEX
  5
1C5B
  8
SAPA_PROFIL
 10
86.007082709305891
 20
18.292893218798671
 30
0.0
 42
-0.6681786379192719
  0
VERTEX
  5
1C5C
  8
SAPA_PROFIL
 10
86.714189490492487
 20
19.99999999998516
 30
0.0
  0
VERTEX
  5
1C5D
  8
SAPA_PROFIL
 10
88.812261846212166
 20
19.99999999998516
 30
0.0
 42
-0.2418327667433408
  0
VERTEX
  5
1C5E
  8
SAPA_PROFIL
 10
89.056130887163732
 20
19.874722325019398
 30
0.0
 42
0.2418327667449424
  0
VERTEX
  5
1C5F
  8
SAPA_PROFIL
 10
89.299999928117984
 20
19.749444650053189
 30
0.0
  0
VERTEX
  5
1C60
  8
SAPA_PROFIL
 10
90.256130887167899
 20
19.749444650049551
 30
0.0
 42
0.2418327667509086
  0
VERTEX
  5
1C61
  8
SAPA_PROFIL
 10
90.499999928115017
 20
19.874722325031971
 30
0.0
 42
-0.2418327667378184
  0
VERTEX
  5
1C62
  8
SAPA_PROFIL
 10
90.743868969052286
 20
19.999999999993801
 30
0.0
  0
VERTEX
  5
1C63
  8
SAPA_PROFIL
 10
92.556610602811588
 20
20.000000000003642
 30
0.0
 42
-0.1095178116817878
  0
VERTEX
  5
1C64
  8
SAPA_PROFIL
 10
93.401847126282576
 20
19.8126155740818
 30
0.0
  0
VERTEX
  5
1C65
  8
SAPA_PROFIL
 10
99.031673491414722
 20
17.187384425924389
 30
0.0
 42
0.1095178116855124
  0
VERTEX
  5
1C66
  8
SAPA_PROFIL
 10
99.876910014920895
 20
17.0
 30
0.0
  0
VERTEX
  5
1C67
  8
SAPA_PROFIL
 10
106.9999999280833
 20
16.999999999985452
 30
0.0
 42
0.414213562373099
  0
VERTEX
  5
1C68
  8
SAPA_PROFIL
 10
107.4999999280833
 20
17.500000000003642
 30
0.0
  0
VERTEX
  5
1C69
  8
SAPA_PROFIL
 10
107.4999999280833
 20
18.500000000003631
 30
0.0
 42
0.4142135623730951
  0
VERTEX
  5
1C6A
  8
SAPA_PROFIL
 10
106.9999999280833
 20
19.000000000003642
 30
0.0
  0
VERTEX
  5
1C6B
  8
SAPA_PROFIL
 10
106.7087120806161
 20
19.000000000003642
 30
0.0
 42
-0.2982166266909471
  0
VERTEX
  5
1C6C
  8
SAPA_PROFIL
 10
106.25045451112619
 20
19.299999999990739
 30
0.0
 42
-1.5275252316550949
  0
VERTEX
  5
1C6D
  8
SAPA_PROFIL
 10
111.74954534504521
 20
19.299999999998899
 30
0.0
 42
-0.2982166266892463
  0
VERTEX
  5
1C6E
  8
SAPA_PROFIL
 10
111.291287775565
 20
19.00000000001296
 30
0.0
  0
VERTEX
  5
1C6F
  8
SAPA_PROFIL
 10
110.9999999280833
 20
19.000000000003642
 30
0.0
 42
0.4142135623730951
  0
VERTEX
  5
1C70
  8
SAPA_PROFIL
 10
110.4999999280833
 20
18.500000000003631
 30
0.0
  0
VERTEX
  5
1C71
  8
SAPA_PROFIL
 10
110.4999999280833
 20
17.500000000003642
 30
0.0
 42
0.4142135623730946
  0
VERTEX
  5
1C72
  8
SAPA_PROFIL
 10
110.9999999280833
 20
17.000000000003642
 30
0.0
  0
VERTEX
  5
1C73
  8
SAPA_PROFIL
 10
129.92308984094299
 20
17.000000000003642
 30
0.0
 42
0.1095178116834561
  0
VERTEX
  5
1C74
  8
SAPA_PROFIL
 10
130.7683263644287
 20
17.18738442592506
 30
0.0
  0
SEQEND
  5
1C75
  8
SAPA_PROFIL
  0
POLYLINE
  5
10BA
  8
SAPA_PROFIL
 66
     1
 10
0.0
 20
0.0
 30
0.0
 70
     1
  0
VERTEX
  5
1C76
  8
SAPA_PROFIL
 10
136.4999999277413
 20
2.7999999999992862
 30
0.0
 42
-0.4142135623730916
  0
VERTEX
  5
1C77
  8
SAPA_PROFIL
 10
136.19999992773111
 20
2.5000000000000142
 30
0.0
  0
VERTEX
  5
1C78
  8
SAPA_PROFIL
 10
93.299999928115355
 20
2.5000000000036371
 30
0.0
 42
-0.4142135623730959
  0
VERTEX
  5
1C79
  8
SAPA_PROFIL
 10
92.999999928116054
 20
2.8000000000029099
 30
0.0
  0
VERTEX
  5
1C7A
  8
SAPA_PROFIL
 10
92.999999928112402
 20
14.3999999999869
 30
0.0
 42
-0.4142135623730951
  0
VERTEX
  5
1C7B
  8
SAPA_PROFIL
 10
93.299999928115312
 20
14.69999999998981
 30
0.0
  0
VERTEX
  5
1C7C
  8
SAPA_PROFIL
 10
136.19999992773111
 20
14.70000000001165
 30
0.0
 42
-0.4142135623730946
  0
VERTEX
  5
1C7D
  8
SAPA_PROFIL
 10
136.4999999277413
 20
14.400000000019659
 30
0.0
  0
SEQEND
  5
1C7E
  8
SAPA_PROFIL
  0
POLYLINE
  5
10BB
  8
SAPA_PROFIL
 62
     4
 66
     1
 10
0.0
 20
0.0
 30
0.0
 70
     1
  0
VERTEX
  5
10BC
  8
SAPA_PROFIL
 62
     4
 10
88.124166846888869
 20
3.1994446825304972
 30
0.0
 42
-0.1316524975873876
  0
VERTEX
  5
10BD
  8
SAPA_PROFIL
 62
     4
 10
88.274166846888846
 20
3.1592523036658369
 30
0.0
  0
VERTEX
  5
10BE
  8
SAPA_PROFIL
 62
     4
 10
89.763397387734059
 20
2.2994446500235171
 30
0.0
  0
VERTEX
  5
10BF
  8
SAPA_PROFIL
 62
     4
 10
90.199999928112504
 20
2.2994446500234309
 30
0.0
 42
0.4142135623730934
  0
VERTEX
  5
10C0
  8
SAPA_PROFIL
 62
     4
 10
90.449999928112476
 20
2.5494446500234171
 30
0.0
  0
VERTEX
  5
10C1
  8
SAPA_PROFIL
 62
     4
 10
90.449999928112547
 20
6.1494566500234811
 30
0.0
 42
0.4142135623731066
  0
VERTEX
  5
10C2
  8
SAPA_PROFIL
 62
     4
 10
90.199999928112533
 20
6.3994566500234953
 30
0.0
  0
VERTEX
  5
10C3
  8
SAPA_PROFIL
 62
     4
 10
89.763398006534075
 20
6.3994450072881364
 30
0.0
  0
VERTEX
  5
10C4
  8
SAPA_PROFIL
 62
     4
 10
88.274166959496384
 20
5.5396370613951396
 30
0.0
 42
-0.131652497587425
  0
VERTEX
  5
10C5
  8
SAPA_PROFIL
 62
     4
 10
88.124166959496335
 20
5.4994446825304522
 30
0.0
  0
VERTEX
  5
10C6
  8
SAPA_PROFIL
 62
     4
 10
64.875832968245092
 20
5.4994446825304522
 30
0.0
 42
-0.1316524975874248
  0
VERTEX
  5
10C7
  8
SAPA_PROFIL
 62
     4
 10
64.725832968245058
 20
5.5396370613951396
 30
0.0
  0
VERTEX
  5
10C8
  8
SAPA_PROFIL
 62
     4
 10
63.236601921207367
 20
6.3994450072881364
 30
0.0
  0
VERTEX
  5
10C9
  8
SAPA_PROFIL
 62
     4
 10
62.799999999628909
 20
6.3994566500234953
 30
0.0
 42
0.4142135623731049
  0
VERTEX
  5
10CA
  8
SAPA_PROFIL
 62
     4
 10
62.549999999628902
 20
6.1494566500234811
 30
0.0
  0
VERTEX
  5
10CB
  8
SAPA_PROFIL
 62
     4
 10
62.549999999628952
 20
2.5494446500234171
 30
0.0
 42
0.4142135623730951
  0
VERTEX
  5
10CC
  8
SAPA_PROFIL
 62
     4
 10
62.79999999962893
 20
2.2994446500234309
 30
0.0
  0
VERTEX
  5
10CD
  8
SAPA_PROFIL
 62
     4
 10
63.236602540007389
 20
2.2994446500235171
 30
0.0
  0
VERTEX
  5
10CE
  8
SAPA_PROFIL
 62
     4
 10
64.72583308085251
 20
3.1592523036657951
 30
0.0
 42
-0.1316524975873866
  0
VERTEX
  5
10CF
  8
SAPA_PROFIL
 62
     4
 10
64.875833080852473
 20
3.1994446825304541
 30
0.0
  0
SEQEND
  5
10D0
  8
SAPA_PROFIL
 62
     4
  0
POLYLINE
  5
10D1
  8
SAPA_PROFIL
 66
     1
 10
0.0
 20
0.0
 30
0.0
 70
     1
  0
VERTEX
  5
1C7F
  8
SAPA_PROFIL
 10
17.354763476512758
 20
19.46152494752096
 30
0.0
 42
-0.2914734195858593
  0
VERTEX
  5
1C80
  8
SAPA_PROFIL
 10
16.199999999997111
 20
21.274140521607482
 30
0.0
  0
VERTEX
  5
1C81
  8
SAPA_PROFIL
 10
16.199999999997111
 20
40.999999999985441
 30
0.0
 42
-0.4142135623731033
  0
VERTEX
  5
1C82
  8
SAPA_PROFIL
 10
16.6999999999971
 20
41.499999999985441
 30
0.0
  0
VERTEX
  5
1C83
  8
SAPA_PROFIL
 10
17.000000000007301
 20
41.499999999985441
 30
0.0
 42
-0.4142135623731035
  0
VERTEX
  5
1C84
  8
SAPA_PROFIL
 10
17.500000000007301
 20
40.999999999985441
 30
0.0
  0
VERTEX
  5
1C85
  8
SAPA_PROFIL
 10
17.500000000007301
 20
39.699999999986183
 30
0.0
 42
0.4142135623731159
  0
VERTEX
  5
1C86
  8
SAPA_PROFIL
 10
17.700000000026211
 20
39.499999999974541
 30
0.0
  0
VERTEX
  5
1C87
  8
SAPA_PROFIL
 10
18.000000000007301
 20
39.499999999985448
 30
0.0
 42
0.4142135623731035
  0
VERTEX
  5
1C88
  8
SAPA_PROFIL
 10
18.50000000000729
 20
39.999999999985448
 30
0.0
  0
VERTEX
  5
1C89
  8
SAPA_PROFIL
 10
18.500000000000028
 20
43.749999999985448
 30
0.0
 42
0.4142135623731035
  0
VERTEX
  5
1C8A
  8
SAPA_PROFIL
 10
18.000000000000028
 20
44.249999999985441
 30
0.0
  0
VERTEX
  5
1C8B
  8
SAPA_PROFIL
 10
17.699999999997129
 20
44.249999999985441
 30
0.0
 42
0.4142135623731159
  0
VERTEX
  5
1C8C
  8
SAPA_PROFIL
 10
17.499999999989111
 20
44.049999999973807
 30
0.0
  0
VERTEX
  5
1C8D
  8
SAPA_PROFIL
 10
17.500000000000028
 20
43.199999999986169
 30
0.0
 42
-0.4142135623730951
  0
VERTEX
  5
1C8E
  8
SAPA_PROFIL
 10
17.300000000010211
 20
42.999999999985441
 30
0.0
  0
VERTEX
  5
1C8F
  8
SAPA_PROFIL
 10
16.300000000010211
 20
42.999999999985441
 30
0.0
 42
-0.4142135623731035
  0
VERTEX
  5
1C90
  8
SAPA_PROFIL
 10
15.80000000001022
 20
43.499999999985441
 30
0.0
  0
VERTEX
  5
1C91
  8
SAPA_PROFIL
 10
15.80000000001022
 20
49.499999999985448
 30
0.0
 42
-0.4142135623731033
  0
VERTEX
  5
1C92
  8
SAPA_PROFIL
 10
16.300000000010211
 20
49.999999999985448
 30
0.0
  0
VERTEX
  5
1C93
  8
SAPA_PROFIL
 10
17.300000000010211
 20
49.999999999985448
 30
0.0
 42
-0.4142135623731054
  0
VERTEX
  5
1C94
  8
SAPA_PROFIL
 10
17.500000000000028
 20
49.799999999973807
 30
0.0
  0
VERTEX
  5
1C95
  8
SAPA_PROFIL
 10
17.500000000007301
 20
48.949999999986169
 30
0.0
 42
0.4142135623731159
  0
VERTEX
  5
1C96
  8
SAPA_PROFIL
 10
17.700000000026229
 20
48.749999999974527
 30
0.0
  0
VERTEX
  5
1C97
  8
SAPA_PROFIL
 10
18.000000000000028
 20
48.75
 30
0.0
 42
0.4142135623731035
  0
VERTEX
  5
1C98
  8
SAPA_PROFIL
 10
18.500000000000028
 20
49.25
 30
0.0
  0
VERTEX
  5
1C99
  8
SAPA_PROFIL
 10
18.500000000000028
 20
52.25
 30
0.0
 42
0.4142135623731035
  0
VERTEX
  5
1C9A
  8
SAPA_PROFIL
 10
18.000000000000028
 20
52.75
 30
0.0
  0
VERTEX
  5
1C9B
  8
SAPA_PROFIL
 10
17.699999999997129
 20
52.75
 30
0.0
 42
0.4142135623730744
  0
VERTEX
  5
1C9C
  8
SAPA_PROFIL
 10
17.500000000000028
 20
52.549999999999272
 30
0.0
  0
VERTEX
  5
1C9D
  8
SAPA_PROFIL
 10
17.500000000010949
 20
51.70000000000072
 30
0.0
 42
-0.4142135623730534
  0
VERTEX
  5
1C9E
  8
SAPA_PROFIL
 10
17.300000000010211
 20
51.5
 30
0.0
  0
VERTEX
  5
1C9F
  8
SAPA_PROFIL
 10
16.300000000010211
 20
51.5
 30
0.0
 42
-0.4142135623731035
  0
VERTEX
  5
1CA0
  8
SAPA_PROFIL
 10
15.80000000001022
 20
52.0
 30
0.0
  0
VERTEX
  5
1CA1
  8
SAPA_PROFIL
 10
15.80000000001022
 20
58.0
 30
0.0
 42
-0.4142135623730869
  0
VERTEX
  5
1CA2
  8
SAPA_PROFIL
 10
16.300000000010211
 20
58.5
 30
0.0
  0
VERTEX
  5
1CA3
  8
SAPA_PROFIL
 10
17.300000000010211
 20
58.499999999989079
 30
0.0
 42
-0.4142135623730534
  0
VERTEX
  5
1CA4
  8
SAPA_PROFIL
 10
17.500000000000028
 20
58.299999999999272
 30
0.0
  0
VERTEX
  5
1CA5
  8
SAPA_PROFIL
 10
17.499999999992749
 20
57.45000000000072
 30
0.0
 42
0.4142135623730744
  0
VERTEX
  5
1CA6
  8
SAPA_PROFIL
 10
17.699999999997129
 20
57.25
 30
0.0
  0
VERTEX
  5
1CA7
  8
SAPA_PROFIL
 10
18.000000000000028
 20
57.25
 30
0.0
 42
0.4142135623731035
  0
VERTEX
  5
1CA8
  8
SAPA_PROFIL
 10
18.500000000000028
 20
57.75
 30
0.0
  0
VERTEX
  5
1CA9
  8
SAPA_PROFIL
 10
18.500000000000028
 20
59.5
 30
0.0
 42
0.4142135623731035
  0
VERTEX
  5
1CAA
  8
SAPA_PROFIL
 10
18.000000000000028
 20
60.0
 30
0.0
  0
VERTEX
  5
1CAB
  8
SAPA_PROFIL
 10
15.50000000000003
 20
60.0
 30
0.0
 42
0.4142135623730951
  0
VERTEX
  5
1CAC
  8
SAPA_PROFIL
 10
14.00000000000003
 20
58.5
 30
0.0
  0
VERTEX
  5
1CAD
  8
SAPA_PROFIL
 10
14.0
 20
-55.625
 30
0.0
 42
0.9999999999999792
  0
VERTEX
  5
1CAE
  8
SAPA_PROFIL
 10
16.75
 20
-55.625
 30
0.0
  0
VERTEX
  5
1CAF
  8
SAPA_PROFIL
 10
16.750000000000028
 20
-3.9999999999999849
 30
0.0
 42
-0.4142135623730959
  0
VERTEX
  5
1CB0
  8
SAPA_PROFIL
 10
20.750000000000011
 20
0.0000000000000142
 30
0.0
  0
VERTEX
  5
1CB1
  8
SAPA_PROFIL
 10
62.256130958679108
 20
-0.0000000000109139
 30
0.0
 42
0.2418327667378102
  0
VERTEX
  5
1CB2
  8
SAPA_PROFIL
 10
62.499999999617501
 20
0.1252776749561804
 30
0.0
 42
-0.2418327667509117
  0
VERTEX
  5
1CB3
  8
SAPA_PROFIL
 10
62.743869040573458
 20
0.2505553499286179
 30
0.0
  0
VERTEX
  5
1CB4
  8
SAPA_PROFIL
 10
63.699999999623373
 20
0.2505553499322559
 30
0.0
 42
-0.2418327667448982
  0
VERTEX
  5
1CB5
  8
SAPA_PROFIL
 10
63.943869040578313
 20
0.12527767496384
 30
0.0
 42
0.2418327667448982
  0
VERTEX
  5
1CB6
  8
SAPA_PROFIL
 10
64.187738081530881
 20
-0.0000000000033538
 30
0.0
  0
VERTEX
  5
1CB7
  8
SAPA_PROFIL
 10
66.28581043724887
 20
-0.0000000000033538
 30
0.0
 42
0.6681786379192726
  0
VERTEX
  5
1CB8
  8
SAPA_PROFIL
 10
66.992917218435466
 20
1.707106781183142
 30
0.0
  0
VERTEX
  5
1CB9
  8
SAPA_PROFIL
 10
65.687867965266491
 20
3.0121560343523011
 30
0.0
 42
0.1989123673797352
  0
VERTEX
  5
1CBA
  8
SAPA_PROFIL
 10
65.475735930910403
 20
3.100023999996437
 30
0.0
  0
VERTEX
  5
1CBB
  8
SAPA_PROFIL
 10
64.889230484163221
 20
3.1000239999962811
 30
0.0
 42
0.1316524975873824
  0
VERTEX
  5
1CBC
  8
SAPA_PROFIL
 10
64.739230484163301
 20
3.059831621131635
 30
0.0
  0
VERTEX
  5
1CBD
  8
SAPA_PROFIL
 10
63.24999999962241
 20
2.2000239999963318
 30
0.0
  0
VERTEX
  5
1CBE
  8
SAPA_PROFIL
 10
62.799999999622472
 20
2.2000119999966752
 30
0.0
 42
-0.4142135623731039
  0
VERTEX
  5
1CBF
  8
SAPA_PROFIL
 10
62.499999999622467
 20
2.5000119999966719
 30
0.0
  0
VERTEX
  5
1CC0
  8
SAPA_PROFIL
 10
62.499999999622517
 20
6.1000239999967363
 30
0.0
 42
-0.4142135623730826
  0
VERTEX
  5
1CC1
  8
SAPA_PROFIL
 10
62.799999999622507
 20
6.4000239999967334
 30
0.0
  0
VERTEX
  5
1CC2
  8
SAPA_PROFIL
 10
63.24999999962251
 20
6.4000239999966331
 30
0.0
  0
VERTEX
  5
1CC3
  8
SAPA_PROFIL
 10
64.739260130696692
 20
5.5401992624276479
 30
0.0
 42
0.1316363093594268
  0
VERTEX
  5
1CC4
  8
SAPA_PROFIL
 10
64.889241035743424
 20
5.5000068841706868
 30
0.0
  0
VERTEX
  5
1CC5
  8
SAPA_PROFIL
 10
64.999999999626283
 20
5.4999998343798771
 30
0.0
  0
VERTEX
  5
1CC6
  8
SAPA_PROFIL
 10
64.999999999626283
 20
7.0856406460516146
 30
0.0
 42
0.2679491924308297
  0
VERTEX
  5
1CC7
  8
SAPA_PROFIL
 10
64.499999999626283
 20
7.9516660498302372
 30
0.0
  0
VERTEX
  5
1CC8
  8
SAPA_PROFIL
 10
62.749999999625828
 20
8.9620290209087141
 30
0.0
 42
-0.2679491924308301
  0
VERTEX
  5
1CC9
  8
SAPA_PROFIL
 10
62.49999999962629
 20
9.3950417228006682
 30
0.0
  0
VERTEX
  5
1CCA
  8
SAPA_PROFIL
 10
62.49999999962629
 20
10.60495827718114
 30
0.0
 42
-0.267949192430829
  0
VERTEX
  5
1CCB
  8
SAPA_PROFIL
 10
62.749999999626283
 20
11.03797097907227
 30
0.0
  0
VERTEX
  5
1CCC
  8
SAPA_PROFIL
 10
64.499999999626283
 20
12.04833395014793
 30
0.0
 42
0.2679491924308297
  0
VERTEX
  5
1CCD
  8
SAPA_PROFIL
 10
64.999999999624393
 20
12.914359353933831
 30
0.0
  0
VERTEX
  5
1CCE
  8
SAPA_PROFIL
 10
64.999999999626525
 20
14.50000016560193
 30
0.0
  0
VERTEX
  5
1CCF
  8
SAPA_PROFIL
 10
64.889241035743424
 20
14.499993115811121
 30
0.0
 42
0.1316363093594264
  0
VERTEX
  5
1CD0
  8
SAPA_PROFIL
 10
64.739260130696692
 20
14.45980073755416
 30
0.0
  0
VERTEX
  5
1CD1
  8
SAPA_PROFIL
 10
63.24999999962251
 20
13.599975999985171
 30
0.0
  0
VERTEX
  5
1CD2
  8
SAPA_PROFIL
 10
62.799999999622507
 20
13.59997599998507
 30
0.0
 42
-0.4142135623730951
  0
VERTEX
  5
1CD3
  8
SAPA_PROFIL
 10
62.499999999622517
 20
13.89997599998507
 30
0.0
  0
VERTEX
  5
1CD4
  8
SAPA_PROFIL
 10
62.499999999622467
 20
17.499987999985141
 30
0.0
 42
-0.4142135623731165
  0
VERTEX
  5
1CD5
  8
SAPA_PROFIL
 10
62.799999999622472
 20
17.799987999985131
 30
0.0
  0
VERTEX
  5
1CD6
  8
SAPA_PROFIL
 10
63.24999999962241
 20
17.799975999985481
 30
0.0
  0
VERTEX
  5
1CD7
  8
SAPA_PROFIL
 10
64.739230484163301
 20
16.940168378850171
 30
0.0
 42
0.1316524975873824
  0
VERTEX
  5
1CD8
  8
SAPA_PROFIL
 10
64.889230484163221
 20
16.899975999985529
 30
0.0
  0
VERTEX
  5
1CD9
  8
SAPA_PROFIL
 10
65.475735930910403
 20
16.89997599998539
 30
0.0
 42
0.1989123673797351
  0
VERTEX
  5
1CDA
  8
SAPA_PROFIL
 10
65.687867965266491
 20
16.987843965629509
 30
0.0
  0
VERTEX
  5
1CDB
  8
SAPA_PROFIL
 10
66.992917218435466
 20
18.292893218798671
 30
0.0
 42
0.6681786379192719
  0
VERTEX
  5
1CDC
  8
SAPA_PROFIL
 10
66.28581043724887
 20
19.99999999998516
 30
0.0
  0
VERTEX
  5
1CDD
  8
SAPA_PROFIL
 10
64.187738081529176
 20
19.99999999998516
 30
0.0
 42
0.2418327667433408
  0
VERTEX
  5
1CDE
  8
SAPA_PROFIL
 10
63.943869040577617
 20
19.874722325019398
 30
0.0
 42
-0.2418327667449424
  0
VERTEX
  5
1CDF
  8
SAPA_PROFIL
 10
63.699999999623373
 20
19.749444650053189
 30
0.0
  0
VERTEX
  5
1CE0
  8
SAPA_PROFIL
 10
62.743869040573458
 20
19.749444650049551
 30
0.0
 42
-0.2418327667509086
  0
VERTEX
  5
1CE1
  8
SAPA_PROFIL
 10
62.49999999962634
 20
19.874722325031971
 30
0.0
 42
0.2418327667378184
  0
VERTEX
  5
1CE2
  8
SAPA_PROFIL
 10
62.256130958689049
 20
19.999999999993801
 30
0.0
  0
VERTEX
  5
1CE3
  8
SAPA_PROFIL
 10
60.443389324929761
 20
20.000000000003642
 30
0.0
 42
0.1095178116817878
  0
VERTEX
  5
1CE4
  8
SAPA_PROFIL
 10
59.598152801458781
 20
19.8126155740818
 30
0.0
  0
VERTEX
  5
1CE5
  8
SAPA_PROFIL
 10
53.968326436326628
 20
17.187384425924389
 30
0.0
 42
-0.1095178116855124
  0
VERTEX
  5
1CE6
  8
SAPA_PROFIL
 10
53.123089912820461
 20
17.0
 30
0.0
  0
VERTEX
  5
1CE7
  8
SAPA_PROFIL
 10
45.999999999658051
 20
16.999999999985452
 30
0.0
 42
-0.414213562373099
  0
VERTEX
  5
1CE8
  8
SAPA_PROFIL
 10
45.499999999658051
 20
17.500000000003642
 30
0.0
  0
VERTEX
  5
1CE9
  8
SAPA_PROFIL
 10
45.499999999658051
 20
18.500000000003631
 30
0.0
 42
-0.4142135623730951
  0
VERTEX
  5
1CEA
  8
SAPA_PROFIL
 10
45.999999999658051
 20
19.000000000003642
 30
0.0
  0
VERTEX
  5
1CEB
  8
SAPA_PROFIL
 10
46.291287847125233
 20
19.000000000003642
 30
0.0
 42
0.2982166266909471
  0
VERTEX
  5
1CEC
  8
SAPA_PROFIL
 10
46.74954541661517
 20
19.299999999990739
 30
0.0
 42
1.5275252316550949
  0
VERTEX
  5
1CED
  8
SAPA_PROFIL
 10
41.250454582696158
 20
19.299999999998899
 30
0.0
 42
0.2982166266892463
  0
VERTEX
  5
1CEE
  8
SAPA_PROFIL
 10
41.708712152176332
 20
19.00000000001296
 30
0.0
  0
VERTEX
  5
1CEF
  8
SAPA_PROFIL
 10
41.999999999658058
 20
19.000000000003642
 30
0.0
 42
-0.4142135623730951
  0
VERTEX
  5
1CF0
  8
SAPA_PROFIL
 10
42.499999999658058
 20
18.500000000003631
 30
0.0
  0
VERTEX
  5
1CF1
  8
SAPA_PROFIL
 10
42.499999999658058
 20
17.500000000003642
 30
0.0
 42
-0.4142135623730946
  0
VERTEX
  5
1CF2
  8
SAPA_PROFIL
 10
41.999999999658058
 20
17.000000000003642
 30
0.0
  0
VERTEX
  5
1CF3
  8
SAPA_PROFIL
 10
23.076910086798321
 20
17.000000000003642
 30
0.0
 42
-0.1095178116834561
  0
VERTEX
  5
1CF4
  8
SAPA_PROFIL
 10
22.23167356331259
 20
17.18738442592506
 30
0.0
  0
SEQEND
  5
1CF5
  8
SAPA_PROFIL
  0
POLYLINE
  5
10D2
  8
SAPA_PROFIL
 66
     1
 10
0.0
 20
0.0
 30
0.0
 70
     1
  0
VERTEX
  5
1CF6
  8
SAPA_PROFIL
 10
16.500000000000021
 20
2.7999999999992862
 30
0.0
 42
0.4142135623730916
  0
VERTEX
  5
1CF7
  8
SAPA_PROFIL
 10
16.800000000010211
 20
2.5000000000000142
 30
0.0
  0
VERTEX
  5
1CF8
  8
SAPA_PROFIL
 10
59.699999999626023
 20
2.5000000000036371
 30
0.0
 42
0.4142135623730959
  0
VERTEX
  5
1CF9
  8
SAPA_PROFIL
 10
59.999999999625288
 20
2.8000000000029099
 30
0.0
  0
VERTEX
  5
1CFA
  8
SAPA_PROFIL
 10
59.999999999628947
 20
14.3999999999869
 30
0.0
 42
0.4142135623730951
  0
VERTEX
  5
1CFB
  8
SAPA_PROFIL
 10
59.699999999626037
 20
14.69999999998981
 30
0.0
  0
VERTEX
  5
1CFC
  8
SAPA_PROFIL
 10
16.800000000010211
 20
14.70000000001165
 30
0.0
 42
0.4142135623730946
  0
VERTEX
  5
1CFD
  8
SAPA_PROFIL
 10
16.500000000000021
 20
14.400000000019659
 30
0.0
  0
SEQEND
  5
1CFE
  8
SAPA_PROFIL
  0
POLYLINE
  5
10D3
  8
SAPA_PROFIL
 62
     4
 66
     1
 10
0.0
 20
0.0
 30
-0.2
 70
     1
1001
RC_PROFILE
1002
{
1000
Region
1002
}
  0
VERTEX
  5
1CFF
  8
SAPA_PROFIL
 62
     4
 10
73.999999931237681
 20
43.297179717640567
 30
-0.2
  0
VERTEX
  5
1D00
  8
SAPA_PROFIL
 62
     4
 10
73.999999931237681
 20
57.497179717642659
 30
-0.2
 42
-0.4142135623720297
  0
VERTEX
  5
1D01
  8
SAPA_PROFIL
 62
     4
 10
74.499999931235863
 20
57.997179717642659
 30
-0.2
  0
VERTEX
  5
1D02
  8
SAPA_PROFIL
 62
     4
 10
78.499999931857033
 20
57.997179717645622
 30
-0.2
 42
-0.4142135623730951
  0
VERTEX
  5
1D03
  8
SAPA_PROFIL
 62
     4
 10
78.999999931857047
 20
57.497179717645622
 30
-0.2
  0
VERTEX
  5
1D04
  8
SAPA_PROFIL
 62
     4
 10
78.999999931864323
 20
43.297179717641697
 30
-0.2
 42
-0.414213562373761
  0
VERTEX
  5
1D05
  8
SAPA_PROFIL
 62
     4
 10
78.499999931864323
 20
42.797179717640567
 30
-0.2
  0
VERTEX
  5
1D06
  8
SAPA_PROFIL
 62
     4
 10
74.499999931237681
 20
42.797179717640567
 30
-0.2
 42
-0.4142135623730951
  0
SEQEND
  5
1D07
  8
SAPA_PROFIL
 62
     4
  0
POLYLINE
  5
10D4
  8
SAPA_PROFIL
 62
     4
 66
     1
 10
0.0
 20
0.0
 30
0.0
1001
GENIUS_GENOBJ-N-FIL_13
1002
{
1000
OWNER
1000
GEN
1002
}
1001
GENIUS_GENODEF_13
1002
{
1000
HIER
1070
     0
1002
}
1002
{
1000
MANEDIT
1070
     0
1002
}
1002
{
1000
NOSEL
1070
     0
1002
}
1002
{
1000
BEHIND
1070
     0
1002
}
1002
{
1000
OTHER
1070
     0
1002
}
1002
{
1000
REACTOR
1002
}
  0
VERTEX
  5
1D08
  8
SAPA_PROFIL
 62
     4
 10
87.42274000125613
 20
16.533706161231521
 30
0.0
 42
0.131652497587489
  0
VERTEX
  5
1D09
  8
SAPA_PROFIL
 62
     4
 10
88.022740001256565
 20
16.69447567669026
 30
0.0
  0
VERTEX
  5
1D0A
  8
SAPA_PROFIL
 62
     4
 10
89.763397941900095
 20
17.69944500728813
 30
0.0
  0
VERTEX
  5
1D0B
  8
SAPA_PROFIL
 62
     4
 10
90.199999863478567
 20
17.699456650023489
 30
0.0
 42
-0.4142135623731046
  0
VERTEX
  5
1D0C
  8
SAPA_PROFIL
 62
     4
 10
90.449999863478567
 20
17.449456650023489
 30
0.0
  0
VERTEX
  5
1D0D
  8
SAPA_PROFIL
 62
     4
 10
90.449999863478524
 20
13.849444650023431
 30
0.0
 42
-0.4142135623730957
  0
VERTEX
  5
1D0E
  8
SAPA_PROFIL
 62
     4
 10
90.199999863478524
 20
13.599444650023431
 30
0.0
  0
VERTEX
  5
1D0F
  8
SAPA_PROFIL
 62
     4
 10
89.763397323100065
 20
13.59944465002353
 30
0.0
  0
VERTEX
  5
1D10
  8
SAPA_PROFIL
 62
     4
 10
88.077259725699193
 20
14.57293664577359
 30
0.0
 42
0.1316524975873848
  0
VERTEX
  5
1D11
  8
SAPA_PROFIL
 62
     4
 10
87.477259725699241
 20
14.73370616123225
 30
0.0
  0
VERTEX
  5
1D12
  8
SAPA_PROFIL
 62
     4
 10
65.522740137408221
 20
14.73370616123225
 30
0.0
 42
0.1316524975873846
  0
VERTEX
  5
1D13
  8
SAPA_PROFIL
 62
     4
 10
64.922740137408269
 20
14.57293664577359
 30
0.0
  0
VERTEX
  5
1D14
  8
SAPA_PROFIL
 62
     4
 10
63.236602540007389
 20
13.59944465002353
 30
0.0
  0
VERTEX
  5
1D15
  8
SAPA_PROFIL
 62
     4
 10
62.79999999962893
 20
13.599444650023431
 30
0.0
 42
-0.4142135623730951
  0
VERTEX
  5
1D16
  8
SAPA_PROFIL
 62
     4
 10
62.549999999628952
 20
13.849444650023431
 30
0.0
  0
VERTEX
  5
1D17
  8
SAPA_PROFIL
 62
     4
 10
62.549999999628902
 20
17.449456650023489
 30
0.0
 42
-0.4142135623731046
  0
VERTEX
  5
1D18
  8
SAPA_PROFIL
 62
     4
 10
62.799999999628909
 20
17.699456650023489
 30
0.0
  0
VERTEX
  5
1D19
  8
SAPA_PROFIL
 62
     4
 10
63.236601921207367
 20
17.69944500728813
 30
0.0
  0
VERTEX
  5
1D1A
  8
SAPA_PROFIL
 62
     4
 10
64.977259861850911
 20
16.69447567669026
 30
0.0
 42
0.1316524975874892
  0
VERTEX
  5
1D1B
  8
SAPA_PROFIL
 62
     4
 10
65.577259861851331
 20
16.533706161231521
 30
0.0
  0
VERTEX
  5
1D1C
  8
SAPA_PROFIL
 62
     4
 10
68.299999999379935
 20
16.5337061612322
 30
0.0
 42
0.414213562374094
  0
VERTEX
  5
1D1D
  8
SAPA_PROFIL
 62
     4
 10
69.499999999378844
 20
17.733706161236341
 30
0.0
  0
VERTEX
  5
1D1E
  8
SAPA_PROFIL
 62
     4
 10
69.499999999289713
 20
43.531441188158169
 30
0.0
 42
-0.4142135623730951
  0
VERTEX
  5
1D1F
  8
SAPA_PROFIL
 62
     4
 10
69.999999999289713
 20
44.031441188158162
 30
0.0
  0
VERTEX
  5
1D20
  8
SAPA_PROFIL
 62
     4
 10
70.199999999289531
 20
44.031441188158396
 30
0.0
 42
-0.4142135623730951
  0
VERTEX
  5
1D21
  8
SAPA_PROFIL
 62
     4
 10
70.499999999289713
 20
43.731441188158207
 30
0.0
  0
VERTEX
  5
1D22
  8
SAPA_PROFIL
 62
     4
 10
70.499999999289713
 20
43.081441188156298
 30
0.0
 42
0.4142135623730951
  0
VERTEX
  5
1D23
  8
SAPA_PROFIL
 62
     4
 10
70.799999999290804
 20
42.781441188156343
 30
0.0
  0
VERTEX
  5
1D24
  8
SAPA_PROFIL
 62
     4
 10
71.699999999286803
 20
42.78144118815726
 30
0.0
 42
0.4142135623730951
  0
VERTEX
  5
1D25
  8
SAPA_PROFIL
 62
     4
 10
72.199999999286803
 20
43.28144118815635
 30
0.0
  0
VERTEX
  5
1D26
  8
SAPA_PROFIL
 62
     4
 10
72.199999999286803
 20
49.281441188158169
 30
0.0
 42
0.4142135623730951
  0
VERTEX
  5
1D27
  8
SAPA_PROFIL
 62
     4
 10
71.699999999286803
 20
49.781441188158169
 30
0.0
  0
VERTEX
  5
1D28
  8
SAPA_PROFIL
 62
     4
 10
70.799999999288076
 20
49.781441188158169
 30
0.0
 42
0.4142135623710974
  0
VERTEX
  5
1D29
  8
SAPA_PROFIL
 62
     4
 10
70.499999999288804
 20
49.481441188160261
 30
0.0
  0
VERTEX
  5
1D2A
  8
SAPA_PROFIL
 62
     4
 10
70.499999999284256
 20
48.831441188158351
 30
0.0
 42
-0.4142135623730951
  0
VERTEX
  5
1D2B
  8
SAPA_PROFIL
 62
     4
 10
70.199999999282255
 20
48.531441188160223
 30
0.0
  0
VERTEX
  5
1D2C
  8
SAPA_PROFIL
 62
     4
 10
69.999999999289713
 20
48.531441188161352
 30
0.0
 42
-0.4142135623730951
  0
VERTEX
  5
1D2D
  8
SAPA_PROFIL
 62
     4
 10
69.499999999289713
 20
49.031441188161352
 30
0.0
  0
VERTEX
  5
1D2E
  8
SAPA_PROFIL
 62
     4
 10
69.499999999289713
 20
52.031441188161352
 30
0.0
 42
-0.4142135623730951
  0
VERTEX
  5
1D2F
  8
SAPA_PROFIL
 62
     4
 10
69.999999999289713
 20
52.531441188161352
 30
0.0
  0
VERTEX
  5
1D30
  8
SAPA_PROFIL
 62
     4
 10
70.199999999289531
 20
52.531441188161352
 30
0.0
 42
-0.4142135623730951
  0
VERTEX
  5
1D31
  8
SAPA_PROFIL
 62
     4
 10
70.499999999289713
 20
52.23144118816117
 30
0.0
  0
VERTEX
  5
1D32
  8
SAPA_PROFIL
 62
     4
 10
70.499999999289713
 20
51.581441188161307
 30
0.0
 42
0.4142135623730951
  0
VERTEX
  5
1D33
  8
SAPA_PROFIL
 62
     4
 10
70.799999999290804
 20
51.281441188161352
 30
0.0
  0
VERTEX
  5
1D34
  8
SAPA_PROFIL
 62
     4
 10
71.699999999286803
 20
51.281441188161352
 30
0.0
 42
0.4142135623730951
  0
VERTEX
  5
1D35
  8
SAPA_PROFIL
 62
     4
 10
72.199999999286803
 20
51.781441188161352
 30
0.0
  0
VERTEX
  5
1D36
  8
SAPA_PROFIL
 62
     4
 10
72.199999999286803
 20
57.781441188161352
 30
0.0
 42
0.4142135623730951
  0
VERTEX
  5
1D37
  8
SAPA_PROFIL
 62
     4
 10
71.699999999286803
 20
58.281441188161352
 30
0.0
  0
VERTEX
  5
1D38
  8
SAPA_PROFIL
 62
     4
 10
70.799999999290804
 20
58.281441188161352
 30
0.0
 42
0.4142135623730951
  0
VERTEX
  5
1D39
  8
SAPA_PROFIL
 62
     4
 10
70.499999999289713
 20
57.98144118816117
 30
0.0
  0
VERTEX
  5
1D3A
  8
SAPA_PROFIL
 62
     4
 10
70.499999999289713
 20
57.331441188161307
 30
0.0
 42
-0.4142135623730949
  0
VERTEX
  5
1D3B
  8
SAPA_PROFIL
 62
     4
 10
70.199999999289531
 20
57.031441188161352
 30
0.0
  0
VERTEX
  5
1D3C
  8
SAPA_PROFIL
 62
     4
 10
69.999999999289713
 20
57.031441188161352
 30
0.0
 42
-0.4142135623730951
  0
VERTEX
  5
1D3D
  8
SAPA_PROFIL
 62
     4
 10
69.499999999289713
 20
57.531441188161352
 30
0.0
  0
VERTEX
  5
1D3E
  8
SAPA_PROFIL
 62
     4
 10
69.499999999290623
 20
59.281441188161352
 30
0.0
 42
-0.4142135623726955
  0
VERTEX
  5
1D3F
  8
SAPA_PROFIL
 62
     4
 10
69.999999999624393
 20
59.781441188161352
 30
0.0
  0
VERTEX
  5
1D40
  8
SAPA_PROFIL
 62
     4
 10
82.999999999631669
 20
59.78144118816158
 30
0.0
 42
-0.4142135623732284
  0
VERTEX
  5
1D41
  8
SAPA_PROFIL
 62
     4
 10
83.499999999908169
 20
59.281441188163171
 30
0.0
  0
VERTEX
  5
1D42
  8
SAPA_PROFIL
 62
     4
 10
83.499999999908169
 20
57.531441188163171
 30
0.0
 42
-0.4142135623730951
  0
VERTEX
  5
1D43
  8
SAPA_PROFIL
 62
     4
 10
82.999999999908155
 20
57.031441188163171
 30
0.0
  0
VERTEX
  5
1D44
  8
SAPA_PROFIL
 62
     4
 10
82.799999999908351
 20
57.031441188163171
 30
0.0
 42
-0.4142135623730951
  0
VERTEX
  5
1D45
  8
SAPA_PROFIL
 62
     4
 10
82.499999999908184
 20
57.331441188163353
 30
0.0
  0
VERTEX
  5
1D46
  8
SAPA_PROFIL
 62
     4
 10
82.499999999908184
 20
57.98144118816321
 30
0.0
 42
0.4142135623730951
  0
VERTEX
  5
1D47
  8
SAPA_PROFIL
 62
     4
 10
82.199999999908897
 20
58.281441188163171
 30
0.0
  0
VERTEX
  5
1D48
  8
SAPA_PROFIL
 62
     4
 10
81.29999999991108
 20
58.281441188163171
 30
0.0
 42
0.4142135623730951
  0
VERTEX
  5
1D49
  8
SAPA_PROFIL
 62
     4
 10
80.799999999911066
 20
57.781441188163171
 30
0.0
  0
VERTEX
  5
1D4A
  8
SAPA_PROFIL
 62
     4
 10
80.799999999911066
 20
51.781441188163171
 30
0.0
 42
0.4142135623730951
  0
VERTEX
  5
1D4B
  8
SAPA_PROFIL
 62
     4
 10
81.29999999991108
 20
51.281441188163171
 30
0.0
  0
VERTEX
  5
1D4C
  8
SAPA_PROFIL
 62
     4
 10
82.199999999908897
 20
51.281441188163171
 30
0.0
 42
0.4142135623730953
  0
VERTEX
  5
1D4D
  8
SAPA_PROFIL
 62
     4
 10
82.499999999908184
 20
51.581441188163353
 30
0.0
  0
VERTEX
  5
1D4E
  8
SAPA_PROFIL
 62
     4
 10
82.499999999908184
 20
52.23144118816321
 30
0.0
 42
-0.4142135623730951
  0
VERTEX
  5
1D4F
  8
SAPA_PROFIL
 62
     4
 10
82.799999999908351
 20
52.531441188163171
 30
0.0
  0
VERTEX
  5
1D50
  8
SAPA_PROFIL
 62
     4
 10
82.999999999908155
 20
52.531441188163171
 30
0.0
 42
-0.4142135623730951
  0
VERTEX
  5
1D51
  8
SAPA_PROFIL
 62
     4
 10
83.499999999908169
 20
52.031441188163171
 30
0.0
  0
VERTEX
  5
1D52
  8
SAPA_PROFIL
 62
     4
 10
83.499999999908169
 20
49.031441188163171
 30
0.0
 42
-0.4142135623730951
  0
VERTEX
  5
1D53
  8
SAPA_PROFIL
 62
     4
 10
82.999999999908155
 20
48.531441188163171
 30
0.0
  0
VERTEX
  5
1D54
  8
SAPA_PROFIL
 62
     4
 10
82.799999999915627
 20
48.531441188162027
 30
0.0
 42
-0.414213562372873
  0
VERTEX
  5
1D55
  8
SAPA_PROFIL
 62
     4
 10
82.499999999913626
 20
48.83144118816017
 30
0.0
  0
VERTEX
  5
1D56
  8
SAPA_PROFIL
 62
     4
 10
82.499999999910884
 20
49.48144118816117
 30
0.0
 42
0.4142135623722071
  0
VERTEX
  5
1D57
  8
SAPA_PROFIL
 62
     4
 10
82.199999999909807
 20
49.781441188160223
 30
0.0
  0
VERTEX
  5
1D58
  8
SAPA_PROFIL
 62
     4
 10
81.29999999991108
 20
49.781441188160223
 30
0.0
 42
0.4142135623730951
  0
VERTEX
  5
1D59
  8
SAPA_PROFIL
 62
     4
 10
80.799999999911066
 20
49.281441188160208
 30
0.0
  0
VERTEX
  5
1D5A
  8
SAPA_PROFIL
 62
     4
 10
80.799999999918356
 20
43.281441188158162
 30
0.0
 42
0.4142135623730951
  0
VERTEX
  5
1D5B
  8
SAPA_PROFIL
 62
     4
 10
81.299999999918356
 20
42.781441188158162
 30
0.0
  0
VERTEX
  5
1D5C
  8
SAPA_PROFIL
 62
     4
 10
82.199999999915264
 20
42.781441188158162
 30
0.0
 42
0.4142135623730951
  0
VERTEX
  5
1D5D
  8
SAPA_PROFIL
 62
     4
 10
82.499999999915445
 20
43.081441188158337
 30
0.0
  0
VERTEX
  5
1D5E
  8
SAPA_PROFIL
 62
     4
 10
82.499999999915445
 20
43.731441188160261
 30
0.0
 42
-0.4142135623730951
  0
VERTEX
  5
1D5F
  8
SAPA_PROFIL
 62
     4
 10
82.799999999915627
 20
44.031441188160223
 30
0.0
  0
VERTEX
  5
1D60
  8
SAPA_PROFIL
 62
     4
 10
82.999999999915445
 20
44.031441188160223
 30
0.0
 42
-0.4142135623730951
  0
VERTEX
  5
1D61
  8
SAPA_PROFIL
 62
     4
 10
83.499999999915445
 20
43.531441188160208
 30
0.0
  0
VERTEX
  5
1D62
  8
SAPA_PROFIL
 62
     4
 10
83.499999999833577
 20
17.733706161236341
 30
0.0
 42
0.414213562374094
  0
VERTEX
  5
1D63
  8
SAPA_PROFIL
 62
     4
 10
84.699999999833409
 20
16.533706161232431
 30
0.0
  0
VERTEX
  5
1D64
  8
SAPA_PROFIL
 62
     4
 10
87.428481349913483
 20
16.5337061612322
 30
0.0
  0
SEQEND
  5
1D65
  8
SAPA_PROFIL
 62
     4
  0
POLYLINE
  5
10D5
  8
SAPA_PROFIL
 62
     4
 66
     1
 10
0.0
 20
0.0
 30
0.0
 70
     1
  0
VERTEX
  5
1D66
  8
SAPA_PROFIL
 62
     4
 10
79.799999931868143
 20
41.497179717642673
 30
0.0
  0
VERTEX
  5
1D67
  8
SAPA_PROFIL
 62
     4
 10
72.299999931309713
 20
41.497179717638573
 30
0.0
 42
0.4142135623730951
  0
VERTEX
  5
1D68
  8
SAPA_PROFIL
 62
     4
 10
71.299999931309713
 20
40.497179717638573
 30
0.0
  0
VERTEX
  5
1D69
  8
SAPA_PROFIL
 62
     4
 10
71.299999931294252
 20
17.34944469071479
 30
0.0
 42
0.4142135623730949
  0
VERTEX
  5
1D6A
  8
SAPA_PROFIL
 62
     4
 10
72.099999931294434
 20
16.549444690714608
 30
0.0
  0
VERTEX
  5
1D6B
  8
SAPA_PROFIL
 62
     4
 10
80.899999931813028
 20
16.549444690714608
 30
0.0
 42
0.414213562373428
  0
VERTEX
  5
1D6C
  8
SAPA_PROFIL
 62
     4
 10
81.699999931813196
 20
17.3494446907157
 30
0.0
  0
VERTEX
  5
1D6D
  8
SAPA_PROFIL
 62
     4
 10
81.699999931789563
 20
40.497179717642659
 30
0.0
 42
0.4142135623724957
  0
VERTEX
  5
1D6E
  8
SAPA_PROFIL
 62
     4
 10
80.699999931790472
 20
41.497179717640613
 30
0.0
  0
SEQEND
  5
1D6F
  8
SAPA_PROFIL
 62
     4
  0
LINE
  5
1125
  8
SAPA_GLAS
 10
25.800000000151819
 20
65.000000000011028
 30
0.0
 11
25.71134668044019
 21
64.497222039660301
 31
0.0
  0
LINE
  5
1126
  8
SAPA_GLAS
 10
29.80953893078533
 20
63.013030214905903
 30
0.0
 11
29.99999999966327
 21
63.013030214905903
 31
0.0
  0
ARC
  5
1127
  8
SAPA_GLAS
 10
27.999999999661451
 20
79.584669372822276
 30
0.0
 40
9.9869792597787779
 50
258.44779235426699
 51
281.55220764573289
  0
LINE
  5
1128
  8
SAPA_GLAS
 10
62.19999999917502
 20
65.000000000011028
 30
0.0
 11
62.288653318886638
 21
64.497222039660286
 31
0.0
  0
LINE
  5
1129
  8
SAPA_GLAS
 10
58.190461068541531
 20
63.013030214905889
 30
0.0
 11
57.999999999663579
 21
63.013030214905889
 31
0.0
  0
ARC
  5
112A
  8
SAPA_GLAS
 10
59.999999999665398
 20
79.584669372822262
 30
0.0
 40
9.9869792597787779
 50
258.44779235426699
 51
281.55220764573289
  0
POLYLINE
  5
112B
  8
SAPA_GLAS
 66
     1
 10
0.0
 20
0.0
 30
0.0
 70
     1
  0
VERTEX
  5
1DF2
  8
SAPA_GLAS
 10
58.122788370629337
 20
62.23952773350004
 30
0.0
 42
-0.1316524975872964
  0
VERTEX
  5
1DF3
  8
SAPA_GLAS
 10
58.190461068971381
 20
63.013030214989008
 30
0.0
  0
VERTEX
  5
1DF4
  8
SAPA_GLAS
 10
58.742648855432549
 20
64.530153689609605
 30
0.0
 42
-0.4142135623734131
  0
VERTEX
  5
1DF5
  8
SAPA_GLAS
 10
59.383505237487547
 20
64.828989928339894
 30
0.0
  0
VERTEX
  5
1DF6
  8
SAPA_GLAS
 10
59.571443761646727
 20
64.760585899674084
 30
0.0
 42
-0.4142135623732762
  0
VERTEX
  5
1DF7
  8
SAPA_GLAS
 10
59.750745504888442
 20
64.376072070439463
 30
0.0
  0
VERTEX
  5
1DF8
  8
SAPA_GLAS
 10
59.742296497379932
 20
64.352858613121612
 30
0.0
 42
0.5773502691875974
  0
VERTEX
  5
1DF9
  8
SAPA_GLAS
 10
59.964964657074809
 20
64.08749303385386
 30
0.0
  0
VERTEX
  5
1DFA
  8
SAPA_GLAS
 10
64.280909496576555
 20
64.848510556303253
 30
0.0
 42
-0.4142135623736183
  0
VERTEX
  5
1DFB
  8
SAPA_GLAS
 10
64.628446275771182
 20
64.605162683699703
 30
0.0
  0
VERTEX
  5
1DFC
  8
SAPA_GLAS
 10
64.697905546838797
 20
64.211239582497114
 30
0.0
 42
-0.4142135623730951
  0
VERTEX
  5
1DFD
  8
SAPA_GLAS
 10
64.454557674239425
 20
63.863702803293499
 30
0.0
  0
VERTEX
  5
1DFE
  8
SAPA_GLAS
 10
59.513175911312501
 20
62.992403876507638
 30
0.0
 42
0.4142135623725704
  0
VERTEX
  5
1DFF
  8
SAPA_GLAS
 10
59.107596123643937
 20
62.4131759111688
 30
0.0
  0
VERTEX
  5
1E00
  8
SAPA_GLAS
 10
60.311266129733333
 20
55.586824088834078
 30
0.0
 42
-0.4663076581553405
  0
VERTEX
  5
1E01
  8
SAPA_GLAS
 10
59.81886225322399
 20
55.000000000000107
 30
0.0
  0
VERTEX
  5
1E02
  8
SAPA_GLAS
 10
28.181137747064561
 20
55.000000000000107
 30
0.0
 42
-0.4663076581553401
  0
VERTEX
  5
1E03
  8
SAPA_GLAS
 10
27.688733870558561
 20
55.586824088834128
 30
0.0
  0
VERTEX
  5
1E04
  8
SAPA_GLAS
 10
28.892403876644629
 20
62.4131759111688
 30
0.0
 42
0.4142135623725707
  0
VERTEX
  5
1E05
  8
SAPA_GLAS
 10
28.486824088976061
 20
62.992403876507638
 30
0.0
  0
VERTEX
  5
1E06
  8
SAPA_GLAS
 10
23.54544232604912
 20
63.863702803293499
 30
0.0
 42
-0.4142135623730951
  0
VERTEX
  5
1E07
  8
SAPA_GLAS
 10
23.302094453449751
 20
64.211239582497114
 30
0.0
  0
VERTEX
  5
1E08
  8
SAPA_GLAS
 10
23.371553724517369
 20
64.605162683699703
 30
0.0
 42
-0.4142135623736183
  0
VERTEX
  5
1E09
  8
SAPA_GLAS
 10
23.719090503711989
 20
64.848510556303253
 30
0.0
  0
VERTEX
  5
1E0A
  8
SAPA_GLAS
 10
28.035035343213739
 20
64.08749303385386
 30
0.0
 42
0.5773502691875974
  0
VERTEX
  5
1E0B
  8
SAPA_GLAS
 10
28.257703502908619
 20
64.352858613121612
 30
0.0
  0
VERTEX
  5
1E0C
  8
SAPA_GLAS
 10
28.249254495400098
 20
64.376072070439463
 30
0.0
 42
-0.4142135623732762
  0
VERTEX
  5
1E0D
  8
SAPA_GLAS
 10
28.428556238641828
 20
64.760585899674084
 30
0.0
  0
VERTEX
  5
1E0E
  8
SAPA_GLAS
 10
28.616494762801018
 20
64.828989928339894
 30
0.0
 42
-0.4142135623734131
  0
VERTEX
  5
1E0F
  8
SAPA_GLAS
 10
29.257351144855999
 20
64.530153689609605
 30
0.0
  0
VERTEX
  5
1E10
  8
SAPA_GLAS
 10
29.809538931317171
 20
63.013030214989008
 30
0.0
 42
-0.1316524975872963
  0
VERTEX
  5
1E11
  8
SAPA_GLAS
 10
29.877211629659211
 20
62.23952773350004
 30
0.0
  0
VERTEX
  5
1E12
  8
SAPA_GLAS
 10
28.818403711293691
 20
56.234729635534087
 30
0.0
 42
0.4663076581547951
  0
VERTEX
  5
1E13
  8
SAPA_GLAS
 10
29.01536526189615
 20
56.000000000000838
 30
0.0
  0
VERTEX
  5
1E14
  8
SAPA_GLAS
 10
58.984634738392408
 20
56.000000000000838
 30
0.0
 42
0.466307658154795
  0
VERTEX
  5
1E15
  8
SAPA_GLAS
 10
59.181596288994882
 20
56.234729635534087
 30
0.0
  0
SEQEND
  5
1E16
  8
SAPA_GLAS
  0
POLYLINE
  5
112C
  8
SAPA_GLAS
 66
     1
 10
0.0
 20
0.0
 30
0.0
  0
VERTEX
  5
1E17
  8
SAPA_GLAS
 10
58.000000000144432
 20
89.000000000000114
 30
0.0
  0
VERTEX
  5
1E18
  8
SAPA_GLAS
 10
58.000000000144432
 20
57.000000000000092
 30
0.0
  0
VERTEX
  5
1E19
  8
SAPA_GLAS
 10
54.000000000144432
 20
57.000000000000092
 30
0.0
  0
VERTEX
  5
1E1A
  8
SAPA_GLAS
 10
54.000000000144432
 20
89.000000000000114
 30
0.0
  0
SEQEND
  5
1E1B
  8
SAPA_GLAS
  0
POLYLINE
  5
112D
  8
SAPA_GLAS
 66
     1
 10
0.0
 20
0.0
 30
0.0
  0
VERTEX
  5
1E1C
  8
SAPA_GLAS
 10
34.000000000144283
 20
67.000000000000085
 30
0.0
  0
VERTEX
  5
1E1D
  8
SAPA_GLAS
 10
54.000000000144269
 20
67.000000000000085
 30
0.0
  0
VERTEX
  5
1E1E
  8
SAPA_GLAS
 10
54.000000000144269
 20
57.000000000000092
 30
0.0
  0
VERTEX
  5
1E1F
  8
SAPA_GLAS
 10
34.000000000144283
 20
57.000000000000092
 30
0.0
  0
VERTEX
  5
1E20
  8
SAPA_GLAS
 10
34.000000000144283
 20
67.000000000000085
 30
0.0
  0
SEQEND
  5
1E21
  8
SAPA_GLAS
  0
POLYLINE
  5
112E
  8
SAPA_GLAS
 66
     1
 10
0.0
 20
0.0
 30
0.0
  0
VERTEX
  5
1E22
  8
SAPA_GLAS
 10
30.000000000144279
 20
89.000000000000114
 30
0.0
  0
VERTEX
  5
1E23
  8
SAPA_GLAS
 10
30.000000000144279
 20
57.000000000000092
 30
0.0
  0
VERTEX
  5
1E24
  8
SAPA_GLAS
 10
34.000000000144283
 20
57.000000000000092
 30
0.0
  0
VERTEX
  5
1E25
  8
SAPA_GLAS
 10
34.000000000144283
 20
89.000000000000114
 30
0.0
  0
SEQEND
  5
1E26
  8
SAPA_GLAS
  0
INSERT
  5
112F
  8
SAPA_GLAS
  6
CONTINUOUS
  2
*X78
 10
0.0
 20
0.0
 30
0.0
1001
ACAD
1000
HATCH
1002
{
1070
    19
1000
ANSI37
1040
0.25
1040
0.0
1000
R14_HATCH_DATA
1000
112F
1011
1.0
1021
0.0
1031
0.0
1021
0.0
1031
0.0
1011
0.0
1021
0.0
1031
0.0
1021
1.0
1031
0.0
1011
0.0
1021
0.0
1031
0.0
1021
0.0
1031
1.0
1040
0.0
1010
0.0
1020
0.0
1030
1.0
1000
ANSI37
1070
     0
1070
     0
1071
        1
1071
        7
1070
     1
1070
     1
1071
       21
1040
58.000000000144432
1040
63.013030214905903
1040
0.0
1040
58.190461068941133
1040
63.013030214905889
1040
0.0
1040
58.742648855432549
1040
64.530153689609605
1040
-0.4142135623734131
1040
59.383505237487547
1040
64.828989928339894
1040
0.0
1040
59.571443761646727
1040
64.760585899674084
1040
-0.4142135623732763
1040
59.750745504888442
1040
64.376072070439463
1040
0.0
1040
59.742296497379932
1040
64.352858613121612
1040
0.5773502691875974
1040
59.964964657074809
1040
64.08749303385386
1040
0.0
1040
62.288653318880648
1040
64.497222039694307
1040
0.0
1040
62.19999999917502
1040
65.000000000011042
1040
-0.4142135618490765
1040
61.999999999533941
1040
65.200000000009965
1040
0.0
1040
61.999999999543043
1040
66.300000000010314
1040
-0.4142135623730326
1040
62.199999999532857
1040
66.500000000000099
1040
0.0
1040
62.999999999543022
1040
66.500000000011042
1040
0.4142135623730991
1040
63.499999999543043
1040
67.000000000011042
1040
0.0
1040
63.500000000023228
1040
68.000000000020165
1040
0.4142135623730991
1040
63.000000000023228
1040
68.500000000020165
1040
0.0
1040
62.20000000001307
1040
68.500000000011042
1040
-0.414213562373116
1040
62.000000000014133
1040
68.70000000000995
1040
0.0
1040
62.000000000023263
1040
69.800000000083088
1040
-0.1011549434801005
1040
58.000000000144432
1040
69.799999999912018
1040
0.0
1071
        0
1070
     0
1070
     1
1040
0.0
1040
0.25
1070
     0
1070
     2
1040
0.7853981633974483
1040
20.50000000000011
1040
41.999999998749601
1040
-0.5612660075668221
1040
0.5612660075668221
1070
     0
1040
2.3561944901923439
1040
20.50000000000011
1040
41.999999998749601
1040
-0.5612660075668221
1040
-0.5612660075668221
1070
     0
1040
0.0366580744024772
1071
        1
1040
59.748947531893108
1040
67.619373451306743
1040
0.0
1002
}
  0
INSERT
  5
1130
  8
SAPA_GLAS
  6
CONTINUOUS
  2
*X79
 10
0.0
 20
0.0
 30
0.0
1001
ACAD
1000
HATCH
1002
{
1070
    19
1000
ANSI37
1040
0.25
1040
0.0
1000
R14_HATCH_DATA
1000
1130
1011
1.0
1021
0.0
1031
0.0
1021
0.0
1031
0.0
1011
0.0
1021
0.0
1031
0.0
1021
1.0
1031
0.0
1011
0.0
1021
0.0
1031
0.0
1021
0.0
1031
1.0
1040
0.0
1010
0.0
1020
0.0
1030
1.0
1000
ANSI37
1070
     0
1070
     0
1071
        1
1071
        7
1070
     1
1070
     1
1071
       21
1040
25.799999999669701
1040
68.500000000011042
1040
0.0
1040
24.999999999659551
1040
68.500000000020165
1040
0.4142135623730991
1040
24.499999999659551
1040
68.000000000020165
1040
0.0
1040
24.500000000139728
1040
67.000000000011042
1040
0.4142135623730991
1040
25.00000000013976
1040
66.500000000011042
1040
0.0
1040
25.800000000149922
1040
66.500000000000099
1040
-0.4142135623730326
1040
26.000000000139728
1040
66.300000000010314
1040
0.0
1040
26.00000000014882
1040
65.200000000009965
1040
-0.4142135623703427
1040
25.800000000151819
1040
65.000000000011028
1040
0.0
1040
25.711346680475192
1040
64.497222039858769
1040
0.0
1040
28.035035343213739
1040
64.08749303385386
1040
0.5773502691875974
1040
28.257703502908619
1040
64.352858613121612
1040
0.0
1040
28.249254495400098
1040
64.376072070439463
1040
-0.4142135623732763
1040
28.428556238641828
1040
64.760585899674084
1040
0.0
1040
28.616494762801018
1040
64.828989928339894
1040
-0.4142135623734131
1040
29.257351144855999
1040
64.530153689609605
1040
0.0
1040
29.809538931347419
1040
63.013030214905903
1040
0.0
1040
30.000000000144279
1040
63.013030214905903
1040
0.0
1040
30.000000000144279
1040
69.800000000108639
1040
-0.1011549434957405
1040
25.999999999659519
1040
69.800000000010343
1040
0.0
1040
25.999999999668638
1040
68.70000000000995
1040
-0.414213562373116
1071
        0
1070
     0
1070
     1
1040
0.0
1040
0.25
1070
     0
1070
     2
1040
0.7853981633974483
1040
20.50000000000011
1040
41.999999998749601
1040
-0.5612660075668221
1040
0.5612660075668221
1070
     0
1040
2.3561944901923439
1040
20.50000000000011
1040
41.999999998749601
1040
-0.5612660075668221
1040
-0.5612660075668221
1070
     0
1040
0.0366580744024772
1071
        1
1040
27.35750056032844
1040
67.509399136627394
1040
0.0
1002
}
  0
POLYLINE
  5
1155
  8
SAPA_FOGBAND
 66
     1
 10
0.0
 20
0.0
 30
0.0
 70
     1
  0
VERTEX
  5
1EF8
  8
SAPA_FOGBAND
 10
16.250000000010221
 20
49.649999999982533
 30
0.0
  0
VERTEX
  5
1EF9
  8
SAPA_FOGBAND
 10
17.0500000000104
 20
49.649999999982533
 30
0.0
  0
VERTEX
  5
1EFA
  8
SAPA_FOGBAND
 10
17.0500000000104
 20
43.34999999998545
 30
0.0
  0
VERTEX
  5
1EFB
  8
SAPA_FOGBAND
 10
16.250000000010221
 20
43.34999999998545
 30
0.0
  0
SEQEND
  5
1EFC
  8
SAPA_FOGBAND
  0
POLYLINE
  5
1156
  8
SAPA_FOGBAND
 66
     1
 10
0.0
 20
0.0
 30
0.0
  0
VERTEX
  5
1EFD
  8
SAPA_FOGBAND
 10
17.0500000000104
 20
44.927310396842941
 30
0.0
  0
VERTEX
  5
1EFE
  8
SAPA_FOGBAND
 10
20.500000000010221
 20
43.801863799527027
 30
0.0
  0
VERTEX
  5
1EFF
  8
SAPA_FOGBAND
 10
20.500000000010221
 20
46.240001846075558
 30
0.0
  0
VERTEX
  5
1F00
  8
SAPA_FOGBAND
 10
17.0500000000104
 20
46.349999999982529
 30
0.0
  0
SEQEND
  5
1F01
  8
SAPA_FOGBAND
  0
POLYLINE
  5
1157
  8
SAPA_FOGBAND
 66
     1
 10
0.0
 20
0.0
 30
0.0
  0
VERTEX
  5
1F02
  8
SAPA_FOGBAND
 10
17.0500000000104
 20
46.424999999983257
 30
0.0
  0
VERTEX
  5
1F03
  8
SAPA_FOGBAND
 10
20.500000000010221
 20
46.424999999986539
 30
0.0
  0
VERTEX
  5
1F04
  8
SAPA_FOGBAND
 10
20.500000000010221
 20
46.574999999984719
 30
0.0
  0
VERTEX
  5
1F05
  8
SAPA_FOGBAND
 10
17.0500000000104
 20
46.574999999984719
 30
0.0
  0
SEQEND
  5
1F06
  8
SAPA_FOGBAND
  0
POLYLINE
  5
1158
  8
SAPA_FOGBAND
 66
     1
 10
0.0
 20
0.0
 30
0.0
  0
VERTEX
  5
1F07
  8
SAPA_FOGBAND
 10
17.0500000000104
 20
46.649999999985447
 30
0.0
  0
VERTEX
  5
1F08
  8
SAPA_FOGBAND
 10
20.500000000010221
 20
46.759997385167694
 30
0.0
  0
VERTEX
  5
1F09
  8
SAPA_FOGBAND
 10
20.500000000010221
 20
49.198090725589857
 30
0.0
  0
VERTEX
  5
1F0A
  8
SAPA_FOGBAND
 10
17.0500000000104
 20
48.072689603125028
 30
0.0
  0
SEQEND
  5
1F0B
  8
SAPA_FOGBAND
  0
POLYLINE
  5
1159
  8
SAPA_FOGBAND
 66
     1
 10
0.0
 20
0.0
 30
0.0
 70
     1
  0
VERTEX
  5
1F0C
  8
SAPA_FOGBAND
 10
16.250000000010221
 20
58.149999999997092
 30
0.0
  0
VERTEX
  5
1F0D
  8
SAPA_FOGBAND
 10
17.0500000000104
 20
58.149999999997092
 30
0.0
  0
VERTEX
  5
1F0E
  8
SAPA_FOGBAND
 10
17.0500000000104
 20
51.850000000000001
 30
0.0
  0
VERTEX
  5
1F0F
  8
SAPA_FOGBAND
 10
16.250000000010221
 20
51.850000000000001
 30
0.0
  0
SEQEND
  5
1F10
  8
SAPA_FOGBAND
  0
POLYLINE
  5
115A
  8
SAPA_FOGBAND
 66
     1
 10
0.0
 20
0.0
 30
0.0
  0
VERTEX
  5
1F11
  8
SAPA_FOGBAND
 10
17.0500000000104
 20
53.4273103968575
 30
0.0
  0
VERTEX
  5
1F12
  8
SAPA_FOGBAND
 10
20.500000000010221
 20
52.301863799541579
 30
0.0
  0
VERTEX
  5
1F13
  8
SAPA_FOGBAND
 10
20.500000000010221
 20
54.740001846090109
 30
0.0
  0
VERTEX
  5
1F14
  8
SAPA_FOGBAND
 10
17.0500000000104
 20
54.849999999997081
 30
0.0
  0
SEQEND
  5
1F15
  8
SAPA_FOGBAND
  0
POLYLINE
  5
115B
  8
SAPA_FOGBAND
 66
     1
 10
0.0
 20
0.0
 30
0.0
  0
VERTEX
  5
1F16
  8
SAPA_FOGBAND
 10
17.0500000000104
 20
54.924999999997823
 30
0.0
  0
VERTEX
  5
1F17
  8
SAPA_FOGBAND
 10
20.500000000010221
 20
54.925000000001091
 30
0.0
  0
VERTEX
  5
1F18
  8
SAPA_FOGBAND
 10
20.500000000010221
 20
55.074999999999278
 30
0.0
  0
VERTEX
  5
1F19
  8
SAPA_FOGBAND
 10
17.0500000000104
 20
55.074999999999271
 30
0.0
  0
SEQEND
  5
1F1A
  8
SAPA_FOGBAND
  0
POLYLINE
  5
115C
  8
SAPA_FOGBAND
 66
     1
 10
0.0
 20
0.0
 30
0.0
  0
VERTEX
  5
1F1B
  8
SAPA_FOGBAND
 10
17.0500000000104
 20
55.149999999999999
 30
0.0
  0
VERTEX
  5
1F1C
  8
SAPA_FOGBAND
 10
20.500000000010221
 20
55.259997385182238
 30
0.0
  0
VERTEX
  5
1F1D
  8
SAPA_FOGBAND
 10
20.500000000010221
 20
57.698090725604409
 30
0.0
  0
VERTEX
  5
1F1E
  8
SAPA_FOGBAND
 10
17.0500000000104
 20
56.572689603139587
 30
0.0
  0
SEQEND
  5
1F1F
  8
SAPA_FOGBAND
  0
POLYLINE
  5
115D
  8
SAPA_FOGBAND
 66
     1
 10
0.0
 20
0.0
 30
0.0
 70
     1
  0
VERTEX
  5
1F20
  8
SAPA_FOGBAND
 10
71.749999999672553
 20
49.431441188146799
 30
0.0
  0
VERTEX
  5
1F21
  8
SAPA_FOGBAND
 10
70.949999999672372
 20
49.431441188146799
 30
0.0
  0
VERTEX
  5
1F22
  8
SAPA_FOGBAND
 10
70.949999999672372
 20
43.131441188149708
 30
0.0
  0
VERTEX
  5
1F23
  8
SAPA_FOGBAND
 10
71.749999999672553
 20
43.131441188149708
 30
0.0
  0
SEQEND
  5
1F24
  8
SAPA_FOGBAND
  0
POLYLINE
  5
115E
  8
SAPA_FOGBAND
 66
     1
 10
0.0
 20
0.0
 30
0.0
  0
VERTEX
  5
1F25
  8
SAPA_FOGBAND
 10
70.949999999672372
 20
44.708751585007207
 30
0.0
  0
VERTEX
  5
1F26
  8
SAPA_FOGBAND
 10
67.499999999672553
 20
43.583304987691292
 30
0.0
  0
VERTEX
  5
1F27
  8
SAPA_FOGBAND
 10
67.499999999672553
 20
46.021443034239823
 30
0.0
  0
VERTEX
  5
1F28
  8
SAPA_FOGBAND
 10
70.949999999672372
 20
46.131441188146802
 30
0.0
  0
SEQEND
  5
1F29
  8
SAPA_FOGBAND
  0
POLYLINE
  5
115F
  8
SAPA_FOGBAND
 66
     1
 10
0.0
 20
0.0
 30
0.0
  0
VERTEX
  5
1F2A
  8
SAPA_FOGBAND
 10
70.949999999672372
 20
46.206441188147529
 30
0.0
  0
VERTEX
  5
1F2B
  8
SAPA_FOGBAND
 10
67.499999999672553
 20
46.206441188150798
 30
0.0
  0
VERTEX
  5
1F2C
  8
SAPA_FOGBAND
 10
67.499999999672553
 20
46.356441188148992
 30
0.0
  0
VERTEX
  5
1F2D
  8
SAPA_FOGBAND
 10
70.949999999672372
 20
46.356441188148978
 30
0.0
  0
SEQEND
  5
1F2E
  8
SAPA_FOGBAND
  0
POLYLINE
  5
1160
  8
SAPA_FOGBAND
 66
     1
 10
0.0
 20
0.0
 30
0.0
  0
VERTEX
  5
1F2F
  8
SAPA_FOGBAND
 10
70.949999999672372
 20
46.431441188149712
 30
0.0
  0
VERTEX
  5
1F30
  8
SAPA_FOGBAND
 10
67.499999999672553
 20
46.541438573331952
 30
0.0
  0
VERTEX
  5
1F31
  8
SAPA_FOGBAND
 10
67.499999999672553
 20
48.979531913754123
 30
0.0
  0
VERTEX
  5
1F32
  8
SAPA_FOGBAND
 10
70.949999999672372
 20
47.8541307912893
 30
0.0
  0
SEQEND
  5
1F33
  8
SAPA_FOGBAND
  0
POLYLINE
  5
1161
  8
SAPA_FOGBAND
 66
     1
 10
0.0
 20
0.0
 30
0.0
 70
     1
  0
VERTEX
  5
1F34
  8
SAPA_FOGBAND
 10
71.749999999672553
 20
57.931441188161351
 30
0.0
  0
VERTEX
  5
1F35
  8
SAPA_FOGBAND
 10
70.949999999672372
 20
57.931441188161351
 30
0.0
  0
VERTEX
  5
1F36
  8
SAPA_FOGBAND
 10
70.949999999672372
 20
51.63144118816426
 30
0.0
  0
VERTEX
  5
1F37
  8
SAPA_FOGBAND
 10
71.749999999672553
 20
51.63144118816426
 30
0.0
  0
SEQEND
  5
1F38
  8
SAPA_FOGBAND
  0
POLYLINE
  5
1162
  8
SAPA_FOGBAND
 66
     1
 10
0.0
 20
0.0
 30
0.0
  0
VERTEX
  5
1F39
  8
SAPA_FOGBAND
 10
70.949999999672372
 20
53.208751585021759
 30
0.0
  0
VERTEX
  5
1F3A
  8
SAPA_FOGBAND
 10
67.499999999672553
 20
52.083304987705837
 30
0.0
  0
VERTEX
  5
1F3B
  8
SAPA_FOGBAND
 10
67.499999999672553
 20
54.521443034254382
 30
0.0
  0
VERTEX
  5
1F3C
  8
SAPA_FOGBAND
 10
70.949999999672372
 20
54.631441188161347
 30
0.0
  0
SEQEND
  5
1F3D
  8
SAPA_FOGBAND
  0
POLYLINE
  5
1163
  8
SAPA_FOGBAND
 66
     1
 10
0.0
 20
0.0
 30
0.0
  0
VERTEX
  5
1F3E
  8
SAPA_FOGBAND
 10
70.949999999672372
 20
54.706441188162081
 30
0.0
  0
VERTEX
  5
1F3F
  8
SAPA_FOGBAND
 10
67.499999999672553
 20
54.706441188165357
 30
0.0
  0
VERTEX
  5
1F40
  8
SAPA_FOGBAND
 10
67.499999999672553
 20
54.856441188163537
 30
0.0
  0
VERTEX
  5
1F41
  8
SAPA_FOGBAND
 10
70.949999999672372
 20
54.856441188163529
 30
0.0
  0
SEQEND
  5
1F42
  8
SAPA_FOGBAND
  0
POLYLINE
  5
1164
  8
SAPA_FOGBAND
 66
     1
 10
0.0
 20
0.0
 30
0.0
  0
VERTEX
  5
1F43
  8
SAPA_FOGBAND
 10
70.949999999672372
 20
54.931441188164257
 30
0.0
  0
VERTEX
  5
1F44
  8
SAPA_FOGBAND
 10
67.499999999672553
 20
55.041438573346511
 30
0.0
  0
VERTEX
  5
1F45
  8
SAPA_FOGBAND
 10
67.499999999672553
 20
57.479531913768668
 30
0.0
  0
VERTEX
  5
1F46
  8
SAPA_FOGBAND
 10
70.949999999672372
 20
56.354130791303852
 30
0.0
  0
SEQEND
  5
1F47
  8
SAPA_FOGBAND
  0
POLYLINE
  5
1165
  8
SAPA_FOGBAND
 66
     1
 10
0.0
 20
0.0
 30
0.0
 70
     1
  0
VERTEX
  5
1F48
  8
SAPA_FOGBAND
 10
136.7499999277311
 20
49.649999999982533
 30
0.0
  0
VERTEX
  5
1F49
  8
SAPA_FOGBAND
 10
135.94999992773089
 20
49.649999999982533
 30
0.0
  0
VERTEX
  5
1F4A
  8
SAPA_FOGBAND
 10
135.94999992773089
 20
43.34999999998545
 30
0.0
  0
VERTEX
  5
1F4B
  8
SAPA_FOGBAND
 10
136.7499999277311
 20
43.34999999998545
 30
0.0
  0
SEQEND
  5
1F4C
  8
SAPA_FOGBAND
  0
POLYLINE
  5
1166
  8
SAPA_FOGBAND
 66
     1
 10
0.0
 20
0.0
 30
0.0
  0
VERTEX
  5
1F4D
  8
SAPA_FOGBAND
 10
135.94999992773089
 20
44.927310396842941
 30
0.0
  0
VERTEX
  5
1F4E
  8
SAPA_FOGBAND
 10
132.4999999277311
 20
43.801863799527027
 30
0.0
  0
VERTEX
  5
1F4F
  8
SAPA_FOGBAND
 10
132.4999999277311
 20
46.240001846075558
 30
0.0
  0
VERTEX
  5
1F50
  8
SAPA_FOGBAND
 10
135.94999992773089
 20
46.349999999982529
 30
0.0
  0
SEQEND
  5
1F51
  8
SAPA_FOGBAND
  0
POLYLINE
  5
1167
  8
SAPA_FOGBAND
 66
     1
 10
0.0
 20
0.0
 30
0.0
  0
VERTEX
  5
1F52
  8
SAPA_FOGBAND
 10
135.94999992773089
 20
46.424999999983257
 30
0.0
  0
VERTEX
  5
1F53
  8
SAPA_FOGBAND
 10
132.4999999277311
 20
46.424999999986539
 30
0.0
  0
VERTEX
  5
1F54
  8
SAPA_FOGBAND
 10
132.4999999277311
 20
46.574999999984719
 30
0.0
  0
VERTEX
  5
1F55
  8
SAPA_FOGBAND
 10
135.94999992773089
 20
46.574999999984719
 30
0.0
  0
SEQEND
  5
1F56
  8
SAPA_FOGBAND
  0
POLYLINE
  5
1168
  8
SAPA_FOGBAND
 66
     1
 10
0.0
 20
0.0
 30
0.0
  0
VERTEX
  5
1F57
  8
SAPA_FOGBAND
 10
135.94999992773089
 20
46.649999999985447
 30
0.0
  0
VERTEX
  5
1F58
  8
SAPA_FOGBAND
 10
132.4999999277311
 20
46.759997385167694
 30
0.0
  0
VERTEX
  5
1F59
  8
SAPA_FOGBAND
 10
132.4999999277311
 20
49.198090725589857
 30
0.0
  0
VERTEX
  5
1F5A
  8
SAPA_FOGBAND
 10
135.94999992773089
 20
48.072689603125028
 30
0.0
  0
SEQEND
  5
1F5B
  8
SAPA_FOGBAND
  0
POLYLINE
  5
1169
  8
SAPA_FOGBAND
 66
     1
 10
0.0
 20
0.0
 30
0.0
 70
     1
  0
VERTEX
  5
1F5C
  8
SAPA_FOGBAND
 10
136.7499999277311
 20
58.149999999997092
 30
0.0
  0
VERTEX
  5
1F5D
  8
SAPA_FOGBAND
 10
135.94999992773089
 20
58.149999999997092
 30
0.0
  0
VERTEX
  5
1F5E
  8
SAPA_FOGBAND
 10
135.94999992773089
 20
51.850000000000001
 30
0.0
  0
VERTEX
  5
1F5F
  8
SAPA_FOGBAND
 10
136.7499999277311
 20
51.850000000000001
 30
0.0
  0
SEQEND
  5
1F60
  8
SAPA_FOGBAND
  0
POLYLINE
  5
116A
  8
SAPA_FOGBAND
 66
     1
 10
0.0
 20
0.0
 30
0.0
  0
VERTEX
  5
1F61
  8
SAPA_FOGBAND
 10
135.94999992773089
 20
53.4273103968575
 30
0.0
  0
VERTEX
  5
1F62
  8
SAPA_FOGBAND
 10
132.4999999277311
 20
52.301863799541579
 30
0.0
  0
VERTEX
  5
1F63
  8
SAPA_FOGBAND
 10
132.4999999277311
 20
54.740001846090109
 30
0.0
  0
VERTEX
  5
1F64
  8
SAPA_FOGBAND
 10
135.94999992773089
 20
54.849999999997081
 30
0.0
  0
SEQEND
  5
1F65
  8
SAPA_FOGBAND
  0
POLYLINE
  5
116B
  8
SAPA_FOGBAND
 66
     1
 10
0.0
 20
0.0
 30
0.0
  0
VERTEX
  5
1F66
  8
SAPA_FOGBAND
 10
135.94999992773089
 20
54.924999999997823
 30
0.0
  0
VERTEX
  5
1F67
  8
SAPA_FOGBAND
 10
132.4999999277311
 20
54.925000000001091
 30
0.0
  0
VERTEX
  5
1F68
  8
SAPA_FOGBAND
 10
132.4999999277311
 20
55.074999999999278
 30
0.0
  0
VERTEX
  5
1F69
  8
SAPA_FOGBAND
 10
135.94999992773089
 20
55.074999999999271
 30
0.0
  0
SEQEND
  5
1F6A
  8
SAPA_FOGBAND
  0
POLYLINE
  5
116C
  8
SAPA_FOGBAND
 66
     1
 10
0.0
 20
0.0
 30
0.0
  0
VERTEX
  5
1F6B
  8
SAPA_FOGBAND
 10
135.94999992773089
 20
55.149999999999999
 30
0.0
  0
VERTEX
  5
1F6C
  8
SAPA_FOGBAND
 10
132.4999999277311
 20
55.259997385182238
 30
0.0
  0
VERTEX
  5
1F6D
  8
SAPA_FOGBAND
 10
132.4999999277311
 20
57.698090725604409
 30
0.0
  0
VERTEX
  5
1F6E
  8
SAPA_FOGBAND
 10
135.94999992773089
 20
56.572689603139587
 30
0.0
  0
SEQEND
  5
1F6F
  8
SAPA_FOGBAND
  0
POLYLINE
  5
116D
  8
SAPA_FOGBAND
 66
     1
 10
0.0
 20
0.0
 30
0.0
 70
     1
  0
VERTEX
  5
1F70
  8
SAPA_FOGBAND
 10
81.249999999907985
 20
49.431441188146799
 30
0.0
  0
VERTEX
  5
1F71
  8
SAPA_FOGBAND
 10
82.049999999908167
 20
49.431441188146799
 30
0.0
  0
VERTEX
  5
1F72
  8
SAPA_FOGBAND
 10
82.049999999908167
 20
43.131441188149708
 30
0.0
  0
VERTEX
  5
1F73
  8
SAPA_FOGBAND
 10
81.249999999907985
 20
43.131441188149708
 30
0.0
  0
SEQEND
  5
1F74
  8
SAPA_FOGBAND
  0
POLYLINE
  5
116E
  8
SAPA_FOGBAND
 66
     1
 10
0.0
 20
0.0
 30
0.0
  0
VERTEX
  5
1F75
  8
SAPA_FOGBAND
 10
82.049999999908167
 20
44.708751585007207
 30
0.0
  0
VERTEX
  5
1F76
  8
SAPA_FOGBAND
 10
85.499999999907985
 20
43.583304987691292
 30
0.0
  0
VERTEX
  5
1F77
  8
SAPA_FOGBAND
 10
85.499999999907985
 20
46.021443034239823
 30
0.0
  0
VERTEX
  5
1F78
  8
SAPA_FOGBAND
 10
82.049999999908167
 20
46.131441188146802
 30
0.0
  0
SEQEND
  5
1F79
  8
SAPA_FOGBAND
  0
POLYLINE
  5
116F
  8
SAPA_FOGBAND
 66
     1
 10
0.0
 20
0.0
 30
0.0
  0
VERTEX
  5
1F7A
  8
SAPA_FOGBAND
 10
82.049999999908167
 20
46.206441188147529
 30
0.0
  0
VERTEX
  5
1F7B
  8
SAPA_FOGBAND
 10
85.499999999907985
 20
46.206441188150798
 30
0.0
  0
VERTEX
  5
1F7C
  8
SAPA_FOGBAND
 10
85.499999999907985
 20
46.356441188148992
 30
0.0
  0
VERTEX
  5
1F7D
  8
SAPA_FOGBAND
 10
82.049999999908167
 20
46.356441188148978
 30
0.0
  0
SEQEND
  5
1F7E
  8
SAPA_FOGBAND
  0
POLYLINE
  5
1170
  8
SAPA_FOGBAND
 66
     1
 10
0.0
 20
0.0
 30
0.0
  0
VERTEX
  5
1F7F
  8
SAPA_FOGBAND
 10
82.049999999908167
 20
46.431441188149712
 30
0.0
  0
VERTEX
  5
1F80
  8
SAPA_FOGBAND
 10
85.499999999907985
 20
46.541438573331952
 30
0.0
  0
VERTEX
  5
1F81
  8
SAPA_FOGBAND
 10
85.499999999907985
 20
48.979531913754123
 30
0.0
  0
VERTEX
  5
1F82
  8
SAPA_FOGBAND
 10
82.049999999908167
 20
47.8541307912893
 30
0.0
  0
SEQEND
  5
1F83
  8
SAPA_FOGBAND
  0
POLYLINE
  5
1171
  8
SAPA_FOGBAND
 66
     1
 10
0.0
 20
0.0
 30
0.0
 70
     1
  0
VERTEX
  5
1F84
  8
SAPA_FOGBAND
 10
81.249999999907985
 20
57.931441188161351
 30
0.0
  0
VERTEX
  5
1F85
  8
SAPA_FOGBAND
 10
82.049999999908167
 20
57.931441188161351
 30
0.0
  0
VERTEX
  5
1F86
  8
SAPA_FOGBAND
 10
82.049999999908167
 20
51.63144118816426
 30
0.0
  0
VERTEX
  5
1F87
  8
SAPA_FOGBAND
 10
81.249999999907985
 20
51.63144118816426
 30
0.0
  0
SEQEND
  5
1F88
  8
SAPA_FOGBAND
  0
POLYLINE
  5
1172
  8
SAPA_FOGBAND
 66
     1
 10
0.0
 20
0.0
 30
0.0
  0
VERTEX
  5
1F89
  8
SAPA_FOGBAND
 10
82.049999999908167
 20
53.208751585021759
 30
0.0
  0
VERTEX
  5
1F8A
  8
SAPA_FOGBAND
 10
85.499999999907985
 20
52.083304987705837
 30
0.0
  0
VERTEX
  5
1F8B
  8
SAPA_FOGBAND
 10
85.499999999907985
 20
54.521443034254382
 30
0.0
  0
VERTEX
  5
1F8C
  8
SAPA_FOGBAND
 10
82.049999999908167
 20
54.631441188161347
 30
0.0
  0
SEQEND
  5
1F8D
  8
SAPA_FOGBAND
  0
POLYLINE
  5
1173
  8
SAPA_FOGBAND
 66
     1
 10
0.0
 20
0.0
 30
0.0
  0
VERTEX
  5
1F8E
  8
SAPA_FOGBAND
 10
82.049999999908167
 20
54.706441188162081
 30
0.0
  0
VERTEX
  5
1F8F
  8
SAPA_FOGBAND
 10
85.499999999907985
 20
54.706441188165357
 30
0.0
  0
VERTEX
  5
1F90
  8
SAPA_FOGBAND
 10
85.499999999907985
 20
54.856441188163537
 30
0.0
  0
VERTEX
  5
1F91
  8
SAPA_FOGBAND
 10
82.049999999908167
 20
54.856441188163529
 30
0.0
  0
SEQEND
  5
1F92
  8
SAPA_FOGBAND
  0
POLYLINE
  5
1174
  8
SAPA_FOGBAND
 66
     1
 10
0.0
 20
0.0
 30
0.0
  0
VERTEX
  5
1F93
  8
SAPA_FOGBAND
 10
82.049999999908167
 20
54.931441188164257
 30
0.0
  0
VERTEX
  5
1F94
  8
SAPA_FOGBAND
 10
85.499999999907985
 20
55.041438573346511
 30
0.0
  0
VERTEX
  5
1F95
  8
SAPA_FOGBAND
 10
85.499999999907985
 20
57.479531913768668
 30
0.0
  0
VERTEX
  5
1F96
  8
SAPA_FOGBAND
 10
82.049999999908167
 20
56.354130791303852
 30
0.0
  0
SEQEND
  5
1F97
  8
SAPA_FOGBAND
  0
DIMENSION
  5
1181
  8
SAPA_MATT
  2
*D44
 10
-106.0
 20
60.00000000000103
 30
0.0
 11
-108.7513257575758
 21
-5.0000000000096394
 31
0.0
 70
     0
  1
min. 130
 13
-78.999999999999829
 23
-70.000000000020279
 33
0.0
 14
-95.999999999998096
 24
60.00000000000103
 34
0.0
 50
90.0
1001
ACAD
1000
DSTYLE
1002
{
1070
    40
1040
1.0
1002
}
  0
DIMENSION
  5
1182
  8
SAPA_MATT
  2
*D43
 10
14.00000000000011
 20
101.0000000000001
 30
0.0
 11
-29.99999999999989
 21
103.7500000000001
 31
0.0
 70
     0
 13
-73.999999999999886
 23
58.000000000001243
 33
0.0
 14
14.00000000000011
 24
58.499999999999417
 34
0.0
1001
ACAD
1000
DSTYLE
1002
{
1070
    40
1040
1.0
1002
}
  0
DIMENSION
  5
1183
  8
SAPA_MATT
  2
*D42
 10
138.99999999950211
 20
113.0000000000001
 30
0.0
 11
76.499999999751068
 21
115.7500000000001
 31
0.0
 70
     0
 13
14.00000000000003
 23
58.5
 33
0.0
 14
138.99999999950211
 24
60.0
 34
0.0
1001
ACAD
1000
DSTYLE
1002
{
1070
    40
1040
1.0
1002
}
  0
DIMENSION
  5
1184
  8
SAPA_MATT
  2
*D41
 10
138.99999999950211
 20
101.0000000000001
 30
0.0
 11
103.24999999950209
 21
103.7500000000001
 31
0.0
 70
     0
 13
67.499999999502137
 23
55.000000000019412
 33
0.0
 14
138.99999999950211
 24
58.5
 34
0.0
1001
ACAD
1000
DSTYLE
1002
{
1070
   287
1070
     4
1070
    40
1040
1.0
1070
   279
1070
     1
1002
}
  0
DIMENSION
  5
1185
  8
SAPA_MATT
  2
*D40
 10
67.499999999502137
 20
101.0000000000001
 30
0.0
 11
43.999999999841378
 21
103.7500000000001
 31
0.0
 70
     0
 13
20.500000000180631
 23
55.000000000019412
 33
0.0
 14
67.499999999502137
 24
55.000000000019412
 34
0.0
1001
ACAD
1000
DSTYLE
1002
{
1070
   287
1070
     4
1070
    40
1040
1.0
1070
   279
1070
     1
1002
}
  0
DIMENSION
  5
1186
  8
SAPA_MATT
  2
*D39
 10
20.500000000180631
 20
101.0000000000001
 30
0.0
 11
17.250000000090331
 21
101.0000000000001
 31
0.0
 70
   128
 13
14.00000000000003
 23
58.5
 33
0.0
 14
20.500000000180631
 24
55.000000000019412
 34
0.0
1001
ACAD
1000
DSTYLE
1002
{
1070
    40
1040
1.0
1002
}
  0
DIMENSION
  5
1187
  8
SAPA_MATT
  2
*D38
 10
-94.0
 20
70.00000000001107
 30
0.0
 11
-96.750000000000014
 21
65.000000000006025
 31
0.0
 70
     0
 13
-71.999999999998096
 23
60.00000000000103
 33
0.0
 14
22.250000000175579
 24
70.000000000011042
 34
0.0
 50
90.0
1001
ACAD
1000
DSTYLE
1002
{
1070
   287
1070
     4
1070
    40
1040
1.0
1070
   279
1070
     1
1002
}
  0
DIMENSION
  5
1188
  8
SAPA_MATT
  2
*D37
 10
-94.0
 20
60.00000000000103
 30
0.0
 11
-96.750000000000014
 21
1.500000000000528
 31
0.0
 70
     0
 13
15.37500000000003
 23
-56.999999999999972
 33
0.0
 14
-71.999999999998096
 24
60.00000000000103
 34
0.0
 50
90.0
1001
ACAD
1000
DSTYLE
1002
{
1070
    40
1040
1.0
1002
}
  0
VIEWPORT
  5
C4
 67
     1
  8
0
 10
160.5543545598442
 20
116.00969601843509
 30
0.0
 40
404.96977709277462
 41
256.8421457311839
 68
     1
 69
     1
1001
ACAD
1000
MVIEW
1002
{
1070
    16
1010
0.0
1020
0.0
1030
0.0
1010
0.0
1020
0.0
1030
1.0
1040
0.0
1040
256.8421457311839
1040
99.206250190734863
1040
130.70624923706049
1040
50.0
1040
0.0
1040
0.0
1070
     0
1070
     0
1070
     1
1070
     1
1070
     0
1070
     0
1070
     0
1070
     0
1040
0.0
1040
0.0
1040
0.0
1040
10.0
1040
10.0
1040
10.0
1040
10.0
1070
     0
1002
{
1002
}
1002
}
  0
ENDSEC
  0
EOF
