  0
SECTION
  2
HEADER
  9
$ACADVER
  1
AC1009
  9
$INSBASE
 10
0.0
 20
0.0
 30
0.0
  9
$EXTMIN
 10
-36.4914790590853
 20
-111.29283270962939
 30
-0.2
  9
$EXTMAX
 10
194.00325593439959
 20
119.2500000000001
 30
0.0000000048844772
  9
$LIMMIN
 10
0.0
 20
0.0
  9
$LIMMAX
 10
790.0
 20
790.0
  9
$ORTHOMODE
 70
     1
  9
$REGENMODE
 70
     1
  9
$FILLMODE
 70
     1
  9
$QTEXTMODE
 70
     0
  9
$MIRRTEXT
 70
     1
  9
$DRAGMODE
 70
     2
  9
$LTSCALE
 40
4.0
  9
$OSMODE
 70
    37
  9
$ATTMODE
 70
     1
  9
$TEXTSIZE
 40
3.5
  9
$TRACEWID
 40
0.05
  9
$TEXTSTYLE
  7
ISO
  9
$CLAYER
  8
0
  9
$CELTYPE
  6
BYLAYER
  9
$CECOLOR
 62
   256
  9
$DIMSCALE
 40
0.0
  9
$DIMASZ
 40
3.0
  9
$DIMEXO
 40
1.5
  9
$DIMDLI
 40
10.0
  9
$DIMRND
 40
0.0
  9
$DIMDLE
 40
0.0
  9
$DIMEXE
 40
1.5
  9
$DIMTP
 40
0.0
  9
$DIMTM
 40
0.0
  9
$DIMTXT
 40
3.5
  9
$DIMCEN
 40
-5.0
  9
$DIMTSZ
 40
0.0
  9
$DIMTOL
 70
     0
  9
$DIMLIM
 70
     0
  9
$DIMTIH
 70
     0
  9
$DIMTOH
 70
     0
  9
$DIMSE1
 70
     0
  9
$DIMSE2
 70
     0
  9
$DIMTAD
 70
     1
  9
$DIMZIN
 70
     8
  9
$DIMBLK
  1

  9
$DIMASO
 70
     1
  9
$DIMSHO
 70
     1
  9
$DIMPOST
  1

  9
$DIMAPOST
  1

  9
$DIMALT
 70
     0
  9
$DIMALTD
 70
     0
  9
$DIMALTF
 40
25.399999999999999
  9
$DIMLFAC
 40
-1.0
  9
$DIMTOFL
 70
     1
  9
$DIMTVP
 40
0.0
  9
$DIMTIX
 70
     0
  9
$DIMSOXD
 70
     0
  9
$DIMSAH
 70
     0
  9
$DIMBLK1
  1

  9
$DIMBLK2
  1

  9
$DIMSTYLE
  2
MASKIN
  9
$DIMCLRD
 70
   256
  9
$DIMCLRE
 70
   256
  9
$DIMCLRT
 70
     2
  9
$DIMTFAC
 40
1.0
  9
$DIMGAP
 40
1.0
  9
$LUNITS
 70
     2
  9
$LUPREC
 70
     8
  9
$SKETCHINC
 40
0.1
  9
$FILLETRAD
 40
0.0
  9
$AUNITS
 70
     0
  9
$AUPREC
 70
     8
  9
$MENU
  1
ACAD
  9
$ELEVATION
 40
0.0
  9
$PELEVATION
 40
0.0
  9
$THICKNESS
 40
0.0
  9
$LIMCHECK
 70
     0
  9
$BLIPMODE
 70
     0
  9
$CHAMFERA
 40
0.0
  9
$CHAMFERB
 40
0.0
  9
$SKPOLY
 70
     0
  9
$TDCREATE
 40
2455734.560015128
  9
$TDUPDATE
 40
2455782.47730882
  9
$TDINDWG
 40
1.1060259027999999
  9
$TDUSRTIMER
 40
1.1060257175999999
  9
$USRTIMER
 70
     1
  9
$ANGBASE
 50
0.0
  9
$ANGDIR
 70
     0
  9
$PDMODE
 70
     0
  9
$PDSIZE
 40
0.0
  9
$PLINEWID
 40
0.0
  9
$COORDS
 70
     1
  9
$SPLFRAME
 70
     0
  9
$SPLINETYPE
 70
     6
  9
$SPLINESEGS
 70
     8
  9
$ATTDIA
 70
     0
  9
$ATTREQ
 70
     1
  9
$HANDLING
 70
     1
  9
$HANDSEED
  5
19F9
  9
$SURFTAB1
 70
     6
  9
$SURFTAB2
 70
     6
  9
$SURFTYPE
 70
     6
  9
$SURFU
 70
     6
  9
$SURFV
 70
     6
  9
$UCSNAME
  2

  9
$UCSORG
 10
0.0
 20
0.0
 30
0.0
  9
$UCSXDIR
 10
1.0
 20
0.0
 30
0.0
  9
$UCSYDIR
 10
0.0
 20
1.0
 30
0.0
  9
$PUCSNAME
  2

  9
$PUCSORG
 10
0.0
 20
0.0
 30
0.0
  9
$PUCSXDIR
 10
1.0
 20
0.0
 30
0.0
  9
$PUCSYDIR
 10
0.0
 20
1.0
 30
0.0
  9
$USERI1
 70
     0
  9
$USERI2
 70
     0
  9
$USERI3
 70
     0
  9
$USERI4
 70
     0
  9
$USERI5
 70
     0
  9
$USERR1
 40
0.0
  9
$USERR2
 40
0.0
  9
$USERR3
 40
0.0
  9
$USERR4
 40
0.0
  9
$USERR5
 40
0.0
  9
$WORLDVIEW
 70
     1
  9
$SHADEDGE
 70
     3
  9
$SHADEDIF
 70
    70
  9
$TILEMODE
 70
     1
  9
$MAXACTVP
 70
    16
  9
$PLIMCHECK
 70
     0
  9
$PEXTMIN
 10
1.0000000000000000E+020
 20
1.0000000000000000E+020
 30
1.0000000000000000E+020
  9
$PEXTMAX
 10
-1.0000000000000000E+020
 20
-1.0000000000000000E+020
 30
-1.0000000000000000E+020
  9
$PLIMMIN
 10
-5.069427490234375
 20
-5.8737497329711914
  9
$PLIMMAX
 10
291.89889526367187
 20
204.0995779037475
  9
$UNITMODE
 70
     0
  9
$VISRETAIN
 70
     1
  9
$PLINEGEN
 70
     0
  9
$PSLTSCALE
 70
     1
  0
ENDSEC
  0
SECTION
  2
TABLES
  0
TABLE
  2
VPORT
 70
     1
  0
VPORT
  2
*ACTIVE
 70
     0
 10
0.0
 20
0.0
 11
1.0
 21
1.0
 12
84.849637562536515
 22
3.9798335350585599
 13
0.0
 23
0.0
 14
1.0
 24
1.0
 15
0.0
 25
0.0
 16
0.0
 26
0.0
 36
1.0
 17
0.0
 27
0.0
 37
0.0
 40
232.36196853175929
 41
2.362397820163487
 42
50.0
 43
0.0
 44
0.0
 50
0.0
 51
0.0
 71
     0
 72
   100
 73
     1
 74
     1
 75
     0
 76
     0
 77
     0
 78
     0
  0
ENDTAB
  0
TABLE
  2
LTYPE
 70
     4
  0
LTYPE
  2
CONTINUOUS
 70
     0
  3
Solid line
 72
    65
 73
     0
 40
0.0
  0
LTYPE
  2
BYGG-027377$0$NEWDOT
 70
     0
  3
____ . ____ . ____ . ____ . ____ . ____ . ____
 72
    65
 73
     4
 40
2.0
 49
1.0
 49
-0.5
 49
0.0
 49
-0.5
  0
LTYPE
  2
BYGG-027379$0$NEWDOT
 70
     0
  3
____ . ____ . ____ . ____ . ____ . ____ . ____
 72
    65
 73
     4
 40
2.0
 49
1.0
 49
-0.5
 49
0.0
 49
-0.5
  0
LTYPE
  2
BYGG-027390$0$NEWDOT
 70
     0
  3
____ . ____ . ____ . ____ . ____ . ____ . ____
 72
    65
 73
     4
 40
2.0
 49
1.0
 49
-0.5
 49
0.0
 49
-0.5
  0
ENDTAB
  0
TABLE
  2
LAYER
 70
    35
  0
LAYER
  2
0
 70
     0
 62
     7
  6
CONTINUOUS
  0
LAYER
  2
DEFPOINTS
 70
     0
 62
     7
  6
CONTINUOUS
  0
LAYER
  2
SAPA_ARTIKELNR
 70
     0
 62
     4
  6
CONTINUOUS
  0
LAYER
  2
SAPA_BESLAG
 70
     0
 62
     1
  6
CONTINUOUS
  0
LAYER
  2
SAPA_ANSLUTNING
 70
     0
 62
     6
  6
CONTINUOUS
  0
LAYER
  2
SAPA_MATT
 70
     0
 62
     1
  6
CONTINUOUS
  0
LAYER
  2
SAPA_GLAS
 70
     0
 62
     4
  6
CONTINUOUS
  0
LAYER
  2
SAPA_FOGBAND
 70
     0
 62
     2
  6
CONTINUOUS
  0
LAYER
  2
SAPA_PROFIL
 70
     0
 62
     7
  6
CONTINUOUS
  0
ENDTAB
  0
TABLE
  2
STYLE
 70
    16
  0
STYLE
  2
STANDARD
 70
     0
 40
0.0
 41
1.0
 50
0.0
 71
     0
 42
0.2
  3
txt
  4

  0
STYLE
  2
ISO
 70
     0
 40
0.0
 41
1.0
 50
0.0
 71
     0
 42
3.5
  3
txt
  4

  0
STYLE
  2
BYGG-027459$0$STANDARD
 70
     0
 40
0.0
 41
1.0
 50
0.0
 71
     0
 42
0.2
  3
txt
  4

  0
STYLE
  2
BYGG-027459$0$ISO
 70
     0
 40
0.0
 41
1.0
 50
0.0
 71
     0
 42
3.5
  3
txt
  4

  0
STYLE
  2
BYGG-027377$0$STANDARD
 70
     0
 40
0.0
 41
1.0
 50
0.0
 71
     0
 42
0.2
  3
txt
  4

  0
STYLE
  2
BYGG-027377$0$ISO
 70
     0
 40
0.0
 41
1.0
 50
0.0
 71
     0
 42
3.5
  3
txt
  4

  0
STYLE
  2
BYGG-027396$0$STANDARD
 70
     0
 40
0.0
 41
1.0
 50
0.0
 71
     0
 42
0.2
  3
txt
  4

  0
STYLE
  2
BYGG-027396$0$ISO
 70
     0
 40
0.0
 41
1.0
 50
0.0
 71
     0
 42
3.5
  3
txt
  4

  0
STYLE
  2
BYGG-027379$0$STANDARD
 70
     0
 40
0.0
 41
1.0
 50
0.0
 71
     0
 42
0.2
  3
txt
  4

  0
STYLE
  2
BYGG-027379$0$ISO
 70
     0
 40
0.0
 41
1.0
 50
0.0
 71
     0
 42
3.5
  3
txt
  4

  0
STYLE
  2
BYGG-027392$0$STANDARD
 70
     0
 40
0.0
 41
1.0
 50
0.0
 71
     0
 42
0.2
  3
txt
  4

  0
STYLE
  2
BYGG-027392$0$ISO
 70
     0
 40
0.0
 41
1.0
 50
0.0
 71
     0
 42
3.5
  3
txt
  4

  0
STYLE
  2
BYGG-027457$0$STANDARD
 70
     0
 40
0.0
 41
1.0
 50
0.0
 71
     0
 42
0.2
  3
txt
  4

  0
STYLE
  2
BYGG-027457$0$ISO
 70
     0
 40
0.0
 41
1.0
 50
0.0
 71
     0
 42
3.5
  3
txt
  4

  0
STYLE
  2
BYGG-027390$0$STANDARD
 70
     0
 40
0.0
 41
1.0
 50
0.0
 71
     0
 42
0.2
  3
txt
  4

  0
STYLE
  2
BYGG-027390$0$ISO
 70
     0
 40
0.0
 41
1.0
 50
0.0
 71
     0
 42
3.5
  3
txt
  4

  0
ENDTAB
  0
TABLE
  2
VIEW
 70
     0
  0
ENDTAB
  0
TABLE
  2
UCS
 70
     0
  0
ENDTAB
  0
TABLE
  2
APPID
 70
    23
  0
APPID
  2
ACAD
 70
     0
  0
APPID
  2
ACAD_DSTYLE_DIMTEXT_FILL
 70
     0
  0
APPID
  2
ACAD_DSTYLE_DIMEXT_LENGTH
 70
     0
  0
APPID
  2
ACAD_DSTYLE_DIMEXT_ENABLED
 70
     0
  0
APPID
  2
ACAD_DSTYLE_DIM_LINETYPE
 70
     0
  0
APPID
  2
ACAD_DSTYLE_DIM_EXT1_LINETYPE
 70
     0
  0
APPID
  2
ACAD_DSTYLE_DIM_EXT2_LINETYPE
 70
     0
  0
APPID
  2
ACAD_DSTYLE_DIMJOGGED_JOGA
 70
     0
  0
APPID
  2
ACAD_DSTYLE_DIMARC_LENGTH_
 70
     0
  0
APPID
  2
ACAD_PSEXT
 70
     0
  0
APPID
  2
ACAD_MLEADERVER
 70
     0
  0
APPID
  2
GENIUS_GENODEF_13
 70
     0
  0
APPID
  2
RC_PROFILE
 70
     0
  0
APPID
  2
ACAECLAYERSTANDARD
 70
     0
  0
APPID
  2
GENIUS_GENOBJ-N-FIL_13
 70
     0
  0
APPID
  2
ACADANNOTATIVE
 70
     0
  0
APPID
  2
ACAD_EXEMPT_FROM_CAD_STANDARDS
 70
     0
  0
APPID
  2
AEC_XDATA_BOUND_SPACE
 70
     0
  0
APPID
  2
ACAD_DSTYLE_DIMJAG
 70
     0
  0
APPID
  2
ACAD_DSTYLE_DIMTALN
 70
     0
  0
APPID
  2
GENIUS_GENREC_14
 70
     0
  0
APPID
  2
GENIUS_GENOBJ-N-REC_13
 70
     0
  0
APPID
  2
GENIUS_GENOREF_13
 70
     0
  0
ENDTAB
  0
TABLE
  2
DIMSTYLE
 70
     8
  0
DIMSTYLE
  2
MASKIN
 70
     0
  3

  4

  5

  6

  7

 40
0.0
 41
3.0
 42
1.5
 43
10.0
 44
1.5
 45
0.0
 46
0.0
 47
0.0
 48
0.0
140
3.5
141
-5.0
142
0.0
143
25.399999999999999
144
-1.0
145
0.0
146
1.0
147
1.0
 71
     0
 72
     0
 73
     0
 74
     0
 75
     0
 76
     0
 77
     1
 78
     8
170
     0
171
     0
172
     1
173
     0
174
     0
175
     0
176
   256
177
   256
178
     2
  0
DIMSTYLE
  2
BYGG-027459$0$MASKIN
 70
     0
  3

  4

  5

  6

  7

 40
0.0
 41
3.0
 42
1.5
 43
10.0
 44
1.5
 45
0.0
 46
0.0
 47
0.0
 48
0.0
140
3.0
141
-5.0
142
0.0
143
25.399999999999999
144
-1.0
145
0.0
146
1.0
147
1.0
 71
     0
 72
     0
 73
     0
 74
     0
 75
     0
 76
     0
 77
     1
 78
     8
170
     0
171
     0
172
     1
173
     0
174
     0
175
     0
176
   256
177
   256
178
     2
  0
DIMSTYLE
  2
BYGG-027377$0$MASKIN
 70
     0
  3

  4

  5

  6

  7

 40
0.0
 41
3.0
 42
1.5
 43
10.0
 44
1.5
 45
0.0
 46
0.0
 47
0.0
 48
0.0
140
3.0
141
-5.0
142
0.0
143
25.399999999999999
144
-1.0
145
0.0
146
1.0
147
1.0
 71
     0
 72
     0
 73
     0
 74
     0
 75
     0
 76
     0
 77
     1
 78
     8
170
     0
171
     0
172
     1
173
     0
174
     0
175
     0
176
   256
177
   256
178
     2
  0
DIMSTYLE
  2
BYGG-027396$0$MASKIN
 70
     0
  3

  4

  5

  6

  7

 40
0.0
 41
3.0
 42
1.5
 43
10.0
 44
1.5
 45
0.0
 46
0.0
 47
0.0
 48
0.0
140
3.0
141
-5.0
142
0.0
143
25.399999999999999
144
-1.0
145
0.0
146
1.0
147
1.0
 71
     0
 72
     0
 73
     0
 74
     0
 75
     0
 76
     0
 77
     1
 78
     8
170
     0
171
     0
172
     1
173
     0
174
     0
175
     0
176
   256
177
   256
178
     2
  0
DIMSTYLE
  2
BYGG-027379$0$MASKIN
 70
     0
  3

  4

  5

  6

  7

 40
0.0
 41
3.0
 42
1.5
 43
10.0
 44
1.5
 45
0.0
 46
0.0
 47
0.0
 48
0.0
140
3.0
141
-5.0
142
0.0
143
25.399999999999999
144
-1.0
145
0.0
146
1.0
147
1.0
 71
     0
 72
     0
 73
     0
 74
     0
 75
     0
 76
     0
 77
     1
 78
     8
170
     0
171
     0
172
     1
173
     0
174
     0
175
     0
176
   256
177
   256
178
     2
  0
DIMSTYLE
  2
BYGG-027392$0$MASKIN
 70
     0
  3

  4

  5

  6

  7

 40
0.0
 41
3.0
 42
1.5
 43
10.0
 44
1.5
 45
0.0
 46
0.0
 47
0.0
 48
0.0
140
3.0
141
-5.0
142
0.0
143
25.399999999999999
144
-1.0
145
0.0
146
1.0
147
1.0
 71
     0
 72
     0
 73
     0
 74
     0
 75
     0
 76
     0
 77
     1
 78
     8
170
     0
171
     0
172
     1
173
     0
174
     0
175
     0
176
   256
177
   256
178
     2
  0
DIMSTYLE
  2
BYGG-027457$0$MASKIN
 70
     0
  3

  4

  5

  6

  7

 40
0.0
 41
3.0
 42
1.5
 43
10.0
 44
1.5
 45
0.0
 46
0.0
 47
0.0
 48
0.0
140
3.0
141
-5.0
142
0.0
143
25.399999999999999
144
-1.0
145
0.0
146
1.0
147
1.0
 71
     0
 72
     0
 73
     0
 74
     0
 75
     0
 76
     0
 77
     1
 78
     8
170
     0
171
     0
172
     1
173
     0
174
     0
175
     0
176
   256
177
   256
178
     2
  0
DIMSTYLE
  2
BYGG-027390$0$MASKIN
 70
     0
  3

  4

  5

  6

  7

 40
0.0
 41
3.0
 42
1.5
 43
10.0
 44
1.5
 45
0.0
 46
0.0
 47
0.0
 48
0.0
140
3.0
141
-5.0
142
0.0
143
25.399999999999999
144
-1.0
145
0.0
146
1.0
147
1.0
 71
     0
 72
     0
 73
     0
 74
     0
 75
     0
 76
     0
 77
     1
 78
     8
170
     0
171
     0
172
     1
173
     0
174
     0
175
     0
176
   256
177
   256
178
     2
  0
ENDTAB
  0
ENDSEC
  0
SECTION
  2
BLOCKS
  0
BLOCK
  8
0
  2
$MODEL_SPACE
 70
     0
 10
0.0
 20
0.0
 30
0.0
  3
$MODEL_SPACE
  1

  0
ENDBLK
  5
37
  8
0
  0
BLOCK
 67
     1
  8
0
  2
$PAPER_SPACE
 70
     0
 10
0.0
 20
0.0
 30
0.0
  3
$PAPER_SPACE
  1

  0
ENDBLK
  5
35
 67
     1
  8
0
  0
BLOCK
  8
0
  2
*D30
 70
     1
 10
0.0
 20
0.0
 30
0.0
  3
*D30
  1

  0
LINE
  5
CF0
  8
SAPA_MATT
 10
13.87500000000003
 20
-56.999999999999972
 30
0.0
 11
-12.50000000000002
 21
-56.999999999999972
 31
0.0
  0
LINE
  5
CF1
  8
SAPA_MATT
 10
14.00000000000003
 20
60.0
 30
0.0
 11
-12.5
 21
60.0
 31
0.0
  0
LINE
  5
CF2
  8
SAPA_MATT
 10
-11.00000000000002
 20
-53.999999999999972
 30
0.0
 11
-11.0
 21
57.0
 31
0.0
  0
SOLID
  5
CF3
  8
SAPA_MATT
 10
-11.50000000000002
 20
-53.999999999999972
 30
0.0
 11
-10.50000000000002
 21
-53.999999999999972
 31
0.0
 12
-11.00000000000002
 22
-56.999999999999972
 32
0.0
 13
-11.00000000000002
 23
-56.999999999999972
 33
0.0
  0
SOLID
  5
CF4
  8
SAPA_MATT
 10
-11.5
 20
57.0
 30
0.0
 11
-10.5
 21
57.0
 31
0.0
 12
-10.999999999999989
 22
60.0
 32
0.0
 13
-10.999999999999989
 23
60.0
 33
0.0
  0
INSERT
  5
CF5
  8
0
  2
*U70
 10
0.0
 20
0.0
 30
0.0
  0
POINT
  5
CF6
  8
DEFPOINTS
 62
     0
 10
15.37500000000003
 20
-56.999999999999972
 30
0.0
  0
POINT
  5
CF7
  8
DEFPOINTS
 62
     0
 10
15.50000000000003
 20
60.0
 30
0.0
  0
POINT
  5
CF8
  8
DEFPOINTS
 62
     0
 10
-10.999999999999989
 20
60.0
 30
0.0
  0
ENDBLK
  5
C64
  8
0
  0
BLOCK
  8
0
  2
*D31
 70
     1
 10
0.0
 20
0.0
 30
0.0
  3
*D31
  1

  0
LINE
  5
195B
  8
SAPA_MATT
 10
14.00000000000003
 20
60.0
 30
0.0
 11
-12.5
 21
60.0
 31
0.0
  0
LINE
  5
195C
  8
SAPA_MATT
 10
20.750000000175579
 20
70.000000000011042
 30
0.0
 11
-12.5
 21
70.000000000011042
 31
0.0
  0
LINE
  5
195D
  8
SAPA_MATT
 10
-11.0
 20
63.0
 30
0.0
 11
-11.0
 21
67.000000000011042
 31
0.0
  0
SOLID
  5
195E
  8
SAPA_MATT
 10
-11.5
 20
63.0
 30
0.0
 11
-10.5
 21
63.0
 31
0.0
 12
-11.0
 22
60.0
 32
0.0
 13
-11.0
 23
60.0
 33
0.0
  0
SOLID
  5
195F
  8
SAPA_MATT
 10
-11.5
 20
67.000000000011042
 30
0.0
 11
-10.5
 21
67.000000000011042
 31
0.0
 12
-11.0
 22
70.000000000011042
 32
0.0
 13
-11.0
 23
70.000000000011042
 33
0.0
  0
TEXT
  8
SAPA_MATT
  40
3.5
  5
1974
  62
2
  72
0
  71
0
 10
-20.7500
 20
58.8050
 30
0.000000
  1
10
  7
ISO
  0
POINT
  5
1961
  8
DEFPOINTS
 62
     0
 10
15.50000000000003
 20
60.0
 30
0.0
  0
POINT
  5
1962
  8
DEFPOINTS
 62
     0
 10
22.250000000175579
 20
70.000000000011042
 30
0.0
  0
POINT
  5
1963
  8
DEFPOINTS
 62
     0
 10
-11.0
 20
70.000000000011042
 30
0.0
  0
ENDBLK
  5
C70
  8
0
  0
BLOCK
  8
0
  2
*D32
 70
     1
 10
0.0
 20
0.0
 30
0.0
  3
*D32
  1

  0
LINE
  5
CDC
  8
SAPA_MATT
 10
14.00000000000003
 20
60.0
 30
0.0
 11
14.00000000000003
 21
102.5000000000001
 31
0.0
  0
LINE
  5
CDD
  8
SAPA_MATT
 10
20.500000000180631
 20
56.500000000019412
 30
0.0
 11
20.500000000180631
 21
102.5000000000001
 31
0.0
  0
LINE
  5
CDE
  8
SAPA_MATT
 10
11.00000000000003
 20
101.0000000000001
 30
0.0
 11
8.0000000000000302
 21
101.0000000000001
 31
0.0
  0
LINE
  5
CDF
  8
SAPA_MATT
 10
23.500000000180631
 20
101.0000000000001
 30
0.0
 11
26.500000000180631
 21
101.0000000000001
 31
0.0
  0
LINE
  5
CE0
  8
SAPA_MATT
 10
14.00000000000003
 20
101.0000000000001
 30
0.0
 11
20.500000000180631
 21
101.0000000000001
 31
0.0
  0
SOLID
  5
CE1
  8
SAPA_MATT
 10
11.00000000000003
 20
101.5000000000001
 30
0.0
 11
11.00000000000003
 21
100.5000000000001
 31
0.0
 12
14.00000000000003
 22
101.0000000000001
 32
0.0
 13
14.00000000000003
 23
101.0000000000001
 33
0.0
  0
SOLID
  5
CE2
  8
SAPA_MATT
 10
23.500000000180631
 20
101.5000000000001
 30
0.0
 11
23.500000000180631
 21
100.5000000000001
 31
0.0
 12
20.500000000180631
 22
101.0000000000001
 32
0.0
 13
20.500000000180631
 23
101.0000000000001
 33
0.0
  0
INSERT
  5
CE3
  8
0
  2
*U69
 10
0.0
 20
0.0
 30
0.0
  0
POINT
  5
CE4
  8
DEFPOINTS
 62
     0
 10
14.00000000000003
 20
58.5
 30
0.0
  0
POINT
  5
CE5
  8
DEFPOINTS
 62
     0
 10
20.500000000180631
 20
55.000000000019412
 30
0.0
  0
POINT
  5
CE6
  8
DEFPOINTS
 62
     0
 10
20.500000000180631
 20
101.0000000000001
 30
0.0
  0
ENDBLK
  5
C7C
  8
0
  0
BLOCK
  8
0
  2
*D33
 70
     1
 10
0.0
 20
0.0
 30
0.0
  3
*D33
  1

  0
LINE
  5
1952
  8
SAPA_MATT
 10
20.500000000180631
 20
56.500000000019412
 30
0.0
 11
20.500000000180631
 21
102.5000000000001
 31
0.0
  0
LINE
  5
1953
  8
SAPA_MATT
 10
67.499999999502137
 20
56.500000000019412
 30
0.0
 11
67.499999999502137
 21
102.5000000000001
 31
0.0
  0
LINE
  5
1954
  8
SAPA_MATT
 10
23.500000000180631
 20
101.0000000000001
 30
0.0
 11
64.499999999502137
 21
101.0000000000001
 31
0.0
  0
SOLID
  5
1955
  8
SAPA_MATT
 10
23.500000000180631
 20
101.5000000000001
 30
0.0
 11
23.500000000180631
 21
100.5000000000001
 31
0.0
 12
20.500000000180631
 22
101.0000000000001
 32
0.0
 13
20.500000000180631
 23
101.0000000000001
 33
0.0
  0
SOLID
  5
1956
  8
SAPA_MATT
 10
64.499999999502137
 20
101.5000000000001
 30
0.0
 11
64.499999999502137
 21
100.5000000000001
 31
0.0
 12
67.499999999502137
 22
101.0000000000001
 32
0.0
 13
67.499999999502137
 23
101.0000000000001
 33
0.0
  0
TEXT
  8
SAPA_MATT
  40
3.5
  5
1975
  62
2
  72
0
  71
0
 10
37.0000
 20
97.5550
 30
0.000000
  1
47
  7
ISO
  0
POINT
  5
1958
  8
DEFPOINTS
 62
     0
 10
20.500000000180631
 20
55.000000000019412
 30
0.0
  0
POINT
  5
1959
  8
DEFPOINTS
 62
     0
 10
67.499999999502137
 20
55.000000000019412
 30
0.0
  0
POINT
  5
195A
  8
DEFPOINTS
 62
     0
 10
67.499999999502137
 20
101.0000000000001
 30
0.0
  0
ENDBLK
  5
C8A
  8
0
  0
BLOCK
  8
0
  2
*D34
 70
     1
 10
0.0
 20
0.0
 30
0.0
  3
*D34
  1

  0
LINE
  5
1949
  8
SAPA_MATT
 10
67.499999999502137
 20
56.500000000019412
 30
0.0
 11
67.499999999502137
 21
102.5000000000001
 31
0.0
  0
LINE
  5
194A
  8
SAPA_MATT
 10
138.99999999950211
 20
62.0
 30
0.0
 11
138.99999999950211
 21
102.5000000000001
 31
0.0
  0
LINE
  5
194B
  8
SAPA_MATT
 10
70.499999999502137
 20
101.0000000000001
 30
0.0
 11
135.99999999950211
 21
101.0000000000001
 31
0.0
  0
SOLID
  5
194C
  8
SAPA_MATT
 10
70.499999999502137
 20
101.5000000000001
 30
0.0
 11
70.499999999502137
 21
100.5000000000001
 31
0.0
 12
67.499999999502137
 22
101.0000000000001
 32
0.0
 13
67.499999999502137
 23
101.0000000000001
 33
0.0
  0
SOLID
  5
194D
  8
SAPA_MATT
 10
135.99999999950211
 20
101.5000000000001
 30
0.0
 11
135.99999999950211
 21
100.5000000000001
 31
0.0
 12
138.99999999950211
 22
101.0000000000001
 32
0.0
 13
138.99999999950211
 23
101.0000000000001
 33
0.0
  0
TEXT
  8
SAPA_MATT
  40
3.5
  5
1976
  62
2
  72
0
  71
0
 10
96.2500
 20
97.5550
 30
0.000000
  1
71.5
  7
ISO
  0
POINT
  5
194F
  8
DEFPOINTS
 62
     0
 10
67.499999999502137
 20
55.000000000019412
 30
0.0
  0
POINT
  5
1950
  8
DEFPOINTS
 62
     0
 10
138.99999999950211
 20
60.5
 30
0.0
  0
POINT
  5
1951
  8
DEFPOINTS
 62
     0
 10
138.99999999950211
 20
101.0000000000001
 30
0.0
  0
ENDBLK
  5
C96
  8
0
  0
BLOCK
  8
0
  2
*D35
 70
     1
 10
0.0
 20
0.0
 30
0.0
  3
*D35
  1

  0
LINE
  5
CC1
  8
SAPA_MATT
 10
14.00000000000003
 20
60.0
 30
0.0
 11
14.00000000000003
 21
114.5000000000001
 31
0.0
  0
LINE
  5
CC2
  8
SAPA_MATT
 10
138.99999999950211
 20
62.0
 30
0.0
 11
138.99999999950211
 21
114.5000000000001
 31
0.0
  0
LINE
  5
CC3
  8
SAPA_MATT
 10
17.000000000000028
 20
113.0000000000001
 30
0.0
 11
135.99999999950211
 21
113.0000000000001
 31
0.0
  0
SOLID
  5
CC4
  8
SAPA_MATT
 10
17.000000000000028
 20
113.5000000000001
 30
0.0
 11
17.000000000000028
 21
112.5000000000001
 31
0.0
 12
14.00000000000003
 22
113.0000000000001
 32
0.0
 13
14.00000000000003
 23
113.0000000000001
 33
0.0
  0
SOLID
  5
CC5
  8
SAPA_MATT
 10
135.99999999950211
 20
113.5000000000001
 30
0.0
 11
135.99999999950211
 21
112.5000000000001
 31
0.0
 12
138.99999999950211
 22
113.0000000000001
 32
0.0
 13
138.99999999950211
 23
113.0000000000001
 33
0.0
  0
INSERT
  5
CC6
  8
0
  2
*U68
 10
0.0
 20
0.0
 30
0.0
  0
POINT
  5
CC7
  8
DEFPOINTS
 62
     0
 10
14.00000000000003
 20
58.5
 30
0.0
  0
POINT
  5
CC8
  8
DEFPOINTS
 62
     0
 10
138.99999999950211
 20
60.5
 30
0.0
  0
POINT
  5
CC9
  8
DEFPOINTS
 62
     0
 10
138.99999999950211
 20
113.0000000000001
 30
0.0
  0
ENDBLK
  5
CA2
  8
0
  0
BLOCK
  8
0
  2
*D36
 70
     1
 10
0.0
 20
0.0
 30
0.0
  3
*D36
  1

  0
LINE
  5
CB8
  8
SAPA_MATT
 10
2.5000000000002309
 20
-70.000000000021316
 30
0.0
 11
-24.499999999999972
 21
-70.000000000021316
 31
0.0
  0
LINE
  5
CB9
  8
SAPA_MATT
 10
-14.49999999999803
 20
60.0
 30
0.0
 11
-24.49999999999994
 21
60.0
 31
0.0
  0
LINE
  5
CBA
  8
SAPA_MATT
 10
-22.999999999999972
 20
-67.000000000021316
 30
0.0
 11
-22.99999999999994
 21
57.000000000000007
 31
0.0
  0
SOLID
  5
CBB
  8
SAPA_MATT
 10
-23.499999999999972
 20
-67.000000000021316
 30
0.0
 11
-22.499999999999972
 21
-67.000000000021316
 31
0.0
 12
-22.999999999999972
 22
-70.000000000021316
 32
0.0
 13
-22.999999999999972
 23
-70.000000000021316
 33
0.0
  0
SOLID
  5
CBC
  8
SAPA_MATT
 10
-23.49999999999994
 20
57.000000000000007
 30
0.0
 11
-22.49999999999994
 21
57.000000000000007
 31
0.0
 12
-22.99999999999994
 22
60.0
 32
0.0
 13
-22.99999999999994
 23
60.0
 33
0.0
  0
INSERT
  5
CBD
  8
0
  2
*U67
 10
0.0
 20
0.0
 30
0.0
  0
POINT
  5
CBE
  8
DEFPOINTS
 62
     0
 10
4.00000000000023
 20
-70.000000000021316
 30
0.0
  0
POINT
  5
CBF
  8
DEFPOINTS
 62
     0
 10
-12.99999999999803
 20
60.0
 30
0.0
  0
POINT
  5
CC0
  8
DEFPOINTS
 62
     0
 10
-22.99999999999994
 20
60.0
 30
0.0
  0
ENDBLK
  5
CAE
  8
0
  0
BLOCK
  8
0
  2
*X37
 70
     1
 10
0.0
 20
0.0
 30
0.0
  3
*X37
  1

  0
LINE
  5
D66
  8
0
 62
     0
 10
148.9999999277413
 20
59.79095488711561
 30
0.0
 11
148.8380860307266
 21
59.952868784130331
 31
0.0
  0
LINE
  5
D67
  8
0
 62
     0
 10
148.9999999277413
 20
58.668422871981981
 30
0.0
 11
147.9499301213892
 21
59.718492678334123
 31
0.0
  0
LINE
  5
D68
  8
0
 62
     0
 10
148.9999999277413
 20
57.545890856848317
 30
0.0
 11
147.0284095796012
 21
59.517481204988442
 31
0.0
  0
LINE
  5
D69
  8
0
 62
     0
 10
148.9999999277413
 20
56.423358841714688
 30
0.0
 11
146.07057661512809
 21
59.352782154327947
 31
0.0
  0
LINE
  5
D6A
  8
0
 62
     0
 10
148.9999999277413
 20
55.300826826581037
 30
0.0
 11
145.07276903545329
 21
59.228057718869138
 31
0.0
  0
LINE
  5
D6B
  8
0
 62
     0
 10
148.9999999277413
 20
54.178294811447408
 30
0.0
 11
144.03036041296869
 21
59.147934326219989
 31
0.0
  0
LINE
  5
D6C
  8
0
 62
     0
 10
148.9999999277413
 20
53.055762796313743
 30
0.0
 11
142.937381363318
 21
59.118381360737096
 31
0.0
  0
LINE
  5
D6D
  8
0
 62
     0
 10
148.9999999277413
 20
51.933230781180107
 30
0.0
 11
141.785919908587
 21
59.147310800334402
 31
0.0
  0
LINE
  5
D6E
  8
0
 62
     0
 10
148.9999999277413
 20
50.81069876604645
 30
0.0
 11
140.565119071797
 21
59.245579621990828
 31
0.0
  0
LINE
  5
D6F
  8
0
 62
     0
 10
145.76608656588181
 20
52.922080112772399
 30
0.0
 11
139.25938028645029
 21
59.428786392203889
 31
0.0
  0
LINE
  5
D70
  8
0
 62
     0
 10
148.9999999277413
 20
49.688166750912821
 30
0.0
 11
148.4399900696433
 21
50.248176609010848
 31
0.0
  0
LINE
  5
D71
  8
0
 62
     0
 10
144.2907394283969
 20
53.274895235123608
 30
0.0
 11
138.99849667114091
 21
58.567137992379578
 31
0.0
  0
LINE
  5
D72
  8
0
 62
     0
 10
148.9999999277413
 20
48.56563473577917
 30
0.0
 11
148.9236360860076
 21
48.641998577512872
 31
0.0
  0
LINE
  5
D73
  8
0
 62
     0
 10
143.22638571834861
 20
53.216716930038302
 30
0.0
 11
138.99999992774141
 21
57.443102720645527
 31
0.0
  0
LINE
  5
D74
  8
0
 62
     0
 10
142.35075441075239
 20
52.969816222500818
 30
0.0
 11
138.9999999277413
 21
56.320570705511912
 31
0.0
  0
LINE
  5
D75
  8
0
 62
     0
 10
141.60217573132221
 20
52.59586288679737
 30
0.0
 11
138.9999999277413
 21
55.198038690378269
 31
0.0
  0
LINE
  5
D76
  8
0
 62
     0
 10
140.95430362485209
 20
52.121202978133873
 30
0.0
 11
138.9999999277413
 21
54.075506675244647
 31
0.0
  0
LINE
  5
D77
  8
0
 62
     0
 10
140.39481471664041
 20
51.558159871211949
 30
0.0
 11
138.9999999277413
 21
52.952974660111018
 31
0.0
  0
LINE
  5
D78
  8
0
 62
     0
 10
139.91916163996731
 20
50.911280932751353
 30
0.0
 11
138.9999999277413
 21
51.830442644977381
 31
0.0
  0
LINE
  5
D79
  8
0
 62
     0
 10
139.5287522544227
 20
50.179158303162303
 30
0.0
 11
138.9999999277413
 21
50.707910629843738
 31
0.0
  0
LINE
  5
D7A
  8
0
 62
     0
 10
139.23148746817009
 20
49.353891074281272
 30
0.0
 11
138.9999999277413
 21
49.585378614710109
 31
0.0
  0
LINE
  5
D7B
  8
0
 62
     0
 10
139.04522034170179
 20
48.41762618561588
 30
0.0
 11
138.99999992774119
 21
48.462846599576501
 31
0.0
  0
LINE
  5
D7C
  8
0
 62
     0
 10
148.99279897801131
 20
47.964917615982323
 30
0.0
 11
148.9999999277413
 21
47.972118565712357
 31
0.0
  0
LINE
  5
D7D
  8
0
 62
     0
 10
148.86518577861531
 20
48.959836431719971
 30
0.0
 11
148.9999999277413
 21
49.094650580846007
 31
0.0
  0
LINE
  5
D7E
  8
0
 62
     0
 10
148.61341571770791
 20
49.830598385946239
 30
0.0
 11
148.9999999277413
 21
50.217182595979651
 31
0.0
  0
LINE
  5
D7F
  8
0
 62
     0
 10
148.26229306069871
 20
50.602007744070619
 30
0.0
 11
148.9999999277413
 21
51.339714611113308
 31
0.0
  0
LINE
  5
D80
  8
0
 62
     0
 10
147.82338657535109
 20
51.285633273856682
 30
0.0
 11
148.9999999277413
 21
52.462246626246937
 31
0.0
  0
LINE
  5
D81
  8
0
 62
     0
 10
147.3007430412959
 20
51.885521754935162
 30
0.0
 11
148.9999999277413
 21
53.584778641380581
 31
0.0
  0
LINE
  5
D82
  8
0
 62
     0
 10
146.69249089580279
 20
52.399801624575659
 30
0.0
 11
148.9999999277413
 21
54.707310656514238
 31
0.0
  0
LINE
  5
D83
  8
0
 62
     0
 10
145.99012238385629
 20
52.819965127762813
 30
0.0
 11
148.9999999277413
 21
55.829842671647882
 31
0.0
  0
LINE
  5
D84
  8
0
 62
     0
 10
145.17469787667719
 20
53.127072635717447
 30
0.0
 11
148.9999999277413
 21
56.952374686781532
 31
0.0
  0
LINE
  5
D85
  8
0
 62
     0
 10
144.20478292538689
 20
53.279689699560741
 30
0.0
 11
148.9999999277413
 21
58.074906701915161
 31
0.0
  0
LINE
  5
D86
  8
0
 62
     0
 10
138.9999999277413
 20
48.074906701915069
 30
0.0
 11
139.0143750455226
 21
48.089281819696467
 31
0.0
  0
LINE
  5
D87
  8
0
 62
     0
 10
142.9652894400887
 20
53.162728229396137
 30
0.0
 11
148.9999999277413
 21
59.197438717048811
 31
0.0
  0
LINE
  5
D88
  8
0
 62
     0
 10
138.9999999277413
 20
49.197438717048719
 30
0.0
 11
139.2621674097004
 21
49.459606199007837
 31
0.0
  0
LINE
  5
D89
  8
0
 62
     0
 10
138.9999999277413
 20
50.319970732182391
 30
0.0
 11
148.55332920462089
 21
59.873300009061992
 31
0.0
  0
LINE
  5
D8A
  8
0
 62
     0
 10
138.9999999277413
 20
51.442502747316041
 30
0.0
 11
147.0863822333215
 21
59.528885052896243
 31
0.0
  0
LINE
  5
D8B
  8
0
 62
     0
 10
138.9999999277413
 20
52.565034762449692
 30
0.0
 11
145.74135694742461
 21
59.306391782133041
 31
0.0
  0
LINE
  5
D8C
  8
0
 62
     0
 10
138.9999999277413
 20
53.687566777583349
 30
0.0
 11
144.4893749164703
 21
59.17694176631236
 31
0.0
  0
LINE
  5
D8D
  8
0
 62
     0
 10
138.99999992774141
 20
54.810098792717021
 30
0.0
 11
143.31215802026259
 21
59.122256885238237
 31
0.0
  0
LINE
  5
D8E
  8
0
 62
     0
 10
138.9999999277413
 20
55.932630807850657
 30
0.0
 11
142.19726507093191
 21
59.12989595104122
 31
0.0
  0
LINE
  5
D8F
  8
0
 62
     0
 10
138.9999999277413
 20
57.055162822984308
 30
0.0
 11
141.1357776586442
 21
59.190940553887167
 31
0.0
  0
LINE
  5
D90
  8
0
 62
     0
 10
138.99999992774141
 20
58.177694838117972
 30
0.0
 11
140.1210510364555
 21
59.298745946832177
 31
0.0
  0
LINE
  5
D91
  8
0
 62
     0
 10
138.85117536341841
 20
59.151402288928729
 30
0.0
 11
139.14798551122061
 21
59.448212436730827
 31
0.0
  0
ENDBLK
  5
D93
  8
0
  0
BLOCK
  8
0
  2
*X38
 70
     1
 10
0.0
 20
0.0
 30
0.0
  3
*X38
  1

  0
LINE
  5
DA9
  8
0
 62
     0
 10
148.43122837829659
 20
46.743733652560387
 30
0.0
 11
148.8281033782967
 21
47.431141316814291
 31
0.0
  0
LINE
  5
DAA
  8
0
 62
     0
 10
147.2406033782967
 20
44.681510659798697
 30
0.0
 11
147.63747837829669
 21
45.368918324052601
 31
0.0
  0
LINE
  5
DAB
  8
0
 62
     0
 10
146.04997837829669
 20
42.619287667037007
 30
0.0
 11
146.44685337829671
 21
43.306695331290911
 31
0.0
  0
LINE
  5
DAC
  8
0
 62
     0
 10
148.43122866279271
 20
49.493364145322083
 30
0.0
 11
148.61830667414799
 21
49.817392765968343
 31
0.0
  0
LINE
  5
DAD
  8
0
 62
     0
 10
147.24060366279281
 20
47.431141152560379
 30
0.0
 11
147.63747866279269
 21
48.118548816814283
 31
0.0
  0
LINE
  5
DAE
  8
0
 62
     0
 10
146.0499786627928
 20
45.368918159798703
 30
0.0
 11
146.44685366279279
 21
46.056325824052593
 31
0.0
  0
LINE
  5
DAF
  8
0
 62
     0
 10
144.85935366279281
 20
43.306695167036999
 30
0.0
 11
145.25622866279281
 21
43.994102831290903
 31
0.0
  0
LINE
  5
DB0
  8
0
 62
     0
 10
147.2406039472888
 20
50.180771645322089
 30
0.0
 11
147.6374789472888
 21
50.868179309575979
 31
0.0
  0
LINE
  5
DB1
  8
0
 62
     0
 10
146.04997894728879
 20
48.118548652560399
 30
0.0
 11
146.44685394728879
 21
48.805956316814303
 31
0.0
  0
LINE
  5
DB2
  8
0
 62
     0
 10
144.85935394728881
 20
46.056325659798702
 30
0.0
 11
145.2562289472888
 21
46.743733324052599
 31
0.0
  0
LINE
  5
DB3
  8
0
 62
     0
 10
143.66872894728891
 20
43.994102667037019
 30
0.0
 11
144.06560394728891
 21
44.681510331290923
 31
0.0
  0
LINE
  5
DB4
  8
0
 62
     0
 10
142.6604806727178
 20
42.247765428836303
 30
0.0
 11
142.87497894728889
 21
42.619287338529219
 31
0.0
  0
LINE
  5
DB5
  8
0
 62
     0
 10
146.0499792317849
 20
50.868179145322067
 30
0.0
 11
146.4468542317849
 21
51.555586809575971
 31
0.0
  0
LINE
  5
DB6
  8
0
 62
     0
 10
144.85935423178489
 20
48.80595615256037
 30
0.0
 11
145.25622923178491
 21
49.493363816814274
 31
0.0
  0
LINE
  5
DB7
  8
0
 62
     0
 10
143.66872923178491
 20
46.743733159798687
 30
0.0
 11
144.0656042317849
 21
47.431140824052576
 31
0.0
  0
LINE
  5
DB8
  8
0
 62
     0
 10
142.4781042317849
 20
44.68151016703699
 30
0.0
 11
142.87497923178501
 21
45.368917831290887
 31
0.0
  0
LINE
  5
DB9
  8
0
 62
     0
 10
141.419831996672
 20
42.848528887581899
 30
0.0
 11
141.68435423178499
 21
43.306694838529197
 31
0.0
  0
LINE
  5
DBA
  8
0
 62
     0
 10
144.859354516281
 20
51.55558664532208
 30
0.0
 11
145.256229516281
 21
52.242994309575963
 31
0.0
  0
LINE
  5
DBB
  8
0
 62
     0
 10
143.66872951628099
 20
49.493363652560383
 30
0.0
 11
144.06560451628101
 21
50.18077131681428
 31
0.0
  0
LINE
  5
DBC
  8
0
 62
     0
 10
142.47810451628101
 20
47.431140659798693
 30
0.0
 11
142.874979516281
 21
48.11854832405259
 31
0.0
  0
LINE
  5
DBD
  8
0
 62
     0
 10
141.28747951628111
 20
45.368917667037003
 30
0.0
 11
141.68435451628099
 21
46.0563253312909
 31
0.0
  0
LINE
  5
DBE
  8
0
 62
     0
 10
140.37616464355861
 20
43.790474005788482
 30
0.0
 11
140.49372951628109
 21
43.99410233852921
 31
0.0
  0
LINE
  5
DBF
  8
0
 62
     0
 10
143.6687298007771
 20
52.242994145322072
 30
0.0
 11
144.06560480077709
 21
52.930401809575969
 31
0.0
  0
LINE
  5
DC0
  8
0
 62
     0
 10
142.4781048007772
 20
50.180771152560389
 30
0.0
 11
142.87497980077711
 21
50.868178816814293
 31
0.0
  0
LINE
  5
DC1
  8
0
 62
     0
 10
141.28747980077719
 20
48.118548159798699
 30
0.0
 11
141.68435480077719
 21
48.805955824052589
 31
0.0
  0
LINE
  5
DC2
  8
0
 62
     0
 10
140.09685480077721
 20
46.056325167037009
 30
0.0
 11
140.4937298007772
 21
46.743732831290899
 31
0.0
  0
LINE
  5
DC3
  8
0
 62
     0
 10
142.4781050852732
 20
52.930401645322071
 30
0.0
 11
142.5413133909216
 21
53.039881642165483
 31
0.0
  0
LINE
  5
DC4
  8
0
 62
     0
 10
141.28748008527319
 20
50.868178652560388
 30
0.0
 11
141.68435508527321
 21
51.555586316814292
 31
0.0
  0
LINE
  5
DC5
  8
0
 62
     0
 10
140.09685508527321
 20
48.805955659798698
 30
0.0
 11
140.4937300852732
 21
49.493363324052588
 31
0.0
  0
LINE
  5
DC6
  8
0
 62
     0
 10
139.0379713642478
 20
46.971915255675057
 30
0.0
 11
139.3031050852733
 21
47.431140331290898
 31
0.0
  0
LINE
  5
DC7
  8
0
 62
     0
 10
146.44684342093331
 20
51.555556586858749
 30
0.0
 11
146.04996842093331
 21
52.242964251112653
 31
0.0
  0
LINE
  5
DC8
  8
0
 62
     0
 10
147.63746842093329
 20
49.493333594097059
 30
0.0
 11
147.24059342093329
 21
50.180741258350949
 31
0.0
  0
LINE
  5
DC9
  8
0
 62
     0
 10
148.8280934209333
 20
47.431110601335369
 30
0.0
 11
148.43121842093331
 21
48.118518265589259
 31
0.0
  0
LINE
  5
DCA
  8
0
 62
     0
 10
144.06559370542951
 20
52.93037207962044
 30
0.0
 11
143.86242080378619
 21
53.282277867987752
 31
0.0
  0
LINE
  5
DCB
  8
0
 62
     0
 10
145.2562187054294
 20
50.868149086858743
 30
0.0
 11
144.85934370542941
 21
51.55555675111264
 31
0.0
  0
LINE
  5
DCC
  8
0
 62
     0
 10
146.44684370542939
 20
48.805926094097053
 30
0.0
 11
146.04996870542939
 21
49.49333375835095
 31
0.0
  0
LINE
  5
DCD
  8
0
 62
     0
 10
147.6374687054294
 20
46.743703101335363
 30
0.0
 11
147.2405937054294
 21
47.43111076558926
 31
0.0
  0
LINE
  5
DCE
  8
0
 62
     0
 10
148.508994618332
 20
45.234175940075183
 30
0.0
 11
148.43121870542939
 21
45.36888777282757
 31
0.0
  0
LINE
  5
DCF
  8
0
 62
     0
 10
142.87496898992549
 20
52.242964579620448
 30
0.0
 11
142.4780939899255
 21
52.930372243874338
 31
0.0
  0
LINE
  5
DD0
  8
0
 62
     0
 10
144.0655939899255
 20
50.180741586858758
 30
0.0
 11
143.66871898992551
 21
50.868149251112662
 31
0.0
  0
LINE
  5
DD1
  8
0
 62
     0
 10
145.25621898992549
 20
48.118518594097061
 30
0.0
 11
144.85934398992549
 21
48.805926258350958
 31
0.0
  0
LINE
  5
DD2
  8
0
 62
     0
 10
146.4468439899255
 20
46.056295601335378
 30
0.0
 11
146.0499689899255
 21
46.743703265589282
 31
0.0
  0
LINE
  5
DD3
  8
0
 62
     0
 10
147.63746898992551
 20
43.994072608573681
 30
0.0
 11
147.24059398992549
 21
44.681480272827578
 31
0.0
  0
LINE
  5
DD4
  8
0
 62
     0
 10
141.68434427442159
 20
51.555557079620428
 30
0.0
 11
141.28746927442171
 21
52.242964743874332
 31
0.0
  0
LINE
  5
DD5
  8
0
 62
     0
 10
142.8749692744216
 20
49.493334086858731
 30
0.0
 11
142.47809427442161
 21
50.180741751112627
 31
0.0
  0
LINE
  5
DD6
  8
0
 62
     0
 10
144.06559427442161
 20
47.431111094097048
 30
0.0
 11
143.66871927442159
 21
48.118518758350938
 31
0.0
  0
LINE
  5
DD7
  8
0
 62
     0
 10
145.2562192744216
 20
45.368888101335351
 30
0.0
 11
144.8593442744216
 21
46.056295765589248
 31
0.0
  0
LINE
  5
DD8
  8
0
 62
     0
 10
146.44684427442161
 20
43.306665108573661
 30
0.0
 11
146.04996927442161
 21
43.994072772827558
 31
0.0
  0
LINE
  5
DD9
  8
0
 62
     0
 10
140.49371955891769
 20
50.868149579620443
 30
0.0
 11
140.21983906123731
 21
51.342524516805163
 31
0.0
  0
LINE
  5
DDA
  8
0
 62
     0
 10
141.6843445589177
 20
48.805926586858753
 30
0.0
 11
141.28746955891771
 21
49.49333425111265
 31
0.0
  0
LINE
  5
DDB
  8
0
 62
     0
 10
142.87496955891771
 20
46.743703594097063
 30
0.0
 11
142.47809455891769
 21
47.431111258350953
 31
0.0
  0
LINE
  5
DDC
  8
0
 62
     0
 10
144.0655945589177
 20
44.681480601335373
 30
0.0
 11
143.6687195589177
 21
45.36888826558927
 31
0.0
  0
LINE
  5
DDD
  8
0
 62
     0
 10
145.25621955891771
 20
42.619257608573683
 30
0.0
 11
144.85934455891771
 21
43.306665272827573
 31
0.0
  0
LINE
  5
DDE
  8
0
 62
     0
 10
140.4937198434138
 20
48.118519086858747
 30
0.0
 11
140.09684484341381
 21
48.805926751112651
 31
0.0
  0
LINE
  5
DDF
  8
0
 62
     0
 10
141.68434484341381
 20
46.056296094097057
 30
0.0
 11
141.28746984341379
 21
46.743703758350961
 31
0.0
  0
LINE
  5
DE0
  8
0
 62
     0
 10
142.87496984341379
 20
43.994073101335367
 30
0.0
 11
142.4780948434138
 21
44.681480765589271
 31
0.0
  0
LINE
  5
DE1
  8
0
 62
     0
 10
144.00183134727419
 20
42.042291723555557
 30
0.0
 11
143.66871984341381
 21
42.619257772827567
 31
0.0
  0
LINE
  5
DE2
  8
0
 62
     0
 10
139.3030951279099
 20
47.431111586858748
 30
0.0
 11
139.00628919785299
 21
47.945194537704957
 31
0.0
  0
LINE
  5
DE3
  8
0
 62
     0
 10
140.49372012790991
 20
45.368888594097058
 30
0.0
 11
140.09684512790989
 21
46.056296258350962
 31
0.0
  0
LINE
  5
DE4
  8
0
 62
     0
 10
141.68434512790981
 20
43.306665601335368
 30
0.0
 11
141.2874701279099
 21
43.994073265589272
 31
0.0
  0
LINE
  5
DE5
  8
0
 62
     0
 10
145.25625000000011
 20
42.619264999999082
 30
0.0
 11
146.0500000000001
 21
42.619264999999082
 31
0.0
  0
LINE
  5
DE6
  8
0
 62
     0
 10
142.87500000000011
 20
42.619264999999082
 30
0.0
 11
143.6687500000001
 21
42.619264999999082
 31
0.0
  0
LINE
  5
DE7
  8
0
 62
     0
 10
147.63749999999999
 20
43.99407999999908
 30
0.0
 11
147.78777218174429
 21
43.99407999999908
 31
0.0
  0
LINE
  5
DE8
  8
0
 62
     0
 10
145.25625000000011
 20
43.99407999999908
 30
0.0
 11
146.0500000000001
 21
43.99407999999908
 31
0.0
  0
LINE
  5
DE9
  8
0
 62
     0
 10
142.87500000000011
 20
43.99407999999908
 30
0.0
 11
143.6687500000001
 21
43.99407999999908
 31
0.0
  0
LINE
  5
DEA
  8
0
 62
     0
 10
140.49375000000009
 20
43.99407999999908
 30
0.0
 11
141.28749999999999
 21
43.99407999999908
 31
0.0
  0
LINE
  5
DEB
  8
0
 62
     0
 10
147.63749999999999
 20
45.368894999999078
 30
0.0
 11
148.43125000000001
 21
45.368894999999078
 31
0.0
  0
LINE
  5
DEC
  8
0
 62
     0
 10
145.25625000000011
 20
45.368894999999078
 30
0.0
 11
146.0500000000001
 21
45.368894999999078
 31
0.0
  0
LINE
  5
DED
  8
0
 62
     0
 10
142.87500000000011
 20
45.368894999999078
 30
0.0
 11
143.6687500000001
 21
45.368894999999078
 31
0.0
  0
LINE
  5
DEE
  8
0
 62
     0
 10
140.49375000000009
 20
45.368894999999078
 30
0.0
 11
141.28749999999999
 21
45.368894999999078
 31
0.0
  0
LINE
  5
DEF
  8
0
 62
     0
 10
147.63749999999999
 20
46.743709999999083
 30
0.0
 11
148.43125000000001
 21
46.743709999999083
 31
0.0
  0
LINE
  5
DF0
  8
0
 62
     0
 10
145.25625000000011
 20
46.743709999999083
 30
0.0
 11
146.0500000000001
 21
46.743709999999083
 31
0.0
  0
LINE
  5
DF1
  8
0
 62
     0
 10
142.87500000000011
 20
46.743709999999083
 30
0.0
 11
143.6687500000001
 21
46.743709999999083
 31
0.0
  0
LINE
  5
DF2
  8
0
 62
     0
 10
140.49375000000009
 20
46.743709999999083
 30
0.0
 11
141.28749999999999
 21
46.743709999999083
 31
0.0
  0
LINE
  5
DF3
  8
0
 62
     0
 10
147.63749999999999
 20
48.118524999999089
 30
0.0
 11
148.43125000000001
 21
48.118524999999089
 31
0.0
  0
LINE
  5
DF4
  8
0
 62
     0
 10
145.25625000000011
 20
48.118524999999089
 30
0.0
 11
146.0500000000001
 21
48.118524999999089
 31
0.0
  0
LINE
  5
DF5
  8
0
 62
     0
 10
142.87500000000011
 20
48.118524999999089
 30
0.0
 11
143.6687500000001
 21
48.118524999999089
 31
0.0
  0
LINE
  5
DF6
  8
0
 62
     0
 10
140.49375000000009
 20
48.118524999999089
 30
0.0
 11
141.28749999999999
 21
48.118524999999089
 31
0.0
  0
LINE
  5
DF7
  8
0
 62
     0
 10
147.63749999999999
 20
49.49333999999908
 30
0.0
 11
148.43125000000001
 21
49.49333999999908
 31
0.0
  0
LINE
  5
DF8
  8
0
 62
     0
 10
145.25625000000011
 20
49.49333999999908
 30
0.0
 11
146.0500000000001
 21
49.49333999999908
 31
0.0
  0
LINE
  5
DF9
  8
0
 62
     0
 10
142.87500000000011
 20
49.49333999999908
 30
0.0
 11
143.6687500000001
 21
49.49333999999908
 31
0.0
  0
LINE
  5
DFA
  8
0
 62
     0
 10
140.49375000000009
 20
49.49333999999908
 30
0.0
 11
141.28749999999999
 21
49.49333999999908
 31
0.0
  0
LINE
  5
DFB
  8
0
 62
     0
 10
147.63749999999999
 20
50.868154999999078
 30
0.0
 11
148.10772746506919
 21
50.868154999999078
 31
0.0
  0
LINE
  5
DFC
  8
0
 62
     0
 10
145.25625000000011
 20
50.868154999999078
 30
0.0
 11
146.0500000000001
 21
50.868154999999078
 31
0.0
  0
LINE
  5
DFD
  8
0
 62
     0
 10
142.87500000000011
 20
50.868154999999078
 30
0.0
 11
143.6687500000001
 21
50.868154999999078
 31
0.0
  0
LINE
  5
DFE
  8
0
 62
     0
 10
140.49375000000009
 20
50.868154999999078
 30
0.0
 11
141.28749999999999
 21
50.868154999999078
 31
0.0
  0
LINE
  5
DFF
  8
0
 62
     0
 10
145.25625000000011
 20
52.24296999999909
 30
0.0
 11
146.0500000000001
 21
52.24296999999909
 31
0.0
  0
LINE
  5
E00
  8
0
 62
     0
 10
142.87500000000011
 20
52.24296999999909
 30
0.0
 11
143.6687500000001
 21
52.24296999999909
 31
0.0
  0
LINE
  5
E01
  8
0
 62
     0
 10
141.1007687474002
 20
52.24296999999909
 30
0.0
 11
141.28749999999999
 21
52.24296999999909
 31
0.0
  0
ENDBLK
  5
E03
  8
0
  0
BLOCK
  8
0
  2
*U39
 70
     1
 10
0.0
 20
0.0
 30
0.0
  3
*U39
  1

  0
TEXT
  5
E4F
  8
0
 62
     2
 10
-24.00265151515147
 20
-13.225000000010651
 30
0.0
 40
3.5
  1
min. 130
 50
90.0
  7
ISO
  0
ENDBLK
  5
E51
  8
0
  0
BLOCK
  8
0
  2
*U40
 70
     1
 10
0.0
 20
0.0
 30
0.0
  3
*U40
  1

  0
TEXT
  5
FD3
  8
0
 62
     2
 10
59.174999963870683
 20
-11.46275614065862
 30
0.0
 40
3.5
  1
125
  7
BYGG-027377$0$ISO
  0
ENDBLK
  5
FD5
  8
0
  0
BLOCK
  8
0
  2
*U41
 70
     1
 10
0.0
 20
0.0
 30
0.0
  3
*U41
  1

  0
TEXT
  5
FD7
  8
0
 62
     2
 10
138.9070189266192
 20
55.525000000000013
 30
0.0
 40
3.5
  1
117
 50
90.0
  7
BYGG-027377$0$ISO
  0
ENDBLK
  5
FD9
  8
0
  0
BLOCK
  8
0
  2
*X42
 70
     1
 10
0.0
 20
0.0
 30
0.0
  3
*X42
  1

  0
LINE
  5
FDB
  8
0
 62
     0
 10
76.199999999999989
 20
70.599975999985048
 30
0.0
 11
76.199999999999989
 21
74.699456650023421
 31
0.0
  0
LINE
  5
FDC
  8
0
 62
     0
 10
74.612499999999983
 20
71.26391552932489
 30
0.0
 11
74.612499999999983
 21
74.034973770722118
 31
0.0
  0
LINE
  5
FDD
  8
0
 62
     0
 10
73.024999999999991
 20
71.73370616123222
 30
0.0
 11
73.024999999999991
 21
73.533706161232203
 31
0.0
  0
LINE
  5
FDE
  8
0
 62
     0
 10
71.4375
 20
71.73370616123222
 30
0.0
 11
71.4375
 21
73.533706161232345
 31
0.0
  0
LINE
  5
FDF
  8
0
 62
     0
 10
69.849999999999994
 20
71.73370616123222
 30
0.0
 11
69.849999999999994
 21
73.88665244376044
 31
0.0
  0
LINE
  5
FE0
  8
0
 62
     0
 10
68.262500000000003
 20
106.77485855299869
 30
0.0
 11
68.262500000000003
 21
108.28802382332501
 31
0.0
  0
LINE
  5
FE1
  8
0
 62
     0
 10
68.262500000000003
 20
115.27485855300129
 30
0.0
 11
68.262500000000017
 21
116.78144118816149
 31
0.0
  0
LINE
  5
FE2
  8
0
 62
     0
 10
68.262500000000003
 20
71.73370616123222
 30
0.0
 11
68.262500000000003
 21
99.788023823318554
 31
0.0
  0
LINE
  5
FE3
  8
0
 62
     0
 10
66.674999999999997
 20
98.497179717640634
 30
0.0
 11
66.675000000000011
 21
116.78144118816149
 31
0.0
  0
LINE
  5
FE4
  8
0
 62
     0
 10
66.674999999999997
 20
71.73370616123222
 30
0.0
 11
66.674999999999997
 21
73.54944469071458
 31
0.0
  0
LINE
  5
FE5
  8
0
 62
     0
 10
65.087499999999991
 20
98.497179717642254
 30
0.0
 11
65.087500000000006
 21
116.78144118816139
 31
0.0
  0
LINE
  5
FE6
  8
0
 62
     0
 10
65.087499999999991
 20
71.73370616123222
 30
0.0
 11
65.087499999999991
 21
73.54944469071458
 31
0.0
  0
LINE
  5
FE7
  8
0
 62
     0
 10
63.500000000000007
 20
98.497179717641387
 30
0.0
 11
63.500000000000007
 21
99.797179717640546
 31
0.0
  0
LINE
  5
FE8
  8
0
 62
     0
 10
63.500000000000007
 20
114.9971797176448
 30
0.0
 11
63.500000000000007
 21
116.78144118816139
 31
0.0
  0
LINE
  5
FE9
  8
0
 62
     0
 10
63.500000000000007
 20
71.73370616123222
 30
0.0
 11
63.500000000000007
 21
73.54944469071458
 31
0.0
  0
LINE
  5
FEA
  8
0
 62
     0
 10
61.912500000000001
 20
98.49717971764052
 30
0.0
 11
61.912500000000001
 21
99.797179717640546
 31
0.0
  0
LINE
  5
FEB
  8
0
 62
     0
 10
61.912500000000001
 20
114.9971797176436
 30
0.0
 11
61.912500000000001
 21
116.78144118816139
 31
0.0
  0
LINE
  5
FEC
  8
0
 62
     0
 10
61.912500000000001
 20
71.73370616123222
 30
0.0
 11
61.912500000000001
 21
73.54944469071458
 31
0.0
  0
LINE
  5
FED
  8
0
 62
     0
 10
60.325000000000003
 20
98.497179717639654
 30
0.0
 11
60.325000000000003
 21
99.828804842068848
 31
0.0
  0
LINE
  5
FEE
  8
0
 62
     0
 10
60.325000000000003
 20
114.96555459321431
 30
0.0
 11
60.325000000000003
 21
116.78144118816139
 31
0.0
  0
LINE
  5
FEF
  8
0
 62
     0
 10
60.325000000000003
 20
71.73370616123222
 30
0.0
 11
60.325000000000003
 21
73.54944469071458
 31
0.0
  0
LINE
  5
FF0
  8
0
 62
     0
 10
58.737500000000011
 20
98.497179717638801
 30
0.0
 11
58.737500000000011
 21
116.7814411881613
 31
0.0
  0
LINE
  5
FF1
  8
0
 62
     0
 10
58.737500000000011
 20
71.73370616123222
 30
0.0
 11
58.737500000000011
 21
73.54944469071458
 31
0.0
  0
LINE
  5
FF2
  8
0
 62
     0
 10
57.149999999999999
 20
106.7814411881581
 30
0.0
 11
57.149999999999999
 21
108.2814411881613
 31
0.0
  0
LINE
  5
FF3
  8
0
 62
     0
 10
57.149999999999999
 20
115.2814411881613
 30
0.0
 11
57.149999999999999
 21
116.7814411881613
 31
0.0
  0
LINE
  5
FF4
  8
0
 62
     0
 10
57.149999999999999
 20
71.73370616123222
 30
0.0
 11
57.149999999999999
 21
99.781441188156677
 31
0.0
  0
LINE
  5
FF5
  8
0
 62
     0
 10
55.562500000000007
 20
105.7893797277396
 30
0.0
 11
55.562500000000007
 21
109.273502648583
 31
0.0
  0
LINE
  5
FF6
  8
0
 62
     0
 10
55.562500000000007
 20
114.2893797277396
 30
0.0
 11
55.562500000000007
 21
116.5235026484573
 31
0.0
  0
LINE
  5
FF7
  8
0
 62
     0
 10
55.562500000000007
 20
71.73370616123222
 30
0.0
 11
55.562500000000007
 21
100.77350264857979
 31
0.0
  0
LINE
  5
FF8
  8
0
 62
     0
 10
53.975000000000001
 20
71.73370616123222
 30
0.0
 11
53.975000000000001
 21
73.533706161232089
 31
0.0
  0
LINE
  5
FF9
  8
0
 62
     0
 10
52.387500000000003
 20
71.73370616123222
 30
0.0
 11
52.387500000000003
 21
73.533706161231692
 31
0.0
  0
LINE
  5
FFA
  8
0
 62
     0
 10
50.799999999999997
 20
71.502072594400531
 30
0.0
 11
50.799999999999997
 21
73.796816705646393
 31
0.0
  0
LINE
  5
FFB
  8
0
 62
     0
 10
49.212499999999999
 20
70.599975999985134
 30
0.0
 11
49.212499999999999
 21
74.69944565000695
 31
0.0
  0
ENDBLK
  5
FFD
  8
0
  0
BLOCK
  8
0
  2
*X43
 70
     1
 10
0.0
 20
0.0
 30
0.0
  3
*X43
  1

  0
LINE
  5
FFF
  8
0
 62
     0
 10
76.199999999999989
 20
59.299444650023403
 30
0.0
 11
76.199999999999989
 21
63.39945665002346
 31
0.0
  0
LINE
  5
1000
  8
0
 62
     0
 10
74.612499999999983
 20
59.963915566641319
 30
0.0
 11
74.612499999999983
 21
62.734973733405681
 31
0.0
  0
LINE
  5
1001
  8
0
 62
     0
 10
73.024999999999991
 20
60.199444682530469
 30
0.0
 11
73.024999999999991
 21
62.499444682530417
 31
0.0
  0
LINE
  5
1002
  8
0
 62
     0
 10
71.4375
 20
60.199444682530462
 30
0.0
 11
71.4375
 21
62.499444682530417
 31
0.0
  0
LINE
  5
1003
  8
0
 62
     0
 10
69.849999999999994
 20
60.199444682530462
 30
0.0
 11
69.849999999999994
 21
62.499444682530417
 31
0.0
  0
LINE
  5
1004
  8
0
 62
     0
 10
68.262500000000003
 20
60.199444682530448
 30
0.0
 11
68.262500000000003
 21
62.499444682530417
 31
0.0
  0
LINE
  5
1005
  8
0
 62
     0
 10
66.674999999999997
 20
60.199444682530448
 30
0.0
 11
66.674999999999997
 21
62.499444682530417
 31
0.0
  0
LINE
  5
1006
  8
0
 62
     0
 10
65.087499999999991
 20
60.199444682530448
 30
0.0
 11
65.087499999999991
 21
62.499444682530417
 31
0.0
  0
LINE
  5
1007
  8
0
 62
     0
 10
63.500000000000007
 20
60.199444682530441
 30
0.0
 11
63.500000000000007
 21
62.499444682530417
 31
0.0
  0
LINE
  5
1008
  8
0
 62
     0
 10
61.912500000000001
 20
60.199444682530441
 30
0.0
 11
61.912500000000001
 21
62.499444682530417
 31
0.0
  0
LINE
  5
1009
  8
0
 62
     0
 10
60.325000000000003
 20
60.199444682530441
 30
0.0
 11
60.325000000000003
 21
62.499444682530417
 31
0.0
  0
LINE
  5
100A
  8
0
 62
     0
 10
58.737500000000011
 20
60.199444682530441
 30
0.0
 11
58.737500000000011
 21
62.499444682530417
 31
0.0
  0
LINE
  5
100B
  8
0
 62
     0
 10
57.149999999999999
 20
60.199444682530441
 30
0.0
 11
57.149999999999999
 21
62.499444682530417
 31
0.0
  0
LINE
  5
100C
  8
0
 62
     0
 10
55.562500000000007
 20
60.199444682530441
 30
0.0
 11
55.562500000000007
 21
62.499444682530417
 31
0.0
  0
LINE
  5
100D
  8
0
 62
     0
 10
53.975000000000001
 20
60.199444682530441
 30
0.0
 11
53.975000000000001
 21
62.499444682530417
 31
0.0
  0
LINE
  5
100E
  8
0
 62
     0
 10
52.387500000000003
 20
60.199444682530427
 30
0.0
 11
52.387500000000003
 21
62.499444682530417
 31
0.0
  0
LINE
  5
100F
  8
0
 62
     0
 10
50.799999999999997
 20
60.18970205771393
 30
0.0
 11
50.799999999999997
 21
62.509187277926962
 31
0.0
  0
LINE
  5
1010
  8
0
 62
     0
 10
49.212499999999999
 20
59.299444650023482
 30
0.0
 11
49.212499999999999
 21
63.39944565000696
 31
0.0
  0
ENDBLK
  5
1012
  8
0
  0
BLOCK
  8
0
  2
*X44
 70
     1
 10
0.0
 20
0.0
 30
0.0
  3
*X44
  1

  0
LINE
  5
104A
  8
0
 62
     0
 10
30.000000000144279
 20
9.5435564980156862
 30
0.0
 11
29.785044591094451
 21
9.7585119070655093
 31
0.0
  0
LINE
  5
104B
  8
0
 62
     0
 10
30.000000000144279
 20
8.4210244828820446
 30
0.0
 11
28.791889535733919
 21
9.6291349472923944
 31
0.0
  0
LINE
  5
104C
  8
0
 62
     0
 10
30.000000000144279
 20
7.2984924677484013
 30
0.0
 11
27.696179936233221
 21
9.6023125316594591
 31
0.0
  0
LINE
  5
104D
  8
0
 62
     0
 10
30.000000000144279
 20
6.175960452614758
 30
0.0
 11
26.458603330105699
 21
9.7173571226533326
 31
0.0
  0
LINE
  5
104E
  8
0
 62
     0
 10
30.000000000144279
 20
5.0534284374811138
 30
0.0
 11
25.999999999665711
 21
9.0534284379596741
 31
0.0
  0
LINE
  5
104F
  8
0
 62
     0
 10
30.000000000144279
 20
3.9308964223474661
 30
0.0
 11
25.43089642247649
 21
8.50000000001525
 31
0.0
  0
LINE
  5
1050
  8
0
 62
     0
 10
28.243737768197231
 20
4.5646266391608687
 30
0.0
 11
24.563860370612751
 21
8.2445040367453561
 31
0.0
  0
LINE
  5
1051
  8
0
 62
     0
 10
25.18583239221595
 20
6.5000000000084981
 30
0.0
 11
24.500000000050491
 21
7.1858323921739551
 31
0.0
  0
LINE
  5
1052
  8
0
 62
     0
 10
27.50485410063979
 20
4.1809782915846601
 30
0.0
 11
26.000000000144802
 21
5.6858323920796439
 31
0.0
  0
LINE
  5
1053
  8
0
 62
     0
 10
26.142017163115931
 20
4.4212832139748857
 30
0.0
 11
25.76451961880031
 21
4.798780758290504
 31
0.0
  0
LINE
  5
1054
  8
0
 62
     0
 10
29.637593697385569
 20
3.4854458626051388
 30
0.0
 11
30.000000000144279
 21
3.847852165363848
 31
0.0
  0
LINE
  5
1055
  8
0
 62
     0
 10
29.338050327412109
 20
4.3084345077653303
 30
0.0
 11
30.000000000144279
 21
4.9703841804974882
 31
0.0
  0
LINE
  5
1056
  8
0
 62
     0
 10
28.765754104161111
 20
4.8586702996479607
 30
0.0
 11
30.000000000144279
 21
6.0929161956311351
 31
0.0
  0
LINE
  5
1057
  8
0
 62
     0
 10
28.00064141575114
 20
4.0935576112380021
 30
0.0
 11
28.258294972524499
 21
4.3512111680113597
 31
0.0
  0
LINE
  5
1058
  8
0
 62
     0
 10
27.046372718744379
 20
4.2618209293648777
 30
0.0
 11
30.000000000144279
 21
7.2154482107647828
 31
0.0
  0
LINE
  5
1059
  8
0
 62
     0
 10
26.092104021737601
 20
4.4300842474917523
 30
0.0
 11
30.000000000144279
 21
8.3379802258984235
 31
0.0
  0
LINE
  5
105A
  8
0
 62
     0
 10
26.00000000014667
 20
5.4605122410344631
 30
0.0
 11
30.000000000144279
 21
9.4605122410320703
 31
0.0
  0
LINE
  5
105B
  8
0
 62
     0
 10
25.893666306773039
 20
6.4767105627944801
 30
0.0
 11
29.072388621534511
 21
9.6554328775559455
 31
0.0
  0
LINE
  5
105C
  8
0
 62
     0
 10
24.825764097368861
 20
6.5313403685239448
 30
0.0
 11
27.892690376955638
 21
9.5982666481107142
 31
0.0
  0
LINE
  5
105D
  8
0
 62
     0
 10
25.99999999966759
 20
8.8281082859563096
 30
0.0
 11
26.837474026840582
 21
9.6655823131293044
 31
0.0
  0
LINE
  5
105E
  8
0
 62
     0
 10
24.49999999998218
 20
7.3281082862709086
 30
0.0
 11
25.671891713723781
 21
8.5000000000125002
 31
0.0
  0
ENDBLK
  5
1060
  8
0
  0
BLOCK
  8
0
  2
*X45
 70
     1
 10
0.0
 20
0.0
 30
0.0
  3
*X45
  1

  0
LINE
  5
1062
  8
0
 62
     0
 10
62.000000000016399
 20
8.9744529218855842
 30
0.0
 11
61.292741409379012
 21
9.681711512522984
 31
0.0
  0
LINE
  5
1063
  8
0
 62
     0
 10
63.499999999770871
 20
7.4744529221311238
 30
0.0
 11
62.474452921887817
 21
8.5000000000141718
 31
0.0
  0
LINE
  5
1064
  8
0
 62
     0
 10
63.27167441811244
 20
6.5802464886559022
 30
0.0
 11
60.251074271029843
 21
9.6008466357385114
 31
0.0
  0
LINE
  5
1065
  8
0
 62
     0
 10
62.229388891634201
 20
6.5000000000005018
 30
0.0
 11
59.09016882870268
 21
9.6392200629320186
 31
0.0
  0
LINE
  5
1066
  8
0
 62
     0
 10
61.999999999537323
 20
5.606856876963751
 30
0.0
 11
58.000000000144432
 21
9.6068568763566304
 31
0.0
  0
LINE
  5
1067
  8
0
 62
     0
 10
62.032304104628871
 20
4.4520207567385457
 30
0.0
 11
58.000000000144439
 21
8.48432486122298
 31
0.0
  0
LINE
  5
1068
  8
0
 62
     0
 10
61.078035407622089
 20
4.2837574386116737
 30
0.0
 11
58.000000000144432
 21
7.3617928460893367
 31
0.0
  0
LINE
  5
1069
  8
0
 62
     0
 10
59.425587647328541
 20
4.8136731837715816
 30
0.0
 11
58.000000000144439
 21
6.2392608309556943
 31
0.0
  0
LINE
  5
106A
  8
0
 62
     0
 10
60.123766710615328
 20
4.1154941204847999
 30
0.0
 11
59.768727145435207
 21
4.4705336856649156
 31
0.0
  0
LINE
  5
106B
  8
0
 62
     0
 10
58.701001178447513
 20
4.4157276375189713
 30
0.0
 11
58.000000000144432
 21
5.1167288158220501
 31
0.0
  0
LINE
  5
106C
  8
0
 62
     0
 10
58.401457808474063
 20
3.592738992358782
 30
0.0
 11
58.000000000144439
 21
3.994196800688405
 31
0.0
  0
LINE
  5
106D
  8
0
 62
     0
 10
62.035656054452978
 20
4.452611795930518
 30
0.0
 11
62.25741688991679
 21
4.6743726313943368
 31
0.0
  0
LINE
  5
106E
  8
0
 62
     0
 10
62.960512243399322
 20
6.5000000000104983
 30
0.0
 11
63.499999999562
 21
7.039487756173183
 31
0.0
  0
LINE
  5
106F
  8
0
 62
     0
 10
60.672819116929119
 20
4.2123068735402951
 30
0.0
 11
61.999999999536762
 21
5.5394877561479383
 31
0.0
  0
LINE
  5
1070
  8
0
 62
     0
 10
59.76421902896228
 20
4.426238800707103
 30
0.0
 11
63.479541786705823
 21
8.1415615584506433
 31
0.0
  0
LINE
  5
1071
  8
0
 62
     0
 10
59.04608802924534
 20
4.8306398161238064
 30
0.0
 11
62.715448213138451
 21
8.5000000000169216
 31
0.0
  0
LINE
  5
1072
  8
0
 62
     0
 10
58.000000000144418
 20
3.7845517870228949
 30
0.0
 11
58.740958963897668
 21
4.5255107507761423
 31
0.0
  0
LINE
  5
1073
  8
0
 62
     0
 10
58.000000000144418
 20
4.9070838021565448
 30
0.0
 11
62.000000000015838
 21
8.9070838020279623
 31
0.0
  0
LINE
  5
1074
  8
0
 62
     0
 10
58.000000000144432
 20
6.0296158172901917
 30
0.0
 11
61.716731080143859
 21
9.7463468972896194
 31
0.0
  0
LINE
  5
1075
  8
0
 62
     0
 10
58.000000000144439
 20
7.152147832423835
 30
0.0
 11
60.455956059016017
 21
9.6081038912954142
 31
0.0
  0
LINE
  5
1076
  8
0
 62
     0
 10
58.000000000144432
 20
8.2746798475574792
 30
0.0
 11
59.344542698422529
 21
9.6192225458355765
 31
0.0
  0
LINE
  5
1077
  8
0
 62
     0
 10
58.000000000144418
 20
9.3972118626911154
 30
0.0
 11
58.339490121961418
 21
9.7367019845081089
 31
0.0
  0
ENDBLK
  5
1079
  8
0
  0
BLOCK
  8
0
  2
*U46
 70
     1
 10
0.0
 20
0.0
 30
0.0
  3
*U46
  1

  0
TEXT
  5
11B8
  8
0
 62
     2
 10
57.551991686137953
 20
11.550000000630281
 30
0.0
 40
3.5
  1
28
 50
90.0
  7
BYGG-027379$0$ISO
  0
ENDBLK
  5
11BA
  8
0
  0
BLOCK
  8
0
  2
*U47
 70
     1
 10
0.0
 20
0.0
 30
0.0
  3
*U47
  1

  0
TEXT
  5
11BC
  8
0
 62
     2
 10
20.874999999841279
 20
-6.9002964607942188
 30
0.0
 40
3.5
  1
47
  7
BYGG-027379$0$ISO
  0
ENDBLK
  5
11BE
  8
0
  0
BLOCK
  8
0
  2
*X48
 70
     1
 10
0.0
 20
0.0
 30
0.0
  3
*X48
  1

  0
LINE
  5
11C0
  8
0
 62
     0
 10
38.100000000000001
 20
7.2500120012615357
 30
0.0
 11
38.100000000000001
 21
11.35002133459092
 31
0.0
  0
LINE
  5
11C1
  8
0
 62
     0
 10
36.512500000000003
 20
7.9722179862110449
 30
0.0
 11
36.512500000000003
 21
10.62780601631216
 31
0.0
  0
LINE
  5
11C2
  8
0
 62
     0
 10
34.924999999999997
 20
8.3500120012634689
 30
0.0
 11
34.924999999999997
 21
10.250012001263441
 31
0.0
  0
LINE
  5
11C3
  8
0
 62
     0
 10
33.337499999999999
 20
8.3500120012634689
 30
0.0
 11
33.337499999999999
 21
10.250012001263441
 31
0.0
  0
LINE
  5
11C4
  8
0
 62
     0
 10
31.75
 20
8.3500120012634689
 30
0.0
 11
31.75
 21
10.250012001263441
 31
0.0
  0
LINE
  5
11C5
  8
0
 62
     0
 10
30.162500000000001
 20
8.3500120012634689
 30
0.0
 11
30.162500000000001
 21
10.250012001263441
 31
0.0
  0
LINE
  5
11C6
  8
0
 62
     0
 10
28.574999999999999
 20
8.3500120012634689
 30
0.0
 11
28.574999999999999
 21
10.250012001263441
 31
0.0
  0
LINE
  5
11C7
  8
0
 62
     0
 10
26.987500000000001
 20
8.3500120012634689
 30
0.0
 11
26.987500000000001
 21
10.250012001263441
 31
0.0
  0
LINE
  5
11C8
  8
0
 62
     0
 10
25.399999999999999
 20
8.3500120012634689
 30
0.0
 11
25.399999999999999
 21
10.250012001263441
 31
0.0
  0
LINE
  5
11C9
  8
0
 62
     0
 10
23.8125
 20
8.3500120012634689
 30
0.0
 11
23.8125
 21
10.250012001263441
 31
0.0
  0
LINE
  5
11CA
  8
0
 62
     0
 10
22.225000000000001
 20
8.3500120012634689
 30
0.0
 11
22.225000000000001
 21
10.250012001263441
 31
0.0
  0
LINE
  5
11CB
  8
0
 62
     0
 10
20.637499999999999
 20
8.3500120012634689
 30
0.0
 11
20.637499999999999
 21
10.250012001263441
 31
0.0
  0
LINE
  5
11CC
  8
0
 62
     0
 10
19.050000000000001
 20
8.3500120012634689
 30
0.0
 11
19.050000000000001
 21
10.250012001263441
 31
0.0
  0
LINE
  5
11CD
  8
0
 62
     0
 10
17.462499999999999
 20
8.3500120012634689
 30
0.0
 11
17.462499999999999
 21
10.250012001263441
 31
0.0
  0
LINE
  5
11CE
  8
0
 62
     0
 10
15.875
 20
8.3500120012634689
 30
0.0
 11
15.875
 21
10.250012001263441
 31
0.0
  0
LINE
  5
11CF
  8
0
 62
     0
 10
14.2875
 20
8.3500120012634689
 30
0.0
 11
14.2875
 21
10.250012001263441
 31
0.0
  0
LINE
  5
11D0
  8
0
 62
     0
 10
12.699999999999999
 20
8.3500120012634689
 30
0.0
 11
12.699999999999999
 21
10.250012001263441
 31
0.0
  0
LINE
  5
11D1
  8
0
 62
     0
 10
11.112500000000001
 20
8.3119842071189947
 30
0.0
 11
11.112500000000001
 21
10.28803979540581
 31
0.0
  0
LINE
  5
11D2
  8
0
 62
     0
 10
9.5249999999999986
 20
7.4165183522993479
 30
0.0
 11
9.5249999999999986
 21
11.18350565022406
 31
0.0
  0
ENDBLK
  5
11D4
  8
0
  0
BLOCK
  8
0
  2
*U49
 70
     1
 10
0.0
 20
0.0
 30
0.0
  3
*U49
  1

  0
TEXT
  5
120D
  8
0
 62
     2
 10
30.549999999992721
 20
-9.2842647104440772
 30
0.0
 40
3.5
  1
69.5
  7
BYGG-027390$0$ISO
  0
ENDBLK
  5
120F
  8
0
  0
BLOCK
  8
0
  2
*U50
 70
     1
 10
0.0
 20
0.0
 30
0.0
  3
*U50
  1

  0
TEXT
  5
1211
  8
0
 62
     2
 10
80.986028493452579
 20
5.9500000000018609
 30
0.0
 40
3.5
  1
20.3
 50
90.0
  7
BYGG-027390$0$ISO
  0
ENDBLK
  5
1213
  8
0
  0
BLOCK
  8
0
  2
*U51
 70
     1
 10
0.0
 20
0.0
 30
0.0
  3
*U51
  1

  0
TEXT
  5
1216
  8
0
 62
     2
 10
-12.000000000000011
 20
62.900000000005512
 30
0.0
 40
3.5
  1
10
 50
90.0
  7
ISO
  0
ENDBLK
  5
1218
  8
0
  0
BLOCK
  8
0
  2
*U52
 70
     1
 10
0.0
 20
0.0
 30
0.0
  3
*U52
  1

  0
TEXT
  5
121A
  8
0
 62
     2
 10
14.27500000009033
 20
102.0000000000001
 30
0.0
 40
3.5
  1
6.5
  7
ISO
  0
ENDBLK
  5
121C
  8
0
  0
BLOCK
  8
0
  2
*U53
 70
     1
 10
0.0
 20
0.0
 30
0.0
  3
*U53
  1

  0
TEXT
  5
121E
  8
0
 62
     2
 10
41.374999999841393
 20
102.0000000000001
 30
0.0
 40
3.5
  1
47
  7
ISO
  0
ENDBLK
  5
1220
  8
0
  0
BLOCK
  8
0
  2
*U54
 70
     1
 10
0.0
 20
0.0
 30
0.0
  3
*U54
  1

  0
TEXT
  5
1222
  8
0
 62
     2
 10
99.399999999502128
 20
102.0000000000001
 30
0.0
 40
3.5
  1
71.5
  7
ISO
  0
ENDBLK
  5
1224
  8
0
  0
BLOCK
  8
0
  2
*U55
 70
     1
 10
0.0
 20
0.0
 30
0.0
  3
*U55
  1

  0
TEXT
  5
1226
  8
0
 62
     2
 10
-12.000000000000011
 20
-1.474999999999985
 30
0.0
 40
3.5
  1
117
 50
90.0
  7
ISO
  0
ENDBLK
  5
1228
  8
0
  0
BLOCK
  8
0
  2
*U56
 70
     1
 10
0.0
 20
0.0
 30
0.0
  3
*U56
  1

  0
TEXT
  5
122A
  8
0
 62
     2
 10
73.17499999975108
 20
114.0000000000001
 30
0.0
 40
3.5
  1
125
  7
ISO
  0
ENDBLK
  5
122C
  8
0
  0
BLOCK
  8
0
  2
*U57
 70
     1
 10
0.0
 20
0.0
 30
0.0
  3
*U57
  1

  0
TEXT
  5
122E
  8
0
 62
     2
 10
73.174999963870675
 20
-68.462756140658584
 30
0.0
 40
3.5
  1
125
  7
BYGG-027377$0$ISO
  0
ENDBLK
  5
1230
  8
0
  0
BLOCK
  8
0
  2
*U58
 70
     1
 10
0.0
 20
0.0
 30
0.0
  3
*U58
  1

  0
TEXT
  5
1232
  8
0
 62
     2
 10
100.0499999277487
 20
31.915735289550391
 30
0.0
 40
3.5
  1
69.5
  7
BYGG-027390$0$ISO
  0
ENDBLK
  5
1234
  8
0
  0
BLOCK
  8
0
  2
*U59
 70
     1
 10
0.0
 20
0.0
 30
0.0
  3
*U59
  1

  0
TEXT
  5
17A6
  8
0
 62
     2
 10
150.48602842120849
 20
47.149999999996339
 30
0.0
 40
3.5
  1
20.3
 50
90.0
  7
BYGG-027390$0$ISO
  0
ENDBLK
  5
17A8
  8
0
  0
BLOCK
  8
0
  2
*U60
 70
     1
 10
0.0
 20
0.0
 30
0.0
  3
*U60
  1

  0
TEXT
  5
17AA
  8
0
 62
     2
 10
78.051991686138024
 20
53.549999999379871
 30
0.0
 40
3.5
  1
28
 50
90.0
  7
BYGG-027379$0$ISO
  0
ENDBLK
  5
17AC
  8
0
  0
BLOCK
  8
0
  2
*U61
 70
     1
 10
0.0
 20
0.0
 30
0.0
  3
*U61
  1

  0
TEXT
  5
17AE
  8
0
 62
     2
 10
41.374999999841378
 20
35.099703537955378
 30
0.0
 40
3.5
  1
47
  7
BYGG-027379$0$ISO
  0
ENDBLK
  5
17B0
  8
0
  0
BLOCK
  8
0
  2
*U62
 70
     1
 10
0.0
 20
0.0
 30
0.0
  3
*U62
  1

  0
TEXT
  5
17B2
  8
0
 62
     2
 10
152.90701892661929
 20
-1.474999999999967
 30
0.0
 40
3.5
  1
117
 50
90.0
  7
BYGG-027377$0$ISO
  0
ENDBLK
  5
17B4
  8
0
  0
BLOCK
  8
0
  2
*X63
 70
     1
 10
0.0
 20
0.0
 30
0.0
  3
*X63
  1

  0
LINE
  5
17EB
  8
0
 62
     0
 10
62.000000000016399
 20
68.9744529218856
 30
0.0
 11
61.292741409379012
 21
69.68171151252298
 31
0.0
  0
LINE
  5
17EC
  8
0
 62
     0
 10
63.499999999770878
 20
67.474452922131121
 30
0.0
 11
62.474452921887817
 21
68.500000000014168
 31
0.0
  0
LINE
  5
17ED
  8
0
 62
     0
 10
63.271674418112447
 20
66.580246488655902
 30
0.0
 11
60.251074271029843
 21
69.600846635738506
 31
0.0
  0
LINE
  5
17EE
  8
0
 62
     0
 10
62.229388891634201
 20
66.500000000000512
 30
0.0
 11
59.090168828702687
 21
69.639220062932026
 31
0.0
  0
LINE
  5
17EF
  8
0
 62
     0
 10
61.999999999537323
 20
65.606856876963761
 30
0.0
 11
58.000000000144439
 21
69.606856876356645
 31
0.0
  0
LINE
  5
17F0
  8
0
 62
     0
 10
62.032304104628871
 20
64.452020756738534
 30
0.0
 11
58.000000000144439
 21
68.484324861222973
 31
0.0
  0
LINE
  5
17F1
  8
0
 62
     0
 10
61.078035407622082
 20
64.283757438611673
 30
0.0
 11
58.000000000144432
 21
67.361792846089344
 31
0.0
  0
LINE
  5
17F2
  8
0
 62
     0
 10
59.425587647328527
 20
64.813673183771613
 30
0.0
 11
58.000000000144439
 21
66.2392608309557
 31
0.0
  0
LINE
  5
17F3
  8
0
 62
     0
 10
60.123766710615328
 20
64.115494120484811
 30
0.0
 11
59.768727145435207
 21
64.470533685664932
 31
0.0
  0
LINE
  5
17F4
  8
0
 62
     0
 10
58.701001178447513
 20
64.41572763751897
 30
0.0
 11
58.000000000144432
 21
65.116728815822057
 31
0.0
  0
LINE
  5
17F5
  8
0
 62
     0
 10
58.401457808474063
 20
63.59273899235879
 30
0.0
 11
58.000000000144439
 21
63.994196800688421
 31
0.0
  0
LINE
  5
17F6
  8
0
 62
     0
 10
62.035656054452978
 20
64.452611795930522
 30
0.0
 11
62.25741688991679
 21
64.674372631394334
 31
0.0
  0
LINE
  5
17F7
  8
0
 62
     0
 10
62.960512243399322
 20
66.500000000010502
 30
0.0
 11
63.499999999562
 21
67.039487756173187
 31
0.0
  0
LINE
  5
17F8
  8
0
 62
     0
 10
60.672819116929119
 20
64.2123068735403
 30
0.0
 11
61.999999999536747
 21
65.539487756147935
 31
0.0
  0
LINE
  5
17F9
  8
0
 62
     0
 10
59.764219028962273
 20
64.426238800707097
 30
0.0
 11
63.479541786705823
 21
68.141561558450647
 31
0.0
  0
LINE
  5
17FA
  8
0
 62
     0
 10
59.04608802924534
 20
64.830639816123806
 30
0.0
 11
62.715448213138437
 21
68.500000000016911
 31
0.0
  0
LINE
  5
17FB
  8
0
 62
     0
 10
58.000000000144432
 20
63.784551787022899
 30
0.0
 11
58.740958963897668
 21
64.525510750776135
 31
0.0
  0
LINE
  5
17FC
  8
0
 62
     0
 10
58.000000000144418
 20
64.907083802156549
 30
0.0
 11
62.000000000015838
 21
68.907083802027955
 31
0.0
  0
LINE
  5
17FD
  8
0
 62
     0
 10
58.000000000144432
 20
66.029615817290193
 30
0.0
 11
61.716731080143859
 21
69.746346897289612
 31
0.0
  0
LINE
  5
17FE
  8
0
 62
     0
 10
58.000000000144439
 20
67.152147832423836
 30
0.0
 11
60.455956059016003
 21
69.6081038912954
 31
0.0
  0
LINE
  5
17FF
  8
0
 62
     0
 10
58.000000000144432
 20
68.274679847557479
 30
0.0
 11
59.344542698422529
 21
69.619222545835569
 31
0.0
  0
LINE
  5
1800
  8
0
 62
     0
 10
58.000000000144418
 20
69.397211862691094
 30
0.0
 11
58.339490121961397
 21
69.736701984508102
 31
0.0
  0
ENDBLK
  5
1802
  8
0
  0
BLOCK
  8
0
  2
*X64
 70
     1
 10
0.0
 20
0.0
 30
0.0
  3
*X64
  1

  0
LINE
  5
1804
  8
0
 62
     0
 10
30.000000000144279
 20
69.54355649801569
 30
0.0
 11
29.785044591094461
 21
69.758511907065511
 31
0.0
  0
LINE
  5
1805
  8
0
 62
     0
 10
30.000000000144279
 20
68.421024482882046
 30
0.0
 11
28.79188953573393
 21
69.6291349472924
 31
0.0
  0
LINE
  5
1806
  8
0
 62
     0
 10
30.000000000144279
 20
67.298492467748403
 30
0.0
 11
27.696179936233221
 21
69.60231253165945
 31
0.0
  0
LINE
  5
1807
  8
0
 62
     0
 10
30.000000000144279
 20
66.17596045261476
 30
0.0
 11
26.458603330105699
 21
69.71735712265334
 31
0.0
  0
LINE
  5
1808
  8
0
 62
     0
 10
30.000000000144279
 20
65.053428437481116
 30
0.0
 11
25.999999999665722
 21
69.053428437959667
 31
0.0
  0
LINE
  5
1809
  8
0
 62
     0
 10
30.000000000144269
 20
63.930896422347473
 30
0.0
 11
25.43089642247649
 21
68.500000000015248
 31
0.0
  0
LINE
  5
180A
  8
0
 62
     0
 10
28.243737768197231
 20
64.564626639160878
 30
0.0
 11
24.563860370612741
 21
68.244504036745354
 31
0.0
  0
LINE
  5
180B
  8
0
 62
     0
 10
25.18583239221595
 20
66.500000000008498
 30
0.0
 11
24.500000000050498
 21
67.185832392173936
 31
0.0
  0
LINE
  5
180C
  8
0
 62
     0
 10
27.50485410063979
 20
64.180978291584665
 30
0.0
 11
26.000000000144802
 21
65.685832392079647
 31
0.0
  0
LINE
  5
180D
  8
0
 62
     0
 10
26.142017163115931
 20
64.421283213974888
 30
0.0
 11
25.76451961880031
 21
64.798780758290505
 31
0.0
  0
LINE
  5
180E
  8
0
 62
     0
 10
29.637593697385569
 20
63.485445862605147
 30
0.0
 11
30.000000000144279
 21
63.847852165363861
 31
0.0
  0
LINE
  5
180F
  8
0
 62
     0
 10
29.33805032741212
 20
64.308434507765341
 30
0.0
 11
30.000000000144279
 21
64.970384180497504
 31
0.0
  0
LINE
  5
1810
  8
0
 62
     0
 10
28.765754104161111
 20
64.858670299647969
 30
0.0
 11
30.000000000144279
 21
66.092916195631148
 31
0.0
  0
LINE
  5
1811
  8
0
 62
     0
 10
28.000641415751151
 20
64.093557611238012
 30
0.0
 11
28.25829497252451
 21
64.351211168011375
 31
0.0
  0
LINE
  5
1812
  8
0
 62
     0
 10
27.046372718744379
 20
64.261820929364887
 30
0.0
 11
30.000000000144279
 21
67.215448210764791
 31
0.0
  0
LINE
  5
1813
  8
0
 62
     0
 10
26.092104021737601
 20
64.430084247491763
 30
0.0
 11
30.000000000144279
 21
68.337980225898434
 31
0.0
  0
LINE
  5
1814
  8
0
 62
     0
 10
26.00000000014667
 20
65.460512241034465
 30
0.0
 11
30.000000000144279
 21
69.460512241032063
 31
0.0
  0
LINE
  5
1815
  8
0
 62
     0
 10
25.893666306773039
 20
66.47671056279448
 30
0.0
 11
29.0723886215345
 21
69.655432877555924
 31
0.0
  0
LINE
  5
1816
  8
0
 62
     0
 10
24.825764097368861
 20
66.531340368523956
 30
0.0
 11
27.892690376955638
 21
69.598266648110723
 31
0.0
  0
LINE
  5
1817
  8
0
 62
     0
 10
25.99999999966759
 20
68.828108285956318
 30
0.0
 11
26.837474026840571
 21
69.665582313129306
 31
0.0
  0
LINE
  5
1818
  8
0
 62
     0
 10
24.49999999998219
 20
67.328108286270918
 30
0.0
 11
25.67189171372377
 21
68.500000000012506
 31
0.0
  0
ENDBLK
  5
181A
  8
0
  0
BLOCK
  8
0
  2
*X65
 70
     1
 10
0.0
 20
0.0
 30
0.0
  3
*X65
  1

  0
LINE
  5
1851
  8
0
 62
     0
 10
62.000000000016399
 20
68.9744529218856
 30
0.0
 11
61.292741409379012
 21
69.68171151252298
 31
0.0
  0
LINE
  5
1852
  8
0
 62
     0
 10
63.499999999770878
 20
67.474452922131121
 30
0.0
 11
62.474452921887817
 21
68.500000000014168
 31
0.0
  0
LINE
  5
1853
  8
0
 62
     0
 10
63.271674418112447
 20
66.580246488655902
 30
0.0
 11
60.251074271029843
 21
69.600846635738506
 31
0.0
  0
LINE
  5
1854
  8
0
 62
     0
 10
62.229388891634201
 20
66.500000000000512
 30
0.0
 11
59.090168828702687
 21
69.639220062932026
 31
0.0
  0
LINE
  5
1855
  8
0
 62
     0
 10
61.999999999537323
 20
65.606856876963761
 30
0.0
 11
58.000000000144439
 21
69.606856876356645
 31
0.0
  0
LINE
  5
1856
  8
0
 62
     0
 10
62.032304104628871
 20
64.452020756738534
 30
0.0
 11
58.000000000144439
 21
68.484324861222973
 31
0.0
  0
LINE
  5
1857
  8
0
 62
     0
 10
61.078035407622082
 20
64.283757438611673
 30
0.0
 11
58.000000000144432
 21
67.361792846089344
 31
0.0
  0
LINE
  5
1858
  8
0
 62
     0
 10
59.425587647328527
 20
64.813673183771613
 30
0.0
 11
58.000000000144439
 21
66.2392608309557
 31
0.0
  0
LINE
  5
1859
  8
0
 62
     0
 10
60.123766710615328
 20
64.115494120484811
 30
0.0
 11
59.768727145435207
 21
64.470533685664932
 31
0.0
  0
LINE
  5
185A
  8
0
 62
     0
 10
58.701001178447513
 20
64.41572763751897
 30
0.0
 11
58.000000000144432
 21
65.116728815822057
 31
0.0
  0
LINE
  5
185B
  8
0
 62
     0
 10
58.401457808474063
 20
63.59273899235879
 30
0.0
 11
58.000000000144439
 21
63.994196800688421
 31
0.0
  0
LINE
  5
185C
  8
0
 62
     0
 10
62.035656054452978
 20
64.452611795930522
 30
0.0
 11
62.25741688991679
 21
64.674372631394334
 31
0.0
  0
LINE
  5
185D
  8
0
 62
     0
 10
62.960512243399322
 20
66.500000000010502
 30
0.0
 11
63.499999999562
 21
67.039487756173187
 31
0.0
  0
LINE
  5
185E
  8
0
 62
     0
 10
60.672819116929119
 20
64.2123068735403
 30
0.0
 11
61.999999999536747
 21
65.539487756147935
 31
0.0
  0
LINE
  5
185F
  8
0
 62
     0
 10
59.764219028962273
 20
64.426238800707097
 30
0.0
 11
63.479541786705823
 21
68.141561558450647
 31
0.0
  0
LINE
  5
1860
  8
0
 62
     0
 10
59.04608802924534
 20
64.830639816123806
 30
0.0
 11
62.715448213138437
 21
68.500000000016911
 31
0.0
  0
LINE
  5
1861
  8
0
 62
     0
 10
58.000000000144432
 20
63.784551787022899
 30
0.0
 11
58.740958963897668
 21
64.525510750776135
 31
0.0
  0
LINE
  5
1862
  8
0
 62
     0
 10
58.000000000144418
 20
64.907083802156549
 30
0.0
 11
62.000000000015838
 21
68.907083802027955
 31
0.0
  0
LINE
  5
1863
  8
0
 62
     0
 10
58.000000000144432
 20
66.029615817290193
 30
0.0
 11
61.716731080143859
 21
69.746346897289612
 31
0.0
  0
LINE
  5
1864
  8
0
 62
     0
 10
58.000000000144439
 20
67.152147832423836
 30
0.0
 11
60.455956059016003
 21
69.6081038912954
 31
0.0
  0
LINE
  5
1865
  8
0
 62
     0
 10
58.000000000144432
 20
68.274679847557479
 30
0.0
 11
59.344542698422529
 21
69.619222545835569
 31
0.0
  0
LINE
  5
1866
  8
0
 62
     0
 10
58.000000000144418
 20
69.397211862691094
 30
0.0
 11
58.339490121961397
 21
69.736701984508102
 31
0.0
  0
ENDBLK
  5
1868
  8
0
  0
BLOCK
  8
0
  2
*X66
 70
     1
 10
0.0
 20
0.0
 30
0.0
  3
*X66
  1

  0
LINE
  5
186A
  8
0
 62
     0
 10
30.000000000144279
 20
69.54355649801569
 30
0.0
 11
29.785044591094461
 21
69.758511907065511
 31
0.0
  0
LINE
  5
186B
  8
0
 62
     0
 10
30.000000000144279
 20
68.421024482882046
 30
0.0
 11
28.79188953573393
 21
69.6291349472924
 31
0.0
  0
LINE
  5
186C
  8
0
 62
     0
 10
30.000000000144279
 20
67.298492467748403
 30
0.0
 11
27.696179936233221
 21
69.60231253165945
 31
0.0
  0
LINE
  5
186D
  8
0
 62
     0
 10
30.000000000144279
 20
66.17596045261476
 30
0.0
 11
26.458603330105699
 21
69.71735712265334
 31
0.0
  0
LINE
  5
186E
  8
0
 62
     0
 10
30.000000000144279
 20
65.053428437481116
 30
0.0
 11
25.999999999665722
 21
69.053428437959667
 31
0.0
  0
LINE
  5
186F
  8
0
 62
     0
 10
30.000000000144269
 20
63.930896422347473
 30
0.0
 11
25.43089642247649
 21
68.500000000015248
 31
0.0
  0
LINE
  5
1870
  8
0
 62
     0
 10
28.243737768197231
 20
64.564626639160878
 30
0.0
 11
24.563860370612741
 21
68.244504036745354
 31
0.0
  0
LINE
  5
1871
  8
0
 62
     0
 10
25.18583239221595
 20
66.500000000008498
 30
0.0
 11
24.500000000050498
 21
67.185832392173936
 31
0.0
  0
LINE
  5
1872
  8
0
 62
     0
 10
27.50485410063979
 20
64.180978291584665
 30
0.0
 11
26.000000000144802
 21
65.685832392079647
 31
0.0
  0
LINE
  5
1873
  8
0
 62
     0
 10
26.142017163115931
 20
64.421283213974888
 30
0.0
 11
25.76451961880031
 21
64.798780758290505
 31
0.0
  0
LINE
  5
1874
  8
0
 62
     0
 10
29.637593697385569
 20
63.485445862605147
 30
0.0
 11
30.000000000144279
 21
63.847852165363861
 31
0.0
  0
LINE
  5
1875
  8
0
 62
     0
 10
29.33805032741212
 20
64.308434507765341
 30
0.0
 11
30.000000000144279
 21
64.970384180497504
 31
0.0
  0
LINE
  5
1876
  8
0
 62
     0
 10
28.765754104161111
 20
64.858670299647969
 30
0.0
 11
30.000000000144279
 21
66.092916195631148
 31
0.0
  0
LINE
  5
1877
  8
0
 62
     0
 10
28.000641415751151
 20
64.093557611238012
 30
0.0
 11
28.25829497252451
 21
64.351211168011375
 31
0.0
  0
LINE
  5
1878
  8
0
 62
     0
 10
27.046372718744379
 20
64.261820929364887
 30
0.0
 11
30.000000000144279
 21
67.215448210764791
 31
0.0
  0
LINE
  5
1879
  8
0
 62
     0
 10
26.092104021737601
 20
64.430084247491763
 30
0.0
 11
30.000000000144279
 21
68.337980225898434
 31
0.0
  0
LINE
  5
187A
  8
0
 62
     0
 10
26.00000000014667
 20
65.460512241034465
 30
0.0
 11
30.000000000144279
 21
69.460512241032063
 31
0.0
  0
LINE
  5
187B
  8
0
 62
     0
 10
25.893666306773039
 20
66.47671056279448
 30
0.0
 11
29.0723886215345
 21
69.655432877555924
 31
0.0
  0
LINE
  5
187C
  8
0
 62
     0
 10
24.825764097368861
 20
66.531340368523956
 30
0.0
 11
27.892690376955638
 21
69.598266648110723
 31
0.0
  0
LINE
  5
187D
  8
0
 62
     0
 10
25.99999999966759
 20
68.828108285956318
 30
0.0
 11
26.837474026840571
 21
69.665582313129306
 31
0.0
  0
LINE
  5
187E
  8
0
 62
     0
 10
24.49999999998219
 20
67.328108286270918
 30
0.0
 11
25.67189171372377
 21
68.500000000012506
 31
0.0
  0
ENDBLK
  5
1880
  8
0
  0
BLOCK
  8
0
  2
*U67
 70
     1
 10
0.0
 20
0.0
 30
0.0
  3
*U67
  1

  0
TEXT
  5
1965
  8
SAPA_MATT
 62
     2
 10
-24.00265151515147
 20
-13.225000000010651
 30
0.0
 40
3.5
  1
min. 130
 50
90.0
  7
ISO
  0
ENDBLK
  5
1967
  8
0
  0
BLOCK
  8
0
  2
*U68
 70
     1
 10
0.0
 20
0.0
 30
0.0
  3
*U68
  1

  0
TEXT
  5
1969
  8
SAPA_MATT
 62
     2
 10
73.17499999975108
 20
114.0000000000001
 30
0.0
 40
3.5
  1
125
  7
ISO
  0
ENDBLK
  5
196B
  8
0
  0
BLOCK
  8
0
  2
*U69
 70
     1
 10
0.0
 20
0.0
 30
0.0
  3
*U69
  1

  0
TEXT
  5
196D
  8
SAPA_MATT
 62
     2
 10
14.27500000009033
 20
102.0000000000001
 30
0.0
 40
3.5
  1
6.5
  7
ISO
  0
ENDBLK
  5
196F
  8
0
  0
BLOCK
  8
0
  2
*U70
 70
     1
 10
0.0
 20
0.0
 30
0.0
  3
*U70
  1

  0
TEXT
  5
1971
  8
SAPA_MATT
 62
     2
 10
-12.000000000000011
 20
-1.474999999999985
 30
0.0
 40
3.5
  1
117
 50
90.0
  7
ISO
  0
ENDBLK
  5
1973
  8
0
  0
ENDSEC
  0
SECTION
  2
ENTITIES
  0
TEXT
  5
70A
  8
SAPA_ARTIKELNR
 10
12.345450637514279
 20
-32.243587403564142
 30
0.0000000048844772
 40
3.5
  1
D8K029
 50
90.0
  7
ISO
  0
TEXT
  5
722
  8
SAPA_ARTIKELNR
 10
25.501548181574201
 20
71.432510928874734
 30
0.0000000048844772
 40
3.5
  1
D8V002
 50
90.0
  7
ISO
  0
POLYLINE
  5
85A
  8
SAPA_BESLAG
 66
     1
 10
0.0
 20
0.0
 30
0.0
 70
     1
  0
VERTEX
  5
D18
  8
SAPA_BESLAG
 10
55.500000001612129
 20
27.50000000268366
 30
0.0
 42
-0.4142135623733615
  0
VERTEX
  5
D19
  8
SAPA_BESLAG
 10
55.000000001612129
 20
27.000000002683201
 30
0.0
  0
VERTEX
  5
D1A
  8
SAPA_BESLAG
 10
50.700000001609233
 20
27.000000002683201
 30
0.0
 42
-0.4142135623730951
  0
VERTEX
  5
D1B
  8
SAPA_BESLAG
 10
50.200000001609233
 20
27.500000002683201
 30
0.0
  0
VERTEX
  5
D1C
  8
SAPA_BESLAG
 10
50.200000001609233
 20
46.934173753879989
 30
0.0
 42
-0.0655434628193178
  0
VERTEX
  5
D1D
  8
SAPA_BESLAG
 10
50.2170370884674
 20
47.063583276432567
 30
0.0
  0
VERTEX
  5
D1E
  8
SAPA_BESLAG
 10
50.904548159767572
 20
49.629409525242558
 30
0.0
 42
-0.3394542588589677
  0
VERTEX
  5
D1F
  8
SAPA_BESLAG
 10
51.387511072910058
 20
50.000000002683649
 30
0.0
  0
VERTEX
  5
D20
  8
SAPA_BESLAG
 10
53.205309252629888
 20
50.000000002683649
 30
0.0
 42
-0.3394542588711624
  0
VERTEX
  5
D21
  8
SAPA_BESLAG
 10
53.6882721657717
 20
49.62940952523077
 30
0.0
  0
VERTEX
  5
D22
  8
SAPA_BESLAG
 10
54.400700581730611
 20
46.970590480043661
 30
0.0
 42
0.3394542588715295
  0
VERTEX
  5
D23
  8
SAPA_BESLAG
 10
54.883663494878931
 20
46.600000002580792
 30
0.0
  0
VERTEX
  5
D24
  8
SAPA_BESLAG
 10
57.116336509014722
 20
46.600000002581247
 30
0.0
 42
0.2360679770209484
  0
VERTEX
  5
D25
  8
SAPA_BESLAG
 10
57.516336508470523
 20
46.800000001847771
 30
0.0
 42
-0.2360679770747178
  0
VERTEX
  5
D26
  8
SAPA_BESLAG
 10
57.91633650802811
 20
47.000000001122046
 30
0.0
  0
VERTEX
  5
D27
  8
SAPA_BESLAG
 10
65.000000003169191
 20
46.999999999689607
 30
0.0
 42
-0.4142135623134248
  0
VERTEX
  5
D28
  8
SAPA_BESLAG
 10
65.500000003067328
 20
46.499999999689607
 30
0.0
  0
VERTEX
  5
D29
  8
SAPA_BESLAG
 10
65.500000003052776
 20
44.100000002683572
 30
0.0
 42
-0.4142135623730951
  0
VERTEX
  5
D2A
  8
SAPA_BESLAG
 10
65.000000003052776
 20
43.600000002683558
 30
0.0
  0
VERTEX
  5
D2B
  8
SAPA_BESLAG
 10
57.000000001612129
 20
43.600000002684467
 30
0.0
 42
0.4142135623730951
  0
VERTEX
  5
D2C
  8
SAPA_BESLAG
 10
55.500000001612129
 20
42.100000002684467
 30
0.0
  0
VERTEX
  5
D2D
  8
SAPA_BESLAG
 10
55.500000001597591
 20
38.846410164153639
 30
0.0
  0
VERTEX
  5
D2E
  8
SAPA_BESLAG
 10
55.300000001629591
 20
38.500000002685013
 30
0.0
  0
VERTEX
  5
D2F
  8
SAPA_BESLAG
 10
55.500000001612129
 20
38.153589841166387
 30
0.0
  0
VERTEX
  5
D30
  8
SAPA_BESLAG
 10
55.500000001597591
 20
36.846410164171367
 30
0.0
  0
VERTEX
  5
D31
  8
SAPA_BESLAG
 10
55.300000001629591
 20
36.500000002683208
 30
0.0
  0
VERTEX
  5
D32
  8
SAPA_BESLAG
 10
55.500000001612129
 20
36.153589841164568
 30
0.0
  0
SEQEND
  5
D33
  8
SAPA_BESLAG
  0
POLYLINE
  5
85B
  8
SAPA_BESLAG
 66
     1
 10
0.0
 20
0.0
 30
0.0
 70
     1
  0
VERTEX
  5
D34
  8
SAPA_BESLAG
 10
32.500000001117371
 20
27.50000000268366
 30
0.0
 42
0.4142135623733615
  0
VERTEX
  5
D35
  8
SAPA_BESLAG
 10
33.000000001117371
 20
27.000000002683201
 30
0.0
  0
VERTEX
  5
D36
  8
SAPA_BESLAG
 10
37.300000001120281
 20
27.000000002683201
 30
0.0
 42
0.4142135623730951
  0
VERTEX
  5
D37
  8
SAPA_BESLAG
 10
37.800000001120281
 20
27.500000002683201
 30
0.0
  0
VERTEX
  5
D38
  8
SAPA_BESLAG
 10
37.800000001120281
 20
46.934173753879989
 30
0.0
 42
0.0655434628193178
  0
VERTEX
  5
D39
  8
SAPA_BESLAG
 10
37.7829629142621
 20
47.063583276432567
 30
0.0
  0
VERTEX
  5
D3A
  8
SAPA_BESLAG
 10
37.095451842961943
 20
49.629409525242558
 30
0.0
 42
0.3394542588589676
  0
VERTEX
  5
D3B
  8
SAPA_BESLAG
 10
36.612488929819449
 20
50.000000002683649
 30
0.0
  0
VERTEX
  5
D3C
  8
SAPA_BESLAG
 10
34.794690750099619
 20
50.000000002683649
 30
0.0
 42
0.3394542588711624
  0
VERTEX
  5
D3D
  8
SAPA_BESLAG
 10
34.3117278369578
 20
49.62940952523077
 30
0.0
  0
VERTEX
  5
D3E
  8
SAPA_BESLAG
 10
33.599299420998911
 20
46.970590480043661
 30
0.0
 42
-0.3394542588715294
  0
VERTEX
  5
D3F
  8
SAPA_BESLAG
 10
33.116336507850583
 20
46.600000002580792
 30
0.0
  0
VERTEX
  5
D40
  8
SAPA_BESLAG
 10
30.883663493714781
 20
46.600000002581247
 30
0.0
 42
-0.2360679770209483
  0
VERTEX
  5
D41
  8
SAPA_BESLAG
 10
30.48366349425898
 20
46.800000001847749
 30
0.0
 42
0.2360679770747184
  0
VERTEX
  5
D42
  8
SAPA_BESLAG
 10
30.083663494701401
 20
47.000000001122046
 30
0.0
  0
VERTEX
  5
D43
  8
SAPA_BESLAG
 10
22.99999999956033
 20
46.999999999689607
 30
0.0
 42
0.4142135623134248
  0
VERTEX
  5
D44
  8
SAPA_BESLAG
 10
22.49999999966218
 20
46.499999999689607
 30
0.0
  0
VERTEX
  5
D45
  8
SAPA_BESLAG
 10
22.499999999676731
 20
44.100000002683572
 30
0.0
 42
0.4142135623730951
  0
VERTEX
  5
D46
  8
SAPA_BESLAG
 10
22.999999999676731
 20
43.600000002683558
 30
0.0
  0
VERTEX
  5
D47
  8
SAPA_BESLAG
 10
31.000000001117371
 20
43.600000002684467
 30
0.0
 42
-0.4142135623730951
  0
VERTEX
  5
D48
  8
SAPA_BESLAG
 10
32.500000001117371
 20
42.100000002684467
 30
0.0
  0
VERTEX
  5
D49
  8
SAPA_BESLAG
 10
32.50000000113193
 20
38.846410164153639
 30
0.0
  0
VERTEX
  5
D4A
  8
SAPA_BESLAG
 10
32.700000001099909
 20
38.500000002685013
 30
0.0
  0
VERTEX
  5
D4B
  8
SAPA_BESLAG
 10
32.500000001117371
 20
38.153589841166387
 30
0.0
  0
VERTEX
  5
D4C
  8
SAPA_BESLAG
 10
32.50000000113193
 20
36.846410164171367
 30
0.0
  0
VERTEX
  5
D4D
  8
SAPA_BESLAG
 10
32.700000001099909
 20
36.500000002683208
 30
0.0
  0
VERTEX
  5
D4E
  8
SAPA_BESLAG
 10
32.500000001117371
 20
36.153589841164568
 30
0.0
  0
SEQEND
  5
D4F
  8
SAPA_BESLAG
  0
POLYLINE
  5
85C
  8
SAPA_BESLAG
 66
     1
 10
0.0
 20
0.0
 30
0.0
  0
VERTEX
  5
D50
  8
SAPA_BESLAG
 10
37.79999998578257
 20
28.000000002376702
 30
0.0
  0
VERTEX
  5
D51
  8
SAPA_BESLAG
 10
37.79999998578257
 20
50.350000002367949
 30
0.0
  0
SEQEND
  5
D52
  8
SAPA_BESLAG
  0
POLYLINE
  5
85D
  8
SAPA_BESLAG
 66
     1
 10
0.0
 20
0.0
 30
0.0
  0
VERTEX
  5
D53
  8
SAPA_BESLAG
 10
50.199999985776742
 20
50.350000002383489
 30
0.0
  0
VERTEX
  5
D54
  8
SAPA_BESLAG
 10
50.199999985776742
 20
28.000000002376702
 30
0.0
  0
SEQEND
  5
D55
  8
SAPA_BESLAG
  0
POLYLINE
  5
85E
  8
SAPA_BESLAG
 66
     1
 10
0.0
 20
0.0
 30
0.0
  0
VERTEX
  5
D56
  8
SAPA_BESLAG
 10
38.000000001350202
 20
50.350000002368212
 30
0.0
  0
VERTEX
  5
D57
  8
SAPA_BESLAG
 10
38.000000001350202
 20
22.750000002376709
 30
0.0
  0
VERTEX
  5
D58
  8
SAPA_BESLAG
 10
38.250000001350202
 20
22.50000000236852
 30
0.0
  0
VERTEX
  5
D59
  8
SAPA_BESLAG
 10
38.250000001350202
 20
50.35000000236851
 30
0.0
  0
SEQEND
  5
D5A
  8
SAPA_BESLAG
  0
POLYLINE
  5
85F
  8
SAPA_BESLAG
 66
     1
 10
0.0
 20
0.0
 30
0.0
  0
VERTEX
  5
D5B
  8
SAPA_BESLAG
 10
49.750000001350202
 20
50.35000000238292
 30
0.0
  0
VERTEX
  5
D5C
  8
SAPA_BESLAG
 10
49.750000001350202
 20
22.50000000236852
 30
0.0
  0
VERTEX
  5
D5D
  8
SAPA_BESLAG
 10
50.000000001364747
 20
22.750000002376709
 30
0.0
  0
VERTEX
  5
D5E
  8
SAPA_BESLAG
 10
50.000000001352007
 20
50.350000002383261
 30
0.0
  0
SEQEND
  5
D5F
  8
SAPA_BESLAG
  0
POLYLINE
  5
860
  8
SAPA_BESLAG
 66
     1
 10
0.0
 20
0.0
 30
0.0
  0
VERTEX
  5
D60
  8
SAPA_BESLAG
 10
38.250000001350202
 20
22.50000000236852
 30
0.0
  0
VERTEX
  5
D61
  8
SAPA_BESLAG
 10
41.719649151156247
 20
22.500000002372872
 30
0.0
 42
-0.4385290096522839
  0
VERTEX
  5
D62
  8
SAPA_BESLAG
 10
46.280350851544142
 20
22.500000002372872
 30
0.0
  0
VERTEX
  5
D63
  8
SAPA_BESLAG
 10
49.750000001350202
 20
22.50000000236761
 30
0.0
  0
SEQEND
  5
D64
  8
SAPA_BESLAG
  0
LINE
  5
861
  8
SAPA_BESLAG
 10
37.79999998578257
 20
50.350000002367949
 30
0.0
 11
50.199999985776742
 21
50.350000002383489
 31
0.0
  0
TEXT
  5
8BF
  8
SAPA_ARTIKELNR
 10
100.1450628429052
 20
63.094922875738391
 30
0.0000000048844772
 40
3.5
  1
D8V020
  7
ISO
  0
LINE
  5
8F5
  8
SAPA_ANSLUTNING
 10
4.0000000000001741
 20
60.0
 30
0.0
 11
-36.4914790590853
 21
60.0
 31
0.0
  0
LINE
  5
8F6
  8
SAPA_ANSLUTNING
 10
4.0000000000001741
 20
30.999999999983999
 30
0.0
 11
-36.4914790590853
 21
30.999999999983999
 31
0.0
1001
GENIUS_GENREC_14
1002
{
1000
PYDIR
1011
-38.500000036128938
1021
0.0
1031
0.0
1021
30.999999999983999
1031
0.0
1002
}
1002
{
1000
PXDIR
1011
31.999999999992902
1021
0.0
1031
0.0
1021
-70.000000000016001
1031
0.0
1002
}
1002
{
1000
PORI
1011
-28.500000036128942
1021
0.0
1031
0.0
1021
-70.000000000016001
1031
0.0
1002
}
1002
{
1000
PINS
1011
-28.500000036128942
1021
0.0
1031
0.0
1021
-70.000000000016001
1031
0.0
1002
}
1002
{
1000
PINS2
1011
3.9999999999784448
1021
0.0
1031
0.0
1021
30.999999999983999
1031
0.0
1002
}
1002
{
1000
C
1070
     1
1002
}
1001
GENIUS_GENOBJ-N-REC_13
1002
{
1000
OWNER
1000
GEN
1002
}
1001
GENIUS_GENODEF_13
1002
{
1000
HIER
1070
     0
1002
}
1002
{
1000
MANEDIT
1070
     0
1002
}
1002
{
1000
NOSEL
1070
     0
1002
}
1002
{
1000
BEHIND
1070
     0
1002
}
1002
{
1000
OTHER
1070
     0
1002
}
1002
{
1000
REACTOR
1002
}
  0
INSERT
  5
8F7
  8
SAPA_ANSLUTNING
  6
CONTINUOUS
  2
*X37
 10
0.0
 20
0.0
 30
0.0
1001
ACAD
1000
HATCH
1002
{
1070
    19
1000
ANSI37
1040
0.25
1040
0.0
1000
R14_HATCH_DATA
1000
8F7
1011
1.0
1021
0.0
1031
0.0
1021
0.0
1031
0.0
1011
0.0
1021
0.0
1031
0.0
1021
1.0
1031
0.0
1011
0.0
1021
0.0
1031
0.0
1021
0.0
1031
1.0
1040
0.0
1010
0.0
1020
0.0
1030
1.0
1000
ANSI37
1070
     0
1070
     0
1071
        1
1071
        5
1071
        6
1070
     2
1040
137.49999992774141
1040
58.499999999999062
1040
1.4999999999999989
1040
5.49778714378209
1040
6.2831853071795569
1070
     0
1070
     1
1040
138.99999992774141
1040
58.499999999999091
1040
138.9999999277413
1040
47.663348763308562
1070
     3
1040
143.99999992774141
1040
47.66334876330825
1040
0.0
1040
-5.6210574168242138
1040
0.8895123513655372
1040
1.5707963267948959
1040
2.144309431217978
1070
     0
1070
     3
1040
143.99999992774141
1040
47.66334876330825
1040
0.0
1040
-5.6210574168242138
1040
0.8895123513655372
1040
2.144309431217978
1040
4.7123889803846888
1070
     0
1070
     1
1040
148.9999999277413
1040
47.663348763308903
1040
148.9999999277413
1040
59.999999999984112
1070
     2
1040
142.90216751656979
1040
80.646721299886494
1040
21.528368738726542
1040
1.2836189008757071
1040
1.773853352005716
1070
     0
1071
        0
1070
     0
1070
     1
1040
0.0
1040
0.25
1070
     0
1070
     2
1040
0.7853981633974483
1040
0.000000000000103
1040
-0.0000000000009095
1040
-0.5612660075668221
1040
0.5612660075668221
1070
     0
1040
2.3561944901923439
1040
0.000000000000103
1040
-0.0000000000009095
1040
-0.5612660075668221
1040
-0.5612660075668221
1070
     0
1040
0.0591690278051155
1071
        1
1040
142.9986763469897
1040
56.420364712924993
1040
0.0
1002
}
  0
LINE
  5
8F8
  8
SAPA_ANSLUTNING
 10
4.0000000000002158
 20
-70.000000000021316
 30
0.0
 11
148.9999999277413
 21
-70.000000000021316
 31
0.0
  0
LINE
  5
8F9
  8
SAPA_ANSLUTNING
 10
4.0000000000002087
 20
-111.29283270962939
 30
0.0
 11
4.00000000000023
 21
60.000000000000142
 31
0.0
  0
POLYLINE
  5
8FA
  8
SAPA_ANSLUTNING
 66
     1
 10
0.0
 20
0.0
 30
0.0
 70
     1
  0
VERTEX
  5
D94
  8
SAPA_ANSLUTNING
 10
69.749999999999929
 20
-67.000000000021316
 30
0.0
 42
-0.4142135623730951
  0
VERTEX
  5
D95
  8
SAPA_ANSLUTNING
 10
71.749999999999929
 20
-69.000000000021316
 30
0.0
  0
VERTEX
  5
D96
  8
SAPA_ANSLUTNING
 10
71.749999999999929
 20
-70.000000000021316
 30
0.0
  0
VERTEX
  5
D97
  8
SAPA_ANSLUTNING
 10
16.750000000000039
 20
-70.000000000021316
 30
0.0
  0
VERTEX
  5
D98
  8
SAPA_ANSLUTNING
 10
16.749999999999929
 20
-10.000000000021309
 30
0.0
  0
VERTEX
  5
D99
  8
SAPA_ANSLUTNING
 10
17.749999999999929
 20
-10.000000000021309
 30
0.0
 42
-0.4142135623730951
  0
VERTEX
  5
D9A
  8
SAPA_ANSLUTNING
 10
19.749999999999929
 20
-12.00000000002132
 30
0.0
  0
VERTEX
  5
D9B
  8
SAPA_ANSLUTNING
 10
19.750000000000039
 20
-65.000000000021316
 30
0.0
 42
0.4142135623730951
  0
VERTEX
  5
D9C
  8
SAPA_ANSLUTNING
 10
21.75000000000005
 20
-67.000000000021316
 30
0.0
  0
SEQEND
  5
D9D
  8
SAPA_ANSLUTNING
  0
POLYLINE
  5
8FB
  8
SAPA_ANSLUTNING
 66
     1
 10
0.0
 20
0.0
 30
0.0
 70
     1
1001
GENIUS_GENOREF_13
1005
0
  0
VERTEX
  5
D9E
  8
SAPA_ANSLUTNING
 10
133.24999992774141
 20
-12.00000000002132
 30
0.0
  0
VERTEX
  5
D9F
  8
SAPA_ANSLUTNING
 10
133.24999992774141
 20
-65.000000000021316
 30
0.0
 42
-0.4142135623730951
  0
VERTEX
  5
DA0
  8
SAPA_ANSLUTNING
 10
131.24999992774141
 20
-67.000000000021316
 30
0.0
  0
VERTEX
  5
DA1
  8
SAPA_ANSLUTNING
 10
83.249999927741356
 20
-67.000000000021316
 30
0.0
 42
0.4142135623730951
  0
VERTEX
  5
DA2
  8
SAPA_ANSLUTNING
 10
81.249999927741371
 20
-69.000000000021316
 30
0.0
  0
VERTEX
  5
DA3
  8
SAPA_ANSLUTNING
 10
81.249999927741371
 20
-70.000000000021316
 30
0.0
  0
VERTEX
  5
DA4
  8
SAPA_ANSLUTNING
 10
136.24999992774141
 20
-70.000000000021316
 30
0.0
  0
VERTEX
  5
DA5
  8
SAPA_ANSLUTNING
 10
136.24999992774141
 20
-10.000000000021309
 30
0.0
  0
VERTEX
  5
DA6
  8
SAPA_ANSLUTNING
 10
135.24999992774141
 20
-10.000000000021309
 30
0.0
 42
0.4142135623730951
  0
SEQEND
  5
DA7
  8
SAPA_ANSLUTNING
  0
LINE
  5
8FC
  8
SAPA_ANSLUTNING
 10
148.9999999277413
 20
59.999999999984112
 30
0.0
 11
194.00325593439959
 21
59.999999999984141
 31
0.0
  0
LINE
  5
8FD
  8
SAPA_ANSLUTNING
 10
194.0032559343995
 20
30.999999999984119
 30
0.0
 11
148.99999992774119
 21
30.999999999984141
 31
0.0
  0
LINE
  5
8FE
  8
SAPA_ANSLUTNING
 10
148.9999999277413
 20
-70.000000000021316
 30
0.0
 11
148.9999999277413
 21
59.999999999984112
 31
0.0
  0
ARC
  5
8FF
  8
SAPA_ANSLUTNING
 10
142.90216751656979
 20
80.64672129988665
 30
0.0
 40
21.52836873872667
 50
258.3656894549398
 51
286.45405447659971
  0
INSERT
  5
900
  8
SAPA_ANSLUTNING
  6
CONTINUOUS
  2
*X38
 10
0.0
 20
0.0
 30
0.0
1001
ACAD
1000
HATCH
1002
{
1070
    19
1000
HEX
1040
0.25
1040
0.0
1000
ASC_BOUNDS
1070
     1
1070
     1
1070
     1
1005
901
1000
ASC_SEEDPOINT
1011
144.242109937816
1021
0.0
1031
0.0
1021
47.781686452364973
1031
0.0
1000
R14_HATCH_DATA
1000
900
1011
1.0
1021
0.0
1031
0.0
1021
0.0
1031
0.0
1011
0.0
1021
0.0
1031
0.0
1021
1.0
1031
0.0
1011
0.0
1021
0.0
1031
0.0
1021
0.0
1031
1.0
1040
0.0
1010
0.0
1020
0.0
1030
1.0
1000
HEX
1070
     0
1070
     1
1071
        1
1071
        5
1071
        1
1070
     3
1040
143.99999992774141
1040
47.66334876330825
1040
0.0
1040
-5.6210574168242138
1040
0.8895123513655372
1040
0.0
1040
6.2831853071795862
1070
     1
1071
        1
1005
901
1070
     0
1070
     1
1040
0.0
1040
0.25
1070
     0
1070
     3
1040
0.0
1040
0.000000000000103
1040
-0.0000000000009095
1040
0.0
1040
1.374814999999999
1070
     2
1040
0.79375
1040
-1.587499999999999
1040
2.0943951023931948
1040
0.000000000000103
1040
-0.0000000000009095
1040
-1.190624715503902
1040
-0.6874074999999996
1070
     2
1040
0.7937499999999989
1040
-1.587499999999997
1040
1.047197551196597
1040
0.7937500000000917
1040
-0.0000000000009095
1040
-1.190624715503902
1040
0.6874075000000001
1070
     2
1040
0.79375
1040
-1.587499999999999
1040
0.0591690278051155
1071
        1
1040
144.242109937816
1040
47.781686452364973
1040
0.0
1002
}
  0
POLYLINE
  5
901
  8
SAPA_ANSLUTNING
 10
143.99999992774141
 20
42.042291346484035
 30
0.0
 66
     1
 70
     8
  0
VERTEX
  8
SAPA_ANSLUTNING
  5
1977
 10
144.000
 20
42.0423
 30
0.000000
  70
    32
  0
VERTEX
  8
SAPA_ANSLUTNING
  5
1978
 10
144.245
 20
42.0491
 30
0.000000
  70
    32
  0
VERTEX
  8
SAPA_ANSLUTNING
  5
1979
 10
144.490
 20
42.0694
 30
0.000000
  70
    32
  0
VERTEX
  8
SAPA_ANSLUTNING
  5
197A
 10
144.734
 20
42.1031
 30
0.000000
  70
    32
  0
VERTEX
  8
SAPA_ANSLUTNING
  5
197B
 10
144.975
 20
42.1503
 30
0.000000
  70
    32
  0
VERTEX
  8
SAPA_ANSLUTNING
  5
197C
 10
145.215
 20
42.2107
 30
0.000000
  70
    32
  0
VERTEX
  8
SAPA_ANSLUTNING
  5
197D
 10
145.451
 20
42.2843
 30
0.000000
  70
    32
  0
VERTEX
  8
SAPA_ANSLUTNING
  5
197E
 10
145.684
 20
42.3709
 30
0.000000
  70
    32
  0
VERTEX
  8
SAPA_ANSLUTNING
  5
197F
 10
145.913
 20
42.4702
 30
0.000000
  70
    32
  0
VERTEX
  8
SAPA_ANSLUTNING
  5
1980
 10
146.138
 20
42.5820
 30
0.000000
  70
    32
  0
VERTEX
  8
SAPA_ANSLUTNING
  5
1981
 10
146.357
 20
42.7060
 30
0.000000
  70
    32
  0
VERTEX
  8
SAPA_ANSLUTNING
  5
1982
 10
146.571
 20
42.8420
 30
0.000000
  70
    32
  0
VERTEX
  8
SAPA_ANSLUTNING
  5
1983
 10
146.778
 20
42.9896
 30
0.000000
  70
    32
  0
VERTEX
  8
SAPA_ANSLUTNING
  5
1984
 10
146.978
 20
43.1485
 30
0.000000
  70
    32
  0
VERTEX
  8
SAPA_ANSLUTNING
  5
1985
 10
147.172
 20
43.3182
 30
0.000000
  70
    32
  0
VERTEX
  8
SAPA_ANSLUTNING
  5
1986
 10
147.358
 20
43.4984
 30
0.000000
  70
    32
  0
VERTEX
  8
SAPA_ANSLUTNING
  5
1987
 10
147.536
 20
43.6887
 30
0.000000
  70
    32
  0
VERTEX
  8
SAPA_ANSLUTNING
  5
1988
 10
147.705
 20
43.8885
 30
0.000000
  70
    32
  0
VERTEX
  8
SAPA_ANSLUTNING
  5
1989
 10
147.865
 20
44.0974
 30
0.000000
  70
    32
  0
VERTEX
  8
SAPA_ANSLUTNING
  5
198A
 10
148.016
 20
44.3149
 30
0.000000
  70
    32
  0
VERTEX
  8
SAPA_ANSLUTNING
  5
198B
 10
148.157
 20
44.5405
 30
0.000000
  70
    32
  0
VERTEX
  8
SAPA_ANSLUTNING
  5
198C
 10
148.289
 20
44.7735
 30
0.000000
  70
    32
  0
VERTEX
  8
SAPA_ANSLUTNING
  5
198D
 10
148.410
 20
45.0136
 30
0.000000
  70
    32
  0
VERTEX
  8
SAPA_ANSLUTNING
  5
198E
 10
148.520
 20
45.2600
 30
0.000000
  70
    32
  0
VERTEX
  8
SAPA_ANSLUTNING
  5
198F
 10
148.619
 20
45.5123
 30
0.000000
  70
    32
  0
VERTEX
  8
SAPA_ANSLUTNING
  5
1990
 10
148.708
 20
45.7697
 30
0.000000
  70
    32
  0
VERTEX
  8
SAPA_ANSLUTNING
  5
1991
 10
148.785
 20
46.0316
 30
0.000000
  70
    32
  0
VERTEX
  8
SAPA_ANSLUTNING
  5
1992
 10
148.850
 20
46.2975
 30
0.000000
  70
    32
  0
VERTEX
  8
SAPA_ANSLUTNING
  5
1993
 10
148.904
 20
46.5667
 30
0.000000
  70
    32
  0
VERTEX
  8
SAPA_ANSLUTNING
  5
1994
 10
148.946
 20
46.8386
 30
0.000000
  70
    32
  0
VERTEX
  8
SAPA_ANSLUTNING
  5
1995
 10
148.976
 20
47.1124
 30
0.000000
  70
    32
  0
VERTEX
  8
SAPA_ANSLUTNING
  5
1996
 10
148.994
 20
47.3875
 30
0.000000
  70
    32
  0
VERTEX
  8
SAPA_ANSLUTNING
  5
1997
 10
149.000
 20
47.6633
 30
0.000000
  70
    32
  0
VERTEX
  8
SAPA_ANSLUTNING
  5
1998
 10
148.994
 20
47.9392
 30
0.000000
  70
    32
  0
VERTEX
  8
SAPA_ANSLUTNING
  5
1999
 10
148.976
 20
48.2143
 30
0.000000
  70
    32
  0
VERTEX
  8
SAPA_ANSLUTNING
  5
199A
 10
148.946
 20
48.4881
 30
0.000000
  70
    32
  0
VERTEX
  8
SAPA_ANSLUTNING
  5
199B
 10
148.904
 20
48.7600
 30
0.000000
  70
    32
  0
VERTEX
  8
SAPA_ANSLUTNING
  5
199C
 10
148.850
 20
49.0292
 30
0.000000
  70
    32
  0
VERTEX
  8
SAPA_ANSLUTNING
  5
199D
 10
148.785
 20
49.2951
 30
0.000000
  70
    32
  0
VERTEX
  8
SAPA_ANSLUTNING
  5
199E
 10
148.708
 20
49.5570
 30
0.000000
  70
    32
  0
VERTEX
  8
SAPA_ANSLUTNING
  5
199F
 10
148.619
 20
49.8144
 30
0.000000
  70
    32
  0
VERTEX
  8
SAPA_ANSLUTNING
  5
19A0
 10
148.520
 20
50.0667
 30
0.000000
  70
    32
  0
VERTEX
  8
SAPA_ANSLUTNING
  5
19A1
 10
148.410
 20
50.3131
 30
0.000000
  70
    32
  0
VERTEX
  8
SAPA_ANSLUTNING
  5
19A2
 10
148.289
 20
50.5531
 30
0.000000
  70
    32
  0
VERTEX
  8
SAPA_ANSLUTNING
  5
19A3
 10
148.157
 20
50.7862
 30
0.000000
  70
    32
  0
VERTEX
  8
SAPA_ANSLUTNING
  5
19A4
 10
148.016
 20
51.0118
 30
0.000000
  70
    32
  0
VERTEX
  8
SAPA_ANSLUTNING
  5
19A5
 10
147.865
 20
51.2293
 30
0.000000
  70
    32
  0
VERTEX
  8
SAPA_ANSLUTNING
  5
19A6
 10
147.705
 20
51.4382
 30
0.000000
  70
    32
  0
VERTEX
  8
SAPA_ANSLUTNING
  5
19A7
 10
147.536
 20
51.6380
 30
0.000000
  70
    32
  0
VERTEX
  8
SAPA_ANSLUTNING
  5
19A8
 10
147.358
 20
51.8283
 30
0.000000
  70
    32
  0
VERTEX
  8
SAPA_ANSLUTNING
  5
19A9
 10
147.172
 20
52.0085
 30
0.000000
  70
    32
  0
VERTEX
  8
SAPA_ANSLUTNING
  5
19AA
 10
146.978
 20
52.1782
 30
0.000000
  70
    32
  0
VERTEX
  8
SAPA_ANSLUTNING
  5
19AB
 10
146.778
 20
52.3371
 30
0.000000
  70
    32
  0
VERTEX
  8
SAPA_ANSLUTNING
  5
19AC
 10
146.571
 20
52.4847
 30
0.000000
  70
    32
  0
VERTEX
  8
SAPA_ANSLUTNING
  5
19AD
 10
146.357
 20
52.6207
 30
0.000000
  70
    32
  0
VERTEX
  8
SAPA_ANSLUTNING
  5
19AE
 10
146.138
 20
52.7447
 30
0.000000
  70
    32
  0
VERTEX
  8
SAPA_ANSLUTNING
  5
19AF
 10
145.913
 20
52.8565
 30
0.000000
  70
    32
  0
VERTEX
  8
SAPA_ANSLUTNING
  5
19B0
 10
145.684
 20
52.9558
 30
0.000000
  70
    32
  0
VERTEX
  8
SAPA_ANSLUTNING
  5
19B1
 10
145.451
 20
53.0424
 30
0.000000
  70
    32
  0
VERTEX
  8
SAPA_ANSLUTNING
  5
19B2
 10
145.215
 20
53.1160
 30
0.000000
  70
    32
  0
VERTEX
  8
SAPA_ANSLUTNING
  5
19B3
 10
144.975
 20
53.1764
 30
0.000000
  70
    32
  0
VERTEX
  8
SAPA_ANSLUTNING
  5
19B4
 10
144.734
 20
53.2236
 30
0.000000
  70
    32
  0
VERTEX
  8
SAPA_ANSLUTNING
  5
19B5
 10
144.490
 20
53.2573
 30
0.000000
  70
    32
  0
VERTEX
  8
SAPA_ANSLUTNING
  5
19B6
 10
144.245
 20
53.2776
 30
0.000000
  70
    32
  0
VERTEX
  8
SAPA_ANSLUTNING
  5
19B7
 10
144.000
 20
53.2844
 30
0.000000
  70
    32
  0
VERTEX
  8
SAPA_ANSLUTNING
  5
19B8
 10
143.755
 20
53.2776
 30
0.000000
  70
    32
  0
VERTEX
  8
SAPA_ANSLUTNING
  5
19B9
 10
143.510
 20
53.2573
 30
0.000000
  70
    32
  0
VERTEX
  8
SAPA_ANSLUTNING
  5
19BA
 10
143.266
 20
53.2236
 30
0.000000
  70
    32
  0
VERTEX
  8
SAPA_ANSLUTNING
  5
19BB
 10
143.025
 20
53.1764
 30
0.000000
  70
    32
  0
VERTEX
  8
SAPA_ANSLUTNING
  5
19BC
 10
142.785
 20
53.1160
 30
0.000000
  70
    32
  0
VERTEX
  8
SAPA_ANSLUTNING
  5
19BD
 10
142.549
 20
53.0424
 30
0.000000
  70
    32
  0
VERTEX
  8
SAPA_ANSLUTNING
  5
19BE
 10
142.316
 20
52.9558
 30
0.000000
  70
    32
  0
VERTEX
  8
SAPA_ANSLUTNING
  5
19BF
 10
142.087
 20
52.8565
 30
0.000000
  70
    32
  0
VERTEX
  8
SAPA_ANSLUTNING
  5
19C0
 10
141.862
 20
52.7447
 30
0.000000
  70
    32
  0
VERTEX
  8
SAPA_ANSLUTNING
  5
19C1
 10
141.643
 20
52.6207
 30
0.000000
  70
    32
  0
VERTEX
  8
SAPA_ANSLUTNING
  5
19C2
 10
141.429
 20
52.4847
 30
0.000000
  70
    32
  0
VERTEX
  8
SAPA_ANSLUTNING
  5
19C3
 10
141.222
 20
52.3371
 30
0.000000
  70
    32
  0
VERTEX
  8
SAPA_ANSLUTNING
  5
19C4
 10
141.022
 20
52.1782
 30
0.000000
  70
    32
  0
VERTEX
  8
SAPA_ANSLUTNING
  5
19C5
 10
140.828
 20
52.0085
 30
0.000000
  70
    32
  0
VERTEX
  8
SAPA_ANSLUTNING
  5
19C6
 10
140.642
 20
51.8283
 30
0.000000
  70
    32
  0
VERTEX
  8
SAPA_ANSLUTNING
  5
19C7
 10
140.464
 20
51.6380
 30
0.000000
  70
    32
  0
VERTEX
  8
SAPA_ANSLUTNING
  5
19C8
 10
140.295
 20
51.4382
 30
0.000000
  70
    32
  0
VERTEX
  8
SAPA_ANSLUTNING
  5
19C9
 10
140.135
 20
51.2293
 30
0.000000
  70
    32
  0
VERTEX
  8
SAPA_ANSLUTNING
  5
19CA
 10
139.984
 20
51.0118
 30
0.000000
  70
    32
  0
VERTEX
  8
SAPA_ANSLUTNING
  5
19CB
 10
139.843
 20
50.7862
 30
0.000000
  70
    32
  0
VERTEX
  8
SAPA_ANSLUTNING
  5
19CC
 10
139.711
 20
50.5531
 30
0.000000
  70
    32
  0
VERTEX
  8
SAPA_ANSLUTNING
  5
19CD
 10
139.590
 20
50.3131
 30
0.000000
  70
    32
  0
VERTEX
  8
SAPA_ANSLUTNING
  5
19CE
 10
139.480
 20
50.0667
 30
0.000000
  70
    32
  0
VERTEX
  8
SAPA_ANSLUTNING
  5
19CF
 10
139.381
 20
49.8144
 30
0.000000
  70
    32
  0
VERTEX
  8
SAPA_ANSLUTNING
  5
19D0
 10
139.292
 20
49.5570
 30
0.000000
  70
    32
  0
VERTEX
  8
SAPA_ANSLUTNING
  5
19D1
 10
139.215
 20
49.2951
 30
0.000000
  70
    32
  0
VERTEX
  8
SAPA_ANSLUTNING
  5
19D2
 10
139.150
 20
49.0292
 30
0.000000
  70
    32
  0
VERTEX
  8
SAPA_ANSLUTNING
  5
19D3
 10
139.096
 20
48.7600
 30
0.000000
  70
    32
  0
VERTEX
  8
SAPA_ANSLUTNING
  5
19D4
 10
139.054
 20
48.4881
 30
0.000000
  70
    32
  0
VERTEX
  8
SAPA_ANSLUTNING
  5
19D5
 10
139.024
 20
48.2143
 30
0.000000
  70
    32
  0
VERTEX
  8
SAPA_ANSLUTNING
  5
19D6
 10
139.006
 20
47.9392
 30
0.000000
  70
    32
  0
VERTEX
  8
SAPA_ANSLUTNING
  5
19D7
 10
139.000
 20
47.6633
 30
0.000000
  70
    32
  0
VERTEX
  8
SAPA_ANSLUTNING
  5
19D8
 10
139.006
 20
47.3875
 30
0.000000
  70
    32
  0
VERTEX
  8
SAPA_ANSLUTNING
  5
19D9
 10
139.024
 20
47.1124
 30
0.000000
  70
    32
  0
VERTEX
  8
SAPA_ANSLUTNING
  5
19DA
 10
139.054
 20
46.8386
 30
0.000000
  70
    32
  0
VERTEX
  8
SAPA_ANSLUTNING
  5
19DB
 10
139.096
 20
46.5667
 30
0.000000
  70
    32
  0
VERTEX
  8
SAPA_ANSLUTNING
  5
19DC
 10
139.150
 20
46.2975
 30
0.000000
  70
    32
  0
VERTEX
  8
SAPA_ANSLUTNING
  5
19DD
 10
139.215
 20
46.0316
 30
0.000000
  70
    32
  0
VERTEX
  8
SAPA_ANSLUTNING
  5
19DE
 10
139.292
 20
45.7697
 30
0.000000
  70
    32
  0
VERTEX
  8
SAPA_ANSLUTNING
  5
19DF
 10
139.381
 20
45.5123
 30
0.000000
  70
    32
  0
VERTEX
  8
SAPA_ANSLUTNING
  5
19E0
 10
139.480
 20
45.2600
 30
0.000000
  70
    32
  0
VERTEX
  8
SAPA_ANSLUTNING
  5
19E1
 10
139.590
 20
45.0136
 30
0.000000
  70
    32
  0
VERTEX
  8
SAPA_ANSLUTNING
  5
19E2
 10
139.711
 20
44.7735
 30
0.000000
  70
    32
  0
VERTEX
  8
SAPA_ANSLUTNING
  5
19E3
 10
139.843
 20
44.5405
 30
0.000000
  70
    32
  0
VERTEX
  8
SAPA_ANSLUTNING
  5
19E4
 10
139.984
 20
44.3149
 30
0.000000
  70
    32
  0
VERTEX
  8
SAPA_ANSLUTNING
  5
19E5
 10
140.135
 20
44.0974
 30
0.000000
  70
    32
  0
VERTEX
  8
SAPA_ANSLUTNING
  5
19E6
 10
140.295
 20
43.8885
 30
0.000000
  70
    32
  0
VERTEX
  8
SAPA_ANSLUTNING
  5
19E7
 10
140.464
 20
43.6887
 30
0.000000
  70
    32
  0
VERTEX
  8
SAPA_ANSLUTNING
  5
19E8
 10
140.642
 20
43.4984
 30
0.000000
  70
    32
  0
VERTEX
  8
SAPA_ANSLUTNING
  5
19E9
 10
140.828
 20
43.3182
 30
0.000000
  70
    32
  0
VERTEX
  8
SAPA_ANSLUTNING
  5
19EA
 10
141.022
 20
43.1485
 30
0.000000
  70
    32
  0
VERTEX
  8
SAPA_ANSLUTNING
  5
19EB
 10
141.222
 20
42.9896
 30
0.000000
  70
    32
  0
VERTEX
  8
SAPA_ANSLUTNING
  5
19EC
 10
141.429
 20
42.8420
 30
0.000000
  70
    32
  0
VERTEX
  8
SAPA_ANSLUTNING
  5
19ED
 10
141.643
 20
42.7060
 30
0.000000
  70
    32
  0
VERTEX
  8
SAPA_ANSLUTNING
  5
19EE
 10
141.862
 20
42.5820
 30
0.000000
  70
    32
  0
VERTEX
  8
SAPA_ANSLUTNING
  5
19EF
 10
142.087
 20
42.4702
 30
0.000000
  70
    32
  0
VERTEX
  8
SAPA_ANSLUTNING
  5
19F0
 10
142.316
 20
42.3709
 30
0.000000
  70
    32
  0
VERTEX
  8
SAPA_ANSLUTNING
  5
19F1
 10
142.549
 20
42.2843
 30
0.000000
  70
    32
  0
VERTEX
  8
SAPA_ANSLUTNING
  5
19F2
 10
142.785
 20
42.2107
 30
0.000000
  70
    32
  0
VERTEX
  8
SAPA_ANSLUTNING
  5
19F3
 10
143.025
 20
42.1503
 30
0.000000
  70
    32
  0
VERTEX
  8
SAPA_ANSLUTNING
  5
19F4
 10
143.266
 20
42.1031
 30
0.000000
  70
    32
  0
VERTEX
  8
SAPA_ANSLUTNING
  5
19F5
 10
143.510
 20
42.0694
 30
0.000000
  70
    32
  0
VERTEX
  8
SAPA_ANSLUTNING
  5
19F6
 10
143.755
 20
42.0491
 30
0.000000
  70
    32
  0
VERTEX
  8
SAPA_ANSLUTNING
  5
19F7
 10
144.000
 20
42.0423
 30
0.000000
  70
    32
  0
SEQEND
  8
SAPA_ANSLUTNING
  5
19F8
  0
POLYLINE
  5
902
  8
SAPA_ANSLUTNING
 66
     1
 10
0.0
 20
0.0
 30
0.0
  0
VERTEX
  5
E04
  8
SAPA_ANSLUTNING
 10
140.5010714710823
 20
43.647930409437542
 30
0.0
 42
0.8812634091771057
  0
VERTEX
  5
E05
  8
SAPA_ANSLUTNING
 10
140.99999992774141
 20
39.711162381217378
 30
0.0
  0
VERTEX
  5
E06
  8
SAPA_ANSLUTNING
 10
146.99999992774141
 20
39.711162381217378
 30
0.0
 42
-0.9999999999999998
  0
VERTEX
  5
E07
  8
SAPA_ANSLUTNING
 10
146.99999992774141
 20
35.711162381217378
 30
0.0
  0
VERTEX
  5
E08
  8
SAPA_ANSLUTNING
 10
140.99999992774141
 20
35.711162381217413
 30
0.0
 42
0.9999999999999998
  0
VERTEX
  5
E09
  8
SAPA_ANSLUTNING
 10
140.99999992774141
 20
31.711162381217409
 30
0.0
  0
VERTEX
  5
E0A
  8
SAPA_ANSLUTNING
 10
146.99999992774141
 20
31.711162381217381
 30
0.0
 42
-0.9999999999999998
  0
VERTEX
  5
E0B
  8
SAPA_ANSLUTNING
 10
146.99999992774141
 20
27.711162381217381
 30
0.0
  0
VERTEX
  5
E0C
  8
SAPA_ANSLUTNING
 10
140.99999992774141
 20
27.711162381217409
 30
0.0
 42
0.9999999999999998
  0
VERTEX
  5
E0D
  8
SAPA_ANSLUTNING
 10
140.99999992774141
 20
23.711162381217409
 30
0.0
  0
VERTEX
  5
E0E
  8
SAPA_ANSLUTNING
 10
146.99999992774141
 20
23.711162381217381
 30
0.0
 42
-0.9999999999999998
  0
VERTEX
  5
E0F
  8
SAPA_ANSLUTNING
 10
146.99999992774141
 20
19.71116238121737
 30
0.0
  0
VERTEX
  5
E10
  8
SAPA_ANSLUTNING
 10
140.99999992774141
 20
19.711162381217399
 30
0.0
 42
0.9999999999999998
  0
VERTEX
  5
E11
  8
SAPA_ANSLUTNING
 10
140.99999992774141
 20
15.711162381217401
 30
0.0
  0
VERTEX
  5
E12
  8
SAPA_ANSLUTNING
 10
146.99999992774141
 20
15.711162381217379
 30
0.0
 42
-0.9999999999999998
  0
VERTEX
  5
E13
  8
SAPA_ANSLUTNING
 10
146.99999992774141
 20
11.71116238121737
 30
0.0
  0
VERTEX
  5
E14
  8
SAPA_ANSLUTNING
 10
140.99999992774141
 20
11.711162381217401
 30
0.0
 42
0.9999999999999998
  0
VERTEX
  5
E15
  8
SAPA_ANSLUTNING
 10
140.99999992774141
 20
7.711162381217405
 30
0.0
  0
VERTEX
  5
E16
  8
SAPA_ANSLUTNING
 10
146.99999992774141
 20
7.7111623812173766
 30
0.0
 42
-0.9999999999999998
  0
VERTEX
  5
E17
  8
SAPA_ANSLUTNING
 10
146.99999992774141
 20
3.7111623812173771
 30
0.0
  0
VERTEX
  5
E18
  8
SAPA_ANSLUTNING
 10
140.99999992774141
 20
3.711162381217405
 30
0.0
 42
0.9999999999999998
  0
VERTEX
  5
E19
  8
SAPA_ANSLUTNING
 10
140.99999992774141
 20
-0.288837618782594
 30
0.0
  0
VERTEX
  5
E1A
  8
SAPA_ANSLUTNING
 10
146.99999992774141
 20
-0.2888376187826225
 30
0.0
 42
-0.9999999999999998
  0
VERTEX
  5
E1B
  8
SAPA_ANSLUTNING
 10
146.99999992774141
 20
-4.2888376187826216
 30
0.0
  0
VERTEX
  5
E1C
  8
SAPA_ANSLUTNING
 10
140.99999992774141
 20
-4.2888376187825941
 30
0.0
 42
0.9999999999999998
  0
VERTEX
  5
E1D
  8
SAPA_ANSLUTNING
 10
140.99999992774141
 20
-8.2888376187825941
 30
0.0
  0
VERTEX
  5
E1E
  8
SAPA_ANSLUTNING
 10
146.99999992774141
 20
-8.2888376187826225
 30
0.0
 42
-0.9999999999999998
  0
VERTEX
  5
E1F
  8
SAPA_ANSLUTNING
 10
146.99999992774141
 20
-12.288837618782621
 30
0.0
  0
VERTEX
  5
E20
  8
SAPA_ANSLUTNING
 10
140.99999992774141
 20
-12.288837618782591
 30
0.0
 42
0.9999999999999998
  0
VERTEX
  5
E21
  8
SAPA_ANSLUTNING
 10
140.99999992774141
 20
-16.288837618782591
 30
0.0
  0
VERTEX
  5
E22
  8
SAPA_ANSLUTNING
 10
146.99999992774141
 20
-16.288837618782619
 30
0.0
 42
-0.9999999999999998
  0
VERTEX
  5
E23
  8
SAPA_ANSLUTNING
 10
146.99999992774119
 20
-20.288837618782619
 30
0.0
  0
VERTEX
  5
E24
  8
SAPA_ANSLUTNING
 10
140.99999992774119
 20
-20.288837618782601
 30
0.0
 42
0.9999999999999998
  0
VERTEX
  5
E25
  8
SAPA_ANSLUTNING
 10
140.99999992774119
 20
-24.288837618782591
 30
0.0
  0
VERTEX
  5
E26
  8
SAPA_ANSLUTNING
 10
146.99999992774119
 20
-24.28883761878263
 30
0.0
 42
-0.9999999999999998
  0
VERTEX
  5
E27
  8
SAPA_ANSLUTNING
 10
146.99999992774119
 20
-28.288837618782619
 30
0.0
  0
VERTEX
  5
E28
  8
SAPA_ANSLUTNING
 10
140.99999992774119
 20
-28.288837618782591
 30
0.0
 42
0.9999999999999998
  0
VERTEX
  5
E29
  8
SAPA_ANSLUTNING
 10
140.99999992774119
 20
-32.288837618782601
 30
0.0
  0
VERTEX
  5
E2A
  8
SAPA_ANSLUTNING
 10
146.99999992774119
 20
-32.288837618782622
 30
0.0
 42
-0.9999999999999998
  0
VERTEX
  5
E2B
  8
SAPA_ANSLUTNING
 10
146.99999992774119
 20
-36.288837618782622
 30
0.0
  0
VERTEX
  5
E2C
  8
SAPA_ANSLUTNING
 10
140.99999992774119
 20
-36.288837618782601
 30
0.0
 42
0.9999999999999998
  0
VERTEX
  5
E2D
  8
SAPA_ANSLUTNING
 10
140.99999992774119
 20
-40.288837618782587
 30
0.0
  0
VERTEX
  5
E2E
  8
SAPA_ANSLUTNING
 10
146.99999992774119
 20
-40.288837618782622
 30
0.0
 42
-0.9999999999999998
  0
VERTEX
  5
E2F
  8
SAPA_ANSLUTNING
 10
146.99999992774119
 20
-44.288837618782622
 30
0.0
  0
VERTEX
  5
E30
  8
SAPA_ANSLUTNING
 10
140.99999992774119
 20
-44.288837618782587
 30
0.0
 42
0.9999999999999998
  0
VERTEX
  5
E31
  8
SAPA_ANSLUTNING
 10
140.99999992774119
 20
-48.288837618782587
 30
0.0
  0
VERTEX
  5
E32
  8
SAPA_ANSLUTNING
 10
146.99999992774119
 20
-48.288837618782622
 30
0.0
 42
-0.9999999999999998
  0
VERTEX
  5
E33
  8
SAPA_ANSLUTNING
 10
146.99999992774119
 20
-52.288837618782622
 30
0.0
  0
VERTEX
  5
E34
  8
SAPA_ANSLUTNING
 10
140.99999992774119
 20
-52.288837618782587
 30
0.0
 42
0.9999999999999998
  0
VERTEX
  5
E35
  8
SAPA_ANSLUTNING
 10
140.99999992774119
 20
-56.288837618782601
 30
0.0
  0
VERTEX
  5
E36
  8
SAPA_ANSLUTNING
 10
146.99999992774119
 20
-56.288837618782622
 30
0.0
 42
-0.9999999999999998
  0
VERTEX
  5
E37
  8
SAPA_ANSLUTNING
 10
146.99999992774119
 20
-60.288837618782622
 30
0.0
  0
VERTEX
  5
E38
  8
SAPA_ANSLUTNING
 10
138.24999992774141
 20
-60.288837618782587
 30
0.0
 42
0.9999999999999998
  0
VERTEX
  5
E39
  8
SAPA_ANSLUTNING
 10
138.24999992774141
 20
-64.288837618782622
 30
0.0
  0
VERTEX
  5
E3A
  8
SAPA_ANSLUTNING
 10
146.99999992774119
 20
-64.288837618782622
 30
0.0
 42
-0.9999999999999998
  0
VERTEX
  5
E3B
  8
SAPA_ANSLUTNING
 10
146.99999992774119
 20
-68.288837618782622
 30
0.0
  0
VERTEX
  5
E3C
  8
SAPA_ANSLUTNING
 10
138.24999992774141
 20
-68.288837618782622
 30
0.0
 42
0.3723754158642647
  0
VERTEX
  5
E3D
  8
SAPA_ANSLUTNING
 10
136.27096662079879
 20
-70.000000000021316
 30
0.0
  0
SEQEND
  5
E3E
  8
SAPA_ANSLUTNING
  0
POLYLINE
  5
903
  8
SAPA_ANSLUTNING
 66
     1
 10
0.0
 20
0.0
 30
0.0
  0
VERTEX
  5
E3F
  8
SAPA_ANSLUTNING
 10
21.094751612380762
 20
-66.889616244265426
 30
0.0
 42
0.4609155493572824
  0
VERTEX
  5
E40
  8
SAPA_ANSLUTNING
 10
31.499999999714689
 20
-58.000000000023192
 30
0.0
  0
VERTEX
  5
E41
  8
SAPA_ANSLUTNING
 10
31.499999999714689
 20
-9.0000000000060822
 30
0.0
 42
-0.9999999999999998
  0
VERTEX
  5
E42
  8
SAPA_ANSLUTNING
 10
49.499999999714689
 20
-9.0000000000060822
 30
0.0
  0
VERTEX
  5
E43
  8
SAPA_ANSLUTNING
 10
49.499999999714689
 20
-58.000000000023192
 30
0.0
 42
0.9999999999999998
  0
VERTEX
  5
E44
  8
SAPA_ANSLUTNING
 10
67.499999999714689
 20
-58.000000000023192
 30
0.0
  0
VERTEX
  5
E45
  8
SAPA_ANSLUTNING
 10
67.499999999714689
 20
-5.8005553174703834
 30
0.0
 42
-0.9999999999999998
  0
VERTEX
  5
E46
  8
SAPA_ANSLUTNING
 10
85.499999999714817
 20
-5.8005553174703834
 30
0.0
  0
VERTEX
  5
E47
  8
SAPA_ANSLUTNING
 10
85.499999999714817
 20
-58.000000000023192
 30
0.0
 42
0.9999999999999998
  0
VERTEX
  5
E48
  8
SAPA_ANSLUTNING
 10
103.4999999997148
 20
-58.000000000023192
 30
0.0
  0
VERTEX
  5
E49
  8
SAPA_ANSLUTNING
 10
103.4999999997148
 20
-9.0000000000060822
 30
0.0
 42
-0.9999999999999998
  0
VERTEX
  5
E4A
  8
SAPA_ANSLUTNING
 10
121.4999999997148
 20
-9.0000000000060822
 30
0.0
  0
VERTEX
  5
E4B
  8
SAPA_ANSLUTNING
 10
121.4999999997148
 20
-58.000000000023192
 30
0.0
 42
0.4609155448655906
  0
VERTEX
  5
E4C
  8
SAPA_ANSLUTNING
 10
131.90524825531659
 20
-66.88961626508933
 30
0.0
 42
0.4609155448655906
  0
SEQEND
  5
E4D
  8
SAPA_ANSLUTNING
  0
POLYLINE
  5
BAB
  8
SAPA_PROFIL
 66
     1
 10
0.0
 20
0.0
 30
0.0
 70
     1
  0
VERTEX
  5
14ED
  8
SAPA_PROFIL
 10
138.49999992774141
 20
60.000000000001819
 30
0.0
  0
VERTEX
  5
14EE
  8
SAPA_PROFIL
 10
133.49999992774141
 20
59.999999999998181
 30
0.0
 42
0.4142135623730951
  0
VERTEX
  5
14EF
  8
SAPA_PROFIL
 10
132.49999992774141
 20
58.999999999998188
 30
0.0
  0
VERTEX
  5
14F0
  8
SAPA_PROFIL
 10
132.49999992774869
 20
48.99999999999887
 30
0.0
 42
0.4142135623730951
  0
VERTEX
  5
14F1
  8
SAPA_PROFIL
 10
133.49999992774141
 20
47.99999999999887
 30
0.0
  0
VERTEX
  5
14F2
  8
SAPA_PROFIL
 10
135.24999992777779
 20
47.99999999999887
 30
0.0
 42
-0.9999999999999998
  0
VERTEX
  5
14F3
  8
SAPA_PROFIL
 10
135.24999992777779
 20
46.499999999991601
 30
0.0
  0
VERTEX
  5
14F4
  8
SAPA_PROFIL
 10
133.49999992774869
 20
46.499999999987963
 30
0.0
 42
-0.4142135623730951
  0
VERTEX
  5
14F5
  8
SAPA_PROFIL
 10
130.99999992774141
 20
48.999999999991601
 30
0.0
  0
VERTEX
  5
14F6
  8
SAPA_PROFIL
 10
130.99999992774141
 20
58.799999999997461
 30
0.0
 42
0.4142135623730951
  0
VERTEX
  5
14F7
  8
SAPA_PROFIL
 10
129.99999992774141
 20
59.799999999997461
 30
0.0
  0
VERTEX
  5
14F8
  8
SAPA_PROFIL
 10
85.749999928447181
 20
59.799999999997461
 30
0.0
 42
0.4142135623730951
  0
VERTEX
  5
14F9
  8
SAPA_PROFIL
 10
85.249999928447195
 20
59.299999999997461
 30
0.0
  0
VERTEX
  5
14FA
  8
SAPA_PROFIL
 10
85.249999928444254
 20
41.49999999999455
 30
0.0
 42
-0.8390996311761574
  0
VERTEX
  5
14FB
  8
SAPA_PROFIL
 10
84.668092142207428
 20
41.397393956996908
 30
0.0
  0
VERTEX
  5
14FC
  8
SAPA_PROFIL
 10
82.375079666322847
 20
47.697393956995832
 30
0.0
 42
-0.4663076581554896
  0
VERTEX
  5
14FD
  8
SAPA_PROFIL
 10
82.604892999260159
 20
48.0954423258977
 30
0.0
  0
VERTEX
  5
14FE
  8
SAPA_PROFIL
 10
83.336824017273855
 20
48.224501512393239
 30
0.0
 42
0.3639702342659115
  0
VERTEX
  5
14FF
  8
SAPA_PROFIL
 10
83.749999928439905
 20
48.716905388899256
 30
0.0
  0
VERTEX
  5
1500
  8
SAPA_PROFIL
 10
83.749999928447195
 20
59.499999999998181
 30
0.0
 42
0.4142135623730951
  0
VERTEX
  5
1501
  8
SAPA_PROFIL
 10
83.249999928447181
 20
59.999999999998181
 30
0.0
  0
VERTEX
  5
1502
  8
SAPA_PROFIL
 10
69.999999927755965
 20
59.999999999990912
 30
0.0
 42
-0.4142135623730951
  0
VERTEX
  5
1503
  8
SAPA_PROFIL
 10
69.499999927755965
 20
60.49999999999455
 30
0.0
 42
-0.4142135623730951
  0
VERTEX
  5
1504
  8
SAPA_PROFIL
 10
70.499999927755965
 20
61.49999999999455
 30
0.0
  0
VERTEX
  5
1505
  8
SAPA_PROFIL
 10
137.99999992774141
 20
61.499999999998188
 30
0.0
 42
-0.4142135623730951
  0
VERTEX
  5
1506
  8
SAPA_PROFIL
 10
138.99999992774141
 20
60.499999999998188
 30
0.0
 42
-0.4142135623730951
  0
SEQEND
  5
1507
  8
SAPA_PROFIL
  0
POLYLINE
  5
BAC
  8
SAPA_PROFIL
 66
     1
 10
0.0
 20
0.0
 30
0.0
 70
     1
  0
VERTEX
  5
1508
  8
SAPA_PROFIL
 10
63.000000000023228
 20
68.500000000020165
 30
0.0
  0
VERTEX
  5
1509
  8
SAPA_PROFIL
 10
62.20000000001307
 20
68.500000000011042
 30
0.0
 42
-0.4142135623731159
  0
VERTEX
  5
150A
  8
SAPA_PROFIL
 10
62.000000000014133
 20
68.70000000000995
 30
0.0
  0
VERTEX
  5
150B
  8
SAPA_PROFIL
 10
62.000000000023263
 20
69.800000000010343
 30
0.0
 42
-0.4142135623730744
  0
VERTEX
  5
150C
  8
SAPA_PROFIL
 10
62.20000000001307
 20
70.000000000000171
 30
0.0
  0
VERTEX
  5
150D
  8
SAPA_PROFIL
 10
65.749999999510294
 20
70.000000000011042
 30
0.0
 42
-0.3389652260119365
  0
VERTEX
  5
150E
  8
SAPA_PROFIL
 10
66.715470299054601
 20
69.260513148811256
 30
0.0
 42
-0.0274862826956062
  0
VERTEX
  5
150F
  8
SAPA_PROFIL
 10
67.499999999502137
 20
55.000000000019412
 30
0.0
  0
VERTEX
  5
1510
  8
SAPA_PROFIL
 10
67.499999999863178
 20
42.199999998760319
 30
0.0
 42
-0.4142135623889429
  0
VERTEX
  5
1511
  8
SAPA_PROFIL
 10
67.29999999986245
 20
41.999999998748699
 30
0.0
  0
VERTEX
  5
1512
  8
SAPA_PROFIL
 10
66.965470053602587
 20
41.999999998750489
 30
0.0
 42
-0.2679491924396797
  0
VERTEX
  5
1513
  8
SAPA_PROFIL
 10
66.792264972843441
 20
42.099999998755493
 30
0.0
  0
VERTEX
  5
1514
  8
SAPA_PROFIL
 10
65.77679491925079
 20
43.858845725149983
 30
0.0
 42
-0.1316524975842002
  0
VERTEX
  5
1515
  8
SAPA_PROFIL
 10
65.750000000008214
 20
43.958845725150347
 30
0.0
  0
VERTEX
  5
1516
  8
SAPA_PROFIL
 10
65.750000000012335
 20
46.80000000001035
 30
0.0
 42
0.4142135623731472
  0
VERTEX
  5
1517
  8
SAPA_PROFIL
 10
65.550000000011607
 20
47.000000000011099
 30
0.0
  0
VERTEX
  5
1518
  8
SAPA_PROFIL
 10
59.243869040803077
 20
47.000000000011021
 30
0.0
 42
-0.2418327667441306
  0
VERTEX
  5
1519
  8
SAPA_PROFIL
 10
58.999999999851582
 20
47.125277674977262
 30
0.0
 42
0.2418327667529517
  0
VERTEX
  5
151A
  8
SAPA_PROFIL
 10
58.756130958890537
 20
47.250555349950581
 30
0.0
  0
VERTEX
  5
151B
  8
SAPA_PROFIL
 10
57.799999999851543
 20
47.250555349950552
 30
0.0
 42
0.2418327667504456
  0
VERTEX
  5
151C
  8
SAPA_PROFIL
 10
57.556130958888829
 20
47.125277674979607
 30
0.0
 42
-0.2418327667464157
  0
VERTEX
  5
151D
  8
SAPA_PROFIL
 10
57.312261917935253
 20
47.000000000011021
 30
0.0
  0
VERTEX
  5
151E
  8
SAPA_PROFIL
 10
55.21418956221499
 20
47.000000000011021
 30
0.0
 42
-0.6681786379192718
  0
VERTEX
  5
151F
  8
SAPA_PROFIL
 10
54.507082781028387
 20
48.70710678119751
 30
0.0
  0
VERTEX
  5
1520
  8
SAPA_PROFIL
 10
55.812132034197369
 20
50.012156034366683
 30
0.0
 42
-0.1989123673797335
  0
VERTEX
  5
1521
  8
SAPA_PROFIL
 10
56.024264068553443
 20
50.100024000010812
 30
0.0
  0
VERTEX
  5
1522
  8
SAPA_PROFIL
 10
56.610769515300639
 20
50.10002400001067
 30
0.0
 42
-0.1316524975873855
  0
VERTEX
  5
1523
  8
SAPA_PROFIL
 10
56.760769515300559
 20
50.059831621146017
 30
0.0
  0
VERTEX
  5
1524
  8
SAPA_PROFIL
 10
58.249999999841442
 20
49.200024000010707
 30
0.0
  0
VERTEX
  5
1525
  8
SAPA_PROFIL
 10
58.699999999841388
 20
49.200012000011043
 30
0.0
 42
0.4142135623731054
  0
VERTEX
  5
1526
  8
SAPA_PROFIL
 10
58.999999999841393
 20
49.500012000011047
 30
0.0
  0
VERTEX
  5
1527
  8
SAPA_PROFIL
 10
58.999999999841343
 20
53.100024000011118
 30
0.0
 42
0.4142135623730951
  0
VERTEX
  5
1528
  8
SAPA_PROFIL
 10
58.699999999841339
 20
53.400024000011108
 30
0.0
  0
VERTEX
  5
1529
  8
SAPA_PROFIL
 10
58.249999999841343
 20
53.400024000011001
 30
0.0
  0
VERTEX
  5
152A
  8
SAPA_PROFIL
 10
56.76073986876716
 20
52.54019926244203
 30
0.0
 42
-0.1316363093594254
  0
VERTEX
  5
152B
  8
SAPA_PROFIL
 10
56.610758963720421
 20
52.500006884185062
 30
0.0
  0
VERTEX
  5
152C
  8
SAPA_PROFIL
 10
56.500999999839301
 20
52.499999898044088
 30
0.0
  0
VERTEX
  5
152D
  8
SAPA_PROFIL
 10
56.499999999841329
 20
52.50099983439425
 30
0.0
  0
VERTEX
  5
152E
  8
SAPA_PROFIL
 10
56.49999999984135
 20
54.500000000000128
 30
0.0
 42
-0.4142135623731035
  0
VERTEX
  5
152F
  8
SAPA_PROFIL
 10
56.999999999841357
 20
55.000000000000099
 30
0.0
  0
VERTEX
  5
1530
  8
SAPA_PROFIL
 10
64.150000000112016
 20
55.000000000000128
 30
0.0
 42
-0.4142135623731022
  0
VERTEX
  5
1531
  8
SAPA_PROFIL
 10
64.450000000111288
 20
54.700000000000848
 30
0.0
  0
VERTEX
  5
1532
  8
SAPA_PROFIL
 10
64.45000000011126
 20
54.049999999999429
 30
0.0
 42
0.4142135623730534
  0
VERTEX
  5
1533
  8
SAPA_PROFIL
 10
64.75000000011056
 20
53.750000000000099
 30
0.0
  0
VERTEX
  5
1534
  8
SAPA_PROFIL
 10
65.450000000002134
 20
53.750000000000149
 30
0.0
 42
0.4142135623730884
  0
VERTEX
  5
1535
  8
SAPA_PROFIL
 10
65.750000000001393
 20
54.049999999999429
 30
0.0
  0
VERTEX
  5
1536
  8
SAPA_PROFIL
 10
65.750000000021402
 20
65.950000000009979
 30
0.0
 42
0.4142135623730466
  0
VERTEX
  5
1537
  8
SAPA_PROFIL
 10
65.45000000002031
 20
66.25000000001107
 30
0.0
  0
VERTEX
  5
1538
  8
SAPA_PROFIL
 10
64.749999999543007
 20
66.250000000020165
 30
0.0
 42
0.4142135623731437
  0
VERTEX
  5
1539
  8
SAPA_PROFIL
 10
64.449999999532849
 20
65.950000000009979
 30
0.0
  0
VERTEX
  5
153A
  8
SAPA_PROFIL
 10
64.449999999540125
 20
65.2999999999994
 30
0.0
 42
-0.4142135623535671
  0
VERTEX
  5
153B
  8
SAPA_PROFIL
 10
64.149999999540853
 20
65.000000000011042
 30
0.0
  0
VERTEX
  5
153C
  8
SAPA_PROFIL
 10
62.199999999532857
 20
65.000000000011042
 30
0.0
 42
-0.4142135623731159
  0
VERTEX
  5
153D
  8
SAPA_PROFIL
 10
61.999999999533941
 20
65.200000000009965
 30
0.0
  0
VERTEX
  5
153E
  8
SAPA_PROFIL
 10
61.999999999543043
 20
66.300000000010314
 30
0.0
 42
-0.4142135623730326
  0
VERTEX
  5
153F
  8
SAPA_PROFIL
 10
62.199999999532857
 20
66.500000000000099
 30
0.0
  0
VERTEX
  5
1540
  8
SAPA_PROFIL
 10
62.999999999543022
 20
66.500000000011042
 30
0.0
 42
0.4142135623730991
  0
VERTEX
  5
1541
  8
SAPA_PROFIL
 10
63.499999999543043
 20
67.000000000011042
 30
0.0
  0
VERTEX
  5
1542
  8
SAPA_PROFIL
 10
63.500000000023228
 20
68.000000000020165
 30
0.0
 42
0.4142135623730992
  0
SEQEND
  5
1543
  8
SAPA_PROFIL
  0
POLYLINE
  5
BAD
  8
SAPA_PROFIL
 66
     1
 10
0.0
 20
0.0
 30
0.0
 70
     1
  0
VERTEX
  5
1544
  8
SAPA_PROFIL
 10
24.999999999659551
 20
68.500000000020165
 30
0.0
  0
VERTEX
  5
1545
  8
SAPA_PROFIL
 10
25.799999999669701
 20
68.500000000011042
 30
0.0
 42
0.4142135623731159
  0
VERTEX
  5
1546
  8
SAPA_PROFIL
 10
25.999999999668638
 20
68.70000000000995
 30
0.0
  0
VERTEX
  5
1547
  8
SAPA_PROFIL
 10
25.999999999659519
 20
69.800000000010343
 30
0.0
 42
0.4142135623730744
  0
VERTEX
  5
1548
  8
SAPA_PROFIL
 10
25.799999999669701
 20
70.000000000000171
 30
0.0
  0
VERTEX
  5
1549
  8
SAPA_PROFIL
 10
22.250000000172481
 20
70.000000000011042
 30
0.0
 42
0.3389652260119365
  0
VERTEX
  5
154A
  8
SAPA_PROFIL
 10
21.28452970062817
 20
69.260513148811256
 30
0.0
 42
0.0274862826956062
  0
VERTEX
  5
154B
  8
SAPA_PROFIL
 10
20.500000000180631
 20
55.000000000019412
 30
0.0
  0
VERTEX
  5
154C
  8
SAPA_PROFIL
 10
20.49999999981959
 20
42.199999998760319
 30
0.0
 42
0.4142135623889429
  0
VERTEX
  5
154D
  8
SAPA_PROFIL
 10
20.69999999982031
 20
41.999999998748699
 30
0.0
  0
VERTEX
  5
154E
  8
SAPA_PROFIL
 10
21.03452994608018
 20
41.999999998750489
 30
0.0
 42
0.2679491924396797
  0
VERTEX
  5
154F
  8
SAPA_PROFIL
 10
21.20773502683933
 20
42.099999998755493
 30
0.0
  0
VERTEX
  5
1550
  8
SAPA_PROFIL
 10
22.223205080431981
 20
43.858845725149983
 30
0.0
 42
0.1316524975842002
  0
VERTEX
  5
1551
  8
SAPA_PROFIL
 10
22.24999999967455
 20
43.958845725150347
 30
0.0
  0
VERTEX
  5
1552
  8
SAPA_PROFIL
 10
22.249999999670429
 20
46.80000000001035
 30
0.0
 42
-0.4142135623731472
  0
VERTEX
  5
1553
  8
SAPA_PROFIL
 10
22.44999999967116
 20
47.000000000011099
 30
0.0
  0
VERTEX
  5
1554
  8
SAPA_PROFIL
 10
28.756130958879691
 20
47.000000000011021
 30
0.0
 42
0.2418327667441306
  0
VERTEX
  5
1555
  8
SAPA_PROFIL
 10
28.999999999831179
 20
47.125277674977262
 30
0.0
 42
-0.2418327667529517
  0
VERTEX
  5
1556
  8
SAPA_PROFIL
 10
29.24386904079223
 20
47.250555349950581
 30
0.0
  0
VERTEX
  5
1557
  8
SAPA_PROFIL
 10
30.199999999831231
 20
47.250555349950552
 30
0.0
 42
-0.2418327667504456
  0
VERTEX
  5
1558
  8
SAPA_PROFIL
 10
30.443869040793949
 20
47.125277674979607
 30
0.0
 42
0.2418327667464157
  0
VERTEX
  5
1559
  8
SAPA_PROFIL
 10
30.687738081747529
 20
47.000000000011021
 30
0.0
  0
VERTEX
  5
155A
  8
SAPA_PROFIL
 10
32.785810437467788
 20
47.000000000011021
 30
0.0
 42
0.6681786379192718
  0
VERTEX
  5
155B
  8
SAPA_PROFIL
 10
33.492917218654377
 20
48.70710678119751
 30
0.0
  0
VERTEX
  5
155C
  8
SAPA_PROFIL
 10
32.18786796548541
 20
50.012156034366683
 30
0.0
 42
0.1989123673797335
  0
VERTEX
  5
155D
  8
SAPA_PROFIL
 10
31.975735931129339
 20
50.100024000010812
 30
0.0
  0
VERTEX
  5
155E
  8
SAPA_PROFIL
 10
31.389230484382139
 20
50.10002400001067
 30
0.0
 42
0.1316524975873855
  0
VERTEX
  5
155F
  8
SAPA_PROFIL
 10
31.239230484382219
 20
50.059831621146017
 30
0.0
  0
VERTEX
  5
1560
  8
SAPA_PROFIL
 10
29.749999999841339
 20
49.200024000010707
 30
0.0
  0
VERTEX
  5
1561
  8
SAPA_PROFIL
 10
29.2999999998414
 20
49.200012000011043
 30
0.0
 42
-0.4142135623731054
  0
VERTEX
  5
1562
  8
SAPA_PROFIL
 10
28.999999999841389
 20
49.500012000011047
 30
0.0
  0
VERTEX
  5
1563
  8
SAPA_PROFIL
 10
28.999999999841439
 20
53.100024000011118
 30
0.0
 42
-0.4142135623730951
  0
VERTEX
  5
1564
  8
SAPA_PROFIL
 10
29.29999999984144
 20
53.400024000011108
 30
0.0
  0
VERTEX
  5
1565
  8
SAPA_PROFIL
 10
29.749999999841439
 20
53.400024000011001
 30
0.0
  0
VERTEX
  5
1566
  8
SAPA_PROFIL
 10
31.239260130915611
 20
52.54019926244203
 30
0.0
 42
0.1316363093594254
  0
VERTEX
  5
1567
  8
SAPA_PROFIL
 10
31.38924103596235
 20
52.500006884185062
 30
0.0
  0
VERTEX
  5
1568
  8
SAPA_PROFIL
 10
31.49899999984347
 20
52.499999898044088
 30
0.0
  0
VERTEX
  5
1569
  8
SAPA_PROFIL
 10
31.499999999841449
 20
52.50099983439425
 30
0.0
  0
VERTEX
  5
156A
  8
SAPA_PROFIL
 10
31.49999999984141
 20
54.500000000000128
 30
0.0
 42
0.4142135623731035
  0
VERTEX
  5
156B
  8
SAPA_PROFIL
 10
30.999999999841421
 20
55.000000000000099
 30
0.0
  0
VERTEX
  5
156C
  8
SAPA_PROFIL
 10
23.849999999570748
 20
55.000000000000128
 30
0.0
 42
0.4142135623731022
  0
VERTEX
  5
156D
  8
SAPA_PROFIL
 10
23.549999999571479
 20
54.700000000000848
 30
0.0
  0
VERTEX
  5
156E
  8
SAPA_PROFIL
 10
23.549999999571511
 20
54.049999999999429
 30
0.0
 42
-0.4142135623730534
  0
VERTEX
  5
156F
  8
SAPA_PROFIL
 10
23.249999999572211
 20
53.750000000000099
 30
0.0
  0
VERTEX
  5
1570
  8
SAPA_PROFIL
 10
22.549999999680612
 20
53.750000000000149
 30
0.0
 42
-0.4142135623730884
  0
VERTEX
  5
1571
  8
SAPA_PROFIL
 10
22.249999999681371
 20
54.049999999999429
 30
0.0
  0
VERTEX
  5
1572
  8
SAPA_PROFIL
 10
22.249999999661359
 20
65.950000000009979
 30
0.0
 42
-0.4142135623730466
  0
VERTEX
  5
1573
  8
SAPA_PROFIL
 10
22.549999999662461
 20
66.25000000001107
 30
0.0
  0
VERTEX
  5
1574
  8
SAPA_PROFIL
 10
23.25000000013976
 20
66.250000000020165
 30
0.0
 42
-0.4142135623731437
  0
VERTEX
  5
1575
  8
SAPA_PROFIL
 10
23.550000000149911
 20
65.950000000009979
 30
0.0
  0
VERTEX
  5
1576
  8
SAPA_PROFIL
 10
23.550000000142639
 20
65.2999999999994
 30
0.0
 42
0.4142135623535671
  0
VERTEX
  5
1577
  8
SAPA_PROFIL
 10
23.850000000141911
 20
65.000000000011042
 30
0.0
  0
VERTEX
  5
1578
  8
SAPA_PROFIL
 10
25.800000000149922
 20
65.000000000011042
 30
0.0
 42
0.4142135623731159
  0
VERTEX
  5
1579
  8
SAPA_PROFIL
 10
26.00000000014882
 20
65.200000000009965
 30
0.0
  0
VERTEX
  5
157A
  8
SAPA_PROFIL
 10
26.000000000139728
 20
66.300000000010314
 30
0.0
 42
0.4142135623730326
  0
VERTEX
  5
157B
  8
SAPA_PROFIL
 10
25.800000000149922
 20
66.500000000000099
 30
0.0
  0
VERTEX
  5
157C
  8
SAPA_PROFIL
 10
25.00000000013976
 20
66.500000000011042
 30
0.0
 42
-0.4142135623730991
  0
VERTEX
  5
157D
  8
SAPA_PROFIL
 10
24.500000000139728
 20
67.000000000011042
 30
0.0
  0
VERTEX
  5
157E
  8
SAPA_PROFIL
 10
24.499999999659551
 20
68.000000000020165
 30
0.0
 42
-0.4142135623730992
  0
SEQEND
  5
157F
  8
SAPA_PROFIL
  0
POLYLINE
  5
BAE
  8
SAPA_PROFIL
 66
     1
 10
0.0
 20
0.0
 30
0.0
 70
     1
  0
VERTEX
  5
1580
  8
SAPA_PROFIL
 10
24.999999999659551
 20
68.500000000020165
 30
0.0
  0
VERTEX
  5
1581
  8
SAPA_PROFIL
 10
25.799999999669701
 20
68.500000000011042
 30
0.0
 42
0.4142135623731159
  0
VERTEX
  5
1582
  8
SAPA_PROFIL
 10
25.999999999668638
 20
68.70000000000995
 30
0.0
  0
VERTEX
  5
1583
  8
SAPA_PROFIL
 10
25.999999999659519
 20
69.800000000010343
 30
0.0
 42
0.4142135623730744
  0
VERTEX
  5
1584
  8
SAPA_PROFIL
 10
25.799999999669701
 20
70.000000000000171
 30
0.0
  0
VERTEX
  5
1585
  8
SAPA_PROFIL
 10
22.250000000172481
 20
70.000000000011042
 30
0.0
 42
0.3389652260119365
  0
VERTEX
  5
1586
  8
SAPA_PROFIL
 10
21.28452970062817
 20
69.260513148811256
 30
0.0
 42
0.0274862826956062
  0
VERTEX
  5
1587
  8
SAPA_PROFIL
 10
20.500000000180631
 20
55.000000000019412
 30
0.0
  0
VERTEX
  5
1588
  8
SAPA_PROFIL
 10
20.49999999981959
 20
42.199999998760319
 30
0.0
 42
0.4142135623889429
  0
VERTEX
  5
1589
  8
SAPA_PROFIL
 10
20.69999999982031
 20
41.999999998748699
 30
0.0
  0
VERTEX
  5
158A
  8
SAPA_PROFIL
 10
21.03452994608018
 20
41.999999998750489
 30
0.0
 42
0.2679491924396797
  0
VERTEX
  5
158B
  8
SAPA_PROFIL
 10
21.20773502683933
 20
42.099999998755493
 30
0.0
  0
VERTEX
  5
158C
  8
SAPA_PROFIL
 10
22.223205080431981
 20
43.858845725149983
 30
0.0
 42
0.1316524975842002
  0
VERTEX
  5
158D
  8
SAPA_PROFIL
 10
22.24999999967455
 20
43.958845725150347
 30
0.0
  0
VERTEX
  5
158E
  8
SAPA_PROFIL
 10
22.249999999670429
 20
46.80000000001035
 30
0.0
 42
-0.4142135623731472
  0
VERTEX
  5
158F
  8
SAPA_PROFIL
 10
22.44999999967116
 20
47.000000000011099
 30
0.0
  0
VERTEX
  5
1590
  8
SAPA_PROFIL
 10
28.756130958879691
 20
47.000000000011021
 30
0.0
 42
0.2418327667441306
  0
VERTEX
  5
1591
  8
SAPA_PROFIL
 10
28.999999999831179
 20
47.125277674977262
 30
0.0
 42
-0.2418327667529517
  0
VERTEX
  5
1592
  8
SAPA_PROFIL
 10
29.24386904079223
 20
47.250555349950581
 30
0.0
  0
VERTEX
  5
1593
  8
SAPA_PROFIL
 10
30.199999999831231
 20
47.250555349950552
 30
0.0
 42
-0.2418327667504456
  0
VERTEX
  5
1594
  8
SAPA_PROFIL
 10
30.443869040793949
 20
47.125277674979607
 30
0.0
 42
0.2418327667464157
  0
VERTEX
  5
1595
  8
SAPA_PROFIL
 10
30.687738081747529
 20
47.000000000011021
 30
0.0
  0
VERTEX
  5
1596
  8
SAPA_PROFIL
 10
32.785810437467788
 20
47.000000000011021
 30
0.0
 42
0.6681786379192718
  0
VERTEX
  5
1597
  8
SAPA_PROFIL
 10
33.492917218654377
 20
48.70710678119751
 30
0.0
  0
VERTEX
  5
1598
  8
SAPA_PROFIL
 10
32.18786796548541
 20
50.012156034366683
 30
0.0
 42
0.1989123673797335
  0
VERTEX
  5
1599
  8
SAPA_PROFIL
 10
31.975735931129339
 20
50.100024000010812
 30
0.0
  0
VERTEX
  5
159A
  8
SAPA_PROFIL
 10
31.389230484382139
 20
50.10002400001067
 30
0.0
 42
0.1316524975873855
  0
VERTEX
  5
159B
  8
SAPA_PROFIL
 10
31.239230484382219
 20
50.059831621146017
 30
0.0
  0
VERTEX
  5
159C
  8
SAPA_PROFIL
 10
29.749999999841339
 20
49.200024000010707
 30
0.0
  0
VERTEX
  5
159D
  8
SAPA_PROFIL
 10
29.2999999998414
 20
49.200012000011043
 30
0.0
 42
-0.4142135623731054
  0
VERTEX
  5
159E
  8
SAPA_PROFIL
 10
28.999999999841389
 20
49.500012000011047
 30
0.0
  0
VERTEX
  5
159F
  8
SAPA_PROFIL
 10
28.999999999841439
 20
53.100024000011118
 30
0.0
 42
-0.4142135623730951
  0
VERTEX
  5
15A0
  8
SAPA_PROFIL
 10
29.29999999984144
 20
53.400024000011108
 30
0.0
  0
VERTEX
  5
15A1
  8
SAPA_PROFIL
 10
29.749999999841439
 20
53.400024000011001
 30
0.0
  0
VERTEX
  5
15A2
  8
SAPA_PROFIL
 10
31.239260130915611
 20
52.54019926244203
 30
0.0
 42
0.1316363093594254
  0
VERTEX
  5
15A3
  8
SAPA_PROFIL
 10
31.38924103596235
 20
52.500006884185062
 30
0.0
  0
VERTEX
  5
15A4
  8
SAPA_PROFIL
 10
31.49899999984347
 20
52.499999898044088
 30
0.0
  0
VERTEX
  5
15A5
  8
SAPA_PROFIL
 10
31.499999999841449
 20
52.50099983439425
 30
0.0
  0
VERTEX
  5
15A6
  8
SAPA_PROFIL
 10
31.49999999984141
 20
54.500000000000128
 30
0.0
 42
0.4142135623731035
  0
VERTEX
  5
15A7
  8
SAPA_PROFIL
 10
30.999999999841421
 20
55.000000000000099
 30
0.0
  0
VERTEX
  5
15A8
  8
SAPA_PROFIL
 10
23.849999999570748
 20
55.000000000000128
 30
0.0
 42
0.4142135623731022
  0
VERTEX
  5
15A9
  8
SAPA_PROFIL
 10
23.549999999571479
 20
54.700000000000848
 30
0.0
  0
VERTEX
  5
15AA
  8
SAPA_PROFIL
 10
23.549999999571511
 20
54.049999999999429
 30
0.0
 42
-0.4142135623730534
  0
VERTEX
  5
15AB
  8
SAPA_PROFIL
 10
23.249999999572211
 20
53.750000000000099
 30
0.0
  0
VERTEX
  5
15AC
  8
SAPA_PROFIL
 10
22.549999999680612
 20
53.750000000000149
 30
0.0
 42
-0.4142135623730884
  0
VERTEX
  5
15AD
  8
SAPA_PROFIL
 10
22.249999999681371
 20
54.049999999999429
 30
0.0
  0
VERTEX
  5
15AE
  8
SAPA_PROFIL
 10
22.249999999661359
 20
65.950000000009979
 30
0.0
 42
-0.4142135623730466
  0
VERTEX
  5
15AF
  8
SAPA_PROFIL
 10
22.549999999662461
 20
66.25000000001107
 30
0.0
  0
VERTEX
  5
15B0
  8
SAPA_PROFIL
 10
23.25000000013976
 20
66.250000000020165
 30
0.0
 42
-0.4142135623731437
  0
VERTEX
  5
15B1
  8
SAPA_PROFIL
 10
23.550000000149911
 20
65.950000000009979
 30
0.0
  0
VERTEX
  5
15B2
  8
SAPA_PROFIL
 10
23.550000000142639
 20
65.2999999999994
 30
0.0
 42
0.4142135623535671
  0
VERTEX
  5
15B3
  8
SAPA_PROFIL
 10
23.850000000141911
 20
65.000000000011042
 30
0.0
  0
VERTEX
  5
15B4
  8
SAPA_PROFIL
 10
25.800000000149922
 20
65.000000000011042
 30
0.0
 42
0.4142135623731159
  0
VERTEX
  5
15B5
  8
SAPA_PROFIL
 10
26.00000000014882
 20
65.200000000009965
 30
0.0
  0
VERTEX
  5
15B6
  8
SAPA_PROFIL
 10
26.000000000139728
 20
66.300000000010314
 30
0.0
 42
0.4142135623730326
  0
VERTEX
  5
15B7
  8
SAPA_PROFIL
 10
25.800000000149922
 20
66.500000000000099
 30
0.0
  0
VERTEX
  5
15B8
  8
SAPA_PROFIL
 10
25.00000000013976
 20
66.500000000011042
 30
0.0
 42
-0.4142135623730991
  0
VERTEX
  5
15B9
  8
SAPA_PROFIL
 10
24.500000000139728
 20
67.000000000011042
 30
0.0
  0
VERTEX
  5
15BA
  8
SAPA_PROFIL
 10
24.499999999659551
 20
68.000000000020165
 30
0.0
 42
-0.4142135623730992
  0
SEQEND
  5
15BB
  8
SAPA_PROFIL
  0
POLYLINE
  5
BAF
  8
SAPA_PROFIL
 66
     1
 10
0.0
 20
0.0
 30
0.0
 70
     1
  0
VERTEX
  5
15BC
  8
SAPA_PROFIL
 10
63.000000000023228
 20
68.500000000020165
 30
0.0
  0
VERTEX
  5
15BD
  8
SAPA_PROFIL
 10
62.20000000001307
 20
68.500000000011042
 30
0.0
 42
-0.4142135623731159
  0
VERTEX
  5
15BE
  8
SAPA_PROFIL
 10
62.000000000014133
 20
68.70000000000995
 30
0.0
  0
VERTEX
  5
15BF
  8
SAPA_PROFIL
 10
62.000000000023263
 20
69.800000000010343
 30
0.0
 42
-0.4142135623730744
  0
VERTEX
  5
15C0
  8
SAPA_PROFIL
 10
62.20000000001307
 20
70.000000000000171
 30
0.0
  0
VERTEX
  5
15C1
  8
SAPA_PROFIL
 10
65.749999999510294
 20
70.000000000011042
 30
0.0
 42
-0.3389652260119365
  0
VERTEX
  5
15C2
  8
SAPA_PROFIL
 10
66.715470299054601
 20
69.260513148811256
 30
0.0
 42
-0.0274862826956062
  0
VERTEX
  5
15C3
  8
SAPA_PROFIL
 10
67.499999999502137
 20
55.000000000019412
 30
0.0
  0
VERTEX
  5
15C4
  8
SAPA_PROFIL
 10
67.499999999863178
 20
42.199999998760319
 30
0.0
 42
-0.4142135623889429
  0
VERTEX
  5
15C5
  8
SAPA_PROFIL
 10
67.29999999986245
 20
41.999999998748699
 30
0.0
  0
VERTEX
  5
15C6
  8
SAPA_PROFIL
 10
66.965470053602587
 20
41.999999998750489
 30
0.0
 42
-0.2679491924396797
  0
VERTEX
  5
15C7
  8
SAPA_PROFIL
 10
66.792264972843441
 20
42.099999998755493
 30
0.0
  0
VERTEX
  5
15C8
  8
SAPA_PROFIL
 10
65.77679491925079
 20
43.858845725149983
 30
0.0
 42
-0.1316524975842002
  0
VERTEX
  5
15C9
  8
SAPA_PROFIL
 10
65.750000000008214
 20
43.958845725150347
 30
0.0
  0
VERTEX
  5
15CA
  8
SAPA_PROFIL
 10
65.750000000012335
 20
46.80000000001035
 30
0.0
 42
0.4142135623731472
  0
VERTEX
  5
15CB
  8
SAPA_PROFIL
 10
65.550000000011607
 20
47.000000000011099
 30
0.0
  0
VERTEX
  5
15CC
  8
SAPA_PROFIL
 10
59.243869040803077
 20
47.000000000011021
 30
0.0
 42
-0.2418327667441306
  0
VERTEX
  5
15CD
  8
SAPA_PROFIL
 10
58.999999999851582
 20
47.125277674977262
 30
0.0
 42
0.2418327667529517
  0
VERTEX
  5
15CE
  8
SAPA_PROFIL
 10
58.756130958890537
 20
47.250555349950581
 30
0.0
  0
VERTEX
  5
15CF
  8
SAPA_PROFIL
 10
57.799999999851543
 20
47.250555349950552
 30
0.0
 42
0.2418327667504456
  0
VERTEX
  5
15D0
  8
SAPA_PROFIL
 10
57.556130958888829
 20
47.125277674979607
 30
0.0
 42
-0.2418327667464157
  0
VERTEX
  5
15D1
  8
SAPA_PROFIL
 10
57.312261917935253
 20
47.000000000011021
 30
0.0
  0
VERTEX
  5
15D2
  8
SAPA_PROFIL
 10
55.21418956221499
 20
47.000000000011021
 30
0.0
 42
-0.6681786379192718
  0
VERTEX
  5
15D3
  8
SAPA_PROFIL
 10
54.507082781028387
 20
48.70710678119751
 30
0.0
  0
VERTEX
  5
15D4
  8
SAPA_PROFIL
 10
55.812132034197369
 20
50.012156034366683
 30
0.0
 42
-0.1989123673797335
  0
VERTEX
  5
15D5
  8
SAPA_PROFIL
 10
56.024264068553443
 20
50.100024000010812
 30
0.0
  0
VERTEX
  5
15D6
  8
SAPA_PROFIL
 10
56.610769515300639
 20
50.10002400001067
 30
0.0
 42
-0.1316524975873855
  0
VERTEX
  5
15D7
  8
SAPA_PROFIL
 10
56.760769515300559
 20
50.059831621146017
 30
0.0
  0
VERTEX
  5
15D8
  8
SAPA_PROFIL
 10
58.249999999841442
 20
49.200024000010707
 30
0.0
  0
VERTEX
  5
15D9
  8
SAPA_PROFIL
 10
58.699999999841388
 20
49.200012000011043
 30
0.0
 42
0.4142135623731054
  0
VERTEX
  5
15DA
  8
SAPA_PROFIL
 10
58.999999999841393
 20
49.500012000011047
 30
0.0
  0
VERTEX
  5
15DB
  8
SAPA_PROFIL
 10
58.999999999841343
 20
53.100024000011118
 30
0.0
 42
0.4142135623730951
  0
VERTEX
  5
15DC
  8
SAPA_PROFIL
 10
58.699999999841339
 20
53.400024000011108
 30
0.0
  0
VERTEX
  5
15DD
  8
SAPA_PROFIL
 10
58.249999999841343
 20
53.400024000011001
 30
0.0
  0
VERTEX
  5
15DE
  8
SAPA_PROFIL
 10
56.76073986876716
 20
52.54019926244203
 30
0.0
 42
-0.1316363093594254
  0
VERTEX
  5
15DF
  8
SAPA_PROFIL
 10
56.610758963720421
 20
52.500006884185062
 30
0.0
  0
VERTEX
  5
15E0
  8
SAPA_PROFIL
 10
56.500999999839301
 20
52.499999898044088
 30
0.0
  0
VERTEX
  5
15E1
  8
SAPA_PROFIL
 10
56.499999999841329
 20
52.50099983439425
 30
0.0
  0
VERTEX
  5
15E2
  8
SAPA_PROFIL
 10
56.49999999984135
 20
54.500000000000128
 30
0.0
 42
-0.4142135623731035
  0
VERTEX
  5
15E3
  8
SAPA_PROFIL
 10
56.999999999841357
 20
55.000000000000099
 30
0.0
  0
VERTEX
  5
15E4
  8
SAPA_PROFIL
 10
64.150000000112016
 20
55.000000000000128
 30
0.0
 42
-0.4142135623731022
  0
VERTEX
  5
15E5
  8
SAPA_PROFIL
 10
64.450000000111288
 20
54.700000000000848
 30
0.0
  0
VERTEX
  5
15E6
  8
SAPA_PROFIL
 10
64.45000000011126
 20
54.049999999999429
 30
0.0
 42
0.4142135623730534
  0
VERTEX
  5
15E7
  8
SAPA_PROFIL
 10
64.75000000011056
 20
53.750000000000099
 30
0.0
  0
VERTEX
  5
15E8
  8
SAPA_PROFIL
 10
65.450000000002134
 20
53.750000000000149
 30
0.0
 42
0.4142135623730884
  0
VERTEX
  5
15E9
  8
SAPA_PROFIL
 10
65.750000000001393
 20
54.049999999999429
 30
0.0
  0
VERTEX
  5
15EA
  8
SAPA_PROFIL
 10
65.750000000021402
 20
65.950000000009979
 30
0.0
 42
0.4142135623730466
  0
VERTEX
  5
15EB
  8
SAPA_PROFIL
 10
65.45000000002031
 20
66.25000000001107
 30
0.0
  0
VERTEX
  5
15EC
  8
SAPA_PROFIL
 10
64.749999999543007
 20
66.250000000020165
 30
0.0
 42
0.4142135623731437
  0
VERTEX
  5
15ED
  8
SAPA_PROFIL
 10
64.449999999532849
 20
65.950000000009979
 30
0.0
  0
VERTEX
  5
15EE
  8
SAPA_PROFIL
 10
64.449999999540125
 20
65.2999999999994
 30
0.0
 42
-0.4142135623535671
  0
VERTEX
  5
15EF
  8
SAPA_PROFIL
 10
64.149999999540853
 20
65.000000000011042
 30
0.0
  0
VERTEX
  5
15F0
  8
SAPA_PROFIL
 10
62.199999999532857
 20
65.000000000011042
 30
0.0
 42
-0.4142135623731159
  0
VERTEX
  5
15F1
  8
SAPA_PROFIL
 10
61.999999999533941
 20
65.200000000009965
 30
0.0
  0
VERTEX
  5
15F2
  8
SAPA_PROFIL
 10
61.999999999543043
 20
66.300000000010314
 30
0.0
 42
-0.4142135623730326
  0
VERTEX
  5
15F3
  8
SAPA_PROFIL
 10
62.199999999532857
 20
66.500000000000099
 30
0.0
  0
VERTEX
  5
15F4
  8
SAPA_PROFIL
 10
62.999999999543022
 20
66.500000000011042
 30
0.0
 42
0.4142135623730991
  0
VERTEX
  5
15F5
  8
SAPA_PROFIL
 10
63.499999999543043
 20
67.000000000011042
 30
0.0
  0
VERTEX
  5
15F6
  8
SAPA_PROFIL
 10
63.500000000023228
 20
68.000000000020165
 30
0.0
 42
0.4142135623730992
  0
SEQEND
  5
15F7
  8
SAPA_PROFIL
  0
POLYLINE
  5
BB0
  8
SAPA_PROFIL
 66
     1
 10
0.0
 20
0.0
 30
0.0
 70
     1
  0
VERTEX
  5
15F8
  8
SAPA_PROFIL
 10
24.999999999659551
 20
68.500000000020165
 30
0.0
  0
VERTEX
  5
15F9
  8
SAPA_PROFIL
 10
25.799999999669701
 20
68.500000000011042
 30
0.0
 42
0.4142135623731159
  0
VERTEX
  5
15FA
  8
SAPA_PROFIL
 10
25.999999999668638
 20
68.70000000000995
 30
0.0
  0
VERTEX
  5
15FB
  8
SAPA_PROFIL
 10
25.999999999659519
 20
69.800000000010343
 30
0.0
 42
0.4142135623730744
  0
VERTEX
  5
15FC
  8
SAPA_PROFIL
 10
25.799999999669701
 20
70.000000000000171
 30
0.0
  0
VERTEX
  5
15FD
  8
SAPA_PROFIL
 10
22.250000000172481
 20
70.000000000011042
 30
0.0
 42
0.3389652260119365
  0
VERTEX
  5
15FE
  8
SAPA_PROFIL
 10
21.28452970062817
 20
69.260513148811256
 30
0.0
 42
0.0274862826956062
  0
VERTEX
  5
15FF
  8
SAPA_PROFIL
 10
20.500000000180631
 20
55.000000000019412
 30
0.0
  0
VERTEX
  5
1600
  8
SAPA_PROFIL
 10
20.49999999981959
 20
42.199999998760319
 30
0.0
 42
0.4142135623889429
  0
VERTEX
  5
1601
  8
SAPA_PROFIL
 10
20.69999999982031
 20
41.999999998748699
 30
0.0
  0
VERTEX
  5
1602
  8
SAPA_PROFIL
 10
21.03452994608018
 20
41.999999998750489
 30
0.0
 42
0.2679491924396797
  0
VERTEX
  5
1603
  8
SAPA_PROFIL
 10
21.20773502683933
 20
42.099999998755493
 30
0.0
  0
VERTEX
  5
1604
  8
SAPA_PROFIL
 10
22.223205080431981
 20
43.858845725149983
 30
0.0
 42
0.1316524975842002
  0
VERTEX
  5
1605
  8
SAPA_PROFIL
 10
22.24999999967455
 20
43.958845725150347
 30
0.0
  0
VERTEX
  5
1606
  8
SAPA_PROFIL
 10
22.249999999670429
 20
46.80000000001035
 30
0.0
 42
-0.4142135623731472
  0
VERTEX
  5
1607
  8
SAPA_PROFIL
 10
22.44999999967116
 20
47.000000000011099
 30
0.0
  0
VERTEX
  5
1608
  8
SAPA_PROFIL
 10
28.756130958879691
 20
47.000000000011021
 30
0.0
 42
0.2418327667441306
  0
VERTEX
  5
1609
  8
SAPA_PROFIL
 10
28.999999999831179
 20
47.125277674977262
 30
0.0
 42
-0.2418327667529517
  0
VERTEX
  5
160A
  8
SAPA_PROFIL
 10
29.24386904079223
 20
47.250555349950581
 30
0.0
  0
VERTEX
  5
160B
  8
SAPA_PROFIL
 10
30.199999999831231
 20
47.250555349950552
 30
0.0
 42
-0.2418327667504456
  0
VERTEX
  5
160C
  8
SAPA_PROFIL
 10
30.443869040793949
 20
47.125277674979607
 30
0.0
 42
0.2418327667464157
  0
VERTEX
  5
160D
  8
SAPA_PROFIL
 10
30.687738081747529
 20
47.000000000011021
 30
0.0
  0
VERTEX
  5
160E
  8
SAPA_PROFIL
 10
32.785810437467788
 20
47.000000000011021
 30
0.0
 42
0.6681786379192718
  0
VERTEX
  5
160F
  8
SAPA_PROFIL
 10
33.492917218654377
 20
48.70710678119751
 30
0.0
  0
VERTEX
  5
1610
  8
SAPA_PROFIL
 10
32.18786796548541
 20
50.012156034366683
 30
0.0
 42
0.1989123673797335
  0
VERTEX
  5
1611
  8
SAPA_PROFIL
 10
31.975735931129339
 20
50.100024000010812
 30
0.0
  0
VERTEX
  5
1612
  8
SAPA_PROFIL
 10
31.389230484382139
 20
50.10002400001067
 30
0.0
 42
0.1316524975873855
  0
VERTEX
  5
1613
  8
SAPA_PROFIL
 10
31.239230484382219
 20
50.059831621146017
 30
0.0
  0
VERTEX
  5
1614
  8
SAPA_PROFIL
 10
29.749999999841339
 20
49.200024000010707
 30
0.0
  0
VERTEX
  5
1615
  8
SAPA_PROFIL
 10
29.2999999998414
 20
49.200012000011043
 30
0.0
 42
-0.4142135623731054
  0
VERTEX
  5
1616
  8
SAPA_PROFIL
 10
28.999999999841389
 20
49.500012000011047
 30
0.0
  0
VERTEX
  5
1617
  8
SAPA_PROFIL
 10
28.999999999841439
 20
53.100024000011118
 30
0.0
 42
-0.4142135623730951
  0
VERTEX
  5
1618
  8
SAPA_PROFIL
 10
29.29999999984144
 20
53.400024000011108
 30
0.0
  0
VERTEX
  5
1619
  8
SAPA_PROFIL
 10
29.749999999841439
 20
53.400024000011001
 30
0.0
  0
VERTEX
  5
161A
  8
SAPA_PROFIL
 10
31.239260130915611
 20
52.54019926244203
 30
0.0
 42
0.1316363093594254
  0
VERTEX
  5
161B
  8
SAPA_PROFIL
 10
31.38924103596235
 20
52.500006884185062
 30
0.0
  0
VERTEX
  5
161C
  8
SAPA_PROFIL
 10
31.49899999984347
 20
52.499999898044088
 30
0.0
  0
VERTEX
  5
161D
  8
SAPA_PROFIL
 10
31.499999999841449
 20
52.50099983439425
 30
0.0
  0
VERTEX
  5
161E
  8
SAPA_PROFIL
 10
31.49999999984141
 20
54.500000000000128
 30
0.0
 42
0.4142135623731035
  0
VERTEX
  5
161F
  8
SAPA_PROFIL
 10
30.999999999841421
 20
55.000000000000099
 30
0.0
  0
VERTEX
  5
1620
  8
SAPA_PROFIL
 10
23.849999999570748
 20
55.000000000000128
 30
0.0
 42
0.4142135623731022
  0
VERTEX
  5
1621
  8
SAPA_PROFIL
 10
23.549999999571479
 20
54.700000000000848
 30
0.0
  0
VERTEX
  5
1622
  8
SAPA_PROFIL
 10
23.549999999571511
 20
54.049999999999429
 30
0.0
 42
-0.4142135623730534
  0
VERTEX
  5
1623
  8
SAPA_PROFIL
 10
23.249999999572211
 20
53.750000000000099
 30
0.0
  0
VERTEX
  5
1624
  8
SAPA_PROFIL
 10
22.549999999680612
 20
53.750000000000149
 30
0.0
 42
-0.4142135623730884
  0
VERTEX
  5
1625
  8
SAPA_PROFIL
 10
22.249999999681371
 20
54.049999999999429
 30
0.0
  0
VERTEX
  5
1626
  8
SAPA_PROFIL
 10
22.249999999661359
 20
65.950000000009979
 30
0.0
 42
-0.4142135623730466
  0
VERTEX
  5
1627
  8
SAPA_PROFIL
 10
22.549999999662461
 20
66.25000000001107
 30
0.0
  0
VERTEX
  5
1628
  8
SAPA_PROFIL
 10
23.25000000013976
 20
66.250000000020165
 30
0.0
 42
-0.4142135623731437
  0
VERTEX
  5
1629
  8
SAPA_PROFIL
 10
23.550000000149911
 20
65.950000000009979
 30
0.0
  0
VERTEX
  5
162A
  8
SAPA_PROFIL
 10
23.550000000142639
 20
65.2999999999994
 30
0.0
 42
0.4142135623535671
  0
VERTEX
  5
162B
  8
SAPA_PROFIL
 10
23.850000000141911
 20
65.000000000011042
 30
0.0
  0
VERTEX
  5
162C
  8
SAPA_PROFIL
 10
25.800000000149922
 20
65.000000000011042
 30
0.0
 42
0.4142135623731159
  0
VERTEX
  5
162D
  8
SAPA_PROFIL
 10
26.00000000014882
 20
65.200000000009965
 30
0.0
  0
VERTEX
  5
162E
  8
SAPA_PROFIL
 10
26.000000000139728
 20
66.300000000010314
 30
0.0
 42
0.4142135623730326
  0
VERTEX
  5
162F
  8
SAPA_PROFIL
 10
25.800000000149922
 20
66.500000000000099
 30
0.0
  0
VERTEX
  5
1630
  8
SAPA_PROFIL
 10
25.00000000013976
 20
66.500000000011042
 30
0.0
 42
-0.4142135623730991
  0
VERTEX
  5
1631
  8
SAPA_PROFIL
 10
24.500000000139728
 20
67.000000000011042
 30
0.0
  0
VERTEX
  5
1632
  8
SAPA_PROFIL
 10
24.499999999659551
 20
68.000000000020165
 30
0.0
 42
-0.4142135623730992
  0
SEQEND
  5
1633
  8
SAPA_PROFIL
  0
POLYLINE
  5
BB1
  8
SAPA_PROFIL
 62
     4
 66
     1
 10
0.0
 20
0.0
 30
0.0
 70
     1
  0
VERTEX
  5
BB2
  8
SAPA_PROFIL
 62
     4
 10
31.856217782493879
 20
50.350012000013074
 30
0.0
 42
0.1316524975873979
  0
VERTEX
  5
BB3
  8
SAPA_PROFIL
 62
     4
 10
31.456217782493869
 20
50.242832323040631
 30
0.0
  0
VERTEX
  5
BB4
  8
SAPA_PROFIL
 62
     4
 10
29.736602540219831
 20
49.25001200001121
 30
0.0
  0
VERTEX
  5
BB5
  8
SAPA_PROFIL
 62
     4
 10
29.299999999841368
 20
49.250012000011111
 30
0.0
 42
-0.4142135623730951
  0
VERTEX
  5
BB6
  8
SAPA_PROFIL
 62
     4
 10
29.04999999984139
 20
49.500012000011111
 30
0.0
  0
VERTEX
  5
BB7
  8
SAPA_PROFIL
 62
     4
 10
29.04999999984134
 20
53.100024000011167
 30
0.0
 42
-0.4142135623731053
  0
VERTEX
  5
BB8
  8
SAPA_PROFIL
 62
     4
 10
29.29999999984134
 20
53.350024000011167
 30
0.0
  0
VERTEX
  5
BB9
  8
SAPA_PROFIL
 62
     4
 10
29.736601921419801
 20
53.350012357275808
 30
0.0
  0
VERTEX
  5
BBA
  8
SAPA_PROFIL
 62
     4
 10
31.45621778248719
 20
52.357191676985543
 30
0.0
 42
0.1316524975874149
  0
VERTEX
  5
BBB
  8
SAPA_PROFIL
 62
     4
 10
31.856217782487239
 20
52.250012000013051
 30
0.0
  0
VERTEX
  5
BBC
  8
SAPA_PROFIL
 62
     4
 10
56.14378221719555
 20
52.250012000013051
 30
0.0
 42
0.1316524975874151
  0
VERTEX
  5
BBD
  8
SAPA_PROFIL
 62
     4
 10
56.543782217195591
 20
52.357191676985543
 30
0.0
  0
VERTEX
  5
BBE
  8
SAPA_PROFIL
 62
     4
 10
58.263398078262973
 20
53.350012357275808
 30
0.0
  0
VERTEX
  5
BBF
  8
SAPA_PROFIL
 62
     4
 10
58.699999999841452
 20
53.350024000011167
 30
0.0
 42
-0.4142135623731054
  0
VERTEX
  5
BC0
  8
SAPA_PROFIL
 62
     4
 10
58.949999999841438
 20
53.100024000011167
 30
0.0
  0
VERTEX
  5
BC1
  8
SAPA_PROFIL
 62
     4
 10
58.949999999841388
 20
49.500012000011111
 30
0.0
 42
-0.4142135623730953
  0
VERTEX
  5
BC2
  8
SAPA_PROFIL
 62
     4
 10
58.699999999841403
 20
49.250012000011111
 30
0.0
  0
VERTEX
  5
BC3
  8
SAPA_PROFIL
 62
     4
 10
58.263397459462936
 20
49.25001200001121
 30
0.0
  0
VERTEX
  5
BC4
  8
SAPA_PROFIL
 62
     4
 10
56.543782217188912
 20
50.242832323040631
 30
0.0
 42
0.1316524975873982
  0
VERTEX
  5
BC5
  8
SAPA_PROFIL
 62
     4
 10
56.143782217188893
 20
50.350012000013074
 30
0.0
  0
SEQEND
  5
BC6
  8
SAPA_PROFIL
 62
     4
  0
POLYLINE
  5
BC7
  8
SAPA_PROFIL
 66
     1
 10
0.0
 20
0.0
 30
0.0
 70
     1
  0
VERTEX
  5
1634
  8
SAPA_PROFIL
 10
135.64523645122861
 20
19.46152494752096
 30
0.0
 42
0.2914734195858593
  0
VERTEX
  5
1635
  8
SAPA_PROFIL
 10
136.79999992774421
 20
21.274140521607482
 30
0.0
  0
VERTEX
  5
1636
  8
SAPA_PROFIL
 10
136.79999992774421
 20
40.999999999985441
 30
0.0
 42
0.4142135623731033
  0
VERTEX
  5
1637
  8
SAPA_PROFIL
 10
136.29999992774421
 20
41.499999999985441
 30
0.0
  0
VERTEX
  5
1638
  8
SAPA_PROFIL
 10
135.999999927734
 20
41.499999999985441
 30
0.0
 42
0.4142135623731035
  0
VERTEX
  5
1639
  8
SAPA_PROFIL
 10
135.499999927734
 20
40.999999999985441
 30
0.0
  0
VERTEX
  5
163A
  8
SAPA_PROFIL
 10
135.499999927734
 20
39.699999999986183
 30
0.0
 42
-0.4142135623731159
  0
VERTEX
  5
163B
  8
SAPA_PROFIL
 10
135.29999992771511
 20
39.499999999974541
 30
0.0
  0
VERTEX
  5
163C
  8
SAPA_PROFIL
 10
134.999999927734
 20
39.499999999985448
 30
0.0
 42
-0.4142135623731035
  0
VERTEX
  5
163D
  8
SAPA_PROFIL
 10
134.499999927734
 20
39.999999999985448
 30
0.0
  0
VERTEX
  5
163E
  8
SAPA_PROFIL
 10
134.4999999277413
 20
43.749999999985448
 30
0.0
 42
-0.4142135623731035
  0
VERTEX
  5
163F
  8
SAPA_PROFIL
 10
134.9999999277413
 20
44.249999999985441
 30
0.0
  0
VERTEX
  5
1640
  8
SAPA_PROFIL
 10
135.29999992774421
 20
44.249999999985441
 30
0.0
 42
-0.4142135623731159
  0
VERTEX
  5
1641
  8
SAPA_PROFIL
 10
135.49999992775221
 20
44.049999999973807
 30
0.0
  0
VERTEX
  5
1642
  8
SAPA_PROFIL
 10
135.4999999277413
 20
43.199999999986169
 30
0.0
 42
0.4142135623730951
  0
VERTEX
  5
1643
  8
SAPA_PROFIL
 10
135.69999992773111
 20
42.999999999985441
 30
0.0
  0
VERTEX
  5
1644
  8
SAPA_PROFIL
 10
136.69999992773111
 20
42.999999999985441
 30
0.0
 42
0.4142135623731035
  0
VERTEX
  5
1645
  8
SAPA_PROFIL
 10
137.19999992773111
 20
43.499999999985441
 30
0.0
  0
VERTEX
  5
1646
  8
SAPA_PROFIL
 10
137.19999992773111
 20
49.499999999985448
 30
0.0
 42
0.4142135623731033
  0
VERTEX
  5
1647
  8
SAPA_PROFIL
 10
136.69999992773111
 20
49.999999999985448
 30
0.0
  0
VERTEX
  5
1648
  8
SAPA_PROFIL
 10
135.69999992773111
 20
49.999999999985448
 30
0.0
 42
0.4142135623731054
  0
VERTEX
  5
1649
  8
SAPA_PROFIL
 10
135.4999999277413
 20
49.799999999973807
 30
0.0
  0
VERTEX
  5
164A
  8
SAPA_PROFIL
 10
135.499999927734
 20
48.949999999986169
 30
0.0
 42
-0.4142135623731159
  0
VERTEX
  5
164B
  8
SAPA_PROFIL
 10
135.29999992771511
 20
48.749999999974527
 30
0.0
  0
VERTEX
  5
164C
  8
SAPA_PROFIL
 10
134.9999999277413
 20
48.75
 30
0.0
 42
-0.4142135623731035
  0
VERTEX
  5
164D
  8
SAPA_PROFIL
 10
134.4999999277413
 20
49.25
 30
0.0
  0
VERTEX
  5
164E
  8
SAPA_PROFIL
 10
134.4999999277413
 20
52.25
 30
0.0
 42
-0.4142135623731035
  0
VERTEX
  5
164F
  8
SAPA_PROFIL
 10
134.9999999277413
 20
52.75
 30
0.0
  0
VERTEX
  5
1650
  8
SAPA_PROFIL
 10
135.29999992774421
 20
52.75
 30
0.0
 42
-0.4142135623730744
  0
VERTEX
  5
1651
  8
SAPA_PROFIL
 10
135.4999999277413
 20
52.549999999999272
 30
0.0
  0
VERTEX
  5
1652
  8
SAPA_PROFIL
 10
135.49999992773041
 20
51.70000000000072
 30
0.0
 42
0.4142135623730534
  0
VERTEX
  5
1653
  8
SAPA_PROFIL
 10
135.69999992773111
 20
51.5
 30
0.0
  0
VERTEX
  5
1654
  8
SAPA_PROFIL
 10
136.69999992773111
 20
51.5
 30
0.0
 42
0.4142135623731035
  0
VERTEX
  5
1655
  8
SAPA_PROFIL
 10
137.19999992773111
 20
52.0
 30
0.0
  0
VERTEX
  5
1656
  8
SAPA_PROFIL
 10
137.19999992773111
 20
58.0
 30
0.0
 42
0.4142135623730869
  0
VERTEX
  5
1657
  8
SAPA_PROFIL
 10
136.69999992773111
 20
58.5
 30
0.0
  0
VERTEX
  5
1658
  8
SAPA_PROFIL
 10
135.69999992773111
 20
58.499999999989079
 30
0.0
 42
0.4142135623730534
  0
VERTEX
  5
1659
  8
SAPA_PROFIL
 10
135.4999999277413
 20
58.299999999999272
 30
0.0
  0
VERTEX
  5
165A
  8
SAPA_PROFIL
 10
135.4999999277486
 20
57.45000000000072
 30
0.0
 42
-0.4142135623730744
  0
VERTEX
  5
165B
  8
SAPA_PROFIL
 10
135.29999992774421
 20
57.25
 30
0.0
  0
VERTEX
  5
165C
  8
SAPA_PROFIL
 10
134.9999999277413
 20
57.25
 30
0.0
 42
-0.4142135623731035
  0
VERTEX
  5
165D
  8
SAPA_PROFIL
 10
134.4999999277413
 20
57.75
 30
0.0
  0
VERTEX
  5
165E
  8
SAPA_PROFIL
 10
134.4999999277413
 20
59.5
 30
0.0
 42
-0.4142135623731035
  0
VERTEX
  5
165F
  8
SAPA_PROFIL
 10
134.9999999277413
 20
60.0
 30
0.0
  0
VERTEX
  5
1660
  8
SAPA_PROFIL
 10
137.4999999277413
 20
60.0
 30
0.0
 42
-0.4142135623730951
  0
VERTEX
  5
1661
  8
SAPA_PROFIL
 10
138.9999999277413
 20
58.5
 30
0.0
  0
VERTEX
  5
1662
  8
SAPA_PROFIL
 10
138.9999999277413
 20
-55.625
 30
0.0
 42
-0.9999999999999792
  0
VERTEX
  5
1663
  8
SAPA_PROFIL
 10
136.2499999277413
 20
-55.625
 30
0.0
  0
VERTEX
  5
1664
  8
SAPA_PROFIL
 10
136.2499999277413
 20
-3.9999999999999849
 30
0.0
 42
0.4142135623730959
  0
VERTEX
  5
1665
  8
SAPA_PROFIL
 10
132.2499999277413
 20
0.0000000000000142
 30
0.0
  0
VERTEX
  5
1666
  8
SAPA_PROFIL
 10
90.743868969062234
 20
-0.0000000000109139
 30
0.0
 42
-0.2418327667378102
  0
VERTEX
  5
1667
  8
SAPA_PROFIL
 10
90.499999928123856
 20
0.1252776749561804
 30
0.0
 42
0.2418327667509117
  0
VERTEX
  5
1668
  8
SAPA_PROFIL
 10
90.256130887167899
 20
0.2505553499286179
 30
0.0
  0
VERTEX
  5
1669
  8
SAPA_PROFIL
 10
89.299999928117984
 20
0.2505553499322559
 30
0.0
 42
0.2418327667448982
  0
VERTEX
  5
166A
  8
SAPA_PROFIL
 10
89.056130887163064
 20
0.12527767496384
 30
0.0
 42
-0.2418327667448982
  0
VERTEX
  5
166B
  8
SAPA_PROFIL
 10
88.812261846210475
 20
-0.0000000000033538
 30
0.0
  0
VERTEX
  5
166C
  8
SAPA_PROFIL
 10
86.714189490492487
 20
-0.0000000000033538
 30
0.0
 42
-0.6681786379192726
  0
VERTEX
  5
166D
  8
SAPA_PROFIL
 10
86.007082709305891
 20
1.707106781183142
 30
0.0
  0
VERTEX
  5
166E
  8
SAPA_PROFIL
 10
87.312131962474865
 20
3.0121560343523011
 30
0.0
 42
-0.1989123673797352
  0
VERTEX
  5
166F
  8
SAPA_PROFIL
 10
87.524263996830925
 20
3.100023999996437
 30
0.0
  0
VERTEX
  5
1670
  8
SAPA_PROFIL
 10
88.110769443578135
 20
3.1000239999962811
 30
0.0
 42
-0.1316524975873824
  0
VERTEX
  5
1671
  8
SAPA_PROFIL
 10
88.260769443578056
 20
3.059831621131635
 30
0.0
  0
VERTEX
  5
1672
  8
SAPA_PROFIL
 10
89.749999928118925
 20
2.2000239999963318
 30
0.0
  0
VERTEX
  5
1673
  8
SAPA_PROFIL
 10
90.199999928118885
 20
2.2000119999966752
 30
0.0
 42
0.4142135623731039
  0
VERTEX
  5
1674
  8
SAPA_PROFIL
 10
90.499999928118896
 20
2.5000119999966719
 30
0.0
  0
VERTEX
  5
1675
  8
SAPA_PROFIL
 10
90.499999928118825
 20
6.1000239999967363
 30
0.0
 42
0.4142135623730826
  0
VERTEX
  5
1676
  8
SAPA_PROFIL
 10
90.199999928118842
 20
6.4000239999967334
 30
0.0
  0
VERTEX
  5
1677
  8
SAPA_PROFIL
 10
89.749999928118839
 20
6.4000239999966331
 30
0.0
  0
VERTEX
  5
1678
  8
SAPA_PROFIL
 10
88.260739797044664
 20
5.5401992624276479
 30
0.0
 42
-0.1316363093594268
  0
VERTEX
  5
1679
  8
SAPA_PROFIL
 10
88.110758891997904
 20
5.5000068841706868
 30
0.0
  0
VERTEX
  5
167A
  8
SAPA_PROFIL
 10
87.999999928115074
 20
5.4999998343798771
 30
0.0
  0
VERTEX
  5
167B
  8
SAPA_PROFIL
 10
87.999999928115074
 20
7.0856406460516146
 30
0.0
 42
-0.2679491924308297
  0
VERTEX
  5
167C
  8
SAPA_PROFIL
 10
88.499999928115074
 20
7.9516660498302372
 30
0.0
  0
VERTEX
  5
167D
  8
SAPA_PROFIL
 10
90.249999928115528
 20
8.9620290209087141
 30
0.0
 42
0.2679491924308301
  0
VERTEX
  5
167E
  8
SAPA_PROFIL
 10
90.499999928115074
 20
9.3950417228006682
 30
0.0
  0
VERTEX
  5
167F
  8
SAPA_PROFIL
 10
90.499999928115074
 20
10.60495827718114
 30
0.0
 42
0.267949192430829
  0
VERTEX
  5
1680
  8
SAPA_PROFIL
 10
90.249999928115059
 20
11.03797097907227
 30
0.0
  0
VERTEX
  5
1681
  8
SAPA_PROFIL
 10
88.499999928115074
 20
12.04833395014793
 30
0.0
 42
-0.2679491924308297
  0
VERTEX
  5
1682
  8
SAPA_PROFIL
 10
87.999999928116949
 20
12.914359353933831
 30
0.0
  0
VERTEX
  5
1683
  8
SAPA_PROFIL
 10
87.999999928114818
 20
14.50000016560193
 30
0.0
  0
VERTEX
  5
1684
  8
SAPA_PROFIL
 10
88.110758891997904
 20
14.499993115811121
 30
0.0
 42
-0.1316363093594264
  0
VERTEX
  5
1685
  8
SAPA_PROFIL
 10
88.260739797044664
 20
14.45980073755416
 30
0.0
  0
VERTEX
  5
1686
  8
SAPA_PROFIL
 10
89.749999928118839
 20
13.599975999985171
 30
0.0
  0
VERTEX
  5
1687
  8
SAPA_PROFIL
 10
90.199999928118842
 20
13.59997599998507
 30
0.0
 42
0.4142135623730951
  0
VERTEX
  5
1688
  8
SAPA_PROFIL
 10
90.499999928118825
 20
13.89997599998507
 30
0.0
  0
VERTEX
  5
1689
  8
SAPA_PROFIL
 10
90.499999928118896
 20
17.499987999985141
 30
0.0
 42
0.4142135623731165
  0
VERTEX
  5
168A
  8
SAPA_PROFIL
 10
90.199999928118885
 20
17.799987999985131
 30
0.0
  0
VERTEX
  5
168B
  8
SAPA_PROFIL
 10
89.749999928118925
 20
17.799975999985481
 30
0.0
  0
VERTEX
  5
168C
  8
SAPA_PROFIL
 10
88.260769443578056
 20
16.940168378850171
 30
0.0
 42
-0.1316524975873824
  0
VERTEX
  5
168D
  8
SAPA_PROFIL
 10
88.110769443578135
 20
16.899975999985529
 30
0.0
  0
VERTEX
  5
168E
  8
SAPA_PROFIL
 10
87.524263996830925
 20
16.89997599998539
 30
0.0
 42
-0.1989123673797351
  0
VERTEX
  5
168F
  8
SAPA_PROFIL
 10
87.312131962474865
 20
16.987843965629509
 30
0.0
  0
VERTEX
  5
1690
  8
SAPA_PROFIL
 10
86.007082709305891
 20
18.292893218798671
 30
0.0
 42
-0.6681786379192719
  0
VERTEX
  5
1691
  8
SAPA_PROFIL
 10
86.714189490492487
 20
19.99999999998516
 30
0.0
  0
VERTEX
  5
1692
  8
SAPA_PROFIL
 10
88.812261846212166
 20
19.99999999998516
 30
0.0
 42
-0.2418327667433408
  0
VERTEX
  5
1693
  8
SAPA_PROFIL
 10
89.056130887163732
 20
19.874722325019398
 30
0.0
 42
0.2418327667449424
  0
VERTEX
  5
1694
  8
SAPA_PROFIL
 10
89.299999928117984
 20
19.749444650053189
 30
0.0
  0
VERTEX
  5
1695
  8
SAPA_PROFIL
 10
90.256130887167899
 20
19.749444650049551
 30
0.0
 42
0.2418327667509086
  0
VERTEX
  5
1696
  8
SAPA_PROFIL
 10
90.499999928115017
 20
19.874722325031971
 30
0.0
 42
-0.2418327667378184
  0
VERTEX
  5
1697
  8
SAPA_PROFIL
 10
90.743868969052286
 20
19.999999999993801
 30
0.0
  0
VERTEX
  5
1698
  8
SAPA_PROFIL
 10
92.556610602811588
 20
20.000000000003642
 30
0.0
 42
-0.1095178116817878
  0
VERTEX
  5
1699
  8
SAPA_PROFIL
 10
93.401847126282576
 20
19.8126155740818
 30
0.0
  0
VERTEX
  5
169A
  8
SAPA_PROFIL
 10
99.031673491414722
 20
17.187384425924389
 30
0.0
 42
0.1095178116855124
  0
VERTEX
  5
169B
  8
SAPA_PROFIL
 10
99.876910014920895
 20
17.0
 30
0.0
  0
VERTEX
  5
169C
  8
SAPA_PROFIL
 10
106.9999999280833
 20
16.999999999985452
 30
0.0
 42
0.414213562373099
  0
VERTEX
  5
169D
  8
SAPA_PROFIL
 10
107.4999999280833
 20
17.500000000003642
 30
0.0
  0
VERTEX
  5
169E
  8
SAPA_PROFIL
 10
107.4999999280833
 20
18.500000000003631
 30
0.0
 42
0.4142135623730951
  0
VERTEX
  5
169F
  8
SAPA_PROFIL
 10
106.9999999280833
 20
19.000000000003642
 30
0.0
  0
VERTEX
  5
16A0
  8
SAPA_PROFIL
 10
106.7087120806161
 20
19.000000000003642
 30
0.0
 42
-0.2982166266909471
  0
VERTEX
  5
16A1
  8
SAPA_PROFIL
 10
106.25045451112619
 20
19.299999999990739
 30
0.0
 42
-1.5275252316550949
  0
VERTEX
  5
16A2
  8
SAPA_PROFIL
 10
111.74954534504521
 20
19.299999999998899
 30
0.0
 42
-0.2982166266892463
  0
VERTEX
  5
16A3
  8
SAPA_PROFIL
 10
111.291287775565
 20
19.00000000001296
 30
0.0
  0
VERTEX
  5
16A4
  8
SAPA_PROFIL
 10
110.9999999280833
 20
19.000000000003642
 30
0.0
 42
0.4142135623730951
  0
VERTEX
  5
16A5
  8
SAPA_PROFIL
 10
110.4999999280833
 20
18.500000000003631
 30
0.0
  0
VERTEX
  5
16A6
  8
SAPA_PROFIL
 10
110.4999999280833
 20
17.500000000003642
 30
0.0
 42
0.4142135623730946
  0
VERTEX
  5
16A7
  8
SAPA_PROFIL
 10
110.9999999280833
 20
17.000000000003642
 30
0.0
  0
VERTEX
  5
16A8
  8
SAPA_PROFIL
 10
129.92308984094299
 20
17.000000000003642
 30
0.0
 42
0.1095178116834561
  0
VERTEX
  5
16A9
  8
SAPA_PROFIL
 10
130.7683263644287
 20
17.18738442592506
 30
0.0
  0
SEQEND
  5
16AA
  8
SAPA_PROFIL
  0
POLYLINE
  5
BC8
  8
SAPA_PROFIL
 66
     1
 10
0.0
 20
0.0
 30
0.0
 70
     1
  0
VERTEX
  5
16AB
  8
SAPA_PROFIL
 10
136.4999999277413
 20
2.7999999999992862
 30
0.0
 42
-0.4142135623730916
  0
VERTEX
  5
16AC
  8
SAPA_PROFIL
 10
136.19999992773111
 20
2.5000000000000142
 30
0.0
  0
VERTEX
  5
16AD
  8
SAPA_PROFIL
 10
93.299999928115355
 20
2.5000000000036371
 30
0.0
 42
-0.4142135623730959
  0
VERTEX
  5
16AE
  8
SAPA_PROFIL
 10
92.999999928116054
 20
2.8000000000029099
 30
0.0
  0
VERTEX
  5
16AF
  8
SAPA_PROFIL
 10
92.999999928112402
 20
14.3999999999869
 30
0.0
 42
-0.4142135623730951
  0
VERTEX
  5
16B0
  8
SAPA_PROFIL
 10
93.299999928115312
 20
14.69999999998981
 30
0.0
  0
VERTEX
  5
16B1
  8
SAPA_PROFIL
 10
136.19999992773111
 20
14.70000000001165
 30
0.0
 42
-0.4142135623730946
  0
VERTEX
  5
16B2
  8
SAPA_PROFIL
 10
136.4999999277413
 20
14.400000000019659
 30
0.0
  0
SEQEND
  5
16B3
  8
SAPA_PROFIL
  0
POLYLINE
  5
BC9
  8
SAPA_PROFIL
 62
     4
 66
     1
 10
0.0
 20
0.0
 30
0.0
 70
     1
  0
VERTEX
  5
BCA
  8
SAPA_PROFIL
 62
     4
 10
88.124166846888869
 20
3.1994446825304972
 30
0.0
 42
-0.1316524975873876
  0
VERTEX
  5
BCB
  8
SAPA_PROFIL
 62
     4
 10
88.274166846888846
 20
3.1592523036658369
 30
0.0
  0
VERTEX
  5
BCC
  8
SAPA_PROFIL
 62
     4
 10
89.763397387734059
 20
2.2994446500235171
 30
0.0
  0
VERTEX
  5
BCD
  8
SAPA_PROFIL
 62
     4
 10
90.199999928112504
 20
2.2994446500234309
 30
0.0
 42
0.4142135623730934
  0
VERTEX
  5
BCE
  8
SAPA_PROFIL
 62
     4
 10
90.449999928112476
 20
2.5494446500234171
 30
0.0
  0
VERTEX
  5
BCF
  8
SAPA_PROFIL
 62
     4
 10
90.449999928112547
 20
6.1494566500234811
 30
0.0
 42
0.4142135623731066
  0
VERTEX
  5
BD0
  8
SAPA_PROFIL
 62
     4
 10
90.199999928112533
 20
6.3994566500234953
 30
0.0
  0
VERTEX
  5
BD1
  8
SAPA_PROFIL
 62
     4
 10
89.763398006534075
 20
6.3994450072881364
 30
0.0
  0
VERTEX
  5
BD2
  8
SAPA_PROFIL
 62
     4
 10
88.274166959496384
 20
5.5396370613951396
 30
0.0
 42
-0.131652497587425
  0
VERTEX
  5
BD3
  8
SAPA_PROFIL
 62
     4
 10
88.124166959496335
 20
5.4994446825304522
 30
0.0
  0
VERTEX
  5
BD4
  8
SAPA_PROFIL
 62
     4
 10
64.875832968245092
 20
5.4994446825304522
 30
0.0
 42
-0.1316524975874248
  0
VERTEX
  5
BD5
  8
SAPA_PROFIL
 62
     4
 10
64.725832968245058
 20
5.5396370613951396
 30
0.0
  0
VERTEX
  5
BD6
  8
SAPA_PROFIL
 62
     4
 10
63.236601921207367
 20
6.3994450072881364
 30
0.0
  0
VERTEX
  5
BD7
  8
SAPA_PROFIL
 62
     4
 10
62.799999999628909
 20
6.3994566500234953
 30
0.0
 42
0.4142135623731049
  0
VERTEX
  5
BD8
  8
SAPA_PROFIL
 62
     4
 10
62.549999999628902
 20
6.1494566500234811
 30
0.0
  0
VERTEX
  5
BD9
  8
SAPA_PROFIL
 62
     4
 10
62.549999999628952
 20
2.5494446500234171
 30
0.0
 42
0.4142135623730951
  0
VERTEX
  5
BDA
  8
SAPA_PROFIL
 62
     4
 10
62.79999999962893
 20
2.2994446500234309
 30
0.0
  0
VERTEX
  5
BDB
  8
SAPA_PROFIL
 62
     4
 10
63.236602540007389
 20
2.2994446500235171
 30
0.0
  0
VERTEX
  5
BDC
  8
SAPA_PROFIL
 62
     4
 10
64.72583308085251
 20
3.1592523036657951
 30
0.0
 42
-0.1316524975873866
  0
VERTEX
  5
BDD
  8
SAPA_PROFIL
 62
     4
 10
64.875833080852473
 20
3.1994446825304541
 30
0.0
  0
SEQEND
  5
BDE
  8
SAPA_PROFIL
 62
     4
  0
POLYLINE
  5
BDF
  8
SAPA_PROFIL
 66
     1
 10
0.0
 20
0.0
 30
0.0
 70
     1
  0
VERTEX
  5
16B4
  8
SAPA_PROFIL
 10
17.354763476512758
 20
19.46152494752096
 30
0.0
 42
-0.2914734195858593
  0
VERTEX
  5
16B5
  8
SAPA_PROFIL
 10
16.199999999997111
 20
21.274140521607482
 30
0.0
  0
VERTEX
  5
16B6
  8
SAPA_PROFIL
 10
16.199999999997111
 20
40.999999999985441
 30
0.0
 42
-0.4142135623731033
  0
VERTEX
  5
16B7
  8
SAPA_PROFIL
 10
16.6999999999971
 20
41.499999999985441
 30
0.0
  0
VERTEX
  5
16B8
  8
SAPA_PROFIL
 10
17.000000000007301
 20
41.499999999985441
 30
0.0
 42
-0.4142135623731035
  0
VERTEX
  5
16B9
  8
SAPA_PROFIL
 10
17.500000000007301
 20
40.999999999985441
 30
0.0
  0
VERTEX
  5
16BA
  8
SAPA_PROFIL
 10
17.500000000007301
 20
39.699999999986183
 30
0.0
 42
0.4142135623731159
  0
VERTEX
  5
16BB
  8
SAPA_PROFIL
 10
17.700000000026211
 20
39.499999999974541
 30
0.0
  0
VERTEX
  5
16BC
  8
SAPA_PROFIL
 10
18.000000000007301
 20
39.499999999985448
 30
0.0
 42
0.4142135623731035
  0
VERTEX
  5
16BD
  8
SAPA_PROFIL
 10
18.50000000000729
 20
39.999999999985448
 30
0.0
  0
VERTEX
  5
16BE
  8
SAPA_PROFIL
 10
18.500000000000028
 20
43.749999999985448
 30
0.0
 42
0.4142135623731035
  0
VERTEX
  5
16BF
  8
SAPA_PROFIL
 10
18.000000000000028
 20
44.249999999985441
 30
0.0
  0
VERTEX
  5
16C0
  8
SAPA_PROFIL
 10
17.699999999997129
 20
44.249999999985441
 30
0.0
 42
0.4142135623731159
  0
VERTEX
  5
16C1
  8
SAPA_PROFIL
 10
17.499999999989111
 20
44.049999999973807
 30
0.0
  0
VERTEX
  5
16C2
  8
SAPA_PROFIL
 10
17.500000000000028
 20
43.199999999986169
 30
0.0
 42
-0.4142135623730951
  0
VERTEX
  5
16C3
  8
SAPA_PROFIL
 10
17.300000000010211
 20
42.999999999985441
 30
0.0
  0
VERTEX
  5
16C4
  8
SAPA_PROFIL
 10
16.300000000010211
 20
42.999999999985441
 30
0.0
 42
-0.4142135623731035
  0
VERTEX
  5
16C5
  8
SAPA_PROFIL
 10
15.80000000001022
 20
43.499999999985441
 30
0.0
  0
VERTEX
  5
16C6
  8
SAPA_PROFIL
 10
15.80000000001022
 20
49.499999999985448
 30
0.0
 42
-0.4142135623731033
  0
VERTEX
  5
16C7
  8
SAPA_PROFIL
 10
16.300000000010211
 20
49.999999999985448
 30
0.0
  0
VERTEX
  5
16C8
  8
SAPA_PROFIL
 10
17.300000000010211
 20
49.999999999985448
 30
0.0
 42
-0.4142135623731054
  0
VERTEX
  5
16C9
  8
SAPA_PROFIL
 10
17.500000000000028
 20
49.799999999973807
 30
0.0
  0
VERTEX
  5
16CA
  8
SAPA_PROFIL
 10
17.500000000007301
 20
48.949999999986169
 30
0.0
 42
0.4142135623731159
  0
VERTEX
  5
16CB
  8
SAPA_PROFIL
 10
17.700000000026229
 20
48.749999999974527
 30
0.0
  0
VERTEX
  5
16CC
  8
SAPA_PROFIL
 10
18.000000000000028
 20
48.75
 30
0.0
 42
0.4142135623731035
  0
VERTEX
  5
16CD
  8
SAPA_PROFIL
 10
18.500000000000028
 20
49.25
 30
0.0
  0
VERTEX
  5
16CE
  8
SAPA_PROFIL
 10
18.500000000000028
 20
52.25
 30
0.0
 42
0.4142135623731035
  0
VERTEX
  5
16CF
  8
SAPA_PROFIL
 10
18.000000000000028
 20
52.75
 30
0.0
  0
VERTEX
  5
16D0
  8
SAPA_PROFIL
 10
17.699999999997129
 20
52.75
 30
0.0
 42
0.4142135623730744
  0
VERTEX
  5
16D1
  8
SAPA_PROFIL
 10
17.500000000000028
 20
52.549999999999272
 30
0.0
  0
VERTEX
  5
16D2
  8
SAPA_PROFIL
 10
17.500000000010949
 20
51.70000000000072
 30
0.0
 42
-0.4142135623730534
  0
VERTEX
  5
16D3
  8
SAPA_PROFIL
 10
17.300000000010211
 20
51.5
 30
0.0
  0
VERTEX
  5
16D4
  8
SAPA_PROFIL
 10
16.300000000010211
 20
51.5
 30
0.0
 42
-0.4142135623731035
  0
VERTEX
  5
16D5
  8
SAPA_PROFIL
 10
15.80000000001022
 20
52.0
 30
0.0
  0
VERTEX
  5
16D6
  8
SAPA_PROFIL
 10
15.80000000001022
 20
58.0
 30
0.0
 42
-0.4142135623730869
  0
VERTEX
  5
16D7
  8
SAPA_PROFIL
 10
16.300000000010211
 20
58.5
 30
0.0
  0
VERTEX
  5
16D8
  8
SAPA_PROFIL
 10
17.300000000010211
 20
58.499999999989079
 30
0.0
 42
-0.4142135623730534
  0
VERTEX
  5
16D9
  8
SAPA_PROFIL
 10
17.500000000000028
 20
58.299999999999272
 30
0.0
  0
VERTEX
  5
16DA
  8
SAPA_PROFIL
 10
17.499999999992749
 20
57.45000000000072
 30
0.0
 42
0.4142135623730744
  0
VERTEX
  5
16DB
  8
SAPA_PROFIL
 10
17.699999999997129
 20
57.25
 30
0.0
  0
VERTEX
  5
16DC
  8
SAPA_PROFIL
 10
18.000000000000028
 20
57.25
 30
0.0
 42
0.4142135623731035
  0
VERTEX
  5
16DD
  8
SAPA_PROFIL
 10
18.500000000000028
 20
57.75
 30
0.0
  0
VERTEX
  5
16DE
  8
SAPA_PROFIL
 10
18.500000000000028
 20
59.5
 30
0.0
 42
0.4142135623731035
  0
VERTEX
  5
16DF
  8
SAPA_PROFIL
 10
18.000000000000028
 20
60.0
 30
0.0
  0
VERTEX
  5
16E0
  8
SAPA_PROFIL
 10
15.50000000000003
 20
60.0
 30
0.0
 42
0.4142135623730951
  0
VERTEX
  5
16E1
  8
SAPA_PROFIL
 10
14.00000000000003
 20
58.5
 30
0.0
  0
VERTEX
  5
16E2
  8
SAPA_PROFIL
 10
14.0
 20
-55.625
 30
0.0
 42
0.9999999999999792
  0
VERTEX
  5
16E3
  8
SAPA_PROFIL
 10
16.75
 20
-55.625
 30
0.0
  0
VERTEX
  5
16E4
  8
SAPA_PROFIL
 10
16.750000000000028
 20
-3.9999999999999849
 30
0.0
 42
-0.4142135623730959
  0
VERTEX
  5
16E5
  8
SAPA_PROFIL
 10
20.750000000000011
 20
0.0000000000000142
 30
0.0
  0
VERTEX
  5
16E6
  8
SAPA_PROFIL
 10
62.256130958679108
 20
-0.0000000000109139
 30
0.0
 42
0.2418327667378102
  0
VERTEX
  5
16E7
  8
SAPA_PROFIL
 10
62.499999999617501
 20
0.1252776749561804
 30
0.0
 42
-0.2418327667509117
  0
VERTEX
  5
16E8
  8
SAPA_PROFIL
 10
62.743869040573458
 20
0.2505553499286179
 30
0.0
  0
VERTEX
  5
16E9
  8
SAPA_PROFIL
 10
63.699999999623373
 20
0.2505553499322559
 30
0.0
 42
-0.2418327667448982
  0
VERTEX
  5
16EA
  8
SAPA_PROFIL
 10
63.943869040578313
 20
0.12527767496384
 30
0.0
 42
0.2418327667448982
  0
VERTEX
  5
16EB
  8
SAPA_PROFIL
 10
64.187738081530881
 20
-0.0000000000033538
 30
0.0
  0
VERTEX
  5
16EC
  8
SAPA_PROFIL
 10
66.28581043724887
 20
-0.0000000000033538
 30
0.0
 42
0.6681786379192726
  0
VERTEX
  5
16ED
  8
SAPA_PROFIL
 10
66.992917218435466
 20
1.707106781183142
 30
0.0
  0
VERTEX
  5
16EE
  8
SAPA_PROFIL
 10
65.687867965266491
 20
3.0121560343523011
 30
0.0
 42
0.1989123673797352
  0
VERTEX
  5
16EF
  8
SAPA_PROFIL
 10
65.475735930910403
 20
3.100023999996437
 30
0.0
  0
VERTEX
  5
16F0
  8
SAPA_PROFIL
 10
64.889230484163221
 20
3.1000239999962811
 30
0.0
 42
0.1316524975873824
  0
VERTEX
  5
16F1
  8
SAPA_PROFIL
 10
64.739230484163301
 20
3.059831621131635
 30
0.0
  0
VERTEX
  5
16F2
  8
SAPA_PROFIL
 10
63.24999999962241
 20
2.2000239999963318
 30
0.0
  0
VERTEX
  5
16F3
  8
SAPA_PROFIL
 10
62.799999999622472
 20
2.2000119999966752
 30
0.0
 42
-0.4142135623731039
  0
VERTEX
  5
16F4
  8
SAPA_PROFIL
 10
62.499999999622467
 20
2.5000119999966719
 30
0.0
  0
VERTEX
  5
16F5
  8
SAPA_PROFIL
 10
62.499999999622517
 20
6.1000239999967363
 30
0.0
 42
-0.4142135623730826
  0
VERTEX
  5
16F6
  8
SAPA_PROFIL
 10
62.799999999622507
 20
6.4000239999967334
 30
0.0
  0
VERTEX
  5
16F7
  8
SAPA_PROFIL
 10
63.24999999962251
 20
6.4000239999966331
 30
0.0
  0
VERTEX
  5
16F8
  8
SAPA_PROFIL
 10
64.739260130696692
 20
5.5401992624276479
 30
0.0
 42
0.1316363093594268
  0
VERTEX
  5
16F9
  8
SAPA_PROFIL
 10
64.889241035743424
 20
5.5000068841706868
 30
0.0
  0
VERTEX
  5
16FA
  8
SAPA_PROFIL
 10
64.999999999626283
 20
5.4999998343798771
 30
0.0
  0
VERTEX
  5
16FB
  8
SAPA_PROFIL
 10
64.999999999626283
 20
7.0856406460516146
 30
0.0
 42
0.2679491924308297
  0
VERTEX
  5
16FC
  8
SAPA_PROFIL
 10
64.499999999626283
 20
7.9516660498302372
 30
0.0
  0
VERTEX
  5
16FD
  8
SAPA_PROFIL
 10
62.749999999625828
 20
8.9620290209087141
 30
0.0
 42
-0.2679491924308301
  0
VERTEX
  5
16FE
  8
SAPA_PROFIL
 10
62.49999999962629
 20
9.3950417228006682
 30
0.0
  0
VERTEX
  5
16FF
  8
SAPA_PROFIL
 10
62.49999999962629
 20
10.60495827718114
 30
0.0
 42
-0.267949192430829
  0
VERTEX
  5
1700
  8
SAPA_PROFIL
 10
62.749999999626283
 20
11.03797097907227
 30
0.0
  0
VERTEX
  5
1701
  8
SAPA_PROFIL
 10
64.499999999626283
 20
12.04833395014793
 30
0.0
 42
0.2679491924308297
  0
VERTEX
  5
1702
  8
SAPA_PROFIL
 10
64.999999999624393
 20
12.914359353933831
 30
0.0
  0
VERTEX
  5
1703
  8
SAPA_PROFIL
 10
64.999999999626525
 20
14.50000016560193
 30
0.0
  0
VERTEX
  5
1704
  8
SAPA_PROFIL
 10
64.889241035743424
 20
14.499993115811121
 30
0.0
 42
0.1316363093594264
  0
VERTEX
  5
1705
  8
SAPA_PROFIL
 10
64.739260130696692
 20
14.45980073755416
 30
0.0
  0
VERTEX
  5
1706
  8
SAPA_PROFIL
 10
63.24999999962251
 20
13.599975999985171
 30
0.0
  0
VERTEX
  5
1707
  8
SAPA_PROFIL
 10
62.799999999622507
 20
13.59997599998507
 30
0.0
 42
-0.4142135623730951
  0
VERTEX
  5
1708
  8
SAPA_PROFIL
 10
62.499999999622517
 20
13.89997599998507
 30
0.0
  0
VERTEX
  5
1709
  8
SAPA_PROFIL
 10
62.499999999622467
 20
17.499987999985141
 30
0.0
 42
-0.4142135623731165
  0
VERTEX
  5
170A
  8
SAPA_PROFIL
 10
62.799999999622472
 20
17.799987999985131
 30
0.0
  0
VERTEX
  5
170B
  8
SAPA_PROFIL
 10
63.24999999962241
 20
17.799975999985481
 30
0.0
  0
VERTEX
  5
170C
  8
SAPA_PROFIL
 10
64.739230484163301
 20
16.940168378850171
 30
0.0
 42
0.1316524975873824
  0
VERTEX
  5
170D
  8
SAPA_PROFIL
 10
64.889230484163221
 20
16.899975999985529
 30
0.0
  0
VERTEX
  5
170E
  8
SAPA_PROFIL
 10
65.475735930910403
 20
16.89997599998539
 30
0.0
 42
0.1989123673797351
  0
VERTEX
  5
170F
  8
SAPA_PROFIL
 10
65.687867965266491
 20
16.987843965629509
 30
0.0
  0
VERTEX
  5
1710
  8
SAPA_PROFIL
 10
66.992917218435466
 20
18.292893218798671
 30
0.0
 42
0.6681786379192719
  0
VERTEX
  5
1711
  8
SAPA_PROFIL
 10
66.28581043724887
 20
19.99999999998516
 30
0.0
  0
VERTEX
  5
1712
  8
SAPA_PROFIL
 10
64.187738081529176
 20
19.99999999998516
 30
0.0
 42
0.2418327667433408
  0
VERTEX
  5
1713
  8
SAPA_PROFIL
 10
63.943869040577617
 20
19.874722325019398
 30
0.0
 42
-0.2418327667449424
  0
VERTEX
  5
1714
  8
SAPA_PROFIL
 10
63.699999999623373
 20
19.749444650053189
 30
0.0
  0
VERTEX
  5
1715
  8
SAPA_PROFIL
 10
62.743869040573458
 20
19.749444650049551
 30
0.0
 42
-0.2418327667509086
  0
VERTEX
  5
1716
  8
SAPA_PROFIL
 10
62.49999999962634
 20
19.874722325031971
 30
0.0
 42
0.2418327667378184
  0
VERTEX
  5
1717
  8
SAPA_PROFIL
 10
62.256130958689049
 20
19.999999999993801
 30
0.0
  0
VERTEX
  5
1718
  8
SAPA_PROFIL
 10
60.443389324929761
 20
20.000000000003642
 30
0.0
 42
0.1095178116817878
  0
VERTEX
  5
1719
  8
SAPA_PROFIL
 10
59.598152801458781
 20
19.8126155740818
 30
0.0
  0
VERTEX
  5
171A
  8
SAPA_PROFIL
 10
53.968326436326628
 20
17.187384425924389
 30
0.0
 42
-0.1095178116855124
  0
VERTEX
  5
171B
  8
SAPA_PROFIL
 10
53.123089912820461
 20
17.0
 30
0.0
  0
VERTEX
  5
171C
  8
SAPA_PROFIL
 10
45.999999999658051
 20
16.999999999985452
 30
0.0
 42
-0.414213562373099
  0
VERTEX
  5
171D
  8
SAPA_PROFIL
 10
45.499999999658051
 20
17.500000000003642
 30
0.0
  0
VERTEX
  5
171E
  8
SAPA_PROFIL
 10
45.499999999658051
 20
18.500000000003631
 30
0.0
 42
-0.4142135623730951
  0
VERTEX
  5
171F
  8
SAPA_PROFIL
 10
45.999999999658051
 20
19.000000000003642
 30
0.0
  0
VERTEX
  5
1720
  8
SAPA_PROFIL
 10
46.291287847125233
 20
19.000000000003642
 30
0.0
 42
0.2982166266909471
  0
VERTEX
  5
1721
  8
SAPA_PROFIL
 10
46.74954541661517
 20
19.299999999990739
 30
0.0
 42
1.5275252316550949
  0
VERTEX
  5
1722
  8
SAPA_PROFIL
 10
41.250454582696158
 20
19.299999999998899
 30
0.0
 42
0.2982166266892463
  0
VERTEX
  5
1723
  8
SAPA_PROFIL
 10
41.708712152176332
 20
19.00000000001296
 30
0.0
  0
VERTEX
  5
1724
  8
SAPA_PROFIL
 10
41.999999999658058
 20
19.000000000003642
 30
0.0
 42
-0.4142135623730951
  0
VERTEX
  5
1725
  8
SAPA_PROFIL
 10
42.499999999658058
 20
18.500000000003631
 30
0.0
  0
VERTEX
  5
1726
  8
SAPA_PROFIL
 10
42.499999999658058
 20
17.500000000003642
 30
0.0
 42
-0.4142135623730946
  0
VERTEX
  5
1727
  8
SAPA_PROFIL
 10
41.999999999658058
 20
17.000000000003642
 30
0.0
  0
VERTEX
  5
1728
  8
SAPA_PROFIL
 10
23.076910086798321
 20
17.000000000003642
 30
0.0
 42
-0.1095178116834561
  0
VERTEX
  5
1729
  8
SAPA_PROFIL
 10
22.23167356331259
 20
17.18738442592506
 30
0.0
  0
SEQEND
  5
172A
  8
SAPA_PROFIL
  0
POLYLINE
  5
BE0
  8
SAPA_PROFIL
 66
     1
 10
0.0
 20
0.0
 30
0.0
 70
     1
  0
VERTEX
  5
172B
  8
SAPA_PROFIL
 10
16.500000000000021
 20
2.7999999999992862
 30
0.0
 42
0.4142135623730916
  0
VERTEX
  5
172C
  8
SAPA_PROFIL
 10
16.800000000010211
 20
2.5000000000000142
 30
0.0
  0
VERTEX
  5
172D
  8
SAPA_PROFIL
 10
59.699999999626023
 20
2.5000000000036371
 30
0.0
 42
0.4142135623730959
  0
VERTEX
  5
172E
  8
SAPA_PROFIL
 10
59.999999999625288
 20
2.8000000000029099
 30
0.0
  0
VERTEX
  5
172F
  8
SAPA_PROFIL
 10
59.999999999628947
 20
14.3999999999869
 30
0.0
 42
0.4142135623730951
  0
VERTEX
  5
1730
  8
SAPA_PROFIL
 10
59.699999999626037
 20
14.69999999998981
 30
0.0
  0
VERTEX
  5
1731
  8
SAPA_PROFIL
 10
16.800000000010211
 20
14.70000000001165
 30
0.0
 42
0.4142135623730946
  0
VERTEX
  5
1732
  8
SAPA_PROFIL
 10
16.500000000000021
 20
14.400000000019659
 30
0.0
  0
SEQEND
  5
1733
  8
SAPA_PROFIL
  0
POLYLINE
  5
BE1
  8
SAPA_PROFIL
 62
     4
 66
     1
 10
0.0
 20
0.0
 30
-0.2
 70
     1
1001
RC_PROFILE
1002
{
1000
Region
1002
}
  0
VERTEX
  5
1734
  8
SAPA_PROFIL
 62
     4
 10
73.999999931237681
 20
43.297179717640567
 30
-0.2
  0
VERTEX
  5
1735
  8
SAPA_PROFIL
 62
     4
 10
73.999999931237681
 20
57.497179717642659
 30
-0.2
 42
-0.4142135623720297
  0
VERTEX
  5
1736
  8
SAPA_PROFIL
 62
     4
 10
74.499999931235863
 20
57.997179717642659
 30
-0.2
  0
VERTEX
  5
1737
  8
SAPA_PROFIL
 62
     4
 10
78.499999931857033
 20
57.997179717645622
 30
-0.2
 42
-0.4142135623730951
  0
VERTEX
  5
1738
  8
SAPA_PROFIL
 62
     4
 10
78.999999931857047
 20
57.497179717645622
 30
-0.2
  0
VERTEX
  5
1739
  8
SAPA_PROFIL
 62
     4
 10
78.999999931864323
 20
43.297179717641697
 30
-0.2
 42
-0.414213562373761
  0
VERTEX
  5
173A
  8
SAPA_PROFIL
 62
     4
 10
78.499999931864323
 20
42.797179717640567
 30
-0.2
  0
VERTEX
  5
173B
  8
SAPA_PROFIL
 62
     4
 10
74.499999931237681
 20
42.797179717640567
 30
-0.2
 42
-0.4142135623730951
  0
SEQEND
  5
173C
  8
SAPA_PROFIL
 62
     4
  0
POLYLINE
  5
BE2
  8
SAPA_PROFIL
 62
     4
 66
     1
 10
0.0
 20
0.0
 30
0.0
1001
GENIUS_GENOBJ-N-FIL_13
1002
{
1000
OWNER
1000
GEN
1002
}
1001
GENIUS_GENODEF_13
1002
{
1000
HIER
1070
     0
1002
}
1002
{
1000
MANEDIT
1070
     0
1002
}
1002
{
1000
NOSEL
1070
     0
1002
}
1002
{
1000
BEHIND
1070
     0
1002
}
1002
{
1000
OTHER
1070
     0
1002
}
1002
{
1000
REACTOR
1002
}
  0
VERTEX
  5
173D
  8
SAPA_PROFIL
 62
     4
 10
87.42274000125613
 20
16.533706161231521
 30
0.0
 42
0.131652497587489
  0
VERTEX
  5
173E
  8
SAPA_PROFIL
 62
     4
 10
88.022740001256565
 20
16.69447567669026
 30
0.0
  0
VERTEX
  5
173F
  8
SAPA_PROFIL
 62
     4
 10
89.763397941900095
 20
17.69944500728813
 30
0.0
  0
VERTEX
  5
1740
  8
SAPA_PROFIL
 62
     4
 10
90.199999863478567
 20
17.699456650023489
 30
0.0
 42
-0.4142135623731046
  0
VERTEX
  5
1741
  8
SAPA_PROFIL
 62
     4
 10
90.449999863478567
 20
17.449456650023489
 30
0.0
  0
VERTEX
  5
1742
  8
SAPA_PROFIL
 62
     4
 10
90.449999863478524
 20
13.849444650023431
 30
0.0
 42
-0.4142135623730957
  0
VERTEX
  5
1743
  8
SAPA_PROFIL
 62
     4
 10
90.199999863478524
 20
13.599444650023431
 30
0.0
  0
VERTEX
  5
1744
  8
SAPA_PROFIL
 62
     4
 10
89.763397323100065
 20
13.59944465002353
 30
0.0
  0
VERTEX
  5
1745
  8
SAPA_PROFIL
 62
     4
 10
88.077259725699193
 20
14.57293664577359
 30
0.0
 42
0.1316524975873848
  0
VERTEX
  5
1746
  8
SAPA_PROFIL
 62
     4
 10
87.477259725699241
 20
14.73370616123225
 30
0.0
  0
VERTEX
  5
1747
  8
SAPA_PROFIL
 62
     4
 10
65.522740137408221
 20
14.73370616123225
 30
0.0
 42
0.1316524975873846
  0
VERTEX
  5
1748
  8
SAPA_PROFIL
 62
     4
 10
64.922740137408269
 20
14.57293664577359
 30
0.0
  0
VERTEX
  5
1749
  8
SAPA_PROFIL
 62
     4
 10
63.236602540007389
 20
13.59944465002353
 30
0.0
  0
VERTEX
  5
174A
  8
SAPA_PROFIL
 62
     4
 10
62.79999999962893
 20
13.599444650023431
 30
0.0
 42
-0.4142135623730951
  0
VERTEX
  5
174B
  8
SAPA_PROFIL
 62
     4
 10
62.549999999628952
 20
13.849444650023431
 30
0.0
  0
VERTEX
  5
174C
  8
SAPA_PROFIL
 62
     4
 10
62.549999999628902
 20
17.449456650023489
 30
0.0
 42
-0.4142135623731046
  0
VERTEX
  5
174D
  8
SAPA_PROFIL
 62
     4
 10
62.799999999628909
 20
17.699456650023489
 30
0.0
  0
VERTEX
  5
174E
  8
SAPA_PROFIL
 62
     4
 10
63.236601921207367
 20
17.69944500728813
 30
0.0
  0
VERTEX
  5
174F
  8
SAPA_PROFIL
 62
     4
 10
64.977259861850911
 20
16.69447567669026
 30
0.0
 42
0.1316524975874892
  0
VERTEX
  5
1750
  8
SAPA_PROFIL
 62
     4
 10
65.577259861851331
 20
16.533706161231521
 30
0.0
  0
VERTEX
  5
1751
  8
SAPA_PROFIL
 62
     4
 10
68.299999999379935
 20
16.5337061612322
 30
0.0
 42
0.414213562374094
  0
VERTEX
  5
1752
  8
SAPA_PROFIL
 62
     4
 10
69.499999999378844
 20
17.733706161236341
 30
0.0
  0
VERTEX
  5
1753
  8
SAPA_PROFIL
 62
     4
 10
69.499999999289713
 20
43.531441188158169
 30
0.0
 42
-0.4142135623730951
  0
VERTEX
  5
1754
  8
SAPA_PROFIL
 62
     4
 10
69.999999999289713
 20
44.031441188158162
 30
0.0
  0
VERTEX
  5
1755
  8
SAPA_PROFIL
 62
     4
 10
70.199999999289531
 20
44.031441188158396
 30
0.0
 42
-0.4142135623730951
  0
VERTEX
  5
1756
  8
SAPA_PROFIL
 62
     4
 10
70.499999999289713
 20
43.731441188158207
 30
0.0
  0
VERTEX
  5
1757
  8
SAPA_PROFIL
 62
     4
 10
70.499999999289713
 20
43.081441188156298
 30
0.0
 42
0.4142135623730951
  0
VERTEX
  5
1758
  8
SAPA_PROFIL
 62
     4
 10
70.799999999290804
 20
42.781441188156343
 30
0.0
  0
VERTEX
  5
1759
  8
SAPA_PROFIL
 62
     4
 10
71.699999999286803
 20
42.78144118815726
 30
0.0
 42
0.4142135623730951
  0
VERTEX
  5
175A
  8
SAPA_PROFIL
 62
     4
 10
72.199999999286803
 20
43.28144118815635
 30
0.0
  0
VERTEX
  5
175B
  8
SAPA_PROFIL
 62
     4
 10
72.199999999286803
 20
49.281441188158169
 30
0.0
 42
0.4142135623730951
  0
VERTEX
  5
175C
  8
SAPA_PROFIL
 62
     4
 10
71.699999999286803
 20
49.781441188158169
 30
0.0
  0
VERTEX
  5
175D
  8
SAPA_PROFIL
 62
     4
 10
70.799999999288076
 20
49.781441188158169
 30
0.0
 42
0.4142135623710974
  0
VERTEX
  5
175E
  8
SAPA_PROFIL
 62
     4
 10
70.499999999288804
 20
49.481441188160261
 30
0.0
  0
VERTEX
  5
175F
  8
SAPA_PROFIL
 62
     4
 10
70.499999999284256
 20
48.831441188158351
 30
0.0
 42
-0.4142135623730951
  0
VERTEX
  5
1760
  8
SAPA_PROFIL
 62
     4
 10
70.199999999282255
 20
48.531441188160223
 30
0.0
  0
VERTEX
  5
1761
  8
SAPA_PROFIL
 62
     4
 10
69.999999999289713
 20
48.531441188161352
 30
0.0
 42
-0.4142135623730951
  0
VERTEX
  5
1762
  8
SAPA_PROFIL
 62
     4
 10
69.499999999289713
 20
49.031441188161352
 30
0.0
  0
VERTEX
  5
1763
  8
SAPA_PROFIL
 62
     4
 10
69.499999999289713
 20
52.031441188161352
 30
0.0
 42
-0.4142135623730951
  0
VERTEX
  5
1764
  8
SAPA_PROFIL
 62
     4
 10
69.999999999289713
 20
52.531441188161352
 30
0.0
  0
VERTEX
  5
1765
  8
SAPA_PROFIL
 62
     4
 10
70.199999999289531
 20
52.531441188161352
 30
0.0
 42
-0.4142135623730951
  0
VERTEX
  5
1766
  8
SAPA_PROFIL
 62
     4
 10
70.499999999289713
 20
52.23144118816117
 30
0.0
  0
VERTEX
  5
1767
  8
SAPA_PROFIL
 62
     4
 10
70.499999999289713
 20
51.581441188161307
 30
0.0
 42
0.4142135623730951
  0
VERTEX
  5
1768
  8
SAPA_PROFIL
 62
     4
 10
70.799999999290804
 20
51.281441188161352
 30
0.0
  0
VERTEX
  5
1769
  8
SAPA_PROFIL
 62
     4
 10
71.699999999286803
 20
51.281441188161352
 30
0.0
 42
0.4142135623730951
  0
VERTEX
  5
176A
  8
SAPA_PROFIL
 62
     4
 10
72.199999999286803
 20
51.781441188161352
 30
0.0
  0
VERTEX
  5
176B
  8
SAPA_PROFIL
 62
     4
 10
72.199999999286803
 20
57.781441188161352
 30
0.0
 42
0.4142135623730951
  0
VERTEX
  5
176C
  8
SAPA_PROFIL
 62
     4
 10
71.699999999286803
 20
58.281441188161352
 30
0.0
  0
VERTEX
  5
176D
  8
SAPA_PROFIL
 62
     4
 10
70.799999999290804
 20
58.281441188161352
 30
0.0
 42
0.4142135623730951
  0
VERTEX
  5
176E
  8
SAPA_PROFIL
 62
     4
 10
70.499999999289713
 20
57.98144118816117
 30
0.0
  0
VERTEX
  5
176F
  8
SAPA_PROFIL
 62
     4
 10
70.499999999289713
 20
57.331441188161307
 30
0.0
 42
-0.4142135623730949
  0
VERTEX
  5
1770
  8
SAPA_PROFIL
 62
     4
 10
70.199999999289531
 20
57.031441188161352
 30
0.0
  0
VERTEX
  5
1771
  8
SAPA_PROFIL
 62
     4
 10
69.999999999289713
 20
57.031441188161352
 30
0.0
 42
-0.4142135623730951
  0
VERTEX
  5
1772
  8
SAPA_PROFIL
 62
     4
 10
69.499999999289713
 20
57.531441188161352
 30
0.0
  0
VERTEX
  5
1773
  8
SAPA_PROFIL
 62
     4
 10
69.499999999290623
 20
59.281441188161352
 30
0.0
 42
-0.4142135623726955
  0
VERTEX
  5
1774
  8
SAPA_PROFIL
 62
     4
 10
69.999999999624393
 20
59.781441188161352
 30
0.0
  0
VERTEX
  5
1775
  8
SAPA_PROFIL
 62
     4
 10
82.999999999631669
 20
59.78144118816158
 30
0.0
 42
-0.4142135623732284
  0
VERTEX
  5
1776
  8
SAPA_PROFIL
 62
     4
 10
83.499999999908169
 20
59.281441188163171
 30
0.0
  0
VERTEX
  5
1777
  8
SAPA_PROFIL
 62
     4
 10
83.499999999908169
 20
57.531441188163171
 30
0.0
 42
-0.4142135623730951
  0
VERTEX
  5
1778
  8
SAPA_PROFIL
 62
     4
 10
82.999999999908155
 20
57.031441188163171
 30
0.0
  0
VERTEX
  5
1779
  8
SAPA_PROFIL
 62
     4
 10
82.799999999908351
 20
57.031441188163171
 30
0.0
 42
-0.4142135623730951
  0
VERTEX
  5
177A
  8
SAPA_PROFIL
 62
     4
 10
82.499999999908184
 20
57.331441188163353
 30
0.0
  0
VERTEX
  5
177B
  8
SAPA_PROFIL
 62
     4
 10
82.499999999908184
 20
57.98144118816321
 30
0.0
 42
0.4142135623730951
  0
VERTEX
  5
177C
  8
SAPA_PROFIL
 62
     4
 10
82.199999999908897
 20
58.281441188163171
 30
0.0
  0
VERTEX
  5
177D
  8
SAPA_PROFIL
 62
     4
 10
81.29999999991108
 20
58.281441188163171
 30
0.0
 42
0.4142135623730951
  0
VERTEX
  5
177E
  8
SAPA_PROFIL
 62
     4
 10
80.799999999911066
 20
57.781441188163171
 30
0.0
  0
VERTEX
  5
177F
  8
SAPA_PROFIL
 62
     4
 10
80.799999999911066
 20
51.781441188163171
 30
0.0
 42
0.4142135623730951
  0
VERTEX
  5
1780
  8
SAPA_PROFIL
 62
     4
 10
81.29999999991108
 20
51.281441188163171
 30
0.0
  0
VERTEX
  5
1781
  8
SAPA_PROFIL
 62
     4
 10
82.199999999908897
 20
51.281441188163171
 30
0.0
 42
0.4142135623730953
  0
VERTEX
  5
1782
  8
SAPA_PROFIL
 62
     4
 10
82.499999999908184
 20
51.581441188163353
 30
0.0
  0
VERTEX
  5
1783
  8
SAPA_PROFIL
 62
     4
 10
82.499999999908184
 20
52.23144118816321
 30
0.0
 42
-0.4142135623730951
  0
VERTEX
  5
1784
  8
SAPA_PROFIL
 62
     4
 10
82.799999999908351
 20
52.531441188163171
 30
0.0
  0
VERTEX
  5
1785
  8
SAPA_PROFIL
 62
     4
 10
82.999999999908155
 20
52.531441188163171
 30
0.0
 42
-0.4142135623730951
  0
VERTEX
  5
1786
  8
SAPA_PROFIL
 62
     4
 10
83.499999999908169
 20
52.031441188163171
 30
0.0
  0
VERTEX
  5
1787
  8
SAPA_PROFIL
 62
     4
 10
83.499999999908169
 20
49.031441188163171
 30
0.0
 42
-0.4142135623730951
  0
VERTEX
  5
1788
  8
SAPA_PROFIL
 62
     4
 10
82.999999999908155
 20
48.531441188163171
 30
0.0
  0
VERTEX
  5
1789
  8
SAPA_PROFIL
 62
     4
 10
82.799999999915627
 20
48.531441188162027
 30
0.0
 42
-0.414213562372873
  0
VERTEX
  5
178A
  8
SAPA_PROFIL
 62
     4
 10
82.499999999913626
 20
48.83144118816017
 30
0.0
  0
VERTEX
  5
178B
  8
SAPA_PROFIL
 62
     4
 10
82.499999999910884
 20
49.48144118816117
 30
0.0
 42
0.4142135623722071
  0
VERTEX
  5
178C
  8
SAPA_PROFIL
 62
     4
 10
82.199999999909807
 20
49.781441188160223
 30
0.0
  0
VERTEX
  5
178D
  8
SAPA_PROFIL
 62
     4
 10
81.29999999991108
 20
49.781441188160223
 30
0.0
 42
0.4142135623730951
  0
VERTEX
  5
178E
  8
SAPA_PROFIL
 62
     4
 10
80.799999999911066
 20
49.281441188160208
 30
0.0
  0
VERTEX
  5
178F
  8
SAPA_PROFIL
 62
     4
 10
80.799999999918356
 20
43.281441188158162
 30
0.0
 42
0.4142135623730951
  0
VERTEX
  5
1790
  8
SAPA_PROFIL
 62
     4
 10
81.299999999918356
 20
42.781441188158162
 30
0.0
  0
VERTEX
  5
1791
  8
SAPA_PROFIL
 62
     4
 10
82.199999999915264
 20
42.781441188158162
 30
0.0
 42
0.4142135623730951
  0
VERTEX
  5
1792
  8
SAPA_PROFIL
 62
     4
 10
82.499999999915445
 20
43.081441188158337
 30
0.0
  0
VERTEX
  5
1793
  8
SAPA_PROFIL
 62
     4
 10
82.499999999915445
 20
43.731441188160261
 30
0.0
 42
-0.4142135623730951
  0
VERTEX
  5
1794
  8
SAPA_PROFIL
 62
     4
 10
82.799999999915627
 20
44.031441188160223
 30
0.0
  0
VERTEX
  5
1795
  8
SAPA_PROFIL
 62
     4
 10
82.999999999915445
 20
44.031441188160223
 30
0.0
 42
-0.4142135623730951
  0
VERTEX
  5
1796
  8
SAPA_PROFIL
 62
     4
 10
83.499999999915445
 20
43.531441188160208
 30
0.0
  0
VERTEX
  5
1797
  8
SAPA_PROFIL
 62
     4
 10
83.499999999833577
 20
17.733706161236341
 30
0.0
 42
0.414213562374094
  0
VERTEX
  5
1798
  8
SAPA_PROFIL
 62
     4
 10
84.699999999833409
 20
16.533706161232431
 30
0.0
  0
VERTEX
  5
1799
  8
SAPA_PROFIL
 62
     4
 10
87.428481349913483
 20
16.5337061612322
 30
0.0
  0
SEQEND
  5
179A
  8
SAPA_PROFIL
 62
     4
  0
POLYLINE
  5
BE3
  8
SAPA_PROFIL
 62
     4
 66
     1
 10
0.0
 20
0.0
 30
0.0
 70
     1
  0
VERTEX
  5
179B
  8
SAPA_PROFIL
 62
     4
 10
79.799999931868143
 20
41.497179717642673
 30
0.0
  0
VERTEX
  5
179C
  8
SAPA_PROFIL
 62
     4
 10
72.299999931309713
 20
41.497179717638573
 30
0.0
 42
0.4142135623730951
  0
VERTEX
  5
179D
  8
SAPA_PROFIL
 62
     4
 10
71.299999931309713
 20
40.497179717638573
 30
0.0
  0
VERTEX
  5
179E
  8
SAPA_PROFIL
 62
     4
 10
71.299999931294252
 20
17.34944469071479
 30
0.0
 42
0.4142135623730949
  0
VERTEX
  5
179F
  8
SAPA_PROFIL
 62
     4
 10
72.099999931294434
 20
16.549444690714608
 30
0.0
  0
VERTEX
  5
17A0
  8
SAPA_PROFIL
 62
     4
 10
80.899999931813028
 20
16.549444690714608
 30
0.0
 42
0.414213562373428
  0
VERTEX
  5
17A1
  8
SAPA_PROFIL
 62
     4
 10
81.699999931813196
 20
17.3494446907157
 30
0.0
  0
VERTEX
  5
17A2
  8
SAPA_PROFIL
 62
     4
 10
81.699999931789563
 20
40.497179717642659
 30
0.0
 42
0.4142135623724957
  0
VERTEX
  5
17A3
  8
SAPA_PROFIL
 62
     4
 10
80.699999931790472
 20
41.497179717640613
 30
0.0
  0
SEQEND
  5
17A4
  8
SAPA_PROFIL
 62
     4
  0
LINE
  5
C18
  8
SAPA_GLAS
 10
25.800000000151819
 20
65.000000000011028
 30
0.0
 11
25.71134668044019
 21
64.497222039660301
 31
0.0
  0
LINE
  5
C19
  8
SAPA_GLAS
 10
29.80953893078533
 20
63.013030214905903
 30
0.0
 11
29.99999999966327
 21
63.013030214905903
 31
0.0
  0
ARC
  5
C1A
  8
SAPA_GLAS
 10
27.999999999661451
 20
79.584669372822276
 30
0.0
 40
9.9869792597787779
 50
258.44779235426699
 51
281.55220764573289
  0
LINE
  5
C1B
  8
SAPA_GLAS
 10
62.19999999917502
 20
65.000000000011028
 30
0.0
 11
62.288653318886638
 21
64.497222039660286
 31
0.0
  0
LINE
  5
C1C
  8
SAPA_GLAS
 10
58.190461068541531
 20
63.013030214905889
 30
0.0
 11
57.999999999663579
 21
63.013030214905889
 31
0.0
  0
ARC
  5
C1D
  8
SAPA_GLAS
 10
59.999999999665398
 20
79.584669372822262
 30
0.0
 40
9.9869792597787779
 50
258.44779235426699
 51
281.55220764573289
  0
POLYLINE
  5
C1E
  8
SAPA_GLAS
 66
     1
 10
0.0
 20
0.0
 30
0.0
 70
     1
  0
VERTEX
  5
181B
  8
SAPA_GLAS
 10
58.122788370629337
 20
62.23952773350004
 30
0.0
 42
-0.1316524975872964
  0
VERTEX
  5
181C
  8
SAPA_GLAS
 10
58.190461068971381
 20
63.013030214989008
 30
0.0
  0
VERTEX
  5
181D
  8
SAPA_GLAS
 10
58.742648855432549
 20
64.530153689609605
 30
0.0
 42
-0.4142135623734131
  0
VERTEX
  5
181E
  8
SAPA_GLAS
 10
59.383505237487547
 20
64.828989928339894
 30
0.0
  0
VERTEX
  5
181F
  8
SAPA_GLAS
 10
59.571443761646727
 20
64.760585899674084
 30
0.0
 42
-0.4142135623732762
  0
VERTEX
  5
1820
  8
SAPA_GLAS
 10
59.750745504888442
 20
64.376072070439463
 30
0.0
  0
VERTEX
  5
1821
  8
SAPA_GLAS
 10
59.742296497379932
 20
64.352858613121612
 30
0.0
 42
0.5773502691875974
  0
VERTEX
  5
1822
  8
SAPA_GLAS
 10
59.964964657074809
 20
64.08749303385386
 30
0.0
  0
VERTEX
  5
1823
  8
SAPA_GLAS
 10
64.280909496576555
 20
64.848510556303253
 30
0.0
 42
-0.4142135623736183
  0
VERTEX
  5
1824
  8
SAPA_GLAS
 10
64.628446275771182
 20
64.605162683699703
 30
0.0
  0
VERTEX
  5
1825
  8
SAPA_GLAS
 10
64.697905546838797
 20
64.211239582497114
 30
0.0
 42
-0.4142135623730951
  0
VERTEX
  5
1826
  8
SAPA_GLAS
 10
64.454557674239425
 20
63.863702803293499
 30
0.0
  0
VERTEX
  5
1827
  8
SAPA_GLAS
 10
59.513175911312501
 20
62.992403876507638
 30
0.0
 42
0.4142135623725704
  0
VERTEX
  5
1828
  8
SAPA_GLAS
 10
59.107596123643937
 20
62.4131759111688
 30
0.0
  0
VERTEX
  5
1829
  8
SAPA_GLAS
 10
60.311266129733333
 20
55.586824088834078
 30
0.0
 42
-0.4663076581553405
  0
VERTEX
  5
182A
  8
SAPA_GLAS
 10
59.81886225322399
 20
55.000000000000107
 30
0.0
  0
VERTEX
  5
182B
  8
SAPA_GLAS
 10
28.181137747064561
 20
55.000000000000107
 30
0.0
 42
-0.4663076581553401
  0
VERTEX
  5
182C
  8
SAPA_GLAS
 10
27.688733870558561
 20
55.586824088834128
 30
0.0
  0
VERTEX
  5
182D
  8
SAPA_GLAS
 10
28.892403876644629
 20
62.4131759111688
 30
0.0
 42
0.4142135623725707
  0
VERTEX
  5
182E
  8
SAPA_GLAS
 10
28.486824088976061
 20
62.992403876507638
 30
0.0
  0
VERTEX
  5
182F
  8
SAPA_GLAS
 10
23.54544232604912
 20
63.863702803293499
 30
0.0
 42
-0.4142135623730951
  0
VERTEX
  5
1830
  8
SAPA_GLAS
 10
23.302094453449751
 20
64.211239582497114
 30
0.0
  0
VERTEX
  5
1831
  8
SAPA_GLAS
 10
23.371553724517369
 20
64.605162683699703
 30
0.0
 42
-0.4142135623736183
  0
VERTEX
  5
1832
  8
SAPA_GLAS
 10
23.719090503711989
 20
64.848510556303253
 30
0.0
  0
VERTEX
  5
1833
  8
SAPA_GLAS
 10
28.035035343213739
 20
64.08749303385386
 30
0.0
 42
0.5773502691875974
  0
VERTEX
  5
1834
  8
SAPA_GLAS
 10
28.257703502908619
 20
64.352858613121612
 30
0.0
  0
VERTEX
  5
1835
  8
SAPA_GLAS
 10
28.249254495400098
 20
64.376072070439463
 30
0.0
 42
-0.4142135623732762
  0
VERTEX
  5
1836
  8
SAPA_GLAS
 10
28.428556238641828
 20
64.760585899674084
 30
0.0
  0
VERTEX
  5
1837
  8
SAPA_GLAS
 10
28.616494762801018
 20
64.828989928339894
 30
0.0
 42
-0.4142135623734131
  0
VERTEX
  5
1838
  8
SAPA_GLAS
 10
29.257351144855999
 20
64.530153689609605
 30
0.0
  0
VERTEX
  5
1839
  8
SAPA_GLAS
 10
29.809538931317171
 20
63.013030214989008
 30
0.0
 42
-0.1316524975872963
  0
VERTEX
  5
183A
  8
SAPA_GLAS
 10
29.877211629659211
 20
62.23952773350004
 30
0.0
  0
VERTEX
  5
183B
  8
SAPA_GLAS
 10
28.818403711293691
 20
56.234729635534087
 30
0.0
 42
0.4663076581547951
  0
VERTEX
  5
183C
  8
SAPA_GLAS
 10
29.01536526189615
 20
56.000000000000838
 30
0.0
  0
VERTEX
  5
183D
  8
SAPA_GLAS
 10
58.984634738392408
 20
56.000000000000838
 30
0.0
 42
0.466307658154795
  0
VERTEX
  5
183E
  8
SAPA_GLAS
 10
59.181596288994882
 20
56.234729635534087
 30
0.0
  0
SEQEND
  5
183F
  8
SAPA_GLAS
  0
POLYLINE
  5
C1F
  8
SAPA_GLAS
 66
     1
 10
0.0
 20
0.0
 30
0.0
  0
VERTEX
  5
1840
  8
SAPA_GLAS
 10
58.000000000144432
 20
89.000000000000114
 30
0.0
  0
VERTEX
  5
1841
  8
SAPA_GLAS
 10
58.000000000144432
 20
57.000000000000092
 30
0.0
  0
VERTEX
  5
1842
  8
SAPA_GLAS
 10
54.000000000144432
 20
57.000000000000092
 30
0.0
  0
VERTEX
  5
1843
  8
SAPA_GLAS
 10
54.000000000144432
 20
89.000000000000114
 30
0.0
  0
SEQEND
  5
1844
  8
SAPA_GLAS
  0
POLYLINE
  5
C20
  8
SAPA_GLAS
 66
     1
 10
0.0
 20
0.0
 30
0.0
  0
VERTEX
  5
1845
  8
SAPA_GLAS
 10
34.000000000144283
 20
67.000000000000085
 30
0.0
  0
VERTEX
  5
1846
  8
SAPA_GLAS
 10
54.000000000144269
 20
67.000000000000085
 30
0.0
  0
VERTEX
  5
1847
  8
SAPA_GLAS
 10
54.000000000144269
 20
57.000000000000092
 30
0.0
  0
VERTEX
  5
1848
  8
SAPA_GLAS
 10
34.000000000144283
 20
57.000000000000092
 30
0.0
  0
VERTEX
  5
1849
  8
SAPA_GLAS
 10
34.000000000144283
 20
67.000000000000085
 30
0.0
  0
SEQEND
  5
184A
  8
SAPA_GLAS
  0
POLYLINE
  5
C21
  8
SAPA_GLAS
 66
     1
 10
0.0
 20
0.0
 30
0.0
  0
VERTEX
  5
184B
  8
SAPA_GLAS
 10
30.000000000144279
 20
89.000000000000114
 30
0.0
  0
VERTEX
  5
184C
  8
SAPA_GLAS
 10
30.000000000144279
 20
57.000000000000092
 30
0.0
  0
VERTEX
  5
184D
  8
SAPA_GLAS
 10
34.000000000144283
 20
57.000000000000092
 30
0.0
  0
VERTEX
  5
184E
  8
SAPA_GLAS
 10
34.000000000144283
 20
89.000000000000114
 30
0.0
  0
SEQEND
  5
184F
  8
SAPA_GLAS
  0
INSERT
  5
C22
  8
SAPA_GLAS
  6
CONTINUOUS
  2
*X65
 10
0.0
 20
0.0
 30
0.0
1001
ACAD
1000
HATCH
1002
{
1070
    19
1000
ANSI37
1040
0.25
1040
0.0
1000
R14_HATCH_DATA
1000
C22
1011
1.0
1021
0.0
1031
0.0
1021
0.0
1031
0.0
1011
0.0
1021
0.0
1031
0.0
1021
1.0
1031
0.0
1011
0.0
1021
0.0
1031
0.0
1021
0.0
1031
1.0
1040
0.0
1010
0.0
1020
0.0
1030
1.0
1000
ANSI37
1070
     0
1070
     0
1071
        1
1071
        7
1070
     1
1070
     1
1071
       21
1040
58.000000000144432
1040
63.013030214905903
1040
0.0
1040
58.190461068941133
1040
63.013030214905889
1040
0.0
1040
58.742648855432549
1040
64.530153689609605
1040
-0.4142135623734131
1040
59.383505237487547
1040
64.828989928339894
1040
0.0
1040
59.571443761646727
1040
64.760585899674084
1040
-0.4142135623732763
1040
59.750745504888442
1040
64.376072070439463
1040
0.0
1040
59.742296497379932
1040
64.352858613121612
1040
0.5773502691875974
1040
59.964964657074809
1040
64.08749303385386
1040
0.0
1040
62.288653318880648
1040
64.497222039694307
1040
0.0
1040
62.19999999917502
1040
65.000000000011042
1040
-0.4142135618490765
1040
61.999999999533941
1040
65.200000000009965
1040
0.0
1040
61.999999999543043
1040
66.300000000010314
1040
-0.4142135623730326
1040
62.199999999532857
1040
66.500000000000099
1040
0.0
1040
62.999999999543022
1040
66.500000000011042
1040
0.4142135623730991
1040
63.499999999543043
1040
67.000000000011042
1040
0.0
1040
63.500000000023228
1040
68.000000000020165
1040
0.4142135623730991
1040
63.000000000023228
1040
68.500000000020165
1040
0.0
1040
62.20000000001307
1040
68.500000000011042
1040
-0.414213562373116
1040
62.000000000014133
1040
68.70000000000995
1040
0.0
1040
62.000000000023263
1040
69.800000000083088
1040
-0.1011549434801005
1040
58.000000000144432
1040
69.799999999912018
1040
0.0
1071
        0
1070
     0
1070
     1
1040
0.0
1040
0.25
1070
     0
1070
     2
1040
0.7853981633974483
1040
20.50000000000011
1040
41.999999998749601
1040
-0.5612660075668221
1040
0.5612660075668221
1070
     0
1040
2.3561944901923439
1040
20.50000000000011
1040
41.999999998749601
1040
-0.5612660075668221
1040
-0.5612660075668221
1070
     0
1040
0.0366580744024772
1071
        1
1040
59.748947531893108
1040
67.619373451306743
1040
0.0
1002
}
  0
INSERT
  5
C23
  8
SAPA_GLAS
  6
CONTINUOUS
  2
*X66
 10
0.0
 20
0.0
 30
0.0
1001
ACAD
1000
HATCH
1002
{
1070
    19
1000
ANSI37
1040
0.25
1040
0.0
1000
R14_HATCH_DATA
1000
C23
1011
1.0
1021
0.0
1031
0.0
1021
0.0
1031
0.0
1011
0.0
1021
0.0
1031
0.0
1021
1.0
1031
0.0
1011
0.0
1021
0.0
1031
0.0
1021
0.0
1031
1.0
1040
0.0
1010
0.0
1020
0.0
1030
1.0
1000
ANSI37
1070
     0
1070
     0
1071
        1
1071
        7
1070
     1
1070
     1
1071
       21
1040
25.799999999669701
1040
68.500000000011042
1040
0.0
1040
24.999999999659551
1040
68.500000000020165
1040
0.4142135623730991
1040
24.499999999659551
1040
68.000000000020165
1040
0.0
1040
24.500000000139728
1040
67.000000000011042
1040
0.4142135623730991
1040
25.00000000013976
1040
66.500000000011042
1040
0.0
1040
25.800000000149922
1040
66.500000000000099
1040
-0.4142135623730326
1040
26.000000000139728
1040
66.300000000010314
1040
0.0
1040
26.00000000014882
1040
65.200000000009965
1040
-0.4142135623703427
1040
25.800000000151819
1040
65.000000000011028
1040
0.0
1040
25.711346680475192
1040
64.497222039858769
1040
0.0
1040
28.035035343213739
1040
64.08749303385386
1040
0.5773502691875974
1040
28.257703502908619
1040
64.352858613121612
1040
0.0
1040
28.249254495400098
1040
64.376072070439463
1040
-0.4142135623732763
1040
28.428556238641828
1040
64.760585899674084
1040
0.0
1040
28.616494762801018
1040
64.828989928339894
1040
-0.4142135623734131
1040
29.257351144855999
1040
64.530153689609605
1040
0.0
1040
29.809538931347419
1040
63.013030214905903
1040
0.0
1040
30.000000000144279
1040
63.013030214905903
1040
0.0
1040
30.000000000144279
1040
69.800000000108639
1040
-0.1011549434957405
1040
25.999999999659519
1040
69.800000000010343
1040
0.0
1040
25.999999999668638
1040
68.70000000000995
1040
-0.414213562373116
1071
        0
1070
     0
1070
     1
1040
0.0
1040
0.25
1070
     0
1070
     2
1040
0.7853981633974483
1040
20.50000000000011
1040
41.999999998749601
1040
-0.5612660075668221
1040
0.5612660075668221
1070
     0
1040
2.3561944901923439
1040
20.50000000000011
1040
41.999999998749601
1040
-0.5612660075668221
1040
-0.5612660075668221
1070
     0
1040
0.0366580744024772
1071
        1
1040
27.35750056032844
1040
67.509399136627394
1040
0.0
1002
}
  0
POLYLINE
  5
C3C
  8
SAPA_FOGBAND
 66
     1
 10
0.0
 20
0.0
 30
0.0
 70
     1
  0
VERTEX
  5
18E5
  8
SAPA_FOGBAND
 10
16.250000000010221
 20
49.649999999982533
 30
0.0
  0
VERTEX
  5
18E6
  8
SAPA_FOGBAND
 10
17.0500000000104
 20
49.649999999982533
 30
0.0
  0
VERTEX
  5
18E7
  8
SAPA_FOGBAND
 10
17.0500000000104
 20
43.34999999998545
 30
0.0
  0
VERTEX
  5
18E8
  8
SAPA_FOGBAND
 10
16.250000000010221
 20
43.34999999998545
 30
0.0
  0
SEQEND
  5
18E9
  8
SAPA_FOGBAND
  0
POLYLINE
  5
C3D
  8
SAPA_FOGBAND
 66
     1
 10
0.0
 20
0.0
 30
0.0
  0
VERTEX
  5
18EA
  8
SAPA_FOGBAND
 10
17.0500000000104
 20
44.927310396842941
 30
0.0
  0
VERTEX
  5
18EB
  8
SAPA_FOGBAND
 10
20.500000000010221
 20
43.801863799527027
 30
0.0
  0
VERTEX
  5
18EC
  8
SAPA_FOGBAND
 10
20.500000000010221
 20
46.240001846075558
 30
0.0
  0
VERTEX
  5
18ED
  8
SAPA_FOGBAND
 10
17.0500000000104
 20
46.349999999982529
 30
0.0
  0
SEQEND
  5
18EE
  8
SAPA_FOGBAND
  0
POLYLINE
  5
C3E
  8
SAPA_FOGBAND
 66
     1
 10
0.0
 20
0.0
 30
0.0
  0
VERTEX
  5
18EF
  8
SAPA_FOGBAND
 10
17.0500000000104
 20
46.424999999983257
 30
0.0
  0
VERTEX
  5
18F0
  8
SAPA_FOGBAND
 10
20.500000000010221
 20
46.424999999986539
 30
0.0
  0
VERTEX
  5
18F1
  8
SAPA_FOGBAND
 10
20.500000000010221
 20
46.574999999984719
 30
0.0
  0
VERTEX
  5
18F2
  8
SAPA_FOGBAND
 10
17.0500000000104
 20
46.574999999984719
 30
0.0
  0
SEQEND
  5
18F3
  8
SAPA_FOGBAND
  0
POLYLINE
  5
C3F
  8
SAPA_FOGBAND
 66
     1
 10
0.0
 20
0.0
 30
0.0
  0
VERTEX
  5
18F4
  8
SAPA_FOGBAND
 10
17.0500000000104
 20
46.649999999985447
 30
0.0
  0
VERTEX
  5
18F5
  8
SAPA_FOGBAND
 10
20.500000000010221
 20
46.759997385167694
 30
0.0
  0
VERTEX
  5
18F6
  8
SAPA_FOGBAND
 10
20.500000000010221
 20
49.198090725589857
 30
0.0
  0
VERTEX
  5
18F7
  8
SAPA_FOGBAND
 10
17.0500000000104
 20
48.072689603125028
 30
0.0
  0
SEQEND
  5
18F8
  8
SAPA_FOGBAND
  0
POLYLINE
  5
C40
  8
SAPA_FOGBAND
 66
     1
 10
0.0
 20
0.0
 30
0.0
 70
     1
  0
VERTEX
  5
18F9
  8
SAPA_FOGBAND
 10
16.250000000010221
 20
58.149999999997092
 30
0.0
  0
VERTEX
  5
18FA
  8
SAPA_FOGBAND
 10
17.0500000000104
 20
58.149999999997092
 30
0.0
  0
VERTEX
  5
18FB
  8
SAPA_FOGBAND
 10
17.0500000000104
 20
51.850000000000001
 30
0.0
  0
VERTEX
  5
18FC
  8
SAPA_FOGBAND
 10
16.250000000010221
 20
51.850000000000001
 30
0.0
  0
SEQEND
  5
18FD
  8
SAPA_FOGBAND
  0
POLYLINE
  5
C41
  8
SAPA_FOGBAND
 66
     1
 10
0.0
 20
0.0
 30
0.0
  0
VERTEX
  5
18FE
  8
SAPA_FOGBAND
 10
17.0500000000104
 20
53.4273103968575
 30
0.0
  0
VERTEX
  5
18FF
  8
SAPA_FOGBAND
 10
20.500000000010221
 20
52.301863799541579
 30
0.0
  0
VERTEX
  5
1900
  8
SAPA_FOGBAND
 10
20.500000000010221
 20
54.740001846090109
 30
0.0
  0
VERTEX
  5
1901
  8
SAPA_FOGBAND
 10
17.0500000000104
 20
54.849999999997081
 30
0.0
  0
SEQEND
  5
1902
  8
SAPA_FOGBAND
  0
POLYLINE
  5
C42
  8
SAPA_FOGBAND
 66
     1
 10
0.0
 20
0.0
 30
0.0
  0
VERTEX
  5
1903
  8
SAPA_FOGBAND
 10
17.0500000000104
 20
54.924999999997823
 30
0.0
  0
VERTEX
  5
1904
  8
SAPA_FOGBAND
 10
20.500000000010221
 20
54.925000000001091
 30
0.0
  0
VERTEX
  5
1905
  8
SAPA_FOGBAND
 10
20.500000000010221
 20
55.074999999999278
 30
0.0
  0
VERTEX
  5
1906
  8
SAPA_FOGBAND
 10
17.0500000000104
 20
55.074999999999271
 30
0.0
  0
SEQEND
  5
1907
  8
SAPA_FOGBAND
  0
POLYLINE
  5
C43
  8
SAPA_FOGBAND
 66
     1
 10
0.0
 20
0.0
 30
0.0
  0
VERTEX
  5
1908
  8
SAPA_FOGBAND
 10
17.0500000000104
 20
55.149999999999999
 30
0.0
  0
VERTEX
  5
1909
  8
SAPA_FOGBAND
 10
20.500000000010221
 20
55.259997385182238
 30
0.0
  0
VERTEX
  5
190A
  8
SAPA_FOGBAND
 10
20.500000000010221
 20
57.698090725604409
 30
0.0
  0
VERTEX
  5
190B
  8
SAPA_FOGBAND
 10
17.0500000000104
 20
56.572689603139587
 30
0.0
  0
SEQEND
  5
190C
  8
SAPA_FOGBAND
  0
POLYLINE
  5
C44
  8
SAPA_FOGBAND
 66
     1
 10
0.0
 20
0.0
 30
0.0
 70
     1
  0
VERTEX
  5
190D
  8
SAPA_FOGBAND
 10
71.749999999672553
 20
49.431441188146799
 30
0.0
  0
VERTEX
  5
190E
  8
SAPA_FOGBAND
 10
70.949999999672372
 20
49.431441188146799
 30
0.0
  0
VERTEX
  5
190F
  8
SAPA_FOGBAND
 10
70.949999999672372
 20
43.131441188149708
 30
0.0
  0
VERTEX
  5
1910
  8
SAPA_FOGBAND
 10
71.749999999672553
 20
43.131441188149708
 30
0.0
  0
SEQEND
  5
1911
  8
SAPA_FOGBAND
  0
POLYLINE
  5
C45
  8
SAPA_FOGBAND
 66
     1
 10
0.0
 20
0.0
 30
0.0
  0
VERTEX
  5
1912
  8
SAPA_FOGBAND
 10
70.949999999672372
 20
44.708751585007207
 30
0.0
  0
VERTEX
  5
1913
  8
SAPA_FOGBAND
 10
67.499999999672553
 20
43.583304987691292
 30
0.0
  0
VERTEX
  5
1914
  8
SAPA_FOGBAND
 10
67.499999999672553
 20
46.021443034239823
 30
0.0
  0
VERTEX
  5
1915
  8
SAPA_FOGBAND
 10
70.949999999672372
 20
46.131441188146802
 30
0.0
  0
SEQEND
  5
1916
  8
SAPA_FOGBAND
  0
POLYLINE
  5
C46
  8
SAPA_FOGBAND
 66
     1
 10
0.0
 20
0.0
 30
0.0
  0
VERTEX
  5
1917
  8
SAPA_FOGBAND
 10
70.949999999672372
 20
46.206441188147529
 30
0.0
  0
VERTEX
  5
1918
  8
SAPA_FOGBAND
 10
67.499999999672553
 20
46.206441188150798
 30
0.0
  0
VERTEX
  5
1919
  8
SAPA_FOGBAND
 10
67.499999999672553
 20
46.356441188148992
 30
0.0
  0
VERTEX
  5
191A
  8
SAPA_FOGBAND
 10
70.949999999672372
 20
46.356441188148978
 30
0.0
  0
SEQEND
  5
191B
  8
SAPA_FOGBAND
  0
POLYLINE
  5
C47
  8
SAPA_FOGBAND
 66
     1
 10
0.0
 20
0.0
 30
0.0
  0
VERTEX
  5
191C
  8
SAPA_FOGBAND
 10
70.949999999672372
 20
46.431441188149712
 30
0.0
  0
VERTEX
  5
191D
  8
SAPA_FOGBAND
 10
67.499999999672553
 20
46.541438573331952
 30
0.0
  0
VERTEX
  5
191E
  8
SAPA_FOGBAND
 10
67.499999999672553
 20
48.979531913754123
 30
0.0
  0
VERTEX
  5
191F
  8
SAPA_FOGBAND
 10
70.949999999672372
 20
47.8541307912893
 30
0.0
  0
SEQEND
  5
1920
  8
SAPA_FOGBAND
  0
POLYLINE
  5
C48
  8
SAPA_FOGBAND
 66
     1
 10
0.0
 20
0.0
 30
0.0
 70
     1
  0
VERTEX
  5
1921
  8
SAPA_FOGBAND
 10
71.749999999672553
 20
57.931441188161351
 30
0.0
  0
VERTEX
  5
1922
  8
SAPA_FOGBAND
 10
70.949999999672372
 20
57.931441188161351
 30
0.0
  0
VERTEX
  5
1923
  8
SAPA_FOGBAND
 10
70.949999999672372
 20
51.63144118816426
 30
0.0
  0
VERTEX
  5
1924
  8
SAPA_FOGBAND
 10
71.749999999672553
 20
51.63144118816426
 30
0.0
  0
SEQEND
  5
1925
  8
SAPA_FOGBAND
  0
POLYLINE
  5
C49
  8
SAPA_FOGBAND
 66
     1
 10
0.0
 20
0.0
 30
0.0
  0
VERTEX
  5
1926
  8
SAPA_FOGBAND
 10
70.949999999672372
 20
53.208751585021759
 30
0.0
  0
VERTEX
  5
1927
  8
SAPA_FOGBAND
 10
67.499999999672553
 20
52.083304987705837
 30
0.0
  0
VERTEX
  5
1928
  8
SAPA_FOGBAND
 10
67.499999999672553
 20
54.521443034254382
 30
0.0
  0
VERTEX
  5
1929
  8
SAPA_FOGBAND
 10
70.949999999672372
 20
54.631441188161347
 30
0.0
  0
SEQEND
  5
192A
  8
SAPA_FOGBAND
  0
POLYLINE
  5
C4A
  8
SAPA_FOGBAND
 66
     1
 10
0.0
 20
0.0
 30
0.0
  0
VERTEX
  5
192B
  8
SAPA_FOGBAND
 10
70.949999999672372
 20
54.706441188162081
 30
0.0
  0
VERTEX
  5
192C
  8
SAPA_FOGBAND
 10
67.499999999672553
 20
54.706441188165357
 30
0.0
  0
VERTEX
  5
192D
  8
SAPA_FOGBAND
 10
67.499999999672553
 20
54.856441188163537
 30
0.0
  0
VERTEX
  5
192E
  8
SAPA_FOGBAND
 10
70.949999999672372
 20
54.856441188163529
 30
0.0
  0
SEQEND
  5
192F
  8
SAPA_FOGBAND
  0
POLYLINE
  5
C4B
  8
SAPA_FOGBAND
 66
     1
 10
0.0
 20
0.0
 30
0.0
  0
VERTEX
  5
1930
  8
SAPA_FOGBAND
 10
70.949999999672372
 20
54.931441188164257
 30
0.0
  0
VERTEX
  5
1931
  8
SAPA_FOGBAND
 10
67.499999999672553
 20
55.041438573346511
 30
0.0
  0
VERTEX
  5
1932
  8
SAPA_FOGBAND
 10
67.499999999672553
 20
57.479531913768668
 30
0.0
  0
VERTEX
  5
1933
  8
SAPA_FOGBAND
 10
70.949999999672372
 20
56.354130791303852
 30
0.0
  0
SEQEND
  5
1934
  8
SAPA_FOGBAND
  0
POLYLINE
  5
C4C
  8
SAPA_FOGBAND
 66
     1
 10
0.0
 20
0.0
 30
0.0
 70
     1
  0
VERTEX
  5
1935
  8
SAPA_FOGBAND
 10
136.7499999277311
 20
58.149999999997092
 30
0.0
  0
VERTEX
  5
1936
  8
SAPA_FOGBAND
 10
135.94999992773089
 20
58.149999999997092
 30
0.0
  0
VERTEX
  5
1937
  8
SAPA_FOGBAND
 10
135.94999992773089
 20
51.850000000000001
 30
0.0
  0
VERTEX
  5
1938
  8
SAPA_FOGBAND
 10
136.7499999277311
 20
51.850000000000001
 30
0.0
  0
SEQEND
  5
1939
  8
SAPA_FOGBAND
  0
POLYLINE
  5
C4D
  8
SAPA_FOGBAND
 66
     1
 10
0.0
 20
0.0
 30
0.0
  0
VERTEX
  5
193A
  8
SAPA_FOGBAND
 10
135.94999992773089
 20
53.4273103968575
 30
0.0
  0
VERTEX
  5
193B
  8
SAPA_FOGBAND
 10
132.4999999277311
 20
52.301863799541579
 30
0.0
  0
VERTEX
  5
193C
  8
SAPA_FOGBAND
 10
132.4999999277311
 20
54.740001846090109
 30
0.0
  0
VERTEX
  5
193D
  8
SAPA_FOGBAND
 10
135.94999992773089
 20
54.849999999997081
 30
0.0
  0
SEQEND
  5
193E
  8
SAPA_FOGBAND
  0
POLYLINE
  5
C4E
  8
SAPA_FOGBAND
 66
     1
 10
0.0
 20
0.0
 30
0.0
  0
VERTEX
  5
193F
  8
SAPA_FOGBAND
 10
135.94999992773089
 20
54.924999999997823
 30
0.0
  0
VERTEX
  5
1940
  8
SAPA_FOGBAND
 10
132.4999999277311
 20
54.925000000001091
 30
0.0
  0
VERTEX
  5
1941
  8
SAPA_FOGBAND
 10
132.4999999277311
 20
55.074999999999278
 30
0.0
  0
VERTEX
  5
1942
  8
SAPA_FOGBAND
 10
135.94999992773089
 20
55.074999999999271
 30
0.0
  0
SEQEND
  5
1943
  8
SAPA_FOGBAND
  0
POLYLINE
  5
C4F
  8
SAPA_FOGBAND
 66
     1
 10
0.0
 20
0.0
 30
0.0
  0
VERTEX
  5
1944
  8
SAPA_FOGBAND
 10
135.94999992773089
 20
55.149999999999999
 30
0.0
  0
VERTEX
  5
1945
  8
SAPA_FOGBAND
 10
132.4999999277311
 20
55.259997385182238
 30
0.0
  0
VERTEX
  5
1946
  8
SAPA_FOGBAND
 10
132.4999999277311
 20
57.698090725604409
 30
0.0
  0
VERTEX
  5
1947
  8
SAPA_FOGBAND
 10
135.94999992773089
 20
56.572689603139587
 30
0.0
  0
SEQEND
  5
1948
  8
SAPA_FOGBAND
  0
DIMENSION
  5
C5B
  8
SAPA_MATT
  2
*D36
 10
-22.99999999999994
 20
60.0
 30
0.0
 11
-25.75132575757571
 21
-5.0000000000106564
 31
0.0
 70
     0
  1
min. 130
 13
4.00000000000023
 23
-70.000000000021316
 33
0.0
 14
-12.99999999999803
 24
60.0
 34
0.0
 50
90.0
1001
ACAD
1000
DSTYLE
1002
{
1070
    40
1040
1.0
1002
}
  0
DIMENSION
  5
C5C
  8
SAPA_MATT
  2
*D35
 10
138.99999999950211
 20
113.0000000000001
 30
0.0
 11
76.499999999751068
 21
115.7500000000001
 31
0.0
 70
     0
 13
14.00000000000003
 23
58.5
 33
0.0
 14
138.99999999950211
 24
60.5
 34
0.0
1001
ACAD
1000
DSTYLE
1002
{
1070
    40
1040
1.0
1002
}
  0
DIMENSION
  5
C5D
  8
SAPA_MATT
  2
*D34
 10
138.99999999950211
 20
101.0000000000001
 30
0.0
 11
103.24999999950209
 21
103.7500000000001
 31
0.0
 70
     0
 13
67.499999999502137
 23
55.000000000019412
 33
0.0
 14
138.99999999950211
 24
60.5
 34
0.0
1001
ACAD
1000
DSTYLE
1002
{
1070
   287
1070
     4
1070
    40
1040
1.0
1070
   279
1070
     1
1002
}
  0
DIMENSION
  5
C5E
  8
SAPA_MATT
  2
*D33
 10
67.499999999502137
 20
101.0000000000001
 30
0.0
 11
43.999999999841378
 21
103.7500000000001
 31
0.0
 70
     0
 13
20.500000000180631
 23
55.000000000019412
 33
0.0
 14
67.499999999502137
 24
55.000000000019412
 34
0.0
1001
ACAD
1000
DSTYLE
1002
{
1070
   287
1070
     4
1070
    40
1040
1.0
1070
   279
1070
     1
1002
}
  0
DIMENSION
  5
C5F
  8
SAPA_MATT
  2
*D32
 10
20.500000000180631
 20
101.0000000000001
 30
0.0
 11
17.250000000090331
 21
101.0000000000001
 31
0.0
 70
   128
 13
14.00000000000003
 23
58.5
 33
0.0
 14
20.500000000180631
 24
55.000000000019412
 34
0.0
1001
ACAD
1000
DSTYLE
1002
{
1070
    40
1040
1.0
1002
}
  0
DIMENSION
  5
C60
  8
SAPA_MATT
  2
*D31
 10
-11.0
 20
70.000000000011042
 30
0.0
 11
-13.750000000000011
 21
65.000000000005514
 31
0.0
 70
     0
 13
15.50000000000003
 23
60.0
 33
0.0
 14
22.250000000175579
 24
70.000000000011042
 34
0.0
 50
90.0
1001
ACAD
1000
DSTYLE
1002
{
1070
   287
1070
     4
1070
    40
1040
1.0
1070
   279
1070
     1
1002
}
  0
DIMENSION
  5
C61
  8
SAPA_MATT
  2
*D30
 10
-10.999999999999989
 20
60.0
 30
0.0
 11
-13.750000000000011
 21
1.5000000000000151
 31
0.0
 70
     0
 13
15.37500000000003
 23
-56.999999999999972
 33
0.0
 14
15.50000000000003
 24
60.0
 34
0.0
 50
90.0
1001
ACAD
1000
DSTYLE
1002
{
1070
    40
1040
1.0
1002
}
  0
VIEWPORT
  5
C4
 67
     1
  8
0
 10
160.5543545598442
 20
116.00969601843509
 30
0.0
 40
404.96977709277462
 41
256.8421457311839
 68
     1
 69
     1
1001
ACAD
1000
MVIEW
1002
{
1070
    16
1010
0.0
1020
0.0
1030
0.0
1010
0.0
1020
0.0
1030
1.0
1040
0.0
1040
256.8421457311839
1040
99.206250190734863
1040
130.70624923706049
1040
50.0
1040
0.0
1040
0.0
1070
     0
1070
     0
1070
     1
1070
     1
1070
     0
1070
     0
1070
     0
1070
     0
1040
0.0
1040
0.0
1040
0.0
1040
10.0
1040
10.0
1040
10.0
1040
10.0
1070
     0
1002
{
1002
}
1002
}
  0
ENDSEC
  0
EOF
