  0
SECTION
  2
HEADER
  9
$ACADVER
  1
AC1009
  9
$INSBASE
 10
87.250141474393345
 20
464.4985451671987
 30
0.0
  9
$EXTMIN
 10
114.0242541869699
 20
-46.653558359944249
 30
-0.0000000048844204
  9
$EXTMAX
 10
243.0479427079033
 20
129.01508374701351
 30
0.0
  9
$LIMMIN
 10
0.0
 20
0.0
  9
$LIMMAX
 10
790.0
 20
790.0
  9
$ORTHOMODE
 70
     0
  9
$REGENMODE
 70
     1
  9
$FILLMODE
 70
     1
  9
$QTEXTMODE
 70
     0
  9
$MIRRTEXT
 70
     1
  9
$DRAGMODE
 70
     2
  9
$LTSCALE
 40
2.5
  9
$OSMODE
 70
   167
  9
$ATTMODE
 70
     1
  9
$TEXTSIZE
 40
5.0
  9
$TRACEWID
 40
0.05
  9
$TEXTSTYLE
  7
ISO
  9
$CLAYER
  8
0
  9
$CELTYPE
  6
BYLAYER
  9
$CECOLOR
 62
   256
  9
$DIMSCALE
 40
0.0
  9
$DIMASZ
 40
3.0
  9
$DIMEXO
 40
1.5
  9
$DIMDLI
 40
10.0
  9
$DIMRND
 40
0.0
  9
$DIMDLE
 40
0.0
  9
$DIMEXE
 40
1.5
  9
$DIMTP
 40
0.0
  9
$DIMTM
 40
0.0
  9
$DIMTXT
 40
3.0
  9
$DIMCEN
 40
-5.0
  9
$DIMTSZ
 40
0.0
  9
$DIMTOL
 70
     0
  9
$DIMLIM
 70
     0
  9
$DIMTIH
 70
     0
  9
$DIMTOH
 70
     1
  9
$DIMSE1
 70
     0
  9
$DIMSE2
 70
     0
  9
$DIMTAD
 70
     1
  9
$DIMZIN
 70
     8
  9
$DIMBLK
  1

  9
$DIMASO
 70
     1
  9
$DIMSHO
 70
     1
  9
$DIMPOST
  1

  9
$DIMAPOST
  1

  9
$DIMALT
 70
     0
  9
$DIMALTD
 70
     0
  9
$DIMALTF
 40
25.399999999999999
  9
$DIMLFAC
 40
-1.0
  9
$DIMTOFL
 70
     1
  9
$DIMTVP
 40
0.0
  9
$DIMTIX
 70
     0
  9
$DIMSOXD
 70
     0
  9
$DIMSAH
 70
     0
  9
$DIMBLK1
  1

  9
$DIMBLK2
  1

  9
$DIMSTYLE
  2
MASKIN
  9
$DIMCLRD
 70
   256
  9
$DIMCLRE
 70
   256
  9
$DIMCLRT
 70
     2
  9
$DIMTFAC
 40
1.0
  9
$DIMGAP
 40
1.0
  9
$LUNITS
 70
     2
  9
$LUPREC
 70
     1
  9
$SKETCHINC
 40
0.1
  9
$FILLETRAD
 40
0.0
  9
$AUNITS
 70
     0
  9
$AUPREC
 70
     0
  9
$MENU
  1
ACAD
  9
$ELEVATION
 40
0.0
  9
$PELEVATION
 40
0.0
  9
$THICKNESS
 40
0.0
  9
$LIMCHECK
 70
     0
  9
$BLIPMODE
 70
     0
  9
$CHAMFERA
 40
0.0
  9
$CHAMFERB
 40
0.0
  9
$SKPOLY
 70
     0
  9
$TDCREATE
 40
2451169.4270083099
  9
$TDUPDATE
 40
2458452.5894044451
  9
$TDINDWG
 40
1.3401464236
  9
$TDUSRTIMER
 40
1.3401464236
  9
$USRTIMER
 70
     1
  9
$ANGBASE
 50
0.0
  9
$ANGDIR
 70
     0
  9
$PDMODE
 70
     0
  9
$PDSIZE
 40
0.0
  9
$PLINEWID
 40
0.0
  9
$COORDS
 70
     1
  9
$SPLFRAME
 70
     0
  9
$SPLINETYPE
 70
     6
  9
$SPLINESEGS
 70
     8
  9
$ATTDIA
 70
     1
  9
$ATTREQ
 70
     1
  9
$HANDLING
 70
     1
  9
$HANDSEED
  5
208A
  9
$SURFTAB1
 70
     6
  9
$SURFTAB2
 70
     6
  9
$SURFTYPE
 70
     6
  9
$SURFU
 70
     6
  9
$SURFV
 70
     6
  9
$UCSNAME
  2

  9
$UCSORG
 10
0.0
 20
0.0
 30
0.0
  9
$UCSXDIR
 10
1.0
 20
0.0
 30
0.0
  9
$UCSYDIR
 10
0.0
 20
1.0
 30
0.0
  9
$PUCSNAME
  2

  9
$PUCSORG
 10
0.0
 20
0.0
 30
0.0
  9
$PUCSXDIR
 10
1.0
 20
0.0
 30
0.0
  9
$PUCSYDIR
 10
0.0
 20
1.0
 30
0.0
  9
$USERI1
 70
     0
  9
$USERI2
 70
     0
  9
$USERI3
 70
     0
  9
$USERI4
 70
     0
  9
$USERI5
 70
     0
  9
$USERR1
 40
0.0
  9
$USERR2
 40
0.0
  9
$USERR3
 40
0.0
  9
$USERR4
 40
0.0
  9
$USERR5
 40
0.0
  9
$WORLDVIEW
 70
     1
  9
$SHADEDGE
 70
     3
  9
$SHADEDIF
 70
    70
  9
$TILEMODE
 70
     1
  9
$MAXACTVP
 70
    16
  9
$PLIMCHECK
 70
     0
  9
$PEXTMIN
 10
1.0000000000000000E+020
 20
1.0000000000000000E+020
 30
1.0000000000000000E+020
  9
$PEXTMAX
 10
-1.0000000000000000E+020
 20
-1.0000000000000000E+020
 30
-1.0000000000000000E+020
  9
$PLIMMIN
 10
-4.23333740234375
 20
-4.2333331108093262
  9
$PLIMMAX
 10
292.69265747070312
 20
205.7399945259094
  9
$UNITMODE
 70
     0
  9
$VISRETAIN
 70
     1
  9
$PLINEGEN
 70
     0
  9
$PSLTSCALE
 70
     1
  0
ENDSEC
  0
SECTION
  2
TABLES
  0
TABLE
  2
VPORT
 70
     1
  0
VPORT
  2
*ACTIVE
 70
     0
 10
0.0
 20
0.0
 11
1.0
 21
1.0
 12
350.28345729622771
 22
210.25248304962409
 13
0.0
 23
0.0
 14
1.0
 24
1.0
 15
0.0
 25
0.0
 16
0.0
 26
0.0
 36
1.0
 17
0.0
 27
0.0
 37
0.0
 40
530.92125799422752
 41
1.7265193370165739
 42
50.0
 43
0.0
 44
0.0
 50
0.0
 51
0.0
 71
     0
 72
   100
 73
     1
 74
     0
 75
     0
 76
     0
 77
     0
 78
     0
  0
ENDTAB
  0
TABLE
  2
LTYPE
 70
    34
  0
LTYPE
  2
CONTINUOUS
 70
     0
  3
Solid line
 72
    65
 73
     0
 40
0.0
  0
LTYPE
  2
DASHED
 70
     0
  3
__ __ __ __ __ __ __ __ __ __ __ __ __ __ __
 72
    65
 73
     2
 40
0.75
 49
0.5
 49
-0.25
  0
LTYPE
  2
BYGG-031696$0$NEWDOT
 70
     0
  3
____ . ____ . ____ . ____ . ____ . ____ . ____
 72
    65
 73
     4
 40
2.0
 49
1.0
 49
-0.5
 49
0.0
 49
-0.5
  0
LTYPE
  2
BYGG-031696$0$DASHDOT
 70
     0
  3
__ . __ . __ . __ . __ . __ . __ . __ . __ . __
 72
    65
 73
     4
 40
1.0
 49
0.5
 49
-0.25
 49
0.0
 49
-0.25
  0
LTYPE
  2
BYGG-031696$0$DASHED
 70
     0
  3
__ __ __ __ __ __ __ __ __ __ __ __ __ __ __
 72
    65
 73
     2
 40
0.75
 49
0.5
 49
-0.25
  0
LTYPE
  2
BYGG-031696$0$PHANTOM
 70
     0
  3
Phantom ______  __  __  ______  __  __  ______
 72
    65
 73
     6
 40
63.5
 49
31.75
 49
-6.3499999999999988
 49
6.3499999999999988
 49
-6.3499999999999988
 49
6.3499999999999988
 49
-6.3499999999999988
  0
LTYPE
  2
BYGG-032081$0$NEWDOT
 70
     0
  3
____ . ____ . ____ . ____ . ____ . ____ . ____
 72
    65
 73
     4
 40
2.0
 49
1.0
 49
-0.5
 49
0.0
 49
-0.5
  0
LTYPE
  2
BYGG-032081$0$DASHDOT
 70
     0
  3
__ . __ . __ . __ . __ . __ . __ . __ . __ . __
 72
    65
 73
     4
 40
1.0
 49
0.5
 49
-0.25
 49
0.0
 49
-0.25
  0
LTYPE
  2
BYGG-032081$0$DASHED
 70
     0
  3
__ __ __ __ __ __ __ __ __ __ __ __ __ __ __
 72
    65
 73
     2
 40
0.75
 49
0.5
 49
-0.25
  0
LTYPE
  2
BYGG-032081$0$PHANTOM
 70
     0
  3
Phantom ______  __  __  ______  __  __  ______
 72
    65
 73
     6
 40
63.5
 49
31.75
 49
-6.3499999999999988
 49
6.3499999999999988
 49
-6.3499999999999988
 49
6.3499999999999988
 49
-6.3499999999999988
  0
LTYPE
  2
BYGG-014129$0$NEWDOT
 70
     0
  3
____ . ____ . ____ . ____ . ____ . ____ . ____
 72
    65
 73
     4
 40
2.0
 49
1.0
 49
-0.5
 49
0.0
 49
-0.5
  0
LTYPE
  2
BYGG-014129$0$DASHDOT
 70
     0
  3
__ . __ . __ . __ . __ . __ . __ . __ . __ . __
 72
    65
 73
     4
 40
1.0
 49
0.5
 49
-0.25
 49
0.0
 49
-0.25
  0
LTYPE
  2
BYGG-014129$0$DASHED
 70
     0
  3
__ __ __ __ __ __ __ __ __ __ __ __ __ __ __
 72
    65
 73
     2
 40
0.75
 49
0.5
 49
-0.25
  0
LTYPE
  2
BYGG-032080$0$NEWDOT
 70
     0
  3
____ . ____ . ____ . ____ . ____ . ____ . ____
 72
    65
 73
     4
 40
2.0
 49
1.0
 49
-0.5
 49
0.0
 49
-0.5
  0
LTYPE
  2
BYGG-032080$0$DASHDOT
 70
     0
  3
__ . __ . __ . __ . __ . __ . __ . __ . __ . __
 72
    65
 73
     4
 40
1.0
 49
0.5
 49
-0.25
 49
0.0
 49
-0.25
  0
LTYPE
  2
BYGG-032080$0$DASHED
 70
     0
  3
__ __ __ __ __ __ __ __ __ __ __ __ __ __ __
 72
    65
 73
     2
 40
0.75
 49
0.5
 49
-0.25
  0
LTYPE
  2
BYGG-032080$0$PHANTOM
 70
     0
  3
Phantom ______  __  __  ______  __  __  ______
 72
    65
 73
     6
 40
63.5
 49
31.75
 49
-6.3499999999999988
 49
6.3499999999999988
 49
-6.3499999999999988
 49
6.3499999999999988
 49
-6.3499999999999988
  0
LTYPE
  2
BYGG-030385$0$NEWDOT
 70
     0
  3
____ . ____ . ____ . ____ . ____ . ____ . ____
 72
    65
 73
     4
 40
2.0
 49
1.0
 49
-0.5
 49
0.0
 49
-0.5
  0
LTYPE
  2
BYGG-030385$0$DASHDOT
 70
     0
  3
__ . __ . __ . __ . __ . __ . __ . __ . __ . __
 72
    65
 73
     4
 40
1.0
 49
0.5
 49
-0.25
 49
0.0
 49
-0.25
  0
LTYPE
  2
BYGG-030385$0$DASHED
 70
     0
  3
__ __ __ __ __ __ __ __ __ __ __ __ __ __ __
 72
    65
 73
     2
 40
0.75
 49
0.5
 49
-0.25
  0
LTYPE
  2
BYGG-030385$0$PHANTOM
 70
     0
  3
Phantom ______  __  __  ______  __  __  ______
 72
    65
 73
     6
 40
63.5
 49
31.75
 49
-6.3499999999999988
 49
6.3499999999999988
 49
-6.3499999999999988
 49
6.3499999999999988
 49
-6.3499999999999988
  0
LTYPE
  2
BYGG-024935$0$NEWDOT
 70
     0
  3
____ . ____ . ____ . ____ . ____ . ____ . ____
 72
    65
 73
     4
 40
2.0
 49
1.0
 49
-0.5
 49
0.0
 49
-0.5
  0
LTYPE
  2
BYGG-024935$0$DASHDOT
 70
     0
  3
__ . __ . __ . __ . __ . __ . __ . __ . __ . __
 72
    65
 73
     4
 40
1.0
 49
0.5
 49
-0.25
 49
0.0
 49
-0.25
  0
LTYPE
  2
BYGG-024924$0$DASHDOT
 70
     0
  3
__ . __ . __ . __ . __ . __ . __ . __ . __ . __
 72
    65
 73
     4
 40
1.0
 49
0.5
 49
-0.25
 49
0.0
 49
-0.25
  0
LTYPE
  2
BYGG-014410$0$NEWDOT
 70
     0
  3
____ . ____ . ____ . ____ . ____ . ____ . ____
 72
    65
 73
     4
 40
2.0
 49
1.0
 49
-0.5
 49
0.0
 49
-0.5
  0
LTYPE
  2
BYGG-014410$0$ZIGZAG
 70
     0
  3
Zig zag /\/\/\/\/\/\/\/\/\/\/\/\/\/\/\/\/\/\/\/\/\/\/\/
 72
    65
 73
     4
 40
20.32254
 49
0.00254
 49
-5.0800000000000001
 49
-10.16
 49
-5.0800000000000001
  0
LTYPE
  2
BYGG-038291$0$NEWDOT
 70
     0
  3
____ . ____ . ____ . ____ . ____ . ____ . ____
 72
    65
 73
     4
 40
2.0
 49
1.0
 49
-0.5
 49
0.0
 49
-0.5
  0
LTYPE
  2
BYGG-038291$0$DASHDOT
 70
     0
  3
__ . __ . __ . __ . __ . __ . __ . __ . __ . __
 72
    65
 73
     4
 40
1.0
 49
0.5
 49
-0.25
 49
0.0
 49
-0.25
  0
LTYPE
  2
BYGG-038291$0$DASHED
 70
     0
  3
__ __ __ __ __ __ __ __ __ __ __ __ __ __ __
 72
    65
 73
     2
 40
0.75
 49
0.5
 49
-0.25
  0
LTYPE
  2
BYGG-038291$0$PHANTOM
 70
     0
  3
Phantom ______  __  __  ______  __  __  ______
 72
    65
 73
     6
 40
63.5
 49
31.75
 49
-6.3499999999999988
 49
6.3499999999999988
 49
-6.3499999999999988
 49
6.3499999999999988
 49
-6.3499999999999988
  0
LTYPE
  2
BYGG-031583$0$DASHDOT
 70
     0
  3
__ . __ . __ . __ . __ . __ . __ . __ . __ . __
 72
    65
 73
     4
 40
1.0
 49
0.5
 49
-0.25
 49
0.0
 49
-0.25
  0
LTYPE
  2
BYGG-032081$0$PHANTOM2
 70
     0
  3
Phantom (.5x) ___ _ _ ___ _ _ ___ _ _ ___ _ _
 72
    65
 73
     6
 40
1.25
 49
0.625
 49
-0.125
 49
0.125
 49
-0.125
 49
0.125
 49
-0.125
  0
LTYPE
  2
BYGG-032080$0$PHANTOM2
 70
     0
  3
Phantom (.5x) ___ _ _ ___ _ _ ___ _ _ ___ _ _
 72
    65
 73
     6
 40
1.25
 49
0.625
 49
-0.125
 49
0.125
 49
-0.125
 49
0.125
 49
-0.125
  0
LTYPE
  2
BYGG-014410$0$PHANTOM2
 70
     0
  3
Phantom (.5x) ___ _ _ ___ _ _ ___ _ _ ___ _ _
 72
    65
 73
     6
 40
1.25
 49
0.625
 49
-0.125
 49
0.125
 49
-0.125
 49
0.125
 49
-0.125
  0
ENDTAB
  0
TABLE
  2
LAYER
 70
   209
  0
LAYER
  2
0
 70
     0
 62
     7
  6
CONTINUOUS
  0
LAYER
  2
DEFPOINTS
 70
     0
 62
     7
  6
CONTINUOUS
  0
LAYER
  2
SAPA_ARTIKELNR
 70
     0
 62
     4
  6
CONTINUOUS
  0
LAYER
  2
SAPA_LIGHT
 70
     1
 62
     1
  6
CONTINUOUS
  0
LAYER
  2
SAPA_ANSLUTNING
 70
     0
 62
     6
  6
CONTINUOUS
  0
LAYER
  2
SAPA_ISOLATOR
 70
     0
 62
     4
  6
CONTINUOUS
  0
LAYER
  2
SAPA_MATT
 70
     0
 62
     1
  6
CONTINUOUS
  0
LAYER
  2
SAPA_GLAS
 70
     0
 62
     4
  6
CONTINUOUS
  0
LAYER
  2
SAPA_FOGBAND
 70
     0
 62
     2
  6
CONTINUOUS
  0
LAYER
  2
SAPA_PROFIL
 70
     0
 62
     7
  6
CONTINUOUS
  0
ENDTAB
  0
TABLE
  2
STYLE
 70
    44
  0
STYLE
  2
STANDARD
 70
     0
 40
0.0
 41
1.0
 50
0.0
 71
     0
 42
0.2
  3
txt
  4

  0
STYLE
  2
ISO
 70
     0
 40
0.0
 41
1.0
 50
0.0
 71
     0
 42
5.0
  3
isocp3.shx
  4

  0
STYLE
  2

 70
     1
 40
0.0
 41
1.0
 50
0.0
 71
     0
 42
0.2
  3
ltypeshp.shx
  4

  0
STYLE
  2
BYGG-032081$0$STANDARD
 70
     0
 40
0.0
 41
1.0
 50
0.0
 71
     0
 42
0.2
  3
txt
  4

  0
STYLE
  2
BYGG-032081$0$ISO
 70
     0
 40
0.0
 41
1.0
 50
0.0
 71
     0
 42
3.5
  3
txt
  4

  0
STYLE
  2
BYGG-031696$0$STANDARD
 70
     0
 40
0.0
 41
1.0
 50
0.0
 71
     0
 42
0.2
  3
txt
  4

  0
STYLE
  2
BYGG-031696$0$ISO
 70
     0
 40
0.0
 41
1.0
 50
0.0
 71
     0
 42
3.5
  3
txt
  4

  0
STYLE
  2
BYGG-014129$0$STANDARD
 70
     0
 40
0.0
 41
1.0
 50
0.0
 71
     0
 42
0.2
  3
txt
  4

  0
STYLE
  2
BYGG-014129$0$ISO
 70
     0
 40
0.0
 41
1.0
 50
0.0
 71
     0
 42
3.5
  3
isocp3.shx
  4

  0
STYLE
  2
BYGG-014129$0$SIMPLEX
 70
     0
 40
0.0
 41
1.0
 50
0.0
 71
     0
 42
0.8
  3
simplex
  4

  0
STYLE
  2
BYGG-032080$0$STANDARD
 70
     0
 40
0.0
 41
1.0
 50
0.0
 71
     0
 42
0.2
  3
txt
  4

  0
STYLE
  2
BYGG-032080$0$ISO
 70
     0
 40
0.0
 41
1.0
 50
0.0
 71
     0
 42
3.5
  3
txt
  4

  0
STYLE
  2
BYGG-031695$0$STANDARD
 70
     0
 40
0.0
 41
1.0
 50
0.0
 71
     0
 42
0.2
  3
txt
  4

  0
STYLE
  2
BYGG-031695$0$ISO
 70
     0
 40
0.0
 41
1.0
 50
0.0
 71
     0
 42
3.5
  3
txt
  4

  0
STYLE
  2
BYGG-030385$0$STANDARD
 70
     0
 40
0.0
 41
1.0
 50
0.0
 71
     0
 42
0.2
  3
txt
  4

  0
STYLE
  2
BYGG-030385$0$ISO
 70
     0
 40
0.0
 41
1.0
 50
0.0
 71
     0
 42
3.5
  3
txt
  4

  0
STYLE
  2
BYGG-024935$0$STANDARD
 70
     0
 40
0.0
 41
1.0
 50
0.0
 71
     0
 42
0.2
  3
txt
  4

  0
STYLE
  2
BYGG-024935$0$ISO
 70
     0
 40
0.0
 41
1.0
 50
0.0
 71
     0
 42
3.5
  3
txt
  4

  0
STYLE
  2
BYGG-024924$0$STANDARD
 70
     0
 40
0.0
 41
1.0
 50
0.0
 71
     0
 42
0.2
  3
txt
  4

  0
STYLE
  2
BYGG-024924$0$ISO
 70
     0
 40
0.0
 41
1.0
 50
0.0
 71
     0
 42
3.5
  3
txt
  4

  0
STYLE
  2
BYGG-024924$0$ANNOTATIVE
 70
     0
 40
0.0
 41
1.0
 50
0.0
 71
     0
 42
0.2
  3
txt
  4

  0
STYLE
  2
BYGG-028980$0$STANDARD
 70
     0
 40
0.0
 41
1.0
 50
0.0
 71
     0
 42
0.2
  3
txt
  4

  0
STYLE
  2
BYGG-028980$0$ISO
 70
     0
 40
0.0
 41
1.0
 50
0.0
 71
     0
 42
3.5
  3
txt
  4

  0
STYLE
  2
BYGG-034586$0$STANDARD
 70
     0
 40
0.0
 41
1.0
 50
0.0
 71
     0
 42
0.2
  3
txt
  4

  0
STYLE
  2
BYGG-034586$0$ISO
 70
     0
 40
0.0
 41
1.0
 50
0.0
 71
     0
 42
3.5
  3
txt
  4

  0
STYLE
  2
BYGG-034585$0$STANDARD
 70
     0
 40
0.0
 41
1.0
 50
0.0
 71
     0
 42
0.2
  3
txt
  4

  0
STYLE
  2
BYGG-034585$0$ISO
 70
     0
 40
0.0
 41
1.0
 50
0.0
 71
     0
 42
3.5
  3
txt
  4

  0
STYLE
  2
BYGG-038289$0$STANDARD
 70
     0
 40
0.0
 41
1.0
 50
0.0
 71
     0
 42
0.2
  3
txt
  4

  0
STYLE
  2
BYGG-038289$0$ISO
 70
     0
 40
0.0
 41
1.0
 50
0.0
 71
     0
 42
3.5
  3
txt
  4

  0
STYLE
  2
BYGG-014410$0$STANDARD
 70
     0
 40
0.0
 41
1.0
 50
0.0
 71
     0
 42
0.2
  3
txt
  4

  0
STYLE
  2
BYGG-014410$0$ISO
 70
     0
 40
0.0
 41
1.0
 50
0.0
 71
     0
 42
3.5
  3
isocp3.shx
  4

  0
STYLE
  2
BYGG-037560$0$STANDARD
 70
     0
 40
0.0
 41
1.0
 50
0.0
 71
     0
 42
0.2
  3
txt
  4

  0
STYLE
  2
BYGG-037560$0$ISO
 70
     0
 40
0.0
 41
1.0
 50
0.0
 71
     0
 42
3.5
  3
txt
  4

  0
STYLE
  2
BYGG-038291$0$STANDARD
 70
     0
 40
0.0
 41
1.0
 50
0.0
 71
     0
 42
0.2
  3
txt
  4

  0
STYLE
  2
BYGG-038291$0$ISO
 70
     0
 40
0.0
 41
1.0
 50
0.0
 71
     0
 42
3.5
  3
txt
  4

  0
STYLE
  2
BYGG-038291$0$SIMPLEX
 70
     0
 40
0.0
 41
1.0
 50
0.0
 71
     0
 42
4.0
  3
simplex
  4

  0
STYLE
  2
BYGG-038291$0$ANNOTATIVE
 70
     0
 40
0.0
 41
1.0
 50
0.0
 71
     0
 42
0.2
  3
txt
  4

  0
STYLE
  2
BYGG-038291$0$ROMANS
 70
     0
 40
0.0
 41
1.0
 50
0.0
 71
     0
 42
5.0
  3
romans
  4

  0
STYLE
  2
BYGG-038291$0$SEACAD_ARIAL
 70
     0
 40
0.0
 41
1.0
 50
0.0
 71
     0
 42
0.2
  3
txt
  4

  0
STYLE
  2
BYGG-031585$0$STANDARD
 70
     0
 40
0.0
 41
1.0
 50
0.0
 71
     0
 42
0.2
  3
txt
  4

  0
STYLE
  2
BYGG-031585$0$ISO
 70
     0
 40
0.0
 41
1.0
 50
0.0
 71
     0
 42
3.5
  3
txt
  4

  0
STYLE
  2
BYGG-031583$0$STANDARD
 70
     0
 40
0.0
 41
1.0
 50
0.0
 71
     0
 42
0.2
  3
txt
  4

  0
STYLE
  2
BYGG-031583$0$ISO
 70
     0
 40
0.0
 41
1.0
 50
0.0
 71
     0
 42
3.5
  3
txt
  4

  0
STYLE
  2
BYGG-031583$0$ANNOTATIVE
 70
     0
 40
0.0
 41
1.0
 50
0.0
 71
     0
 42
0.2
  3
txt
  4

  0
ENDTAB
  0
TABLE
  2
VIEW
 70
     0
  0
ENDTAB
  0
TABLE
  2
UCS
 70
     0
  0
ENDTAB
  0
TABLE
  2
APPID
 70
    56
  0
APPID
  2
ACAD
 70
     0
  0
APPID
  2
ACAD_PSEXT
 70
     0
  0
APPID
  2
ACAECLAYERSTANDARD
 70
     0
  0
APPID
  2
ACAD_MLEADERVER
 70
     0
  0
APPID
  2
ACAD_DSTYLE_DIMJAG
 70
     0
  0
APPID
  2
ACAD_DSTYLE_DIMTALN
 70
     0
  0
APPID
  2
ACAD_DSTYLE_DIMTEXT_FILL
 70
     0
  0
APPID
  2
ACAD_DSTYLE_DIMEXT_LENGTH
 70
     0
  0
APPID
  2
ACAD_DSTYLE_DIMEXT_ENABLED
 70
     0
  0
APPID
  2
ACAD_DSTYLE_DIM_LINETYPE
 70
     0
  0
APPID
  2
ACAD_DSTYLE_DIM_EXT1_LINETYPE
 70
     0
  0
APPID
  2
ACAD_DSTYLE_DIM_EXT2_LINETYPE
 70
     0
  0
APPID
  2
ACAD_DSTYLE_DIMJOGGED_JOGA
 70
     0
  0
APPID
  2
ACAD_DSTYLE_DIMARC_LENGTH_
 70
     0
  0
APPID
  2
ACDBDYNAMICBLOCKGUID
 70
     0
  0
APPID
  2
ACDBBLOCKREPETAG
 70
     0
  0
APPID
  2
ACAD_EXEMPT_FROM_CAD_STANDARDS
 70
     0
  0
APPID
  2
ACADANNOTATIVE
 70
     0
  0
APPID
  2
RC_PROFILE
 70
     0
  0
APPID
  2
ACAD_NAV_VCDISPLAY
 70
     0
  0
APPID
  2
ACAD_DSTYLE_DIMRADIAL_EXTENSION
 70
     0
  0
APPID
  2
ACAD_OBJECT_CHANGE_GUID
 70
     0
  0
APPID
  2
ACCMTRANSPARENCY
 70
     0
  0
APPID
  2
AVE_RENDER
 70
     0
  0
APPID
  2
AVE_ENTITY_MATERIAL
 70
     0
  0
APPID
  2
AVE_FINISH
 70
     0
  0
APPID
  2
AVE_MATERIAL
 70
     0
  0
APPID
  2
AVE_GLOBAL
 70
     0
  0
APPID
  2
4M_RENDER
 70
     0
  0
APPID
  2
LIBMAN
 70
     0
  0
APPID
  2
AUTOBUILD
 70
     0
  0
APPID
  2
AMG_ARCHIVE11
 70
     0
  0
APPID
  2
GRADIENTCOLOR1ACI
 70
     0
  0
APPID
  2
GRADIENTCOLOR2ACI
 70
     0
  0
APPID
  2
ACADANNOAV
 70
     0
  0
APPID
  2
DCO15
 70
     0
  0
APPID
  2
PE_URL
 70
     0
  0
APPID
  2
ACAUTHENVIRON
 70
     0
  0
APPID
  2
ACDBDYNAMICBLOCKTRUENAME
 70
     0
  0
APPID
  2
ACDBBLOCKREPBTAG
 70
     0
  0
APPID
  2
GENIUS_GENREC_14
 70
     0
  0
APPID
  2
GENIUS_GENOBJ-N-REC_13
 70
     0
  0
APPID
  2
GENIUS_GENODEF_13
 70
     0
  0
APPID
  2
GENIUS_GENTRA_14
 70
     0
  0
APPID
  2
GENIUS_GENOREF_13
 70
     0
  0
APPID
  2
GENIUS_GENSCREG_15
 70
     0
  0
APPID
  2
GENIUS_GENOBJ-N-SDF_13
 70
     0
  0
APPID
  2
ACADANNOPO
 70
     0
  0
APPID
  2
ACADBPTGRAPHNODEID
 70
     0
  0
APPID
  2
ACDBATTR
 70
     0
  0
APPID
  2
EDBMODELINFO
 70
     0
  0
APPID
  2
ACAD_DSTYLE_DIMBREAK
 70
     0
  0
APPID
  2
ACAD_DSTYLE_DIMINSPECT
 70
     0
  0
APPID
  2
GENIUS_GENOBJ-N-HTC_13
 70
     0
  0
APPID
  2
GENIUS_GENHATCH_13
 70
     0
  0
APPID
  2
ACADANNOMONITORALERTICONDI
 70
     0
  0
ENDTAB
  0
TABLE
  2
DIMSTYLE
 70
    42
  0
DIMSTYLE
  2
MASKIN
 70
     0
  3

  4

  5

  6

  7

 40
0.0
 41
3.0
 42
1.5
 43
10.0
 44
1.5
 45
0.0
 46
0.0
 47
0.0
 48
0.0
140
3.0
141
-5.0
142
0.0
143
25.399999999999999
144
-1.0
145
0.0
146
1.0
147
1.0
 71
     0
 72
     0
 73
     0
 74
     1
 75
     0
 76
     0
 77
     1
 78
     8
170
     0
171
     0
172
     1
173
     0
174
     0
175
     0
176
   256
177
   256
178
     2
  0
DIMSTYLE
  2
BYGG-032081$0$STANDARD
 70
     0
  3

  4

  5

  6

  7

 40
1.0
 41
0.18
 42
0.0625
 43
0.38
 44
0.18
 45
0.0
 46
0.0
 47
0.0
 48
0.0
140
0.18
141
0.09
142
0.0
143
25.399999999999999
144
1.0
145
0.0
146
1.0
147
0.09
 71
     0
 72
     0
 73
     1
 74
     1
 75
     0
 76
     0
 77
     0
 78
     0
170
     0
171
     2
172
     0
173
     0
174
     0
175
     0
176
     0
177
     0
178
     0
  0
DIMSTYLE
  2
BYGG-032081$0$MASKIN
 70
     0
  3

  4

  5

  6

  7

 40
0.0
 41
3.0
 42
1.5
 43
10.0
 44
1.5
 45
0.0
 46
0.0
 47
0.0
 48
0.0
140
3.0
141
-5.0
142
0.0
143
25.399999999999999
144
-1.0
145
0.0
146
1.0
147
1.0
 71
     0
 72
     0
 73
     0
 74
     0
 75
     0
 76
     0
 77
     1
 78
     8
170
     0
171
     0
172
     1
173
     0
174
     0
175
     0
176
   256
177
   256
178
     2
  0
DIMSTYLE
  2
BYGG-031696$0$STANDARD
 70
     0
  3

  4

  5

  6

  7

 40
1.0
 41
0.18
 42
0.0625
 43
0.38
 44
0.18
 45
0.0
 46
0.0
 47
0.0
 48
0.0
140
0.18
141
0.09
142
0.0
143
25.399999999999999
144
1.0
145
0.0
146
1.0
147
0.09
 71
     0
 72
     0
 73
     1
 74
     1
 75
     0
 76
     0
 77
     0
 78
     0
170
     0
171
     2
172
     0
173
     0
174
     0
175
     0
176
     0
177
     0
178
     0
  0
DIMSTYLE
  2
BYGG-031696$0$MASKIN
 70
     0
  3

  4

  5

  6

  7

 40
0.0
 41
3.0
 42
1.5
 43
10.0
 44
1.5
 45
0.0
 46
0.0
 47
0.0
 48
0.0
140
3.0
141
-5.0
142
0.0
143
25.399999999999999
144
-1.0
145
0.0
146
1.0
147
1.0
 71
     0
 72
     0
 73
     0
 74
     0
 75
     0
 76
     0
 77
     1
 78
     8
170
     0
171
     0
172
     1
173
     0
174
     0
175
     0
176
   256
177
   256
178
     2
  0
DIMSTYLE
  2
BYGG-014129$0$MASKIN
 70
     0
  3

  4

  5

  6

  7

 40
0.0
 41
3.0
 42
1.5
 43
10.0
 44
1.5
 45
0.0
 46
0.0
 47
0.0
 48
0.0
140
3.0
141
-5.0
142
0.0
143
25.399999999999999
144
-1.0
145
0.0
146
1.0
147
1.0
 71
     0
 72
     0
 73
     0
 74
     0
 75
     0
 76
     0
 77
     1
 78
     8
170
     0
171
     0
172
     1
173
     0
174
     0
175
     0
176
   256
177
   256
178
   256
  0
DIMSTYLE
  2
BYGG-014129$0$MASKIN1
 70
     0
  3

  4

  5

  6

  7

 40
1.0
 41
3.0
 42
1.5
 43
10.0
 44
1.5
 45
0.0
 46
0.0
 47
0.0
 48
0.0
140
3.0
141
-5.0
142
0.0
143
25.399999999999999
144
1.0
145
0.0
146
1.0
147
0.9
 71
     0
 72
     0
 73
     0
 74
     0
 75
     0
 76
     0
 77
     1
 78
     8
170
     0
171
     0
172
     1
173
     0
174
     0
175
     0
176
   256
177
   256
178
   256
  0
DIMSTYLE
  2
BYGG-014129$0$MASKIN2
 70
     0
  3

  4

  5

  6

  7

 40
1.0
 41
3.0
 42
1.5
 43
10.0
 44
1.5
 45
0.0
 46
0.0
 47
0.0
 48
0.0
140
3.0
141
-5.0
142
0.0
143
25.399999999999999
144
1.0
145
0.0
146
1.0
147
0.9
 71
     0
 72
     0
 73
     0
 74
     0
 75
     0
 76
     0
 77
     1
 78
     8
170
     0
171
     0
172
     1
173
     0
174
     0
175
     0
176
   256
177
   256
178
   256
  0
DIMSTYLE
  2
BYGG-014129$0$MASKIN3
 70
     0
  3

  4

  5

  6

  7

 40
1.0
 41
3.0
 42
1.5
 43
10.0
 44
1.5
 45
0.0
 46
0.0
 47
0.0
 48
0.0
140
3.0
141
-5.0
142
0.0
143
25.399999999999999
144
1.0
145
0.0
146
1.0
147
0.9
 71
     0
 72
     0
 73
     0
 74
     0
 75
     0
 76
     0
 77
     1
 78
     8
170
     0
171
     0
172
     1
173
     0
174
     0
175
     0
176
   256
177
   256
178
   256
  0
DIMSTYLE
  2
BYGG-014129$0$STANDARD
 70
     0
  3

  4

  5

  6

  7

 40
1.0
 41
0.18
 42
0.0625
 43
0.38
 44
0.18
 45
0.0
 46
0.0
 47
0.0
 48
0.0
140
0.18
141
0.09
142
0.0
143
25.399999999999999
144
1.0
145
0.0
146
1.0
147
0.09
 71
     0
 72
     0
 73
     1
 74
     1
 75
     0
 76
     0
 77
     0
 78
     0
170
     0
171
     2
172
     0
173
     0
174
     0
175
     0
176
     0
177
     0
178
     0
  0
DIMSTYLE
  2
BYGG-032080$0$STANDARD
 70
     0
  3

  4

  5

  6

  7

 40
1.0
 41
0.18
 42
0.0625
 43
0.38
 44
0.18
 45
0.0
 46
0.0
 47
0.0
 48
0.0
140
0.18
141
0.09
142
0.0
143
25.399999999999999
144
1.0
145
0.0
146
1.0
147
0.09
 71
     0
 72
     0
 73
     1
 74
     1
 75
     0
 76
     0
 77
     0
 78
     0
170
     0
171
     2
172
     0
173
     0
174
     0
175
     0
176
     0
177
     0
178
     0
  0
DIMSTYLE
  2
BYGG-032080$0$MASKIN
 70
     0
  3

  4

  5

  6

  7

 40
0.0
 41
3.0
 42
1.5
 43
10.0
 44
1.5
 45
0.0
 46
0.0
 47
0.0
 48
0.0
140
3.0
141
-5.0
142
0.0
143
25.399999999999999
144
-1.0
145
0.0
146
1.0
147
1.0
 71
     0
 72
     0
 73
     0
 74
     0
 75
     0
 76
     0
 77
     1
 78
     8
170
     0
171
     0
172
     1
173
     0
174
     0
175
     0
176
   256
177
   256
178
     2
  0
DIMSTYLE
  2
BYGG-031695$0$STANDARD
 70
     0
  3

  4

  5

  6

  7

 40
1.0
 41
0.18
 42
0.0625
 43
0.38
 44
0.18
 45
0.0
 46
0.0
 47
0.0
 48
0.0
140
0.18
141
0.09
142
0.0
143
25.399999999999999
144
1.0
145
0.0
146
1.0
147
0.09
 71
     0
 72
     0
 73
     1
 74
     1
 75
     0
 76
     0
 77
     0
 78
     0
170
     0
171
     2
172
     0
173
     0
174
     0
175
     0
176
     0
177
     0
178
     0
  0
DIMSTYLE
  2
BYGG-031695$0$MASKIN
 70
     0
  3

  4

  5

  6

  7

 40
0.0
 41
3.0
 42
1.5
 43
10.0
 44
1.5
 45
0.0
 46
0.0
 47
0.0
 48
0.0
140
3.0
141
-5.0
142
0.0
143
25.399999999999999
144
-1.0
145
0.0
146
1.0
147
1.0
 71
     0
 72
     0
 73
     0
 74
     0
 75
     0
 76
     0
 77
     1
 78
     8
170
     0
171
     0
172
     1
173
     0
174
     0
175
     0
176
   256
177
   256
178
     2
  0
DIMSTYLE
  2
BYGG-030385$0$STANDARD
 70
     0
  3

  4

  5

  6

  7

 40
1.0
 41
0.18
 42
0.0625
 43
0.38
 44
0.18
 45
0.0
 46
0.0
 47
0.0
 48
0.0
140
0.18
141
0.09
142
0.0
143
25.399999999999999
144
1.0
145
0.0
146
1.0
147
0.09
 71
     0
 72
     0
 73
     1
 74
     1
 75
     0
 76
     0
 77
     0
 78
     0
170
     0
171
     2
172
     0
173
     0
174
     0
175
     0
176
     0
177
     0
178
     0
  0
DIMSTYLE
  2
BYGG-030385$0$MASKIN
 70
     0
  3

  4

  5

  6

  7

 40
0.0
 41
3.0
 42
1.5
 43
10.0
 44
1.5
 45
0.0
 46
0.0
 47
0.0
 48
0.0
140
3.0
141
-5.0
142
0.0
143
25.399999999999999
144
-1.0
145
0.0
146
1.0
147
1.0
 71
     0
 72
     0
 73
     0
 74
     0
 75
     0
 76
     0
 77
     1
 78
     8
170
     0
171
     0
172
     1
173
     0
174
     0
175
     0
176
   256
177
   256
178
     2
  0
DIMSTYLE
  2
BYGG-024935$0$STANDARD
 70
     0
  3

  4

  5

  6

  7

 40
1.0
 41
0.18
 42
0.0625
 43
0.38
 44
0.18
 45
0.0
 46
0.0
 47
0.0
 48
0.0
140
0.18
141
0.09
142
0.0
143
25.399999999999999
144
1.0
145
0.0
146
1.0
147
0.09
 71
     0
 72
     0
 73
     1
 74
     1
 75
     0
 76
     0
 77
     0
 78
     0
170
     0
171
     2
172
     0
173
     0
174
     0
175
     0
176
     0
177
     0
178
     0
  0
DIMSTYLE
  2
BYGG-024935$0$MASKIN
 70
     0
  3

  4

  5

  6

  7

 40
0.0
 41
3.0
 42
1.5
 43
10.0
 44
1.5
 45
0.0
 46
0.0
 47
0.0
 48
0.0
140
3.0
141
-5.0
142
0.0
143
25.399999999999999
144
-1.0
145
0.0
146
1.0
147
1.0
 71
     0
 72
     0
 73
     0
 74
     0
 75
     0
 76
     0
 77
     1
 78
     8
170
     0
171
     0
172
     1
173
     0
174
     0
175
     0
176
   256
177
   256
178
     2
  0
DIMSTYLE
  2
BYGG-024924$0$MASKIN
 70
     0
  3

  4

  5

  6

  7

 40
0.0
 41
3.0
 42
1.5
 43
10.0
 44
1.5
 45
0.0
 46
0.0
 47
0.0
 48
0.0
140
3.0
141
-5.0
142
0.0
143
25.399999999999999
144
-1.0
145
0.0
146
1.0
147
1.0
 71
     0
 72
     0
 73
     0
 74
     0
 75
     0
 76
     0
 77
     1
 78
     8
170
     0
171
     0
172
     1
173
     0
174
     0
175
     0
176
   256
177
   256
178
     2
  0
DIMSTYLE
  2
BYGG-024924$0$STANDARD
 70
     0
  3

  4

  5

  6

  7

 40
1.0
 41
0.18
 42
0.0625
 43
0.38
 44
0.18
 45
0.0
 46
0.0
 47
0.0
 48
0.0
140
0.18
141
0.09
142
0.0
143
25.399999999999999
144
1.0
145
0.0
146
1.0
147
0.09
 71
     0
 72
     0
 73
     1
 74
     1
 75
     0
 76
     0
 77
     0
 78
     0
170
     0
171
     2
172
     0
173
     0
174
     0
175
     0
176
     0
177
     0
178
     0
  0
DIMSTYLE
  2
BYGG-024924$0$ANNOTATIVE
 70
     0
  3

  4

  5

  6

  7

 40
1.0
 41
0.18
 42
0.0625
 43
0.38
 44
0.18
 45
0.0
 46
0.0
 47
0.0
 48
0.0
140
0.18
141
0.09
142
0.0
143
25.399999999999999
144
1.0
145
0.0
146
1.0
147
0.09
 71
     0
 72
     0
 73
     1
 74
     1
 75
     0
 76
     0
 77
     0
 78
     0
170
     0
171
     2
172
     0
173
     0
174
     0
175
     0
176
     0
177
     0
178
     0
  0
DIMSTYLE
  2
BYGG-028980$0$STANDARD
 70
     0
  3

  4

  5

  6

  7

 40
1.0
 41
0.18
 42
0.0625
 43
0.38
 44
0.18
 45
0.0
 46
0.0
 47
0.0
 48
0.0
140
0.18
141
0.09
142
0.0
143
25.399999999999999
144
1.0
145
0.0
146
1.0
147
0.09
 71
     0
 72
     0
 73
     1
 74
     1
 75
     0
 76
     0
 77
     0
 78
     0
170
     0
171
     2
172
     0
173
     0
174
     0
175
     0
176
     0
177
     0
178
     0
  0
DIMSTYLE
  2
BYGG-028980$0$MASKIN
 70
     0
  3

  4

  5

  6

  7

 40
0.0
 41
3.0
 42
1.5
 43
10.0
 44
1.5
 45
0.0
 46
0.0
 47
0.0
 48
0.0
140
3.0
141
-5.0
142
0.0
143
25.399999999999999
144
-1.0
145
0.0
146
1.0
147
1.0
 71
     0
 72
     0
 73
     0
 74
     0
 75
     0
 76
     0
 77
     1
 78
     8
170
     0
171
     0
172
     1
173
     0
174
     0
175
     0
176
   256
177
   256
178
     2
  0
DIMSTYLE
  2
BYGG-034586$0$STANDARD
 70
     0
  3

  4

  5

  6

  7

 40
1.0
 41
0.18
 42
0.0625
 43
0.38
 44
0.18
 45
0.0
 46
0.0
 47
0.0
 48
0.0
140
0.18
141
0.09
142
0.0
143
25.399999999999999
144
1.0
145
0.0
146
1.0
147
0.09
 71
     0
 72
     0
 73
     1
 74
     1
 75
     0
 76
     0
 77
     0
 78
     0
170
     0
171
     2
172
     0
173
     0
174
     0
175
     0
176
     0
177
     0
178
     0
  0
DIMSTYLE
  2
BYGG-034586$0$MASKIN
 70
     0
  3

  4

  5

  6

  7

 40
0.0
 41
3.0
 42
1.5
 43
10.0
 44
1.5
 45
0.0
 46
0.0
 47
0.0
 48
0.0
140
3.0
141
-5.0
142
0.0
143
25.399999999999999
144
-1.0
145
0.0
146
1.0
147
1.0
 71
     0
 72
     0
 73
     0
 74
     0
 75
     0
 76
     0
 77
     1
 78
     8
170
     0
171
     0
172
     1
173
     0
174
     0
175
     0
176
   256
177
   256
178
     2
  0
DIMSTYLE
  2
BYGG-034585$0$STANDARD
 70
     0
  3

  4

  5

  6

  7

 40
1.0
 41
0.18
 42
0.0625
 43
0.38
 44
0.18
 45
0.0
 46
0.0
 47
0.0
 48
0.0
140
0.18
141
0.09
142
0.0
143
25.399999999999999
144
1.0
145
0.0
146
1.0
147
0.09
 71
     0
 72
     0
 73
     1
 74
     1
 75
     0
 76
     0
 77
     0
 78
     0
170
     0
171
     2
172
     0
173
     0
174
     0
175
     0
176
     0
177
     0
178
     0
  0
DIMSTYLE
  2
BYGG-034585$0$MASKIN
 70
     0
  3

  4

  5

  6

  7

 40
0.0
 41
3.0
 42
1.5
 43
10.0
 44
1.5
 45
0.0
 46
0.0
 47
0.0
 48
0.0
140
3.0
141
-5.0
142
0.0
143
25.399999999999999
144
-1.0
145
0.0
146
1.0
147
1.0
 71
     0
 72
     0
 73
     0
 74
     0
 75
     0
 76
     0
 77
     1
 78
     8
170
     0
171
     0
172
     1
173
     0
174
     0
175
     0
176
   256
177
   256
178
     2
  0
DIMSTYLE
  2
BYGG-038289$0$STANDARD
 70
     0
  3

  4

  5

  6

  7

 40
1.0
 41
0.18
 42
0.0625
 43
0.38
 44
0.18
 45
0.0
 46
0.0
 47
0.0
 48
0.0
140
0.18
141
0.09
142
0.0
143
25.399999999999999
144
1.0
145
0.0
146
1.0
147
0.09
 71
     0
 72
     0
 73
     1
 74
     1
 75
     0
 76
     0
 77
     0
 78
     0
170
     0
171
     2
172
     0
173
     0
174
     0
175
     0
176
     0
177
     0
178
     0
  0
DIMSTYLE
  2
BYGG-038289$0$MASKIN
 70
     0
  3

  4

  5

  6

  7

 40
0.0
 41
3.0
 42
1.5
 43
10.0
 44
1.5
 45
0.0
 46
0.0
 47
0.0
 48
0.0
140
3.0
141
-5.0
142
0.0
143
25.399999999999999
144
-1.0
145
0.0
146
1.0
147
1.0
 71
     0
 72
     0
 73
     0
 74
     0
 75
     0
 76
     0
 77
     1
 78
     8
170
     0
171
     0
172
     1
173
     0
174
     0
175
     0
176
   256
177
   256
178
     2
  0
DIMSTYLE
  2
BYGG-014410$0$MASKIN
 70
     0
  3

  4

  5

  6

  7

 40
0.0
 41
3.0
 42
1.5
 43
10.0
 44
1.5
 45
0.0
 46
0.0
 47
0.0
 48
0.0
140
3.0
141
-5.0
142
0.0
143
25.399999999999999
144
-1.0
145
0.0
146
1.0
147
1.0
 71
     0
 72
     0
 73
     0
 74
     0
 75
     0
 76
     0
 77
     1
 78
     8
170
     0
171
     0
172
     1
173
     0
174
     0
175
     0
176
   256
177
   256
178
   256
  0
DIMSTYLE
  2
BYGG-014410$0$STANDARD
 70
     0
  3

  4

  5

  6

  7

 40
1.0
 41
0.18
 42
0.0625
 43
0.38
 44
0.18
 45
0.0
 46
0.0
 47
0.0
 48
0.0
140
0.18
141
0.09
142
0.0
143
25.399999999999999
144
1.0
145
0.0
146
1.0
147
0.09
 71
     0
 72
     0
 73
     1
 74
     1
 75
     0
 76
     0
 77
     0
 78
     0
170
     0
171
     2
172
     0
173
     0
174
     0
175
     0
176
     0
177
     0
178
     0
  0
DIMSTYLE
  2
BYGG-037560$0$STANDARD
 70
     0
  3

  4

  5

  6

  7

 40
1.0
 41
0.18
 42
0.0625
 43
0.38
 44
0.18
 45
0.0
 46
0.0
 47
0.0
 48
0.0
140
0.18
141
0.09
142
0.0
143
25.399999999999999
144
1.0
145
0.0
146
1.0
147
0.09
 71
     0
 72
     0
 73
     1
 74
     1
 75
     0
 76
     0
 77
     0
 78
     0
170
     0
171
     2
172
     0
173
     0
174
     0
175
     0
176
     0
177
     0
178
     0
  0
DIMSTYLE
  2
BYGG-037560$0$MASKIN
 70
     0
  3

  4

  5

  6

  7

 40
0.0
 41
3.0
 42
1.5
 43
10.0
 44
1.5
 45
0.0
 46
0.0
 47
0.0
 48
0.0
140
3.0
141
-5.0
142
0.0
143
25.399999999999999
144
-1.0
145
0.0
146
1.0
147
1.0
 71
     0
 72
     0
 73
     0
 74
     0
 75
     0
 76
     0
 77
     1
 78
     8
170
     0
171
     0
172
     1
173
     0
174
     0
175
     0
176
   256
177
   256
178
     2
  0
DIMSTYLE
  2
BYGG-038291$0$STANDARD
 70
     0
  3

  4

  5

  6

  7

 40
1.0
 41
0.18
 42
0.0625
 43
0.38
 44
0.18
 45
0.0
 46
0.0
 47
0.0
 48
0.0
140
0.18
141
0.09
142
0.0
143
25.399999999999999
144
1.0
145
0.0
146
1.0
147
0.09
 71
     0
 72
     0
 73
     1
 74
     1
 75
     0
 76
     0
 77
     0
 78
     0
170
     0
171
     2
172
     0
173
     0
174
     0
175
     0
176
     0
177
     0
178
     0
  0
DIMSTYLE
  2
BYGG-038291$0$MASKIN
 70
     0
  3

  4

  5

  6

  7

 40
0.0
 41
3.0
 42
1.5
 43
10.0
 44
1.5
 45
0.0
 46
0.0
 47
0.0
 48
0.0
140
3.0
141
-5.0
142
0.0
143
25.399999999999999
144
-1.0
145
0.0
146
1.0
147
1.0
 71
     0
 72
     0
 73
     0
 74
     0
 75
     0
 76
     0
 77
     1
 78
     8
170
     0
171
     0
172
     1
173
     0
174
     0
175
     0
176
   256
177
   256
178
     2
  0
DIMSTYLE
  2
BYGG-038291$0$ANNOTATIVE
 70
     0
  3

  4

  5

  6

  7

 40
1.0
 41
0.18
 42
0.0625
 43
0.38
 44
0.18
 45
0.0
 46
0.0
 47
0.0
 48
0.0
140
0.18
141
0.09
142
0.0
143
25.399999999999999
144
1.0
145
0.0
146
1.0
147
0.09
 71
     0
 72
     0
 73
     1
 74
     1
 75
     0
 76
     0
 77
     0
 78
     0
170
     0
171
     2
172
     0
173
     0
174
     0
175
     0
176
     0
177
     0
178
     0
  0
DIMSTYLE
  2
BYGG-038291$0$STANDARD$4
 70
     0
  3

  4

  5

  6

  7

 40
1.0
 41
2.5
 42
2.0
 43
3.75
 44
1.0
 45
0.0
 46
0.0
 47
0.0
 48
0.0
140
5.0
141
3.0
142
0.0
143
0.0394
144
1.0
145
1.0
146
1.0
147
1.0
 71
     0
 72
     0
 73
     1
 74
     0
 75
     0
 76
     0
 77
     1
 78
     8
170
     0
171
     2
172
     1
173
     0
174
     0
175
     0
176
     5
177
     5
178
     5
  0
DIMSTYLE
  2
BYGG-031585$0$STANDARD
 70
     0
  3

  4

  5

  6

  7

 40
1.0
 41
0.18
 42
0.0625
 43
0.38
 44
0.18
 45
0.0
 46
0.0
 47
0.0
 48
0.0
140
0.18
141
0.09
142
0.0
143
25.399999999999999
144
1.0
145
0.0
146
1.0
147
0.09
 71
     0
 72
     0
 73
     1
 74
     1
 75
     0
 76
     0
 77
     0
 78
     0
170
     0
171
     2
172
     0
173
     0
174
     0
175
     0
176
     0
177
     0
178
     0
  0
DIMSTYLE
  2
BYGG-031585$0$MASKIN
 70
     0
  3

  4

  5

  6

  7

 40
0.0
 41
3.0
 42
1.5
 43
10.0
 44
1.5
 45
0.0
 46
0.0
 47
0.0
 48
0.0
140
3.0
141
-5.0
142
0.0
143
25.399999999999999
144
-1.0
145
0.0
146
1.0
147
1.0
 71
     0
 72
     0
 73
     0
 74
     0
 75
     0
 76
     0
 77
     1
 78
     8
170
     0
171
     0
172
     1
173
     0
174
     0
175
     0
176
   256
177
   256
178
     2
  0
DIMSTYLE
  2
BYGG-031583$0$STANDARD
 70
     0
  3

  4

  5

  6

  7

 40
1.0
 41
0.18
 42
0.0625
 43
0.38
 44
0.18
 45
0.0
 46
0.0
 47
0.0
 48
0.0
140
0.18
141
0.09
142
0.0
143
25.399999999999999
144
1.0
145
0.0
146
1.0
147
0.09
 71
     0
 72
     0
 73
     1
 74
     1
 75
     0
 76
     0
 77
     0
 78
     0
170
     0
171
     2
172
     0
173
     0
174
     0
175
     0
176
     0
177
     0
178
     0
  0
DIMSTYLE
  2
BYGG-031583$0$MASKIN
 70
     0
  3

  4

  5

  6

  7

 40
0.0
 41
3.0
 42
1.5
 43
10.0
 44
1.5
 45
0.0
 46
0.0
 47
0.0
 48
0.0
140
3.0
141
-5.0
142
0.0
143
25.399999999999999
144
-1.0
145
0.0
146
1.0
147
1.0
 71
     0
 72
     0
 73
     0
 74
     0
 75
     0
 76
     0
 77
     1
 78
     8
170
     0
171
     0
172
     1
173
     0
174
     0
175
     0
176
   256
177
   256
178
     2
  0
DIMSTYLE
  2
BYGG-031583$0$ANNOTATIVE
 70
     0
  3

  4

  5

  6

  7

 40
1.0
 41
0.18
 42
0.0625
 43
0.38
 44
0.18
 45
0.0
 46
0.0
 47
0.0
 48
0.0
140
0.18
141
0.09
142
0.0
143
25.399999999999999
144
1.0
145
0.0
146
1.0
147
0.09
 71
     0
 72
     0
 73
     1
 74
     1
 75
     0
 76
     0
 77
     0
 78
     0
170
     0
171
     2
172
     0
173
     0
174
     0
175
     0
176
     0
177
     0
178
     0
  0
ENDTAB
  0
ENDSEC
  0
SECTION
  2
BLOCKS
  0
BLOCK
  8
0
  2
$MODEL_SPACE
 70
     0
 10
0.0
 20
0.0
 30
0.0
  3
$MODEL_SPACE
  1

  0
ENDBLK
  5
D
  8
0
  0
BLOCK
 67
     1
  8
0
  2
$PAPER_SPACE
 70
     0
 10
0.0
 20
0.0
 30
0.0
  3
$PAPER_SPACE
  1

  0
ENDBLK
  5
12
 67
     1
  8
0
  0
BLOCK
  8
0
  2
*D59
 70
     1
 10
0.0
 20
0.0
 30
0.0
  3
*D59
  1

  0
LINE
  5
174F
  8
SAPA_MATT
 10
222.40653477650781
 20
-11.15355835991434
 30
0.0
 11
242.44007411366249
 21
-11.153558359914349
 31
0.0
  0
LINE
  5
1750
  8
SAPA_MATT
 10
212.3565347637047
 20
-26.153558359943752
 30
0.0
 11
242.44007411366249
 21
-26.153558359943759
 31
0.0
  0
LINE
  5
1751
  8
SAPA_MATT
 10
240.94007411366249
 20
-14.153558359914349
 30
0.0
 11
240.94007411366249
 21
-23.153558359943759
 31
0.0
  0
SOLID
  5
1752
  8
SAPA_MATT
 10
240.44007411366249
 20
-14.153558359914349
 30
0.0
 11
241.44007411366249
 21
-14.153558359914349
 31
0.0
 12
240.94007411366249
 22
-11.153558359914349
 32
0.0
 13
240.94007411366249
 23
-11.153558359914349
 33
0.0
  0
SOLID
  5
1753
  8
SAPA_MATT
 10
240.44007411366249
 20
-23.153558359943759
 30
0.0
 11
241.44007411366249
 21
-23.153558359943759
 31
0.0
 12
240.94007411366249
 22
-26.153558359943759
 32
0.0
 13
240.94007411366249
 23
-26.153558359943759
 33
0.0
  0
INSERT
  5
1754
  8
0
  2
*U64
 10
0.0
 20
0.0
 30
0.0
  0
POINT
  5
1755
  8
DEFPOINTS
 62
     0
 10
220.90653477650781
 20
-11.15355835991434
 30
0.0
  0
POINT
  5
1756
  8
DEFPOINTS
 62
     0
 10
210.8565347637047
 20
-26.153558359943752
 30
0.0
  0
POINT
  5
1757
  8
DEFPOINTS
 62
     0
 10
240.94007411366249
 20
-26.153558359943759
 30
0.0
  0
ENDBLK
  5
1730
  8
0
  0
BLOCK
  8
0
  2
*D60
 70
     1
 10
0.0
 20
0.0
 30
0.0
  3
*D60
  1

  0
LINE
  5
1746
  8
SAPA_MATT
 10
222.40653477650781
 20
-26.15355835994384
 30
0.0
 11
242.4400741136626
 21
-26.15355835994384
 31
0.0
  0
LINE
  5
1747
  8
SAPA_MATT
 10
213.95653476370501
 20
-36.15355835994378
 30
0.0
 11
242.4400741136626
 21
-36.153558359943787
 31
0.0
  0
LINE
  5
1748
  8
SAPA_MATT
 10
240.9400741136626
 20
-29.153558359943851
 30
0.0
 11
240.9400741136626
 21
-33.153558359943787
 31
0.0
  0
SOLID
  5
1749
  8
SAPA_MATT
 10
240.4400741136626
 20
-29.153558359943851
 30
0.0
 11
241.44007411366249
 21
-29.153558359943851
 31
0.0
 12
240.9400741136626
 22
-26.15355835994384
 32
0.0
 13
240.9400741136626
 23
-26.15355835994384
 33
0.0
  0
SOLID
  5
174A
  8
SAPA_MATT
 10
240.4400741136626
 20
-33.153558359943787
 30
0.0
 11
241.44007411366249
 21
-33.153558359943787
 31
0.0
 12
240.9400741136626
 22
-36.153558359943787
 32
0.0
 13
240.9400741136626
 23
-36.153558359943787
 33
0.0
  0
INSERT
  5
174B
  8
0
  2
*U63
 10
0.0
 20
0.0
 30
0.0
  0
POINT
  5
174C
  8
DEFPOINTS
 62
     0
 10
220.90653477650781
 20
-26.15355835994384
 30
0.0
  0
POINT
  5
174D
  8
DEFPOINTS
 62
     0
 10
212.45653476370501
 20
-36.15355835994378
 30
0.0
  0
POINT
  5
174E
  8
DEFPOINTS
 62
     0
 10
240.9400741136626
 20
-36.153558359943787
 30
0.0
  0
ENDBLK
  5
173C
  8
0
  0
BLOCK
  8
0
  2
*X61
 70
     1
 10
0.0
 20
0.0
 30
0.0
  3
*X61
  1

  0
LINE
  5
1E5F
  8
0
 62
     0
 10
193.90653474774609
 20
76.348364503118432
 30
0.0
 11
189.258457617537
 21
80.996441633327507
 31
0.0
  0
LINE
  5
1E60
  8
0
 62
     0
 10
181.55868259682461
 20
79.715960532970726
 30
0.0
 11
180.2782014964678
 21
80.996441633327493
 31
0.0
  0
LINE
  5
1E61
  8
0
 62
     0
 10
182.68121461195821
 20
78.593428517837083
 30
0.0
 11
182.68121461195821
 21
78.593428517837083
 31
0.0
  0
LINE
  5
1E62
  8
0
 62
     0
 10
189.4164067027601
 20
71.858236427035223
 30
0.0
 11
183.8037466270919
 21
77.47089650270344
 31
0.0
  0
LINE
  5
1E63
  8
0
 62
     0
 10
190.53893871789381
 20
70.73570441190158
 30
0.0
 11
190.53893871789381
 21
70.73570441190158
 31
0.0
  0
LINE
  5
1E64
  8
0
 62
     0
 10
193.90653474774609
 20
67.368108382049286
 30
0.0
 11
191.6614707330275
 21
69.613172396767936
 31
0.0
  0
LINE
  5
1E65
  8
0
 62
     0
 10
177.06855453629001
 20
75.225832472436139
 30
0.0
 11
171.45589446062181
 21
80.838492548104355
 31
0.0
  0
LINE
  5
1E66
  8
0
 62
     0
 10
178.19108655142369
 20
74.103300457302495
 30
0.0
 11
178.19108655142369
 21
74.103300457302495
 31
0.0
  0
LINE
  5
1E67
  8
0
 62
     0
 10
184.92627864222561
 20
67.368108366500635
 30
0.0
 11
179.3136185665573
 21
72.980768442168852
 31
0.0
  0
LINE
  5
1E68
  8
0
 62
     0
 10
186.04881065735921
 20
66.245576351366992
 30
0.0
 11
186.04881065735921
 21
66.245576351366992
 31
0.0
  0
LINE
  5
1E69
  8
0
 62
     0
 10
192.7840027481611
 20
59.510384260565132
 30
0.0
 11
187.1713426724929
 21
65.123044336233335
 31
0.0
  0
LINE
  5
1E6A
  8
0
 62
     0
 10
164.7207023698198
 20
78.593428517837069
 30
0.0
 11
163.90653474774589
 21
79.407596139910964
 31
0.0
  0
LINE
  5
1E6B
  8
0
 62
     0
 10
165.84323438495349
 20
77.470896502703425
 30
0.0
 11
165.84323438495349
 21
77.470896502703425
 31
0.0
  0
LINE
  5
1E6C
  8
0
 62
     0
 10
172.57842647575541
 20
70.735704411901565
 30
0.0
 11
166.9657664000872
 21
76.348364487569782
 31
0.0
  0
LINE
  5
1E6D
  8
0
 62
     0
 10
173.70095849088901
 20
69.613172396767922
 30
0.0
 11
173.70095849088901
 21
69.613172396767922
 31
0.0
  0
LINE
  5
1E6E
  8
0
 62
     0
 10
180.4361505816909
 20
62.877980305966048
 30
0.0
 11
174.82349050602269
 21
68.490640381634279
 31
0.0
  0
LINE
  5
1E6F
  8
0
 62
     0
 10
181.55868259682461
 20
61.755448290832412
 30
0.0
 11
181.55868259682461
 21
61.755448290832412
 31
0.0
  0
LINE
  5
1E70
  8
0
 62
     0
 10
188.2938746876265
 20
55.020256200030538
 30
0.0
 11
182.68121461195821
 21
60.632916275698769
 31
0.0
  0
LINE
  5
1E71
  8
0
 62
     0
 10
189.4164067027601
 20
53.897724184896902
 30
0.0
 11
189.4164067027601
 21
53.897724184896902
 31
0.0
  0
LINE
  5
1E72
  8
0
 62
     0
 10
193.90653474774609
 20
49.407596139910972
 30
0.0
 11
190.53893871789381
 21
52.775192169763258
 31
0.0
  0
LINE
  5
1E73
  8
0
 62
     0
 10
168.08829841522081
 20
66.245576351366992
 30
0.0
 11
163.90653474774589
 21
70.427340018841832
 31
0.0
  0
LINE
  5
1E74
  8
0
 62
     0
 10
169.21083043035449
 20
65.123044336233335
 30
0.0
 11
169.21083043035449
 21
65.123044336233335
 31
0.0
  0
LINE
  5
1E75
  8
0
 62
     0
 10
175.94602252115629
 20
58.387852245431482
 30
0.0
 11
170.33336244548809
 21
64.000512321099706
 31
0.0
  0
LINE
  5
1E76
  8
0
 62
     0
 10
177.06855453629001
 20
57.265320230297839
 30
0.0
 11
177.06855453629001
 21
57.265320230297839
 31
0.0
  0
LINE
  5
1E77
  8
0
 62
     0
 10
183.8037466270919
 20
50.530128139495972
 30
0.0
 11
178.19108655142361
 21
56.142788215164188
 31
0.0
  0
LINE
  5
1E78
  8
0
 62
     0
 10
184.9262786422255
 20
49.407596124362328
 30
0.0
 11
184.9262786422255
 21
49.407596124362328
 31
0.0
  0
LINE
  5
1E79
  8
0
 62
     0
 10
191.66147073302739
 20
42.672404033560461
 30
0.0
 11
186.04881065735921
 21
48.285064109228692
 31
0.0
  0
LINE
  5
1E7A
  8
0
 62
     0
 10
192.7840027481611
 20
41.549872018426818
 30
0.0
 11
192.7840027481611
 21
41.549872018426818
 31
0.0
  0
LINE
  5
1E7B
  8
0
 62
     0
 10
164.72070236981989
 20
60.632916275698769
 30
0.0
 11
164.72070236981989
 21
60.632916275698769
 31
0.0
  0
LINE
  5
1E7C
  8
0
 62
     0
 10
171.45589446062169
 20
53.897724184896902
 30
0.0
 11
165.84323438495349
 21
59.510384260565132
 31
0.0
  0
LINE
  5
1E7D
  8
0
 62
     0
 10
172.57842647575541
 20
52.775192169763258
 30
0.0
 11
172.57842647575541
 21
52.775192169763258
 31
0.0
  0
LINE
  5
1E7E
  8
0
 62
     0
 10
179.3136185665573
 20
46.040000078961377
 30
0.0
 11
173.70095849088909
 21
51.652660154629608
 31
0.0
  0
LINE
  5
1E7F
  8
0
 62
     0
 10
180.43615058169101
 20
44.917468063827741
 30
0.0
 11
180.43615058169101
 21
44.917468063827741
 31
0.0
  0
LINE
  5
1E80
  8
0
 62
     0
 10
187.17134267249281
 20
38.182275973025881
 30
0.0
 11
181.55868259682461
 21
43.794936048694098
 31
0.0
  0
LINE
  5
1E81
  8
0
 62
     0
 10
188.2938746876265
 20
37.059743957892238
 30
0.0
 11
188.2938746876265
 21
37.059743957892238
 31
0.0
  0
LINE
  5
1E82
  8
0
 62
     0
 10
193.90653474774609
 20
31.447083897772689
 30
0.0
 11
189.41640670276021
 21
35.937211942758601
 31
0.0
  0
LINE
  5
1E83
  8
0
 62
     0
 10
166.96576640008709
 20
49.407596124362342
 30
0.0
 11
163.90653474774589
 21
52.466827776703532
 31
0.0
  0
LINE
  5
1E84
  8
0
 62
     0
 10
168.08829841522081
 20
48.285064109228692
 30
0.0
 11
168.08829841522081
 21
48.285064109228692
 31
0.0
  0
LINE
  5
1E85
  8
0
 62
     0
 10
174.82349050602269
 20
41.549872018426818
 30
0.0
 11
169.21083043035449
 21
47.162532094095042
 31
0.0
  0
LINE
  5
1E86
  8
0
 62
     0
 10
175.94602252115629
 20
40.427340003293182
 30
0.0
 11
175.94602252115629
 21
40.427340003293182
 31
0.0
  0
LINE
  5
1E87
  8
0
 62
     0
 10
182.68121461195821
 20
33.692147912491308
 30
0.0
 11
177.06855453629001
 21
39.304807988159538
 31
0.0
  0
LINE
  5
1E88
  8
0
 62
     0
 10
183.8037466270919
 20
32.569615897357671
 30
0.0
 11
183.8037466270919
 21
32.569615897357671
 31
0.0
  0
LINE
  5
1E89
  8
0
 62
     0
 10
190.53893871789381
 20
25.834423806555812
 30
0.0
 11
184.9262786422255
 21
31.447083882224032
 31
0.0
  0
LINE
  5
1E8A
  8
0
 62
     0
 10
191.66147073302739
 20
24.711891791422161
 30
0.0
 11
191.66147073302739
 21
24.711891791422161
 31
0.0
  0
LINE
  5
1E8B
  8
0
 62
     0
 10
193.90653474774609
 20
22.466827776703528
 30
0.0
 11
192.7840027481611
 21
23.589359776288521
 31
0.0
  0
LINE
  5
1E8C
  8
0
 62
     0
 10
170.33336244548809
 20
37.059743957892238
 30
0.0
 11
164.72070236981989
 21
42.672404033560461
 31
0.0
  0
LINE
  5
1E8D
  8
0
 62
     0
 10
171.45589446062181
 20
35.937211942758601
 30
0.0
 11
171.45589446062181
 21
35.937211942758601
 31
0.0
  0
LINE
  5
1E8E
  8
0
 62
     0
 10
178.19108655142369
 20
29.202019851956731
 30
0.0
 11
172.57842647575541
 21
34.814679927624951
 31
0.0
  0
LINE
  5
1E8F
  8
0
 62
     0
 10
179.3136185665573
 20
28.07948783682308
 30
0.0
 11
179.3136185665573
 21
28.07948783682308
 31
0.0
  0
LINE
  5
1E90
  8
0
 62
     0
 10
186.04881065735921
 20
21.344295746021221
 30
0.0
 11
180.43615058169101
 21
26.956955821689441
 31
0.0
  0
LINE
  5
1E91
  8
0
 62
     0
 10
187.1713426724929
 20
20.221763730887581
 30
0.0
 11
187.1713426724929
 21
20.221763730887581
 31
0.0
  0
LINE
  5
1E92
  8
0
 62
     0
 10
193.90653474774609
 20
13.48657165563438
 30
0.0
 11
188.2938746876265
 21
19.09923171575393
 31
0.0
  0
LINE
  5
1E93
  8
0
 62
     0
 10
165.84323438495349
 20
32.569615897357671
 30
0.0
 11
163.90653474774601
 21
34.506315534565232
 31
0.0
  0
LINE
  5
1E94
  8
0
 62
     0
 10
166.9657664000872
 20
31.447083882224032
 30
0.0
 11
166.9657664000872
 21
31.447083882224032
 31
0.0
  0
LINE
  5
1E95
  8
0
 62
     0
 10
173.70095849088909
 20
24.711891791422161
 30
0.0
 11
168.08829841522081
 21
30.324551867090388
 31
0.0
  0
LINE
  5
1E96
  8
0
 62
     0
 10
174.82349050602269
 20
23.589359776288521
 30
0.0
 11
174.82349050602269
 21
23.589359776288521
 31
0.0
  0
LINE
  5
1E97
  8
0
 62
     0
 10
181.55868259682461
 20
16.854167685486662
 30
0.0
 11
175.94602252115641
 21
22.466827761154882
 31
0.0
  0
LINE
  5
1E98
  8
0
 62
     0
 10
182.6812146119583
 20
15.731635670353009
 30
0.0
 11
182.6812146119583
 21
15.731635670353009
 31
0.0
  0
LINE
  5
1E99
  8
0
 62
     0
 10
189.41640670276021
 20
8.9964435795511495
 30
0.0
 11
183.8037466270919
 21
14.60910365521937
 31
0.0
  0
LINE
  5
1E9A
  8
0
 62
     0
 10
169.21083043035449
 20
20.221763730887581
 30
0.0
 11
163.90653474774601
 21
25.526059413496078
 31
0.0
  0
LINE
  5
1E9B
  8
0
 62
     0
 10
170.33336244548821
 20
19.09923171575393
 30
0.0
 11
170.33336244548821
 21
19.09923171575393
 31
0.0
  0
LINE
  5
1E9C
  8
0
 62
     0
 10
177.06855453629001
 20
12.364039624952071
 30
0.0
 11
171.45589446062181
 21
17.976699700620291
 31
0.0
  0
LINE
  5
1E9D
  8
0
 62
     0
 10
178.19108655142369
 20
11.241507609818431
 30
0.0
 11
178.19108655142369
 21
11.241507609818431
 31
0.0
  0
LINE
  5
1E9E
  8
0
 62
     0
 10
180.43615252791469
 20
8.996441633327489
 30
0.0
 11
179.31361856655741
 21
10.11897559468478
 31
0.0
  0
LINE
  5
1E9F
  8
0
 62
     0
 10
164.72070236982
 20
15.731635670353009
 30
0.0
 11
163.90653474774601
 21
16.545803292426939
 31
0.0
  0
LINE
  5
1EA0
  8
0
 62
     0
 10
165.8432343849536
 20
14.609103655219361
 30
0.0
 11
165.8432343849536
 21
14.609103655219361
 31
0.0
  0
LINE
  5
1EA1
  8
0
 62
     0
 10
171.45589640684551
 20
8.9964416333274873
 30
0.0
 11
166.96576640008729
 21
13.486571640085719
 31
0.0
  0
LINE
  5
1EA2
  8
0
 62
     0
 10
193.90653474777059
 20
80.838490624163114
 30
0.0
 11
193.74858373860619
 21
80.996441633327507
 31
0.0
  0
LINE
  5
1EA3
  8
0
 62
     0
 10
193.90653474916169
 20
71.858234501702839
 30
0.0
 11
184.76832761753701
 21
80.996441633327507
 31
0.0
  0
LINE
  5
1EA4
  8
0
 62
     0
 10
193.90653475055279
 20
62.877978379242549
 30
0.0
 11
175.78807149646789
 21
80.996441633327493
 31
0.0
  0
LINE
  5
1EA5
  8
0
 62
     0
 10
193.90653475194389
 20
53.897722256782281
 30
0.0
 11
166.80781537539869
 21
80.996441633327493
 31
0.0
  0
LINE
  5
1EA6
  8
0
 62
     0
 10
193.906534753335
 20
44.917466134322027
 30
0.0
 11
163.90653474774609
 21
74.917466139910971
 31
0.0
  0
LINE
  5
1EA7
  8
0
 62
     0
 10
193.90653475472621
 20
35.937210011861751
 30
0.0
 11
163.90653474774609
 21
65.937210018841824
 31
0.0
  0
LINE
  5
1EA8
  8
0
 62
     0
 10
193.9065347561172
 20
26.956953889401479
 30
0.0
 11
163.90653474774609
 21
56.956953897772671
 31
0.0
  0
LINE
  5
1EA9
  8
0
 62
     0
 10
193.90653475750841
 20
17.976697766941211
 30
0.0
 11
163.90653474774609
 21
47.976697776703517
 31
0.0
  0
LINE
  5
1EAA
  8
0
 62
     0
 10
193.90653475889951
 20
8.9964416444809352
 30
0.0
 11
163.90653474774609
 21
38.996441655634378
 31
0.0
  0
LINE
  5
1EAB
  8
0
 62
     0
 10
184.92627864116901
 20
8.9964416411422512
 30
0.0
 11
163.90653474774609
 21
30.016185534565221
 31
0.0
  0
LINE
  5
1EAC
  8
0
 62
     0
 10
175.94602252343859
 20
8.9964416378035512
 30
0.0
 11
163.90653474774609
 21
21.035929413496071
 31
0.0
  0
LINE
  5
1EAD
  8
0
 62
     0
 10
166.96576640570811
 20
8.9964416344648637
 30
0.0
 11
163.90653474774609
 21
12.05567329242691
 31
0.0
  0
ENDBLK
  5
1EAF
  8
0
  0
BLOCK
  8
0
  2
*X62
 70
     1
 10
0.0
 20
0.0
 30
0.0
  3
*X62
  1

  0
LINE
  5
1EB1
  8
0
 62
     0
 10
193.90653474774609
 20
76.348364503118447
 30
0.0
 11
189.258457617537
 21
80.996441633327507
 31
0.0
  0
LINE
  5
1EB2
  8
0
 62
     0
 10
181.55868259682461
 20
79.71596053297074
 30
0.0
 11
180.2782014964678
 21
80.996441633327493
 31
0.0
  0
LINE
  5
1EB3
  8
0
 62
     0
 10
182.68121461195821
 20
78.593428517837097
 30
0.0
 11
182.68121461195821
 21
78.593428517837083
 31
0.0
  0
LINE
  5
1EB4
  8
0
 62
     0
 10
189.4164067027601
 20
71.858236427035237
 30
0.0
 11
183.8037466270919
 21
77.47089650270344
 31
0.0
  0
LINE
  5
1EB5
  8
0
 62
     0
 10
190.53893871789381
 20
70.735704411901594
 30
0.0
 11
190.53893871789381
 21
70.73570441190158
 31
0.0
  0
LINE
  5
1EB6
  8
0
 62
     0
 10
193.90653474774609
 20
67.3681083820493
 30
0.0
 11
191.6614707330275
 21
69.613172396767936
 31
0.0
  0
LINE
  5
1EB7
  8
0
 62
     0
 10
177.06855453629001
 20
75.225832472436153
 30
0.0
 11
171.45589446062181
 21
80.838492548104355
 31
0.0
  0
LINE
  5
1EB8
  8
0
 62
     0
 10
178.19108655142369
 20
74.10330045730251
 30
0.0
 11
178.19108655142369
 21
74.103300457302495
 31
0.0
  0
LINE
  5
1EB9
  8
0
 62
     0
 10
184.92627864222561
 20
67.368108366500635
 30
0.0
 11
179.3136185665573
 21
72.980768442168852
 31
0.0
  0
LINE
  5
1EBA
  8
0
 62
     0
 10
186.04881065735921
 20
66.245576351367006
 30
0.0
 11
186.04881065735921
 21
66.245576351366992
 31
0.0
  0
LINE
  5
1EBB
  8
0
 62
     0
 10
192.7840027481611
 20
59.510384260565147
 30
0.0
 11
187.1713426724929
 21
65.123044336233335
 31
0.0
  0
LINE
  5
1EBC
  8
0
 62
     0
 10
164.7207023698198
 20
78.593428517837083
 30
0.0
 11
163.90653474774589
 21
79.407596139910964
 31
0.0
  0
LINE
  5
1EBD
  8
0
 62
     0
 10
165.84323438495349
 20
77.47089650270344
 30
0.0
 11
165.84323438495349
 21
77.470896502703425
 31
0.0
  0
LINE
  5
1EBE
  8
0
 62
     0
 10
172.57842647575541
 20
70.73570441190158
 30
0.0
 11
166.9657664000872
 21
76.348364487569782
 31
0.0
  0
LINE
  5
1EBF
  8
0
 62
     0
 10
173.70095849088901
 20
69.613172396767936
 30
0.0
 11
173.70095849088901
 21
69.613172396767922
 31
0.0
  0
LINE
  5
1EC0
  8
0
 62
     0
 10
180.4361505816909
 20
62.877980305966069
 30
0.0
 11
174.82349050602269
 21
68.490640381634279
 31
0.0
  0
LINE
  5
1EC1
  8
0
 62
     0
 10
181.55868259682461
 20
61.755448290832433
 30
0.0
 11
181.55868259682461
 21
61.755448290832412
 31
0.0
  0
LINE
  5
1EC2
  8
0
 62
     0
 10
188.2938746876265
 20
55.020256200030559
 30
0.0
 11
182.68121461195821
 21
60.632916275698769
 31
0.0
  0
LINE
  5
1EC3
  8
0
 62
     0
 10
189.4164067027601
 20
53.897724184896909
 30
0.0
 11
189.4164067027601
 21
53.897724184896902
 31
0.0
  0
LINE
  5
1EC4
  8
0
 62
     0
 10
193.90653474774609
 20
49.407596139910993
 30
0.0
 11
190.53893871789381
 21
52.775192169763258
 31
0.0
  0
LINE
  5
1EC5
  8
0
 62
     0
 10
168.08829841522081
 20
66.245576351367006
 30
0.0
 11
163.90653474774589
 21
70.427340018841832
 31
0.0
  0
LINE
  5
1EC6
  8
0
 62
     0
 10
169.21083043035449
 20
65.123044336233363
 30
0.0
 11
169.21083043035449
 21
65.123044336233335
 31
0.0
  0
LINE
  5
1EC7
  8
0
 62
     0
 10
175.94602252115629
 20
58.387852245431489
 30
0.0
 11
170.33336244548809
 21
64.000512321099706
 31
0.0
  0
LINE
  5
1EC8
  8
0
 62
     0
 10
177.06855453629001
 20
57.265320230297839
 30
0.0
 11
177.06855453629001
 21
57.265320230297839
 31
0.0
  0
LINE
  5
1EC9
  8
0
 62
     0
 10
183.8037466270919
 20
50.530128139495979
 30
0.0
 11
178.19108655142361
 21
56.142788215164202
 31
0.0
  0
LINE
  5
1ECA
  8
0
 62
     0
 10
184.9262786422255
 20
49.407596124362342
 30
0.0
 11
184.9262786422255
 21
49.407596124362342
 31
0.0
  0
LINE
  5
1ECB
  8
0
 62
     0
 10
191.66147073302739
 20
42.672404033560468
 30
0.0
 11
186.04881065735921
 21
48.285064109228692
 31
0.0
  0
LINE
  5
1ECC
  8
0
 62
     0
 10
192.7840027481611
 20
41.549872018426818
 30
0.0
 11
192.7840027481611
 21
41.549872018426818
 31
0.0
  0
LINE
  5
1ECD
  8
0
 62
     0
 10
164.72070236981989
 20
60.632916275698783
 30
0.0
 11
164.72070236981989
 21
60.632916275698783
 31
0.0
  0
LINE
  5
1ECE
  8
0
 62
     0
 10
171.45589446062169
 20
53.897724184896909
 30
0.0
 11
165.84323438495349
 21
59.510384260565132
 31
0.0
  0
LINE
  5
1ECF
  8
0
 62
     0
 10
172.57842647575541
 20
52.775192169763258
 30
0.0
 11
172.57842647575541
 21
52.775192169763258
 31
0.0
  0
LINE
  5
1ED0
  8
0
 62
     0
 10
179.3136185665573
 20
46.040000078961391
 30
0.0
 11
173.70095849088909
 21
51.652660154629622
 31
0.0
  0
LINE
  5
1ED1
  8
0
 62
     0
 10
180.43615058169101
 20
44.917468063827748
 30
0.0
 11
180.43615058169101
 21
44.917468063827748
 31
0.0
  0
LINE
  5
1ED2
  8
0
 62
     0
 10
187.17134267249281
 20
38.182275973025888
 30
0.0
 11
181.55868259682461
 21
43.794936048694112
 31
0.0
  0
LINE
  5
1ED3
  8
0
 62
     0
 10
188.2938746876265
 20
37.059743957892252
 30
0.0
 11
188.2938746876265
 21
37.059743957892252
 31
0.0
  0
LINE
  5
1ED4
  8
0
 62
     0
 10
193.90653474774609
 20
31.4470838977727
 30
0.0
 11
189.41640670276021
 21
35.937211942758601
 31
0.0
  0
LINE
  5
1ED5
  8
0
 62
     0
 10
166.96576640008709
 20
49.407596124362342
 30
0.0
 11
163.90653474774589
 21
52.466827776703539
 31
0.0
  0
LINE
  5
1ED6
  8
0
 62
     0
 10
168.08829841522081
 20
48.285064109228692
 30
0.0
 11
168.08829841522081
 21
48.285064109228692
 31
0.0
  0
LINE
  5
1ED7
  8
0
 62
     0
 10
174.82349050602269
 20
41.549872018426832
 30
0.0
 11
169.21083043035449
 21
47.162532094095049
 31
0.0
  0
LINE
  5
1ED8
  8
0
 62
     0
 10
175.94602252115629
 20
40.427340003293189
 30
0.0
 11
175.94602252115629
 21
40.427340003293189
 31
0.0
  0
LINE
  5
1ED9
  8
0
 62
     0
 10
182.68121461195821
 20
33.692147912491322
 30
0.0
 11
177.06855453629001
 21
39.304807988159553
 31
0.0
  0
LINE
  5
1EDA
  8
0
 62
     0
 10
183.8037466270919
 20
32.569615897357679
 30
0.0
 11
183.8037466270919
 21
32.569615897357679
 31
0.0
  0
LINE
  5
1EDB
  8
0
 62
     0
 10
190.53893871789381
 20
25.834423806555812
 30
0.0
 11
184.9262786422255
 21
31.447083882224039
 31
0.0
  0
LINE
  5
1EDC
  8
0
 62
     0
 10
191.66147073302739
 20
24.711891791422168
 30
0.0
 11
191.66147073302739
 21
24.711891791422168
 31
0.0
  0
LINE
  5
1EDD
  8
0
 62
     0
 10
193.90653474774609
 20
22.466827776703539
 30
0.0
 11
192.7840027481611
 21
23.589359776288529
 31
0.0
  0
LINE
  5
1EDE
  8
0
 62
     0
 10
170.33336244548809
 20
37.059743957892252
 30
0.0
 11
164.72070236981989
 21
42.672404033560468
 31
0.0
  0
LINE
  5
1EDF
  8
0
 62
     0
 10
171.45589446062181
 20
35.937211942758601
 30
0.0
 11
171.45589446062181
 21
35.937211942758601
 31
0.0
  0
LINE
  5
1EE0
  8
0
 62
     0
 10
178.19108655142369
 20
29.202019851956731
 30
0.0
 11
172.57842647575541
 21
34.814679927624958
 31
0.0
  0
LINE
  5
1EE1
  8
0
 62
     0
 10
179.3136185665573
 20
28.079487836823091
 30
0.0
 11
179.3136185665573
 21
28.079487836823091
 31
0.0
  0
LINE
  5
1EE2
  8
0
 62
     0
 10
186.04881065735921
 20
21.344295746021231
 30
0.0
 11
180.43615058169101
 21
26.956955821689451
 31
0.0
  0
LINE
  5
1EE3
  8
0
 62
     0
 10
187.1713426724929
 20
20.221763730887581
 30
0.0
 11
187.1713426724929
 21
20.221763730887581
 31
0.0
  0
LINE
  5
1EE4
  8
0
 62
     0
 10
193.90653474774609
 20
13.486571655634391
 30
0.0
 11
188.2938746876265
 21
19.099231715753941
 31
0.0
  0
LINE
  5
1EE5
  8
0
 62
     0
 10
165.84323438495349
 20
32.569615897357679
 30
0.0
 11
163.90653474774601
 21
34.506315534565239
 31
0.0
  0
LINE
  5
1EE6
  8
0
 62
     0
 10
166.9657664000872
 20
31.447083882224032
 30
0.0
 11
166.9657664000872
 21
31.447083882224039
 31
0.0
  0
LINE
  5
1EE7
  8
0
 62
     0
 10
173.70095849088909
 20
24.711891791422168
 30
0.0
 11
168.08829841522081
 21
30.324551867090388
 31
0.0
  0
LINE
  5
1EE8
  8
0
 62
     0
 10
174.82349050602269
 20
23.589359776288529
 30
0.0
 11
174.82349050602269
 21
23.589359776288529
 31
0.0
  0
LINE
  5
1EE9
  8
0
 62
     0
 10
181.55868259682461
 20
16.854167685486662
 30
0.0
 11
175.94602252115641
 21
22.466827761154889
 31
0.0
  0
LINE
  5
1EEA
  8
0
 62
     0
 10
182.6812146119583
 20
15.73163567035302
 30
0.0
 11
182.6812146119583
 21
15.73163567035302
 31
0.0
  0
LINE
  5
1EEB
  8
0
 62
     0
 10
189.41640670276021
 20
8.996443579551153
 30
0.0
 11
183.8037466270919
 21
14.60910365521938
 31
0.0
  0
LINE
  5
1EEC
  8
0
 62
     0
 10
169.21083043035449
 20
20.221763730887581
 30
0.0
 11
163.90653474774601
 21
25.526059413496078
 31
0.0
  0
LINE
  5
1EED
  8
0
 62
     0
 10
170.33336244548821
 20
19.099231715753941
 30
0.0
 11
170.33336244548821
 21
19.099231715753941
 31
0.0
  0
LINE
  5
1EEE
  8
0
 62
     0
 10
177.06855453629001
 20
12.364039624952071
 30
0.0
 11
171.45589446062181
 21
17.976699700620291
 31
0.0
  0
LINE
  5
1EEF
  8
0
 62
     0
 10
178.19108655142369
 20
11.241507609818431
 30
0.0
 11
178.19108655142369
 21
11.241507609818431
 31
0.0
  0
LINE
  5
1EF0
  8
0
 62
     0
 10
180.43615252791469
 20
8.9964416333274944
 30
0.0
 11
179.31361856655741
 21
10.118975594684789
 31
0.0
  0
LINE
  5
1EF1
  8
0
 62
     0
 10
164.72070236982
 20
15.731635670353009
 30
0.0
 11
163.90653474774601
 21
16.545803292426939
 31
0.0
  0
LINE
  5
1EF2
  8
0
 62
     0
 10
165.8432343849536
 20
14.60910365521937
 30
0.0
 11
165.8432343849536
 21
14.60910365521937
 31
0.0
  0
LINE
  5
1EF3
  8
0
 62
     0
 10
171.45589640684551
 20
8.9964416333274926
 30
0.0
 11
166.96576640008729
 21
13.48657164008573
 31
0.0
  0
LINE
  5
1EF4
  8
0
 62
     0
 10
193.90653474777059
 20
80.838490624163114
 30
0.0
 11
193.74858373860619
 21
80.996441633327507
 31
0.0
  0
LINE
  5
1EF5
  8
0
 62
     0
 10
193.90653474916169
 20
71.858234501702839
 30
0.0
 11
184.76832761753701
 21
80.996441633327507
 31
0.0
  0
LINE
  5
1EF6
  8
0
 62
     0
 10
193.90653475055279
 20
62.877978379242549
 30
0.0
 11
175.78807149646789
 21
80.996441633327493
 31
0.0
  0
LINE
  5
1EF7
  8
0
 62
     0
 10
193.90653475194389
 20
53.897722256782281
 30
0.0
 11
166.80781537539869
 21
80.996441633327493
 31
0.0
  0
LINE
  5
1EF8
  8
0
 62
     0
 10
193.906534753335
 20
44.917466134322027
 30
0.0
 11
163.90653474774609
 21
74.917466139910971
 31
0.0
  0
LINE
  5
1EF9
  8
0
 62
     0
 10
193.90653475472621
 20
35.937210011861751
 30
0.0
 11
163.90653474774609
 21
65.937210018841824
 31
0.0
  0
LINE
  5
1EFA
  8
0
 62
     0
 10
193.9065347561172
 20
26.956953889401479
 30
0.0
 11
163.90653474774609
 21
56.956953897772671
 31
0.0
  0
LINE
  5
1EFB
  8
0
 62
     0
 10
193.90653475750841
 20
17.976697766941211
 30
0.0
 11
163.90653474774609
 21
47.976697776703517
 31
0.0
  0
LINE
  5
1EFC
  8
0
 62
     0
 10
193.90653475889951
 20
8.9964416444809352
 30
0.0
 11
163.90653474774609
 21
38.996441655634378
 31
0.0
  0
LINE
  5
1EFD
  8
0
 62
     0
 10
184.92627864116901
 20
8.9964416411422512
 30
0.0
 11
163.90653474774609
 21
30.016185534565221
 31
0.0
  0
LINE
  5
1EFE
  8
0
 62
     0
 10
175.94602252343859
 20
8.9964416378035512
 30
0.0
 11
163.90653474774609
 21
21.035929413496071
 31
0.0
  0
LINE
  5
1EFF
  8
0
 62
     0
 10
166.96576640570811
 20
8.9964416344648637
 30
0.0
 11
163.90653474774609
 21
12.05567329242691
 31
0.0
  0
ENDBLK
  5
1F01
  8
0
  0
BLOCK
  8
0
  2
*U63
 70
     1
 10
0.0
 20
0.0
 30
0.0
  3
*U63
  1

  0
TEXT
  5
2083
  8
SAPA_MATT
 62
     2
 10
239.94007411366249
 20
-32.95473946230598
 30
0.0
 40
3.0
  1
10
 50
90.0
  7
ISO
  0
ENDBLK
  5
2085
  8
0
  0
BLOCK
  8
0
  2
*U64
 70
     1
 10
0.0
 20
0.0
 30
0.0
  3
*U64
  1

  0
TEXT
  5
2087
  8
SAPA_MATT
 62
     2
 10
239.94007411366249
 20
-23.453558359929019
 30
0.0
 40
3.0
  1
10-14
 50
90.0
  7
ISO
  0
ENDBLK
  5
2089
  8
0
  0
ENDSEC
  0
SECTION
  2
ENTITIES
  0
POLYLINE
  5
26D
  8
SAPA_LIGHT
 66
     1
 10
0.0
 20
0.0
 30
0.0
  0
VERTEX
  5
17A6
  8
SAPA_LIGHT
 10
144.8565347734889
 20
81.84181774932307
 30
0.0
  0
VERTEX
  5
17A7
  8
SAPA_LIGHT
 10
135.9065348736419
 20
81.84181774932307
 30
0.0
  0
VERTEX
  5
17A8
  8
SAPA_LIGHT
 10
135.9065348734679
 20
-7.1596584382871811
 30
0.0
  0
VERTEX
  5
17A9
  8
SAPA_LIGHT
 10
144.60653484846071
 20
-7.1596584382871811
 30
0.0
  0
VERTEX
  5
17AA
  8
SAPA_LIGHT
 10
144.6065348484608
 20
7.3403415656527642
 30
0.0
  0
VERTEX
  5
17AB
  8
SAPA_LIGHT
 10
213.20653483905451
 20
7.3403416084167361
 30
0.0
  0
VERTEX
  5
17AC
  8
SAPA_LIGHT
 10
213.20653483905451
 20
14.84181774956366
 30
0.0
  0
VERTEX
  5
17AD
  8
SAPA_LIGHT
 10
221.9065348347263
 20
14.84181774956366
 30
0.0
  0
VERTEX
  5
17AE
  8
SAPA_LIGHT
 10
221.9065348349003
 20
81.841817749323098
 30
0.0
  0
VERTEX
  5
17AF
  8
SAPA_LIGHT
 10
191.74173893686151
 20
81.841817749323184
 30
0.0
  0
SEQEND
  5
17B0
  8
SAPA_LIGHT
  0
POLYLINE
  5
26E
  8
SAPA_LIGHT
 66
     1
 10
0.0
 20
0.0
 30
0.0
 70
     1
  0
VERTEX
  5
17B1
  8
SAPA_LIGHT
 10
144.91074705355521
 20
94.841817753756587
 30
0.0
  0
VERTEX
  5
17B2
  8
SAPA_LIGHT
 10
191.74173893686171
 20
94.841817753756516
 30
0.0
  0
VERTEX
  5
17B3
  8
SAPA_LIGHT
 10
191.741738936861
 20
64.841817753756359
 30
0.0
  0
VERTEX
  5
17B4
  8
SAPA_LIGHT
 10
144.91074705355439
 20
64.841817753756416
 30
0.0
  0
SEQEND
  5
17B5
  8
SAPA_LIGHT
  0
TEXT
  5
277
  8
SAPA_ARTIKELNR
 10
227.9923637326508
 20
25.013558806170181
 30
-0.0000000048844204
 40
3.5
  1
86426
 50
90.0
  7
ISO
  0
LINE
  5
27D
  8
SAPA_LIGHT
 10
236.630485402056
 20
-26.153558359943769
 30
0.0
 11
124.6304854020559
 21
-26.153558359943741
 31
0.0
  0
LINE
  5
6C8
  8
SAPA_ANSLUTNING
 10
114.0242541869699
 20
-36.15355835994378
 30
0.0
 11
243.0479427079033
 21
-36.15355835994378
 31
0.0
  0
POLYLINE
  5
752
  8
SAPA_LIGHT
 66
     1
 10
0.0
 20
0.0
 30
0.0
 70
     1
  0
VERTEX
  5
17CC
  8
SAPA_LIGHT
 10
144.26921083364971
 20
-26.15355835994373
 30
0.0
  0
VERTEX
  5
17CD
  8
SAPA_LIGHT
 10
212.86921084233521
 20
-26.15355835994373
 30
0.0
  0
VERTEX
  5
17CE
  8
SAPA_LIGHT
 10
213.2065347637047
 20
-2.1535583599438719
 30
0.0
  0
VERTEX
  5
17CF
  8
SAPA_LIGHT
 10
144.60653475501931
 20
-2.1535583599438719
 30
0.0
  0
SEQEND
  5
17D0
  8
SAPA_LIGHT
  0
TEXT
  5
BFF
  8
SAPA_ARTIKELNR
 10
227.9923637326508
 20
-6.3855163518934432
 30
-0.0000000048844204
 40
3.5
  1
42777
 50
90.0
  7
ISO
  0
TEXT
  5
C00
  8
SAPA_ARTIKELNR
 10
153.71906562435299
 20
-6.3855163518934432
 30
-0.0000000048844204
 40
3.5
  1
42776
  7
ISO
  0
POLYLINE
  5
16B1
  8
SAPA_PROFIL
  6
CONTINUOUS
 66
     1
 10
0.0
 20
0.0
 30
0.0
 70
     1
  0
VERTEX
  5
1B2A
  8
SAPA_PROFIL
  6
CONTINUOUS
 10
210.00653426370479
 20
-30.496833827603101
 30
0.0
  0
VERTEX
  5
1B2B
  8
SAPA_PROFIL
  6
CONTINUOUS
 10
209.75377666694999
 20
-30.49683382760308
 30
0.0
  0
VERTEX
  5
1B2C
  8
SAPA_PROFIL
  6
CONTINUOUS
 10
209.37388023289779
 20
-30.395040884891351
 30
0.0
 42
-0.4142135623730307
  0
VERTEX
  5
1B2D
  8
SAPA_PROFIL
  6
CONTINUOUS
 10
209.1971063652642
 20
-30.088859564699408
 30
0.0
  0
VERTEX
  5
1B2E
  8
SAPA_PROFIL
  6
CONTINUOUS
 10
209.29890072425269
 20
-29.708957845030309
 30
0.0
 42
0.4429876724590628
  0
VERTEX
  5
1B2F
  8
SAPA_PROFIL
  6
CONTINUOUS
 10
206.11417182005971
 20
-29.708954519541098
 30
0.0
  0
VERTEX
  5
1B30
  8
SAPA_PROFIL
  6
CONTINUOUS
 10
206.21596707011051
 20
-30.088859564699408
 30
0.0
 42
-0.4142135623729991
  0
VERTEX
  5
1B31
  8
SAPA_PROFIL
  6
CONTINUOUS
 10
206.03919320247681
 20
-30.395040884891319
 30
0.0
  0
VERTEX
  5
1B32
  8
SAPA_PROFIL
  6
CONTINUOUS
 10
205.6592888916218
 20
-30.496835938186049
 30
0.0
 42
0.442987448408684
  0
VERTEX
  5
1B33
  8
SAPA_PROFIL
  6
CONTINUOUS
 10
207.25165790865779
 20
-33.254888188110343
 30
0.0
  0
VERTEX
  5
1B34
  8
SAPA_PROFIL
  6
CONTINUOUS
 10
207.5297628500536
 20
-32.97678324671454
 30
0.0
 42
-0.4142135623730715
  0
VERTEX
  5
1B35
  8
SAPA_PROFIL
  6
CONTINUOUS
 10
207.88331058532091
 20
-32.976783246714511
 30
0.0
  0
VERTEX
  5
1B36
  8
SAPA_PROFIL
  6
CONTINUOUS
 10
208.16141483129249
 20
-33.254887492686031
 30
0.0
 42
0.0631938727063513
  0
VERTEX
  5
1B37
  8
SAPA_PROFIL
  6
CONTINUOUS
 10
208.67184088615369
 20
-33.074673684426571
 30
0.0
 42
-0.5581840627705932
  0
VERTEX
  5
1B38
  8
SAPA_PROFIL
  6
CONTINUOUS
 10
209.1065347637047
 20
-33.342736287842783
 30
0.0
  0
VERTEX
  5
1B39
  8
SAPA_PROFIL
  6
CONTINUOUS
 10
209.10653476370459
 20
-33.653558117313871
 30
0.0
 42
-0.414213562373062
  0
VERTEX
  5
1B3A
  8
SAPA_PROFIL
  6
CONTINUOUS
 10
206.60653476370459
 20
-36.153558117313558
 30
0.0
  0
VERTEX
  5
1B3B
  8
SAPA_PROFIL
  6
CONTINUOUS
 10
205.4727559366568
 20
-36.153558117313672
 30
0.0
 42
-0.3152987539181237
  0
VERTEX
  5
1B3C
  8
SAPA_PROFIL
  6
CONTINUOUS
 10
204.53306335937521
 20
-35.495578380166542
 30
0.0
  0
VERTEX
  5
1B3D
  8
SAPA_PROFIL
  6
CONTINUOUS
 10
202.64622625634399
 20
-30.311538097090811
 30
0.0
 42
0.3152987539181134
  0
VERTEX
  5
1B3E
  8
SAPA_PROFIL
  6
CONTINUOUS
 10
201.70653367906249
 20
-29.653558359943752
 30
0.0
  0
VERTEX
  5
1B3F
  8
SAPA_PROFIL
  6
CONTINUOUS
 10
193.00653476370459
 20
-29.653558359943752
 30
0.0
 42
0.4142135623730951
  0
VERTEX
  5
1B40
  8
SAPA_PROFIL
  6
CONTINUOUS
 10
192.00653476370459
 20
-30.653558359943741
 30
0.0
  0
VERTEX
  5
1B41
  8
SAPA_PROFIL
  6
CONTINUOUS
 10
192.00653476370471
 20
-35.153558359943773
 30
0.0
 42
-0.9999999999999998
  0
VERTEX
  5
1B42
  8
SAPA_PROFIL
  6
CONTINUOUS
 10
190.40653476370471
 20
-35.153558359943759
 30
0.0
  0
VERTEX
  5
1B43
  8
SAPA_PROFIL
  6
CONTINUOUS
 10
190.4065347637046
 20
-30.653558359943741
 30
0.0
 42
0.4142135623730951
  0
VERTEX
  5
1B44
  8
SAPA_PROFIL
  6
CONTINUOUS
 10
189.4065347637046
 20
-29.653558359943741
 30
0.0
  0
VERTEX
  5
1B45
  8
SAPA_PROFIL
  6
CONTINUOUS
 10
168.4065347637046
 20
-29.653558359943741
 30
0.0
 42
0.4142135623730951
  0
VERTEX
  5
1B46
  8
SAPA_PROFIL
  6
CONTINUOUS
 10
167.4065347637046
 20
-30.653558359943741
 30
0.0
  0
VERTEX
  5
1B47
  8
SAPA_PROFIL
  6
CONTINUOUS
 10
167.40653476370471
 20
-35.153558359943752
 30
0.0
 42
-0.9999999999999998
  0
VERTEX
  5
1B48
  8
SAPA_PROFIL
  6
CONTINUOUS
 10
165.80653476370469
 20
-35.153558359943752
 30
0.0
  0
VERTEX
  5
1B49
  8
SAPA_PROFIL
  6
CONTINUOUS
 10
165.8065347637046
 20
-30.653558359943741
 30
0.0
 42
0.4142135623730951
  0
VERTEX
  5
1B4A
  8
SAPA_PROFIL
  6
CONTINUOUS
 10
164.8065347637046
 20
-29.653558359943741
 30
0.0
  0
VERTEX
  5
1B4B
  8
SAPA_PROFIL
  6
CONTINUOUS
 10
156.10653584834679
 20
-29.653558359943741
 30
0.0
 42
0.3152987539181166
  0
VERTEX
  5
1B4C
  8
SAPA_PROFIL
  6
CONTINUOUS
 10
155.1668432710652
 20
-30.3115380970908
 30
0.0
  0
VERTEX
  5
1B4D
  8
SAPA_PROFIL
  6
CONTINUOUS
 10
153.28000616803399
 20
-35.495578380166521
 30
0.0
 42
-0.3152987539181158
  0
VERTEX
  5
1B4E
  8
SAPA_PROFIL
  6
CONTINUOUS
 10
152.34031359075249
 20
-36.153558117313537
 30
0.0
  0
VERTEX
  5
1B4F
  8
SAPA_PROFIL
  6
CONTINUOUS
 10
151.20653476370461
 20
-36.153558117313572
 30
0.0
 42
-0.4142135623730619
  0
VERTEX
  5
1B50
  8
SAPA_PROFIL
  6
CONTINUOUS
 10
148.70653476370461
 20
-33.65355811731385
 30
0.0
  0
VERTEX
  5
1B51
  8
SAPA_PROFIL
  6
CONTINUOUS
 10
148.70653476370461
 20
-33.342736287842769
 30
0.0
 42
-0.5581840627706031
  0
VERTEX
  5
1B52
  8
SAPA_PROFIL
  6
CONTINUOUS
 10
149.14122864125559
 20
-33.074673684426529
 30
0.0
 42
0.063193872706354
  0
VERTEX
  5
1B53
  8
SAPA_PROFIL
  6
CONTINUOUS
 10
149.65165469611679
 20
-33.254887492686009
 30
0.0
  0
VERTEX
  5
1B54
  8
SAPA_PROFIL
  6
CONTINUOUS
 10
149.92975894208831
 20
-32.976783246714483
 30
0.0
 42
-0.414213562373045
  0
VERTEX
  5
1B55
  8
SAPA_PROFIL
  6
CONTINUOUS
 10
150.2833066773556
 20
-32.97678324671449
 30
0.0
  0
VERTEX
  5
1B56
  8
SAPA_PROFIL
  6
CONTINUOUS
 10
150.56141161875141
 20
-33.254888188110328
 30
0.0
 42
0.4429874484086946
  0
VERTEX
  5
1B57
  8
SAPA_PROFIL
  6
CONTINUOUS
 10
152.15378063578751
 20
-30.49683593818601
 30
0.0
  0
VERTEX
  5
1B58
  8
SAPA_PROFIL
  6
CONTINUOUS
 10
151.7738763249325
 20
-30.395040884891301
 30
0.0
 42
-0.4142135623730404
  0
VERTEX
  5
1B59
  8
SAPA_PROFIL
  6
CONTINUOUS
 10
151.59710245729889
 20
-30.088859564699391
 30
0.0
  0
VERTEX
  5
1B5A
  8
SAPA_PROFIL
  6
CONTINUOUS
 10
151.6988978079319
 20
-29.70895414416259
 30
0.0
 42
0.4429876724590561
  0
VERTEX
  5
1B5B
  8
SAPA_PROFIL
  6
CONTINUOUS
 10
148.51416880315651
 20
-29.70895784503028
 30
0.0
  0
VERTEX
  5
1B5C
  8
SAPA_PROFIL
  6
CONTINUOUS
 10
148.61596316214511
 20
-30.088859564699408
 30
0.0
 42
-0.4142135623730641
  0
VERTEX
  5
1B5D
  8
SAPA_PROFIL
  6
CONTINUOUS
 10
148.43918929451149
 20
-30.39504088489133
 30
0.0
  0
VERTEX
  5
1B5E
  8
SAPA_PROFIL
  6
CONTINUOUS
 10
148.05929286045929
 20
-30.496833827603059
 30
0.0
  0
VERTEX
  5
1B5F
  8
SAPA_PROFIL
  6
CONTINUOUS
 10
147.80653526370449
 20
-30.496833827603091
 30
0.0
 42
-0.4142135623731155
  0
VERTEX
  5
1B60
  8
SAPA_PROFIL
  6
CONTINUOUS
 10
147.50653526370451
 20
-30.196833827603061
 30
0.0
  0
VERTEX
  5
1B61
  8
SAPA_PROFIL
  6
CONTINUOUS
 10
147.50653526370451
 20
-29.45355811731358
 30
0.0
 42
0.4142135623730951
  0
VERTEX
  5
1B62
  8
SAPA_PROFIL
  6
CONTINUOUS
 10
147.2065352637045
 20
-29.153558117313569
 30
0.0
  0
VERTEX
  5
1B63
  8
SAPA_PROFIL
  6
CONTINUOUS
 10
146.40653476370429
 20
-29.153558117313569
 30
0.0
 42
0.4142135623730951
  0
VERTEX
  5
1B64
  8
SAPA_PROFIL
  6
CONTINUOUS
 10
146.1065347637043
 20
-29.453558117313548
 30
0.0
  0
VERTEX
  5
1B65
  8
SAPA_PROFIL
  6
CONTINUOUS
 10
146.1065347637043
 20
-35.653558359943737
 30
0.0
 42
-0.4142135623730951
  0
VERTEX
  5
1B66
  8
SAPA_PROFIL
  6
CONTINUOUS
 10
145.6065347637043
 20
-36.153558359943752
 30
0.0
  0
VERTEX
  5
1B67
  8
SAPA_PROFIL
  6
CONTINUOUS
 10
145.10653476370419
 20
-36.153558359943752
 30
0.0
 42
-0.4142135623731282
  0
VERTEX
  5
1B68
  8
SAPA_PROFIL
  6
CONTINUOUS
 10
144.60653476370419
 20
-35.653558359943659
 30
0.0
  0
VERTEX
  5
1B69
  8
SAPA_PROFIL
  6
CONTINUOUS
 10
144.6065347637045
 20
-28.15355835994367
 30
0.0
 42
-0.4142135623730869
  0
VERTEX
  5
1B6A
  8
SAPA_PROFIL
  6
CONTINUOUS
 10
146.60653476370439
 20
-26.15355835994373
 30
0.0
  0
VERTEX
  5
1B6B
  8
SAPA_PROFIL
  6
CONTINUOUS
 10
147.40653476370451
 20
-26.15355835994373
 30
0.0
 42
-0.4142135623724291
  0
VERTEX
  5
1B6C
  8
SAPA_PROFIL
  6
CONTINUOUS
 10
147.65653476370451
 20
-26.403558359944309
 30
0.0
 42
0.4142135623724288
  0
VERTEX
  5
1B6D
  8
SAPA_PROFIL
  6
CONTINUOUS
 10
147.90653476370451
 20
-26.653558359943741
 30
0.0
  0
VERTEX
  5
1B6E
  8
SAPA_PROFIL
  6
CONTINUOUS
 10
149.90653476370451
 20
-26.653558359943741
 30
0.0
 42
0.4142135623724296
  0
VERTEX
  5
1B6F
  8
SAPA_PROFIL
  6
CONTINUOUS
 10
150.15653476370451
 20
-26.403558359943169
 30
0.0
 42
-0.414213562372429
  0
VERTEX
  5
1B70
  8
SAPA_PROFIL
  6
CONTINUOUS
 10
150.40653476370451
 20
-26.15355835994373
 30
0.0
  0
VERTEX
  5
1B71
  8
SAPA_PROFIL
  6
CONTINUOUS
 10
152.40653476370451
 20
-26.15355835994373
 30
0.0
 42
-0.4142135623724291
  0
VERTEX
  5
1B72
  8
SAPA_PROFIL
  6
CONTINUOUS
 10
152.65653476370451
 20
-26.403558359943169
 30
0.0
 42
0.4142135623724296
  0
VERTEX
  5
1B73
  8
SAPA_PROFIL
  6
CONTINUOUS
 10
152.90653476370451
 20
-26.653558359943741
 30
0.0
  0
VERTEX
  5
1B74
  8
SAPA_PROFIL
  6
CONTINUOUS
 10
154.9065347637046
 20
-26.653558359943741
 30
0.0
 42
0.4142135623732283
  0
VERTEX
  5
1B75
  8
SAPA_PROFIL
  6
CONTINUOUS
 10
155.1565347637046
 20
-26.40355835994362
 30
0.0
 42
-0.4142135623729617
  0
VERTEX
  5
1B76
  8
SAPA_PROFIL
  6
CONTINUOUS
 10
155.4065347637046
 20
-26.15355835994373
 30
0.0
  0
VERTEX
  5
1B77
  8
SAPA_PROFIL
  6
CONTINUOUS
 10
157.4065347637046
 20
-26.15355835994373
 30
0.0
 42
-0.4142135623729619
  0
VERTEX
  5
1B78
  8
SAPA_PROFIL
  6
CONTINUOUS
 10
157.6565347637046
 20
-26.40355835994362
 30
0.0
 42
0.4142135623719712
  0
VERTEX
  5
1B79
  8
SAPA_PROFIL
  6
CONTINUOUS
 10
157.9065347637046
 20
-26.653558359943659
 30
0.0
  0
VERTEX
  5
1B7A
  8
SAPA_PROFIL
  6
CONTINUOUS
 10
159.90653476370471
 20
-26.653558359943741
 30
0.0
 42
0.4142135623730951
  0
VERTEX
  5
1B7B
  8
SAPA_PROFIL
  6
CONTINUOUS
 10
160.15653476370471
 20
-26.403558359943741
 30
0.0
 42
-0.4142135623730951
  0
VERTEX
  5
1B7C
  8
SAPA_PROFIL
  6
CONTINUOUS
 10
160.40653476370471
 20
-26.15355835994373
 30
0.0
  0
VERTEX
  5
1B7D
  8
SAPA_PROFIL
  6
CONTINUOUS
 10
162.40653476370471
 20
-26.15355835994373
 30
0.0
 42
-0.4142135623737605
  0
VERTEX
  5
1B7E
  8
SAPA_PROFIL
  6
CONTINUOUS
 10
162.65653476370471
 20
-26.403558359944309
 30
0.0
 42
0.4142135623710557
  0
VERTEX
  5
1B7F
  8
SAPA_PROFIL
  6
CONTINUOUS
 10
162.90653476370471
 20
-26.65355835994378
 30
0.0
  0
VERTEX
  5
1B80
  8
SAPA_PROFIL
  6
CONTINUOUS
 10
164.9065347637048
 20
-26.653558359943741
 30
0.0
 42
0.4142135623730951
  0
VERTEX
  5
1B81
  8
SAPA_PROFIL
  6
CONTINUOUS
 10
165.1565347637048
 20
-26.403558359943741
 30
0.0
 42
-0.4142135623730951
  0
VERTEX
  5
1B82
  8
SAPA_PROFIL
  6
CONTINUOUS
 10
165.4065347637048
 20
-26.153558359943741
 30
0.0
  0
VERTEX
  5
1B83
  8
SAPA_PROFIL
  6
CONTINUOUS
 10
167.4065347637048
 20
-26.153558359943741
 30
0.0
 42
-0.4142135623737605
  0
VERTEX
  5
1B84
  8
SAPA_PROFIL
  6
CONTINUOUS
 10
167.6565347637048
 20
-26.403558359944309
 30
0.0
 42
0.4142135623710557
  0
VERTEX
  5
1B85
  8
SAPA_PROFIL
  6
CONTINUOUS
 10
167.9065347637048
 20
-26.65355835994378
 30
0.0
  0
VERTEX
  5
1B86
  8
SAPA_PROFIL
  6
CONTINUOUS
 10
169.90653476370491
 20
-26.653558359943741
 30
0.0
 42
0.4142135623730951
  0
VERTEX
  5
1B87
  8
SAPA_PROFIL
  6
CONTINUOUS
 10
170.15653476370491
 20
-26.403558359943741
 30
0.0
 42
-0.4142135623730951
  0
VERTEX
  5
1B88
  8
SAPA_PROFIL
  6
CONTINUOUS
 10
170.40653476370491
 20
-26.153558359943741
 30
0.0
  0
VERTEX
  5
1B89
  8
SAPA_PROFIL
  6
CONTINUOUS
 10
172.40653476370491
 20
-26.153558359943741
 30
0.0
 42
-0.4142135623737605
  0
VERTEX
  5
1B8A
  8
SAPA_PROFIL
  6
CONTINUOUS
 10
172.65653476370491
 20
-26.403558359944309
 30
0.0
 42
0.4142135623710557
  0
VERTEX
  5
1B8B
  8
SAPA_PROFIL
  6
CONTINUOUS
 10
172.90653476370491
 20
-26.65355835994378
 30
0.0
  0
VERTEX
  5
1B8C
  8
SAPA_PROFIL
  6
CONTINUOUS
 10
174.906534763705
 20
-26.653558359943741
 30
0.0
 42
0.4142135623730951
  0
VERTEX
  5
1B8D
  8
SAPA_PROFIL
  6
CONTINUOUS
 10
175.156534763705
 20
-26.403558359943741
 30
0.0
 42
-0.4142135623730951
  0
VERTEX
  5
1B8E
  8
SAPA_PROFIL
  6
CONTINUOUS
 10
175.406534763705
 20
-26.153558359943741
 30
0.0
  0
VERTEX
  5
1B8F
  8
SAPA_PROFIL
  6
CONTINUOUS
 10
177.406534763705
 20
-26.153558359943741
 30
0.0
 42
-0.4142135623737605
  0
VERTEX
  5
1B90
  8
SAPA_PROFIL
  6
CONTINUOUS
 10
177.656534763705
 20
-26.403558359944309
 30
0.0
 42
0.4142135623710724
  0
VERTEX
  5
1B91
  8
SAPA_PROFIL
  6
CONTINUOUS
 10
177.906534763705
 20
-26.653558359943769
 30
0.0
  0
VERTEX
  5
1B92
  8
SAPA_PROFIL
  6
CONTINUOUS
 10
178.3199322233263
 20
-26.653558359943741
 30
0.0
 42
-0.1316524975873991
  0
VERTEX
  5
1B93
  8
SAPA_PROFIL
  6
CONTINUOUS
 10
178.4449322233263
 20
-26.687052008997711
 30
0.0
  0
VERTEX
  5
1B94
  8
SAPA_PROFIL
  6
CONTINUOUS
 10
178.90653476370471
 20
-26.953558359943781
 30
0.0
  0
VERTEX
  5
1B95
  8
SAPA_PROFIL
  6
CONTINUOUS
 10
179.36813730408321
 20
-26.687052008997689
 30
0.0
 42
-0.1316524975874127
  0
VERTEX
  5
1B96
  8
SAPA_PROFIL
  6
CONTINUOUS
 10
179.49313730408321
 20
-26.65355835994378
 30
0.0
  0
VERTEX
  5
1B97
  8
SAPA_PROFIL
  6
CONTINUOUS
 10
179.90653476370511
 20
-26.653558359943741
 30
0.0
 42
0.4142135623730951
  0
VERTEX
  5
1B98
  8
SAPA_PROFIL
  6
CONTINUOUS
 10
180.15653476370511
 20
-26.403558359943741
 30
0.0
 42
-0.4142135623730951
  0
VERTEX
  5
1B99
  8
SAPA_PROFIL
  6
CONTINUOUS
 10
180.40653476370511
 20
-26.153558359943741
 30
0.0
  0
VERTEX
  5
1B9A
  8
SAPA_PROFIL
  6
CONTINUOUS
 10
182.40653476370511
 20
-26.153558359943741
 30
0.0
 42
-0.4142135623737605
  0
VERTEX
  5
1B9B
  8
SAPA_PROFIL
  6
CONTINUOUS
 10
182.65653476370511
 20
-26.403558359944309
 30
0.0
 42
0.4142135623710724
  0
VERTEX
  5
1B9C
  8
SAPA_PROFIL
  6
CONTINUOUS
 10
182.90653476370511
 20
-26.653558359943769
 30
0.0
  0
VERTEX
  5
1B9D
  8
SAPA_PROFIL
  6
CONTINUOUS
 10
184.90653476370531
 20
-26.653558359943741
 30
0.0
 42
0.4142135623730951
  0
VERTEX
  5
1B9E
  8
SAPA_PROFIL
  6
CONTINUOUS
 10
185.15653476370531
 20
-26.403558359943741
 30
0.0
 42
-0.4142135623730951
  0
VERTEX
  5
1B9F
  8
SAPA_PROFIL
  6
CONTINUOUS
 10
185.40653476370531
 20
-26.153558359943741
 30
0.0
  0
VERTEX
  5
1BA0
  8
SAPA_PROFIL
  6
CONTINUOUS
 10
187.40653476370531
 20
-26.153558359943741
 30
0.0
 42
-0.4142135623729619
  0
VERTEX
  5
1BA1
  8
SAPA_PROFIL
  6
CONTINUOUS
 10
187.65653476370531
 20
-26.403558359943631
 30
0.0
 42
0.4142135623719792
  0
VERTEX
  5
1BA2
  8
SAPA_PROFIL
  6
CONTINUOUS
 10
187.90653476370531
 20
-26.65355835994367
 30
0.0
  0
VERTEX
  5
1BA3
  8
SAPA_PROFIL
  6
CONTINUOUS
 10
189.90653476370539
 20
-26.653558359943741
 30
0.0
 42
0.4142135623732283
  0
VERTEX
  5
1BA4
  8
SAPA_PROFIL
  6
CONTINUOUS
 10
190.15653476370539
 20
-26.403558359943631
 30
0.0
 42
-0.4142135623729617
  0
VERTEX
  5
1BA5
  8
SAPA_PROFIL
  6
CONTINUOUS
 10
190.40653476370539
 20
-26.153558359943752
 30
0.0
  0
VERTEX
  5
1BA6
  8
SAPA_PROFIL
  6
CONTINUOUS
 10
192.40653476370539
 20
-26.153558359943752
 30
0.0
 42
-0.4142135623737605
  0
VERTEX
  5
1BA7
  8
SAPA_PROFIL
  6
CONTINUOUS
 10
192.65653476370539
 20
-26.403558359944309
 30
0.0
 42
0.4142135623711806
  0
VERTEX
  5
1BA8
  8
SAPA_PROFIL
  6
CONTINUOUS
 10
192.90653476370539
 20
-26.65355835994367
 30
0.0
  0
VERTEX
  5
1BA9
  8
SAPA_PROFIL
  6
CONTINUOUS
 10
194.90653476370551
 20
-26.653558359943741
 30
0.0
 42
0.4142135623730951
  0
VERTEX
  5
1BAA
  8
SAPA_PROFIL
  6
CONTINUOUS
 10
195.15653476370551
 20
-26.403558359943752
 30
0.0
 42
-0.4142135623730951
  0
VERTEX
  5
1BAB
  8
SAPA_PROFIL
  6
CONTINUOUS
 10
195.40653476370551
 20
-26.153558359943752
 30
0.0
  0
VERTEX
  5
1BAC
  8
SAPA_PROFIL
  6
CONTINUOUS
 10
197.40653476370551
 20
-26.153558359943752
 30
0.0
 42
-0.4142135623737605
  0
VERTEX
  5
1BAD
  8
SAPA_PROFIL
  6
CONTINUOUS
 10
197.65653476370551
 20
-26.403558359944309
 30
0.0
 42
0.4142135623710638
  0
VERTEX
  5
1BAE
  8
SAPA_PROFIL
  6
CONTINUOUS
 10
197.90653476370551
 20
-26.65355835994378
 30
0.0
  0
VERTEX
  5
1BAF
  8
SAPA_PROFIL
  6
CONTINUOUS
 10
199.90653476370559
 20
-26.653558359943741
 30
0.0
 42
0.4142135623730951
  0
VERTEX
  5
1BB0
  8
SAPA_PROFIL
  6
CONTINUOUS
 10
200.15653476370559
 20
-26.403558359943752
 30
0.0
 42
-0.4142135623730951
  0
VERTEX
  5
1BB1
  8
SAPA_PROFIL
  6
CONTINUOUS
 10
200.40653476370559
 20
-26.153558359943752
 30
0.0
  0
VERTEX
  5
1BB2
  8
SAPA_PROFIL
  6
CONTINUOUS
 10
202.40653476370559
 20
-26.153558359943752
 30
0.0
 42
-0.4142135623737605
  0
VERTEX
  5
1BB3
  8
SAPA_PROFIL
  6
CONTINUOUS
 10
202.65653476370559
 20
-26.40355835994432
 30
0.0
 42
0.4142135623710638
  0
VERTEX
  5
1BB4
  8
SAPA_PROFIL
  6
CONTINUOUS
 10
202.90653476370559
 20
-26.65355835994378
 30
0.0
  0
VERTEX
  5
1BB5
  8
SAPA_PROFIL
  6
CONTINUOUS
 10
204.90653476370571
 20
-26.653558359943752
 30
0.0
 42
0.4142135623730951
  0
VERTEX
  5
1BB6
  8
SAPA_PROFIL
  6
CONTINUOUS
 10
205.15653476370571
 20
-26.403558359943752
 30
0.0
 42
-0.4142135623730951
  0
VERTEX
  5
1BB7
  8
SAPA_PROFIL
  6
CONTINUOUS
 10
205.40653476370571
 20
-26.153558359943752
 30
0.0
  0
VERTEX
  5
1BB8
  8
SAPA_PROFIL
  6
CONTINUOUS
 10
207.40653476370571
 20
-26.153558359943752
 30
0.0
 42
-0.4142135623737605
  0
VERTEX
  5
1BB9
  8
SAPA_PROFIL
  6
CONTINUOUS
 10
207.65653476370571
 20
-26.40355835994432
 30
0.0
 42
0.4142135623710638
  0
VERTEX
  5
1BBA
  8
SAPA_PROFIL
  6
CONTINUOUS
 10
207.90653476370571
 20
-26.65355835994378
 30
0.0
  0
VERTEX
  5
1BBB
  8
SAPA_PROFIL
  6
CONTINUOUS
 10
209.90653476370579
 20
-26.653558359943752
 30
0.0
 42
0.4142135623730951
  0
VERTEX
  5
1BBC
  8
SAPA_PROFIL
  6
CONTINUOUS
 10
210.15653476370579
 20
-26.403558359943752
 30
0.0
 42
-0.4142135623730951
  0
VERTEX
  5
1BBD
  8
SAPA_PROFIL
  6
CONTINUOUS
 10
210.40653476370579
 20
-26.153558359943752
 30
0.0
  0
VERTEX
  5
1BBE
  8
SAPA_PROFIL
  6
CONTINUOUS
 10
211.20653476370481
 20
-26.153558359943752
 30
0.0
 42
-0.4142135623730868
  0
VERTEX
  5
1BBF
  8
SAPA_PROFIL
  6
CONTINUOUS
 10
213.20653476370481
 20
-28.153558359943691
 30
0.0
  0
VERTEX
  5
1BC0
  8
SAPA_PROFIL
  6
CONTINUOUS
 10
213.20653476370509
 20
-35.653558359943737
 30
0.0
 42
-0.4142135623731117
  0
VERTEX
  5
1BC1
  8
SAPA_PROFIL
  6
CONTINUOUS
 10
212.70653476370509
 20
-36.153558359943773
 30
0.0
  0
VERTEX
  5
1BC2
  8
SAPA_PROFIL
  6
CONTINUOUS
 10
212.20653476370501
 20
-36.153558359943773
 30
0.0
 42
-0.4142135623730951
  0
VERTEX
  5
1BC3
  8
SAPA_PROFIL
  6
CONTINUOUS
 10
211.70653476370501
 20
-35.653558359943773
 30
0.0
  0
VERTEX
  5
1BC4
  8
SAPA_PROFIL
  6
CONTINUOUS
 10
211.70653476370501
 20
-29.45355811731357
 30
0.0
 42
0.4142135623730951
  0
VERTEX
  5
1BC5
  8
SAPA_PROFIL
  6
CONTINUOUS
 10
211.406534763705
 20
-29.153558117313558
 30
0.0
  0
VERTEX
  5
1BC6
  8
SAPA_PROFIL
  6
CONTINUOUS
 10
210.6065342637047
 20
-29.15355811731359
 30
0.0
 42
0.4142135623730951
  0
VERTEX
  5
1BC7
  8
SAPA_PROFIL
  6
CONTINUOUS
 10
210.3065342637048
 20
-29.45355811731357
 30
0.0
  0
VERTEX
  5
1BC8
  8
SAPA_PROFIL
  6
CONTINUOUS
 10
210.30653426370469
 20
-30.196833827603079
 30
0.0
 42
-0.4142135623730394
  0
SEQEND
  5
1BC9
  8
SAPA_PROFIL
  6
CONTINUOUS
  0
POLYLINE
  5
16B2
  8
SAPA_PROFIL
 66
     1
 10
0.0
 20
0.0
 30
0.0
 70
     1
  0
VERTEX
  5
1BCA
  8
SAPA_PROFIL
 10
218.78862139204401
 20
88.909408879523525
 30
0.0
 42
0.2038501166358089
  0
VERTEX
  5
1BCB
  8
SAPA_PROFIL
 10
218.93180424865
 20
89.273715658941342
 30
0.0
  0
VERTEX
  5
1BCC
  8
SAPA_PROFIL
 10
218.51317813936089
 20
104.3784289115418
 30
0.0
 42
0.4061212134722958
  0
VERTEX
  5
1BCD
  8
SAPA_PROFIL
 10
215.51432965226169
 20
107.29531602793379
 30
0.0
  0
VERTEX
  5
1BCE
  8
SAPA_PROFIL
 10
207.70654615111681
 20
107.29531602793379
 30
0.0
 42
0.4142135623730951
  0
VERTEX
  5
1BCF
  8
SAPA_PROFIL
 10
207.20654615111681
 20
106.79531602793379
 30
0.0
  0
VERTEX
  5
1BD0
  8
SAPA_PROFIL
 10
207.20654615111681
 20
95.085265521587544
 30
0.0
 42
-0.1989123673796573
  0
VERTEX
  5
1BD1
  8
SAPA_PROFIL
 10
206.62075971349009
 20
93.671051959214196
 30
0.0
  0
VERTEX
  5
1BD2
  8
SAPA_PROFIL
 10
205.00400135162801
 20
92.054293597352512
 30
0.0
 42
0.1989123673796573
  0
VERTEX
  5
1BD3
  8
SAPA_PROFIL
 10
204.71110813281459
 20
91.347186816165845
 30
0.0
  0
VERTEX
  5
1BD4
  8
SAPA_PROFIL
 10
205.20872367007561
 20
82.397084198188054
 30
0.0
 42
-0.6681786379236462
  0
VERTEX
  5
1BD5
  8
SAPA_PROFIL
 10
204.69357318028671
 20
82.18370187865446
 30
0.0
  0
VERTEX
  5
1BD6
  8
SAPA_PROFIL
 10
202.69409106536409
 20
84.183183993577003
 30
0.0
 42
-0.7332303362587975
  0
VERTEX
  5
1BD7
  8
SAPA_PROFIL
 10
202.95831755302129
 20
84.690758353836713
 30
0.0
  0
VERTEX
  5
1BD8
  8
SAPA_PROFIL
 10
203.57412864641969
 20
84.582174243050645
 30
0.0
 42
0.4663076581593609
  0
VERTEX
  5
1BD9
  8
SAPA_PROFIL
 10
203.92622309971989
 20
84.877616568954053
 30
0.0
  0
VERTEX
  5
1BDA
  8
SAPA_PROFIL
 10
203.42860756245889
 20
91.488950314522185
 30
0.0
 42
-0.1989123673796569
  0
VERTEX
  5
1BDB
  8
SAPA_PROFIL
 10
204.01439400008601
 20
92.903163876895519
 30
0.0
  0
VERTEX
  5
1BDC
  8
SAPA_PROFIL
 10
205.61365293230321
 20
94.502422809113227
 30
0.0
 42
0.1989123673796555
  0
VERTEX
  5
1BDD
  8
SAPA_PROFIL
 10
205.906546151117
 20
95.209529590299439
 30
0.0
  0
VERTEX
  5
1BDE
  8
SAPA_PROFIL
 10
205.906546151117
 20
106.49531602793731
 30
0.0
 42
0.4142135623732283
  0
VERTEX
  5
1BDF
  8
SAPA_PROFIL
 10
205.4065461511166
 20
106.99531602793731
 30
0.0
  0
VERTEX
  5
1BE0
  8
SAPA_PROFIL
 10
204.20654615111721
 20
106.9953160279364
 30
0.0
 42
-0.4142135623732616
  0
VERTEX
  5
1BE1
  8
SAPA_PROFIL
 10
203.906546151117
 20
107.29531602793649
 30
0.0
  0
VERTEX
  5
1BE2
  8
SAPA_PROFIL
 10
203.906546151117
 20
108.4953160279218
 30
0.0
 42
-0.4142135623716522
  0
VERTEX
  5
1BE3
  8
SAPA_PROFIL
 10
204.20654615111769
 20
108.7953160279238
 30
0.0
  0
VERTEX
  5
1BE4
  8
SAPA_PROFIL
 10
220.10654615111639
 20
108.795316027947
 30
0.0
 42
-0.4142135623735277
  0
VERTEX
  5
1BE5
  8
SAPA_PROFIL
 10
220.406546151117
 20
108.4953160279473
 30
0.0
  0
VERTEX
  5
1BE6
  8
SAPA_PROFIL
 10
220.406546151117
 20
86.999939914255151
 30
0.0
 42
-0.4210020197690798
  0
VERTEX
  5
1BE7
  8
SAPA_PROFIL
 10
220.20659960907301
 20
86.795316027933836
 30
0.0
  0
VERTEX
  5
1BE8
  8
SAPA_PROFIL
 10
219.41130614041981
 20
86.795316027933836
 30
0.0
  0
VERTEX
  5
1BE9
  8
SAPA_PROFIL
 10
219.41130614041981
 20
87.095316027934018
 30
0.0
 42
0.4142135623730951
  0
VERTEX
  5
1BEA
  8
SAPA_PROFIL
 10
219.21130614041999
 20
87.295316027933836
 30
0.0
  0
VERTEX
  5
1BEB
  8
SAPA_PROFIL
 10
218.96876220257289
 20
87.295316027933836
 30
0.0
 42
0.2011813370902619
  0
VERTEX
  5
1BEC
  8
SAPA_PROFIL
 10
218.82611211274229
 20
87.235497880793787
 30
0.0
  0
VERTEX
  5
1BED
  8
SAPA_PROFIL
 10
217.91540001971839
 20
86.308750522064088
 30
0.0
  0
VERTEX
  5
1BEE
  8
SAPA_PROFIL
 10
217.92860756246159
 20
84.795316027932003
 30
0.0
 42
-0.4931454260355948
  0
VERTEX
  5
1BEF
  8
SAPA_PROFIL
 10
218.14943445150931
 20
83.224051067694177
 30
0.0
  0
VERTEX
  5
1BF0
  8
SAPA_PROFIL
 10
217.1002578788964
 20
82.156401230869847
 30
0.0
 42
-0.6681786379164273
  0
VERTEX
  5
1BF1
  8
SAPA_PROFIL
 10
216.7503576214115
 20
82.297770111323544
 30
0.0
  0
VERTEX
  5
1BF2
  8
SAPA_PROFIL
 10
216.71110813281419
 20
86.795316027933836
 30
0.0
  0
SEQEND
  5
1BF3
  8
SAPA_PROFIL
  0
POLYLINE
  5
16B3
  8
SAPA_PROFIL
 62
     6
 66
     1
 10
0.0
 20
0.0
 30
0.0
 70
     1
  0
VERTEX
  5
1BF4
  8
SAPA_PROFIL
 62
     6
 10
193.90653474774609
 20
80.996441633327507
 30
0.0
  0
VERTEX
  5
1BF5
  8
SAPA_PROFIL
 62
     6
 10
163.90653474774609
 20
80.996441633327507
 30
0.0
  0
VERTEX
  5
1BF6
  8
SAPA_PROFIL
 62
     6
 10
163.90653474774609
 20
8.9964416333274961
 30
0.0
  0
VERTEX
  5
1BF7
  8
SAPA_PROFIL
 62
     6
 10
193.90653474774609
 20
8.9964416333274944
 30
0.0
  0
SEQEND
  5
1BF8
  8
SAPA_PROFIL
 62
     6
  0
POLYLINE
  5
16B4
  8
SAPA_PROFIL
 66
     1
 10
0.0
 20
0.0
 30
0.0
 70
     1
  0
VERTEX
  5
1BF9
  8
SAPA_PROFIL
 10
160.406534767061
 20
79.812084508635422
 30
0.0
 42
-0.2679491924311144
  0
VERTEX
  5
1BFA
  8
SAPA_PROFIL
 10
159.906534767061
 20
78.946059104850974
 30
0.0
  0
VERTEX
  5
1BFB
  8
SAPA_PROFIL
 10
158.1565347670608
 20
77.935696133768914
 30
0.0
 42
0.2679491924311245
  0
VERTEX
  5
1BFC
  8
SAPA_PROFIL
 10
157.9065347670608
 20
77.502683431876676
 30
0.0
  0
VERTEX
  5
1BFD
  8
SAPA_PROFIL
 10
157.9065347670608
 20
12.49019984829482
 30
0.0
 42
0.2679491924311231
  0
VERTEX
  5
1BFE
  8
SAPA_PROFIL
 10
158.1565347670608
 20
12.05718714640261
 30
0.0
  0
VERTEX
  5
1BFF
  8
SAPA_PROFIL
 10
159.90653476706089
 20
11.04682417532041
 30
0.0
 42
-0.2679491924311169
  0
VERTEX
  5
1C00
  8
SAPA_PROFIL
 10
160.4065347670608
 20
10.1807987715361
 30
0.0
  0
VERTEX
  5
1C01
  8
SAPA_PROFIL
 10
160.40653476706069
 20
8.7951581254809525
 30
0.0
 42
-0.5773502691897388
  0
VERTEX
  5
1C02
  8
SAPA_PROFIL
 10
160.10653476706071
 20
8.6219530447241937
 30
0.0
  0
VERTEX
  5
1C03
  8
SAPA_PROFIL
 10
158.50653476706111
 20
9.5457134754274762
 30
0.0
  0
VERTEX
  5
1C04
  8
SAPA_PROFIL
 10
158.20653476706079
 20
9.5457134754274762
 30
0.0
 42
0.4142135623729036
  0
VERTEX
  5
1C05
  8
SAPA_PROFIL
 10
157.9065347670608
 20
9.2457134754275785
 30
0.0
  0
VERTEX
  5
1C06
  8
SAPA_PROFIL
 10
157.9065347670608
 20
5.3929270709274979
 30
0.0
 42
-0.2134217652834283
  0
VERTEX
  5
1C07
  8
SAPA_PROFIL
 10
157.8065347670607
 20
5.1693202731774468
 30
0.0
 42
0.7625858545243336
  0
VERTEX
  5
1C08
  8
SAPA_PROFIL
 10
157.99111396925821
 20
4.8389941921603841
 30
0.0
  0
VERTEX
  5
1C09
  8
SAPA_PROFIL
 10
158.1824969692519
 20
4.8970678291494769
 30
0.0
  0
VERTEX
  5
1C0A
  8
SAPA_PROFIL
 10
160.0683406611129
 20
5.9816322761212168
 30
0.0
  0
VERTEX
  5
1C0B
  8
SAPA_PROFIL
 10
160.05777929488599
 20
6.3033900043394624
 30
0.0
 42
-0.5773502691897449
  0
VERTEX
  5
1C0C
  8
SAPA_PROFIL
 10
160.35193559514079
 20
6.4863437444496412
 30
0.0
  0
VERTEX
  5
1C0D
  8
SAPA_PROFIL
 10
160.63661787837239
 20
6.3342098333408776
 30
0.0
 42
-0.221694662643014
  0
VERTEX
  5
1C0E
  8
SAPA_PROFIL
 10
161.04242678352719
 20
5.7933300018640921
 30
0.0
  0
VERTEX
  5
1C0F
  8
SAPA_PROFIL
 10
161.42387337965491
 20
3.980099531205894
 30
0.0
 42
-0.476975532698164
  0
VERTEX
  5
1C10
  8
SAPA_PROFIL
 10
161.1216205551485
 20
3.608442656259967
 30
0.0
  0
VERTEX
  5
1C11
  8
SAPA_PROFIL
 10
159.61851947438649
 20
3.6085262641436202
 30
0.0
  0
VERTEX
  5
1C12
  8
SAPA_PROFIL
 10
159.60400106513941
 20
3.6563720141421072
 30
0.0
 42
0.4142135623730868
  0
VERTEX
  5
1C13
  8
SAPA_PROFIL
 10
159.2298161096636
 20
3.8563360586495028
 30
0.0
  0
VERTEX
  5
1C14
  8
SAPA_PROFIL
 10
157.91058310790149
 20
3.3464416400857431
 30
0.0
  0
VERTEX
  5
1C15
  8
SAPA_PROFIL
 10
138.17505637040469
 20
3.346441640085799
 30
0.0
 42
0.3821712090170688
  0
VERTEX
  5
1C16
  8
SAPA_PROFIL
 10
137.8768901753028
 20
3.0795614241799849
 30
0.0
  0
VERTEX
  5
1C17
  8
SAPA_PROFIL
 10
137.3510506403378
 20
-3.4984093599142621
 30
0.0
 42
0.4469990000000225
  0
VERTEX
  5
1C18
  8
SAPA_PROFIL
 10
137.84799464033779
 20
-4.0536093599142191
 30
0.0
  0
VERTEX
  5
1C19
  8
SAPA_PROFIL
 10
139.60653476706079
 20
-4.0536093599142191
 30
0.0
 42
-0.414213999999998
  0
VERTEX
  5
1C1A
  8
SAPA_PROFIL
 10
140.60653476706079
 20
-5.0536093599142191
 30
0.0
  0
VERTEX
  5
1C1B
  8
SAPA_PROFIL
 10
140.60653476706079
 20
-5.3211533599142617
 30
0.0
 42
-0.2896899999999803
  0
VERTEX
  5
1C1C
  8
SAPA_PROFIL
 10
140.0351067670608
 20
-6.2246613599141929
 30
0.0
 42
-0.5507600000000087
  0
VERTEX
  5
1C1D
  8
SAPA_PROFIL
 10
139.60653476706079
 20
-5.9536093599141964
 30
0.0
  0
VERTEX
  5
1C1E
  8
SAPA_PROFIL
 10
139.60653476706079
 20
-5.6536093599142978
 30
0.0
 42
0.4142140000001479
  0
VERTEX
  5
1C1F
  8
SAPA_PROFIL
 10
139.4065347670608
 20
-5.4536093599141964
 30
0.0
  0
VERTEX
  5
1C20
  8
SAPA_PROFIL
 10
138.30653476706081
 20
-5.4536093599141964
 30
0.0
 42
0.4142139999999898
  0
VERTEX
  5
1C21
  8
SAPA_PROFIL
 10
137.30653476706081
 20
-6.4536093599141964
 30
0.0
  0
VERTEX
  5
1C22
  8
SAPA_PROFIL
 10
137.30653476706081
 20
-8.7535583599142228
 30
0.0
 42
0.4142139999999898
  0
VERTEX
  5
1C23
  8
SAPA_PROFIL
 10
138.30653476706081
 20
-9.7535583599142228
 30
0.0
  0
VERTEX
  5
1C24
  8
SAPA_PROFIL
 10
139.4065347670608
 20
-9.7535583599141642
 30
0.0
 42
0.4142139999999398
  0
VERTEX
  5
1C25
  8
SAPA_PROFIL
 10
139.60653476706079
 20
-9.5535583599142342
 30
0.0
  0
VERTEX
  5
1C26
  8
SAPA_PROFIL
 10
139.60653476706079
 20
-9.2536093599142077
 30
0.0
 42
-0.5507600000000129
  0
VERTEX
  5
1C27
  8
SAPA_PROFIL
 10
140.0351067670608
 20
-8.9825563599142697
 30
0.0
 42
-0.2896900000000043
  0
VERTEX
  5
1C28
  8
SAPA_PROFIL
 10
140.60653476706079
 20
-9.8860643599142008
 30
0.0
  0
VERTEX
  5
1C29
  8
SAPA_PROFIL
 10
140.60653476706079
 20
-10.15355835991425
 30
0.0
 42
-0.4142140000000064
  0
VERTEX
  5
1C2A
  8
SAPA_PROFIL
 10
139.60653476706079
 20
-11.15355835991425
 30
0.0
  0
VERTEX
  5
1C2B
  8
SAPA_PROFIL
 10
137.9065347670608
 20
-11.1535583599142
 30
0.0
 42
-0.4142139999999898
  0
VERTEX
  5
1C2C
  8
SAPA_PROFIL
 10
135.9065347670608
 20
-9.1535583599142001
 30
0.0
  0
VERTEX
  5
1C2D
  8
SAPA_PROFIL
 10
135.90653476706089
 20
108.3464416400857
 30
0.0
 42
-0.414213999999998
  0
VERTEX
  5
1C2E
  8
SAPA_PROFIL
 10
136.4065347670608
 20
108.8464416400857
 30
0.0
  0
VERTEX
  5
1C2F
  8
SAPA_PROFIL
 10
140.10653476706079
 20
108.8464416400856
 30
0.0
 42
-0.4142139999999107
  0
VERTEX
  5
1C30
  8
SAPA_PROFIL
 10
140.4065347670608
 20
108.5464416400858
 30
0.0
  0
VERTEX
  5
1C31
  8
SAPA_PROFIL
 10
140.40653476706089
 20
107.7788966400857
 30
0.0
 42
-0.2896899999999899
  0
VERTEX
  5
1C32
  8
SAPA_PROFIL
 10
139.83510676706081
 20
106.8753886400857
 30
0.0
 42
-0.5507600000000253
  0
VERTEX
  5
1C33
  8
SAPA_PROFIL
 10
139.4065347670608
 20
107.1464416400857
 30
0.0
  0
VERTEX
  5
1C34
  8
SAPA_PROFIL
 10
139.4065347670608
 20
107.3464416400857
 30
0.0
 42
0.4142140000000646
  0
VERTEX
  5
1C35
  8
SAPA_PROFIL
 10
139.10653476706079
 20
107.6464416400857
 30
0.0
  0
VERTEX
  5
1C36
  8
SAPA_PROFIL
 10
137.60653476706079
 20
107.6464416400857
 30
0.0
 42
0.414213999999998
  0
VERTEX
  5
1C37
  8
SAPA_PROFIL
 10
137.10653476706079
 20
107.1464416400857
 30
0.0
  0
VERTEX
  5
1C38
  8
SAPA_PROFIL
 10
137.10653476706079
 20
103.8464416400857
 30
0.0
 42
0.4142140000000147
  0
VERTEX
  5
1C39
  8
SAPA_PROFIL
 10
137.60653476706079
 20
103.3464416400857
 30
0.0
  0
VERTEX
  5
1C3A
  8
SAPA_PROFIL
 10
139.10653476706079
 20
103.3464416400857
 30
0.0
 42
0.4142140000000064
  0
VERTEX
  5
1C3B
  8
SAPA_PROFIL
 10
139.4065347670608
 20
103.6464416400857
 30
0.0
  0
VERTEX
  5
1C3C
  8
SAPA_PROFIL
 10
139.4065347670608
 20
103.8464416400857
 30
0.0
 42
-0.5507599999999967
  0
VERTEX
  5
1C3D
  8
SAPA_PROFIL
 10
139.83510676706089
 20
104.1174936400857
 30
0.0
 42
-0.2896899999999881
  0
VERTEX
  5
1C3E
  8
SAPA_PROFIL
 10
140.4065347670608
 20
103.2139856400857
 30
0.0
  0
VERTEX
  5
1C3F
  8
SAPA_PROFIL
 10
140.4065347670608
 20
102.21651464008571
 30
0.0
 42
-0.0436609999999811
  0
VERTEX
  5
1C40
  8
SAPA_PROFIL
 10
140.3989387670608
 20
102.1296896400858
 30
0.0
  0
VERTEX
  5
1C41
  8
SAPA_PROFIL
 10
140.12209276706079
 20
100.5596176400858
 30
0.0
 42
-0.8390999999999783
  0
VERTEX
  5
1C42
  8
SAPA_PROFIL
 10
139.13728476706081
 20
100.5596176400858
 30
0.0
  0
VERTEX
  5
1C43
  8
SAPA_PROFIL
 10
138.9303397670609
 20
101.7332656400858
 30
0.0
 42
0.3639700000000321
  0
VERTEX
  5
1C44
  8
SAPA_PROFIL
 10
138.43793576706079
 20
102.1464416400857
 30
0.0
  0
VERTEX
  5
1C45
  8
SAPA_PROFIL
 10
137.6265347670608
 20
102.1464416400857
 30
0.0
 42
0.4373279999999815
  0
VERTEX
  5
1C46
  8
SAPA_PROFIL
 10
137.1280657670608
 20
101.60734664008569
 30
0.0
  0
VERTEX
  5
1C47
  8
SAPA_PROFIL
 10
137.6948642534567
 20
87.134288366669381
 30
0.0
 42
0.402394135529822
  0
VERTEX
  5
1C48
  8
SAPA_PROFIL
 10
137.99461798228299
 20
86.846441640085686
 30
0.0
  0
VERTEX
  5
1C49
  8
SAPA_PROFIL
 10
138.79515176706079
 20
86.846441640085686
 30
0.0
 42
-0.2596810000001258
  0
VERTEX
  5
1C4A
  8
SAPA_PROFIL
 10
138.96518276706081
 20
86.751748640085665
 30
0.0
  0
VERTEX
  5
1C4B
  8
SAPA_PROFIL
 10
139.8615817670609
 20
85.304401640085814
 30
0.0
 42
-0.5877030000000313
  0
VERTEX
  5
1C4C
  8
SAPA_PROFIL
 10
139.60653476706079
 20
84.846441640085686
 30
0.0
  0
VERTEX
  5
1C4D
  8
SAPA_PROFIL
 10
138.20653476706079
 20
84.846441640085686
 30
0.0
 42
0.4142139999999523
  0
VERTEX
  5
1C4E
  8
SAPA_PROFIL
 10
137.9065347670608
 20
84.546441640085789
 30
0.0
  0
VERTEX
  5
1C4F
  8
SAPA_PROFIL
 10
137.9065347670608
 20
82.146441640085783
 30
0.0
 42
0.4142140000000606
  0
VERTEX
  5
1C50
  8
SAPA_PROFIL
 10
138.20653476706079
 20
81.846441640085686
 30
0.0
  0
VERTEX
  5
1C51
  8
SAPA_PROFIL
 10
155.60653476706079
 20
81.846441640085686
 30
0.0
 42
0.4142140000001147
  0
VERTEX
  5
1C52
  8
SAPA_PROFIL
 10
155.9065347670608
 20
82.146441640085783
 30
0.0
  0
VERTEX
  5
1C53
  8
SAPA_PROFIL
 10
155.9065347670608
 20
84.546441640085789
 30
0.0
 42
0.4142140000000064
  0
VERTEX
  5
1C54
  8
SAPA_PROFIL
 10
155.60653476706079
 20
84.846441640085686
 30
0.0
  0
VERTEX
  5
1C55
  8
SAPA_PROFIL
 10
154.20653476706079
 20
84.846441640085686
 30
0.0
 42
-0.5920053870335283
  0
VERTEX
  5
1C56
  8
SAPA_PROFIL
 10
153.95352624043841
 20
85.307644956440043
 30
0.0
  0
VERTEX
  5
1C57
  8
SAPA_PROFIL
 10
154.74757912418059
 20
86.553910619906546
 30
0.0
 42
-0.2562770082070921
  0
VERTEX
  5
1C58
  8
SAPA_PROFIL
 10
154.91625164232241
 20
86.646441640085669
 30
0.0
  0
VERTEX
  5
1C59
  8
SAPA_PROFIL
 10
157.91058310790191
 20
86.646441640085669
 30
0.0
  0
VERTEX
  5
1C5A
  8
SAPA_PROFIL
 10
159.2298161096636
 20
86.136547221522051
 30
0.0
 42
0.4142135623730868
  0
VERTEX
  5
1C5B
  8
SAPA_PROFIL
 10
159.60400106513941
 20
86.336511266029447
 30
0.0
  0
VERTEX
  5
1C5C
  8
SAPA_PROFIL
 10
159.61851947438649
 20
86.384357016027934
 30
0.0
  0
VERTEX
  5
1C5D
  8
SAPA_PROFIL
 10
161.1216205551485
 20
86.384440623911559
 30
0.0
 42
-0.4769755326981641
  0
VERTEX
  5
1C5E
  8
SAPA_PROFIL
 10
161.42387337965499
 20
86.012783748965717
 30
0.0
  0
VERTEX
  5
1C5F
  8
SAPA_PROFIL
 10
161.04242678352719
 20
84.199553278307434
 30
0.0
 42
-0.2216946626430139
  0
VERTEX
  5
1C60
  8
SAPA_PROFIL
 10
160.6366178783725
 20
83.658673446830676
 30
0.0
  0
VERTEX
  5
1C61
  8
SAPA_PROFIL
 10
160.35193559514079
 20
83.506539535721913
 30
0.0
 42
-0.5773502691897449
  0
VERTEX
  5
1C62
  8
SAPA_PROFIL
 10
160.05777929488599
 20
83.689493275832092
 30
0.0
  0
VERTEX
  5
1C63
  8
SAPA_PROFIL
 10
160.06834066111301
 20
84.011251004050337
 30
0.0
  0
VERTEX
  5
1C64
  8
SAPA_PROFIL
 10
158.1824969692519
 20
85.095815451022077
 30
0.0
  0
VERTEX
  5
1C65
  8
SAPA_PROFIL
 10
157.99111396925821
 20
85.153889088011169
 30
0.0
 42
0.7625858545243336
  0
VERTEX
  5
1C66
  8
SAPA_PROFIL
 10
157.8065347670607
 20
84.823563006994164
 30
0.0
 42
-0.2134217652834432
  0
VERTEX
  5
1C67
  8
SAPA_PROFIL
 10
157.9065347670608
 20
84.599956209244013
 30
0.0
  0
VERTEX
  5
1C68
  8
SAPA_PROFIL
 10
157.9065347670608
 20
80.747169804743947
 30
0.0
 42
0.4142135623729036
  0
VERTEX
  5
1C69
  8
SAPA_PROFIL
 10
158.2065347670609
 20
80.447169804744036
 30
0.0
  0
VERTEX
  5
1C6A
  8
SAPA_PROFIL
 10
158.50653476706111
 20
80.447169804744036
 30
0.0
  0
VERTEX
  5
1C6B
  8
SAPA_PROFIL
 10
160.10653476706071
 20
81.370930235447446
 30
0.0
 42
-0.5773502691897388
  0
VERTEX
  5
1C6C
  8
SAPA_PROFIL
 10
160.4065347670608
 20
81.197725154690545
 30
0.0
  0
SEQEND
  5
1C6D
  8
SAPA_PROFIL
  0
POLYLINE
  5
16B5
  8
SAPA_PROFIL
  6
CONTINUOUS
 66
     1
 10
0.0
 20
0.0
 30
0.0
 70
     1
  0
VERTEX
  5
1C6E
  8
SAPA_PROFIL
  6
CONTINUOUS
 10
155.80653476706081
 20
7.046441640085674
 30
0.0
 42
-0.4142135623730951
  0
VERTEX
  5
1C6F
  8
SAPA_PROFIL
  6
CONTINUOUS
 10
155.60653476706079
 20
7.2464416400857203
 30
0.0
  0
VERTEX
  5
1C70
  8
SAPA_PROFIL
  6
CONTINUOUS
 10
155.60653476706079
 20
8.8464416400857431
 30
0.0
 42
-0.4142135623730951
  0
VERTEX
  5
1C71
  8
SAPA_PROFIL
  6
CONTINUOUS
 10
155.80653476706081
 20
9.0464416400857885
 30
0.0
  0
VERTEX
  5
1C72
  8
SAPA_PROFIL
  6
CONTINUOUS
 10
156.10653485093411
 20
9.0464416400857317
 30
0.0
  0
VERTEX
  5
1C73
  8
SAPA_PROFIL
  6
CONTINUOUS
 10
156.10653485093411
 20
76.146441640085783
 30
0.0
  0
VERTEX
  5
1C74
  8
SAPA_PROFIL
  6
CONTINUOUS
 10
155.80653476706081
 20
76.146441640085726
 30
0.0
 42
-0.4142135623730951
  0
VERTEX
  5
1C75
  8
SAPA_PROFIL
  6
CONTINUOUS
 10
155.60653476706079
 20
76.346441640085771
 30
0.0
  0
VERTEX
  5
1C76
  8
SAPA_PROFIL
  6
CONTINUOUS
 10
155.60653476706091
 20
77.946441640085794
 30
0.0
 42
-0.4142135623730951
  0
VERTEX
  5
1C77
  8
SAPA_PROFIL
  6
CONTINUOUS
 10
155.80653476706081
 20
78.146441640085783
 30
0.0
  0
VERTEX
  5
1C78
  8
SAPA_PROFIL
  6
CONTINUOUS
 10
156.10653485093411
 20
78.146441640085783
 30
0.0
  0
VERTEX
  5
1C79
  8
SAPA_PROFIL
  6
CONTINUOUS
 10
156.10653485093411
 20
79.846441640085771
 30
0.0
 42
0.4142135623730951
  0
VERTEX
  5
1C7A
  8
SAPA_PROFIL
  6
CONTINUOUS
 10
155.80653485093421
 20
80.146441640085769
 30
0.0
  0
VERTEX
  5
1C7B
  8
SAPA_PROFIL
  6
CONTINUOUS
 10
138.20653476706079
 20
80.146441640085754
 30
0.0
 42
0.4142135623730951
  0
VERTEX
  5
1C7C
  8
SAPA_PROFIL
  6
CONTINUOUS
 10
137.9065347670608
 20
79.846441640085771
 30
0.0
  0
VERTEX
  5
1C7D
  8
SAPA_PROFIL
  6
CONTINUOUS
 10
137.9065347670608
 20
78.146441640085783
 30
0.0
  0
VERTEX
  5
1C7E
  8
SAPA_PROFIL
  6
CONTINUOUS
 10
138.0065347670608
 20
78.146441640085783
 30
0.0
 42
-0.4142135623730951
  0
VERTEX
  5
1C7F
  8
SAPA_PROFIL
  6
CONTINUOUS
 10
138.20653476706079
 20
77.946441640085794
 30
0.0
  0
VERTEX
  5
1C80
  8
SAPA_PROFIL
  6
CONTINUOUS
 10
138.20653476706079
 20
76.346441640085771
 30
0.0
 42
-0.4142135623730951
  0
VERTEX
  5
1C81
  8
SAPA_PROFIL
  6
CONTINUOUS
 10
138.0065347670608
 20
76.146441640085783
 30
0.0
  0
VERTEX
  5
1C82
  8
SAPA_PROFIL
  6
CONTINUOUS
 10
137.9065347670608
 20
76.146441640085783
 30
0.0
  0
VERTEX
  5
1C83
  8
SAPA_PROFIL
  6
CONTINUOUS
 10
137.9065347670608
 20
9.0464416400857885
 30
0.0
  0
VERTEX
  5
1C84
  8
SAPA_PROFIL
  6
CONTINUOUS
 10
138.0065347670608
 20
9.0464416400857317
 30
0.0
 42
-0.4142135623730951
  0
VERTEX
  5
1C85
  8
SAPA_PROFIL
  6
CONTINUOUS
 10
138.20653476706079
 20
8.8464416400857431
 30
0.0
  0
VERTEX
  5
1C86
  8
SAPA_PROFIL
  6
CONTINUOUS
 10
138.20653476706079
 20
7.2464416400857203
 30
0.0
 42
-0.4142135623730951
  0
VERTEX
  5
1C87
  8
SAPA_PROFIL
  6
CONTINUOUS
 10
138.0065347670608
 20
7.0464416400857877
 30
0.0
  0
VERTEX
  5
1C88
  8
SAPA_PROFIL
  6
CONTINUOUS
 10
137.9065347670608
 20
7.0464416400857877
 30
0.0
  0
VERTEX
  5
1C89
  8
SAPA_PROFIL
  6
CONTINUOUS
 10
137.9065347670608
 20
5.3464416400857431
 30
0.0
 42
0.4142135623730951
  0
VERTEX
  5
1C8A
  8
SAPA_PROFIL
  6
CONTINUOUS
 10
138.20653476706079
 20
5.0464416400857877
 30
0.0
  0
VERTEX
  5
1C8B
  8
SAPA_PROFIL
  6
CONTINUOUS
 10
155.8065348509341
 20
5.0464416400857308
 30
0.0
 42
0.4142135623730951
  0
VERTEX
  5
1C8C
  8
SAPA_PROFIL
  6
CONTINUOUS
 10
156.10653485093411
 20
5.3464416400857431
 30
0.0
  0
VERTEX
  5
1C8D
  8
SAPA_PROFIL
  6
CONTINUOUS
 10
156.10653485093411
 20
7.0464416400857877
 30
0.0
  0
SEQEND
  5
1C8E
  8
SAPA_PROFIL
  6
CONTINUOUS
  0
POLYLINE
  5
16B6
  8
SAPA_PROFIL
 66
     1
 10
0.0
 20
0.0
 30
0.0
 70
     1
  0
VERTEX
  5
1C8F
  8
SAPA_PROFIL
 10
199.90653476974231
 20
5.3914508870161848
 30
0.0
  0
VERTEX
  5
1C90
  8
SAPA_PROFIL
 10
199.90653476974231
 20
9.2442372915164341
 30
0.0
 42
0.4142135623731784
  0
VERTEX
  5
1C91
  8
SAPA_PROFIL
 10
199.60653476974221
 20
9.5442372915163922
 30
0.0
  0
VERTEX
  5
1C92
  8
SAPA_PROFIL
 10
199.36012460822801
 20
9.5442372915163922
 30
0.0
 42
0.1316524975874233
  0
VERTEX
  5
1C93
  8
SAPA_PROFIL
 10
199.26012460822801
 20
9.5174423722732477
 30
0.0
  0
VERTEX
  5
1C94
  8
SAPA_PROFIL
 10
197.70653476974209
 20
8.6204768608131097
 30
0.0
 42
-0.577350269188775
  0
VERTEX
  5
1C95
  8
SAPA_PROFIL
 10
197.40653476974231
 20
8.7936819415700391
 30
0.0
  0
VERTEX
  5
1C96
  8
SAPA_PROFIL
 10
197.40653476974219
 20
10.17932258762502
 30
0.0
 42
-0.267949192431105
  0
VERTEX
  5
1C97
  8
SAPA_PROFIL
 10
197.90653476974211
 20
11.045347991409439
 30
0.0
  0
VERTEX
  5
1C98
  8
SAPA_PROFIL
 10
199.6565347671291
 20
12.055710960982619
 30
0.0
 42
0.2679491932397091
  0
VERTEX
  5
1C99
  8
SAPA_PROFIL
 10
199.9065347671291
 20
12.488723664383819
 30
0.0
  0
VERTEX
  5
1C9A
  8
SAPA_PROFIL
 10
199.9065347671291
 20
77.504159615787401
 30
0.0
 42
0.2679491916226364
  0
VERTEX
  5
1C9B
  8
SAPA_PROFIL
 10
199.65653476974219
 20
77.937172317679725
 30
0.0
  0
VERTEX
  5
1C9C
  8
SAPA_PROFIL
 10
197.90653476974219
 20
78.947535288761642
 30
0.0
 42
-0.2679491924311289
  0
VERTEX
  5
1C9D
  8
SAPA_PROFIL
 10
197.40653476974231
 20
79.813560692546005
 30
0.0
  0
VERTEX
  5
1C9E
  8
SAPA_PROFIL
 10
197.40653476974231
 20
81.199201338601114
 30
0.0
 42
-0.5773502691893695
  0
VERTEX
  5
1C9F
  8
SAPA_PROFIL
 10
197.70653476974221
 20
81.372406419358114
 30
0.0
  0
VERTEX
  5
1CA0
  8
SAPA_PROFIL
 10
199.26012460822849
 20
80.475440907897749
 30
0.0
 42
0.1316524975874061
  0
VERTEX
  5
1CA1
  8
SAPA_PROFIL
 10
199.36012460822849
 20
80.448645988654647
 30
0.0
  0
VERTEX
  5
1CA2
  8
SAPA_PROFIL
 10
199.60653476974221
 20
80.448645988654647
 30
0.0
 42
0.4142135623732032
  0
VERTEX
  5
1CA3
  8
SAPA_PROFIL
 10
199.90653476974231
 20
80.748645988654815
 30
0.0
  0
VERTEX
  5
1CA4
  8
SAPA_PROFIL
 10
199.90653476974231
 20
84.601432393154923
 30
0.0
 42
-0.2134217652834358
  0
VERTEX
  5
1CA5
  8
SAPA_PROFIL
 10
200.00653476974239
 20
84.825039190905002
 30
0.0
 42
0.7625858545243257
  0
VERTEX
  5
1CA6
  8
SAPA_PROFIL
 10
199.8219555675449
 20
85.155365271922037
 30
0.0
  0
VERTEX
  5
1CA7
  8
SAPA_PROFIL
 10
199.63057256755121
 20
85.097291634932944
 30
0.0
  0
VERTEX
  5
1CA8
  8
SAPA_PROFIL
 10
197.7447288756901
 20
84.012727187961204
 30
0.0
  0
VERTEX
  5
1CA9
  8
SAPA_PROFIL
 10
197.75529024191709
 20
83.690969459742931
 30
0.0
 42
-0.5773502691897454
  0
VERTEX
  5
1CAA
  8
SAPA_PROFIL
 10
197.46113394166221
 20
83.508015719632795
 30
0.0
  0
VERTEX
  5
1CAB
  8
SAPA_PROFIL
 10
197.17645165843061
 20
83.660149630741543
 30
0.0
 42
-0.2216946626430182
  0
VERTEX
  5
1CAC
  8
SAPA_PROFIL
 10
196.77064275327581
 20
84.201029462218344
 30
0.0
  0
VERTEX
  5
1CAD
  8
SAPA_PROFIL
 10
196.38919615714809
 20
86.01425993287657
 30
0.0
 42
-0.476975532698164
  0
VERTEX
  5
1CAE
  8
SAPA_PROFIL
 10
196.6914489816545
 20
86.385916807822454
 30
0.0
  0
VERTEX
  5
1CAF
  8
SAPA_PROFIL
 10
198.1945500624166
 20
86.385833199938801
 30
0.0
  0
VERTEX
  5
1CB0
  8
SAPA_PROFIL
 10
198.2090684716637
 20
86.337987449940314
 30
0.0
 42
0.4142135623730958
  0
VERTEX
  5
1CB1
  8
SAPA_PROFIL
 10
198.58325342713951
 20
86.138023405432918
 30
0.0
  0
VERTEX
  5
1CB2
  8
SAPA_PROFIL
 10
199.89866714698499
 20
86.646441640085598
 30
0.0
  0
VERTEX
  5
1CB3
  8
SAPA_PROFIL
 10
202.89681800815839
 20
86.646441640085627
 30
0.0
 42
-0.2562769736732632
  0
VERTEX
  5
1CB4
  8
SAPA_PROFIL
 10
203.06549051236979
 20
86.553910641770145
 30
0.0
  0
VERTEX
  5
1CB5
  8
SAPA_PROFIL
 10
203.85954351854639
 20
85.30764514261223
 30
0.0
 42
-0.5920056181179856
  0
VERTEX
  5
1CB6
  8
SAPA_PROFIL
 10
203.6065347622293
 20
84.846441640085587
 30
0.0
  0
VERTEX
  5
1CB7
  8
SAPA_PROFIL
 10
202.20653476222941
 20
84.846441640085587
 30
0.0
 42
0.4142135623731429
  0
VERTEX
  5
1CB8
  8
SAPA_PROFIL
 10
201.9065347622294
 20
84.546441640085604
 30
0.0
  0
VERTEX
  5
1CB9
  8
SAPA_PROFIL
 10
201.90653476222951
 20
82.146441640085683
 30
0.0
 42
0.4142135623729847
  0
VERTEX
  5
1CBA
  8
SAPA_PROFIL
 10
202.20653476222941
 20
81.8464416400857
 30
0.0
  0
VERTEX
  5
1CBB
  8
SAPA_PROFIL
 10
219.60653476222939
 20
81.846441640085672
 30
0.0
 42
0.4142135623730951
  0
VERTEX
  5
1CBC
  8
SAPA_PROFIL
 10
219.9065347622294
 20
82.146441640085683
 30
0.0
  0
VERTEX
  5
1CBD
  8
SAPA_PROFIL
 10
219.9065347622294
 20
84.546441640085774
 30
0.0
 42
0.414213562373018
  0
VERTEX
  5
1CBE
  8
SAPA_PROFIL
 10
219.6065347622293
 20
84.846441640085587
 30
0.0
  0
VERTEX
  5
1CBF
  8
SAPA_PROFIL
 10
218.2065347622293
 20
84.846441640085473
 30
0.0
 42
-0.5877032589249791
  0
VERTEX
  5
1CC0
  8
SAPA_PROFIL
 10
217.95148854491919
 20
85.304401847213185
 30
0.0
  0
VERTEX
  5
1CC1
  8
SAPA_PROFIL
 10
218.8478875221615
 20
86.751748444837474
 30
0.0
 42
-0.2596812337301832
  0
VERTEX
  5
1CC2
  8
SAPA_PROFIL
 10
219.01791833370149
 20
86.846441640085672
 30
0.0
  0
VERTEX
  5
1CC3
  8
SAPA_PROFIL
 10
221.7065347670609
 20
86.846441640085615
 30
0.0
 42
-0.4142135623732303
  0
VERTEX
  5
1CC4
  8
SAPA_PROFIL
 10
221.906534767061
 20
86.646441640085712
 30
0.0
  0
VERTEX
  5
1CC5
  8
SAPA_PROFIL
 10
221.9065347670608
 20
12.846440145935521
 30
0.0
 42
-0.4142135623730077
  0
VERTEX
  5
1CC6
  8
SAPA_PROFIL
 10
219.90653626121139
 20
10.8464416400855
 30
0.0
  0
VERTEX
  5
1CC7
  8
SAPA_PROFIL
 10
214.20653401998601
 20
10.8464416400855
 30
0.0
 42
0.4142135623730035
  0
VERTEX
  5
1CC8
  8
SAPA_PROFIL
 10
213.20653476706099
 20
9.8464423871605113
 30
0.0
  0
VERTEX
  5
1CC9
  8
SAPA_PROFIL
 10
213.2065347670609
 20
2.3454226400854359
 30
0.0
 42
-0.4142135623730951
  0
VERTEX
  5
1CCA
  8
SAPA_PROFIL
 10
212.20653476706099
 20
1.3454226400854781
 30
0.0
  0
VERTEX
  5
1CCB
  8
SAPA_PROFIL
 10
211.708759617646
 20
1.3454226400855209
 30
0.0
 42
-0.4142135623729703
  0
VERTEX
  5
1CCC
  8
SAPA_PROFIL
 10
211.50875976706089
 20
1.545422490670523
 30
0.0
  0
VERTEX
  5
1CCD
  8
SAPA_PROFIL
 10
211.50875976706101
 20
3.1432732032641768
 30
0.0
 42
0.4146459924388422
  0
VERTEX
  5
1CCE
  8
SAPA_PROFIL
 10
211.3084645306005
 20
3.3432729853526459
 30
0.0
  0
VERTEX
  5
1CCF
  8
SAPA_PROFIL
 10
199.90283820376041
 20
3.3448294922945312
 30
0.0
  0
VERTEX
  5
1CD0
  8
SAPA_PROFIL
 10
198.58325342713951
 20
3.8548598747379632
 30
0.0
 42
0.4142135623730955
  0
VERTEX
  5
1CD1
  8
SAPA_PROFIL
 10
198.2090684716637
 20
3.6548958302305672
 30
0.0
  0
VERTEX
  5
1CD2
  8
SAPA_PROFIL
 10
198.1945500624166
 20
3.6070500802320802
 30
0.0
  0
VERTEX
  5
1CD3
  8
SAPA_PROFIL
 10
196.6914489816545
 20
3.6069664723484558
 30
0.0
 42
-0.4769755326981641
  0
VERTEX
  5
1CD4
  8
SAPA_PROFIL
 10
196.38919615714809
 20
3.978623347294298
 30
0.0
  0
VERTEX
  5
1CD5
  8
SAPA_PROFIL
 10
196.77064275327581
 20
5.7918538179525516
 30
0.0
 42
-0.2216946626430181
  0
VERTEX
  5
1CD6
  8
SAPA_PROFIL
 10
197.17645165843061
 20
6.332733649429338
 30
0.0
  0
VERTEX
  5
1CD7
  8
SAPA_PROFIL
 10
197.46113394166221
 20
6.4848675605381008
 30
0.0
 42
-0.5773502691897449
  0
VERTEX
  5
1CD8
  8
SAPA_PROFIL
 10
197.75529024191709
 20
6.3019138204279219
 30
0.0
  0
VERTEX
  5
1CD9
  8
SAPA_PROFIL
 10
197.7447288756901
 20
5.9801560922096781
 30
0.0
  0
VERTEX
  5
1CDA
  8
SAPA_PROFIL
 10
199.63057256755121
 20
4.8955916452379373
 30
0.0
  0
VERTEX
  5
1CDB
  8
SAPA_PROFIL
 10
199.8219555675449
 20
4.8375180082488436
 30
0.0
 42
0.7625858545243258
  0
VERTEX
  5
1CDC
  8
SAPA_PROFIL
 10
200.00653476974239
 20
5.1678440892658504
 30
0.0
 42
-0.2134217652834359
  0
SEQEND
  5
1CDD
  8
SAPA_PROFIL
  0
POLYLINE
  5
16B7
  8
SAPA_PROFIL
  6
CONTINUOUS
 66
     1
 10
0.0
 20
0.0
 30
0.0
 70
     1
  0
VERTEX
  5
1CDE
  8
SAPA_PROFIL
  6
CONTINUOUS
 10
219.60653477027901
 20
16.646441640085399
 30
0.0
 42
-0.4142135623728245
  0
VERTEX
  5
1CDF
  8
SAPA_PROFIL
  6
CONTINUOUS
 10
219.80653477027889
 20
16.846441640085501
 30
0.0
  0
VERTEX
  5
1CE0
  8
SAPA_PROFIL
  6
CONTINUOUS
 10
219.90653477027911
 20
16.846441640085501
 30
0.0
  0
VERTEX
  5
1CE1
  8
SAPA_PROFIL
  6
CONTINUOUS
 10
219.90653477027911
 20
76.146441640085484
 30
0.0
  0
VERTEX
  5
1CE2
  8
SAPA_PROFIL
  6
CONTINUOUS
 10
219.80653477027909
 20
76.146441640085712
 30
0.0
 42
-0.4142135623730951
  0
VERTEX
  5
1CE3
  8
SAPA_PROFIL
  6
CONTINUOUS
 10
219.6065347702791
 20
76.3464416400857
 30
0.0
  0
VERTEX
  5
1CE4
  8
SAPA_PROFIL
  6
CONTINUOUS
 10
219.60653477027921
 20
77.946441640085695
 30
0.0
 42
-0.4142135623730951
  0
VERTEX
  5
1CE5
  8
SAPA_PROFIL
  6
CONTINUOUS
 10
219.80653477027909
 20
78.146441640085584
 30
0.0
  0
VERTEX
  5
1CE6
  8
SAPA_PROFIL
  6
CONTINUOUS
 10
219.90653477027911
 20
78.146441640085584
 30
0.0
  0
VERTEX
  5
1CE7
  8
SAPA_PROFIL
  6
CONTINUOUS
 10
219.90653477027911
 20
79.846441640085672
 30
0.0
 42
0.4142135623730847
  0
VERTEX
  5
1CE8
  8
SAPA_PROFIL
  6
CONTINUOUS
 10
219.6065347702791
 20
80.146441640085484
 30
0.0
  0
VERTEX
  5
1CE9
  8
SAPA_PROFIL
  6
CONTINUOUS
 10
202.0065347702791
 20
80.146441640085484
 30
0.0
 42
0.4142135623730701
  0
VERTEX
  5
1CEA
  8
SAPA_PROFIL
  6
CONTINUOUS
 10
201.70653477027921
 20
79.846441640085672
 30
0.0
  0
VERTEX
  5
1CEB
  8
SAPA_PROFIL
  6
CONTINUOUS
 10
201.70653477027921
 20
78.146441640085428
 30
0.0
  0
VERTEX
  5
1CEC
  8
SAPA_PROFIL
  6
CONTINUOUS
 10
202.00653477027919
 20
78.146441640085655
 30
0.0
 42
-0.4142135623731451
  0
VERTEX
  5
1CED
  8
SAPA_PROFIL
  6
CONTINUOUS
 10
202.20653477027921
 20
77.946441640085496
 30
0.0
  0
VERTEX
  5
1CEE
  8
SAPA_PROFIL
  6
CONTINUOUS
 10
202.20653477027929
 20
76.3464416400857
 30
0.0
 42
-0.4142135623732616
  0
VERTEX
  5
1CEF
  8
SAPA_PROFIL
  6
CONTINUOUS
 10
202.00653477027899
 20
76.146441640085584
 30
0.0
  0
VERTEX
  5
1CF0
  8
SAPA_PROFIL
  6
CONTINUOUS
 10
201.70653477027909
 20
76.146441640085683
 30
0.0
  0
VERTEX
  5
1CF1
  8
SAPA_PROFIL
  6
CONTINUOUS
 10
201.70653477027909
 20
16.84644164008531
 30
0.0
  0
VERTEX
  5
1CF2
  8
SAPA_PROFIL
  6
CONTINUOUS
 10
202.00653477027919
 20
16.84644164008548
 30
0.0
 42
-0.4142135623732199
  0
VERTEX
  5
1CF3
  8
SAPA_PROFIL
  6
CONTINUOUS
 10
202.20653477027921
 20
16.646441640085399
 30
0.0
  0
VERTEX
  5
1CF4
  8
SAPA_PROFIL
  6
CONTINUOUS
 10
202.20653477027909
 20
15.04644164008544
 30
0.0
 42
-0.4142135623733448
  0
VERTEX
  5
1CF5
  8
SAPA_PROFIL
  6
CONTINUOUS
 10
202.00653477027899
 20
14.84644164008551
 30
0.0
  0
VERTEX
  5
1CF6
  8
SAPA_PROFIL
  6
CONTINUOUS
 10
201.70653477027921
 20
14.84644164008551
 30
0.0
  0
VERTEX
  5
1CF7
  8
SAPA_PROFIL
  6
CONTINUOUS
 10
201.70653477027921
 20
5.346441640085736
 30
0.0
 42
0.4142135623732325
  0
VERTEX
  5
1CF8
  8
SAPA_PROFIL
  6
CONTINUOUS
 10
202.00653477027919
 20
5.0464416400856411
 30
0.0
  0
VERTEX
  5
1CF9
  8
SAPA_PROFIL
  6
CONTINUOUS
 10
211.20653476706099
 20
5.0464416400856367
 30
0.0
 42
0.4142135623732325
  0
VERTEX
  5
1CFA
  8
SAPA_PROFIL
  6
CONTINUOUS
 10
211.506534767061
 20
5.3464416400857342
 30
0.0
  0
VERTEX
  5
1CFB
  8
SAPA_PROFIL
  6
CONTINUOUS
 10
211.506534767061
 20
9.8464423871604296
 30
0.0
 42
-0.4142135623730514
  0
VERTEX
  5
1CFC
  8
SAPA_PROFIL
  6
CONTINUOUS
 10
214.2065340199859
 20
12.54644164008543
 30
0.0
  0
VERTEX
  5
1CFD
  8
SAPA_PROFIL
  6
CONTINUOUS
 10
219.6065347702791
 20
12.54644164008543
 30
0.0
 42
0.4142135623732907
  0
VERTEX
  5
1CFE
  8
SAPA_PROFIL
  6
CONTINUOUS
 10
219.90653477027911
 20
12.8464416400855
 30
0.0
  0
VERTEX
  5
1CFF
  8
SAPA_PROFIL
  6
CONTINUOUS
 10
219.90653477027911
 20
14.8464416400855
 30
0.0
  0
VERTEX
  5
1D00
  8
SAPA_PROFIL
  6
CONTINUOUS
 10
219.8065347702792
 20
14.84644164008547
 30
0.0
 42
-0.4142135623732303
  0
VERTEX
  5
1D01
  8
SAPA_PROFIL
  6
CONTINUOUS
 10
219.6065347702791
 20
15.04644164008543
 30
0.0
  0
SEQEND
  5
1D02
  8
SAPA_PROFIL
  6
CONTINUOUS
  0
POLYLINE
  5
16B8
  8
SAPA_PROFIL
 62
     4
 66
     1
 10
0.0
 20
0.0
 30
0.0
  0
VERTEX
  5
1D03
  8
SAPA_PROFIL
 62
     4
 10
187.9558638894928
 20
83.911770152976601
 30
0.0
 42
-0.5571646428658034
  0
VERTEX
  5
1D04
  8
SAPA_PROFIL
 62
     4
 10
187.418903385356
 20
83.044051238821027
 30
0.0
  0
VERTEX
  5
1D05
  8
SAPA_PROFIL
 62
     4
 10
170.39416614883481
 20
83.04405123882151
 30
0.0
 42
-0.5571645048035741
  0
VERTEX
  5
1D06
  8
SAPA_PROFIL
 62
     4
 10
169.85720553187369
 20
83.911769926687654
 30
0.0
  0
VERTEX
  5
1D07
  8
SAPA_PROFIL
 62
     4
 10
170.68791261942039
 20
85.577910582755706
 30
0.0
 42
-0.284385813979063
  0
VERTEX
  5
1D08
  8
SAPA_PROFIL
 62
     4
 10
170.95639292790071
 20
85.744051238823147
 30
0.0
  0
VERTEX
  5
1D09
  8
SAPA_PROFIL
 62
     4
 10
186.85667660629011
 20
85.744051238823147
 30
0.0
 42
-0.2843858139786238
  0
VERTEX
  5
1D0A
  8
SAPA_PROFIL
 62
     4
 10
187.1251569147704
 20
85.577910582756203
 30
0.0
  0
VERTEX
  5
1D0B
  8
SAPA_PROFIL
 62
     4
 10
187.9558640023175
 20
83.911769926686858
 30
0.0
  0
SEQEND
  5
1D0C
  8
SAPA_PROFIL
 62
     4
  0
POLYLINE
  5
16B9
  8
SAPA_PROFIL
 62
     4
 66
     1
 10
0.0
 20
0.0
 30
0.0
 70
     1
  0
VERTEX
  5
1D0D
  8
SAPA_PROFIL
 62
     4
 10
164.4889235824281
 20
86.100882753320718
 30
0.0
  0
VERTEX
  5
1D0E
  8
SAPA_PROFIL
 62
     4
 10
164.22490030405211
 20
86.507442949324854
 30
0.0
 42
0.2539676464751066
  0
VERTEX
  5
1D0F
  8
SAPA_PROFIL
 62
     4
 10
163.97329913366741
 20
86.644051238820964
 30
0.0
  0
VERTEX
  5
1D10
  8
SAPA_PROFIL
 62
     4
 10
162.59179954846201
 20
86.644051238820964
 30
0.0
 42
0.3152987888790479
  0
VERTEX
  5
1D11
  8
SAPA_PROFIL
 62
     4
 10
162.12195323806969
 20
86.315061310482804
 30
0.0
  0
VERTEX
  5
1D12
  8
SAPA_PROFIL
 62
     4
 10
161.2262842971611
 20
83.854231120031514
 30
0.0
 42
-0.2694959974287434
  0
VERTEX
  5
1D13
  8
SAPA_PROFIL
 62
     4
 10
160.9947652507598
 20
83.661099145687629
 30
0.0
 42
-0.0612686379508233
  0
VERTEX
  5
1D14
  8
SAPA_PROFIL
 62
     4
 10
160.70208981790651
 20
83.647515775057116
 30
0.0
  0
VERTEX
  5
1D15
  8
SAPA_PROFIL
 62
     4
 10
160.3526716405982
 20
83.445779096328295
 30
0.0
 42
-0.5773502691891679
  0
VERTEX
  5
1D16
  8
SAPA_PROFIL
 62
     4
 10
160.0376716405986
 20
83.62764443112286
 30
0.0
  0
VERTEX
  5
1D17
  8
SAPA_PROFIL
 62
     4
 10
160.0376716405984
 20
83.894758959249174
 30
0.0
  0
VERTEX
  5
1D18
  8
SAPA_PROFIL
 62
     4
 10
158.6391439399641
 20
84.703442420557494
 30
0.0
 42
0.1318219888653519
  0
VERTEX
  5
1D19
  8
SAPA_PROFIL
 62
     4
 10
158.48897083749179
 20
84.743734817094904
 30
0.0
  0
VERTEX
  5
1D1A
  8
SAPA_PROFIL
 62
     4
 10
158.30653476705501
 20
84.743734817088523
 30
0.0
 42
0.4142135623724291
  0
VERTEX
  5
1D1B
  8
SAPA_PROFIL
 62
     4
 10
157.9065347670545
 20
84.343734817088887
 30
0.0
  0
VERTEX
  5
1D1C
  8
SAPA_PROFIL
 62
     4
 10
157.9065347670558
 20
80.943734817087886
 30
0.0
 42
0.4142135623744271
  0
VERTEX
  5
1D1D
  8
SAPA_PROFIL
 62
     4
 10
158.30653476705501
 20
80.543734817086886
 30
0.0
  0
VERTEX
  5
1D1E
  8
SAPA_PROFIL
 62
     4
 10
158.48615000932631
 20
80.543734817086246
 30
0.0
 42
0.1316524975874005
  0
VERTEX
  5
1D1F
  8
SAPA_PROFIL
 62
     4
 10
158.6361500093231
 20
80.583927195951844
 30
0.0
  0
VERTEX
  5
1D20
  8
SAPA_PROFIL
 62
     4
 10
160.24028790632539
 20
81.510076642604375
 30
0.0
 42
-0.1316524975875904
  0
VERTEX
  5
1D21
  8
SAPA_PROFIL
 62
     4
 10
160.7402879063271
 20
81.644051238819145
 30
0.0
  0
VERTEX
  5
1D22
  8
SAPA_PROFIL
 62
     4
 10
161.1565347670545
 20
81.644051238819145
 30
0.0
 42
-0.4142135623730951
  0
VERTEX
  5
1D23
  8
SAPA_PROFIL
 62
     4
 10
162.1565347670545
 20
80.644051238819145
 30
0.0
  0
VERTEX
  5
1D24
  8
SAPA_PROFIL
 62
     4
 10
162.1565347670545
 20
77.644051238821874
 30
0.0
 42
0.9999996830128083
  0
VERTEX
  5
1D25
  8
SAPA_PROFIL
 62
     4
 10
163.1565347670545
 20
77.644051238820055
 30
0.0
  0
VERTEX
  5
1D26
  8
SAPA_PROFIL
 62
     4
 10
163.1565347670545
 20
80.644051238820055
 30
0.0
 42
-0.4142135623730951
  0
VERTEX
  5
1D27
  8
SAPA_PROFIL
 62
     4
 10
164.1565347670545
 20
81.644051238820055
 30
0.0
  0
VERTEX
  5
1D28
  8
SAPA_PROFIL
 62
     4
 10
193.65653476713911
 20
81.644051238820026
 30
0.0
 42
-0.4142135623730951
  0
VERTEX
  5
1D29
  8
SAPA_PROFIL
 62
     4
 10
194.65653476713911
 20
80.64405123882004
 30
0.0
  0
VERTEX
  5
1D2A
  8
SAPA_PROFIL
 62
     4
 10
194.65653476713911
 20
77.644051238821859
 30
0.0
 42
0.9999999999999998
  0
VERTEX
  5
1D2B
  8
SAPA_PROFIL
 62
     4
 10
195.65653476713911
 20
77.644051238821859
 30
0.0
  0
VERTEX
  5
1D2C
  8
SAPA_PROFIL
 62
     4
 10
195.65653476713911
 20
80.64405123882004
 30
0.0
 42
-0.4142135623736278
  0
VERTEX
  5
1D2D
  8
SAPA_PROFIL
 62
     4
 10
196.65653476713911
 20
81.644051238820026
 30
0.0
  0
VERTEX
  5
1D2E
  8
SAPA_PROFIL
 62
     4
 10
197.07278162786551
 20
81.644051238820026
 30
0.0
 42
-0.1316524975874375
  0
VERTEX
  5
1D2F
  8
SAPA_PROFIL
 62
     4
 10
197.57278162786571
 20
81.510076642604005
 30
0.0
  0
VERTEX
  5
1D30
  8
SAPA_PROFIL
 62
     4
 10
199.17691952486771
 20
80.583927195951816
 30
0.0
 42
0.1316524975874
  0
VERTEX
  5
1D31
  8
SAPA_PROFIL
 62
     4
 10
199.32691952486721
 20
80.543734817086246
 30
0.0
  0
VERTEX
  5
1D32
  8
SAPA_PROFIL
 62
     4
 10
199.5065347671385
 20
80.543734817086872
 30
0.0
 42
0.4142135623744271
  0
VERTEX
  5
1D33
  8
SAPA_PROFIL
 62
     4
 10
199.90653476713771
 20
80.943734817087872
 30
0.0
  0
VERTEX
  5
1D34
  8
SAPA_PROFIL
 62
     4
 10
199.90653476713911
 20
84.343734817088858
 30
0.0
 42
0.4142135623724291
  0
VERTEX
  5
1D35
  8
SAPA_PROFIL
 62
     4
 10
199.5065347671385
 20
84.743734817088495
 30
0.0
  0
VERTEX
  5
1D36
  8
SAPA_PROFIL
 62
     4
 10
199.3240986967017
 20
84.743734817094875
 30
0.0
 42
0.1318219888653524
  0
VERTEX
  5
1D37
  8
SAPA_PROFIL
 62
     4
 10
199.17392559422939
 20
84.703442420557494
 30
0.0
  0
VERTEX
  5
1D38
  8
SAPA_PROFIL
 62
     4
 10
197.7753978937497
 20
83.894758959333146
 30
0.0
  0
VERTEX
  5
1D39
  8
SAPA_PROFIL
 62
     4
 10
197.7753978937497
 20
83.627644431120103
 30
0.0
 42
-0.577350269189159
  0
VERTEX
  5
1D3A
  8
SAPA_PROFIL
 62
     4
 10
197.4603978937501
 20
83.445779096325552
 30
0.0
  0
VERTEX
  5
1D3B
  8
SAPA_PROFIL
 62
     4
 10
197.11097971653149
 20
83.64751577500266
 30
0.0
 42
-0.0612687673629489
  0
VERTEX
  5
1D3C
  8
SAPA_PROFIL
 62
     4
 10
196.81830428343119
 20
83.661099145688866
 30
0.0
 42
-0.2694959974285039
  0
VERTEX
  5
1D3D
  8
SAPA_PROFIL
 62
     4
 10
196.58678523703071
 20
83.854231120032793
 30
0.0
  0
VERTEX
  5
1D3E
  8
SAPA_PROFIL
 62
     4
 10
195.69111629612109
 20
86.315061310485973
 30
0.0
 42
0.3152987888784035
  0
VERTEX
  5
1D3F
  8
SAPA_PROFIL
 62
     4
 10
195.2212699857279
 20
86.644051238822556
 30
0.0
  0
VERTEX
  5
1D40
  8
SAPA_PROFIL
 62
     4
 10
193.83977040052341
 20
86.644051238820964
 30
0.0
 42
0.2539676464741841
  0
VERTEX
  5
1D41
  8
SAPA_PROFIL
 62
     4
 10
193.5881692301393
 20
86.507442949325679
 30
0.0
  0
VERTEX
  5
1D42
  8
SAPA_PROFIL
 62
     4
 10
193.32414595176269
 20
86.100882753320704
 30
0.0
 42
0.5862177598324623
  0
VERTEX
  5
1D43
  8
SAPA_PROFIL
 62
     4
 10
193.579887767001
 20
85.644051238824204
 30
0.0
  0
VERTEX
  5
1D44
  8
SAPA_PROFIL
 62
     4
 10
194.5210624475109
 20
85.644051238831864
 30
0.0
 42
-0.3152987888813165
  0
VERTEX
  5
1D45
  8
SAPA_PROFIL
 62
     4
 10
194.99090875790861
 20
85.315061310495111
 30
0.0
  0
VERTEX
  5
1D46
  8
SAPA_PROFIL
 62
     4
 10
195.42767303903261
 20
84.115061310483895
 30
0.0
 42
-0.5205670505515651
  0
VERTEX
  5
1D47
  8
SAPA_PROFIL
 62
     4
 10
194.9578267286393
 20
83.444051238821132
 30
0.0
  0
VERTEX
  5
1D48
  8
SAPA_PROFIL
 62
     4
 10
189.94138578797049
 20
83.444051238821103
 30
0.0
 42
-0.3702522326300203
  0
VERTEX
  5
1D49
  8
SAPA_PROFIL
 62
     4
 10
189.64486242617721
 20
83.698511191486816
 30
0.0
 42
-0.0982365330332397
  0
VERTEX
  5
1D4A
  8
SAPA_PROFIL
 62
     4
 10
189.55440966796621
 20
85.386197966481816
 30
0.0
 42
-0.3735060174783164
  0
VERTEX
  5
1D4B
  8
SAPA_PROFIL
 62
     4
 10
189.8514343358772
 20
85.644051238821859
 30
0.0
  0
VERTEX
  5
1D4C
  8
SAPA_PROFIL
 62
     4
 10
190.27988776699991
 20
85.644051238822769
 30
0.0
 42
0.5920056181162531
  0
VERTEX
  5
1D4D
  8
SAPA_PROFIL
 62
     4
 10
190.53289652331731
 20
86.105254741350691
 30
0.0
  0
VERTEX
  5
1D4E
  8
SAPA_PROFIL
 62
     4
 10
190.2717124471616
 20
86.507442949328976
 30
0.0
 42
0.2539676464746725
  0
VERTEX
  5
1D4F
  8
SAPA_PROFIL
 62
     4
 10
190.02011127677781
 20
86.644051238824375
 30
0.0
  0
VERTEX
  5
1D50
  8
SAPA_PROFIL
 62
     4
 10
167.7929582574121
 20
86.644051238822783
 30
0.0
 42
0.2539676464741819
  0
VERTEX
  5
1D51
  8
SAPA_PROFIL
 62
     4
 10
167.54135708702921
 20
86.507442949329004
 30
0.0
  0
VERTEX
  5
1D52
  8
SAPA_PROFIL
 62
     4
 10
167.28017301087539
 20
86.105254741350663
 30
0.0
 42
0.5920055144124249
  0
VERTEX
  5
1D53
  8
SAPA_PROFIL
 62
     4
 10
167.53318176719091
 20
85.644051238822783
 30
0.0
  0
VERTEX
  5
1D54
  8
SAPA_PROFIL
 62
     4
 10
167.96163524448119
 20
85.644051264097783
 30
0.0
 42
-0.3735060174775405
  0
VERTEX
  5
1D55
  8
SAPA_PROFIL
 62
     4
 10
168.25865991239081
 20
85.386197991757683
 30
0.0
 42
-0.0355900683670349
  0
VERTEX
  5
1D56
  8
SAPA_PROFIL
 62
     4
 10
168.3025534764231
 20
84.770324404957904
 30
0.0
 42
-0.0624282003873116
  0
VERTEX
  5
1D57
  8
SAPA_PROFIL
 62
     4
 10
168.16820715418021
 20
83.698511216762782
 30
0.0
 42
-0.3702522326309292
  0
VERTEX
  5
1D58
  8
SAPA_PROFIL
 62
     4
 10
167.87168379238679
 20
83.444051264097055
 30
0.0
  0
VERTEX
  5
1D59
  8
SAPA_PROFIL
 62
     4
 10
162.8552428055533
 20
83.444051238820919
 30
0.0
 42
-0.5205670505515692
  0
VERTEX
  5
1D5A
  8
SAPA_PROFIL
 62
     4
 10
162.38539649516011
 20
84.115061310483895
 30
0.0
  0
VERTEX
  5
1D5B
  8
SAPA_PROFIL
 62
     4
 10
162.82216077628499
 20
85.315061310493334
 30
0.0
 42
-0.3152987888807539
  0
VERTEX
  5
1D5C
  8
SAPA_PROFIL
 62
     4
 10
163.2920070866808
 20
85.644051238830954
 30
0.0
  0
VERTEX
  5
1D5D
  8
SAPA_PROFIL
 62
     4
 10
164.2331817671899
 20
85.644051238824133
 30
0.0
 42
0.5862175119221242
  0
VERTEX
  5
1D5E
  8
SAPA_PROFIL
 62
     4
 10
164.4889236981719
 20
86.100882564579265
 30
0.0
 42
-0.0000002084758573
  0
SEQEND
  5
1D5F
  8
SAPA_PROFIL
 62
     4
  0
POLYLINE
  5
16BA
  8
SAPA_PROFIL
 62
     4
 66
     1
 10
0.0
 20
0.0
 30
0.0
  0
VERTEX
  5
1D60
  8
SAPA_PROFIL
 62
     4
 10
187.9558638894928
 20
6.0763323246705943
 30
0.0
 42
0.5571646428658034
  0
VERTEX
  5
1D61
  8
SAPA_PROFIL
 62
     4
 10
187.418903385356
 20
6.9440512388261446
 30
0.0
  0
VERTEX
  5
1D62
  8
SAPA_PROFIL
 62
     4
 10
170.39416614883481
 20
6.9440512388256899
 30
0.0
 42
0.5571645048035741
  0
VERTEX
  5
1D63
  8
SAPA_PROFIL
 62
     4
 10
169.85720553187369
 20
6.0763325509595232
 30
0.0
  0
VERTEX
  5
1D64
  8
SAPA_PROFIL
 62
     4
 10
170.68791261942039
 20
4.4101918948914953
 30
0.0
 42
0.284385813979063
  0
VERTEX
  5
1D65
  8
SAPA_PROFIL
 62
     4
 10
170.95639292790071
 20
4.2440512388240537
 30
0.0
  0
VERTEX
  5
1D66
  8
SAPA_PROFIL
 62
     4
 10
186.85667660629011
 20
4.244051238824051
 30
0.0
 42
0.2843858139786238
  0
VERTEX
  5
1D67
  8
SAPA_PROFIL
 62
     4
 10
187.1251569147704
 20
4.4101918948909802
 30
0.0
  0
VERTEX
  5
1D68
  8
SAPA_PROFIL
 62
     4
 10
187.9558640023175
 20
6.0763325509603252
 30
0.0
  0
SEQEND
  5
1D69
  8
SAPA_PROFIL
 62
     4
  0
POLYLINE
  5
16BB
  8
SAPA_PROFIL
 62
     4
 66
     1
 10
0.0
 20
0.0
 30
0.0
 70
     1
  0
VERTEX
  5
1D6A
  8
SAPA_PROFIL
 62
     4
 10
164.4889235824281
 20
3.8872197243264841
 30
0.0
  0
VERTEX
  5
1D6B
  8
SAPA_PROFIL
 62
     4
 10
164.22490030405211
 20
3.4806595283223398
 30
0.0
 42
-0.2539676464751066
  0
VERTEX
  5
1D6C
  8
SAPA_PROFIL
 62
     4
 10
163.97329913366741
 20
3.3440512388262369
 30
0.0
  0
VERTEX
  5
1D6D
  8
SAPA_PROFIL
 62
     4
 10
162.59179954846201
 20
3.3440512388262378
 30
0.0
 42
-0.3152987888790479
  0
VERTEX
  5
1D6E
  8
SAPA_PROFIL
 62
     4
 10
162.12195323806969
 20
3.6730411671643979
 30
0.0
  0
VERTEX
  5
1D6F
  8
SAPA_PROFIL
 62
     4
 10
161.2262842971611
 20
6.133871357615674
 30
0.0
 42
0.2694959974287434
  0
VERTEX
  5
1D70
  8
SAPA_PROFIL
 62
     4
 10
160.9947652507598
 20
6.327003331959566
 30
0.0
 42
0.0612686379508233
  0
VERTEX
  5
1D71
  8
SAPA_PROFIL
 62
     4
 10
160.70208981790651
 20
6.3405867025900857
 30
0.0
  0
VERTEX
  5
1D72
  8
SAPA_PROFIL
 62
     4
 10
160.3526716405982
 20
6.5423233813189077
 30
0.0
 42
0.5773502691891679
  0
VERTEX
  5
1D73
  8
SAPA_PROFIL
 62
     4
 10
160.0376716405986
 20
6.3604580465243421
 30
0.0
  0
VERTEX
  5
1D74
  8
SAPA_PROFIL
 62
     4
 10
160.0376716405984
 20
6.093343518398024
 30
0.0
  0
VERTEX
  5
1D75
  8
SAPA_PROFIL
 62
     4
 10
158.6391439399641
 20
5.284660057089706
 30
0.0
 42
-0.1318219888653519
  0
VERTEX
  5
1D76
  8
SAPA_PROFIL
 62
     4
 10
158.48897083749179
 20
5.2443676605523173
 30
0.0
  0
VERTEX
  5
1D77
  8
SAPA_PROFIL
 62
     4
 10
158.30653476705501
 20
5.2443676605586829
 30
0.0
 42
-0.4142135623724291
  0
VERTEX
  5
1D78
  8
SAPA_PROFIL
 62
     4
 10
157.9065347670545
 20
5.6443676605583191
 30
0.0
  0
VERTEX
  5
1D79
  8
SAPA_PROFIL
 62
     4
 10
157.9065347670558
 20
9.0443676605593204
 30
0.0
 42
-0.4142135623744271
  0
VERTEX
  5
1D7A
  8
SAPA_PROFIL
 62
     4
 10
158.30653476705501
 20
9.4443676605603208
 30
0.0
  0
VERTEX
  5
1D7B
  8
SAPA_PROFIL
 62
     4
 10
158.48615000932631
 20
9.4443676605609532
 30
0.0
 42
-0.1316524975874005
  0
VERTEX
  5
1D7C
  8
SAPA_PROFIL
 62
     4
 10
158.6361500093231
 20
9.4041752816953572
 30
0.0
  0
VERTEX
  5
1D7D
  8
SAPA_PROFIL
 62
     4
 10
160.24028790632539
 20
8.4780258350428213
 30
0.0
 42
0.1316524975875904
  0
VERTEX
  5
1D7E
  8
SAPA_PROFIL
 62
     4
 10
160.7402879063271
 20
8.3440512388280581
 30
0.0
  0
VERTEX
  5
1D7F
  8
SAPA_PROFIL
 62
     4
 10
161.1565347670545
 20
8.3440512388280581
 30
0.0
 42
0.4142135623730951
  0
VERTEX
  5
1D80
  8
SAPA_PROFIL
 62
     4
 10
162.1565347670545
 20
9.3440512388280581
 30
0.0
  0
VERTEX
  5
1D81
  8
SAPA_PROFIL
 62
     4
 10
162.1565347670545
 20
12.34405123882533
 30
0.0
 42
-0.9999996830128083
  0
VERTEX
  5
1D82
  8
SAPA_PROFIL
 62
     4
 10
163.1565347670545
 20
12.34405123882715
 30
0.0
  0
VERTEX
  5
1D83
  8
SAPA_PROFIL
 62
     4
 10
163.1565347670545
 20
9.3440512388271468
 30
0.0
 42
0.4142135623730951
  0
VERTEX
  5
1D84
  8
SAPA_PROFIL
 62
     4
 10
164.1565347670545
 20
8.3440512388271468
 30
0.0
  0
VERTEX
  5
1D85
  8
SAPA_PROFIL
 62
     4
 10
193.65653476713911
 20
8.3440512388271433
 30
0.0
 42
0.4142135623730951
  0
VERTEX
  5
1D86
  8
SAPA_PROFIL
 62
     4
 10
194.65653476713911
 20
9.3440512388271433
 30
0.0
  0
VERTEX
  5
1D87
  8
SAPA_PROFIL
 62
     4
 10
194.65653476713911
 20
12.344051238825321
 30
0.0
 42
-0.9999999999999998
  0
VERTEX
  5
1D88
  8
SAPA_PROFIL
 62
     4
 10
195.65653476713911
 20
12.344051238825321
 30
0.0
  0
VERTEX
  5
1D89
  8
SAPA_PROFIL
 62
     4
 10
195.65653476713911
 20
9.3440512388271415
 30
0.0
 42
0.4142135623736278
  0
VERTEX
  5
1D8A
  8
SAPA_PROFIL
 62
     4
 10
196.65653476713911
 20
8.3440512388271415
 30
0.0
  0
VERTEX
  5
1D8B
  8
SAPA_PROFIL
 62
     4
 10
197.07278162786551
 20
8.3440512388271415
 30
0.0
 42
0.1316524975874375
  0
VERTEX
  5
1D8C
  8
SAPA_PROFIL
 62
     4
 10
197.57278162786571
 20
8.4780258350431783
 30
0.0
  0
VERTEX
  5
1D8D
  8
SAPA_PROFIL
 62
     4
 10
199.17691952486771
 20
9.4041752816953519
 30
0.0
 42
-0.1316524975874
  0
VERTEX
  5
1D8E
  8
SAPA_PROFIL
 62
     4
 10
199.32691952486721
 20
9.4443676605609426
 30
0.0
  0
VERTEX
  5
1D8F
  8
SAPA_PROFIL
 62
     4
 10
199.5065347671385
 20
9.4443676605603102
 30
0.0
 42
-0.4142135623744271
  0
VERTEX
  5
1D90
  8
SAPA_PROFIL
 62
     4
 10
199.90653476713771
 20
9.0443676605593097
 30
0.0
  0
VERTEX
  5
1D91
  8
SAPA_PROFIL
 62
     4
 10
199.90653476713911
 20
5.6443676605583093
 30
0.0
 42
-0.4142135623724291
  0
VERTEX
  5
1D92
  8
SAPA_PROFIL
 62
     4
 10
199.5065347671385
 20
5.2443676605586731
 30
0.0
  0
VERTEX
  5
1D93
  8
SAPA_PROFIL
 62
     4
 10
199.3240986967017
 20
5.2443676605523057
 30
0.0
 42
-0.1318219888653524
  0
VERTEX
  5
1D94
  8
SAPA_PROFIL
 62
     4
 10
199.17392559422939
 20
5.2846600570896971
 30
0.0
  0
VERTEX
  5
1D95
  8
SAPA_PROFIL
 62
     4
 10
197.7753978937497
 20
6.0933435183140343
 30
0.0
  0
VERTEX
  5
1D96
  8
SAPA_PROFIL
 62
     4
 10
197.7753978937497
 20
6.3604580465270688
 30
0.0
 42
0.577350269189159
  0
VERTEX
  5
1D97
  8
SAPA_PROFIL
 62
     4
 10
197.4603978937501
 20
6.5423233813216362
 30
0.0
  0
VERTEX
  5
1D98
  8
SAPA_PROFIL
 62
     4
 10
197.11097971653149
 20
6.3405867026445311
 30
0.0
 42
0.0612687673629489
  0
VERTEX
  5
1D99
  8
SAPA_PROFIL
 62
     4
 10
196.81830428343119
 20
6.3270033319583252
 30
0.0
 42
0.2694959974285039
  0
VERTEX
  5
1D9A
  8
SAPA_PROFIL
 62
     4
 10
196.58678523703071
 20
6.1338713576143746
 30
0.0
  0
VERTEX
  5
1D9B
  8
SAPA_PROFIL
 62
     4
 10
195.69111629612109
 20
3.6730411671612089
 30
0.0
 42
-0.3152987888784035
  0
VERTEX
  5
1D9C
  8
SAPA_PROFIL
 62
     4
 10
195.2212699857279
 20
3.3440512388246351
 30
0.0
  0
VERTEX
  5
1D9D
  8
SAPA_PROFIL
 62
     4
 10
193.83977040052341
 20
3.344051238826232
 30
0.0
 42
-0.2539676464741841
  0
VERTEX
  5
1D9E
  8
SAPA_PROFIL
 62
     4
 10
193.5881692301393
 20
3.480659528321504
 30
0.0
  0
VERTEX
  5
1D9F
  8
SAPA_PROFIL
 62
     4
 10
193.32414595176269
 20
3.8872197243264792
 30
0.0
 42
-0.5862177598324623
  0
VERTEX
  5
1DA0
  8
SAPA_PROFIL
 62
     4
 10
193.579887767001
 20
4.3440512388229857
 30
0.0
  0
VERTEX
  5
1DA1
  8
SAPA_PROFIL
 62
     4
 10
194.5210624475109
 20
4.344051238815319
 30
0.0
 42
0.3152987888813165
  0
VERTEX
  5
1DA2
  8
SAPA_PROFIL
 62
     4
 10
194.99090875790861
 20
4.6730411671520722
 30
0.0
  0
VERTEX
  5
1DA3
  8
SAPA_PROFIL
 62
     4
 10
195.42767303903261
 20
5.8730411671633007
 30
0.0
 42
0.5205670505515651
  0
VERTEX
  5
1DA4
  8
SAPA_PROFIL
 62
     4
 10
194.9578267286393
 20
6.5440512388260501
 30
0.0
  0
VERTEX
  5
1DA5
  8
SAPA_PROFIL
 62
     4
 10
189.94138578797049
 20
6.5440512388260776
 30
0.0
 42
0.3702522326300203
  0
VERTEX
  5
1DA6
  8
SAPA_PROFIL
 62
     4
 10
189.64486242617721
 20
6.2895912861603724
 30
0.0
 42
0.0982365330332397
  0
VERTEX
  5
1DA7
  8
SAPA_PROFIL
 62
     4
 10
189.55440966796621
 20
4.6019045111653654
 30
0.0
 42
0.3735060174783164
  0
VERTEX
  5
1DA8
  8
SAPA_PROFIL
 62
     4
 10
189.8514343358772
 20
4.3440512388253287
 30
0.0
  0
VERTEX
  5
1DA9
  8
SAPA_PROFIL
 62
     4
 10
190.27988776699991
 20
4.3440512388244139
 30
0.0
 42
-0.5920056181162531
  0
VERTEX
  5
1DAA
  8
SAPA_PROFIL
 62
     4
 10
190.53289652331731
 20
3.8828477362964922
 30
0.0
  0
VERTEX
  5
1DAB
  8
SAPA_PROFIL
 62
     4
 10
190.2717124471616
 20
3.4806595283181929
 30
0.0
 42
-0.2539676464746725
  0
VERTEX
  5
1DAC
  8
SAPA_PROFIL
 62
     4
 10
190.02011127677781
 20
3.3440512388228321
 30
0.0
  0
VERTEX
  5
1DAD
  8
SAPA_PROFIL
 62
     4
 10
167.7929582574121
 20
3.3440512388244188
 30
0.0
 42
-0.2539676464741819
  0
VERTEX
  5
1DAE
  8
SAPA_PROFIL
 62
     4
 10
167.54135708702921
 20
3.4806595283181969
 30
0.0
  0
VERTEX
  5
1DAF
  8
SAPA_PROFIL
 62
     4
 10
167.28017301087539
 20
3.8828477362965308
 30
0.0
 42
-0.5920055144124249
  0
VERTEX
  5
1DB0
  8
SAPA_PROFIL
 62
     4
 10
167.53318176719091
 20
4.3440512388244183
 30
0.0
  0
VERTEX
  5
1DB1
  8
SAPA_PROFIL
 62
     4
 10
167.96163524448119
 20
4.3440512135494114
 30
0.0
 42
0.3735060174775405
  0
VERTEX
  5
1DB2
  8
SAPA_PROFIL
 62
     4
 10
168.25865991239081
 20
4.6019044858895031
 30
0.0
 42
0.0355900683670349
  0
VERTEX
  5
1DB3
  8
SAPA_PROFIL
 62
     4
 10
168.3025534764231
 20
5.2177780726892884
 30
0.0
 42
0.0624282003873116
  0
VERTEX
  5
1DB4
  8
SAPA_PROFIL
 62
     4
 10
168.16820715418021
 20
6.289591260884416
 30
0.0
 42
0.3702522326309292
  0
VERTEX
  5
1DB5
  8
SAPA_PROFIL
 62
     4
 10
167.87168379238679
 20
6.5440512135501381
 30
0.0
  0
VERTEX
  5
1DB6
  8
SAPA_PROFIL
 62
     4
 10
162.8552428055533
 20
6.5440512388262757
 30
0.0
 42
0.5205670505515692
  0
VERTEX
  5
1DB7
  8
SAPA_PROFIL
 62
     4
 10
162.38539649516011
 20
5.873041167163306
 30
0.0
  0
VERTEX
  5
1DB8
  8
SAPA_PROFIL
 62
     4
 10
162.82216077628499
 20
4.673041167153861
 30
0.0
 42
0.3152987888807539
  0
VERTEX
  5
1DB9
  8
SAPA_PROFIL
 62
     4
 10
163.2920070866808
 20
4.3440512388162329
 30
0.0
  0
VERTEX
  5
1DBA
  8
SAPA_PROFIL
 62
     4
 10
164.2331817671899
 20
4.3440512388230541
 30
0.0
 42
-0.5862175119221242
  0
VERTEX
  5
1DBB
  8
SAPA_PROFIL
 62
     4
 10
164.4889236981719
 20
3.8872199130679181
 30
0.0
 42
0.0000002084758573
  0
SEQEND
  5
1DBC
  8
SAPA_PROFIL
 62
     4
  0
POLYLINE
  5
16BC
  8
SAPA_PROFIL
  6
CONTINUOUS
 66
     1
 10
0.0
 20
0.0
 30
0.0
 70
     1
  0
VERTEX
  5
1DBD
  8
SAPA_PROFIL
  6
CONTINUOUS
 10
150.44648246122131
 20
-11.1633109255344
 30
0.0
  0
VERTEX
  5
1DBE
  8
SAPA_PROFIL
  6
CONTINUOUS
 10
151.94648246122131
 20
-11.1633109255344
 30
0.0
 42
0.4142135623730951
  0
VERTEX
  5
1DBF
  8
SAPA_PROFIL
  6
CONTINUOUS
 10
152.44648246122131
 20
-10.6633109255344
 30
0.0
  0
VERTEX
  5
1DC0
  8
SAPA_PROFIL
  6
CONTINUOUS
 10
152.44648246122131
 20
-2.3675623636697121
 30
0.0
 42
-0.3541185725307418
  0
VERTEX
  5
1DC1
  8
SAPA_PROFIL
  6
CONTINUOUS
 10
152.84252661581249
 20
-1.878488563302799
 30
0.0
  0
VERTEX
  5
1DC2
  8
SAPA_PROFIL
  6
CONTINUOUS
 10
155.78333792959299
 20
-1.253399821925349
 30
0.0
 42
0.2125565616700269
  0
VERTEX
  5
1DC3
  8
SAPA_PROFIL
  6
CONTINUOUS
 10
155.980772043483
 20
-1.1099555417052041
 30
0.0
  0
VERTEX
  5
1DC4
  8
SAPA_PROFIL
  6
CONTINUOUS
 10
156.04904834733139
 20
-0.9916975144867841
 30
0.0
 42
-0.414213562373095
  0
VERTEX
  5
1DC5
  8
SAPA_PROFIL
  6
CONTINUOUS
 10
156.45885596846671
 20
-0.8818898933514525
 30
0.0
  0
VERTEX
  5
1DC6
  8
SAPA_PROFIL
  6
CONTINUOUS
 10
156.6476707621654
 20
-0.9909021653203602
 30
0.0
 42
0.1853390449315297
  0
VERTEX
  5
1DC7
  8
SAPA_PROFIL
  6
CONTINUOUS
 10
156.86004426941071
 20
-1.024538824405169
 30
0.0
  0
VERTEX
  5
1DC8
  8
SAPA_PROFIL
  6
CONTINUOUS
 10
161.05439415203921
 20
-0.1330022349127056
 30
0.0
 42
0.3541185725306857
  0
VERTEX
  5
1DC9
  8
SAPA_PROFIL
  6
CONTINUOUS
 10
161.8464824612214
 20
0.8451453658210965
 30
0.0
  0
VERTEX
  5
1DCA
  8
SAPA_PROFIL
  6
CONTINUOUS
 10
161.8464824612214
 20
2.3366890744655961
 30
0.0
 42
0.9999999999999998
  0
VERTEX
  5
1DCB
  8
SAPA_PROFIL
  6
CONTINUOUS
 10
159.8464824612214
 20
2.3366890744655961
 30
0.0
  0
VERTEX
  5
1DCC
  8
SAPA_PROFIL
  6
CONTINUOUS
 10
159.8464824612214
 20
2.0598214156135981
 30
0.0
 42
-0.3541185725306857
  0
VERTEX
  5
1DCD
  8
SAPA_PROFIL
  6
CONTINUOUS
 10
159.4504383066303
 20
1.5707476152466979
 30
0.0
  0
VERTEX
  5
1DCE
  8
SAPA_PROFIL
  6
CONTINUOUS
 10
151.39514173962439
 20
-0.1414585262682984
 30
0.0
 42
-0.052407779283056
  0
VERTEX
  5
1DCF
  8
SAPA_PROFIL
  6
CONTINUOUS
 10
151.18723004880661
 20
-0.1633109255344962
 30
0.0
  0
VERTEX
  5
1DD0
  8
SAPA_PROFIL
  6
CONTINUOUS
 10
147.24648246122129
 20
-0.1633109255344927
 30
0.0
 42
-0.4142135623731534
  0
VERTEX
  5
1DD1
  8
SAPA_PROFIL
  6
CONTINUOUS
 10
146.74648246122129
 20
0.3366890744655961
 30
0.0
  0
VERTEX
  5
1DD2
  8
SAPA_PROFIL
  6
CONTINUOUS
 10
146.74648246122189
 20
2.8366890744655961
 30
0.0
 42
0.4142135623730951
  0
VERTEX
  5
1DD3
  8
SAPA_PROFIL
  6
CONTINUOUS
 10
146.24648246122189
 20
3.3366890744655961
 30
0.0
  0
VERTEX
  5
1DD4
  8
SAPA_PROFIL
  6
CONTINUOUS
 10
145.44648246122139
 20
3.3366890744655961
 30
0.0
 42
0.4142135623730888
  0
VERTEX
  5
1DD5
  8
SAPA_PROFIL
  6
CONTINUOUS
 10
144.94648246122139
 20
2.8366890744655961
 30
0.0
  0
VERTEX
  5
1DD6
  8
SAPA_PROFIL
  6
CONTINUOUS
 10
144.94648246122139
 20
0.1366890744654867
 30
0.0
 42
-0.4142135623730883
  0
VERTEX
  5
1DD7
  8
SAPA_PROFIL
  6
CONTINUOUS
 10
144.44648246122139
 20
-0.3633109255345133
 30
0.0
  0
VERTEX
  5
1DD8
  8
SAPA_PROFIL
  6
CONTINUOUS
 10
138.8464824612214
 20
-0.3633109255345133
 30
0.0
 42
0.4142135623730951
  0
VERTEX
  5
1DD9
  8
SAPA_PROFIL
  6
CONTINUOUS
 10
138.3464824612214
 20
-0.8633109255345132
 30
0.0
  0
VERTEX
  5
1DDA
  8
SAPA_PROFIL
  6
CONTINUOUS
 10
138.3464824612214
 20
-1.663310925534403
 30
0.0
 42
0.4142135623730951
  0
VERTEX
  5
1DDB
  8
SAPA_PROFIL
  6
CONTINUOUS
 10
138.8464824612214
 20
-2.163310925534403
 30
0.0
  0
VERTEX
  5
1DDC
  8
SAPA_PROFIL
  6
CONTINUOUS
 10
144.44648246122139
 20
-2.1633109255344962
 30
0.0
 42
-0.4142135623730951
  0
VERTEX
  5
1DDD
  8
SAPA_PROFIL
  6
CONTINUOUS
 10
144.94648246122139
 20
-2.6633109255344962
 30
0.0
  0
VERTEX
  5
1DDE
  8
SAPA_PROFIL
  6
CONTINUOUS
 10
144.94648246122131
 20
-10.66331092553429
 30
0.0
 42
0.4142135623730951
  0
VERTEX
  5
1DDF
  8
SAPA_PROFIL
  6
CONTINUOUS
 10
145.44648246122131
 20
-11.16331092553429
 30
0.0
  0
VERTEX
  5
1DE0
  8
SAPA_PROFIL
  6
CONTINUOUS
 10
146.94648246122131
 20
-11.1633109255344
 30
0.0
 42
0.9999999999999998
  0
VERTEX
  5
1DE1
  8
SAPA_PROFIL
  6
CONTINUOUS
 10
146.94648246122131
 20
-10.36331092553441
 30
0.0
  0
VERTEX
  5
1DE2
  8
SAPA_PROFIL
  6
CONTINUOUS
 10
146.2464824612214
 20
-10.363310925534501
 30
0.0
 42
-0.4142135623730951
  0
VERTEX
  5
1DE3
  8
SAPA_PROFIL
  6
CONTINUOUS
 10
145.9964824612214
 20
-10.113310925534501
 30
0.0
  0
VERTEX
  5
1DE4
  8
SAPA_PROFIL
  6
CONTINUOUS
 10
145.9964824612214
 20
-9.4133109255344998
 30
0.0
 42
-0.4142135623730951
  0
VERTEX
  5
1DE5
  8
SAPA_PROFIL
  6
CONTINUOUS
 10
146.2464824612214
 20
-9.1633109255344998
 30
0.0
  0
VERTEX
  5
1DE6
  8
SAPA_PROFIL
  6
CONTINUOUS
 10
146.49648246122109
 20
-9.1633109255344998
 30
0.0
 42
0.4142135623730951
  0
VERTEX
  5
1DE7
  8
SAPA_PROFIL
  6
CONTINUOUS
 10
146.74648246122109
 20
-8.9133109255344998
 30
0.0
  0
VERTEX
  5
1DE8
  8
SAPA_PROFIL
  6
CONTINUOUS
 10
146.74648246122169
 20
-2.6633109255344962
 30
0.0
 42
-0.4142135623730951
  0
VERTEX
  5
1DE9
  8
SAPA_PROFIL
  6
CONTINUOUS
 10
147.24648246122169
 20
-2.1633109255344962
 30
0.0
  0
VERTEX
  5
1DEA
  8
SAPA_PROFIL
  6
CONTINUOUS
 10
150.1464824612211
 20
-2.1633109255344962
 30
0.0
 42
-0.4142135623730951
  0
VERTEX
  5
1DEB
  8
SAPA_PROFIL
  6
CONTINUOUS
 10
150.6464824612211
 20
-2.6633109255344962
 30
0.0
  0
VERTEX
  5
1DEC
  8
SAPA_PROFIL
  6
CONTINUOUS
 10
150.64648246122121
 20
-8.9133109255344998
 30
0.0
 42
0.4142135623730951
  0
VERTEX
  5
1DED
  8
SAPA_PROFIL
  6
CONTINUOUS
 10
150.89648246122121
 20
-9.1633109255344998
 30
0.0
  0
VERTEX
  5
1DEE
  8
SAPA_PROFIL
  6
CONTINUOUS
 10
151.14648246122121
 20
-9.1633109255344998
 30
0.0
 42
-0.4142135623730951
  0
VERTEX
  5
1DEF
  8
SAPA_PROFIL
  6
CONTINUOUS
 10
151.39648246122121
 20
-9.4133109255344998
 30
0.0
  0
VERTEX
  5
1DF0
  8
SAPA_PROFIL
  6
CONTINUOUS
 10
151.39648246122121
 20
-10.113310925534501
 30
0.0
 42
-0.4142135623730951
  0
VERTEX
  5
1DF1
  8
SAPA_PROFIL
  6
CONTINUOUS
 10
151.14648246122121
 20
-10.363310925534501
 30
0.0
  0
VERTEX
  5
1DF2
  8
SAPA_PROFIL
  6
CONTINUOUS
 10
150.44648246122131
 20
-10.363310925534501
 30
0.0
 42
0.9999999999999998
  0
SEQEND
  5
1DF3
  8
SAPA_PROFIL
  6
CONTINUOUS
  0
POLYLINE
  5
16BD
  8
SAPA_PROFIL
  6
CONTINUOUS
 66
     1
 10
0.0
 20
0.0
 30
0.0
 70
     1
  0
VERTEX
  5
1DF4
  8
SAPA_PROFIL
  6
CONTINUOUS
 10
211.35653477650791
 20
-9.1535583599143955
 30
0.0
  0
VERTEX
  5
1DF5
  8
SAPA_PROFIL
  6
CONTINUOUS
 10
211.6065347765078
 20
-9.1535583599143955
 30
0.0
 42
-0.4142135623730951
  0
VERTEX
  5
1DF6
  8
SAPA_PROFIL
  6
CONTINUOUS
 10
211.8565347765078
 20
-9.4035583599143955
 30
0.0
  0
VERTEX
  5
1DF7
  8
SAPA_PROFIL
  6
CONTINUOUS
 10
211.8565347765078
 20
-10.103558359914331
 30
0.0
 42
-0.4142135623730951
  0
VERTEX
  5
1DF8
  8
SAPA_PROFIL
  6
CONTINUOUS
 10
211.6065347765078
 20
-10.353558359914331
 30
0.0
  0
VERTEX
  5
1DF9
  8
SAPA_PROFIL
  6
CONTINUOUS
 10
210.90653477650781
 20
-10.35355835991432
 30
0.0
 42
0.9999999999999998
  0
VERTEX
  5
1DFA
  8
SAPA_PROFIL
  6
CONTINUOUS
 10
210.90653477650781
 20
-11.153558359914291
 30
0.0
  0
VERTEX
  5
1DFB
  8
SAPA_PROFIL
  6
CONTINUOUS
 10
220.30653477650799
 20
-11.15355835991425
 30
0.0
 42
0.4142135623730659
  0
VERTEX
  5
1DFC
  8
SAPA_PROFIL
  6
CONTINUOUS
 10
221.3065347765079
 20
-10.153558359914291
 30
0.0
  0
VERTEX
  5
1DFD
  8
SAPA_PROFIL
  6
CONTINUOUS
 10
221.3065347765079
 20
10.34644164008572
 30
0.0
 42
0.4142135623730951
  0
VERTEX
  5
1DFE
  8
SAPA_PROFIL
  6
CONTINUOUS
 10
220.8065347765079
 20
10.846441640085709
 30
0.0
  0
VERTEX
  5
1DFF
  8
SAPA_PROFIL
  6
CONTINUOUS
 10
218.4065347765079
 20
10.846441640085709
 30
0.0
 42
0.4142135623730951
  0
VERTEX
  5
1E00
  8
SAPA_PROFIL
  6
CONTINUOUS
 10
217.9065347765079
 20
10.34644164008572
 30
0.0
  0
VERTEX
  5
1E01
  8
SAPA_PROFIL
  6
CONTINUOUS
 10
217.9065347765079
 20
9.8464416400857182
 30
0.0
 42
0.4142135623730951
  0
VERTEX
  5
1E02
  8
SAPA_PROFIL
  6
CONTINUOUS
 10
218.9065347765079
 20
8.8464416400857182
 30
0.0
 42
-0.4142135623730367
  0
VERTEX
  5
1E03
  8
SAPA_PROFIL
  6
CONTINUOUS
 10
219.9065347765077
 20
7.846441640085728
 30
0.0
  0
VERTEX
  5
1E04
  8
SAPA_PROFIL
  6
CONTINUOUS
 10
219.9065347765079
 20
-8.1535583599142676
 30
0.0
 42
-0.4142135623731013
  0
VERTEX
  5
1E05
  8
SAPA_PROFIL
  6
CONTINUOUS
 10
218.9065347765079
 20
-9.1535583599142871
 30
0.0
  0
VERTEX
  5
1E06
  8
SAPA_PROFIL
  6
CONTINUOUS
 10
213.90653477650781
 20
-9.1535583599142871
 30
0.0
 42
-0.4142135623730951
  0
VERTEX
  5
1E07
  8
SAPA_PROFIL
  6
CONTINUOUS
 10
212.90653477650781
 20
-8.1535583599142871
 30
0.0
  0
VERTEX
  5
1E08
  8
SAPA_PROFIL
  6
CONTINUOUS
 10
212.90653477650781
 20
1.096441640085714
 30
0.0
 42
0.4142135623730951
  0
VERTEX
  5
1E09
  8
SAPA_PROFIL
  6
CONTINUOUS
 10
212.65653477650781
 20
1.346441640085714
 30
0.0
  0
VERTEX
  5
1E0A
  8
SAPA_PROFIL
  6
CONTINUOUS
 10
212.02615001877851
 20
1.346441640085718
 30
0.0
 42
0.2679491924311205
  0
VERTEX
  5
1E0B
  8
SAPA_PROFIL
  6
CONTINUOUS
 10
211.76634239764309
 20
1.1964416400857161
 30
0.0
 42
-1.303225372841208
  0
VERTEX
  5
1E0C
  8
SAPA_PROFIL
  6
CONTINUOUS
 10
211.3565347765078
 20
1.6062492612210479
 30
0.0
 42
0.2679491924311164
  0
VERTEX
  5
1E0D
  8
SAPA_PROFIL
  6
CONTINUOUS
 10
211.50653477650781
 20
1.866056882356375
 30
0.0
  0
VERTEX
  5
1E0E
  8
SAPA_PROFIL
  6
CONTINUOUS
 10
211.50653477650781
 20
2.0543530957840188
 30
0.0
 42
0.5949374815388645
  0
VERTEX
  5
1E0F
  8
SAPA_PROFIL
  6
CONTINUOUS
 10
211.12037501775399
 20
2.2640207377704189
 30
0.0
  0
VERTEX
  5
1E10
  8
SAPA_PROFIL
  6
CONTINUOUS
 10
207.5631707852767
 20
-0.046054701354695
 30
0.0
 42
-0.1989123673796633
  0
VERTEX
  5
1E11
  8
SAPA_PROFIL
  6
CONTINUOUS
 10
206.81062005944389
 20
-0.1855317341430798
 30
0.0
  0
VERTEX
  5
1E12
  8
SAPA_PROFIL
  6
CONTINUOUS
 10
198.4025789310989
 20
1.6016525784781199
 30
0.0
 42
-0.3541185725306977
  0
VERTEX
  5
1E13
  8
SAPA_PROFIL
  6
CONTINUOUS
 10
198.00653477650781
 20
2.090726378845019
 30
0.0
  0
VERTEX
  5
1E14
  8
SAPA_PROFIL
  6
CONTINUOUS
 10
198.00653477650781
 20
2.3464416400857142
 30
0.0
 42
0.9999999999999998
  0
VERTEX
  5
1E15
  8
SAPA_PROFIL
  6
CONTINUOUS
 10
196.00653477650781
 20
2.3464416400857142
 30
0.0
  0
VERTEX
  5
1E16
  8
SAPA_PROFIL
  6
CONTINUOUS
 10
196.00653477650781
 20
0.8760503290524184
 30
0.0
 42
0.3541185725307026
  0
VERTEX
  5
1E17
  8
SAPA_PROFIL
  6
CONTINUOUS
 10
196.79862308569011
 20
-0.1020972716813908
 30
0.0
  0
VERTEX
  5
1E18
  8
SAPA_PROFIL
  6
CONTINUOUS
 10
201.0181973968113
 20
-0.9989954789643427
 30
0.0
 42
0.1853390449315302
  0
VERTEX
  5
1E19
  8
SAPA_PROFIL
  6
CONTINUOUS
 10
201.23057090405661
 20
-0.9653588198795262
 30
0.0
  0
VERTEX
  5
1E1A
  8
SAPA_PROFIL
  6
CONTINUOUS
 10
201.41938569775559
 20
-0.8563465479104515
 30
0.0
 42
-0.4142135623730937
  0
VERTEX
  5
1E1B
  8
SAPA_PROFIL
  6
CONTINUOUS
 10
201.8291933188909
 20
-0.9661541690457796
 30
0.0
  0
VERTEX
  5
1E1C
  8
SAPA_PROFIL
  6
CONTINUOUS
 10
201.89746962273941
 20
-1.0844121962643201
 30
0.0
 42
0.2125565616700345
  0
VERTEX
  5
1E1D
  8
SAPA_PROFIL
  6
CONTINUOUS
 10
202.09490373662931
 20
-1.2278564764844679
 30
0.0
  0
VERTEX
  5
1E1E
  8
SAPA_PROFIL
  6
CONTINUOUS
 10
205.01049062191669
 20
-1.8475836000713031
 30
0.0
 42
-0.3541185725307172
  0
VERTEX
  5
1E1F
  8
SAPA_PROFIL
  6
CONTINUOUS
 10
205.40653477650781
 20
-2.336657400438213
 30
0.0
  0
VERTEX
  5
1E20
  8
SAPA_PROFIL
  6
CONTINUOUS
 10
205.4065347765079
 20
-10.653558359914239
 30
0.0
 42
0.4142135623731883
  0
VERTEX
  5
1E21
  8
SAPA_PROFIL
  6
CONTINUOUS
 10
205.9065347765079
 20
-11.153558359914181
 30
0.0
  0
VERTEX
  5
1E22
  8
SAPA_PROFIL
  6
CONTINUOUS
 10
207.4065347765079
 20
-11.153558359914291
 30
0.0
 42
0.9999999999999998
  0
VERTEX
  5
1E23
  8
SAPA_PROFIL
  6
CONTINUOUS
 10
207.4065347765079
 20
-10.353558359914331
 30
0.0
  0
VERTEX
  5
1E24
  8
SAPA_PROFIL
  6
CONTINUOUS
 10
206.70653477650791
 20
-10.353558359914331
 30
0.0
 42
-0.4142135623731073
  0
VERTEX
  5
1E25
  8
SAPA_PROFIL
  6
CONTINUOUS
 10
206.45653477650791
 20
-10.103558359914331
 30
0.0
  0
VERTEX
  5
1E26
  8
SAPA_PROFIL
  6
CONTINUOUS
 10
206.45653477650791
 20
-9.4035583599143955
 30
0.0
 42
-0.4142135623730951
  0
VERTEX
  5
1E27
  8
SAPA_PROFIL
  6
CONTINUOUS
 10
206.70653477650791
 20
-9.1535583599143955
 30
0.0
  0
VERTEX
  5
1E28
  8
SAPA_PROFIL
  6
CONTINUOUS
 10
206.95653477650791
 20
-9.1535583599143955
 30
0.0
 42
0.4142135623730871
  0
VERTEX
  5
1E29
  8
SAPA_PROFIL
  6
CONTINUOUS
 10
207.20653477650791
 20
-8.9035583599144026
 30
0.0
  0
VERTEX
  5
1E2A
  8
SAPA_PROFIL
  6
CONTINUOUS
 10
207.20653477650799
 20
-2.6953886103806388
 30
0.0
 42
-0.2539676464749381
  0
VERTEX
  5
1E2B
  8
SAPA_PROFIL
  6
CONTINUOUS
 10
207.4342152590005
 20
-2.276053326407939
 30
0.0
  0
VERTEX
  5
1E2C
  8
SAPA_PROFIL
  6
CONTINUOUS
 10
210.33421525899979
 20
-0.3927713061356819
 30
0.0
 42
-0.5949374815388355
  0
VERTEX
  5
1E2D
  8
SAPA_PROFIL
  6
CONTINUOUS
 10
211.10653477650729
 20
-0.8121065901082822
 30
0.0
  0
VERTEX
  5
1E2E
  8
SAPA_PROFIL
  6
CONTINUOUS
 10
211.10653477650791
 20
-8.9035583599144221
 30
0.0
 42
0.41421356237307
  0
SEQEND
  5
1E2F
  8
SAPA_PROFIL
  6
CONTINUOUS
  0
POLYLINE
  5
16ED
  8
SAPA_GLAS
 66
     1
 10
0.0
 20
0.0
 30
0.0
  0
VERTEX
  5
1E47
  8
SAPA_GLAS
 10
188.406546151117
 20
123.96815707391519
 30
0.0
  0
VERTEX
  5
1E48
  8
SAPA_GLAS
 10
188.406546151117
 20
93.346442041223256
 30
0.0
  0
SEQEND
  5
1E49
  8
SAPA_GLAS
  0
POLYLINE
  5
16EE
  8
SAPA_GLAS
 66
     1
 10
0.0
 20
0.0
 30
0.0
  0
VERTEX
  5
1E4A
  8
SAPA_GLAS
 10
185.406546151117
 20
123.96815707391519
 30
0.0
  0
VERTEX
  5
1E4B
  8
SAPA_GLAS
 10
185.406546151117
 20
93.346442041223256
 30
0.0
  0
SEQEND
  5
1E4C
  8
SAPA_GLAS
  0
POLYLINE
  5
16EF
  8
SAPA_GLAS
 66
     1
 10
0.0
 20
0.0
 30
0.0
  0
VERTEX
  5
1E4D
  8
SAPA_GLAS
 10
181.406546151117
 20
123.96815707391519
 30
0.0
  0
VERTEX
  5
1E4E
  8
SAPA_GLAS
 10
181.406546151117
 20
93.346442041223256
 30
0.0
  0
SEQEND
  5
1E4F
  8
SAPA_GLAS
  0
POLYLINE
  5
16F0
  8
SAPA_GLAS
 66
     1
 10
0.0
 20
0.0
 30
0.0
  0
VERTEX
  5
1E50
  8
SAPA_GLAS
 10
177.406546151117
 20
123.96815707391519
 30
0.0
  0
VERTEX
  5
1E51
  8
SAPA_GLAS
 10
177.406546151117
 20
93.346442041223256
 30
0.0
  0
SEQEND
  5
1E52
  8
SAPA_GLAS
  0
POLYLINE
  5
16F1
  8
SAPA_GLAS
 66
     1
 10
0.0
 20
0.0
 30
0.0
  0
VERTEX
  5
1E53
  8
SAPA_GLAS
 10
173.406546151117
 20
123.96815707391519
 30
0.0
  0
VERTEX
  5
1E54
  8
SAPA_GLAS
 10
173.406546151117
 20
93.346442041223256
 30
0.0
  0
SEQEND
  5
1E55
  8
SAPA_GLAS
  0
POLYLINE
  5
16F2
  8
SAPA_GLAS
 66
     1
 10
0.0
 20
0.0
 30
0.0
  0
VERTEX
  5
1E56
  8
SAPA_GLAS
 10
170.406546151117
 20
123.96815707391519
 30
0.0
  0
VERTEX
  5
1E57
  8
SAPA_GLAS
 10
170.406546151117
 20
93.346442041223256
 30
0.0
  0
SEQEND
  5
1E58
  8
SAPA_GLAS
  0
POLYLINE
  5
16F3
  8
SAPA_GLAS
 66
     1
 10
0.0
 20
0.0
 30
0.0
  0
VERTEX
  5
1E59
  8
SAPA_GLAS
 10
165.906546151117
 20
123.96815707391519
 30
0.0
  0
VERTEX
  5
1E5A
  8
SAPA_GLAS
 10
165.906546151117
 20
93.346442041223256
 30
0.0
  0
VERTEX
  5
1E5B
  8
SAPA_GLAS
 10
192.906546151117
 20
93.346442041223256
 30
0.0
  0
VERTEX
  5
1E5C
  8
SAPA_GLAS
 10
192.906546151117
 20
123.96815707391519
 30
0.0
  0
SEQEND
  5
1E5D
  8
SAPA_GLAS
  0
INSERT
  5
16F9
  8
SAPA_ISOLATOR
  6
CONTINUOUS
 62
     6
  2
*X62
 10
0.0
 20
0.0
 30
0.0
1001
GRADIENTCOLOR1ACI
1070
     5
1001
GRADIENTCOLOR2ACI
1070
     2
1001
ACAD
1000
HATCH
1002
{
1070
    19
1000
ANSI35
1040
1.0
1040
1.5707963267948959
1000
R14_HATCH_DATA
1000
16F9
1011
1.0
1021
0.0
1031
0.0
1021
0.0
1031
0.0
1011
0.0
1021
0.0
1031
0.0
1021
1.0
1031
0.0
1011
0.0
1021
0.0
1031
0.0
1021
0.0
1031
1.0
1040
0.0
1010
0.0
1020
0.0
1030
1.0
1000
ANSI35
1070
     0
1070
     0
1071
        1
1071
        7
1070
     0
1070
     1
1071
        4
1040
163.90653474774609
1040
8.9964416333274961
1040
193.90653474774609
1040
8.9964416333274944
1040
193.90653474774609
1040
80.996441633327507
1040
163.90653474774609
1040
80.996441633327507
1071
        0
1070
     1
1070
     1
1040
1.5707963267948959
1040
1.0
1070
     0
1070
     2
1040
2.3561944901923439
1040
193.9065347632947
1040
8.996441640085715
1040
-4.4901280605345759
1040
-4.490128060534575
1070
     0
1040
2.3561944901923439
1040
193.9065347632947
1040
13.48657164008571
1040
-4.4901280605345759
1040
-4.490128060534575
1070
     4
1040
7.9375
1040
-1.587499999999999
1040
0.0
1040
-1.587499999999999
1040
0.1723037014322992
1071
        1
1040
178.41597336118531
1040
56.523049125173827
1040
0.0
1002
}
  0
CIRCLE
  5
1712
  8
SAPA_FOGBAND
 10
197.90654615111711
 20
95.595316027936775
 30
0.0
 40
2.0223748416156688
  0
CIRCLE
  5
1713
  8
SAPA_FOGBAND
 10
199.40654615111711
 20
103.0953160279368
 30
0.0
 40
2.5
  0
POLYLINE
  5
1714
  8
SAPA_FOGBAND
 66
     1
 10
0.0
 20
0.0
 30
0.0
 70
     1
  0
VERTEX
  5
1FC2
  8
SAPA_FOGBAND
 10
196.952751298354
 20
84.834706873412586
 30
0.0
  0
VERTEX
  5
1FC3
  8
SAPA_FOGBAND
 10
205.7599695362623
 20
98.755316955262444
 30
0.0
 42
0.1379343940649205
  0
VERTEX
  5
1FC4
  8
SAPA_FOGBAND
 10
205.90654615111711
 20
99.276535264310866
 30
0.0
  0
VERTEX
  5
1FC5
  8
SAPA_FOGBAND
 10
205.90654615111711
 20
106.6953160279368
 30
0.0
 42
0.4142135623730951
  0
VERTEX
  5
1FC6
  8
SAPA_FOGBAND
 10
205.6065461511171
 20
106.99531602793679
 30
0.0
  0
VERTEX
  5
1FC7
  8
SAPA_FOGBAND
 10
203.90654615111711
 20
106.99531602793679
 30
0.0
  0
VERTEX
  5
1FC8
  8
SAPA_FOGBAND
 10
203.90654615111711
 20
108.80901611985711
 30
0.0
 42
0.4005932428724201
  0
VERTEX
  5
1FC9
  8
SAPA_FOGBAND
 10
203.62055872247629
 20
109.1086886875771
 30
0.0
  0
VERTEX
  5
1FCA
  8
SAPA_FOGBAND
 10
193.22055872247631
 20
109.5949885956568
 30
0.0
 42
0.4279663351068871
  0
VERTEX
  5
1FCB
  8
SAPA_FOGBAND
 10
192.90654615111711
 20
109.29531602793681
 30
0.0
  0
VERTEX
  5
1FCC
  8
SAPA_FOGBAND
 10
192.90654615111711
 20
104.5953160279368
 30
0.0
  0
VERTEX
  5
1FCD
  8
SAPA_FOGBAND
 10
193.40654615111711
 20
104.5953160279368
 30
0.0
 42
-0.4142135623730951
  0
VERTEX
  5
1FCE
  8
SAPA_FOGBAND
 10
194.40654615111711
 20
103.5953160279368
 30
0.0
  0
VERTEX
  5
1FCF
  8
SAPA_FOGBAND
 10
194.40654615111711
 20
85.595316027936775
 30
0.0
 42
0.4142135623730951
  0
VERTEX
  5
1FD0
  8
SAPA_FOGBAND
 10
195.406546151117
 20
84.595316027936775
 30
0.0
  0
VERTEX
  5
1FD1
  8
SAPA_FOGBAND
 10
196.52603960578139
 20
84.595316027936775
 30
0.0
 42
0.2613472755167647
  0
SEQEND
  5
1FD2
  8
SAPA_FOGBAND
  0
POLYLINE
  5
1715
  8
SAPA_FOGBAND
 66
     1
 10
0.0
 20
0.0
 30
0.0
 70
     1
  0
VERTEX
  5
1FD3
  8
SAPA_FOGBAND
 10
138.1441579828126
 20
105.7566174183234
 30
0.0
 42
-0.4142135623730951
  0
VERTEX
  5
1FD4
  8
SAPA_FOGBAND
 10
138.6441579828126
 20
106.2566174183234
 30
0.0
  0
VERTEX
  5
1FD5
  8
SAPA_FOGBAND
 10
139.9727432490746
 20
106.2566174183234
 30
0.0
 42
-0.4142135623730951
  0
VERTEX
  5
1FD6
  8
SAPA_FOGBAND
 10
140.4727432490746
 20
105.7566174183234
 30
0.0
  0
VERTEX
  5
1FD7
  8
SAPA_FOGBAND
 10
140.4727432490746
 20
105.236265853752
 30
0.0
 42
-0.4142135623730951
  0
VERTEX
  5
1FD8
  8
SAPA_FOGBAND
 10
139.9727432490746
 20
104.7362658537521
 30
0.0
  0
VERTEX
  5
1FD9
  8
SAPA_FOGBAND
 10
138.6441579828126
 20
104.7362658537521
 30
0.0
 42
-0.4142135623730951
  0
VERTEX
  5
1FDA
  8
SAPA_FOGBAND
 10
138.1441579828126
 20
105.236265853752
 30
0.0
  0
SEQEND
  5
1FDB
  8
SAPA_FOGBAND
  0
LINE
  5
1716
  8
SAPA_FOGBAND
 10
140.60396561672181
 20
108.5539499542822
 30
0.0
 11
140.60396561672169
 21
108.98486547539579
 31
0.0
  0
POLYLINE
  5
1717
  8
SAPA_FOGBAND
 66
     1
 10
0.0
 20
0.0
 30
0.0
  0
VERTEX
  5
1FDC
  8
SAPA_FOGBAND
 10
140.60312340862291
 20
108.9848637021057
 30
0.0
  0
VERTEX
  5
1FDD
  8
SAPA_FOGBAND
 10
156.7348717098088
 20
108.99991696481329
 30
0.0
 42
-0.4148303899774826
  0
VERTEX
  5
1FDE
  8
SAPA_FOGBAND
 10
158.63887219827811
 20
107.0999211763727
 30
0.0
  0
VERTEX
  5
1FDF
  8
SAPA_FOGBAND
 10
158.63887219827811
 20
104.4585217984676
 30
0.0
 42
-0.0999389364679327
  0
VERTEX
  5
1FE0
  8
SAPA_FOGBAND
 10
162.53477654083969
 20
103.98318768921671
 30
0.0
 42
-0.3113527671839112
  0
VERTEX
  5
1FE1
  8
SAPA_FOGBAND
 10
162.81006061022831
 20
103.6219928734092
 30
0.0
  0
VERTEX
  5
1FE2
  8
SAPA_FOGBAND
 10
162.82291429350511
 20
103.3518896420895
 30
0.0
 42
0.205004399522433
  0
VERTEX
  5
1FE3
  8
SAPA_FOGBAND
 10
163.16659481533389
 20
102.6439589587271
 30
0.0
  0
VERTEX
  5
1FE4
  8
SAPA_FOGBAND
 10
164.3378727083184
 20
101.6281494049794
 30
0.0
 42
0.8055176831861466
  0
VERTEX
  5
1FE5
  8
SAPA_FOGBAND
 10
165.37653042075951
 20
102.4043203865285
 30
0.0
  0
VERTEX
  5
1FE6
  8
SAPA_FOGBAND
 10
164.25678333016691
 20
104.8643109759555
 30
0.0
 42
0.23240182960574
  0
VERTEX
  5
1FE7
  8
SAPA_FOGBAND
 10
163.98401142197719
 20
105.08804135435381
 30
0.0
 42
-0.8281972534260916
  0
VERTEX
  5
1FE8
  8
SAPA_FOGBAND
 10
164.0275071288265
 20
106.1025023143104
 30
0.0
 42
0.2654236385373166
  0
VERTEX
  5
1FE9
  8
SAPA_FOGBAND
 10
164.8089470564517
 20
106.7132892136391
 30
0.0
  0
VERTEX
  5
1FEA
  8
SAPA_FOGBAND
 10
166.54834199933319
 20
111.83062341786599
 30
0.0
 42
0.5665360068763656
  0
VERTEX
  5
1FEB
  8
SAPA_FOGBAND
 10
165.99362786762151
 20
112.4848772078477
 30
0.0
  0
VERTEX
  5
1FEC
  8
SAPA_FOGBAND
 10
140.85191177130631
 20
109.8214628704672
 30
0.0
 42
0.2273993322864573
  0
VERTEX
  5
1FED
  8
SAPA_FOGBAND
 10
140.1432903462119
 20
109.3256169215181
 30
0.0
 42
0.0248024956625856
  0
VERTEX
  5
1FEE
  8
SAPA_FOGBAND
 10
140.0853271653356
 20
109.2096363534438
 30
0.0
 42
0.2363077723757957
  0
VERTEX
  5
1FEF
  8
SAPA_FOGBAND
 10
140.1103872144416
 20
109.0323508275696
 30
0.0
  0
VERTEX
  5
1FF0
  8
SAPA_FOGBAND
 10
140.60396561672181
 20
108.5539499542822
 30
0.0
  0
VERTEX
  5
1FF1
  8
SAPA_FOGBAND
 10
140.60396561672169
 20
107.3449468696875
 30
0.0
 42
-0.4142135623730909
  0
VERTEX
  5
1FF2
  8
SAPA_FOGBAND
 10
140.20396561672169
 20
106.9449468696875
 30
0.0
  0
VERTEX
  5
1FF3
  8
SAPA_FOGBAND
 10
139.40616734772041
 20
106.9449468696875
 30
0.0
  0
VERTEX
  5
1FF4
  8
SAPA_FOGBAND
 10
139.2061673477204
 20
106.9449468696875
 30
0.0
  0
VERTEX
  5
1FF5
  8
SAPA_FOGBAND
 10
139.15170437659521
 20
107.1482054450582
 30
0.0
 42
0.4740571810232318
  0
VERTEX
  5
1FF6
  8
SAPA_FOGBAND
 10
138.86942179095661
 20
107.2754993074218
 30
0.0
  0
VERTEX
  5
1FF7
  8
SAPA_FOGBAND
 10
137.72141443186061
 20
106.7042615967836
 30
0.0
 42
0.2846003776496058
  0
VERTEX
  5
1FF8
  8
SAPA_FOGBAND
 10
137.44415798281261
 20
106.2566174183234
 30
0.0
  0
VERTEX
  5
1FF9
  8
SAPA_FOGBAND
 10
137.44415798281261
 20
104.7362658537521
 30
0.0
 42
0.2846003776496049
  0
VERTEX
  5
1FFA
  8
SAPA_FOGBAND
 10
137.72141443186061
 20
104.28862167529191
 30
0.0
  0
VERTEX
  5
1FFB
  8
SAPA_FOGBAND
 10
138.86942179095661
 20
103.71738396465371
 30
0.0
 42
0.4740571810232618
  0
VERTEX
  5
1FFC
  8
SAPA_FOGBAND
 10
139.15170437659509
 20
103.84467782701719
 30
0.0
  0
VERTEX
  5
1FFD
  8
SAPA_FOGBAND
 10
139.22266651863751
 20
104.10951214653311
 30
0.0
  0
VERTEX
  5
1FFE
  8
SAPA_FOGBAND
 10
139.4226665186375
 20
104.10951214653311
 30
0.0
  0
VERTEX
  5
1FFF
  8
SAPA_FOGBAND
 10
140.20396561672169
 20
104.10951214653311
 30
0.0
 42
-0.4142135623730951
  0
VERTEX
  5
2000
  8
SAPA_FOGBAND
 10
140.60396561672169
 20
103.7095121465331
 30
0.0
  0
VERTEX
  5
2001
  8
SAPA_FOGBAND
 10
140.60396561672169
 20
101.0214628704672
 30
0.0
 42
-0.2843345802748576
  0
VERTEX
  5
2002
  8
SAPA_FOGBAND
 10
139.16477019266111
 20
99.089886184551673
 30
0.0
  0
VERTEX
  5
2003
  8
SAPA_FOGBAND
 10
137.60713519281239
 20
98.328562150649361
 30
0.0
 42
0.2865189237852846
  0
VERTEX
  5
2004
  8
SAPA_FOGBAND
 10
137.43887219827809
 20
98.059034116131755
 30
0.0
  0
VERTEX
  5
2005
  8
SAPA_FOGBAND
 10
137.43887219827809
 20
95.821508758016051
 30
0.0
 42
0.5417225065732673
  0
VERTEX
  5
2006
  8
SAPA_FOGBAND
 10
137.85984767370351
 20
95.546982011877191
 30
0.0
  0
VERTEX
  5
2007
  8
SAPA_FOGBAND
 10
147.2320313678606
 20
99.730314491851729
 30
0.0
 42
-0.0563290829981843
  0
VERTEX
  5
2008
  8
SAPA_FOGBAND
 10
147.6608385546167
 20
99.864148848326693
 30
0.0
  0
VERTEX
  5
2009
  8
SAPA_FOGBAND
 10
157.09768338188761
 20
101.6789326561277
 30
0.0
  0
SEQEND
  5
200A
  8
SAPA_FOGBAND
  0
POLYLINE
  5
1718
  8
SAPA_FOGBAND
 66
     1
 10
0.0
 20
0.0
 30
0.0
 70
     1
  0
VERTEX
  5
200B
  8
SAPA_FOGBAND
 10
142.64626710334181
 20
102.9840200791034
 30
0.0
  0
VERTEX
  5
200C
  8
SAPA_FOGBAND
 10
148.54256965081001
 20
102.9840200791034
 30
0.0
 42
0.4142135623730951
  0
VERTEX
  5
200D
  8
SAPA_FOGBAND
 10
148.74256965081
 20
103.18402007910341
 30
0.0
  0
VERTEX
  5
200E
  8
SAPA_FOGBAND
 10
148.74256965081
 20
106.9227430062849
 30
0.0
 42
0.4142135623730951
  0
VERTEX
  5
200F
  8
SAPA_FOGBAND
 10
148.54256965081001
 20
107.12274300628491
 30
0.0
  0
VERTEX
  5
2010
  8
SAPA_FOGBAND
 10
142.64626710334181
 20
107.12274300628491
 30
0.0
 42
0.4142135623731013
  0
VERTEX
  5
2011
  8
SAPA_FOGBAND
 10
142.1462671033419
 20
106.62274300628491
 30
0.0
  0
VERTEX
  5
2012
  8
SAPA_FOGBAND
 10
142.1462671033419
 20
103.4840200791034
 30
0.0
 42
0.4142135623730951
  0
SEQEND
  5
2013
  8
SAPA_FOGBAND
  0
POLYLINE
  5
1719
  8
SAPA_FOGBAND
 66
     1
 10
0.0
 20
0.0
 30
0.0
 70
     1
  0
VERTEX
  5
2014
  8
SAPA_FOGBAND
 10
156.3388721982781
 20
102.9840200791034
 30
0.0
 42
0.4142135623730951
  0
VERTEX
  5
2015
  8
SAPA_FOGBAND
 10
157.3388721982781
 20
103.9840200791034
 30
0.0
  0
VERTEX
  5
2016
  8
SAPA_FOGBAND
 10
157.3388721982781
 20
106.62274300628491
 30
0.0
 42
0.4142135623730951
  0
VERTEX
  5
2017
  8
SAPA_FOGBAND
 10
156.8388721982781
 20
107.12274300628491
 30
0.0
  0
VERTEX
  5
2018
  8
SAPA_FOGBAND
 10
150.44256965080999
 20
107.12274300628491
 30
0.0
 42
0.4142135623730951
  0
VERTEX
  5
2019
  8
SAPA_FOGBAND
 10
150.24256965081
 20
106.9227430062849
 30
0.0
  0
VERTEX
  5
201A
  8
SAPA_FOGBAND
 10
150.24256965081
 20
103.18402007910341
 30
0.0
 42
0.4142135623730951
  0
VERTEX
  5
201B
  8
SAPA_FOGBAND
 10
150.44256965080999
 20
102.9840200791034
 30
0.0
  0
SEQEND
  5
201C
  8
SAPA_FOGBAND
  0
POLYLINE
  5
171A
  8
SAPA_FOGBAND
 66
     1
 10
0.0
 20
0.0
 30
0.0
 70
     1
  0
VERTEX
  5
201D
  8
SAPA_FOGBAND
 10
142.84789289571759
 20
99.218986404615151
 30
0.0
 42
-0.5417225065732673
  0
VERTEX
  5
201E
  8
SAPA_FOGBAND
 10
142.1462671033419
 20
99.676530981513224
 30
0.0
  0
VERTEX
  5
201F
  8
SAPA_FOGBAND
 10
142.1462671033419
 20
101.18402007910341
 30
0.0
 42
-0.4142135623730951
  0
VERTEX
  5
2020
  8
SAPA_FOGBAND
 10
142.64626710334181
 20
101.68402007910341
 30
0.0
  0
VERTEX
  5
2021
  8
SAPA_FOGBAND
 10
146.06717597223309
 20
101.68402007910341
 30
0.0
 42
-0.8113630355945115
  0
VERTEX
  5
2022
  8
SAPA_FOGBAND
 10
146.2688017646089
 20
100.7264755022053
 30
0.0
  0
SEQEND
  5
2023
  8
SAPA_FOGBAND
  0
LINE
  5
171B
  8
SAPA_FOGBAND
 10
142.1462671033419
 20
104.0395779888742
 30
0.0
 11
142.1462671033419
 21
103.4840200791034
 31
0.0
  0
POLYLINE
  5
171C
  8
SAPA_FOGBAND
 66
     1
 10
0.0
 20
0.0
 30
0.0
  0
VERTEX
  5
2024
  8
SAPA_FOGBAND
 10
156.9008510673134
 20
101.6516617923497
 30
0.0
 42
0.3894287807274992
  0
VERTEX
  5
2025
  8
SAPA_FOGBAND
 10
158.63887219827811
 20
103.54474468699171
 30
0.0
  0
VERTEX
  5
2026
  8
SAPA_FOGBAND
 10
158.63887219827811
 20
104.4585217984676
 30
0.0
  0
SEQEND
  5
2027
  8
SAPA_FOGBAND
  0
LINE
  5
171D
  8
SAPA_FOGBAND
 10
142.64626710334181
 20
102.9840200791034
 30
0.0
 11
148.1261106745271
 21
102.9840200791034
 31
0.0
  0
ARC
  5
171E
  8
SAPA_FOGBAND
 10
142.64626710334181
 20
103.4840200791034
 30
0.0
 40
0.5
 50
180.0
 51
270.0
  0
LINE
  5
171F
  8
SAPA_FOGBAND
 10
142.1462671033419
 20
104.0395779888742
 30
0.0
 11
142.1462671033419
 21
103.4840200791034
 31
0.0
  0
POLYLINE
  5
1720
  8
SAPA_FOGBAND
 66
     1
 10
0.0
 20
0.0
 30
0.0
 70
     1
  0
VERTEX
  5
2028
  8
SAPA_FOGBAND
 10
149.34648246122131
 20
-4.6633109255344598
 30
0.0
 42
0.9999999999999998
  0
VERTEX
  5
2029
  8
SAPA_FOGBAND
 10
148.0464824612213
 20
-4.6633109255344598
 30
0.0
  0
VERTEX
  5
202A
  8
SAPA_FOGBAND
 10
148.0464824612213
 20
-9.2633109255344834
 30
0.0
 42
0.9999999999999998
  0
VERTEX
  5
202B
  8
SAPA_FOGBAND
 10
149.34648246122131
 20
-9.2633109255344834
 30
0.0
  0
SEQEND
  5
202C
  8
SAPA_FOGBAND
  0
POLYLINE
  5
1721
  8
SAPA_FOGBAND
 66
     1
 10
0.0
 20
0.0
 30
0.0
 70
     1
  0
VERTEX
  5
202D
  8
SAPA_FOGBAND
 10
150.49648246122121
 20
-9.0098124730666314
 30
0.0
 42
0.0655434628152377
  0
VERTEX
  5
202E
  8
SAPA_FOGBAND
 10
150.50329729596351
 20
-9.0615762820871169
 30
0.0
  0
VERTEX
  5
202F
  8
SAPA_FOGBAND
 10
150.7396676264791
 20
-9.9437223649732687
 30
0.0
 42
-0.4142135623730951
  0
VERTEX
  5
2030
  8
SAPA_FOGBAND
 10
150.59824627024179
 20
-10.188671339251639
 30
0.0
  0
VERTEX
  5
2031
  8
SAPA_FOGBAND
 10
149.94648246122131
 20
-10.363310925534501
 30
0.0
  0
VERTEX
  5
2032
  8
SAPA_FOGBAND
 10
149.94648246122131
 20
-10.96331092553447
 30
0.0
 42
0.4142135623730951
  0
VERTEX
  5
2033
  8
SAPA_FOGBAND
 10
150.1464824612213
 20
-11.163310925534461
 30
0.0
  0
VERTEX
  5
2034
  8
SAPA_FOGBAND
 10
151.0464824612213
 20
-11.163310925534461
 30
0.0
 42
-0.4142135623730942
  0
VERTEX
  5
2035
  8
SAPA_FOGBAND
 10
151.24648246122121
 20
-11.363310925534501
 30
0.0
  0
VERTEX
  5
2036
  8
SAPA_FOGBAND
 10
151.24648246122121
 20
-11.659851146828141
 30
0.0
 42
-0.3639702342662029
  0
VERTEX
  5
2037
  8
SAPA_FOGBAND
 10
150.7506713678215
 20
-12.25073579863545
 30
0.0
  0
VERTEX
  5
2038
  8
SAPA_FOGBAND
 10
150.40912658930051
 20
-12.31095935820877
 30
0.0
 42
-0.6880204670628091
  0
VERTEX
  5
2039
  8
SAPA_FOGBAND
 10
149.4593029740418
 20
-18.779171705077491
 30
0.0
 42
0.5327880064124693
  0
VERTEX
  5
203A
  8
SAPA_FOGBAND
 10
149.2179479017486
 20
-19.39773345133926
 30
0.0
 42
-0.159373363567348
  0
VERTEX
  5
203B
  8
SAPA_FOGBAND
 10
149.25361747203689
 20
-19.516847814942821
 30
0.0
  0
VERTEX
  5
203C
  8
SAPA_FOGBAND
 10
149.09635616127059
 20
-25.7733619955705
 30
0.0
 42
-0.9751802379498887
  0
VERTEX
  5
203D
  8
SAPA_FOGBAND
 10
148.296608761172
 20
-25.7733619955705
 30
0.0
  0
VERTEX
  5
203E
  8
SAPA_FOGBAND
 10
148.13934745040569
 20
-19.516847814942651
 30
0.0
 42
-0.1593733635672904
  0
VERTEX
  5
203F
  8
SAPA_FOGBAND
 10
148.1750170206939
 20
-19.39773345133921
 30
0.0
 42
0.5327880064123937
  0
VERTEX
  5
2040
  8
SAPA_FOGBAND
 10
147.9336619484007
 20
-18.779171705077491
 30
0.0
 42
-0.6880204670628082
  0
VERTEX
  5
2041
  8
SAPA_FOGBAND
 10
146.9838383331421
 20
-12.31095935820877
 30
0.0
  0
VERTEX
  5
2042
  8
SAPA_FOGBAND
 10
146.64229355462109
 20
-12.25073579863545
 30
0.0
 42
-0.3639702342662029
  0
VERTEX
  5
2043
  8
SAPA_FOGBAND
 10
146.1464824612213
 20
-11.659851146828141
 30
0.0
  0
VERTEX
  5
2044
  8
SAPA_FOGBAND
 10
146.1464824612213
 20
-11.363310925534501
 30
0.0
 42
-0.4142135623730942
  0
VERTEX
  5
2045
  8
SAPA_FOGBAND
 10
146.34648246122131
 20
-11.163310925534461
 30
0.0
  0
VERTEX
  5
2046
  8
SAPA_FOGBAND
 10
147.24648246122121
 20
-11.163310925534461
 30
0.0
 42
0.4142135623730951
  0
VERTEX
  5
2047
  8
SAPA_FOGBAND
 10
147.44648246122131
 20
-10.96331092553447
 30
0.0
  0
VERTEX
  5
2048
  8
SAPA_FOGBAND
 10
147.44648246122131
 20
-10.363310925534501
 30
0.0
  0
VERTEX
  5
2049
  8
SAPA_FOGBAND
 10
146.7947186522008
 20
-10.188671339251639
 30
0.0
 42
-0.4142135623730951
  0
VERTEX
  5
204A
  8
SAPA_FOGBAND
 10
146.65329729596351
 20
-9.9437223649732687
 30
0.0
  0
VERTEX
  5
204B
  8
SAPA_FOGBAND
 10
146.8964824612213
 20
-9.0361429725841163
 30
0.0
  0
VERTEX
  5
204C
  8
SAPA_FOGBAND
 10
146.8964824612213
 20
-5.2528999322508412
 30
0.0
 42
-0.0874886635259243
  0
VERTEX
  5
204D
  8
SAPA_FOGBAND
 10
147.07740459886361
 20
-4.2268395022738332
 30
0.0
  0
VERTEX
  5
204E
  8
SAPA_FOGBAND
 10
147.52673991993319
 20
-2.992300853871654
 30
0.0
 42
-0.3152987888789836
  0
VERTEX
  5
204F
  8
SAPA_FOGBAND
 10
147.99658623032619
 20
-2.6633109255344598
 30
0.0
  0
VERTEX
  5
2050
  8
SAPA_FOGBAND
 10
149.3963786921164
 20
-2.6633109255344598
 30
0.0
 42
-0.3152987888789835
  0
VERTEX
  5
2051
  8
SAPA_FOGBAND
 10
149.8662250025094
 20
-2.992300853871654
 30
0.0
  0
VERTEX
  5
2052
  8
SAPA_FOGBAND
 10
150.31556032357901
 20
-4.2268395022738332
 30
0.0
 42
-0.0874886635259243
  0
VERTEX
  5
2053
  8
SAPA_FOGBAND
 10
150.49648246122121
 20
-5.2528999322508412
 30
0.0
  0
SEQEND
  5
2054
  8
SAPA_FOGBAND
  0
CIRCLE
  5
1722
  8
SAPA_FOGBAND
 10
148.69648246122131
 20
-15.363310925534501
 30
0.0
 40
2.7999999999999989
  0
POLYLINE
  5
1723
  8
SAPA_FOGBAND
 66
     1
 10
0.0
 20
0.0
 30
0.0
 70
     1
  0
VERTEX
  5
2055
  8
SAPA_FOGBAND
 10
208.50653477650781
 20
-4.6535583599140864
 30
0.0
 42
-0.9999999999999998
  0
VERTEX
  5
2056
  8
SAPA_FOGBAND
 10
209.80653477650779
 20
-4.6535583599140864
 30
0.0
  0
VERTEX
  5
2057
  8
SAPA_FOGBAND
 10
209.80653477650779
 20
-9.2535583599141091
 30
0.0
 42
-0.9999999999999998
  0
VERTEX
  5
2058
  8
SAPA_FOGBAND
 10
208.50653477650781
 20
-9.2535583599141091
 30
0.0
  0
SEQEND
  5
2059
  8
SAPA_FOGBAND
  0
POLYLINE
  5
1724
  8
SAPA_FOGBAND
 66
     1
 10
0.0
 20
0.0
 30
0.0
 70
     1
  0
VERTEX
  5
205A
  8
SAPA_FOGBAND
 10
207.3565347765078
 20
-9.0000599074462571
 30
0.0
 42
-0.0655434628152377
  0
VERTEX
  5
205B
  8
SAPA_FOGBAND
 10
207.3497199417655
 20
-9.0518237164667426
 30
0.0
  0
VERTEX
  5
205C
  8
SAPA_FOGBAND
 10
207.11334961124999
 20
-9.9339697993528944
 30
0.0
 42
0.4142135623730951
  0
VERTEX
  5
205D
  8
SAPA_FOGBAND
 10
207.2547709674873
 20
-10.17891877363126
 30
0.0
  0
VERTEX
  5
205E
  8
SAPA_FOGBAND
 10
207.90653477650781
 20
-10.35355835991413
 30
0.0
  0
VERTEX
  5
205F
  8
SAPA_FOGBAND
 10
207.90653477650781
 20
-10.953558359914091
 30
0.0
 42
-0.4142135623730951
  0
VERTEX
  5
2060
  8
SAPA_FOGBAND
 10
207.70653477650771
 20
-11.153558359914079
 30
0.0
  0
VERTEX
  5
2061
  8
SAPA_FOGBAND
 10
206.8065347765077
 20
-11.153558359914079
 30
0.0
 42
0.4142135623730942
  0
VERTEX
  5
2062
  8
SAPA_FOGBAND
 10
206.6065347765078
 20
-11.35355835991413
 30
0.0
  0
VERTEX
  5
2063
  8
SAPA_FOGBAND
 10
206.6065347765078
 20
-11.65009858120777
 30
0.0
 42
0.3639702342662029
  0
VERTEX
  5
2064
  8
SAPA_FOGBAND
 10
207.10234586990759
 20
-12.24098323301507
 30
0.0
  0
VERTEX
  5
2065
  8
SAPA_FOGBAND
 10
207.44389064842861
 20
-12.301206792588401
 30
0.0
 42
0.6880204670628091
  0
VERTEX
  5
2066
  8
SAPA_FOGBAND
 10
208.3937142636872
 20
-18.76941913945711
 30
0.0
 42
-0.5327880064124693
  0
VERTEX
  5
2067
  8
SAPA_FOGBAND
 10
208.63506933598049
 20
-19.387980885718889
 30
0.0
 42
0.159373363567348
  0
VERTEX
  5
2068
  8
SAPA_FOGBAND
 10
208.5993997656922
 20
-19.50709524932245
 30
0.0
  0
VERTEX
  5
2069
  8
SAPA_FOGBAND
 10
208.7566610764585
 20
-25.763609429950119
 30
0.0
 42
0.9751802379498887
  0
VERTEX
  5
206A
  8
SAPA_FOGBAND
 10
209.55640847655701
 20
-25.763609429950119
 30
0.0
  0
VERTEX
  5
206B
  8
SAPA_FOGBAND
 10
209.7136697873234
 20
-19.507095249322269
 30
0.0
 42
0.1593733635672904
  0
VERTEX
  5
206C
  8
SAPA_FOGBAND
 10
209.67800021703511
 20
-19.387980885718829
 30
0.0
 42
-0.5327880064123937
  0
VERTEX
  5
206D
  8
SAPA_FOGBAND
 10
209.91935528932831
 20
-18.76941913945711
 30
0.0
 42
0.6880204670628082
  0
VERTEX
  5
206E
  8
SAPA_FOGBAND
 10
210.86917890458699
 20
-12.301206792588401
 30
0.0
  0
VERTEX
  5
206F
  8
SAPA_FOGBAND
 10
211.210723683108
 20
-12.24098323301507
 30
0.0
 42
0.3639702342662029
  0
VERTEX
  5
2070
  8
SAPA_FOGBAND
 10
211.70653477650771
 20
-11.65009858120777
 30
0.0
  0
VERTEX
  5
2071
  8
SAPA_FOGBAND
 10
211.70653477650771
 20
-11.35355835991413
 30
0.0
 42
0.4142135623730942
  0
VERTEX
  5
2072
  8
SAPA_FOGBAND
 10
211.50653477650781
 20
-11.153558359914079
 30
0.0
  0
VERTEX
  5
2073
  8
SAPA_FOGBAND
 10
210.6065347765078
 20
-11.153558359914079
 30
0.0
 42
-0.4142135623730951
  0
VERTEX
  5
2074
  8
SAPA_FOGBAND
 10
210.40653477650781
 20
-10.953558359914091
 30
0.0
  0
VERTEX
  5
2075
  8
SAPA_FOGBAND
 10
210.40653477650781
 20
-10.35355835991413
 30
0.0
  0
VERTEX
  5
2076
  8
SAPA_FOGBAND
 10
211.05829858552829
 20
-10.17891877363126
 30
0.0
 42
0.4142135623730951
  0
VERTEX
  5
2077
  8
SAPA_FOGBAND
 10
211.19971994176561
 20
-9.9339697993528944
 30
0.0
  0
VERTEX
  5
2078
  8
SAPA_FOGBAND
 10
210.95653477650771
 20
-9.0263904069637402
 30
0.0
  0
VERTEX
  5
2079
  8
SAPA_FOGBAND
 10
210.95653477650771
 20
-5.243147366630466
 30
0.0
 42
0.0874886635259243
  0
VERTEX
  5
207A
  8
SAPA_FOGBAND
 10
210.77561263886551
 20
-4.217086936653458
 30
0.0
  0
VERTEX
  5
207B
  8
SAPA_FOGBAND
 10
210.3262773177959
 20
-2.9825482882512802
 30
0.0
 42
0.3152987888789836
  0
VERTEX
  5
207C
  8
SAPA_FOGBAND
 10
209.8564310074029
 20
-2.653558359914086
 30
0.0
  0
VERTEX
  5
207D
  8
SAPA_FOGBAND
 10
208.45663854561269
 20
-2.653558359914086
 30
0.0
 42
0.3152987888789835
  0
VERTEX
  5
207E
  8
SAPA_FOGBAND
 10
207.9867922352197
 20
-2.9825482882512802
 30
0.0
  0
VERTEX
  5
207F
  8
SAPA_FOGBAND
 10
207.53745691415011
 20
-4.217086936653458
 30
0.0
 42
0.0874886635259243
  0
VERTEX
  5
2080
  8
SAPA_FOGBAND
 10
207.3565347765078
 20
-5.243147366630466
 30
0.0
  0
SEQEND
  5
2081
  8
SAPA_FOGBAND
  0
CIRCLE
  5
1725
  8
SAPA_FOGBAND
 10
209.15653477650781
 20
-15.35355835991413
 30
0.0
 40
2.7999999999999989
  0
DIMENSION
  5
172C
  8
SAPA_MATT
  2
*D60
 10
240.9400741136626
 20
-36.153558359943787
 30
0.0
 11
238.4400741136626
 21
-31.153558359943769
 31
0.0
 70
     0
  1
10
 13
220.90653477650781
 23
-26.15355835994384
 33
0.0
 14
212.45653476370501
 24
-36.15355835994378
 34
0.0
 50
90.0
1001
ACAD
1000
DSTYLE
1002
{
1070
    40
1040
1.0
1002
}
  0
DIMENSION
  5
172D
  8
SAPA_MATT
  2
*D59
 10
240.94007411366249
 20
-26.153558359943759
 30
0.0
 11
238.44007411366249
 21
-18.653558359929011
 31
0.0
 70
     0
  1
10-14
 13
220.90653477650781
 23
-11.15355835991434
 33
0.0
 14
210.8565347637047
 24
-26.153558359943752
 34
0.0
 50
90.0
1001
ACAD
1000
DSTYLE
1002
{
1070
    40
1040
1.0
1002
}
  0
ENDSEC
  0
EOF
