  0
SECTION
  2
HEADER
  9
$ACADVER
  1
AC1009
  9
$INSBASE
 10
0.0
 20
0.0
 30
0.0
  9
$EXTMIN
 10
-148.7002820921287
 20
-126.2051012061636
 30
-0.1
  9
$EXTMAX
 10
124.4999999999998
 20
5.9813708474600551
 30
0.1
  9
$LIMMIN
 10
0.0
 20
0.0
  9
$LIMMAX
 10
790.0
 20
790.0
  9
$ORTHOMODE
 70
     0
  9
$REGENMODE
 70
     1
  9
$FILLMODE
 70
     1
  9
$QTEXTMODE
 70
     0
  9
$MIRRTEXT
 70
     1
  9
$DRAGMODE
 70
     2
  9
$LTSCALE
 40
4.0
  9
$OSMODE
 70
   167
  9
$ATTMODE
 70
     1
  9
$TEXTSIZE
 40
3.5
  9
$TRACEWID
 40
0.05
  9
$TEXTSTYLE
  7
ISO
  9
$CLAYER
  8
0
  9
$CELTYPE
  6
BYLAYER
  9
$CECOLOR
 62
   256
  9
$DIMSCALE
 40
0.0
  9
$DIMASZ
 40
3.0
  9
$DIMEXO
 40
1.5
  9
$DIMDLI
 40
10.0
  9
$DIMRND
 40
0.0
  9
$DIMDLE
 40
0.0
  9
$DIMEXE
 40
1.5
  9
$DIMTP
 40
0.0
  9
$DIMTM
 40
0.0
  9
$DIMTXT
 40
3.0
  9
$DIMCEN
 40
-5.0
  9
$DIMTSZ
 40
0.0
  9
$DIMTOL
 70
     0
  9
$DIMLIM
 70
     0
  9
$DIMTIH
 70
     0
  9
$DIMTOH
 70
     0
  9
$DIMSE1
 70
     0
  9
$DIMSE2
 70
     0
  9
$DIMTAD
 70
     1
  9
$DIMZIN
 70
     8
  9
$DIMBLK
  1

  9
$DIMASO
 70
     1
  9
$DIMSHO
 70
     1
  9
$DIMPOST
  1

  9
$DIMAPOST
  1

  9
$DIMALT
 70
     0
  9
$DIMALTD
 70
     0
  9
$DIMALTF
 40
25.399999999999999
  9
$DIMLFAC
 40
-1.0
  9
$DIMTOFL
 70
     1
  9
$DIMTVP
 40
0.0
  9
$DIMTIX
 70
     0
  9
$DIMSOXD
 70
     0
  9
$DIMSAH
 70
     0
  9
$DIMBLK1
  1

  9
$DIMBLK2
  1

  9
$DIMSTYLE
  2
MASKIN
  9
$DIMCLRD
 70
   256
  9
$DIMCLRE
 70
   256
  9
$DIMCLRT
 70
     2
  9
$DIMTFAC
 40
1.0
  9
$DIMGAP
 40
1.0
  9
$LUNITS
 70
     2
  9
$LUPREC
 70
     8
  9
$SKETCHINC
 40
0.1
  9
$FILLETRAD
 40
0.0
  9
$AUNITS
 70
     0
  9
$AUPREC
 70
     8
  9
$MENU
  1
ACAD
  9
$ELEVATION
 40
0.0
  9
$PELEVATION
 40
0.0
  9
$THICKNESS
 40
0.0
  9
$LIMCHECK
 70
     0
  9
$BLIPMODE
 70
     0
  9
$CHAMFERA
 40
0.0
  9
$CHAMFERB
 40
0.0
  9
$SKPOLY
 70
     0
  9
$TDCREATE
 40
2457484.4264354631
  9
$TDUPDATE
 40
2457535.6842823732
  9
$TDINDWG
 40
0.0079853356
  9
$TDUSRTIMER
 40
0.0079853356
  9
$USRTIMER
 70
     1
  9
$ANGBASE
 50
0.0
  9
$ANGDIR
 70
     0
  9
$PDMODE
 70
     0
  9
$PDSIZE
 40
0.0
  9
$PLINEWID
 40
0.0
  9
$COORDS
 70
     1
  9
$SPLFRAME
 70
     0
  9
$SPLINETYPE
 70
     6
  9
$SPLINESEGS
 70
     8
  9
$ATTDIA
 70
     0
  9
$ATTREQ
 70
     1
  9
$HANDLING
 70
     1
  9
$HANDSEED
  5
1F23
  9
$SURFTAB1
 70
     6
  9
$SURFTAB2
 70
     6
  9
$SURFTYPE
 70
     6
  9
$SURFU
 70
     6
  9
$SURFV
 70
     6
  9
$UCSNAME
  2

  9
$UCSORG
 10
0.0
 20
0.0
 30
0.0
  9
$UCSXDIR
 10
1.0
 20
0.0
 30
0.0
  9
$UCSYDIR
 10
0.0
 20
1.0
 30
0.0
  9
$PUCSNAME
  2

  9
$PUCSORG
 10
0.0
 20
0.0
 30
0.0
  9
$PUCSXDIR
 10
1.0
 20
0.0
 30
0.0
  9
$PUCSYDIR
 10
0.0
 20
1.0
 30
0.0
  9
$USERI1
 70
     0
  9
$USERI2
 70
     0
  9
$USERI3
 70
     0
  9
$USERI4
 70
     0
  9
$USERI5
 70
     0
  9
$USERR1
 40
0.0
  9
$USERR2
 40
0.0
  9
$USERR3
 40
0.0
  9
$USERR4
 40
0.0
  9
$USERR5
 40
0.0
  9
$WORLDVIEW
 70
     1
  9
$SHADEDGE
 70
     3
  9
$SHADEDIF
 70
    70
  9
$TILEMODE
 70
     1
  9
$MAXACTVP
 70
    16
  9
$PLIMCHECK
 70
     0
  9
$PEXTMIN
 10
1.0000000000000000E+020
 20
1.0000000000000000E+020
 30
1.0000000000000000E+020
  9
$PEXTMAX
 10
-1.0000000000000000E+020
 20
-1.0000000000000000E+020
 30
-1.0000000000000000E+020
  9
$PLIMMIN
 10
-5.069427490234375
 20
-5.8737497329711914
  9
$PLIMMAX
 10
291.89889526367187
 20
204.0995779037475
  9
$UNITMODE
 70
     0
  9
$VISRETAIN
 70
     1
  9
$PLINEGEN
 70
     0
  9
$PSLTSCALE
 70
     1
  0
ENDSEC
  0
SECTION
  2
TABLES
  0
TABLE
  2
VPORT
 70
     1
  0
VPORT
  2
*ACTIVE
 70
     0
 10
0.0
 20
0.0
 11
1.0
 21
1.0
 12
7.4435176056257433
 22
18.208512518124461
 13
0.0
 23
0.0
 14
1.0
 24
1.0
 15
0.0
 25
0.0
 16
0.0
 26
0.0
 36
1.0
 17
0.0
 27
0.0
 37
0.0
 40
204.72078639571231
 41
1.9402515723270439
 42
50.0
 43
0.0
 44
0.0
 50
0.0
 51
0.0
 71
     0
 72
   100
 73
     1
 74
     1
 75
     0
 76
     0
 77
     0
 78
     0
  0
ENDTAB
  0
TABLE
  2
LTYPE
 70
    22
  0
LTYPE
  2
CONTINUOUS
 70
     0
  3
Solid line
 72
    65
 73
     0
 40
0.0
  0
LTYPE
  2
BYGG-030330$0$NEWDOT
 70
     0
  3
____ . ____ . ____ . ____ . ____ . ____ . ____
 72
    65
 73
     4
 40
2.0
 49
1.0
 49
-0.5
 49
0.0
 49
-0.5
  0
LTYPE
  2
BYGG-030330$0$DASHDOT
 70
     0
  3
__ . __ . __ . __ . __ . __ . __ . __ . __ . __
 72
    65
 73
     4
 40
1.0
 49
0.5
 49
-0.25
 49
0.0
 49
-0.25
  0
LTYPE
  2
BYGG-030330$0$DASHED
 70
     0
  3
__ __ __ __ __ __ __ __ __ __ __ __ __ __ __
 72
    65
 73
     2
 40
0.75
 49
0.5
 49
-0.25
  0
LTYPE
  2
BYGG-030330$0$PHANTOM
 70
     0
  3
Phantom ______  __  __  ______  __  __  ______
 72
    65
 73
     6
 40
63.5
 49
31.75
 49
-6.3499999999999988
 49
6.3499999999999988
 49
-6.3499999999999988
 49
6.3499999999999988
 49
-6.3499999999999988
  0
LTYPE
  2
BYGG-024935$0$NEWDOT
 70
     0
  3
____ . ____ . ____ . ____ . ____ . ____ . ____
 72
    65
 73
     4
 40
2.0
 49
1.0
 49
-0.5
 49
0.0
 49
-0.5
  0
LTYPE
  2
BYGG-024935$0$DASHDOT
 70
     0
  3
__ . __ . __ . __ . __ . __ . __ . __ . __ . __
 72
    65
 73
     4
 40
1.0
 49
0.5
 49
-0.25
 49
0.0
 49
-0.25
  0
LTYPE
  2
BYGG-024924$0$DASHDOT
 70
     0
  3
__ . __ . __ . __ . __ . __ . __ . __ . __ . __
 72
    65
 73
     4
 40
1.0
 49
0.5
 49
-0.25
 49
0.0
 49
-0.25
  0
LTYPE
  2
BYGG-01409101$0$DASHDOT
 70
     0
  3
__ . __ . __ . __ . __ . __ . __ . __ . __ . __
 72
    65
 73
     4
 40
1.0
 49
0.5
 49
-0.25
 49
0.0
 49
-0.25
  0
LTYPE
  2
BYGG-01409101$0$HIDDEN
 70
     0
  3
_ _ _ _ _ _ _ _ _ _ _ _ _ _ _ _ _ _ _ _ _ _ _
 72
    65
 73
     2
 40
0.375
 49
0.25
 49
-0.125
  0
LTYPE
  2
BYGG-030329$0$NEWDOT
 70
     0
  3
____ . ____ . ____ . ____ . ____ . ____ . ____
 72
    65
 73
     4
 40
2.0
 49
1.0
 49
-0.5
 49
0.0
 49
-0.5
  0
LTYPE
  2
BYGG-030329$0$DASHDOT
 70
     0
  3
__ . __ . __ . __ . __ . __ . __ . __ . __ . __
 72
    65
 73
     4
 40
1.0
 49
0.5
 49
-0.25
 49
0.0
 49
-0.25
  0
LTYPE
  2
BYGG-030329$0$DASHED
 70
     0
  3
__ __ __ __ __ __ __ __ __ __ __ __ __ __ __
 72
    65
 73
     2
 40
0.75
 49
0.5
 49
-0.25
  0
LTYPE
  2
BYGG-030329$0$PHANTOM
 70
     0
  3
Phantom ______  __  __  ______  __  __  ______
 72
    65
 73
     6
 40
63.5
 49
31.75
 49
-6.3499999999999988
 49
6.3499999999999988
 49
-6.3499999999999988
 49
6.3499999999999988
 49
-6.3499999999999988
  0
LTYPE
  2
BYGG-024905$0$DASHDOT
 70
     0
  3
__ . __ . __ . __ . __ . __ . __ . __ . __ . __
 72
    65
 73
     4
 40
1.0
 49
0.5
 49
-0.25
 49
0.0
 49
-0.25
  0
LTYPE
  2
BYGG-00894501$0$DASHDOT
 70
     0
  3
__ . __ . __ . __ . __ . __ . __ . __ . __ . __
 72
    65
 73
     4
 40
1.0
 49
0.5
 49
-0.25
 49
0.0
 49
-0.25
  0
LTYPE
  2
BYGG-030601$0$NEWDOT
 70
     0
  3
____ . ____ . ____ . ____ . ____ . ____ . ____
 72
    65
 73
     4
 40
2.0
 49
1.0
 49
-0.5
 49
0.0
 49
-0.5
  0
LTYPE
  2
BYGG-030601$0$ZIGZAG
 70
     0
  3
Zig zag /\/\/\/\/\/\/\/\/\/\/\/\/\/\/\/\/\/\/\/\/\/\/\/
 72
    65
 73
     4
 40
20.32254
 49
0.00254
 49
-5.0800000000000001
 49
-10.16
 49
-5.0800000000000001
  0
LTYPE
  2
BYGG-01409101$0$PHANTOM2
 70
     0
  3
Phantom (.5x) ___ _ _ ___ _ _ ___ _ _ ___ _ _
 72
    65
 73
     6
 40
1.25
 49
0.625
 49
-0.125
 49
0.125
 49
-0.125
 49
0.125
 49
-0.125
  0
LTYPE
  2
BYGG-030601$0$PHANTOM2
 70
     0
  3
Phantom (.5x) ___ _ _ ___ _ _ ___ _ _ ___ _ _
 72
    65
 73
     6
 40
1.25
 49
0.625
 49
-0.125
 49
0.125
 49
-0.125
 49
0.125
 49
-0.125
  0
LTYPE
  2
BYGG-014090$0$PHANTOM2
 70
     0
  3
Phantom (.5x) ___ _ _ ___ _ _ ___ _ _ ___ _ _
 72
    65
 73
     6
 40
1.25
 49
0.625
 49
-0.125
 49
0.125
 49
-0.125
 49
0.125
 49
-0.125
  0
LTYPE
  2
BYGG-031936$0$PHANTOM2
 70
     0
  3
Phantom (.5x) ___ _ _ ___ _ _ ___ _ _ ___ _ _
 72
    65
 73
     6
 40
1.25
 49
0.625
 49
-0.125
 49
0.125
 49
-0.125
 49
0.125
 49
-0.125
  0
ENDTAB
  0
TABLE
  2
LAYER
 70
   129
  0
LAYER
  2
0
 70
     0
 62
     7
  6
CONTINUOUS
  0
LAYER
  2
DEFPOINTS
 70
     0
 62
     7
  6
CONTINUOUS
  0
LAYER
  2
SAPA_ARTIKELNR
 70
     0
 62
     4
  6
CONTINUOUS
  0
LAYER
  2
SAPA_MATT
 70
     0
 62
     1
  6
CONTINUOUS
  0
LAYER
  2
SAPA_GLAS
 70
     0
 62
     4
  6
CONTINUOUS
  0
LAYER
  2
SAPA_FOGBAND
 70
     0
 62
     2
  6
CONTINUOUS
  0
LAYER
  2
SAPA_PROFIL
 70
     0
 62
     7
  6
CONTINUOUS
  0
ENDTAB
  0
TABLE
  2
STYLE
 70
    30
  0
STYLE
  2
STANDARD
 70
     0
 40
0.0
 41
1.0
 50
0.0
 71
     0
 42
0.2
  3
txt
  4

  0
STYLE
  2
ISO
 70
     0
 40
0.0
 41
1.0
 50
0.0
 71
     0
 42
3.5
  3
txt
  4

  0
STYLE
  2

 70
     1
 40
0.0
 41
1.0
 50
0.0
 71
     0
 42
0.2
  3
ltypeshp.shx
  4

  0
STYLE
  2
BYGG-030330$0$STANDARD
 70
     0
 40
0.0
 41
1.0
 50
0.0
 71
     0
 42
0.2
  3
txt
  4

  0
STYLE
  2
BYGG-030330$0$ISO
 70
     0
 40
0.0
 41
1.0
 50
0.0
 71
     0
 42
3.5
  3
txt
  4

  0
STYLE
  2
BYGG-024935$0$STANDARD
 70
     0
 40
0.0
 41
1.0
 50
0.0
 71
     0
 42
0.2
  3
txt
  4

  0
STYLE
  2
BYGG-024935$0$ISO
 70
     0
 40
0.0
 41
1.0
 50
0.0
 71
     0
 42
3.5
  3
txt
  4

  0
STYLE
  2
BYGG-024924$0$STANDARD
 70
     0
 40
0.0
 41
1.0
 50
0.0
 71
     0
 42
0.2
  3
txt
  4

  0
STYLE
  2
BYGG-024924$0$ISO
 70
     0
 40
0.0
 41
1.0
 50
0.0
 71
     0
 42
3.5
  3
txt
  4

  0
STYLE
  2
BYGG-024924$0$ANNOTATIVE
 70
     0
 40
0.0
 41
1.0
 50
0.0
 71
     0
 42
0.2
  3
txt
  4

  0
STYLE
  2
BYGG-028980$0$STANDARD
 70
     0
 40
0.0
 41
1.0
 50
0.0
 71
     0
 42
0.2
  3
txt
  4

  0
STYLE
  2
BYGG-028980$0$ISO
 70
     0
 40
0.0
 41
1.0
 50
0.0
 71
     0
 42
3.5
  3
txt
  4

  0
STYLE
  2
BYGG-01409101$0$STANDARD
 70
     0
 40
0.0
 41
1.0
 50
0.0
 71
     0
 42
0.4
  3
txt
  4

  0
STYLE
  2
BYGG-01409101$0$SIMPLEX
 70
     0
 40
0.0
 41
1.0
 50
0.0
 71
     0
 42
0.2
  3
simplex
  4

  0
STYLE
  2
BYGG-030329$0$STANDARD
 70
     0
 40
0.0
 41
1.0
 50
0.0
 71
     0
 42
0.2
  3
txt
  4

  0
STYLE
  2
BYGG-030329$0$ISO
 70
     0
 40
0.0
 41
1.0
 50
0.0
 71
     0
 42
3.5
  3
txt
  4

  0
STYLE
  2
BYGG-024905$0$STANDARD
 70
     0
 40
0.0
 41
1.0
 50
0.0
 71
     0
 42
0.2
  3
txt
  4

  0
STYLE
  2
BYGG-024905$0$ISO
 70
     0
 40
0.0
 41
1.0
 50
0.0
 71
     0
 42
3.5
  3
txt
  4

  0
STYLE
  2
BYGG-024905$0$ANNOTATIVE
 70
     0
 40
0.0
 41
1.0
 50
0.0
 71
     0
 42
0.2
  3
txt
  4

  0
STYLE
  2
BYGG-00894501$0$STANDARD
 70
     0
 40
0.0
 41
1.0
 50
0.0
 71
     0
 42
0.2
  3
txt
  4

  0
STYLE
  2
BYGG-00894501$0$ISO
 70
     0
 40
0.0
 41
1.0
 50
0.0
 71
     0
 42
3.5
  3
txt
  4

  0
STYLE
  2
BYGG-00894501$0$ANNOTATIVE
 70
     0
 40
0.0
 41
1.0
 50
0.0
 71
     0
 42
0.2
  3
txt
  4

  0
STYLE
  2
BYGG-035352$0$STANDARD
 70
     0
 40
0.0
 41
1.0
 50
0.0
 71
     0
 42
0.2
  3
txt
  4

  0
STYLE
  2
BYGG-035352$0$ISO
 70
     0
 40
0.0
 41
1.0
 50
0.0
 71
     0
 42
3.5
  3
txt
  4

  0
STYLE
  2
BYGG-030601$0$STANDARD
 70
     0
 40
0.0
 41
1.0
 50
0.0
 71
     0
 42
0.2
  3
txt
  4

  0
STYLE
  2
BYGG-030601$0$ISO
 70
     0
 40
0.0
 41
1.0
 50
0.0
 71
     0
 42
3.5
  3
txt
  4

  0
STYLE
  2
BYGG-014090$0$STANDARD
 70
     0
 40
0.0
 41
1.0
 50
0.0
 71
     0
 42
0.2
  3
txt
  4

  0
STYLE
  2
BYGG-014090$0$SIMPLEX
 70
     0
 40
0.0
 41
1.0
 50
0.0
 71
     0
 42
0.2
  3
simplex
  4

  0
STYLE
  2
BYGG-031936$0$STANDARD
 70
     0
 40
0.0
 41
1.0
 50
0.0
 71
     0
 42
0.4
  3
txt
  4

  0
STYLE
  2
BYGG-031936$0$ISO
 70
     0
 40
0.0
 41
1.0
 50
0.0
 71
     0
 42
3.5
  3
txt
  4

  0
ENDTAB
  0
TABLE
  2
VIEW
 70
     0
  0
ENDTAB
  0
TABLE
  2
UCS
 70
     0
  0
ENDTAB
  0
TABLE
  2
APPID
 70
    41
  0
APPID
  2
ACAD
 70
     0
  0
APPID
  2
ACAD_DSTYLE_DIMTEXT_FILL
 70
     0
  0
APPID
  2
ACAD_DSTYLE_DIMEXT_LENGTH
 70
     0
  0
APPID
  2
ACAD_DSTYLE_DIMEXT_ENABLED
 70
     0
  0
APPID
  2
ACAD_DSTYLE_DIM_LINETYPE
 70
     0
  0
APPID
  2
ACAD_DSTYLE_DIM_EXT1_LINETYPE
 70
     0
  0
APPID
  2
ACAD_DSTYLE_DIM_EXT2_LINETYPE
 70
     0
  0
APPID
  2
ACAD_DSTYLE_DIMJOGGED_JOGA
 70
     0
  0
APPID
  2
ACAD_DSTYLE_DIMARC_LENGTH_
 70
     0
  0
APPID
  2
ACAD_PSEXT
 70
     0
  0
APPID
  2
ACAD_MLEADERVER
 70
     0
  0
APPID
  2
ACAD_NAV_VCDISPLAY
 70
     0
  0
APPID
  2
ACAECLAYERSTANDARD
 70
     0
  0
APPID
  2
ACDBDYNAMICBLOCKGUID
 70
     0
  0
APPID
  2
ACDBBLOCKREPETAG
 70
     0
  0
APPID
  2
ACADANNOTATIVE
 70
     0
  0
APPID
  2
ACAD_EXEMPT_FROM_CAD_STANDARDS
 70
     0
  0
APPID
  2
ACAD_DSTYLE_DIMRADIAL_EXTENSION
 70
     0
  0
APPID
  2
ACAD_OBJECT_CHANGE_GUID
 70
     0
  0
APPID
  2
ACCMTRANSPARENCY
 70
     0
  0
APPID
  2
AMG_ARCHIVE11
 70
     0
  0
APPID
  2
GRADIENTCOLOR1ACI
 70
     0
  0
APPID
  2
GRADIENTCOLOR2ACI
 70
     0
  0
APPID
  2
DCO15
 70
     0
  0
APPID
  2
PE_URL
 70
     0
  0
APPID
  2
ACAUTHENVIRON
 70
     0
  0
APPID
  2
ACDBDYNAMICBLOCKTRUENAME
 70
     0
  0
APPID
  2
ACAD_DSTYLE_DIMJAG
 70
     0
  0
APPID
  2
ACAD_DSTYLE_DIMTALN
 70
     0
  0
APPID
  2
ACDBBLOCKREPBTAG
 70
     0
  0
APPID
  2
GENIUS_GENREC_14
 70
     0
  0
APPID
  2
GENIUS_GENOBJ-N-REC_13
 70
     0
  0
APPID
  2
GENIUS_GENODEF_13
 70
     0
  0
APPID
  2
GENIUS_GENTRA_14
 70
     0
  0
APPID
  2
GENIUS_GENOREF_13
 70
     0
  0
APPID
  2
GENIUS_GENSCREG_15
 70
     0
  0
APPID
  2
GENIUS_GENOBJ-N-SDF_13
 70
     0
  0
APPID
  2
ACADANNOPO
 70
     0
  0
APPID
  2
ACADBPTGRAPHNODEID
 70
     0
  0
APPID
  2
ACDBATTR
 70
     0
  0
APPID
  2
PALLADIOXDATA
 70
     0
  0
ENDTAB
  0
TABLE
  2
DIMSTYLE
 70
    27
  0
DIMSTYLE
  2
STANDARD
 70
     0
  3

  4

  5

  6

  7

 40
1.0
 41
0.18
 42
0.0625
 43
0.38
 44
0.18
 45
0.0
 46
0.0
 47
0.0
 48
0.0
140
0.18
141
0.09
142
0.0
143
25.399999999999999
144
1.0
145
0.0
146
1.0
147
0.09
 71
     0
 72
     0
 73
     1
 74
     1
 75
     0
 76
     0
 77
     0
 78
     0
170
     0
171
     2
172
     0
173
     0
174
     0
175
     0
176
     0
177
     0
178
     0
  0
DIMSTYLE
  2
MASKIN
 70
     0
  3

  4

  5

  6

  7

 40
0.0
 41
3.0
 42
1.5
 43
10.0
 44
1.5
 45
0.0
 46
0.0
 47
0.0
 48
0.0
140
3.0
141
-5.0
142
0.0
143
25.399999999999999
144
-1.0
145
0.0
146
1.0
147
1.0
 71
     0
 72
     0
 73
     0
 74
     0
 75
     0
 76
     0
 77
     1
 78
     8
170
     0
171
     0
172
     1
173
     0
174
     0
175
     0
176
   256
177
   256
178
     2
  0
DIMSTYLE
  2
BYGG-030330$0$STANDARD
 70
     0
  3

  4

  5

  6

  7

 40
1.0
 41
0.18
 42
0.0625
 43
0.38
 44
0.18
 45
0.0
 46
0.0
 47
0.0
 48
0.0
140
0.18
141
0.09
142
0.0
143
25.399999999999999
144
1.0
145
0.0
146
1.0
147
0.09
 71
     0
 72
     0
 73
     1
 74
     1
 75
     0
 76
     0
 77
     0
 78
     0
170
     0
171
     2
172
     0
173
     0
174
     0
175
     0
176
     0
177
     0
178
     0
  0
DIMSTYLE
  2
BYGG-030330$0$MASKIN
 70
     0
  3

  4

  5

  6

  7

 40
0.0
 41
3.0
 42
1.5
 43
10.0
 44
1.5
 45
0.0
 46
0.0
 47
0.0
 48
0.0
140
3.0
141
-5.0
142
0.0
143
25.399999999999999
144
-1.0
145
0.0
146
1.0
147
1.0
 71
     0
 72
     0
 73
     0
 74
     0
 75
     0
 76
     0
 77
     1
 78
     8
170
     0
171
     0
172
     1
173
     0
174
     0
175
     0
176
   256
177
   256
178
     2
  0
DIMSTYLE
  2
BYGG-024935$0$STANDARD
 70
     0
  3

  4

  5

  6

  7

 40
1.0
 41
0.18
 42
0.0625
 43
0.38
 44
0.18
 45
0.0
 46
0.0
 47
0.0
 48
0.0
140
0.18
141
0.09
142
0.0
143
25.399999999999999
144
1.0
145
0.0
146
1.0
147
0.09
 71
     0
 72
     0
 73
     1
 74
     1
 75
     0
 76
     0
 77
     0
 78
     0
170
     0
171
     2
172
     0
173
     0
174
     0
175
     0
176
     0
177
     0
178
     0
  0
DIMSTYLE
  2
BYGG-024935$0$MASKIN
 70
     0
  3

  4

  5

  6

  7

 40
0.0
 41
3.0
 42
1.5
 43
10.0
 44
1.5
 45
0.0
 46
0.0
 47
0.0
 48
0.0
140
3.0
141
-5.0
142
0.0
143
25.399999999999999
144
-1.0
145
0.0
146
1.0
147
1.0
 71
     0
 72
     0
 73
     0
 74
     0
 75
     0
 76
     0
 77
     1
 78
     8
170
     0
171
     0
172
     1
173
     0
174
     0
175
     0
176
   256
177
   256
178
     2
  0
DIMSTYLE
  2
BYGG-024924$0$MASKIN
 70
     0
  3

  4

  5

  6

  7

 40
0.0
 41
3.0
 42
1.5
 43
10.0
 44
1.5
 45
0.0
 46
0.0
 47
0.0
 48
0.0
140
3.0
141
-5.0
142
0.0
143
25.399999999999999
144
-1.0
145
0.0
146
1.0
147
1.0
 71
     0
 72
     0
 73
     0
 74
     0
 75
     0
 76
     0
 77
     1
 78
     8
170
     0
171
     0
172
     1
173
     0
174
     0
175
     0
176
   256
177
   256
178
     2
  0
DIMSTYLE
  2
BYGG-024924$0$STANDARD
 70
     0
  3

  4

  5

  6

  7

 40
1.0
 41
0.18
 42
0.0625
 43
0.38
 44
0.18
 45
0.0
 46
0.0
 47
0.0
 48
0.0
140
0.18
141
0.09
142
0.0
143
25.399999999999999
144
1.0
145
0.0
146
1.0
147
0.09
 71
     0
 72
     0
 73
     1
 74
     1
 75
     0
 76
     0
 77
     0
 78
     0
170
     0
171
     2
172
     0
173
     0
174
     0
175
     0
176
     0
177
     0
178
     0
  0
DIMSTYLE
  2
BYGG-024924$0$ANNOTATIVE
 70
     0
  3

  4

  5

  6

  7

 40
1.0
 41
0.18
 42
0.0625
 43
0.38
 44
0.18
 45
0.0
 46
0.0
 47
0.0
 48
0.0
140
0.18
141
0.09
142
0.0
143
25.399999999999999
144
1.0
145
0.0
146
1.0
147
0.09
 71
     0
 72
     0
 73
     1
 74
     1
 75
     0
 76
     0
 77
     0
 78
     0
170
     0
171
     2
172
     0
173
     0
174
     0
175
     0
176
     0
177
     0
178
     0
  0
DIMSTYLE
  2
BYGG-028980$0$STANDARD
 70
     0
  3

  4

  5

  6

  7

 40
1.0
 41
0.18
 42
0.0625
 43
0.38
 44
0.18
 45
0.0
 46
0.0
 47
0.0
 48
0.0
140
0.18
141
0.09
142
0.0
143
25.399999999999999
144
1.0
145
0.0
146
1.0
147
0.09
 71
     0
 72
     0
 73
     1
 74
     1
 75
     0
 76
     0
 77
     0
 78
     0
170
     0
171
     2
172
     0
173
     0
174
     0
175
     0
176
     0
177
     0
178
     0
  0
DIMSTYLE
  2
BYGG-028980$0$MASKIN
 70
     0
  3

  4

  5

  6

  7

 40
0.0
 41
3.0
 42
1.5
 43
10.0
 44
1.5
 45
0.0
 46
0.0
 47
0.0
 48
0.0
140
3.0
141
-5.0
142
0.0
143
25.399999999999999
144
-1.0
145
0.0
146
1.0
147
1.0
 71
     0
 72
     0
 73
     0
 74
     0
 75
     0
 76
     0
 77
     1
 78
     8
170
     0
171
     0
172
     1
173
     0
174
     0
175
     0
176
   256
177
   256
178
     2
  0
DIMSTYLE
  2
BYGG-01409101$0$STANDARD
 70
     0
  3

  4

  5

  6

  7

 40
1.0
 41
0.18
 42
0.0625
 43
0.38
 44
0.18
 45
0.0
 46
0.0
 47
0.0
 48
0.0
140
0.18
141
0.09
142
0.0
143
25.399999999999999
144
1.0
145
0.0
146
1.0
147
0.09
 71
     0
 72
     0
 73
     1
 74
     1
 75
     0
 76
     0
 77
     0
 78
     0
170
     0
171
     2
172
     0
173
     0
174
     0
175
     0
176
     0
177
     0
178
     0
  0
DIMSTYLE
  2
BYGG-030329$0$STANDARD
 70
     0
  3

  4

  5

  6

  7

 40
1.0
 41
0.18
 42
0.0625
 43
0.38
 44
0.18
 45
0.0
 46
0.0
 47
0.0
 48
0.0
140
0.18
141
0.09
142
0.0
143
25.399999999999999
144
1.0
145
0.0
146
1.0
147
0.09
 71
     0
 72
     0
 73
     1
 74
     1
 75
     0
 76
     0
 77
     0
 78
     0
170
     0
171
     2
172
     0
173
     0
174
     0
175
     0
176
     0
177
     0
178
     0
  0
DIMSTYLE
  2
BYGG-030329$0$MASKIN
 70
     0
  3

  4

  5

  6

  7

 40
0.0
 41
3.0
 42
1.5
 43
10.0
 44
1.5
 45
0.0
 46
0.0
 47
0.0
 48
0.0
140
3.0
141
-5.0
142
0.0
143
25.399999999999999
144
-1.0
145
0.0
146
1.0
147
1.0
 71
     0
 72
     0
 73
     0
 74
     0
 75
     0
 76
     0
 77
     1
 78
     8
170
     0
171
     0
172
     1
173
     0
174
     0
175
     0
176
   256
177
   256
178
     2
  0
DIMSTYLE
  2
BYGG-024905$0$MASKIN
 70
     0
  3

  4

  5

  6

  7

 40
0.0
 41
3.0
 42
1.5
 43
10.0
 44
1.5
 45
0.0
 46
0.0
 47
0.0
 48
0.0
140
3.0
141
-5.0
142
0.0
143
25.399999999999999
144
-1.0
145
0.0
146
1.0
147
1.0
 71
     0
 72
     0
 73
     0
 74
     0
 75
     0
 76
     0
 77
     1
 78
     8
170
     0
171
     0
172
     1
173
     0
174
     0
175
     0
176
   256
177
   256
178
     2
  0
DIMSTYLE
  2
BYGG-024905$0$STANDARD
 70
     0
  3

  4

  5

  6

  7

 40
1.0
 41
0.18
 42
0.0625
 43
0.38
 44
0.18
 45
0.0
 46
0.0
 47
0.0
 48
0.0
140
0.18
141
0.09
142
0.0
143
25.399999999999999
144
1.0
145
0.0
146
1.0
147
0.09
 71
     0
 72
     0
 73
     1
 74
     1
 75
     0
 76
     0
 77
     0
 78
     0
170
     0
171
     2
172
     0
173
     0
174
     0
175
     0
176
     0
177
     0
178
     0
  0
DIMSTYLE
  2
BYGG-024905$0$ANNOTATIVE
 70
     0
  3

  4

  5

  6

  7

 40
1.0
 41
0.18
 42
0.0625
 43
0.38
 44
0.18
 45
0.0
 46
0.0
 47
0.0
 48
0.0
140
0.18
141
0.09
142
0.0
143
25.399999999999999
144
1.0
145
0.0
146
1.0
147
0.09
 71
     0
 72
     0
 73
     1
 74
     1
 75
     0
 76
     0
 77
     0
 78
     0
170
     0
171
     2
172
     0
173
     0
174
     0
175
     0
176
     0
177
     0
178
     0
  0
DIMSTYLE
  2
BYGG-00894501$0$MASKIN
 70
     0
  3

  4

  5

  6

  7

 40
0.0
 41
3.0
 42
1.5
 43
10.0
 44
1.5
 45
0.0
 46
0.0
 47
0.0
 48
0.0
140
3.0
141
-5.0
142
0.0
143
25.399999999999999
144
-1.0
145
0.0
146
1.0
147
1.0
 71
     0
 72
     0
 73
     0
 74
     0
 75
     0
 76
     0
 77
     1
 78
     8
170
     0
171
     0
172
     1
173
     0
174
     0
175
     0
176
   256
177
   256
178
     2
  0
DIMSTYLE
  2
BYGG-00894501$0$STANDARD
 70
     0
  3

  4

  5

  6

  7

 40
1.0
 41
0.18
 42
0.0625
 43
0.38
 44
0.18
 45
0.0
 46
0.0
 47
0.0
 48
0.0
140
0.18
141
0.09
142
0.0
143
25.399999999999999
144
1.0
145
0.0
146
1.0
147
0.09
 71
     0
 72
     0
 73
     1
 74
     1
 75
     0
 76
     0
 77
     0
 78
     0
170
     0
171
     2
172
     0
173
     0
174
     0
175
     0
176
     0
177
     0
178
     0
  0
DIMSTYLE
  2
BYGG-00894501$0$ANNOTATIVE
 70
     0
  3

  4

  5

  6

  7

 40
1.0
 41
0.18
 42
0.0625
 43
0.38
 44
0.18
 45
0.0
 46
0.0
 47
0.0
 48
0.0
140
0.18
141
0.09
142
0.0
143
25.399999999999999
144
1.0
145
0.0
146
1.0
147
0.09
 71
     0
 72
     0
 73
     1
 74
     1
 75
     0
 76
     0
 77
     0
 78
     0
170
     0
171
     2
172
     0
173
     0
174
     0
175
     0
176
     0
177
     0
178
     0
  0
DIMSTYLE
  2
BYGG-035352$0$STANDARD
 70
     0
  3

  4

  5

  6

  7

 40
1.0
 41
0.18
 42
0.0625
 43
0.38
 44
0.18
 45
0.0
 46
0.0
 47
0.0
 48
0.0
140
0.18
141
0.09
142
0.0
143
25.399999999999999
144
1.0
145
0.0
146
1.0
147
0.09
 71
     0
 72
     0
 73
     1
 74
     1
 75
     0
 76
     0
 77
     0
 78
     0
170
     0
171
     2
172
     0
173
     0
174
     0
175
     0
176
     0
177
     0
178
     0
  0
DIMSTYLE
  2
BYGG-035352$0$MASKIN
 70
     0
  3

  4

  5

  6

  7

 40
0.0
 41
3.0
 42
1.5
 43
10.0
 44
1.5
 45
0.0
 46
0.0
 47
0.0
 48
0.0
140
3.0
141
-5.0
142
0.0
143
25.399999999999999
144
-1.0
145
0.0
146
1.0
147
1.0
 71
     0
 72
     0
 73
     0
 74
     0
 75
     0
 76
     0
 77
     1
 78
     8
170
     0
171
     0
172
     1
173
     0
174
     0
175
     0
176
   256
177
   256
178
     2
  0
DIMSTYLE
  2
BYGG-030601$0$STANDARD
 70
     0
  3

  4

  5

  6

  7

 40
1.0
 41
0.18
 42
0.0625
 43
0.38
 44
0.18
 45
0.0
 46
0.0
 47
0.0
 48
0.0
140
0.18
141
0.09
142
0.0
143
25.399999999999999
144
1.0
145
0.0
146
1.0
147
0.09
 71
     0
 72
     0
 73
     1
 74
     1
 75
     0
 76
     0
 77
     0
 78
     0
170
     0
171
     2
172
     0
173
     0
174
     0
175
     0
176
     0
177
     0
178
     0
  0
DIMSTYLE
  2
BYGG-030601$0$MASKIN
 70
     0
  3

  4

  5

  6

  7

 40
0.0
 41
3.0
 42
1.5
 43
10.0
 44
1.5
 45
0.0
 46
0.0
 47
0.0
 48
0.0
140
3.0
141
-5.0
142
0.0
143
25.399999999999999
144
-1.0
145
0.0
146
1.0
147
1.0
 71
     0
 72
     0
 73
     0
 74
     0
 75
     0
 76
     0
 77
     1
 78
     8
170
     0
171
     0
172
     1
173
     0
174
     0
175
     0
176
   256
177
   256
178
     2
  0
DIMSTYLE
  2
BYGG-014090$0$STANDARD
 70
     0
  3

  4

  5

  6

  7

 40
1.0
 41
0.18
 42
0.0625
 43
0.38
 44
0.18
 45
0.0
 46
0.0
 47
0.0
 48
0.0
140
0.18
141
0.09
142
0.0
143
25.399999999999999
144
1.0
145
0.0
146
1.0
147
0.09
 71
     0
 72
     0
 73
     1
 74
     1
 75
     0
 76
     0
 77
     0
 78
     0
170
     0
171
     2
172
     0
173
     0
174
     0
175
     0
176
     0
177
     0
178
     0
  0
DIMSTYLE
  2
BYGG-031936$0$STANDARD
 70
     0
  3

  4

  5

  6

  7

 40
1.0
 41
0.18
 42
0.0625
 43
0.38
 44
0.18
 45
0.0
 46
0.0
 47
0.0
 48
0.0
140
0.18
141
0.09
142
0.0
143
25.399999999999999
144
1.0
145
0.0
146
1.0
147
0.09
 71
     0
 72
     0
 73
     1
 74
     1
 75
     0
 76
     0
 77
     0
 78
     0
170
     0
171
     2
172
     0
173
     0
174
     0
175
     0
176
     0
177
     0
178
     0
  0
DIMSTYLE
  2
BYGG-031936$0$MASKIN
 70
     0
  3

  4

  5

  6

  7

 40
0.0
 41
3.0
 42
1.5
 43
10.0
 44
1.5
 45
0.0
 46
0.0
 47
0.0
 48
0.0
140
3.0
141
-5.0
142
0.0
143
25.399999999999999
144
-1.0
145
0.0
146
1.0
147
1.0
 71
     0
 72
     0
 73
     0
 74
     0
 75
     0
 76
     0
 77
     1
 78
     8
170
     0
171
     0
172
     1
173
     0
174
     0
175
     0
176
   256
177
   256
178
     2
  0
ENDTAB
  0
ENDSEC
  0
SECTION
  2
BLOCKS
  0
BLOCK
  8
0
  2
$MODEL_SPACE
 70
     0
 10
0.0
 20
0.0
 30
0.0
  3
$MODEL_SPACE
  1

  0
ENDBLK
  5
37
  8
0
  0
BLOCK
 67
     1
  8
0
  2
$PAPER_SPACE
 70
     0
 10
0.0
 20
0.0
 30
0.0
  3
$PAPER_SPACE
  1

  0
ENDBLK
  5
35
 67
     1
  8
0
  0
BLOCK
  8
0
  2
*D56
 70
     1
 10
0.0
 20
0.0
 30
0.0
  3
*D56
  1

  0
LINE
  5
1307
  8
SAPA_MATT
 10
-111.4999999999999
 20
-100.99999999664369
 30
0.0
 11
-111.4999999999999
 21
-126.2051012061636
 31
0.0
  0
LINE
  5
1308
  8
SAPA_MATT
 10
8.4999999999999432
 20
-99.499999996643766
 30
0.0
 11
8.4999999999999414
 21
-126.2051012061636
 31
0.0
  0
LINE
  5
1309
  8
SAPA_MATT
 10
-108.4999999999999
 20
-124.7051012061636
 30
0.0
 11
5.4999999999999414
 21
-124.7051012061636
 31
0.0
  0
SOLID
  5
130A
  8
SAPA_MATT
 10
-108.4999999999999
 20
-124.2051012061636
 30
0.0
 11
-108.4999999999999
 21
-125.2051012061636
 31
0.0
 12
-111.4999999999999
 22
-124.7051012061636
 32
0.0
 13
-111.4999999999999
 23
-124.7051012061636
 33
0.0
  0
SOLID
  5
130B
  8
SAPA_MATT
 10
5.4999999999999414
 20
-124.2051012061636
 30
0.0
 11
5.4999999999999414
 21
-125.2051012061636
 31
0.0
 12
8.4999999999999414
 22
-124.7051012061636
 32
0.0
 13
8.4999999999999414
 23
-124.7051012061636
 33
0.0
  0
INSERT
  5
130C
  8
0
  2
*U67
 10
0.0
 20
0.0
 30
0.0
  0
POINT
  5
130D
  8
DEFPOINTS
 62
     0
 10
-111.4999999999999
 20
-99.499999996643737
 30
0.0
  0
POINT
  5
130E
  8
DEFPOINTS
 62
     0
 10
8.4999999999999432
 20
-97.999999996643766
 30
0.0
  0
POINT
  5
130F
  8
DEFPOINTS
 62
     0
 10
8.4999999999999414
 20
-124.7051012061636
 30
0.0
  0
ENDBLK
  5
12BA
  8
0
  0
BLOCK
  8
0
  2
*D57
 70
     1
 10
0.0
 20
0.0
 30
0.0
  3
*D57
  1

  0
LINE
  5
12FE
  8
SAPA_MATT
 10
13.499999999999879
 20
-99.499999999996419
 30
0.0
 11
13.499999999999879
 21
-126.2051012061636
 31
0.0
  0
LINE
  5
12FF
  8
SAPA_MATT
 10
111.4999999579304
 20
-100.9999999999964
 30
0.0
 11
111.4999999579304
 21
-126.2051012061636
 31
0.0
  0
LINE
  5
1300
  8
SAPA_MATT
 10
16.499999999999879
 20
-124.7051012061636
 30
0.0
 11
108.4999999579304
 21
-124.7051012061636
 31
0.0
  0
SOLID
  5
1301
  8
SAPA_MATT
 10
16.499999999999879
 20
-124.2051012061636
 30
0.0
 11
16.499999999999879
 21
-125.2051012061636
 31
0.0
 12
13.499999999999879
 22
-124.7051012061636
 32
0.0
 13
13.499999999999879
 23
-124.7051012061636
 33
0.0
  0
SOLID
  5
1302
  8
SAPA_MATT
 10
108.4999999579304
 20
-124.2051012061636
 30
0.0
 11
108.4999999579304
 21
-125.2051012061636
 31
0.0
 12
111.4999999579304
 22
-124.7051012061636
 32
0.0
 13
111.4999999579304
 23
-124.7051012061636
 33
0.0
  0
INSERT
  5
1303
  8
0
  2
*U66
 10
0.0
 20
0.0
 30
0.0
  0
POINT
  5
1304
  8
DEFPOINTS
 62
     0
 10
13.499999999999879
 20
-97.999999999996405
 30
0.0
  0
POINT
  5
1305
  8
DEFPOINTS
 62
     0
 10
111.4999999579304
 20
-99.499999999996419
 30
0.0
  0
POINT
  5
1306
  8
DEFPOINTS
 62
     0
 10
111.4999999579304
 20
-124.7051012061636
 30
0.0
  0
ENDBLK
  5
12C6
  8
0
  0
BLOCK
  8
0
  2
*D58
 70
     1
 10
0.0
 20
0.0
 30
0.0
  3
*D58
  1

  0
LINE
  5
12F3
  8
SAPA_MATT
 10
8.4999999999999432
 20
-99.499999996643766
 30
0.0
 11
8.4999999999999414
 21
-126.2051012061636
 31
0.0
  0
LINE
  5
12F4
  8
SAPA_MATT
 10
13.499999999999879
 20
-99.499999999996419
 30
0.0
 11
13.499999999999879
 21
-126.2051012061636
 31
0.0
  0
LINE
  5
12F5
  8
SAPA_MATT
 10
5.4999999999999414
 20
-124.7051012061636
 30
0.0
 11
2.4999999999999409
 21
-124.7051012061636
 31
0.0
  0
LINE
  5
12F6
  8
SAPA_MATT
 10
16.499999999999879
 20
-124.7051012061636
 30
0.0
 11
19.499999999999879
 21
-124.7051012061636
 31
0.0
  0
LINE
  5
12F7
  8
SAPA_MATT
 10
8.4999999999999414
 20
-124.7051012061636
 30
0.0
 11
13.499999999999879
 21
-124.7051012061636
 31
0.0
  0
SOLID
  5
12F8
  8
SAPA_MATT
 10
5.4999999999999414
 20
-124.2051012061636
 30
0.0
 11
5.4999999999999414
 21
-125.2051012061636
 31
0.0
 12
8.4999999999999414
 22
-124.7051012061636
 32
0.0
 13
8.4999999999999414
 23
-124.7051012061636
 33
0.0
  0
SOLID
  5
12F9
  8
SAPA_MATT
 10
16.499999999999879
 20
-124.2051012061636
 30
0.0
 11
16.499999999999879
 21
-125.2051012061636
 31
0.0
 12
13.499999999999879
 22
-124.7051012061636
 32
0.0
 13
13.499999999999879
 23
-124.7051012061636
 33
0.0
  0
INSERT
  5
12FA
  8
0
  2
*U65
 10
0.0
 20
0.0
 30
0.0
  0
POINT
  5
12FB
  8
DEFPOINTS
 62
     0
 10
8.4999999999999432
 20
-97.999999996643766
 30
0.0
  0
POINT
  5
12FC
  8
DEFPOINTS
 62
     0
 10
13.499999999999879
 20
-97.999999999996405
 30
0.0
  0
POINT
  5
12FD
  8
DEFPOINTS
 62
     0
 10
13.499999999999879
 20
-124.7051012061636
 30
0.0
  0
ENDBLK
  5
12D2
  8
0
  0
BLOCK
  8
0
  2
*D59
 70
     1
 10
0.0
 20
0.0
 30
0.0
  3
*D59
  1

  0
LINE
  5
12EA
  8
SAPA_MATT
 10
-112.5
 20
-99.999999996643709
 30
0.0
 11
-144.7002820921287
 21
-99.999999996643709
 31
0.0
  0
LINE
  5
12EB
  8
SAPA_MATT
 10
-90.800000003911094
 20
-13.99999999940745
 30
0.0
 11
-144.7002820921287
 21
-13.99999999940743
 31
0.0
  0
LINE
  5
12EC
  8
SAPA_MATT
 10
-143.2002820921287
 20
-96.999999996643695
 30
0.0
 11
-143.2002820921287
 21
-16.999999999407429
 31
0.0
  0
SOLID
  5
12ED
  8
SAPA_MATT
 10
-143.7002820921287
 20
-96.999999996643695
 30
0.0
 11
-142.7002820921287
 21
-96.999999996643695
 31
0.0
 12
-143.2002820921287
 22
-99.999999996643709
 32
0.0
 13
-143.2002820921287
 23
-99.999999996643709
 33
0.0
  0
SOLID
  5
12EE
  8
SAPA_MATT
 10
-143.7002820921287
 20
-16.999999999407429
 30
0.0
 11
-142.7002820921287
 21
-16.999999999407429
 31
0.0
 12
-143.2002820921287
 22
-13.99999999940743
 32
0.0
 13
-143.2002820921287
 23
-13.99999999940743
 33
0.0
  0
INSERT
  5
12EF
  8
0
  2
*U64
 10
0.0
 20
0.0
 30
0.0
  0
POINT
  5
12F0
  8
DEFPOINTS
 62
     0
 10
-110.9999999999999
 20
-99.999999996643709
 30
0.1
  0
POINT
  5
12F1
  8
DEFPOINTS
 62
     0
 10
-89.300000003911094
 20
-13.99999999940745
 30
0.0
  0
POINT
  5
12F2
  8
DEFPOINTS
 62
     0
 10
-143.2002820921287
 20
-13.99999999940743
 30
0.0
  0
ENDBLK
  5
12E0
  8
0
  0
BLOCK
  8
0
  2
*U60
 70
     1
 10
0.0
 20
0.0
 30
0.0
  3
*U60
  1

  0
SOLID
  5
15D9
  8
SAPA_PROFIL
  6
CONTINUOUS
 62
     2
 10
-2.6684925025679558
 20
-18.93265997083796
 30
0.1
 11
-2.8452691978645932
 21
-19.005883275541319
 31
0.1
 12
-2.4917158072713188
 22
-19.005883275541319
 32
0.1
 13
-2.4917158072713188
 23
-19.005883275541319
 33
0.1
210
0.0
220
0.0
230
1.0
  0
SOLID
  5
15DA
  8
SAPA_PROFIL
  6
CONTINUOUS
 62
     2
 10
-2.8452691978645932
 20
-19.005883275541319
 30
0.1
 11
-2.9184925025679558
 21
-19.18265997083796
 31
0.1
 12
-2.4184925025679558
 22
-19.18265997083796
 32
0.1
 13
-2.4184925025679558
 23
-19.18265997083796
 33
0.1
210
0.0
220
0.0
230
1.0
  0
SOLID
  5
15DB
  8
SAPA_PROFIL
  6
CONTINUOUS
 62
     2
 10
2.8452691978645932
 20
-19.005883275541319
 30
-0.1
 11
2.4917158072713188
 21
-19.005883275541319
 31
-0.1
 12
2.4184925025679558
 22
-19.18265997083796
 32
-0.1
 13
2.4184925025679558
 23
-19.18265997083796
 33
-0.1
210
0.0
220
0.0
230
-1.0
  0
SOLID
  5
15DC
  8
SAPA_PROFIL
  6
CONTINUOUS
 62
     2
 10
2.8452691978645932
 20
-19.359436666134599
 30
-0.1
 11
2.4917158072713188
 21
-19.359436666134599
 31
-0.1
 12
2.6684925025679558
 22
-19.43265997083796
 32
-0.1
 13
2.6684925025679558
 23
-19.43265997083796
 33
-0.1
210
0.0
220
0.0
230
-1.0
  0
SOLID
  5
15DD
  8
SAPA_PROFIL
  6
CONTINUOUS
 62
     2
 10
-2.9184925025679558
 20
-19.18265997083796
 30
0.1
 11
-2.8452691978645932
 21
-19.359436666134599
 31
0.1
 12
-2.4917158072713188
 22
-19.359436666134599
 32
0.1
 13
-2.4917158072713188
 23
-19.359436666134599
 33
0.1
210
0.0
220
0.0
230
1.0
  0
SOLID
  5
15DE
  8
SAPA_PROFIL
  6
CONTINUOUS
 62
     2
 10
2.9184925025679558
 20
-19.18265997083796
 30
-0.1
 11
2.4184925025679558
 21
-19.18265997083796
 31
-0.1
 12
2.4917158072713188
 22
-19.359436666134599
 32
-0.1
 13
2.4917158072713188
 23
-19.359436666134599
 33
-0.1
210
0.0
220
0.0
230
-1.0
  0
LINE
  5
15DF
  8
SAPA_PROFIL
  6
CONTINUOUS
 62
     2
 10
-2.6684925025679558
 20
-18.93265997083796
 30
0.1
 11
-2.8452691978645932
 21
-19.005883275541319
 31
0.1
  0
LINE
  5
15E0
  8
SAPA_PROFIL
  6
CONTINUOUS
 62
     2
 10
-2.4917158072713188
 20
-19.005883275541319
 30
0.1
 11
-2.6684925025679558
 21
-18.93265997083796
 31
0.1
  0
LINE
  5
15E1
  8
SAPA_PROFIL
  6
CONTINUOUS
 62
     2
 10
-2.8452691978645932
 20
-19.005883275541319
 30
0.1
 11
-2.9184925025679558
 21
-19.18265997083796
 31
0.1
  0
LINE
  5
15E2
  8
SAPA_PROFIL
  6
CONTINUOUS
 62
     2
 10
-2.4917158072713188
 20
-19.005883275541319
 30
0.1
 11
-2.4184925025679558
 21
-19.18265997083796
 31
0.1
  0
LINE
  5
15E3
  8
SAPA_PROFIL
  6
CONTINUOUS
 62
     2
 10
-2.4917158072713188
 20
-19.359436666134599
 30
0.1
 11
-2.6684925025679558
 21
-19.43265997083796
 31
0.1
  0
LINE
  5
15E4
  8
SAPA_PROFIL
  6
CONTINUOUS
 62
     2
 10
-2.6684925025679558
 20
-19.43265997083796
 30
0.1
 11
-2.8452691978645932
 21
-19.359436666134599
 31
0.1
  0
LINE
  5
15E5
  8
SAPA_PROFIL
  6
CONTINUOUS
 62
     2
 10
-2.9184925025679558
 20
-19.18265997083796
 30
0.1
 11
-2.8452691978645932
 21
-19.359436666134599
 31
0.1
  0
LINE
  5
15E6
  8
SAPA_PROFIL
  6
CONTINUOUS
 62
     2
 10
-2.4184925025679558
 20
-19.18265997083796
 30
0.1
 11
-2.4917158072713188
 21
-19.359436666134599
 31
0.1
  0
ENDBLK
  5
15E8
  8
0
  0
BLOCK
  8
0
  2
*U61
 70
     1
 10
0.0
 20
0.0
 30
0.0
  3
*U61
  1

  0
SOLID
  5
17DA
  8
SAPA_PROFIL
  6
CONTINUOUS
 62
     2
 10
2.6684925025680748
 20
-94.567340026545082
 30
0.1
 11
2.4917158072714378
 21
-94.640563331248444
 31
0.1
 12
2.8452691978647122
 22
-94.640563331248444
 32
0.1
 13
2.8452691978647122
 23
-94.640563331248444
 33
0.1
210
0.0
220
0.0
230
1.0
  0
SOLID
  5
17DB
  8
SAPA_PROFIL
  6
CONTINUOUS
 62
     2
 10
2.4917158072714378
 20
-94.640563331248444
 30
0.1
 11
2.4184925025680748
 21
-94.817340026545082
 31
0.1
 12
2.9184925025680748
 22
-94.817340026545082
 32
0.1
 13
2.9184925025680748
 23
-94.817340026545082
 33
0.1
210
0.0
220
0.0
230
1.0
  0
SOLID
  5
17DC
  8
SAPA_PROFIL
  6
CONTINUOUS
 62
     2
 10
-2.4917158072714378
 20
-94.640563331248444
 30
-0.1
 11
-2.8452691978647122
 21
-94.640563331248444
 31
-0.1
 12
-2.9184925025680748
 22
-94.817340026545082
 32
-0.1
 13
-2.9184925025680748
 23
-94.817340026545082
 33
-0.1
210
0.0
220
0.0
230
-1.0
  0
SOLID
  5
17DD
  8
SAPA_PROFIL
  6
CONTINUOUS
 62
     2
 10
-2.4917158072714378
 20
-94.994116721841706
 30
-0.1
 11
-2.8452691978647122
 21
-94.994116721841706
 31
-0.1
 12
-2.6684925025680748
 22
-95.067340026545097
 32
-0.1
 13
-2.6684925025680748
 23
-95.067340026545097
 33
-0.1
210
0.0
220
0.0
230
-1.0
  0
SOLID
  5
17DE
  8
SAPA_PROFIL
  6
CONTINUOUS
 62
     2
 10
2.4184925025680748
 20
-94.817340026545082
 30
0.1
 11
2.4917158072714378
 21
-94.994116721841706
 31
0.1
 12
2.8452691978647122
 22
-94.994116721841706
 32
0.1
 13
2.8452691978647122
 23
-94.994116721841706
 33
0.1
210
0.0
220
0.0
230
1.0
  0
SOLID
  5
17DF
  8
SAPA_PROFIL
  6
CONTINUOUS
 62
     2
 10
-2.4184925025680748
 20
-94.817340026545082
 30
-0.1
 11
-2.9184925025680748
 21
-94.817340026545082
 31
-0.1
 12
-2.8452691978647122
 22
-94.994116721841706
 32
-0.1
 13
-2.8452691978647122
 23
-94.994116721841706
 33
-0.1
210
0.0
220
0.0
230
-1.0
  0
LINE
  5
17E0
  8
SAPA_PROFIL
  6
CONTINUOUS
 62
     2
 10
2.6684925025680748
 20
-94.567340026545082
 30
0.1
 11
2.4917158072714378
 21
-94.640563331248444
 31
0.1
  0
LINE
  5
17E1
  8
SAPA_PROFIL
  6
CONTINUOUS
 62
     2
 10
2.8452691978647122
 20
-94.640563331248444
 30
0.1
 11
2.6684925025680748
 21
-94.567340026545082
 31
0.1
  0
LINE
  5
17E2
  8
SAPA_PROFIL
  6
CONTINUOUS
 62
     2
 10
2.4917158072714378
 20
-94.640563331248444
 30
0.1
 11
2.4184925025680748
 21
-94.817340026545082
 31
0.1
  0
LINE
  5
17E3
  8
SAPA_PROFIL
  6
CONTINUOUS
 62
     2
 10
2.8452691978647122
 20
-94.640563331248444
 30
0.1
 11
2.9184925025680748
 21
-94.817340026545082
 31
0.1
  0
LINE
  5
17E4
  8
SAPA_PROFIL
  6
CONTINUOUS
 62
     2
 10
2.8452691978647122
 20
-94.994116721841706
 30
0.1
 11
2.6684925025680748
 21
-95.067340026545097
 31
0.1
  0
LINE
  5
17E5
  8
SAPA_PROFIL
  6
CONTINUOUS
 62
     2
 10
2.6684925025680748
 20
-95.067340026545097
 30
0.1
 11
2.4917158072714378
 21
-94.994116721841706
 31
0.1
  0
LINE
  5
17E6
  8
SAPA_PROFIL
  6
CONTINUOUS
 62
     2
 10
2.4184925025680748
 20
-94.817340026545082
 30
0.1
 11
2.4917158072714378
 21
-94.994116721841706
 31
0.1
  0
LINE
  5
17E7
  8
SAPA_PROFIL
  6
CONTINUOUS
 62
     2
 10
2.9184925025680748
 20
-94.817340026545082
 30
0.1
 11
2.8452691978647122
 21
-94.994116721841706
 31
0.1
  0
ENDBLK
  5
17E9
  8
0
  0
BLOCK
  8
0
  2
*U62
 70
     1
 10
0.0
 20
0.0
 30
0.0
  3
*U62
  1

  0
SOLID
  5
1A79
  8
SAPA_PROFIL
  6
CONTINUOUS
 62
     2
 10
-2.6684925025679558
 20
-18.93265997083796
 30
0.1
 11
-2.8452691978645932
 21
-19.005883275541319
 31
0.1
 12
-2.4917158072713188
 22
-19.005883275541319
 32
0.1
 13
-2.4917158072713188
 23
-19.005883275541319
 33
0.1
210
0.0
220
0.0
230
1.0
  0
SOLID
  5
1A7A
  8
SAPA_PROFIL
  6
CONTINUOUS
 62
     2
 10
-2.8452691978645932
 20
-19.005883275541319
 30
0.1
 11
-2.9184925025679558
 21
-19.18265997083796
 31
0.1
 12
-2.4184925025679558
 22
-19.18265997083796
 32
0.1
 13
-2.4184925025679558
 23
-19.18265997083796
 33
0.1
210
0.0
220
0.0
230
1.0
  0
SOLID
  5
1A7B
  8
SAPA_PROFIL
  6
CONTINUOUS
 62
     2
 10
2.8452691978645932
 20
-19.005883275541319
 30
-0.1
 11
2.4917158072713188
 21
-19.005883275541319
 31
-0.1
 12
2.4184925025679558
 22
-19.18265997083796
 32
-0.1
 13
2.4184925025679558
 23
-19.18265997083796
 33
-0.1
210
0.0
220
0.0
230
-1.0
  0
SOLID
  5
1A7C
  8
SAPA_PROFIL
  6
CONTINUOUS
 62
     2
 10
2.8452691978645932
 20
-19.359436666134599
 30
-0.1
 11
2.4917158072713188
 21
-19.359436666134599
 31
-0.1
 12
2.6684925025679558
 22
-19.43265997083796
 32
-0.1
 13
2.6684925025679558
 23
-19.43265997083796
 33
-0.1
210
0.0
220
0.0
230
-1.0
  0
SOLID
  5
1A7D
  8
SAPA_PROFIL
  6
CONTINUOUS
 62
     2
 10
-2.9184925025679558
 20
-19.18265997083796
 30
0.1
 11
-2.8452691978645932
 21
-19.359436666134599
 31
0.1
 12
-2.4917158072713188
 22
-19.359436666134599
 32
0.1
 13
-2.4917158072713188
 23
-19.359436666134599
 33
0.1
210
0.0
220
0.0
230
1.0
  0
SOLID
  5
1A7E
  8
SAPA_PROFIL
  6
CONTINUOUS
 62
     2
 10
2.9184925025679558
 20
-19.18265997083796
 30
-0.1
 11
2.4184925025679558
 21
-19.18265997083796
 31
-0.1
 12
2.4917158072713188
 22
-19.359436666134599
 32
-0.1
 13
2.4917158072713188
 23
-19.359436666134599
 33
-0.1
210
0.0
220
0.0
230
-1.0
  0
LINE
  5
1A7F
  8
SAPA_PROFIL
  6
CONTINUOUS
 62
     2
 10
-2.6684925025679558
 20
-18.93265997083796
 30
0.1
 11
-2.8452691978645932
 21
-19.005883275541319
 31
0.1
  0
LINE
  5
1A80
  8
SAPA_PROFIL
  6
CONTINUOUS
 62
     2
 10
-2.4917158072713188
 20
-19.005883275541319
 30
0.1
 11
-2.6684925025679558
 21
-18.93265997083796
 31
0.1
  0
LINE
  5
1A81
  8
SAPA_PROFIL
  6
CONTINUOUS
 62
     2
 10
-2.8452691978645932
 20
-19.005883275541319
 30
0.1
 11
-2.9184925025679558
 21
-19.18265997083796
 31
0.1
  0
LINE
  5
1A82
  8
SAPA_PROFIL
  6
CONTINUOUS
 62
     2
 10
-2.4917158072713188
 20
-19.005883275541319
 30
0.1
 11
-2.4184925025679558
 21
-19.18265997083796
 31
0.1
  0
LINE
  5
1A83
  8
SAPA_PROFIL
  6
CONTINUOUS
 62
     2
 10
-2.4917158072713188
 20
-19.359436666134599
 30
0.1
 11
-2.6684925025679558
 21
-19.43265997083796
 31
0.1
  0
LINE
  5
1A84
  8
SAPA_PROFIL
  6
CONTINUOUS
 62
     2
 10
-2.6684925025679558
 20
-19.43265997083796
 30
0.1
 11
-2.8452691978645932
 21
-19.359436666134599
 31
0.1
  0
LINE
  5
1A85
  8
SAPA_PROFIL
  6
CONTINUOUS
 62
     2
 10
-2.9184925025679558
 20
-19.18265997083796
 30
0.1
 11
-2.8452691978645932
 21
-19.359436666134599
 31
0.1
  0
LINE
  5
1A86
  8
SAPA_PROFIL
  6
CONTINUOUS
 62
     2
 10
-2.4184925025679558
 20
-19.18265997083796
 30
0.1
 11
-2.4917158072713188
 21
-19.359436666134599
 31
0.1
  0
ENDBLK
  5
1A88
  8
0
  0
BLOCK
  8
0
  2
*U63
 70
     1
 10
0.0
 20
0.0
 30
0.0
  3
*U63
  1

  0
SOLID
  5
1C7A
  8
SAPA_PROFIL
  6
CONTINUOUS
 62
     2
 10
2.6684925025680748
 20
-94.567340026545082
 30
0.1
 11
2.4917158072714378
 21
-94.640563331248444
 31
0.1
 12
2.8452691978647122
 22
-94.640563331248444
 32
0.1
 13
2.8452691978647122
 23
-94.640563331248444
 33
0.1
210
0.0
220
0.0
230
1.0
  0
SOLID
  5
1C7B
  8
SAPA_PROFIL
  6
CONTINUOUS
 62
     2
 10
2.4917158072714378
 20
-94.640563331248444
 30
0.1
 11
2.4184925025680748
 21
-94.817340026545082
 31
0.1
 12
2.9184925025680748
 22
-94.817340026545082
 32
0.1
 13
2.9184925025680748
 23
-94.817340026545082
 33
0.1
210
0.0
220
0.0
230
1.0
  0
SOLID
  5
1C7C
  8
SAPA_PROFIL
  6
CONTINUOUS
 62
     2
 10
-2.4917158072714378
 20
-94.640563331248444
 30
-0.1
 11
-2.8452691978647122
 21
-94.640563331248444
 31
-0.1
 12
-2.9184925025680748
 22
-94.817340026545082
 32
-0.1
 13
-2.9184925025680748
 23
-94.817340026545082
 33
-0.1
210
0.0
220
0.0
230
-1.0
  0
SOLID
  5
1C7D
  8
SAPA_PROFIL
  6
CONTINUOUS
 62
     2
 10
-2.4917158072714378
 20
-94.994116721841706
 30
-0.1
 11
-2.8452691978647122
 21
-94.994116721841706
 31
-0.1
 12
-2.6684925025680748
 22
-95.067340026545097
 32
-0.1
 13
-2.6684925025680748
 23
-95.067340026545097
 33
-0.1
210
0.0
220
0.0
230
-1.0
  0
SOLID
  5
1C7E
  8
SAPA_PROFIL
  6
CONTINUOUS
 62
     2
 10
2.4184925025680748
 20
-94.817340026545082
 30
0.1
 11
2.4917158072714378
 21
-94.994116721841706
 31
0.1
 12
2.8452691978647122
 22
-94.994116721841706
 32
0.1
 13
2.8452691978647122
 23
-94.994116721841706
 33
0.1
210
0.0
220
0.0
230
1.0
  0
SOLID
  5
1C7F
  8
SAPA_PROFIL
  6
CONTINUOUS
 62
     2
 10
-2.4184925025680748
 20
-94.817340026545082
 30
-0.1
 11
-2.9184925025680748
 21
-94.817340026545082
 31
-0.1
 12
-2.8452691978647122
 22
-94.994116721841706
 32
-0.1
 13
-2.8452691978647122
 23
-94.994116721841706
 33
-0.1
210
0.0
220
0.0
230
-1.0
  0
LINE
  5
1C80
  8
SAPA_PROFIL
  6
CONTINUOUS
 62
     2
 10
2.6684925025680748
 20
-94.567340026545082
 30
0.1
 11
2.4917158072714378
 21
-94.640563331248444
 31
0.1
  0
LINE
  5
1C81
  8
SAPA_PROFIL
  6
CONTINUOUS
 62
     2
 10
2.8452691978647122
 20
-94.640563331248444
 30
0.1
 11
2.6684925025680748
 21
-94.567340026545082
 31
0.1
  0
LINE
  5
1C82
  8
SAPA_PROFIL
  6
CONTINUOUS
 62
     2
 10
2.4917158072714378
 20
-94.640563331248444
 30
0.1
 11
2.4184925025680748
 21
-94.817340026545082
 31
0.1
  0
LINE
  5
1C83
  8
SAPA_PROFIL
  6
CONTINUOUS
 62
     2
 10
2.8452691978647122
 20
-94.640563331248444
 30
0.1
 11
2.9184925025680748
 21
-94.817340026545082
 31
0.1
  0
LINE
  5
1C84
  8
SAPA_PROFIL
  6
CONTINUOUS
 62
     2
 10
2.8452691978647122
 20
-94.994116721841706
 30
0.1
 11
2.6684925025680748
 21
-95.067340026545097
 31
0.1
  0
LINE
  5
1C85
  8
SAPA_PROFIL
  6
CONTINUOUS
 62
     2
 10
2.6684925025680748
 20
-95.067340026545097
 30
0.1
 11
2.4917158072714378
 21
-94.994116721841706
 31
0.1
  0
LINE
  5
1C86
  8
SAPA_PROFIL
  6
CONTINUOUS
 62
     2
 10
2.4184925025680748
 20
-94.817340026545082
 30
0.1
 11
2.4917158072714378
 21
-94.994116721841706
 31
0.1
  0
LINE
  5
1C87
  8
SAPA_PROFIL
  6
CONTINUOUS
 62
     2
 10
2.9184925025680748
 20
-94.817340026545082
 30
0.1
 11
2.8452691978647122
 21
-94.994116721841706
 31
0.1
  0
ENDBLK
  5
1C89
  8
0
  0
BLOCK
  8
0
  2
*U64
 70
     1
 10
0.0
 20
0.0
 30
0.0
  3
*U64
  1

  0
TEXT
  5
1D0C
  8
SAPA_MATT
 62
     2
 10
-144.2002820921287
 20
-59.099999998025581
 30
0.0
 40
3.0
  1
86
 50
90.0
  7
ISO
  0
ENDBLK
  5
1D0E
  8
0
  0
BLOCK
  8
0
  2
*U65
 70
     1
 10
0.0
 20
0.0
 30
0.0
  3
*U65
  1

  0
TEXT
  5
1D10
  8
SAPA_MATT
 62
     2
 10
9.9499999999999122
 20
-123.7051012061636
 30
0.0
 40
3.0
  1
5
  7
ISO
  0
ENDBLK
  5
1D12
  8
0
  0
BLOCK
  8
0
  2
*U66
 70
     1
 10
0.0
 20
0.0
 30
0.0
  3
*U66
  1

  0
TEXT
  5
1D14
  8
SAPA_MATT
 62
     2
 10
60.399999978965141
 20
-123.7051012061636
 30
0.0
 40
3.0
  1
98
  7
ISO
  0
ENDBLK
  5
1D16
  8
0
  0
BLOCK
  8
0
  2
*U67
 70
     1
 10
0.0
 20
0.0
 30
0.0
  3
*U67
  1

  0
TEXT
  5
1D18
  8
SAPA_MATT
 62
     2
 10
-54.350000000000009
 20
-123.7051012061636
 30
0.0
 40
3.0
  1
120
  7
ISO
  0
ENDBLK
  5
1D1A
  8
0
  0
ENDSEC
  0
SECTION
  2
ENTITIES
  0
TEXT
  5
82E
  8
SAPA_ARTIKELNR
 10
-58.457288939456021
 20
-11.51821990692228
 30
-0.0000000048844204
 40
3.5
  1
86426
  7
ISO
  0
TEXT
  5
82F
  8
SAPA_ARTIKELNR
 10
35.505170726449478
 20
-11.518219909535491
 30
-0.0000000048844204
 40
3.5
  1
86425
  7
ISO
  0
CIRCLE
  5
1164
  8
SAPA_PROFIL
 62
     2
 10
108.1679648137473
 20
-96.858006486409863
 30
0.0
 40
0.8999999999999985
  0
POLYLINE
  5
1165
  8
SAPA_PROFIL
 62
     2
 66
     1
 10
0.0
 20
0.0
 30
0.0
  0
VERTEX
  5
1816
  8
SAPA_PROFIL
 62
     2
 10
109.5679648137473
 20
-95.550000074836817
 30
0.0
  0
VERTEX
  5
1817
  8
SAPA_PROFIL
 62
     2
 10
109.37560639375489
 20
-96.640918884989574
 30
0.0
  0
VERTEX
  5
1818
  8
SAPA_PROFIL
 62
     2
 10
109.80740295365651
 20
-96.756618424509483
 30
0.0
 42
-0.4430158954262519
  0
VERTEX
  5
1819
  8
SAPA_PROFIL
 62
     2
 10
109.94288000120061
 20
-97.020094852616481
 30
0.0
  0
VERTEX
  5
181A
  8
SAPA_PROFIL
 62
     2
 10
109.4659318079817
 20
-98.290582600534663
 30
0.0
 42
-0.3125358528825162
  0
VERTEX
  5
181B
  8
SAPA_PROFIL
 62
     2
 10
109.09145009485231
 20
-98.550000074836376
 30
0.0
  0
VERTEX
  5
181C
  8
SAPA_PROFIL
 62
     2
 10
107.221294778942
 20
-98.550000074836817
 30
0.0
 42
-0.3125358528825104
  0
VERTEX
  5
181D
  8
SAPA_PROFIL
 62
     2
 10
106.8468130658125
 20
-98.290582600534663
 30
0.0
  0
VERTEX
  5
181E
  8
SAPA_PROFIL
 62
     2
 10
106.3698648725934
 20
-97.020094852616481
 30
0.0
 42
-0.4430158954262519
  0
VERTEX
  5
181F
  8
SAPA_PROFIL
 62
     2
 10
106.5053419201374
 20
-96.756618424509625
 30
0.0
  0
VERTEX
  5
1820
  8
SAPA_PROFIL
 62
     2
 10
106.93713848003929
 20
-96.640918884989574
 30
0.0
  0
VERTEX
  5
1821
  8
SAPA_PROFIL
 62
     2
 10
106.744872436897
 20
-95.550000074836817
 30
0.0
  0
SEQEND
  5
1822
  8
SAPA_PROFIL
 62
     2
  0
POLYLINE
  5
1166
  8
SAPA_PROFIL
 62
     2
 66
     1
 10
0.0
 20
0.0
 30
0.0
 70
     1
  0
VERTEX
  5
1823
  8
SAPA_PROFIL
 62
     2
 10
109.55637243689699
 20
-95.550000074836817
 30
0.0
 42
0.285714285714282
  0
VERTEX
  5
1824
  8
SAPA_PROFIL
 62
     2
 10
106.756372436897
 20
-95.550000074836817
 30
0.0
  0
VERTEX
  5
1825
  8
SAPA_PROFIL
 62
     2
 10
104.68259226750909
 20
-95.550000074836362
 30
0.0
 42
-0.3882600129940275
  0
VERTEX
  5
1826
  8
SAPA_PROFIL
 62
     2
 10
104.38379077016771
 20
-95.276789348556804
 30
0.0
  0
VERTEX
  5
1827
  8
SAPA_PROFIL
 62
     2
 10
103.91758084624119
 20
-91.376789348556713
 30
0.0
 42
-0.4406523138893894
  0
VERTEX
  5
1828
  8
SAPA_PROFIL
 62
     2
 10
104.21638234358311
 20
-91.050000074836817
 30
0.0
  0
VERTEX
  5
1829
  8
SAPA_PROFIL
 62
     2
 10
105.92617434050339
 20
-91.050000074836817
 30
0.0
 42
-0.3394542588634375
  0
VERTEX
  5
182A
  8
SAPA_PROFIL
 62
     2
 10
106.21595208839
 20
-91.272354361305815
 30
0.0
  0
VERTEX
  5
182B
  8
SAPA_PROFIL
 62
     2
 10
106.4183318163214
 20
-91.489940143473405
 30
0.0
 42
0.3394542588633663
  0
VERTEX
  5
182C
  8
SAPA_PROFIL
 62
     2
 10
106.7081095642082
 20
-91.712294429942403
 30
0.0
  0
VERTEX
  5
182D
  8
SAPA_PROFIL
 62
     2
 10
109.604635309586
 20
-91.712294429942403
 30
0.0
 42
0.3394542588634373
  0
VERTEX
  5
182E
  8
SAPA_PROFIL
 62
     2
 10
109.8944130574726
 20
-91.489940143473405
 30
0.0
  0
VERTEX
  5
182F
  8
SAPA_PROFIL
 62
     2
 10
110.09679278540401
 20
-91.272354361305815
 30
0.0
 42
-0.3394542588633662
  0
VERTEX
  5
1830
  8
SAPA_PROFIL
 62
     2
 10
110.38657053329079
 20
-91.050000074836817
 30
0.0
  0
VERTEX
  5
1831
  8
SAPA_PROFIL
 62
     2
 10
112.0963625302109
 20
-91.050000074836817
 30
0.0
 42
-0.4406523138893994
  0
VERTEX
  5
1832
  8
SAPA_PROFIL
 62
     2
 10
112.3951640275525
 20
-91.376789348556713
 30
0.0
  0
VERTEX
  5
1833
  8
SAPA_PROFIL
 62
     2
 10
111.9289541036262
 20
-95.276789348556804
 30
0.0
 42
-0.3882600129940462
  0
VERTEX
  5
1834
  8
SAPA_PROFIL
 62
     2
 10
111.6301526062848
 20
-95.550000074836817
 30
0.0
  0
VERTEX
  5
1835
  8
SAPA_PROFIL
 62
     2
 10
109.5679648137473
 20
-95.550000074836817
 30
0.0
  0
SEQEND
  5
1836
  8
SAPA_PROFIL
 62
     2
  0
LINE
  5
1167
  8
SAPA_PROFIL
 62
     6
 10
94.48360536732028
 20
-80.075689794725875
 30
0.0
 11
94.520395738811715
 21
-80.011967002073376
 31
0.0
1001
GRADIENTCOLOR1ACI
1070
     5
1001
GRADIENTCOLOR2ACI
1070
     2
1001
ACAD
1010
0.0
1020
0.0
1030
0.0
  0
LINE
  5
1168
  8
SAPA_PROFIL
 62
     6
 10
93.340605367320279
 20
-82.055423867777094
 30
0.0
 11
93.721605367320279
 21
-81.395512510093354
 31
0.0
1001
GRADIENTCOLOR1ACI
1070
     5
1001
GRADIENTCOLOR2ACI
1070
     2
1001
ACAD
1010
0.0
1020
0.0
1030
0.0
  0
LINE
  5
1169
  8
SAPA_PROFIL
 62
     6
 10
92.285051386436535
 20
-83.883696992799344
 30
0.0
 11
92.578605367320279
 21
-83.375246583144573
 31
0.0
1001
GRADIENTCOLOR1ACI
1070
     5
1001
GRADIENTCOLOR2ACI
1070
     2
1001
ACAD
1010
0.0
1020
0.0
1030
0.0
  0
LINE
  5
116A
  8
SAPA_PROFIL
 62
     6
 10
94.483605367035778
 20
-77.436044363826696
 30
0.0
 11
94.513397446207051
 21
-77.384442969038915
 31
0.0
1001
GRADIENTCOLOR1ACI
1070
     5
1001
GRADIENTCOLOR2ACI
1070
     2
1001
ACAD
1010
0.0
1020
0.0
1030
0.0
  0
LINE
  5
116B
  8
SAPA_PROFIL
 62
     6
 10
93.340605367035778
 20
-79.415778436877915
 30
0.0
 11
93.721605367035778
 21
-78.755867079194175
 31
0.0
1001
GRADIENTCOLOR1ACI
1070
     5
1001
GRADIENTCOLOR2ACI
1070
     2
1001
ACAD
1010
0.0
1020
0.0
1030
0.0
  0
LINE
  5
116C
  8
SAPA_PROFIL
 62
     6
 10
92.197605367035777
 20
-81.395512509929134
 30
0.0
 11
92.578605367035777
 21
-80.735601152245394
 31
0.0
1001
GRADIENTCOLOR1ACI
1070
     5
1001
GRADIENTCOLOR2ACI
1070
     2
1001
ACAD
1010
0.0
1020
0.0
1030
0.0
  0
LINE
  5
116D
  8
SAPA_PROFIL
 62
     6
 10
91.054605367035776
 20
-83.375246582980338
 30
0.0
 11
91.435605367035777
 21
-82.715335225296613
 31
0.0
1001
GRADIENTCOLOR1ACI
1070
     5
1001
GRADIENTCOLOR2ACI
1070
     2
1001
ACAD
1010
0.0
1020
0.0
1030
0.0
  0
LINE
  5
116E
  8
SAPA_PROFIL
 62
     6
 10
94.483605366751306
 20
-74.796398932927417
 30
0.0
 11
94.506399153602388
 21
-74.756918936004439
 31
0.0
1001
GRADIENTCOLOR1ACI
1070
     5
1001
GRADIENTCOLOR2ACI
1070
     2
1001
ACAD
1010
0.0
1020
0.0
1030
0.0
  0
LINE
  5
116F
  8
SAPA_PROFIL
 62
     6
 10
93.340605366751305
 20
-76.776133005978636
 30
0.0
 11
93.721605366751305
 21
-76.116221648294896
 31
0.0
1001
GRADIENTCOLOR1ACI
1070
     5
1001
GRADIENTCOLOR2ACI
1070
     2
1001
ACAD
1010
0.0
1020
0.0
1030
0.0
  0
LINE
  5
1170
  8
SAPA_PROFIL
 62
     6
 10
92.197605366751304
 20
-78.755867079029855
 30
0.0
 11
92.578605366751304
 21
-78.095955721346115
 31
0.0
1001
GRADIENTCOLOR1ACI
1070
     5
1001
GRADIENTCOLOR2ACI
1070
     2
1001
ACAD
1010
0.0
1020
0.0
1030
0.0
  0
LINE
  5
1171
  8
SAPA_PROFIL
 62
     6
 10
91.054605366751304
 20
-80.735601152081074
 30
0.0
 11
91.435605366751304
 21
-80.075689794397334
 31
0.0
1001
GRADIENTCOLOR1ACI
1070
     5
1001
GRADIENTCOLOR2ACI
1070
     2
1001
ACAD
1010
0.0
1020
0.0
1030
0.0
  0
LINE
  5
1172
  8
SAPA_PROFIL
 62
     6
 10
89.911605366751289
 20
-82.715335225132279
 30
0.0
 11
90.292605366751289
 21
-82.055423867448553
 31
0.0
1001
GRADIENTCOLOR1ACI
1070
     5
1001
GRADIENTCOLOR2ACI
1070
     2
1001
ACAD
1010
0.0
1020
0.0
1030
0.0
  0
LINE
  5
1173
  8
SAPA_PROFIL
 62
     6
 10
94.483605366466804
 20
-72.156753502028195
 30
0.0
 11
94.499400860997724
 21
-72.129394902969963
 31
0.0
1001
GRADIENTCOLOR1ACI
1070
     5
1001
GRADIENTCOLOR2ACI
1070
     2
1001
ACAD
1010
0.0
1020
0.0
1030
0.0
  0
LINE
  5
1174
  8
SAPA_PROFIL
 62
     6
 10
93.340605366466804
 20
-74.136487575079414
 30
0.0
 11
93.721605366466804
 21
-73.476576217395674
 31
0.0
1001
GRADIENTCOLOR1ACI
1070
     5
1001
GRADIENTCOLOR2ACI
1070
     2
1001
ACAD
1010
0.0
1020
0.0
1030
0.0
  0
LINE
  5
1175
  8
SAPA_PROFIL
 62
     6
 10
92.197605366466789
 20
-76.116221648130633
 30
0.0
 11
92.578605366466789
 21
-75.456310290446893
 31
0.0
1001
GRADIENTCOLOR1ACI
1070
     5
1001
GRADIENTCOLOR2ACI
1070
     2
1001
ACAD
1010
0.0
1020
0.0
1030
0.0
  0
LINE
  5
1176
  8
SAPA_PROFIL
 62
     6
 10
91.054605366466788
 20
-78.095955721181852
 30
0.0
 11
91.435605366466788
 21
-77.436044363498112
 31
0.0
1001
GRADIENTCOLOR1ACI
1070
     5
1001
GRADIENTCOLOR2ACI
1070
     2
1001
ACAD
1010
0.0
1020
0.0
1030
0.0
  0
LINE
  5
1177
  8
SAPA_PROFIL
 62
     6
 10
89.911605366466787
 20
-80.075689794233071
 30
0.0
 11
90.292605366466788
 21
-79.415778436549331
 31
0.0
1001
GRADIENTCOLOR1ACI
1070
     5
1001
GRADIENTCOLOR2ACI
1070
     2
1001
ACAD
1010
0.0
1020
0.0
1030
0.0
  0
LINE
  5
1178
  8
SAPA_PROFIL
 62
     6
 10
94.483605366182289
 20
-69.517108071128973
 30
0.0
 11
94.492402568393075
 21
-69.501870869935431
 31
0.0
1001
GRADIENTCOLOR1ACI
1070
     5
1001
GRADIENTCOLOR2ACI
1070
     2
1001
ACAD
1010
0.0
1020
0.0
1030
0.0
  0
LINE
  5
1179
  8
SAPA_PROFIL
 62
     6
 10
93.340605366182288
 20
-71.496842144180192
 30
0.0
 11
93.721605366182288
 21
-70.836930786496453
 31
0.0
1001
GRADIENTCOLOR1ACI
1070
     5
1001
GRADIENTCOLOR2ACI
1070
     2
1001
ACAD
1010
0.0
1020
0.0
1030
0.0
  0
LINE
  5
117A
  8
SAPA_PROFIL
 62
     6
 10
92.197605366182287
 20
-73.476576217231411
 30
0.0
 11
92.578605366182288
 21
-72.816664859547672
 31
0.0
1001
GRADIENTCOLOR1ACI
1070
     5
1001
GRADIENTCOLOR2ACI
1070
     2
1001
ACAD
1010
0.0
1020
0.0
1030
0.0
  0
LINE
  5
117B
  8
SAPA_PROFIL
 62
     6
 10
91.054605366182287
 20
-75.45631029028263
 30
0.0
 11
91.435605366182287
 21
-74.79639893259889
 31
0.0
1001
GRADIENTCOLOR1ACI
1070
     5
1001
GRADIENTCOLOR2ACI
1070
     2
1001
ACAD
1010
0.0
1020
0.0
1030
0.0
  0
LINE
  5
117C
  8
SAPA_PROFIL
 62
     6
 10
89.911605366182286
 20
-77.436044363333835
 30
0.0
 11
90.292605366182286
 21
-76.776133005650109
 31
0.0
1001
GRADIENTCOLOR1ACI
1070
     5
1001
GRADIENTCOLOR2ACI
1070
     2
1001
ACAD
1010
0.0
1020
0.0
1030
0.0
  0
LINE
  5
117D
  8
SAPA_PROFIL
 62
     6
 10
94.483605365897787
 20
-66.877462640229709
 30
0.0
 11
94.485404275788369
 21
-66.874346836900983
 31
0.0
1001
GRADIENTCOLOR1ACI
1070
     5
1001
GRADIENTCOLOR2ACI
1070
     2
1001
ACAD
1010
0.0
1020
0.0
1030
0.0
  0
LINE
  5
117E
  8
SAPA_PROFIL
 62
     6
 10
93.340605365897787
 20
-68.857196713280928
 30
0.0
 11
93.721605365897787
 21
-68.197285355597174
 31
0.0
1001
GRADIENTCOLOR1ACI
1070
     5
1001
GRADIENTCOLOR2ACI
1070
     2
1001
ACAD
1010
0.0
1020
0.0
1030
0.0
  0
LINE
  5
117F
  8
SAPA_PROFIL
 62
     6
 10
92.197605365897786
 20
-70.836930786332147
 30
0.0
 11
92.578605365897786
 21
-70.177019428648407
 31
0.0
1001
GRADIENTCOLOR1ACI
1070
     5
1001
GRADIENTCOLOR2ACI
1070
     2
1001
ACAD
1010
0.0
1020
0.0
1030
0.0
  0
LINE
  5
1180
  8
SAPA_PROFIL
 62
     6
 10
91.054605365897785
 20
-72.816664859383366
 30
0.0
 11
91.435605365897786
 21
-72.156753501699626
 31
0.0
1001
GRADIENTCOLOR1ACI
1070
     5
1001
GRADIENTCOLOR2ACI
1070
     2
1001
ACAD
1010
0.0
1020
0.0
1030
0.0
  0
LINE
  5
1181
  8
SAPA_PROFIL
 62
     6
 10
89.911605365897785
 20
-74.796398932434585
 30
0.0
 11
90.292605365897785
 21
-74.136487574750845
 31
0.0
1001
GRADIENTCOLOR1ACI
1070
     5
1001
GRADIENTCOLOR2ACI
1070
     2
1001
ACAD
1010
0.0
1020
0.0
1030
0.0
  0
LINE
  5
1182
  8
SAPA_PROFIL
 62
     6
 10
93.340605365613285
 20
-66.21755128238172
 30
0.0
 11
93.721605365613286
 21
-65.55763992469798
 31
0.0
1001
GRADIENTCOLOR1ACI
1070
     5
1001
GRADIENTCOLOR2ACI
1070
     2
1001
ACAD
1010
0.0
1020
0.0
1030
0.0
  0
LINE
  5
1183
  8
SAPA_PROFIL
 62
     6
 10
92.197605365613285
 20
-68.197285355432939
 30
0.0
 11
92.578605365613285
 21
-67.537373997749185
 31
0.0
1001
GRADIENTCOLOR1ACI
1070
     5
1001
GRADIENTCOLOR2ACI
1070
     2
1001
ACAD
1010
0.0
1020
0.0
1030
0.0
  0
LINE
  5
1184
  8
SAPA_PROFIL
 62
     6
 10
91.054605365613284
 20
-70.177019428484144
 30
0.0
 11
91.435605365613284
 21
-69.517108070800418
 31
0.0
1001
GRADIENTCOLOR1ACI
1070
     5
1001
GRADIENTCOLOR2ACI
1070
     2
1001
ACAD
1010
0.0
1020
0.0
1030
0.0
  0
LINE
  5
1185
  8
SAPA_PROFIL
 62
     6
 10
89.911605365613283
 20
-72.156753501535377
 30
0.0
 11
90.292605365613284
 21
-71.496842143851637
 31
0.0
1001
GRADIENTCOLOR1ACI
1070
     5
1001
GRADIENTCOLOR2ACI
1070
     2
1001
ACAD
1010
0.0
1020
0.0
1030
0.0
  0
LINE
  5
1186
  8
SAPA_PROFIL
 62
     6
 10
93.340605365328784
 20
-63.577905851482491
 30
0.0
 11
93.721605365328784
 21
-62.917994493798751
 31
0.0
1001
GRADIENTCOLOR1ACI
1070
     5
1001
GRADIENTCOLOR2ACI
1070
     2
1001
ACAD
1010
0.0
1020
0.0
1030
0.0
  0
LINE
  5
1187
  8
SAPA_PROFIL
 62
     6
 10
92.197605365328783
 20
-65.557639924533703
 30
0.0
 11
92.578605365328784
 21
-64.897728566849963
 31
0.0
1001
GRADIENTCOLOR1ACI
1070
     5
1001
GRADIENTCOLOR2ACI
1070
     2
1001
ACAD
1010
0.0
1020
0.0
1030
0.0
  0
LINE
  5
1188
  8
SAPA_PROFIL
 62
     6
 10
91.054605365328797
 20
-67.537373997584936
 30
0.0
 11
91.435605365328783
 21
-66.877462639901196
 31
0.0
1001
GRADIENTCOLOR1ACI
1070
     5
1001
GRADIENTCOLOR2ACI
1070
     2
1001
ACAD
1010
0.0
1020
0.0
1030
0.0
  0
LINE
  5
1189
  8
SAPA_PROFIL
 62
     6
 10
89.911605365328796
 20
-69.517108070636155
 30
0.0
 11
90.292605365328797
 21
-68.857196712952415
 31
0.0
1001
GRADIENTCOLOR1ACI
1070
     5
1001
GRADIENTCOLOR2ACI
1070
     2
1001
ACAD
1010
0.0
1020
0.0
1030
0.0
  0
LINE
  5
118A
  8
SAPA_PROFIL
 62
     6
 10
92.197605365044268
 20
-62.917994493634552
 30
0.0
 11
92.578605365044268
 21
-62.258083135950812
 31
0.0
1001
GRADIENTCOLOR1ACI
1070
     5
1001
GRADIENTCOLOR2ACI
1070
     2
1001
ACAD
1010
0.0
1020
0.0
1030
0.0
  0
LINE
  5
118B
  8
SAPA_PROFIL
 62
     6
 10
91.054605365044267
 20
-64.897728566685771
 30
0.0
 11
91.435605365044268
 21
-64.237817209002031
 31
0.0
1001
GRADIENTCOLOR1ACI
1070
     5
1001
GRADIENTCOLOR2ACI
1070
     2
1001
ACAD
1010
0.0
1020
0.0
1030
0.0
  0
LINE
  5
118C
  8
SAPA_PROFIL
 62
     6
 10
89.911605365044267
 20
-66.87746263973699
 30
0.0
 11
90.292605365044267
 21
-66.21755128205325
 31
0.0
1001
GRADIENTCOLOR1ACI
1070
     5
1001
GRADIENTCOLOR2ACI
1070
     2
1001
ACAD
1010
0.0
1020
0.0
1030
0.0
  0
LINE
  5
118D
  8
SAPA_PROFIL
 62
     6
 10
91.054605364759766
 20
-62.258083135786542
 30
0.0
 11
91.435605364759766
 21
-61.598171778102802
 31
0.0
1001
GRADIENTCOLOR1ACI
1070
     5
1001
GRADIENTCOLOR2ACI
1070
     2
1001
ACAD
1010
0.0
1020
0.0
1030
0.0
  0
LINE
  5
118E
  8
SAPA_PROFIL
 62
     6
 10
89.911605364759765
 20
-64.237817208837768
 30
0.0
 11
90.292605364759766
 21
-63.577905851154021
 31
0.0
1001
GRADIENTCOLOR1ACI
1070
     5
1001
GRADIENTCOLOR2ACI
1070
     2
1001
ACAD
1010
0.0
1020
0.0
1030
0.0
  0
LINE
  5
118F
  8
SAPA_PROFIL
 62
     6
 10
93.72160545067986
 20
-62.917994434994711
 30
0.0
 11
93.34060545067986
 21
-62.258083077310971
 31
0.0
1001
GRADIENTCOLOR1ACI
1070
     5
1001
GRADIENTCOLOR2ACI
1070
     2
1001
ACAD
1010
0.0
1020
0.0
1030
0.0
  0
LINE
  5
1190
  8
SAPA_PROFIL
 62
     6
 10
91.435605450395315
 20
-61.598171719791488
 30
0.0
 11
91.434367579160678
 21
-61.596027663919891
 31
0.0
1001
GRADIENTCOLOR1ACI
1070
     5
1001
GRADIENTCOLOR2ACI
1070
     2
1001
ACAD
1010
0.0
1020
0.0
1030
0.0
  0
LINE
  5
1191
  8
SAPA_PROFIL
 62
     6
 10
92.578605450395315
 20
-63.577905792842721
 30
0.0
 11
92.197605450395315
 21
-62.917994435158981
 31
0.0
1001
GRADIENTCOLOR1ACI
1070
     5
1001
GRADIENTCOLOR2ACI
1070
     2
1001
ACAD
1010
0.0
1020
0.0
1030
0.0
  0
LINE
  5
1192
  8
SAPA_PROFIL
 62
     6
 10
93.721605450395316
 20
-65.557639865893947
 30
0.0
 11
93.340605450395316
 21
-64.897728508210207
 31
0.0
1001
GRADIENTCOLOR1ACI
1070
     5
1001
GRADIENTCOLOR2ACI
1070
     2
1001
ACAD
1010
0.0
1020
0.0
1030
0.0
  0
LINE
  5
1193
  8
SAPA_PROFIL
 62
     6
 10
94.485420949767956
 20
-66.880607118415952
 30
0.0
 11
94.483605450395316
 21
-66.877462581261426
 31
0.0
1001
GRADIENTCOLOR1ACI
1070
     5
1001
GRADIENTCOLOR2ACI
1070
     2
1001
ACAD
1010
0.0
1020
0.0
1030
0.0
  0
LINE
  5
1194
  8
SAPA_PROFIL
 62
     6
 10
90.292605450110841
 20
-62.25808307763949
 30
0.0
 11
90.232433556893355
 21
-62.153862301399201
 31
0.0
1001
GRADIENTCOLOR1ACI
1070
     5
1001
GRADIENTCOLOR2ACI
1070
     2
1001
ACAD
1010
0.0
1020
0.0
1030
0.0
  0
LINE
  5
1195
  8
SAPA_PROFIL
 62
     6
 10
91.435605450110842
 20
-64.237817150690717
 30
0.0
 11
91.054605450110842
 21
-63.57790579300697
 31
0.0
1001
GRADIENTCOLOR1ACI
1070
     5
1001
GRADIENTCOLOR2ACI
1070
     2
1001
ACAD
1010
0.0
1020
0.0
1030
0.0
  0
LINE
  5
1196
  8
SAPA_PROFIL
 62
     6
 10
92.578605450110842
 20
-66.217551223741935
 30
0.0
 11
92.197605450110842
 21
-65.557639866058196
 31
0.0
1001
GRADIENTCOLOR1ACI
1070
     5
1001
GRADIENTCOLOR2ACI
1070
     2
1001
ACAD
1010
0.0
1020
0.0
1030
0.0
  0
LINE
  5
1197
  8
SAPA_PROFIL
 62
     6
 10
93.721605450110843
 20
-68.197285296793154
 30
0.0
 11
93.340605450110843
 21
-67.537373939109415
 31
0.0
1001
GRADIENTCOLOR1ACI
1070
     5
1001
GRADIENTCOLOR2ACI
1070
     2
1001
ACAD
1010
0.0
1020
0.0
1030
0.0
  0
LINE
  5
1198
  8
SAPA_PROFIL
 62
     6
 10
94.492484111231732
 20
-69.532486304325204
 30
0.0
 11
94.483605450110844
 21
-69.517108012160634
 31
0.0
1001
GRADIENTCOLOR1ACI
1070
     5
1001
GRADIENTCOLOR2ACI
1070
     2
1001
ACAD
1010
0.0
1020
0.0
1030
0.0
  0
LINE
  5
1199
  8
SAPA_PROFIL
 62
     6
 10
90.292605449826326
 20
-64.897728508538705
 30
0.0
 11
89.911605449826325
 21
-64.237817150854966
 31
0.0
1001
GRADIENTCOLOR1ACI
1070
     5
1001
GRADIENTCOLOR2ACI
1070
     2
1001
ACAD
1010
0.0
1020
0.0
1030
0.0
  0
LINE
  5
119A
  8
SAPA_PROFIL
 62
     6
 10
91.435605449826326
 20
-66.877462581589924
 30
0.0
 11
91.054605449826326
 21
-66.217551223906185
 31
0.0
1001
GRADIENTCOLOR1ACI
1070
     5
1001
GRADIENTCOLOR2ACI
1070
     2
1001
ACAD
1010
0.0
1020
0.0
1030
0.0
  0
LINE
  5
119B
  8
SAPA_PROFIL
 62
     6
 10
92.578605449826327
 20
-68.857196654641143
 30
0.0
 11
92.197605449826327
 21
-68.197285296957403
 31
0.0
1001
GRADIENTCOLOR1ACI
1070
     5
1001
GRADIENTCOLOR2ACI
1070
     2
1001
ACAD
1010
0.0
1020
0.0
1030
0.0
  0
LINE
  5
119C
  8
SAPA_PROFIL
 62
     6
 10
93.721605449826313
 20
-70.836930727692362
 30
0.0
 11
93.340605449826313
 21
-70.177019370008622
 31
0.0
1001
GRADIENTCOLOR1ACI
1070
     5
1001
GRADIENTCOLOR2ACI
1070
     2
1001
ACAD
1010
0.0
1020
0.0
1030
0.0
  0
LINE
  5
119D
  8
SAPA_PROFIL
 62
     6
 10
94.499547272695452
 20
-72.184365490234455
 30
0.0
 11
94.483605449826314
 21
-72.156753443059841
 31
0.0
1001
GRADIENTCOLOR1ACI
1070
     5
1001
GRADIENTCOLOR2ACI
1070
     2
1001
ACAD
1010
0.0
1020
0.0
1030
0.0
  0
LINE
  5
119E
  8
SAPA_PROFIL
 62
     6
 10
90.292605449541824
 20
-67.537373939437956
 30
0.0
 11
89.911605449541824
 21
-66.877462581754216
 31
0.0
1001
GRADIENTCOLOR1ACI
1070
     5
1001
GRADIENTCOLOR2ACI
1070
     2
1001
ACAD
1010
0.0
1020
0.0
1030
0.0
  0
LINE
  5
119F
  8
SAPA_PROFIL
 62
     6
 10
91.435605449541825
 20
-69.517108012489174
 30
0.0
 11
91.054605449541825
 21
-68.857196654805435
 31
0.0
1001
GRADIENTCOLOR1ACI
1070
     5
1001
GRADIENTCOLOR2ACI
1070
     2
1001
ACAD
1010
0.0
1020
0.0
1030
0.0
  0
LINE
  5
11A0
  8
SAPA_PROFIL
 62
     6
 10
92.578605449541826
 20
-71.496842085540393
 30
0.0
 11
92.197605449541825
 21
-70.836930727856654
 31
0.0
1001
GRADIENTCOLOR1ACI
1070
     5
1001
GRADIENTCOLOR2ACI
1070
     2
1001
ACAD
1010
0.0
1020
0.0
1030
0.0
  0
LINE
  5
11A1
  8
SAPA_PROFIL
 62
     6
 10
93.721605449541826
 20
-73.476576158591612
 30
0.0
 11
93.340605449541826
 21
-72.816664800907873
 31
0.0
1001
GRADIENTCOLOR1ACI
1070
     5
1001
GRADIENTCOLOR2ACI
1070
     2
1001
ACAD
1010
0.0
1020
0.0
1030
0.0
  0
LINE
  5
11A2
  8
SAPA_PROFIL
 62
     6
 10
94.506610434159228
 20
-74.836244676143764
 30
0.0
 11
94.483605449541827
 21
-74.796398873959092
 31
0.0
1001
GRADIENTCOLOR1ACI
1070
     5
1001
GRADIENTCOLOR2ACI
1070
     2
1001
ACAD
1010
0.0
1020
0.0
1030
0.0
  0
LINE
  5
11A3
  8
SAPA_PROFIL
 62
     6
 10
90.292605449257294
 20
-70.177019370337163
 30
0.0
 11
89.911605449257294
 21
-69.517108012653424
 31
0.0
1001
GRADIENTCOLOR1ACI
1070
     5
1001
GRADIENTCOLOR2ACI
1070
     2
1001
ACAD
1010
0.0
1020
0.0
1030
0.0
  0
LINE
  5
11A4
  8
SAPA_PROFIL
 62
     6
 10
91.435605449257295
 20
-72.156753443388382
 30
0.0
 11
91.054605449257295
 21
-71.496842085704642
 31
0.0
1001
GRADIENTCOLOR1ACI
1070
     5
1001
GRADIENTCOLOR2ACI
1070
     2
1001
ACAD
1010
0.0
1020
0.0
1030
0.0
  0
LINE
  5
11A5
  8
SAPA_PROFIL
 62
     6
 10
92.578605449257296
 20
-74.136487516439601
 30
0.0
 11
92.197605449257296
 21
-73.476576158755861
 31
0.0
1001
GRADIENTCOLOR1ACI
1070
     5
1001
GRADIENTCOLOR2ACI
1070
     2
1001
ACAD
1010
0.0
1020
0.0
1030
0.0
  0
LINE
  5
11A6
  8
SAPA_PROFIL
 62
     6
 10
93.721605449257297
 20
-76.11622158949082
 30
0.0
 11
93.340605449257296
 21
-75.45631023180708
 31
0.0
1001
GRADIENTCOLOR1ACI
1070
     5
1001
GRADIENTCOLOR2ACI
1070
     2
1001
ACAD
1010
0.0
1020
0.0
1030
0.0
  0
LINE
  5
11A7
  8
SAPA_PROFIL
 62
     6
 10
94.513673595622947
 20
-77.488123862053016
 30
0.0
 11
94.483605449257297
 21
-77.436044304858299
 31
0.0
1001
GRADIENTCOLOR1ACI
1070
     5
1001
GRADIENTCOLOR2ACI
1070
     2
1001
ACAD
1010
0.0
1020
0.0
1030
0.0
  0
LINE
  5
11A8
  8
SAPA_PROFIL
 62
     6
 10
90.292605448972807
 20
-72.816664801236371
 30
0.0
 11
89.911605448972807
 21
-72.156753443552631
 31
0.0
1001
GRADIENTCOLOR1ACI
1070
     5
1001
GRADIENTCOLOR2ACI
1070
     2
1001
ACAD
1010
0.0
1020
0.0
1030
0.0
  0
LINE
  5
11A9
  8
SAPA_PROFIL
 62
     6
 10
91.435605448972808
 20
-74.79639887428759
 30
0.0
 11
91.054605448972808
 21
-74.13648751660385
 31
0.0
1001
GRADIENTCOLOR1ACI
1070
     5
1001
GRADIENTCOLOR2ACI
1070
     2
1001
ACAD
1010
0.0
1020
0.0
1030
0.0
  0
LINE
  5
11AA
  8
SAPA_PROFIL
 62
     6
 10
92.578605448972809
 20
-76.776132947338795
 30
0.0
 11
92.197605448972809
 21
-76.116221589655069
 31
0.0
1001
GRADIENTCOLOR1ACI
1070
     5
1001
GRADIENTCOLOR2ACI
1070
     2
1001
ACAD
1010
0.0
1020
0.0
1030
0.0
  0
LINE
  5
11AB
  8
SAPA_PROFIL
 62
     6
 10
93.721605448972824
 20
-78.755867020390028
 30
0.0
 11
93.340605448972809
 21
-78.095955662706288
 31
0.0
1001
GRADIENTCOLOR1ACI
1070
     5
1001
GRADIENTCOLOR2ACI
1070
     2
1001
ACAD
1010
0.0
1020
0.0
1030
0.0
  0
LINE
  5
11AC
  8
SAPA_PROFIL
 62
     6
 10
94.520736757086723
 20
-80.140003047962253
 30
0.0
 11
94.483605448972824
 21
-80.075689735757507
 31
0.0
1001
GRADIENTCOLOR1ACI
1070
     5
1001
GRADIENTCOLOR2ACI
1070
     2
1001
ACAD
1010
0.0
1020
0.0
1030
0.0
  0
LINE
  5
11AD
  8
SAPA_PROFIL
 62
     6
 10
90.292605448688292
 20
-75.456310232135621
 30
0.0
 11
89.911605448688292
 21
-74.796398874451882
 31
0.0
1001
GRADIENTCOLOR1ACI
1070
     5
1001
GRADIENTCOLOR2ACI
1070
     2
1001
ACAD
1010
0.0
1020
0.0
1030
0.0
  0
LINE
  5
11AE
  8
SAPA_PROFIL
 62
     6
 10
91.435605448688293
 20
-77.43604430518684
 30
0.0
 11
91.054605448688292
 21
-76.7761329475031
 31
0.0
1001
GRADIENTCOLOR1ACI
1070
     5
1001
GRADIENTCOLOR2ACI
1070
     2
1001
ACAD
1010
0.0
1020
0.0
1030
0.0
  0
LINE
  5
11AF
  8
SAPA_PROFIL
 62
     6
 10
92.578605448688293
 20
-79.415778378238059
 30
0.0
 11
92.197605448688293
 21
-78.755867020554319
 31
0.0
1001
GRADIENTCOLOR1ACI
1070
     5
1001
GRADIENTCOLOR2ACI
1070
     2
1001
ACAD
1010
0.0
1020
0.0
1030
0.0
  0
LINE
  5
11B0
  8
SAPA_PROFIL
 62
     6
 10
93.721605448688294
 20
-81.395512451289264
 30
0.0
 11
93.340605448688294
 21
-80.735601093605538
 31
0.0
1001
GRADIENTCOLOR1ACI
1070
     5
1001
GRADIENTCOLOR2ACI
1070
     2
1001
ACAD
1010
0.0
1020
0.0
1030
0.0
  0
LINE
  5
11B1
  8
SAPA_PROFIL
 62
     6
 10
90.292605448403805
 20
-78.095955663034829
 30
0.0
 11
89.911605448403805
 21
-77.436044305351089
 31
0.0
1001
GRADIENTCOLOR1ACI
1070
     5
1001
GRADIENTCOLOR2ACI
1070
     2
1001
ACAD
1010
0.0
1020
0.0
1030
0.0
  0
LINE
  5
11B2
  8
SAPA_PROFIL
 62
     6
 10
91.435605448403805
 20
-80.075689736086034
 30
0.0
 11
91.054605448403805
 21
-79.415778378402308
 31
0.0
1001
GRADIENTCOLOR1ACI
1070
     5
1001
GRADIENTCOLOR2ACI
1070
     2
1001
ACAD
1010
0.0
1020
0.0
1030
0.0
  0
LINE
  5
11B3
  8
SAPA_PROFIL
 62
     6
 10
92.578605448403806
 20
-82.055423809137267
 30
0.0
 11
92.197605448403806
 21
-81.395512451453527
 31
0.0
1001
GRADIENTCOLOR1ACI
1070
     5
1001
GRADIENTCOLOR2ACI
1070
     2
1001
ACAD
1010
0.0
1020
0.0
1030
0.0
  0
LINE
  5
11B4
  8
SAPA_PROFIL
 62
     6
 10
93.387726766168825
 20
-83.456863040993312
 30
0.0
 11
93.340605448403807
 21
-83.375246524504746
 31
0.0
1001
GRADIENTCOLOR1ACI
1070
     5
1001
GRADIENTCOLOR2ACI
1070
     2
1001
ACAD
1010
0.0
1020
0.0
1030
0.0
  0
LINE
  5
11B5
  8
SAPA_PROFIL
 62
     6
 10
90.292605448119303
 20
-80.735601093934051
 30
0.0
 11
89.911605448119303
 21
-80.075689736250325
 31
0.0
1001
GRADIENTCOLOR1ACI
1070
     5
1001
GRADIENTCOLOR2ACI
1070
     2
1001
ACAD
1010
0.0
1020
0.0
1030
0.0
  0
LINE
  5
11B6
  8
SAPA_PROFIL
 62
     6
 10
91.435605448119304
 20
-82.71533516698527
 30
0.0
 11
91.054605448119304
 21
-82.055423809301516
 31
0.0
1001
GRADIENTCOLOR1ACI
1070
     5
1001
GRADIENTCOLOR2ACI
1070
     2
1001
ACAD
1010
0.0
1020
0.0
1030
0.0
  0
LINE
  5
11B7
  8
SAPA_PROFIL
 62
     6
 10
90.264509117257447
 20
-83.326582252766997
 30
0.0
 11
89.911605447834816
 21
-82.715335167149533
 31
0.0
1001
GRADIENTCOLOR1ACI
1070
     5
1001
GRADIENTCOLOR2ACI
1070
     2
1001
ACAD
1010
0.0
1020
0.0
1030
0.0
  0
LINE
  5
11B8
  8
SAPA_PROFIL
 62
     6
 10
92.578605357078104
 20
-83.375246483932827
 30
0.0
 11
93.340605357078104
 21
-83.375246483932827
 31
0.0
1001
GRADIENTCOLOR1ACI
1070
     5
1001
GRADIENTCOLOR2ACI
1070
     2
1001
ACAD
1010
0.0
1020
0.0
1030
0.0
  0
LINE
  5
11B9
  8
SAPA_PROFIL
 62
     6
 10
90.326566151425766
 20
-83.375246483932827
 30
0.0
 11
91.054605357078117
 21
-83.375246483932827
 31
0.0
1001
GRADIENTCOLOR1ACI
1070
     5
1001
GRADIENTCOLOR2ACI
1070
     2
1001
ACAD
1010
0.0
1020
0.0
1030
0.0
  0
LINE
  5
11BA
  8
SAPA_PROFIL
 62
     6
 10
92.578605357078104
 20
-82.055423768236835
 30
0.0
 11
93.340605357078104
 21
-82.055423768236835
 31
0.0
1001
GRADIENTCOLOR1ACI
1070
     5
1001
GRADIENTCOLOR2ACI
1070
     2
1001
ACAD
1010
0.0
1020
0.0
1030
0.0
  0
LINE
  5
11BB
  8
SAPA_PROFIL
 62
     6
 10
90.292605357078116
 20
-82.055423768236835
 30
0.0
 11
91.054605357078117
 21
-82.055423768236835
 31
0.0
1001
GRADIENTCOLOR1ACI
1070
     5
1001
GRADIENTCOLOR2ACI
1070
     2
1001
ACAD
1010
0.0
1020
0.0
1030
0.0
  0
LINE
  5
11BC
  8
SAPA_PROFIL
 62
     6
 10
92.578605357078104
 20
-80.735601052540815
 30
0.0
 11
93.340605357078104
 21
-80.735601052540815
 31
0.0
1001
GRADIENTCOLOR1ACI
1070
     5
1001
GRADIENTCOLOR2ACI
1070
     2
1001
ACAD
1010
0.0
1020
0.0
1030
0.0
  0
LINE
  5
11BD
  8
SAPA_PROFIL
 62
     6
 10
90.292605357078116
 20
-80.735601052540815
 30
0.0
 11
91.054605357078117
 21
-80.735601052540815
 31
0.0
1001
GRADIENTCOLOR1ACI
1070
     5
1001
GRADIENTCOLOR2ACI
1070
     2
1001
ACAD
1010
0.0
1020
0.0
1030
0.0
  0
LINE
  5
11BE
  8
SAPA_PROFIL
 62
     6
 10
92.578605357078104
 20
-79.415778336844824
 30
0.0
 11
93.340605357078104
 21
-79.415778336844824
 31
0.0
1001
GRADIENTCOLOR1ACI
1070
     5
1001
GRADIENTCOLOR2ACI
1070
     2
1001
ACAD
1010
0.0
1020
0.0
1030
0.0
  0
LINE
  5
11BF
  8
SAPA_PROFIL
 62
     6
 10
90.292605357078116
 20
-79.415778336844824
 30
0.0
 11
91.054605357078117
 21
-79.415778336844824
 31
0.0
1001
GRADIENTCOLOR1ACI
1070
     5
1001
GRADIENTCOLOR2ACI
1070
     2
1001
ACAD
1010
0.0
1020
0.0
1030
0.0
  0
LINE
  5
11C0
  8
SAPA_PROFIL
 62
     6
 10
92.578605357078104
 20
-78.095955621148804
 30
0.0
 11
93.340605357078104
 21
-78.095955621148804
 31
0.0
1001
GRADIENTCOLOR1ACI
1070
     5
1001
GRADIENTCOLOR2ACI
1070
     2
1001
ACAD
1010
0.0
1020
0.0
1030
0.0
  0
LINE
  5
11C1
  8
SAPA_PROFIL
 62
     6
 10
90.292605357078116
 20
-78.095955621148804
 30
0.0
 11
91.054605357078117
 21
-78.095955621148804
 31
0.0
1001
GRADIENTCOLOR1ACI
1070
     5
1001
GRADIENTCOLOR2ACI
1070
     2
1001
ACAD
1010
0.0
1020
0.0
1030
0.0
  0
LINE
  5
11C2
  8
SAPA_PROFIL
 62
     6
 10
92.578605357078104
 20
-76.776132905452826
 30
0.0
 11
93.340605357078104
 21
-76.776132905452826
 31
0.0
1001
GRADIENTCOLOR1ACI
1070
     5
1001
GRADIENTCOLOR2ACI
1070
     2
1001
ACAD
1010
0.0
1020
0.0
1030
0.0
  0
LINE
  5
11C3
  8
SAPA_PROFIL
 62
     6
 10
90.292605357078116
 20
-76.776132905452826
 30
0.0
 11
91.054605357078117
 21
-76.776132905452826
 31
0.0
1001
GRADIENTCOLOR1ACI
1070
     5
1001
GRADIENTCOLOR2ACI
1070
     2
1001
ACAD
1010
0.0
1020
0.0
1030
0.0
  0
LINE
  5
11C4
  8
SAPA_PROFIL
 62
     6
 10
92.578605357078104
 20
-75.456310189756849
 30
0.0
 11
93.340605357078104
 21
-75.456310189756849
 31
0.0
1001
GRADIENTCOLOR1ACI
1070
     5
1001
GRADIENTCOLOR2ACI
1070
     2
1001
ACAD
1010
0.0
1020
0.0
1030
0.0
  0
LINE
  5
11C5
  8
SAPA_PROFIL
 62
     6
 10
90.292605357078116
 20
-75.456310189756849
 30
0.0
 11
91.054605357078117
 21
-75.456310189756849
 31
0.0
1001
GRADIENTCOLOR1ACI
1070
     5
1001
GRADIENTCOLOR2ACI
1070
     2
1001
ACAD
1010
0.0
1020
0.0
1030
0.0
  0
LINE
  5
11C6
  8
SAPA_PROFIL
 62
     6
 10
92.578605357078104
 20
-74.136487474060814
 30
0.0
 11
93.340605357078104
 21
-74.136487474060814
 31
0.0
1001
GRADIENTCOLOR1ACI
1070
     5
1001
GRADIENTCOLOR2ACI
1070
     2
1001
ACAD
1010
0.0
1020
0.0
1030
0.0
  0
LINE
  5
11C7
  8
SAPA_PROFIL
 62
     6
 10
90.292605357078116
 20
-74.136487474060814
 30
0.0
 11
91.054605357078117
 21
-74.136487474060814
 31
0.0
1001
GRADIENTCOLOR1ACI
1070
     5
1001
GRADIENTCOLOR2ACI
1070
     2
1001
ACAD
1010
0.0
1020
0.0
1030
0.0
  0
LINE
  5
11C8
  8
SAPA_PROFIL
 62
     6
 10
92.578605357078104
 20
-72.816664758364837
 30
0.0
 11
93.340605357078104
 21
-72.816664758364837
 31
0.0
1001
GRADIENTCOLOR1ACI
1070
     5
1001
GRADIENTCOLOR2ACI
1070
     2
1001
ACAD
1010
0.0
1020
0.0
1030
0.0
  0
LINE
  5
11C9
  8
SAPA_PROFIL
 62
     6
 10
90.292605357078116
 20
-72.816664758364837
 30
0.0
 11
91.054605357078117
 21
-72.816664758364837
 31
0.0
1001
GRADIENTCOLOR1ACI
1070
     5
1001
GRADIENTCOLOR2ACI
1070
     2
1001
ACAD
1010
0.0
1020
0.0
1030
0.0
  0
LINE
  5
11CA
  8
SAPA_PROFIL
 62
     6
 10
92.578605357078104
 20
-71.496842042668803
 30
0.0
 11
93.340605357078104
 21
-71.496842042668803
 31
0.0
1001
GRADIENTCOLOR1ACI
1070
     5
1001
GRADIENTCOLOR2ACI
1070
     2
1001
ACAD
1010
0.0
1020
0.0
1030
0.0
  0
LINE
  5
11CB
  8
SAPA_PROFIL
 62
     6
 10
90.292605357078116
 20
-71.496842042668803
 30
0.0
 11
91.054605357078117
 21
-71.496842042668803
 31
0.0
1001
GRADIENTCOLOR1ACI
1070
     5
1001
GRADIENTCOLOR2ACI
1070
     2
1001
ACAD
1010
0.0
1020
0.0
1030
0.0
  0
LINE
  5
11CC
  8
SAPA_PROFIL
 62
     6
 10
92.578605357078104
 20
-70.177019326972825
 30
0.0
 11
93.340605357078104
 21
-70.177019326972825
 31
0.0
1001
GRADIENTCOLOR1ACI
1070
     5
1001
GRADIENTCOLOR2ACI
1070
     2
1001
ACAD
1010
0.0
1020
0.0
1030
0.0
  0
LINE
  5
11CD
  8
SAPA_PROFIL
 62
     6
 10
90.292605357078116
 20
-70.177019326972825
 30
0.0
 11
91.054605357078117
 21
-70.177019326972825
 31
0.0
1001
GRADIENTCOLOR1ACI
1070
     5
1001
GRADIENTCOLOR2ACI
1070
     2
1001
ACAD
1010
0.0
1020
0.0
1030
0.0
  0
LINE
  5
11CE
  8
SAPA_PROFIL
 62
     6
 10
92.578605357078104
 20
-68.857196611276834
 30
0.0
 11
93.340605357078104
 21
-68.857196611276834
 31
0.0
1001
GRADIENTCOLOR1ACI
1070
     5
1001
GRADIENTCOLOR2ACI
1070
     2
1001
ACAD
1010
0.0
1020
0.0
1030
0.0
  0
LINE
  5
11CF
  8
SAPA_PROFIL
 62
     6
 10
90.292605357078116
 20
-68.857196611276834
 30
0.0
 11
91.054605357078117
 21
-68.857196611276834
 31
0.0
1001
GRADIENTCOLOR1ACI
1070
     5
1001
GRADIENTCOLOR2ACI
1070
     2
1001
ACAD
1010
0.0
1020
0.0
1030
0.0
  0
LINE
  5
11D0
  8
SAPA_PROFIL
 62
     6
 10
92.578605357078104
 20
-67.537373895580814
 30
0.0
 11
93.340605357078104
 21
-67.537373895580814
 31
0.0
1001
GRADIENTCOLOR1ACI
1070
     5
1001
GRADIENTCOLOR2ACI
1070
     2
1001
ACAD
1010
0.0
1020
0.0
1030
0.0
  0
LINE
  5
11D1
  8
SAPA_PROFIL
 62
     6
 10
90.292605357078116
 20
-67.537373895580814
 30
0.0
 11
91.054605357078117
 21
-67.537373895580814
 31
0.0
1001
GRADIENTCOLOR1ACI
1070
     5
1001
GRADIENTCOLOR2ACI
1070
     2
1001
ACAD
1010
0.0
1020
0.0
1030
0.0
  0
LINE
  5
11D2
  8
SAPA_PROFIL
 62
     6
 10
92.578605357078104
 20
-66.217551179884836
 30
0.0
 11
93.340605357078104
 21
-66.217551179884836
 31
0.0
1001
GRADIENTCOLOR1ACI
1070
     5
1001
GRADIENTCOLOR2ACI
1070
     2
1001
ACAD
1010
0.0
1020
0.0
1030
0.0
  0
LINE
  5
11D3
  8
SAPA_PROFIL
 62
     6
 10
90.292605357078116
 20
-66.217551179884836
 30
0.0
 11
91.054605357078117
 21
-66.217551179884836
 31
0.0
1001
GRADIENTCOLOR1ACI
1070
     5
1001
GRADIENTCOLOR2ACI
1070
     2
1001
ACAD
1010
0.0
1020
0.0
1030
0.0
  0
LINE
  5
11D4
  8
SAPA_PROFIL
 62
     6
 10
92.578605357078104
 20
-64.897728464188802
 30
0.0
 11
93.340605357078104
 21
-64.897728464188802
 31
0.0
1001
GRADIENTCOLOR1ACI
1070
     5
1001
GRADIENTCOLOR2ACI
1070
     2
1001
ACAD
1010
0.0
1020
0.0
1030
0.0
  0
LINE
  5
11D5
  8
SAPA_PROFIL
 62
     6
 10
90.292605357078116
 20
-64.897728464188802
 30
0.0
 11
91.054605357078117
 21
-64.897728464188802
 31
0.0
1001
GRADIENTCOLOR1ACI
1070
     5
1001
GRADIENTCOLOR2ACI
1070
     2
1001
ACAD
1010
0.0
1020
0.0
1030
0.0
  0
LINE
  5
11D6
  8
SAPA_PROFIL
 62
     6
 10
92.578605357078104
 20
-63.577905748492817
 30
0.0
 11
93.340605357078104
 21
-63.577905748492817
 31
0.0
1001
GRADIENTCOLOR1ACI
1070
     5
1001
GRADIENTCOLOR2ACI
1070
     2
1001
ACAD
1010
0.0
1020
0.0
1030
0.0
  0
LINE
  5
11D7
  8
SAPA_PROFIL
 62
     6
 10
90.292605357078116
 20
-63.577905748492817
 30
0.0
 11
91.054605357078117
 21
-63.577905748492817
 31
0.0
1001
GRADIENTCOLOR1ACI
1070
     5
1001
GRADIENTCOLOR2ACI
1070
     2
1001
ACAD
1010
0.0
1020
0.0
1030
0.0
  0
LINE
  5
11D8
  8
SAPA_PROFIL
 62
     6
 10
92.578605357078104
 20
-62.25808303279684
 30
0.0
 11
93.340605357078104
 21
-62.25808303279684
 31
0.0
1001
GRADIENTCOLOR1ACI
1070
     5
1001
GRADIENTCOLOR2ACI
1070
     2
1001
ACAD
1010
0.0
1020
0.0
1030
0.0
  0
LINE
  5
11D9
  8
SAPA_PROFIL
 62
     6
 10
90.292605357078116
 20
-62.25808303279684
 30
0.0
 11
91.054605357078117
 21
-62.25808303279684
 31
0.0
1001
GRADIENTCOLOR1ACI
1070
     5
1001
GRADIENTCOLOR2ACI
1070
     2
1001
ACAD
1010
0.0
1020
0.0
1030
0.0
  0
ARC
  5
11DA
  8
SAPA_PROFIL
 62
     6
 10
91.913907079535889
 20
-81.287156130483766
 30
0.1
 40
2.6229320513928198
 50
180.49160048098889
 51
5.8717807579984962
  0
LINE
  5
11DB
  8
SAPA_PROFIL
 62
     6
 10
89.308928418204815
 20
-63.785945306799121
 30
0.1
 11
89.291071574015987
 21
-81.309660734632956
 31
0.1
  0
ARC
  5
11DC
  8
SAPA_PROFIL
 62
     6
 10
91.901058732067526
 20
-64.175366263973714
 30
0.1
 40
2.6212188473938651
 50
10.673994043285299
 51
171.45623393932431
  0
LINE
  5
11DD
  8
SAPA_PROFIL
 62
     6
 10
94.523077455538456
 20
-81.018823323666609
 30
0.1
 11
94.476922544461118
 21
-63.689862540060041
 31
0.1
  0
POLYLINE
  5
11DE
  8
SAPA_PROFIL
  6
CONTINUOUS
 66
     1
 10
0.0
 20
0.0
 30
0.0
 70
     1
  0
VERTEX
  5
1837
  8
SAPA_PROFIL
  6
CONTINUOUS
 10
107.0831128836078
 20
-17.392202972650431
 30
0.0
  0
VERTEX
  5
1838
  8
SAPA_PROFIL
  6
CONTINUOUS
 10
91.94457742700061
 20
-16.97263948325843
 30
0.0
 42
0.2061234514950211
  0
VERTEX
  5
1839
  8
SAPA_PROFIL
  6
CONTINUOUS
 10
91.577171889139294
 20
-17.11889417384819
 30
0.0
  0
VERTEX
  5
183A
  8
SAPA_PROFIL
  6
CONTINUOUS
 10
89.646446609406496
 20
-19.049619453581311
 30
0.0
 42
-0.1989123673797024
  0
VERTEX
  5
183B
  8
SAPA_PROFIL
  6
CONTINUOUS
 10
89.292893218813177
 20
-19.19606606298813
 30
0.0
  0
VERTEX
  5
183C
  8
SAPA_PROFIL
  6
CONTINUOUS
 10
85.112115178948244
 20
-19.19606606298813
 30
0.0
 42
-0.6681786379193032
  0
VERTEX
  5
183D
  8
SAPA_PROFIL
  6
CONTINUOUS
 10
84.935338483651577
 20
-18.769289367691499
 30
0.0
  0
VERTEX
  5
183E
  8
SAPA_PROFIL
  6
CONTINUOUS
 10
85.922537522873284
 20
-17.78209032846982
 30
0.0
 42
-0.4584832902918763
  0
VERTEX
  5
183F
  8
SAPA_PROFIL
  6
CONTINUOUS
 10
87.433736337588186
 20
-17.894692272318188
 30
0.0
 42
0.2378770156285958
  0
VERTEX
  5
1840
  8
SAPA_PROFIL
  6
CONTINUOUS
 10
87.634759345970735
 20
-17.996066062985388
 30
0.0
  0
VERTEX
  5
1841
  8
SAPA_PROFIL
  6
CONTINUOUS
 10
88.795836943964957
 20
-17.996066062987619
 30
0.0
 42
0.1989123673801665
  0
VERTEX
  5
1842
  8
SAPA_PROFIL
  6
CONTINUOUS
 10
89.149390334559214
 20
-17.84961945358091
 30
0.0
  0
VERTEX
  5
1843
  8
SAPA_PROFIL
  6
CONTINUOUS
 10
89.499999999999773
 20
-17.499009788140452
 30
0.0
  0
VERTEX
  5
1844
  8
SAPA_PROFIL
  6
CONTINUOUS
 10
89.926807592545757
 20
-17.072052960548518
 30
0.0
 42
0.1988669396406054
  0
VERTEX
  5
1845
  8
SAPA_PROFIL
  6
CONTINUOUS
 10
89.999999999999758
 20
-16.895307167902409
 30
0.0
  0
VERTEX
  5
1846
  8
SAPA_PROFIL
  6
CONTINUOUS
 10
89.999999999999787
 20
-16.748833961065461
 30
0.0
 42
0.4142135623733282
  0
VERTEX
  5
1847
  8
SAPA_PROFIL
  6
CONTINUOUS
 10
89.750000999999585
 20
-16.498834961065452
 30
0.0
  0
VERTEX
  5
1848
  8
SAPA_PROFIL
  6
CONTINUOUS
 10
89.749999999999972
 20
-16.498834961065452
 30
0.0
 42
-0.4142135623732616
  0
VERTEX
  5
1849
  8
SAPA_PROFIL
  6
CONTINUOUS
 10
89.499999999999773
 20
-16.248834961065509
 30
0.0
  0
VERTEX
  5
184A
  8
SAPA_PROFIL
  6
CONTINUOUS
 10
89.499999999999744
 20
-15.74993515463157
 30
0.0
 42
-0.4209003450991805
  0
VERTEX
  5
184B
  8
SAPA_PROFIL
  6
CONTINUOUS
 10
89.755693510719595
 20
-15.49999999516865
 30
0.0
 42
0.0067990255081984
  0
VERTEX
  5
184C
  8
SAPA_PROFIL
  6
CONTINUOUS
 10
110.99779017170709
 20
-15.69496905457722
 30
0.0
 42
-0.4155086472897409
  0
VERTEX
  5
184D
  8
SAPA_PROFIL
  6
CONTINUOUS
 10
111.5000000000131
 20
-16.194964171212369
 30
0.0
  0
VERTEX
  5
184E
  8
SAPA_PROFIL
  6
CONTINUOUS
 10
111.4999999999997
 20
-53.894621399199018
 30
0.0
 42
-0.4142135623716549
  0
VERTEX
  5
184F
  8
SAPA_PROFIL
  6
CONTINUOUS
 10
111.1999999999997
 20
-54.194621399200336
 30
0.0
  0
VERTEX
  5
1850
  8
SAPA_PROFIL
  6
CONTINUOUS
 10
110.0000000000143
 20
-54.194621399200102
 30
0.0
 42
-0.4142135623732907
  0
VERTEX
  5
1851
  8
SAPA_PROFIL
  6
CONTINUOUS
 10
109.7000000000143
 20
-53.89462139919992
 30
0.0
  0
VERTEX
  5
1852
  8
SAPA_PROFIL
  6
CONTINUOUS
 10
109.70000000001519
 20
-52.694621399200507
 30
0.0
 42
0.4142135623732116
  0
VERTEX
  5
1853
  8
SAPA_PROFIL
  6
CONTINUOUS
 10
109.20000000001519
 20
-52.194621399200308
 30
0.0
  0
VERTEX
  5
1854
  8
SAPA_PROFIL
  6
CONTINUOUS
 10
100.30000000000101
 20
-52.194621399200322
 30
0.0
 42
-0.4142135623733198
  0
VERTEX
  5
1855
  8
SAPA_PROFIL
  6
CONTINUOUS
 10
100.00000000000109
 20
-51.89462139920014
 30
0.0
  0
VERTEX
  5
1856
  8
SAPA_PROFIL
  6
CONTINUOUS
 10
100.00000000000129
 20
-51.194621399200109
 30
0.0
 42
-0.4142135623728995
  0
VERTEX
  5
1857
  8
SAPA_PROFIL
  6
CONTINUOUS
 10
100.3000000000013
 20
-50.894621399200297
 30
0.0
  0
VERTEX
  5
1858
  8
SAPA_PROFIL
  6
CONTINUOUS
 10
109.5000000000046
 20
-50.89462139920041
 30
0.0
 42
0.4142135623716508
  0
VERTEX
  5
1859
  8
SAPA_PROFIL
  6
CONTINUOUS
 10
109.9999999999997
 20
-50.394621399200403
 30
0.0
  0
VERTEX
  5
185A
  8
SAPA_PROFIL
  6
CONTINUOUS
 10
109.9999999999997
 20
-32.996066062985527
 30
0.0
 42
0.41421356237163
  0
VERTEX
  5
185B
  8
SAPA_PROFIL
  6
CONTINUOUS
 10
109.4999999999997
 20
-32.496066062988028
 30
0.0
  0
VERTEX
  5
185C
  8
SAPA_PROFIL
  6
CONTINUOUS
 10
87.585827080635298
 20
-32.496066062988042
 30
0.0
 42
0.4663076581592616
  0
VERTEX
  5
185D
  8
SAPA_PROFIL
  6
CONTINUOUS
 10
87.290384754731647
 20
-32.84816051628804
 30
0.0
  0
VERTEX
  5
185E
  8
SAPA_PROFIL
  6
CONTINUOUS
 10
87.395442325903247
 20
-33.44397160968672
 30
0.0
 42
-0.7332303362587812
  0
VERTEX
  5
185F
  8
SAPA_PROFIL
  6
CONTINUOUS
 10
86.887867965643792
 20
-33.708198097344152
 30
0.0
  0
VERTEX
  5
1860
  8
SAPA_PROFIL
  6
CONTINUOUS
 10
84.887867965646407
 20
-31.708198097346639
 30
0.0
 42
-0.6681786379237062
  0
VERTEX
  5
1861
  8
SAPA_PROFIL
  6
CONTINUOUS
 10
85.099999999999824
 20
-31.196066062988152
 30
0.0
  0
VERTEX
  5
1862
  8
SAPA_PROFIL
  6
CONTINUOUS
 10
109.4999999999997
 20
-31.19606606298813
 30
0.0
 42
0.4142135623716217
  0
VERTEX
  5
1863
  8
SAPA_PROFIL
  6
CONTINUOUS
 10
109.9999999999997
 20
-30.696066062985629
 30
0.0
  0
VERTEX
  5
1864
  8
SAPA_PROFIL
  6
CONTINUOUS
 10
109.9999999999997
 20
-20.391051459749821
 30
0.0
 42
0.40612121347231
  0
SEQEND
  5
1865
  8
SAPA_PROFIL
  6
CONTINUOUS
  0
CIRCLE
  5
11DF
  8
SAPA_PROFIL
 62
     2
 10
-108.1679648137418
 20
-96.858006486412421
 30
0.0
 40
0.8999999999999985
  0
POLYLINE
  5
11E0
  8
SAPA_PROFIL
 62
     2
 66
     1
 10
0.0
 20
0.0
 30
0.0
  0
VERTEX
  5
1866
  8
SAPA_PROFIL
 62
     2
 10
-109.5679648137419
 20
-95.550000074839431
 30
0.0
  0
VERTEX
  5
1867
  8
SAPA_PROFIL
 62
     2
 10
-109.37560639374939
 20
-96.640918884992175
 30
0.0
  0
VERTEX
  5
1868
  8
SAPA_PROFIL
 62
     2
 10
-109.80740295365101
 20
-96.756618424512169
 30
0.0
 42
0.4430158954262519
  0
VERTEX
  5
1869
  8
SAPA_PROFIL
 62
     2
 10
-109.94288000119511
 20
-97.020094852619138
 30
0.0
  0
VERTEX
  5
186A
  8
SAPA_PROFIL
 62
     2
 10
-109.46593180797601
 20
-98.290582600537263
 30
0.0
 42
0.3125358528825162
  0
VERTEX
  5
186B
  8
SAPA_PROFIL
 62
     2
 10
-109.09145009484661
 20
-98.550000074838977
 30
0.0
  0
VERTEX
  5
186C
  8
SAPA_PROFIL
 62
     2
 10
-107.2212947789363
 20
-98.550000074839318
 30
0.0
 42
0.3125358528825104
  0
VERTEX
  5
186D
  8
SAPA_PROFIL
 62
     2
 10
-106.8468130658069
 20
-98.290582600537107
 30
0.0
  0
VERTEX
  5
186E
  8
SAPA_PROFIL
 62
     2
 10
-106.3698648725878
 20
-97.020094852618911
 30
0.0
 42
0.4430158954262519
  0
VERTEX
  5
186F
  8
SAPA_PROFIL
 62
     2
 10
-106.5053419201319
 20
-96.756618424512055
 30
0.0
  0
VERTEX
  5
1870
  8
SAPA_PROFIL
 62
     2
 10
-106.93713848003379
 20
-96.640918884992004
 30
0.0
  0
VERTEX
  5
1871
  8
SAPA_PROFIL
 62
     2
 10
-106.7448724368917
 20
-95.550000074839261
 30
0.0
  0
SEQEND
  5
1872
  8
SAPA_PROFIL
 62
     2
  0
POLYLINE
  5
11E1
  8
SAPA_PROFIL
 62
     2
 66
     1
 10
0.0
 20
0.0
 30
0.0
 70
     1
  0
VERTEX
  5
1873
  8
SAPA_PROFIL
 62
     2
 10
-109.55637243689161
 20
-95.550000074839431
 30
0.0
 42
-0.285714285714282
  0
VERTEX
  5
1874
  8
SAPA_PROFIL
 62
     2
 10
-106.7563724368916
 20
-95.550000074839261
 30
0.0
  0
VERTEX
  5
1875
  8
SAPA_PROFIL
 62
     2
 10
-104.68259226750369
 20
-95.550000074838692
 30
0.0
 42
0.3882600129940275
  0
VERTEX
  5
1876
  8
SAPA_PROFIL
 62
     2
 10
-104.38379077016231
 20
-95.276789348559078
 30
0.0
  0
VERTEX
  5
1877
  8
SAPA_PROFIL
 62
     2
 10
-103.91758084623611
 20
-91.376789348558987
 30
0.0
 42
0.4406523138893894
  0
VERTEX
  5
1878
  8
SAPA_PROFIL
 62
     2
 10
-104.21638234357791
 20
-91.05000007483909
 30
0.0
  0
VERTEX
  5
1879
  8
SAPA_PROFIL
 62
     2
 10
-105.92617434049821
 20
-91.050000074839204
 30
0.0
 42
0.3394542588634375
  0
VERTEX
  5
187A
  8
SAPA_PROFIL
 62
     2
 10
-106.2159520883848
 20
-91.272354361308203
 30
0.0
  0
VERTEX
  5
187B
  8
SAPA_PROFIL
 62
     2
 10
-106.4183318163162
 20
-91.489940143475835
 30
0.0
 42
-0.3394542588633663
  0
VERTEX
  5
187C
  8
SAPA_PROFIL
 62
     2
 10
-106.708109564203
 20
-91.712294429944848
 30
0.0
  0
VERTEX
  5
187D
  8
SAPA_PROFIL
 62
     2
 10
-109.6046353095809
 20
-91.712294429945004
 30
0.0
 42
-0.3394542588634373
  0
VERTEX
  5
187E
  8
SAPA_PROFIL
 62
     2
 10
-109.8944130574674
 20
-91.489940143476076
 30
0.0
  0
VERTEX
  5
187F
  8
SAPA_PROFIL
 62
     2
 10
-110.0967927853988
 20
-91.272354361308487
 30
0.0
 42
0.3394542588633662
  0
VERTEX
  5
1880
  8
SAPA_PROFIL
 62
     2
 10
-110.38657053328561
 20
-91.050000074839488
 30
0.0
  0
VERTEX
  5
1881
  8
SAPA_PROFIL
 62
     2
 10
-112.0963625302057
 20
-91.050000074839602
 30
0.0
 42
0.4406523138893994
  0
VERTEX
  5
1882
  8
SAPA_PROFIL
 62
     2
 10
-112.3951640275473
 20
-91.376789348559555
 30
0.0
  0
VERTEX
  5
1883
  8
SAPA_PROFIL
 62
     2
 10
-111.9289541036208
 20
-95.276789348559589
 30
0.0
 42
0.3882600129940462
  0
VERTEX
  5
1884
  8
SAPA_PROFIL
 62
     2
 10
-111.6301526062794
 20
-95.550000074839588
 30
0.0
  0
VERTEX
  5
1885
  8
SAPA_PROFIL
 62
     2
 10
-109.5679648137419
 20
-95.550000074839431
 30
0.0
  0
SEQEND
  5
1886
  8
SAPA_PROFIL
 62
     2
  0
LINE
  5
11E2
  8
SAPA_PROFIL
 62
     6
 10
-89.885394650318858
 20
-80.735601142225775
 30
0.0
 11
-89.504394650318858
 21
-80.075689784542035
 31
0.0
1001
GRADIENTCOLOR1ACI
1070
     5
1001
GRADIENTCOLOR2ACI
1070
     2
1001
ACAD
1010
0.0
1020
0.0
1030
0.0
  0
LINE
  5
11E3
  8
SAPA_PROFIL
 62
     6
 10
-91.028394650318859
 20
-82.715335215276994
 30
0.0
 11
-90.647394650318859
 21
-82.055423857593254
 31
0.0
1001
GRADIENTCOLOR1ACI
1070
     5
1001
GRADIENTCOLOR2ACI
1070
     2
1001
ACAD
1010
0.0
1020
0.0
1030
0.0
  0
LINE
  5
11E4
  8
SAPA_PROFIL
 62
     6
 10
-89.885394650603388
 20
-78.095955711326511
 30
0.0
 11
-89.504394650603388
 21
-77.436044353642771
 31
0.0
1001
GRADIENTCOLOR1ACI
1070
     5
1001
GRADIENTCOLOR2ACI
1070
     2
1001
ACAD
1010
0.0
1020
0.0
1030
0.0
  0
LINE
  5
11E5
  8
SAPA_PROFIL
 62
     6
 10
-91.028394650603389
 20
-80.075689784377715
 30
0.0
 11
-90.647394650603388
 21
-79.41577842669399
 31
0.0
1001
GRADIENTCOLOR1ACI
1070
     5
1001
GRADIENTCOLOR2ACI
1070
     2
1001
ACAD
1010
0.0
1020
0.0
1030
0.0
  0
LINE
  5
11E6
  8
SAPA_PROFIL
 62
     6
 10
-92.171394650603389
 20
-82.055423857428934
 30
0.0
 11
-91.790394650603389
 21
-81.395512499745209
 31
0.0
1001
GRADIENTCOLOR1ACI
1070
     5
1001
GRADIENTCOLOR2ACI
1070
     2
1001
ACAD
1010
0.0
1020
0.0
1030
0.0
  0
LINE
  5
11E7
  8
SAPA_PROFIL
 62
     6
 10
-93.083341753105088
 20
-83.634962572777113
 30
0.0
 11
-92.933394650603404
 21
-83.375246572796414
 31
0.0
1001
GRADIENTCOLOR1ACI
1070
     5
1001
GRADIENTCOLOR2ACI
1070
     2
1001
ACAD
1010
0.0
1020
0.0
1030
0.0
  0
LINE
  5
11E8
  8
SAPA_PROFIL
 62
     6
 10
-89.885394650887861
 20
-75.456310280427303
 30
0.0
 11
-89.504394650887861
 21
-74.796398922743577
 31
0.0
1001
GRADIENTCOLOR1ACI
1070
     5
1001
GRADIENTCOLOR2ACI
1070
     2
1001
ACAD
1010
0.0
1020
0.0
1030
0.0
  0
LINE
  5
11E9
  8
SAPA_PROFIL
 62
     6
 10
-91.028394650887861
 20
-77.436044353478536
 30
0.0
 11
-90.647394650887861
 21
-76.776132995794796
 31
0.0
1001
GRADIENTCOLOR1ACI
1070
     5
1001
GRADIENTCOLOR2ACI
1070
     2
1001
ACAD
1010
0.0
1020
0.0
1030
0.0
  0
LINE
  5
11EA
  8
SAPA_PROFIL
 62
     6
 10
-92.171394650887862
 20
-79.415778426529755
 30
0.0
 11
-91.790394650887862
 21
-78.755867068846015
 31
0.0
1001
GRADIENTCOLOR1ACI
1070
     5
1001
GRADIENTCOLOR2ACI
1070
     2
1001
ACAD
1010
0.0
1020
0.0
1030
0.0
  0
LINE
  5
11EB
  8
SAPA_PROFIL
 62
     6
 10
-93.314394650887863
 20
-81.395512499580974
 30
0.0
 11
-92.933394650887863
 21
-80.735601141897234
 31
0.0
1001
GRADIENTCOLOR1ACI
1070
     5
1001
GRADIENTCOLOR2ACI
1070
     2
1001
ACAD
1010
0.0
1020
0.0
1030
0.0
  0
LINE
  5
11EC
  8
SAPA_PROFIL
 62
     6
 10
-94.093919483140553
 20
-82.745689114804236
 30
0.0
 11
-94.076394650887863
 21
-82.715335214948453
 31
0.0
1001
GRADIENTCOLOR1ACI
1070
     5
1001
GRADIENTCOLOR2ACI
1070
     2
1001
ACAD
1010
0.0
1020
0.0
1030
0.0
  0
LINE
  5
11ED
  8
SAPA_PROFIL
 62
     6
 10
-89.885394651172362
 20
-72.816664849528109
 30
0.0
 11
-89.504394651172362
 21
-72.156753491844356
 31
0.0
1001
GRADIENTCOLOR1ACI
1070
     5
1001
GRADIENTCOLOR2ACI
1070
     2
1001
ACAD
1010
0.0
1020
0.0
1030
0.0
  0
LINE
  5
11EE
  8
SAPA_PROFIL
 62
     6
 10
-91.028394651172363
 20
-74.796398922579328
 30
0.0
 11
-90.647394651172363
 21
-74.136487564895589
 31
0.0
1001
GRADIENTCOLOR1ACI
1070
     5
1001
GRADIENTCOLOR2ACI
1070
     2
1001
ACAD
1010
0.0
1020
0.0
1030
0.0
  0
LINE
  5
11EF
  8
SAPA_PROFIL
 62
     6
 10
-92.171394651172363
 20
-76.776132995630547
 30
0.0
 11
-91.790394651172363
 21
-76.116221637946808
 31
0.0
1001
GRADIENTCOLOR1ACI
1070
     5
1001
GRADIENTCOLOR2ACI
1070
     2
1001
ACAD
1010
0.0
1020
0.0
1030
0.0
  0
LINE
  5
11F0
  8
SAPA_PROFIL
 62
     6
 10
-93.314394651172364
 20
-78.755867068681766
 30
0.0
 11
-92.933394651172364
 21
-78.095955710998027
 31
0.0
1001
GRADIENTCOLOR1ACI
1070
     5
1001
GRADIENTCOLOR2ACI
1070
     2
1001
ACAD
1010
0.0
1020
0.0
1030
0.0
  0
LINE
  5
11F1
  8
SAPA_PROFIL
 62
     6
 10
-94.457394651172365
 20
-80.735601141732985
 30
0.0
 11
-94.076394651172365
 21
-80.075689784049246
 31
0.0
1001
GRADIENTCOLOR1ACI
1070
     5
1001
GRADIENTCOLOR2ACI
1070
     2
1001
ACAD
1010
0.0
1020
0.0
1030
0.0
  0
LINE
  5
11F2
  8
SAPA_PROFIL
 62
     6
 10
-89.885394651456863
 20
-70.177019418628859
 30
0.0
 11
-89.504394651456863
 21
-69.51710806094512
 31
0.0
1001
GRADIENTCOLOR1ACI
1070
     5
1001
GRADIENTCOLOR2ACI
1070
     2
1001
ACAD
1010
0.0
1020
0.0
1030
0.0
  0
LINE
  5
11F3
  8
SAPA_PROFIL
 62
     6
 10
-91.028394651456864
 20
-72.156753491680078
 30
0.0
 11
-90.647394651456864
 21
-71.496842133996338
 31
0.0
1001
GRADIENTCOLOR1ACI
1070
     5
1001
GRADIENTCOLOR2ACI
1070
     2
1001
ACAD
1010
0.0
1020
0.0
1030
0.0
  0
LINE
  5
11F4
  8
SAPA_PROFIL
 62
     6
 10
-92.171394651456865
 20
-74.136487564731297
 30
0.0
 11
-91.790394651456864
 21
-73.476576207047543
 31
0.0
1001
GRADIENTCOLOR1ACI
1070
     5
1001
GRADIENTCOLOR2ACI
1070
     2
1001
ACAD
1010
0.0
1020
0.0
1030
0.0
  0
LINE
  5
11F5
  8
SAPA_PROFIL
 62
     6
 10
-93.314394651456865
 20
-76.116221637782516
 30
0.0
 11
-92.933394651456865
 21
-75.456310280098776
 31
0.0
1001
GRADIENTCOLOR1ACI
1070
     5
1001
GRADIENTCOLOR2ACI
1070
     2
1001
ACAD
1010
0.0
1020
0.0
1030
0.0
  0
LINE
  5
11F6
  8
SAPA_PROFIL
 62
     6
 10
-94.457394651456866
 20
-78.095955710833735
 30
0.0
 11
-94.076394651456866
 21
-77.436044353149995
 31
0.0
1001
GRADIENTCOLOR1ACI
1070
     5
1001
GRADIENTCOLOR2ACI
1070
     2
1001
ACAD
1010
0.0
1020
0.0
1030
0.0
  0
LINE
  5
11F7
  8
SAPA_PROFIL
 62
     6
 10
-89.885394651741365
 20
-67.537373987729652
 30
0.0
 11
-89.504394651741364
 21
-66.877462630045912
 31
0.0
1001
GRADIENTCOLOR1ACI
1070
     5
1001
GRADIENTCOLOR2ACI
1070
     2
1001
ACAD
1010
0.0
1020
0.0
1030
0.0
  0
LINE
  5
11F8
  8
SAPA_PROFIL
 62
     6
 10
-91.028394651741365
 20
-69.51710806078087
 30
0.0
 11
-90.647394651741365
 21
-68.857196703097131
 31
0.0
1001
GRADIENTCOLOR1ACI
1070
     5
1001
GRADIENTCOLOR2ACI
1070
     2
1001
ACAD
1010
0.0
1020
0.0
1030
0.0
  0
LINE
  5
11F9
  8
SAPA_PROFIL
 62
     6
 10
-92.171394651741366
 20
-71.496842133832089
 30
0.0
 11
-91.790394651741366
 21
-70.83693077614835
 31
0.0
1001
GRADIENTCOLOR1ACI
1070
     5
1001
GRADIENTCOLOR2ACI
1070
     2
1001
ACAD
1010
0.0
1020
0.0
1030
0.0
  0
LINE
  5
11FA
  8
SAPA_PROFIL
 62
     6
 10
-93.314394651741367
 20
-73.476576206883294
 30
0.0
 11
-92.933394651741366
 21
-72.816664849199569
 31
0.0
1001
GRADIENTCOLOR1ACI
1070
     5
1001
GRADIENTCOLOR2ACI
1070
     2
1001
ACAD
1010
0.0
1020
0.0
1030
0.0
  0
LINE
  5
11FB
  8
SAPA_PROFIL
 62
     6
 10
-94.457394651741367
 20
-75.456310279934527
 30
0.0
 11
-94.076394651741367
 21
-74.796398922250788
 31
0.0
1001
GRADIENTCOLOR1ACI
1070
     5
1001
GRADIENTCOLOR2ACI
1070
     2
1001
ACAD
1010
0.0
1020
0.0
1030
0.0
  0
LINE
  5
11FC
  8
SAPA_PROFIL
 62
     6
 10
-89.885394652025866
 20
-64.897728556830415
 30
0.0
 11
-89.504394652025866
 21
-64.23781719914669
 31
0.0
1001
GRADIENTCOLOR1ACI
1070
     5
1001
GRADIENTCOLOR2ACI
1070
     2
1001
ACAD
1010
0.0
1020
0.0
1030
0.0
  0
LINE
  5
11FD
  8
SAPA_PROFIL
 62
     6
 10
-91.028394652025867
 20
-66.877462629881649
 30
0.0
 11
-90.647394652025866
 21
-66.217551272197909
 31
0.0
1001
GRADIENTCOLOR1ACI
1070
     5
1001
GRADIENTCOLOR2ACI
1070
     2
1001
ACAD
1010
0.0
1020
0.0
1030
0.0
  0
LINE
  5
11FE
  8
SAPA_PROFIL
 62
     6
 10
-92.171394652025867
 20
-68.857196702932868
 30
0.0
 11
-91.790394652025867
 21
-68.197285345249114
 31
0.0
1001
GRADIENTCOLOR1ACI
1070
     5
1001
GRADIENTCOLOR2ACI
1070
     2
1001
ACAD
1010
0.0
1020
0.0
1030
0.0
  0
LINE
  5
11FF
  8
SAPA_PROFIL
 62
     6
 10
-93.314394652025868
 20
-70.836930775984086
 30
0.0
 11
-92.933394652025868
 21
-70.177019418300347
 31
0.0
1001
GRADIENTCOLOR1ACI
1070
     5
1001
GRADIENTCOLOR2ACI
1070
     2
1001
ACAD
1010
0.0
1020
0.0
1030
0.0
  0
LINE
  5
1200
  8
SAPA_PROFIL
 62
     6
 10
-94.457394652025869
 20
-72.816664849035305
 30
0.0
 11
-94.076394652025868
 21
-72.156753491351566
 31
0.0
1001
GRADIENTCOLOR1ACI
1070
     5
1001
GRADIENTCOLOR2ACI
1070
     2
1001
ACAD
1010
0.0
1020
0.0
1030
0.0
  0
LINE
  5
1201
  8
SAPA_PROFIL
 62
     6
 10
-91.028394652310325
 20
-64.237817198982441
 30
0.0
 11
-90.647394652310325
 21
-63.577905841298701
 31
0.0
1001
GRADIENTCOLOR1ACI
1070
     5
1001
GRADIENTCOLOR2ACI
1070
     2
1001
ACAD
1010
0.0
1020
0.0
1030
0.0
  0
LINE
  5
1202
  8
SAPA_PROFIL
 62
     6
 10
-92.171394652310326
 20
-66.21755127203366
 30
0.0
 11
-91.790394652310326
 21
-65.55763991434992
 31
0.0
1001
GRADIENTCOLOR1ACI
1070
     5
1001
GRADIENTCOLOR2ACI
1070
     2
1001
ACAD
1010
0.0
1020
0.0
1030
0.0
  0
LINE
  5
1203
  8
SAPA_PROFIL
 62
     6
 10
-93.314394652310327
 20
-68.197285345084879
 30
0.0
 11
-92.933394652310326
 21
-67.537373987401125
 31
0.0
1001
GRADIENTCOLOR1ACI
1070
     5
1001
GRADIENTCOLOR2ACI
1070
     2
1001
ACAD
1010
0.0
1020
0.0
1030
0.0
  0
LINE
  5
1204
  8
SAPA_PROFIL
 62
     6
 10
-94.457394652310327
 20
-70.177019418136084
 30
0.0
 11
-94.076394652310327
 21
-69.517108060452358
 31
0.0
1001
GRADIENTCOLOR1ACI
1070
     5
1001
GRADIENTCOLOR2ACI
1070
     2
1001
ACAD
1010
0.0
1020
0.0
1030
0.0
  0
LINE
  5
1205
  8
SAPA_PROFIL
 62
     6
 10
-92.171394652594785
 20
-63.57790584113431
 30
0.0
 11
-91.790394652594784
 21
-62.917994483450563
 31
0.0
1001
GRADIENTCOLOR1ACI
1070
     5
1001
GRADIENTCOLOR2ACI
1070
     2
1001
ACAD
1010
0.0
1020
0.0
1030
0.0
  0
LINE
  5
1206
  8
SAPA_PROFIL
 62
     6
 10
-93.314394652594785
 20
-65.557639914185529
 30
0.0
 11
-92.933394652594785
 21
-64.897728556501789
 31
0.0
1001
GRADIENTCOLOR1ACI
1070
     5
1001
GRADIENTCOLOR2ACI
1070
     2
1001
ACAD
1010
0.0
1020
0.0
1030
0.0
  0
LINE
  5
1207
  8
SAPA_PROFIL
 62
     6
 10
-94.457394652594786
 20
-67.537373987236748
 30
0.0
 11
-94.076394652594786
 21
-66.877462629552994
 31
0.0
1001
GRADIENTCOLOR1ACI
1070
     5
1001
GRADIENTCOLOR2ACI
1070
     2
1001
ACAD
1010
0.0
1020
0.0
1030
0.0
  0
LINE
  5
1208
  8
SAPA_PROFIL
 62
     6
 10
-93.314394652879415
 20
-62.917994483286407
 30
0.0
 11
-92.933394652879414
 21
-62.258083125602681
 31
0.0
1001
GRADIENTCOLOR1ACI
1070
     5
1001
GRADIENTCOLOR2ACI
1070
     2
1001
ACAD
1010
0.0
1020
0.0
1030
0.0
  0
LINE
  5
1209
  8
SAPA_PROFIL
 62
     6
 10
-94.457394652879415
 20
-64.89772855633764
 30
0.0
 11
-94.076394652879415
 21
-64.2378171986539
 31
0.0
1001
GRADIENTCOLOR1ACI
1070
     5
1001
GRADIENTCOLOR2ACI
1070
     2
1001
ACAD
1010
0.0
1020
0.0
1030
0.0
  0
LINE
  5
120A
  8
SAPA_PROFIL
 62
     6
 10
-90.647394566959235
 20
-62.258083087495073
 30
0.0
 11
-90.950882350005784
 21
-61.732426827781943
 31
0.0
1001
GRADIENTCOLOR1ACI
1070
     5
1001
GRADIENTCOLOR2ACI
1070
     2
1001
ACAD
1010
0.0
1020
0.0
1030
0.0
  0
LINE
  5
120B
  8
SAPA_PROFIL
 62
     6
 10
-89.504394566959235
 20
-64.2378171605463
 30
0.0
 11
-89.885394566959235
 21
-63.577905802862553
 31
0.0
1001
GRADIENTCOLOR1ACI
1070
     5
1001
GRADIENTCOLOR2ACI
1070
     2
1001
ACAD
1010
0.0
1020
0.0
1030
0.0
  0
LINE
  5
120C
  8
SAPA_PROFIL
 62
     6
 10
-91.790394567243794
 20
-62.917994445343012
 30
0.0
 11
-92.171394567243794
 21
-62.258083087659273
 31
0.0
1001
GRADIENTCOLOR1ACI
1070
     5
1001
GRADIENTCOLOR2ACI
1070
     2
1001
ACAD
1010
0.0
1020
0.0
1030
0.0
  0
LINE
  5
120D
  8
SAPA_PROFIL
 62
     6
 10
-90.647394567243794
 20
-64.897728518394231
 30
0.0
 11
-91.028394567243794
 21
-64.237817160710492
 31
0.0
1001
GRADIENTCOLOR1ACI
1070
     5
1001
GRADIENTCOLOR2ACI
1070
     2
1001
ACAD
1010
0.0
1020
0.0
1030
0.0
  0
LINE
  5
120E
  8
SAPA_PROFIL
 62
     6
 10
-89.504394567243807
 20
-66.87746259144545
 30
0.0
 11
-89.885394567243793
 21
-66.217551233761711
 31
0.0
1001
GRADIENTCOLOR1ACI
1070
     5
1001
GRADIENTCOLOR2ACI
1070
     2
1001
ACAD
1010
0.0
1020
0.0
1030
0.0
  0
LINE
  5
120F
  8
SAPA_PROFIL
 62
     6
 10
-92.933394567528225
 20
-63.577905803191051
 30
0.0
 11
-93.314394567528225
 21
-62.917994445507311
 31
0.0
1001
GRADIENTCOLOR1ACI
1070
     5
1001
GRADIENTCOLOR2ACI
1070
     2
1001
ACAD
1010
0.0
1020
0.0
1030
0.0
  0
LINE
  5
1210
  8
SAPA_PROFIL
 62
     6
 10
-91.790394567528224
 20
-65.557639876242277
 30
0.0
 11
-92.171394567528225
 21
-64.897728518558523
 31
0.0
1001
GRADIENTCOLOR1ACI
1070
     5
1001
GRADIENTCOLOR2ACI
1070
     2
1001
ACAD
1010
0.0
1020
0.0
1030
0.0
  0
LINE
  5
1211
  8
SAPA_PROFIL
 62
     6
 10
-90.647394567528224
 20
-67.537373949293496
 30
0.0
 11
-91.028394567528224
 21
-66.877462591609756
 31
0.0
1001
GRADIENTCOLOR1ACI
1070
     5
1001
GRADIENTCOLOR2ACI
1070
     2
1001
ACAD
1010
0.0
1020
0.0
1030
0.0
  0
LINE
  5
1212
  8
SAPA_PROFIL
 62
     6
 10
-89.504394567528223
 20
-69.517108022344715
 30
0.0
 11
-89.885394567528223
 21
-68.857196664660975
 31
0.0
1001
GRADIENTCOLOR1ACI
1070
     5
1001
GRADIENTCOLOR2ACI
1070
     2
1001
ACAD
1010
0.0
1020
0.0
1030
0.0
  0
LINE
  5
1213
  8
SAPA_PROFIL
 62
     6
 10
-94.076394567812784
 20
-64.237817161039089
 30
0.0
 11
-94.454462646004416
 21
-63.582984040891262
 31
0.0
1001
GRADIENTCOLOR1ACI
1070
     5
1001
GRADIENTCOLOR2ACI
1070
     2
1001
ACAD
1010
0.0
1020
0.0
1030
0.0
  0
LINE
  5
1214
  8
SAPA_PROFIL
 62
     6
 10
-92.933394567812783
 20
-66.217551234090294
 30
0.0
 11
-93.314394567812784
 21
-65.557639876406569
 31
0.0
1001
GRADIENTCOLOR1ACI
1070
     5
1001
GRADIENTCOLOR2ACI
1070
     2
1001
ACAD
1010
0.0
1020
0.0
1030
0.0
  0
LINE
  5
1215
  8
SAPA_PROFIL
 62
     6
 10
-91.790394567812783
 20
-68.197285307141527
 30
0.0
 11
-92.171394567812783
 21
-67.537373949457788
 31
0.0
1001
GRADIENTCOLOR1ACI
1070
     5
1001
GRADIENTCOLOR2ACI
1070
     2
1001
ACAD
1010
0.0
1020
0.0
1030
0.0
  0
LINE
  5
1216
  8
SAPA_PROFIL
 62
     6
 10
-90.647394567812782
 20
-70.177019380192746
 30
0.0
 11
-91.028394567812782
 21
-69.517108022509007
 31
0.0
1001
GRADIENTCOLOR1ACI
1070
     5
1001
GRADIENTCOLOR2ACI
1070
     2
1001
ACAD
1010
0.0
1020
0.0
1030
0.0
  0
LINE
  5
1217
  8
SAPA_PROFIL
 62
     6
 10
-89.504394567812781
 20
-72.156753453243965
 30
0.0
 11
-89.885394567812781
 21
-71.496842095560226
 31
0.0
1001
GRADIENTCOLOR1ACI
1070
     5
1001
GRADIENTCOLOR2ACI
1070
     2
1001
ACAD
1010
0.0
1020
0.0
1030
0.0
  0
LINE
  5
1218
  8
SAPA_PROFIL
 62
     6
 10
-94.076394568097257
 20
-66.877462591938254
 30
0.0
 11
-94.457394568097257
 21
-66.217551234254515
 31
0.0
1001
GRADIENTCOLOR1ACI
1070
     5
1001
GRADIENTCOLOR2ACI
1070
     2
1001
ACAD
1010
0.0
1020
0.0
1030
0.0
  0
LINE
  5
1219
  8
SAPA_PROFIL
 62
     6
 10
-92.933394568097256
 20
-68.857196664989473
 30
0.0
 11
-93.314394568097256
 21
-68.197285307305734
 31
0.0
1001
GRADIENTCOLOR1ACI
1070
     5
1001
GRADIENTCOLOR2ACI
1070
     2
1001
ACAD
1010
0.0
1020
0.0
1030
0.0
  0
LINE
  5
121A
  8
SAPA_PROFIL
 62
     6
 10
-91.790394568097256
 20
-70.836930738040692
 30
0.0
 11
-92.171394568097256
 21
-70.177019380356953
 31
0.0
1001
GRADIENTCOLOR1ACI
1070
     5
1001
GRADIENTCOLOR2ACI
1070
     2
1001
ACAD
1010
0.0
1020
0.0
1030
0.0
  0
LINE
  5
121B
  8
SAPA_PROFIL
 62
     6
 10
-90.647394568097255
 20
-72.816664811091911
 30
0.0
 11
-91.028394568097255
 21
-72.156753453408172
 31
0.0
1001
GRADIENTCOLOR1ACI
1070
     5
1001
GRADIENTCOLOR2ACI
1070
     2
1001
ACAD
1010
0.0
1020
0.0
1030
0.0
  0
LINE
  5
121C
  8
SAPA_PROFIL
 62
     6
 10
-89.504394568097254
 20
-74.79639888414313
 30
0.0
 11
-89.885394568097254
 21
-74.136487526459391
 31
0.0
1001
GRADIENTCOLOR1ACI
1070
     5
1001
GRADIENTCOLOR2ACI
1070
     2
1001
ACAD
1010
0.0
1020
0.0
1030
0.0
  0
LINE
  5
121D
  8
SAPA_PROFIL
 62
     6
 10
-94.076394568381815
 20
-69.517108022837519
 30
0.0
 11
-94.457394568381815
 21
-68.857196665153765
 31
0.0
1001
GRADIENTCOLOR1ACI
1070
     5
1001
GRADIENTCOLOR2ACI
1070
     2
1001
ACAD
1010
0.0
1020
0.0
1030
0.0
  0
LINE
  5
121E
  8
SAPA_PROFIL
 62
     6
 10
-92.933394568381814
 20
-71.496842095888724
 30
0.0
 11
-93.314394568381815
 21
-70.836930738204998
 31
0.0
1001
GRADIENTCOLOR1ACI
1070
     5
1001
GRADIENTCOLOR2ACI
1070
     2
1001
ACAD
1010
0.0
1020
0.0
1030
0.0
  0
LINE
  5
121F
  8
SAPA_PROFIL
 62
     6
 10
-91.790394568381814
 20
-73.476576168939957
 30
0.0
 11
-92.171394568381814
 21
-72.816664811256217
 31
0.0
1001
GRADIENTCOLOR1ACI
1070
     5
1001
GRADIENTCOLOR2ACI
1070
     2
1001
ACAD
1010
0.0
1020
0.0
1030
0.0
  0
LINE
  5
1220
  8
SAPA_PROFIL
 62
     6
 10
-90.647394568381799
 20
-75.456310241991176
 30
0.0
 11
-91.028394568381799
 21
-74.796398884307436
 31
0.0
1001
GRADIENTCOLOR1ACI
1070
     5
1001
GRADIENTCOLOR2ACI
1070
     2
1001
ACAD
1010
0.0
1020
0.0
1030
0.0
  0
LINE
  5
1221
  8
SAPA_PROFIL
 62
     6
 10
-89.504394568381798
 20
-77.436044315042395
 30
0.0
 11
-89.885394568381798
 21
-76.776132957358655
 31
0.0
1001
GRADIENTCOLOR1ACI
1070
     5
1001
GRADIENTCOLOR2ACI
1070
     2
1001
ACAD
1010
0.0
1020
0.0
1030
0.0
  0
LINE
  5
1222
  8
SAPA_PROFIL
 62
     6
 10
-94.076394568666288
 20
-72.156753453736712
 30
0.0
 11
-94.457394568666288
 21
-71.496842096052973
 31
0.0
1001
GRADIENTCOLOR1ACI
1070
     5
1001
GRADIENTCOLOR2ACI
1070
     2
1001
ACAD
1010
0.0
1020
0.0
1030
0.0
  0
LINE
  5
1223
  8
SAPA_PROFIL
 62
     6
 10
-92.933394568666287
 20
-74.136487526787931
 30
0.0
 11
-93.314394568666287
 21
-73.476576169104192
 31
0.0
1001
GRADIENTCOLOR1ACI
1070
     5
1001
GRADIENTCOLOR2ACI
1070
     2
1001
ACAD
1010
0.0
1020
0.0
1030
0.0
  0
LINE
  5
1224
  8
SAPA_PROFIL
 62
     6
 10
-91.790394568666287
 20
-76.11622159983915
 30
0.0
 11
-92.171394568666287
 21
-75.456310242155411
 31
0.0
1001
GRADIENTCOLOR1ACI
1070
     5
1001
GRADIENTCOLOR2ACI
1070
     2
1001
ACAD
1010
0.0
1020
0.0
1030
0.0
  0
LINE
  5
1225
  8
SAPA_PROFIL
 62
     6
 10
-90.647394568666286
 20
-78.095955672890355
 30
0.0
 11
-91.028394568666286
 21
-77.43604431520663
 31
0.0
1001
GRADIENTCOLOR1ACI
1070
     5
1001
GRADIENTCOLOR2ACI
1070
     2
1001
ACAD
1010
0.0
1020
0.0
1030
0.0
  0
LINE
  5
1226
  8
SAPA_PROFIL
 62
     6
 10
-89.504394568666285
 20
-80.075689745941588
 30
0.0
 11
-89.885394568666285
 21
-79.415778388257849
 31
0.0
1001
GRADIENTCOLOR1ACI
1070
     5
1001
GRADIENTCOLOR2ACI
1070
     2
1001
ACAD
1010
0.0
1020
0.0
1030
0.0
  0
LINE
  5
1227
  8
SAPA_PROFIL
 62
     6
 10
-94.076394568950803
 20
-74.796398884635963
 30
0.0
 11
-94.457394568950804
 21
-74.136487526952223
 31
0.0
1001
GRADIENTCOLOR1ACI
1070
     5
1001
GRADIENTCOLOR2ACI
1070
     2
1001
ACAD
1010
0.0
1020
0.0
1030
0.0
  0
LINE
  5
1228
  8
SAPA_PROFIL
 62
     6
 10
-92.933394568950817
 20
-76.776132957687182
 30
0.0
 11
-93.314394568950803
 21
-76.116221600003442
 31
0.0
1001
GRADIENTCOLOR1ACI
1070
     5
1001
GRADIENTCOLOR2ACI
1070
     2
1001
ACAD
1010
0.0
1020
0.0
1030
0.0
  0
LINE
  5
1229
  8
SAPA_PROFIL
 62
     6
 10
-91.790394568950816
 20
-78.755867030738401
 30
0.0
 11
-92.171394568950817
 21
-78.095955673054661
 31
0.0
1001
GRADIENTCOLOR1ACI
1070
     5
1001
GRADIENTCOLOR2ACI
1070
     2
1001
ACAD
1010
0.0
1020
0.0
1030
0.0
  0
LINE
  5
122A
  8
SAPA_PROFIL
 62
     6
 10
-90.647394568950816
 20
-80.735601103789605
 30
0.0
 11
-91.028394568950816
 21
-80.07568974610588
 31
0.0
1001
GRADIENTCOLOR1ACI
1070
     5
1001
GRADIENTCOLOR2ACI
1070
     2
1001
ACAD
1010
0.0
1020
0.0
1030
0.0
  0
LINE
  5
122B
  8
SAPA_PROFIL
 62
     6
 10
-89.607637483368393
 20
-82.536513203548083
 30
0.0
 11
-89.885394568950815
 21
-82.055423819157099
 31
0.0
1001
GRADIENTCOLOR1ACI
1070
     5
1001
GRADIENTCOLOR2ACI
1070
     2
1001
ACAD
1010
0.0
1020
0.0
1030
0.0
  0
LINE
  5
122C
  8
SAPA_PROFIL
 62
     6
 10
-94.076394569235305
 20
-77.436044315535185
 30
0.0
 11
-94.457394569235305
 21
-76.776132957851445
 31
0.0
1001
GRADIENTCOLOR1ACI
1070
     5
1001
GRADIENTCOLOR2ACI
1070
     2
1001
ACAD
1010
0.0
1020
0.0
1030
0.0
  0
LINE
  5
122D
  8
SAPA_PROFIL
 62
     6
 10
-92.933394569235304
 20
-79.415778388586403
 30
0.0
 11
-93.314394569235304
 21
-78.755867030902664
 31
0.0
1001
GRADIENTCOLOR1ACI
1070
     5
1001
GRADIENTCOLOR2ACI
1070
     2
1001
ACAD
1010
0.0
1020
0.0
1030
0.0
  0
LINE
  5
122E
  8
SAPA_PROFIL
 62
     6
 10
-91.790394569235303
 20
-81.395512461637622
 30
0.0
 11
-92.171394569235304
 21
-80.735601103953897
 31
0.0
1001
GRADIENTCOLOR1ACI
1070
     5
1001
GRADIENTCOLOR2ACI
1070
     2
1001
ACAD
1010
0.0
1020
0.0
1030
0.0
  0
LINE
  5
122F
  8
SAPA_PROFIL
 62
     6
 10
-90.647394569235317
 20
-83.375246534688841
 30
0.0
 11
-91.028394569235303
 21
-82.715335177005088
 31
0.0
1001
GRADIENTCOLOR1ACI
1070
     5
1001
GRADIENTCOLOR2ACI
1070
     2
1001
ACAD
1010
0.0
1020
0.0
1030
0.0
  0
LINE
  5
1230
  8
SAPA_PROFIL
 62
     6
 10
-94.076394569519792
 20
-80.075689746434378
 30
0.0
 11
-94.457394569519792
 21
-79.415778388750653
 31
0.0
1001
GRADIENTCOLOR1ACI
1070
     5
1001
GRADIENTCOLOR2ACI
1070
     2
1001
ACAD
1010
0.0
1020
0.0
1030
0.0
  0
LINE
  5
1231
  8
SAPA_PROFIL
 62
     6
 10
-92.933394569519791
 20
-82.055423819485611
 30
0.0
 11
-93.314394569519791
 21
-81.395512461801886
 31
0.0
1001
GRADIENTCOLOR1ACI
1070
     5
1001
GRADIENTCOLOR2ACI
1070
     2
1001
ACAD
1010
0.0
1020
0.0
1030
0.0
  0
LINE
  5
1232
  8
SAPA_PROFIL
 62
     6
 10
-91.862890079936093
 20
-83.909591985175155
 30
0.0
 11
-92.171394569519791
 21
-83.375246534853076
 31
0.0
1001
GRADIENTCOLOR1ACI
1070
     5
1001
GRADIENTCOLOR2ACI
1070
     2
1001
ACAD
1010
0.0
1020
0.0
1030
0.0
  0
LINE
  5
1233
  8
SAPA_PROFIL
 62
     6
 10
-94.076394569804279
 20
-82.715335177333657
 30
0.0
 11
-94.370949717110946
 21
-82.205150696567543
 31
0.0
1001
GRADIENTCOLOR1ACI
1070
     5
1001
GRADIENTCOLOR2ACI
1070
     2
1001
ACAD
1010
0.0
1020
0.0
1030
0.0
  0
LINE
  5
1234
  8
SAPA_PROFIL
 62
     6
 10
-90.647394642921796
 20
-83.375246483932912
 30
0.0
 11
-90.326566151425695
 21
-83.375246483932912
 31
0.0
1001
GRADIENTCOLOR1ACI
1070
     5
1001
GRADIENTCOLOR2ACI
1070
     2
1001
ACAD
1010
0.0
1020
0.0
1030
0.0
  0
LINE
  5
1235
  8
SAPA_PROFIL
 62
     6
 10
-92.933394642921783
 20
-83.375246483932912
 30
0.0
 11
-92.171394642921797
 21
-83.375246483932912
 31
0.0
1001
GRADIENTCOLOR1ACI
1070
     5
1001
GRADIENTCOLOR2ACI
1070
     2
1001
ACAD
1010
0.0
1020
0.0
1030
0.0
  0
LINE
  5
1236
  8
SAPA_PROFIL
 62
     6
 10
-90.647394642921824
 20
-82.055423768236935
 30
0.0
 11
-89.885394642921824
 21
-82.055423768236935
 31
0.0
1001
GRADIENTCOLOR1ACI
1070
     5
1001
GRADIENTCOLOR2ACI
1070
     2
1001
ACAD
1010
0.0
1020
0.0
1030
0.0
  0
LINE
  5
1237
  8
SAPA_PROFIL
 62
     6
 10
-92.933394642921826
 20
-82.055423768236935
 30
0.0
 11
-92.171394642921825
 21
-82.055423768236935
 31
0.0
1001
GRADIENTCOLOR1ACI
1070
     5
1001
GRADIENTCOLOR2ACI
1070
     2
1001
ACAD
1010
0.0
1020
0.0
1030
0.0
  0
LINE
  5
1238
  8
SAPA_PROFIL
 62
     6
 10
-90.647394642921824
 20
-80.7356010525409
 30
0.0
 11
-89.885394642921824
 21
-80.7356010525409
 31
0.0
1001
GRADIENTCOLOR1ACI
1070
     5
1001
GRADIENTCOLOR2ACI
1070
     2
1001
ACAD
1010
0.0
1020
0.0
1030
0.0
  0
LINE
  5
1239
  8
SAPA_PROFIL
 62
     6
 10
-92.933394642921826
 20
-80.7356010525409
 30
0.0
 11
-92.171394642921825
 21
-80.7356010525409
 31
0.0
1001
GRADIENTCOLOR1ACI
1070
     5
1001
GRADIENTCOLOR2ACI
1070
     2
1001
ACAD
1010
0.0
1020
0.0
1030
0.0
  0
LINE
  5
123A
  8
SAPA_PROFIL
 62
     6
 10
-94.522323105701574
 20
-80.7356010525409
 30
0.0
 11
-94.457394642921827
 21
-80.7356010525409
 31
0.0
1001
GRADIENTCOLOR1ACI
1070
     5
1001
GRADIENTCOLOR2ACI
1070
     2
1001
ACAD
1010
0.0
1020
0.0
1030
0.0
  0
LINE
  5
123B
  8
SAPA_PROFIL
 62
     6
 10
-90.647394642921824
 20
-79.415778336844923
 30
0.0
 11
-89.885394642921824
 21
-79.415778336844923
 31
0.0
1001
GRADIENTCOLOR1ACI
1070
     5
1001
GRADIENTCOLOR2ACI
1070
     2
1001
ACAD
1010
0.0
1020
0.0
1030
0.0
  0
LINE
  5
123C
  8
SAPA_PROFIL
 62
     6
 10
-92.933394642921826
 20
-79.415778336844923
 30
0.0
 11
-92.171394642921825
 21
-79.415778336844923
 31
0.0
1001
GRADIENTCOLOR1ACI
1070
     5
1001
GRADIENTCOLOR2ACI
1070
     2
1001
ACAD
1010
0.0
1020
0.0
1030
0.0
  0
LINE
  5
123D
  8
SAPA_PROFIL
 62
     6
 10
-94.518807816998361
 20
-79.415778336844923
 30
0.0
 11
-94.457394642921827
 21
-79.415778336844923
 31
0.0
1001
GRADIENTCOLOR1ACI
1070
     5
1001
GRADIENTCOLOR2ACI
1070
     2
1001
ACAD
1010
0.0
1020
0.0
1030
0.0
  0
LINE
  5
123E
  8
SAPA_PROFIL
 62
     6
 10
-90.647394642921824
 20
-78.095955621148889
 30
0.0
 11
-89.885394642921824
 21
-78.095955621148889
 31
0.0
1001
GRADIENTCOLOR1ACI
1070
     5
1001
GRADIENTCOLOR2ACI
1070
     2
1001
ACAD
1010
0.0
1020
0.0
1030
0.0
  0
LINE
  5
123F
  8
SAPA_PROFIL
 62
     6
 10
-92.933394642921826
 20
-78.095955621148889
 30
0.0
 11
-92.171394642921825
 21
-78.095955621148889
 31
0.0
1001
GRADIENTCOLOR1ACI
1070
     5
1001
GRADIENTCOLOR2ACI
1070
     2
1001
ACAD
1010
0.0
1020
0.0
1030
0.0
  0
LINE
  5
1240
  8
SAPA_PROFIL
 62
     6
 10
-94.515292528295191
 20
-78.095955621148889
 30
0.0
 11
-94.457394642921827
 21
-78.095955621148889
 31
0.0
1001
GRADIENTCOLOR1ACI
1070
     5
1001
GRADIENTCOLOR2ACI
1070
     2
1001
ACAD
1010
0.0
1020
0.0
1030
0.0
  0
LINE
  5
1241
  8
SAPA_PROFIL
 62
     6
 10
-90.647394642921824
 20
-76.776132905452911
 30
0.0
 11
-89.885394642921824
 21
-76.776132905452911
 31
0.0
1001
GRADIENTCOLOR1ACI
1070
     5
1001
GRADIENTCOLOR2ACI
1070
     2
1001
ACAD
1010
0.0
1020
0.0
1030
0.0
  0
LINE
  5
1242
  8
SAPA_PROFIL
 62
     6
 10
-92.933394642921826
 20
-76.776132905452911
 30
0.0
 11
-92.171394642921825
 21
-76.776132905452911
 31
0.0
1001
GRADIENTCOLOR1ACI
1070
     5
1001
GRADIENTCOLOR2ACI
1070
     2
1001
ACAD
1010
0.0
1020
0.0
1030
0.0
  0
LINE
  5
1243
  8
SAPA_PROFIL
 62
     6
 10
-94.511777239591964
 20
-76.776132905452911
 30
0.0
 11
-94.457394642921827
 21
-76.776132905452911
 31
0.0
1001
GRADIENTCOLOR1ACI
1070
     5
1001
GRADIENTCOLOR2ACI
1070
     2
1001
ACAD
1010
0.0
1020
0.0
1030
0.0
  0
LINE
  5
1244
  8
SAPA_PROFIL
 62
     6
 10
-90.647394642921824
 20
-75.456310189756934
 30
0.0
 11
-89.885394642921824
 21
-75.456310189756934
 31
0.0
1001
GRADIENTCOLOR1ACI
1070
     5
1001
GRADIENTCOLOR2ACI
1070
     2
1001
ACAD
1010
0.0
1020
0.0
1030
0.0
  0
LINE
  5
1245
  8
SAPA_PROFIL
 62
     6
 10
-92.933394642921826
 20
-75.456310189756934
 30
0.0
 11
-92.171394642921825
 21
-75.456310189756934
 31
0.0
1001
GRADIENTCOLOR1ACI
1070
     5
1001
GRADIENTCOLOR2ACI
1070
     2
1001
ACAD
1010
0.0
1020
0.0
1030
0.0
  0
LINE
  5
1246
  8
SAPA_PROFIL
 62
     6
 10
-94.508261950888794
 20
-75.456310189756934
 30
0.0
 11
-94.457394642921827
 21
-75.456310189756934
 31
0.0
1001
GRADIENTCOLOR1ACI
1070
     5
1001
GRADIENTCOLOR2ACI
1070
     2
1001
ACAD
1010
0.0
1020
0.0
1030
0.0
  0
LINE
  5
1247
  8
SAPA_PROFIL
 62
     6
 10
-90.647394642921824
 20
-74.1364874740609
 30
0.0
 11
-89.885394642921824
 21
-74.1364874740609
 31
0.0
1001
GRADIENTCOLOR1ACI
1070
     5
1001
GRADIENTCOLOR2ACI
1070
     2
1001
ACAD
1010
0.0
1020
0.0
1030
0.0
  0
LINE
  5
1248
  8
SAPA_PROFIL
 62
     6
 10
-92.933394642921826
 20
-74.1364874740609
 30
0.0
 11
-92.171394642921825
 21
-74.1364874740609
 31
0.0
1001
GRADIENTCOLOR1ACI
1070
     5
1001
GRADIENTCOLOR2ACI
1070
     2
1001
ACAD
1010
0.0
1020
0.0
1030
0.0
  0
LINE
  5
1249
  8
SAPA_PROFIL
 62
     6
 10
-94.504746662185568
 20
-74.1364874740609
 30
0.0
 11
-94.457394642921827
 21
-74.1364874740609
 31
0.0
1001
GRADIENTCOLOR1ACI
1070
     5
1001
GRADIENTCOLOR2ACI
1070
     2
1001
ACAD
1010
0.0
1020
0.0
1030
0.0
  0
LINE
  5
124A
  8
SAPA_PROFIL
 62
     6
 10
-90.647394642921824
 20
-72.816664758364922
 30
0.0
 11
-89.885394642921824
 21
-72.816664758364922
 31
0.0
1001
GRADIENTCOLOR1ACI
1070
     5
1001
GRADIENTCOLOR2ACI
1070
     2
1001
ACAD
1010
0.0
1020
0.0
1030
0.0
  0
LINE
  5
124B
  8
SAPA_PROFIL
 62
     6
 10
-92.933394642921826
 20
-72.816664758364922
 30
0.0
 11
-92.171394642921825
 21
-72.816664758364922
 31
0.0
1001
GRADIENTCOLOR1ACI
1070
     5
1001
GRADIENTCOLOR2ACI
1070
     2
1001
ACAD
1010
0.0
1020
0.0
1030
0.0
  0
LINE
  5
124C
  8
SAPA_PROFIL
 62
     6
 10
-94.501231373482398
 20
-72.816664758364922
 30
0.0
 11
-94.457394642921827
 21
-72.816664758364922
 31
0.0
1001
GRADIENTCOLOR1ACI
1070
     5
1001
GRADIENTCOLOR2ACI
1070
     2
1001
ACAD
1010
0.0
1020
0.0
1030
0.0
  0
LINE
  5
124D
  8
SAPA_PROFIL
 62
     6
 10
-90.647394642921824
 20
-71.496842042668888
 30
0.0
 11
-89.885394642921824
 21
-71.496842042668888
 31
0.0
1001
GRADIENTCOLOR1ACI
1070
     5
1001
GRADIENTCOLOR2ACI
1070
     2
1001
ACAD
1010
0.0
1020
0.0
1030
0.0
  0
LINE
  5
124E
  8
SAPA_PROFIL
 62
     6
 10
-92.933394642921826
 20
-71.496842042668888
 30
0.0
 11
-92.171394642921825
 21
-71.496842042668888
 31
0.0
1001
GRADIENTCOLOR1ACI
1070
     5
1001
GRADIENTCOLOR2ACI
1070
     2
1001
ACAD
1010
0.0
1020
0.0
1030
0.0
  0
LINE
  5
124F
  8
SAPA_PROFIL
 62
     6
 10
-94.497716084779171
 20
-71.496842042668888
 30
0.0
 11
-94.457394642921827
 21
-71.496842042668888
 31
0.0
1001
GRADIENTCOLOR1ACI
1070
     5
1001
GRADIENTCOLOR2ACI
1070
     2
1001
ACAD
1010
0.0
1020
0.0
1030
0.0
  0
LINE
  5
1250
  8
SAPA_PROFIL
 62
     6
 10
-90.647394642921824
 20
-70.177019326972911
 30
0.0
 11
-89.885394642921824
 21
-70.177019326972911
 31
0.0
1001
GRADIENTCOLOR1ACI
1070
     5
1001
GRADIENTCOLOR2ACI
1070
     2
1001
ACAD
1010
0.0
1020
0.0
1030
0.0
  0
LINE
  5
1251
  8
SAPA_PROFIL
 62
     6
 10
-92.933394642921826
 20
-70.177019326972911
 30
0.0
 11
-92.171394642921825
 21
-70.177019326972911
 31
0.0
1001
GRADIENTCOLOR1ACI
1070
     5
1001
GRADIENTCOLOR2ACI
1070
     2
1001
ACAD
1010
0.0
1020
0.0
1030
0.0
  0
LINE
  5
1252
  8
SAPA_PROFIL
 62
     6
 10
-94.494200796076001
 20
-70.177019326972911
 30
0.0
 11
-94.457394642921827
 21
-70.177019326972911
 31
0.0
1001
GRADIENTCOLOR1ACI
1070
     5
1001
GRADIENTCOLOR2ACI
1070
     2
1001
ACAD
1010
0.0
1020
0.0
1030
0.0
  0
LINE
  5
1253
  8
SAPA_PROFIL
 62
     6
 10
-90.647394642921824
 20
-68.857196611276933
 30
0.0
 11
-89.885394642921824
 21
-68.857196611276933
 31
0.0
1001
GRADIENTCOLOR1ACI
1070
     5
1001
GRADIENTCOLOR2ACI
1070
     2
1001
ACAD
1010
0.0
1020
0.0
1030
0.0
  0
LINE
  5
1254
  8
SAPA_PROFIL
 62
     6
 10
-92.933394642921826
 20
-68.857196611276933
 30
0.0
 11
-92.171394642921825
 21
-68.857196611276933
 31
0.0
1001
GRADIENTCOLOR1ACI
1070
     5
1001
GRADIENTCOLOR2ACI
1070
     2
1001
ACAD
1010
0.0
1020
0.0
1030
0.0
  0
LINE
  5
1255
  8
SAPA_PROFIL
 62
     6
 10
-94.490685507372774
 20
-68.857196611276933
 30
0.0
 11
-94.457394642921827
 21
-68.857196611276933
 31
0.0
1001
GRADIENTCOLOR1ACI
1070
     5
1001
GRADIENTCOLOR2ACI
1070
     2
1001
ACAD
1010
0.0
1020
0.0
1030
0.0
  0
LINE
  5
1256
  8
SAPA_PROFIL
 62
     6
 10
-90.647394642921796
 20
-67.537373895580885
 30
0.0
 11
-89.885394642921796
 21
-67.537373895580885
 31
0.0
1001
GRADIENTCOLOR1ACI
1070
     5
1001
GRADIENTCOLOR2ACI
1070
     2
1001
ACAD
1010
0.0
1020
0.0
1030
0.0
  0
LINE
  5
1257
  8
SAPA_PROFIL
 62
     6
 10
-92.933394642921783
 20
-67.537373895580885
 30
0.0
 11
-92.171394642921797
 21
-67.537373895580885
 31
0.0
1001
GRADIENTCOLOR1ACI
1070
     5
1001
GRADIENTCOLOR2ACI
1070
     2
1001
ACAD
1010
0.0
1020
0.0
1030
0.0
  0
LINE
  5
1258
  8
SAPA_PROFIL
 62
     6
 10
-94.487170218669576
 20
-67.537373895580885
 30
0.0
 11
-94.457394642921784
 21
-67.537373895580885
 31
0.0
1001
GRADIENTCOLOR1ACI
1070
     5
1001
GRADIENTCOLOR2ACI
1070
     2
1001
ACAD
1010
0.0
1020
0.0
1030
0.0
  0
LINE
  5
1259
  8
SAPA_PROFIL
 62
     6
 10
-90.647394642921824
 20
-66.217551179884921
 30
0.0
 11
-89.885394642921824
 21
-66.217551179884921
 31
0.0
1001
GRADIENTCOLOR1ACI
1070
     5
1001
GRADIENTCOLOR2ACI
1070
     2
1001
ACAD
1010
0.0
1020
0.0
1030
0.0
  0
LINE
  5
125A
  8
SAPA_PROFIL
 62
     6
 10
-92.933394642921826
 20
-66.217551179884921
 30
0.0
 11
-92.171394642921825
 21
-66.217551179884921
 31
0.0
1001
GRADIENTCOLOR1ACI
1070
     5
1001
GRADIENTCOLOR2ACI
1070
     2
1001
ACAD
1010
0.0
1020
0.0
1030
0.0
  0
LINE
  5
125B
  8
SAPA_PROFIL
 62
     6
 10
-94.483654929966377
 20
-66.217551179884921
 30
0.0
 11
-94.457394642921827
 21
-66.217551179884921
 31
0.0
1001
GRADIENTCOLOR1ACI
1070
     5
1001
GRADIENTCOLOR2ACI
1070
     2
1001
ACAD
1010
0.0
1020
0.0
1030
0.0
  0
LINE
  5
125C
  8
SAPA_PROFIL
 62
     6
 10
-90.647394642921796
 20
-64.897728464188887
 30
0.0
 11
-89.885394642921796
 21
-64.897728464188887
 31
0.0
1001
GRADIENTCOLOR1ACI
1070
     5
1001
GRADIENTCOLOR2ACI
1070
     2
1001
ACAD
1010
0.0
1020
0.0
1030
0.0
  0
LINE
  5
125D
  8
SAPA_PROFIL
 62
     6
 10
-92.933394642921783
 20
-64.897728464188887
 30
0.0
 11
-92.171394642921797
 21
-64.897728464188887
 31
0.0
1001
GRADIENTCOLOR1ACI
1070
     5
1001
GRADIENTCOLOR2ACI
1070
     2
1001
ACAD
1010
0.0
1020
0.0
1030
0.0
  0
LINE
  5
125E
  8
SAPA_PROFIL
 62
     6
 10
-94.480139641263165
 20
-64.897728464188887
 30
0.0
 11
-94.457394642921784
 21
-64.897728464188887
 31
0.0
1001
GRADIENTCOLOR1ACI
1070
     5
1001
GRADIENTCOLOR2ACI
1070
     2
1001
ACAD
1010
0.0
1020
0.0
1030
0.0
  0
LINE
  5
125F
  8
SAPA_PROFIL
 62
     6
 10
-90.647394642921824
 20
-63.57790574849291
 30
0.0
 11
-89.885394642921824
 21
-63.57790574849291
 31
0.0
1001
GRADIENTCOLOR1ACI
1070
     5
1001
GRADIENTCOLOR2ACI
1070
     2
1001
ACAD
1010
0.0
1020
0.0
1030
0.0
  0
LINE
  5
1260
  8
SAPA_PROFIL
 62
     6
 10
-92.933394642921826
 20
-63.57790574849291
 30
0.0
 11
-92.171394642921825
 21
-63.57790574849291
 31
0.0
1001
GRADIENTCOLOR1ACI
1070
     5
1001
GRADIENTCOLOR2ACI
1070
     2
1001
ACAD
1010
0.0
1020
0.0
1030
0.0
  0
LINE
  5
1261
  8
SAPA_PROFIL
 62
     6
 10
-90.647394642921796
 20
-62.258083032796932
 30
0.0
 11
-90.113654676634667
 21
-62.258083032796932
 31
0.0
1001
GRADIENTCOLOR1ACI
1070
     5
1001
GRADIENTCOLOR2ACI
1070
     2
1001
ACAD
1010
0.0
1020
0.0
1030
0.0
  0
LINE
  5
1262
  8
SAPA_PROFIL
 62
     6
 10
-92.933394642921783
 20
-62.258083032796932
 30
0.0
 11
-92.171394642921797
 21
-62.258083032796932
 31
0.0
1001
GRADIENTCOLOR1ACI
1070
     5
1001
GRADIENTCOLOR2ACI
1070
     2
1001
ACAD
1010
0.0
1020
0.0
1030
0.0
  0
ARC
  5
1263
  8
SAPA_PROFIL
 62
     6
 10
-91.913907079535832
 20
-81.287156130483879
 30
0.1
 40
2.6229320513928198
 50
174.12821924200151
 51
359.50839951901111
  0
LINE
  5
1264
  8
SAPA_PROFIL
 62
     6
 10
-89.308928418204758
 20
-63.785945306799221
 30
0.1
 11
-89.291071574015945
 21
-81.30966073463307
 31
0.1
  0
ARC
  5
1265
  8
SAPA_PROFIL
 62
     6
 10
-91.901058732067483
 20
-64.175366263973814
 30
0.1
 40
2.6212188473938651
 50
8.5437660606756882
 51
169.32600595671471
  0
LINE
  5
1266
  8
SAPA_PROFIL
 62
     6
 10
-94.523077455538399
 20
-81.018823323666737
 30
0.1
 11
-94.476922544461061
 21
-63.689862540060147
 31
0.1
  0
POLYLINE
  5
1267
  8
SAPA_PROFIL
  6
CONTINUOUS
 66
     1
 10
0.0
 20
0.0
 30
0.0
 70
     1
  0
VERTEX
  5
1887
  8
SAPA_PROFIL
  6
CONTINUOUS
 10
-107.0831128836077
 20
-17.392202972650551
 30
0.0
  0
VERTEX
  5
1888
  8
SAPA_PROFIL
  6
CONTINUOUS
 10
-91.944577427000567
 20
-16.97263948325854
 30
0.0
 42
-0.2061234514950211
  0
VERTEX
  5
1889
  8
SAPA_PROFIL
  6
CONTINUOUS
 10
-91.577171889139265
 20
-17.1188941738483
 30
0.0
  0
VERTEX
  5
188A
  8
SAPA_PROFIL
  6
CONTINUOUS
 10
-89.646446609406453
 20
-19.049619453581428
 30
0.0
 42
0.1989123673797024
  0
VERTEX
  5
188B
  8
SAPA_PROFIL
  6
CONTINUOUS
 10
-89.292893218813148
 20
-19.196066062988251
 30
0.0
  0
VERTEX
  5
188C
  8
SAPA_PROFIL
  6
CONTINUOUS
 10
-85.112115178948187
 20
-19.196066062988251
 30
0.0
 42
0.6681786379193032
  0
VERTEX
  5
188D
  8
SAPA_PROFIL
  6
CONTINUOUS
 10
-84.935338483651549
 20
-18.769289367691609
 30
0.0
  0
VERTEX
  5
188E
  8
SAPA_PROFIL
  6
CONTINUOUS
 10
-85.922537522873228
 20
-17.782090328469931
 30
0.0
 42
0.4584832902918763
  0
VERTEX
  5
188F
  8
SAPA_PROFIL
  6
CONTINUOUS
 10
-87.433736337588144
 20
-17.894692272318309
 30
0.0
 42
-0.2378770156285958
  0
VERTEX
  5
1890
  8
SAPA_PROFIL
  6
CONTINUOUS
 10
-87.634759345970664
 20
-17.996066062985498
 30
0.0
  0
VERTEX
  5
1891
  8
SAPA_PROFIL
  6
CONTINUOUS
 10
-88.795836943964915
 20
-17.99606606298773
 30
0.0
 42
-0.1989123673801665
  0
VERTEX
  5
1892
  8
SAPA_PROFIL
  6
CONTINUOUS
 10
-89.149390334559143
 20
-17.849619453581031
 30
0.0
  0
VERTEX
  5
1893
  8
SAPA_PROFIL
  6
CONTINUOUS
 10
-89.499999999999716
 20
-17.499009788140569
 30
0.0
  0
VERTEX
  5
1894
  8
SAPA_PROFIL
  6
CONTINUOUS
 10
-89.9268075925457
 20
-17.072052960548628
 30
0.0
 42
-0.1988669396406054
  0
VERTEX
  5
1895
  8
SAPA_PROFIL
  6
CONTINUOUS
 10
-89.99999999999973
 20
-16.89530716790253
 30
0.0
  0
VERTEX
  5
1896
  8
SAPA_PROFIL
  6
CONTINUOUS
 10
-89.99999999999973
 20
-16.748833961065571
 30
0.0
 42
-0.4142135623733282
  0
VERTEX
  5
1897
  8
SAPA_PROFIL
  6
CONTINUOUS
 10
-89.750000999999514
 20
-16.498834961065569
 30
0.0
  0
VERTEX
  5
1898
  8
SAPA_PROFIL
  6
CONTINUOUS
 10
-89.749999999999915
 20
-16.498834961065569
 30
0.0
 42
0.4142135623732616
  0
VERTEX
  5
1899
  8
SAPA_PROFIL
  6
CONTINUOUS
 10
-89.499999999999716
 20
-16.248834961065619
 30
0.0
  0
VERTEX
  5
189A
  8
SAPA_PROFIL
  6
CONTINUOUS
 10
-89.499999999999702
 20
-15.749935154631681
 30
0.0
 42
0.4209003450991805
  0
VERTEX
  5
189B
  8
SAPA_PROFIL
  6
CONTINUOUS
 10
-89.755693510719553
 20
-15.499999995168761
 30
0.0
 42
-0.0067990255081984
  0
VERTEX
  5
189C
  8
SAPA_PROFIL
  6
CONTINUOUS
 10
-110.997790171707
 20
-15.69496905457734
 30
0.0
 42
0.4155086472897409
  0
VERTEX
  5
189D
  8
SAPA_PROFIL
  6
CONTINUOUS
 10
-111.5000000000131
 20
-16.19496417121249
 30
0.0
  0
VERTEX
  5
189E
  8
SAPA_PROFIL
  6
CONTINUOUS
 10
-111.4999999999997
 20
-53.894621399199131
 30
0.0
 42
0.4142135623716549
  0
VERTEX
  5
189F
  8
SAPA_PROFIL
  6
CONTINUOUS
 10
-111.1999999999997
 20
-54.194621399200457
 30
0.0
  0
VERTEX
  5
18A0
  8
SAPA_PROFIL
  6
CONTINUOUS
 10
-110.0000000000143
 20
-54.19462139920023
 30
0.0
 42
0.4142135623732907
  0
VERTEX
  5
18A1
  8
SAPA_PROFIL
  6
CONTINUOUS
 10
-109.7000000000143
 20
-53.894621399200048
 30
0.0
  0
VERTEX
  5
18A2
  8
SAPA_PROFIL
  6
CONTINUOUS
 10
-109.70000000001519
 20
-52.694621399200621
 30
0.0
 42
-0.4142135623732116
  0
VERTEX
  5
18A3
  8
SAPA_PROFIL
  6
CONTINUOUS
 10
-109.20000000001519
 20
-52.194621399200429
 30
0.0
  0
VERTEX
  5
18A4
  8
SAPA_PROFIL
  6
CONTINUOUS
 10
-100.30000000000101
 20
-52.194621399200429
 30
0.0
 42
0.4142135623733198
  0
VERTEX
  5
18A5
  8
SAPA_PROFIL
  6
CONTINUOUS
 10
-100.00000000000099
 20
-51.89462139920024
 30
0.0
  0
VERTEX
  5
18A6
  8
SAPA_PROFIL
  6
CONTINUOUS
 10
-100.00000000000129
 20
-51.19462139920023
 30
0.0
 42
0.4142135623728995
  0
VERTEX
  5
18A7
  8
SAPA_PROFIL
  6
CONTINUOUS
 10
-100.3000000000013
 20
-50.89462139920041
 30
0.0
  0
VERTEX
  5
18A8
  8
SAPA_PROFIL
  6
CONTINUOUS
 10
-109.5000000000045
 20
-50.894621399200531
 30
0.0
 42
-0.4142135623716508
  0
VERTEX
  5
18A9
  8
SAPA_PROFIL
  6
CONTINUOUS
 10
-109.9999999999997
 20
-50.39462139920051
 30
0.0
  0
VERTEX
  5
18AA
  8
SAPA_PROFIL
  6
CONTINUOUS
 10
-109.9999999999997
 20
-32.996066062985648
 30
0.0
 42
-0.41421356237163
  0
VERTEX
  5
18AB
  8
SAPA_PROFIL
  6
CONTINUOUS
 10
-109.4999999999997
 20
-32.496066062988149
 30
0.0
  0
VERTEX
  5
18AC
  8
SAPA_PROFIL
  6
CONTINUOUS
 10
-87.585827080635241
 20
-32.496066062988149
 30
0.0
 42
-0.4663076581592616
  0
VERTEX
  5
18AD
  8
SAPA_PROFIL
  6
CONTINUOUS
 10
-87.290384754731605
 20
-32.848160516288146
 30
0.0
  0
VERTEX
  5
18AE
  8
SAPA_PROFIL
  6
CONTINUOUS
 10
-87.395442325903176
 20
-33.443971609686827
 30
0.0
 42
0.7332303362587812
  0
VERTEX
  5
18AF
  8
SAPA_PROFIL
  6
CONTINUOUS
 10
-86.887867965643736
 20
-33.708198097344273
 30
0.0
  0
VERTEX
  5
18B0
  8
SAPA_PROFIL
  6
CONTINUOUS
 10
-84.88786796564635
 20
-31.708198097346759
 30
0.0
 42
0.6681786379237062
  0
VERTEX
  5
18B1
  8
SAPA_PROFIL
  6
CONTINUOUS
 10
-85.099999999999767
 20
-31.196066062988269
 30
0.0
  0
VERTEX
  5
18B2
  8
SAPA_PROFIL
  6
CONTINUOUS
 10
-109.4999999999997
 20
-31.196066062988251
 30
0.0
 42
-0.4142135623716217
  0
VERTEX
  5
18B3
  8
SAPA_PROFIL
  6
CONTINUOUS
 10
-109.9999999999997
 20
-30.69606606298575
 30
0.0
  0
VERTEX
  5
18B4
  8
SAPA_PROFIL
  6
CONTINUOUS
 10
-109.9999999999997
 20
-20.391051459749939
 30
0.0
 42
-0.40612121347231
  0
SEQEND
  5
18B5
  8
SAPA_PROFIL
  6
CONTINUOUS
  0
POLYLINE
  5
1268
  8
SAPA_PROFIL
 66
     1
 10
0.0
 20
0.0
 30
0.0
 70
     1
  0
VERTEX
  5
18B6
  8
SAPA_PROFIL
 10
82.465642826480135
 20
-38.499999999996547
 30
0.0
 42
-0.2679491924311103
  0
VERTEX
  5
18B7
  8
SAPA_PROFIL
 10
81.599617422695715
 20
-37.999999999996561
 30
0.0
  0
VERTEX
  5
18B8
  8
SAPA_PROFIL
 10
80.589254451613627
 20
-36.24999999999639
 30
0.0
 42
0.2679491924311245
  0
VERTEX
  5
18B9
  8
SAPA_PROFIL
 10
80.156241749721403
 20
-35.99999999999639
 30
0.0
  0
VERTEX
  5
18BA
  8
SAPA_PROFIL
 10
15.14375816613955
 20
-35.999999999996383
 30
0.0
 42
0.2679491924311169
  0
VERTEX
  5
18BB
  8
SAPA_PROFIL
 10
14.71074546424734
 20
-36.249999999996383
 30
0.0
  0
VERTEX
  5
18BC
  8
SAPA_PROFIL
 10
13.700382493165129
 20
-37.999999999996483
 30
0.0
 42
-0.2679491924311103
  0
VERTEX
  5
18BD
  8
SAPA_PROFIL
 10
12.834357089380831
 20
-38.499999999996383
 30
0.0
  0
VERTEX
  5
18BE
  8
SAPA_PROFIL
 10
11.448716443325679
 20
-38.499999999996248
 30
0.0
 42
-0.5773502691897497
  0
VERTEX
  5
18BF
  8
SAPA_PROFIL
 10
11.27551136256889
 20
-38.199999999996308
 30
0.0
  0
VERTEX
  5
18C0
  8
SAPA_PROFIL
 10
12.199271793272199
 20
-36.599999999996633
 30
0.0
  0
VERTEX
  5
18C1
  8
SAPA_PROFIL
 10
12.199271793272199
 20
-36.299999999996452
 30
0.0
 42
0.4142135623728953
  0
VERTEX
  5
18C2
  8
SAPA_PROFIL
 10
11.89927179327227
 20
-35.999999999996383
 30
0.0
  0
VERTEX
  5
18C3
  8
SAPA_PROFIL
 10
8.0464853887721972
 20
-35.999999999996383
 30
0.0
 42
-0.213421765283428
  0
VERTEX
  5
18C4
  8
SAPA_PROFIL
 10
7.8228785910221168
 20
-35.899999999996268
 30
0.0
 42
0.7625858545243336
  0
VERTEX
  5
18C5
  8
SAPA_PROFIL
 10
7.4925525100050834
 20
-36.084579202193737
 30
0.0
  0
VERTEX
  5
18C6
  8
SAPA_PROFIL
 10
7.5506261469941762
 20
-36.275962202187458
 30
0.0
  0
VERTEX
  5
18C7
  8
SAPA_PROFIL
 10
8.6351905939659162
 20
-38.161805894048513
 30
0.0
  0
VERTEX
  5
18C8
  8
SAPA_PROFIL
 10
8.9569483221841892
 20
-38.151244527821532
 30
0.0
 42
-0.5773502691897449
  0
VERTEX
  5
18C9
  8
SAPA_PROFIL
 10
9.1399020622943397
 20
-38.44540082807638
 30
0.0
  0
VERTEX
  5
18CA
  8
SAPA_PROFIL
 10
8.9877681511856053
 20
-38.730083111307991
 30
0.0
 42
-0.221694662643014
  0
VERTEX
  5
18CB
  8
SAPA_PROFIL
 10
8.4468883197087905
 20
-39.135892016462797
 30
0.0
  0
VERTEX
  5
18CC
  8
SAPA_PROFIL
 10
6.6336578490505644
 20
-39.517338612590521
 30
0.0
 42
-0.476975532698164
  0
VERTEX
  5
18CD
  8
SAPA_PROFIL
 10
6.2620009741046649
 20
-39.215085788084053
 30
0.0
  0
VERTEX
  5
18CE
  8
SAPA_PROFIL
 10
6.2620845819883177
 20
-37.711984707322053
 30
0.0
  0
VERTEX
  5
18CF
  8
SAPA_PROFIL
 10
6.3099303319868048
 20
-37.69746629807495
 30
0.0
 42
0.4142135623730863
  0
VERTEX
  5
18D0
  8
SAPA_PROFIL
 10
6.5098943764942021
 20
-37.323281342599131
 30
0.0
  0
VERTEX
  5
18D1
  8
SAPA_PROFIL
 10
5.999999957930469
 20
-36.004048340837173
 30
0.0
  0
VERTEX
  5
18D2
  8
SAPA_PROFIL
 10
5.999999957930469
 20
-16.26852160334029
 30
0.0
 42
0.3821712090170606
  0
VERTEX
  5
18D3
  8
SAPA_PROFIL
 10
5.7331197420247122
 20
-15.970355408238399
 30
0.0
  0
VERTEX
  5
18D4
  8
SAPA_PROFIL
 10
-0.8448510420695072
 20
-15.44451587327338
 30
0.0
 42
0.4469990000000311
  0
VERTEX
  5
18D5
  8
SAPA_PROFIL
 10
-1.400051042069492
 20
-15.9414598732734
 30
0.0
  0
VERTEX
  5
18D6
  8
SAPA_PROFIL
 10
-1.40005104206952
 20
-17.6999999999964
 30
0.0
 42
-0.414213999999998
  0
VERTEX
  5
18D7
  8
SAPA_PROFIL
 10
-2.4000510420694918
 20
-18.6999999999964
 30
0.0
  0
VERTEX
  5
18D8
  8
SAPA_PROFIL
 10
-2.6675950420695069
 20
-18.699999999996379
 30
0.0
 42
-0.2896899999999907
  0
VERTEX
  5
18D9
  8
SAPA_PROFIL
 10
-3.5711030420695522
 20
-18.128571999996382
 30
0.0
 42
-0.5507599999999849
  0
VERTEX
  5
18DA
  8
SAPA_PROFIL
 10
-3.3000510420694971
 20
-17.6999999999964
 30
0.0
  0
VERTEX
  5
18DB
  8
SAPA_PROFIL
 10
-3.000051042069543
 20
-17.6999999999964
 30
0.0
 42
0.4142140000001147
  0
VERTEX
  5
18DC
  8
SAPA_PROFIL
 10
-2.8000510420694971
 20
-17.49999999999638
 30
0.0
  0
VERTEX
  5
18DD
  8
SAPA_PROFIL
 10
-2.8000510420694971
 20
-16.39999999999635
 30
0.0
 42
0.4142139999999814
  0
VERTEX
  5
18DE
  8
SAPA_PROFIL
 10
-3.8000510420694971
 20
-15.399999999996361
 30
0.0
  0
VERTEX
  5
18DF
  8
SAPA_PROFIL
 10
-6.1000000420694951
 20
-15.39999999999635
 30
0.0
 42
0.4142139999999898
  0
VERTEX
  5
18E0
  8
SAPA_PROFIL
 10
-7.1000000420694951
 20
-16.39999999999635
 30
0.0
  0
VERTEX
  5
18E1
  8
SAPA_PROFIL
 10
-7.1000000420695244
 20
-17.49999999999638
 30
0.0
 42
0.4142139999999564
  0
VERTEX
  5
18E2
  8
SAPA_PROFIL
 10
-6.9000000420695073
 20
-17.6999999999964
 30
0.0
  0
VERTEX
  5
18E3
  8
SAPA_PROFIL
 10
-6.6000510420695369
 20
-17.699999999996422
 30
0.0
 42
-0.5507599999999882
  0
VERTEX
  5
18E4
  8
SAPA_PROFIL
 10
-6.3289980420695144
 20
-18.12857199999636
 30
0.0
 42
-0.2896900000000043
  0
VERTEX
  5
18E5
  8
SAPA_PROFIL
 10
-7.23250604206953
 20
-18.6999999999964
 30
0.0
  0
VERTEX
  5
18E6
  8
SAPA_PROFIL
 10
-7.5000000420695301
 20
-18.699999999996368
 30
0.0
 42
-0.414213999999998
  0
VERTEX
  5
18E7
  8
SAPA_PROFIL
 10
-8.5000000420695301
 20
-17.6999999999964
 30
0.0
  0
VERTEX
  5
18E8
  8
SAPA_PROFIL
 10
-8.5000000420694732
 20
-15.999999999996369
 30
0.0
 42
-0.4142139999999898
  0
VERTEX
  5
18E9
  8
SAPA_PROFIL
 10
-6.5000000420695301
 20
-13.99999999999638
 30
0.0
  0
VERTEX
  5
18EA
  8
SAPA_PROFIL
 10
89.299999957930396
 20
-13.99999999999639
 30
0.0
 42
-0.4142135623730951
  0
VERTEX
  5
18EB
  8
SAPA_PROFIL
 10
89.499999957930399
 20
-14.199999999996409
 30
0.0
  0
VERTEX
  5
18EC
  8
SAPA_PROFIL
 10
89.499999957930441
 20
-16.888616999996401
 30
0.0
 42
-0.2596810000000968
  0
VERTEX
  5
18ED
  8
SAPA_PROFIL
 10
89.405306957930406
 20
-17.058647999996388
 30
0.0
  0
VERTEX
  5
18EE
  8
SAPA_PROFIL
 10
87.957959957930555
 20
-17.955046999996458
 30
0.0
 42
-0.5877030000000424
  0
VERTEX
  5
18EF
  8
SAPA_PROFIL
 10
87.499999957930413
 20
-17.699999999996379
 30
0.0
  0
VERTEX
  5
18F0
  8
SAPA_PROFIL
 10
87.499999957930413
 20
-16.299999999996398
 30
0.0
 42
0.4142139999999606
  0
VERTEX
  5
18F1
  8
SAPA_PROFIL
 10
87.199999957930487
 20
-15.99999999999639
 30
0.0
  0
VERTEX
  5
18F2
  8
SAPA_PROFIL
 10
84.799999957930495
 20
-15.99999999999639
 30
0.0
 42
0.4142140000000688
  0
VERTEX
  5
18F3
  8
SAPA_PROFIL
 10
84.499999957930399
 20
-16.299999999996398
 30
0.0
  0
VERTEX
  5
18F4
  8
SAPA_PROFIL
 10
84.499999957930399
 20
-33.699999999996379
 30
0.0
 42
0.4142140000001147
  0
VERTEX
  5
18F5
  8
SAPA_PROFIL
 10
84.799999957930495
 20
-33.99999999999639
 30
0.0
  0
VERTEX
  5
18F6
  8
SAPA_PROFIL
 10
87.199999957930487
 20
-33.999999999996383
 30
0.0
 42
0.4142140000000231
  0
VERTEX
  5
18F7
  8
SAPA_PROFIL
 10
87.499999957930413
 20
-33.699999999996379
 30
0.0
  0
VERTEX
  5
18F8
  8
SAPA_PROFIL
 10
87.499999957930385
 20
-32.299999999996402
 30
0.0
 42
-0.5920054160710122
  0
VERTEX
  5
18F9
  8
SAPA_PROFIL
 10
87.961203296045284
 20
-32.046991487238607
 30
0.0
  0
VERTEX
  5
18FA
  8
SAPA_PROFIL
 10
89.207468952258296
 20
-32.841044517060297
 30
0.0
 42
-0.256276985293129
  0
VERTEX
  5
18FB
  8
SAPA_PROFIL
 10
89.299999957930396
 20
-33.009717025958913
 30
0.0
  0
VERTEX
  5
18FC
  8
SAPA_PROFIL
 10
89.299999957930396
 20
-36.004048340837421
 30
0.0
  0
VERTEX
  5
18FD
  8
SAPA_PROFIL
 10
88.790105539366778
 20
-37.323281342599152
 30
0.0
 42
0.4142135623730863
  0
VERTEX
  5
18FE
  8
SAPA_PROFIL
 10
88.990069583874174
 20
-37.697466298074957
 30
0.0
  0
VERTEX
  5
18FF
  8
SAPA_PROFIL
 10
89.037915333872661
 20
-37.71198470732206
 30
0.0
  0
VERTEX
  5
1900
  8
SAPA_PROFIL
 10
89.037998941756285
 20
-39.215085788084068
 30
0.0
 42
-0.4769755326981641
  0
VERTEX
  5
1901
  8
SAPA_PROFIL
 10
88.666342066810444
 20
-39.517338612590542
 30
0.0
  0
VERTEX
  5
1902
  8
SAPA_PROFIL
 10
86.853111596152146
 20
-39.135892016462797
 30
0.0
 42
-0.2216946626430139
  0
VERTEX
  5
1903
  8
SAPA_PROFIL
 10
86.312231764675417
 20
-38.730083111308019
 30
0.0
  0
VERTEX
  5
1904
  8
SAPA_PROFIL
 10
86.160097853566654
 20
-38.44540082807638
 30
0.0
 42
-0.5773502691897449
  0
VERTEX
  5
1905
  8
SAPA_PROFIL
 10
86.343051593676819
 20
-38.151244527821561
 30
0.0
  0
VERTEX
  5
1906
  8
SAPA_PROFIL
 10
86.664809321895049
 20
-38.161805894048527
 30
0.0
  0
VERTEX
  5
1907
  8
SAPA_PROFIL
 10
87.749373768866803
 20
-36.275962202187472
 30
0.0
  0
VERTEX
  5
1908
  8
SAPA_PROFIL
 10
87.807447405855896
 20
-36.084579202193751
 30
0.0
 42
0.7625858545243336
  0
VERTEX
  5
1909
  8
SAPA_PROFIL
 10
87.477121324838876
 20
-35.899999999996247
 30
0.0
 42
-0.2134217652834429
  0
VERTEX
  5
190A
  8
SAPA_PROFIL
 10
87.253514527088754
 20
-35.99999999999639
 30
0.0
  0
VERTEX
  5
190B
  8
SAPA_PROFIL
 10
83.400728122588674
 20
-35.99999999999639
 30
0.0
 42
0.4142135623729286
  0
VERTEX
  5
190C
  8
SAPA_PROFIL
 10
83.100728122588748
 20
-36.299999999996459
 30
0.0
  0
VERTEX
  5
190D
  8
SAPA_PROFIL
 10
83.100728122588748
 20
-36.599999999996641
 30
0.0
  0
VERTEX
  5
190E
  8
SAPA_PROFIL
 10
84.024488553292159
 20
-38.199999999996272
 30
0.0
 42
-0.5773502691897388
  0
VERTEX
  5
190F
  8
SAPA_PROFIL
 10
83.851283472535272
 20
-38.49999999999639
 30
0.0
  0
SEQEND
  5
1910
  8
SAPA_PROFIL
  0
POLYLINE
  5
1269
  8
SAPA_PROFIL
 66
     1
 10
0.0
 20
0.0
 30
0.0
 70
     1
  0
VERTEX
  5
1911
  8
SAPA_PROFIL
 10
9.6999999579304852
 20
-33.899999999996382
 30
0.0
  0
VERTEX
  5
1912
  8
SAPA_PROFIL
 10
9.6999999579304852
 20
-34.200000083869682
 30
0.0
  0
VERTEX
  5
1913
  8
SAPA_PROFIL
 10
7.9999999579304983
 20
-34.20000008386971
 30
0.0
 42
-0.4142135623730951
  0
VERTEX
  5
1914
  8
SAPA_PROFIL
 10
7.6999999579304861
 20
-33.900000083869699
 30
0.0
  0
VERTEX
  5
1915
  8
SAPA_PROFIL
 10
7.6999999579304861
 20
-16.299999999996391
 30
0.0
 42
-0.4142135623730951
  0
VERTEX
  5
1916
  8
SAPA_PROFIL
 10
7.9999999579304983
 20
-15.99999999999638
 30
0.0
  0
VERTEX
  5
1917
  8
SAPA_PROFIL
 10
9.6999999579304852
 20
-15.99999999999638
 30
0.0
  0
VERTEX
  5
1918
  8
SAPA_PROFIL
 10
9.6999999579304585
 20
-16.099999999996399
 30
0.0
 42
0.4142135623730951
  0
VERTEX
  5
1919
  8
SAPA_PROFIL
 10
9.8999999579304472
 20
-16.299999999996391
 30
0.0
  0
VERTEX
  5
191A
  8
SAPA_PROFIL
 10
11.49999995793047
 20
-16.299999999996391
 30
0.0
 42
0.4142135623730951
  0
VERTEX
  5
191B
  8
SAPA_PROFIL
 10
11.69999995793046
 20
-16.099999999996399
 30
0.0
  0
VERTEX
  5
191C
  8
SAPA_PROFIL
 10
11.69999995793046
 20
-15.99999999999638
 30
0.0
  0
VERTEX
  5
191D
  8
SAPA_PROFIL
 10
78.79999995793051
 20
-15.99999999999639
 30
0.0
  0
VERTEX
  5
191E
  8
SAPA_PROFIL
 10
78.79999995793051
 20
-16.09999999999641
 30
0.0
 42
0.4142135623730951
  0
VERTEX
  5
191F
  8
SAPA_PROFIL
 10
78.999999957930498
 20
-16.299999999996398
 30
0.0
  0
VERTEX
  5
1920
  8
SAPA_PROFIL
 10
80.599999957930521
 20
-16.299999999996398
 30
0.0
 42
0.4142135623730951
  0
VERTEX
  5
1921
  8
SAPA_PROFIL
 10
80.799999957930495
 20
-16.09999999999641
 30
0.0
  0
VERTEX
  5
1922
  8
SAPA_PROFIL
 10
80.799999957930495
 20
-15.99999999999639
 30
0.0
  0
VERTEX
  5
1923
  8
SAPA_PROFIL
 10
82.499999957930498
 20
-15.999999999996399
 30
0.0
 42
-0.4142135623730951
  0
VERTEX
  5
1924
  8
SAPA_PROFIL
 10
82.799999957930481
 20
-16.299999999996398
 30
0.0
  0
VERTEX
  5
1925
  8
SAPA_PROFIL
 10
82.799999957930481
 20
-33.90000008386972
 30
0.0
 42
-0.4142135623730951
  0
VERTEX
  5
1926
  8
SAPA_PROFIL
 10
82.499999957930498
 20
-34.200000083869703
 30
0.0
  0
VERTEX
  5
1927
  8
SAPA_PROFIL
 10
80.799999957930495
 20
-34.200000083869703
 30
0.0
  0
VERTEX
  5
1928
  8
SAPA_PROFIL
 10
80.799999957930495
 20
-33.899999999996403
 30
0.0
 42
0.4142135623730951
  0
VERTEX
  5
1929
  8
SAPA_PROFIL
 10
80.599999957930521
 20
-33.699999999996379
 30
0.0
  0
VERTEX
  5
192A
  8
SAPA_PROFIL
 10
78.999999957930498
 20
-33.699999999996379
 30
0.0
 42
0.4142135623730951
  0
VERTEX
  5
192B
  8
SAPA_PROFIL
 10
78.79999995793051
 20
-33.899999999996403
 30
0.0
  0
VERTEX
  5
192C
  8
SAPA_PROFIL
 10
78.79999995793051
 20
-34.200000083869703
 30
0.0
  0
VERTEX
  5
192D
  8
SAPA_PROFIL
 10
11.69999995793046
 20
-34.200000083869682
 30
0.0
  0
VERTEX
  5
192E
  8
SAPA_PROFIL
 10
11.69999995793046
 20
-33.899999999996382
 30
0.0
 42
0.4142135623730951
  0
VERTEX
  5
192F
  8
SAPA_PROFIL
 10
11.49999995793047
 20
-33.699999999996372
 30
0.0
  0
VERTEX
  5
1930
  8
SAPA_PROFIL
 10
9.8999999579304472
 20
-33.699999999996372
 30
0.0
 42
0.4142135623730951
  0
SEQEND
  5
1931
  8
SAPA_PROFIL
  0
POLYLINE
  5
126A
  8
SAPA_PROFIL
  6
CONTINUOUS
 66
     1
 10
0.0
 20
0.0
 30
0.0
 70
     1
  0
VERTEX
  5
1932
  8
SAPA_PROFIL
  6
CONTINUOUS
 10
82.465642826480064
 20
-75.499999999996277
 30
0.0
 42
0.267949192431107
  0
VERTEX
  5
1933
  8
SAPA_PROFIL
  6
CONTINUOUS
 10
81.599617422695644
 20
-75.999999999996234
 30
0.0
  0
VERTEX
  5
1934
  8
SAPA_PROFIL
  6
CONTINUOUS
 10
80.589254451613556
 20
-77.749999999996433
 30
0.0
 42
-0.2679491924310983
  0
VERTEX
  5
1935
  8
SAPA_PROFIL
  6
CONTINUOUS
 10
80.156241749721374
 20
-77.999999999996405
 30
0.0
  0
VERTEX
  5
1936
  8
SAPA_PROFIL
  6
CONTINUOUS
 10
15.14375816613949
 20
-77.999999999996405
 30
0.0
 42
-0.2679491924311136
  0
VERTEX
  5
1937
  8
SAPA_PROFIL
  6
CONTINUOUS
 10
14.71074546424728
 20
-77.749999999996433
 30
0.0
  0
VERTEX
  5
1938
  8
SAPA_PROFIL
  6
CONTINUOUS
 10
13.70038249316508
 20
-75.999999999996305
 30
0.0
 42
0.2679491924311069
  0
VERTEX
  5
1939
  8
SAPA_PROFIL
  6
CONTINUOUS
 10
12.83435708938077
 20
-75.499999999996405
 30
0.0
  0
VERTEX
  5
193A
  8
SAPA_PROFIL
  6
CONTINUOUS
 10
11.448716443325621
 20
-75.499999999996561
 30
0.0
 42
0.5773502691897559
  0
VERTEX
  5
193B
  8
SAPA_PROFIL
  6
CONTINUOUS
 10
11.27551136256886
 20
-75.799999999996473
 30
0.0
  0
VERTEX
  5
193C
  8
SAPA_PROFIL
  6
CONTINUOUS
 10
12.199271793272141
 20
-77.399999999996169
 30
0.0
  0
VERTEX
  5
193D
  8
SAPA_PROFIL
  6
CONTINUOUS
 10
12.199271793272141
 20
-77.699999999996365
 30
0.0
 42
-0.4142135623728786
  0
VERTEX
  5
193E
  8
SAPA_PROFIL
  6
CONTINUOUS
 10
11.89927179327225
 20
-77.999999999996405
 30
0.0
  0
VERTEX
  5
193F
  8
SAPA_PROFIL
  6
CONTINUOUS
 10
8.0464853887720551
 20
-77.999999999996433
 30
0.0
 42
0.2134217652834295
  0
VERTEX
  5
1940
  8
SAPA_PROFIL
  6
CONTINUOUS
 10
7.8228785910219472
 20
-78.099999999996527
 30
0.0
 42
-0.7625858545243317
  0
VERTEX
  5
1941
  8
SAPA_PROFIL
  6
CONTINUOUS
 10
7.4925525100049413
 20
-77.915420797799044
 30
0.0
  0
VERTEX
  5
1942
  8
SAPA_PROFIL
  6
CONTINUOUS
 10
7.5506261469940341
 20
-77.724037797805337
 30
0.0
  0
VERTEX
  5
1943
  8
SAPA_PROFIL
  6
CONTINUOUS
 10
8.635190593965774
 20
-75.838194105944282
 30
0.0
  0
VERTEX
  5
1944
  8
SAPA_PROFIL
  6
CONTINUOUS
 10
8.9569483221840187
 20
-75.848755472171263
 30
0.0
 42
0.5773502691897461
  0
VERTEX
  5
1945
  8
SAPA_PROFIL
  6
CONTINUOUS
 10
9.1399020622941975
 20
-75.554599171916422
 30
0.0
  0
VERTEX
  5
1946
  8
SAPA_PROFIL
  6
CONTINUOUS
 10
8.9877681511854348
 20
-75.269916888684804
 30
0.0
 42
0.221694662643014
  0
VERTEX
  5
1947
  8
SAPA_PROFIL
  6
CONTINUOUS
 10
8.4468883197086484
 20
-74.864107983529991
 30
0.0
  0
VERTEX
  5
1948
  8
SAPA_PROFIL
  6
CONTINUOUS
 10
6.633657849050393
 20
-74.482661387402274
 30
0.0
 42
0.476975532698164
  0
VERTEX
  5
1949
  8
SAPA_PROFIL
  6
CONTINUOUS
 10
6.2620009741045228
 20
-74.784914211908742
 30
0.0
  0
VERTEX
  5
194A
  8
SAPA_PROFIL
  6
CONTINUOUS
 10
6.2620845819881756
 20
-76.28801529267075
 30
0.0
  0
VERTEX
  5
194B
  8
SAPA_PROFIL
  6
CONTINUOUS
 10
6.3099303319866626
 20
-76.302533701917852
 30
0.0
 42
-0.4142135623730872
  0
VERTEX
  5
194C
  8
SAPA_PROFIL
  6
CONTINUOUS
 10
6.5098943764940591
 20
-76.676718657393664
 30
0.0
  0
VERTEX
  5
194D
  8
SAPA_PROFIL
  6
CONTINUOUS
 10
5.999999957930469
 20
-77.99595165915531
 30
0.0
  0
VERTEX
  5
194E
  8
SAPA_PROFIL
  6
CONTINUOUS
 10
5.999999957930469
 20
-89.399999916148886
 30
0.0
 42
-0.4142135623730951
  0
VERTEX
  5
194F
  8
SAPA_PROFIL
  6
CONTINUOUS
 10
5.7999999579304244
 20
-89.599999916148874
 30
0.0
  0
VERTEX
  5
1950
  8
SAPA_PROFIL
  6
CONTINUOUS
 10
4.1989809999998888
 20
-89.599999916148846
 30
0.0
 42
0.4142135623730951
  0
VERTEX
  5
1951
  8
SAPA_PROFIL
  6
CONTINUOUS
 10
3.9989809999998438
 20
-89.799999916148892
 30
0.0
  0
VERTEX
  5
1952
  8
SAPA_PROFIL
  6
CONTINUOUS
 10
3.998980999999957
 20
-90.299999916149375
 30
0.0
 42
0.4142135623730951
  0
VERTEX
  5
1953
  8
SAPA_PROFIL
  6
CONTINUOUS
 10
4.9989809999995032
 20
-91.299999916148934
 30
0.0
  0
VERTEX
  5
1954
  8
SAPA_PROFIL
  6
CONTINUOUS
 10
12.50000074707418
 20
-91.299999916148934
 30
0.0
 42
-0.4142135623730951
  0
VERTEX
  5
1955
  8
SAPA_PROFIL
  6
CONTINUOUS
 10
13.499999999999879
 20
-92.299999169074496
 30
0.0
  0
VERTEX
  5
1956
  8
SAPA_PROFIL
  6
CONTINUOUS
 10
13.499999999999879
 20
-97.999999999996405
 30
0.0
 42
0.4142135623731034
  0
VERTEX
  5
1957
  8
SAPA_PROFIL
  6
CONTINUOUS
 10
15.49999999999994
 20
-99.999999999996419
 30
0.0
  0
VERTEX
  5
1958
  8
SAPA_PROFIL
  6
CONTINUOUS
 10
110.9999999579304
 20
-99.999999999996376
 30
0.0
 42
0.4142139999999731
  0
VERTEX
  5
1959
  8
SAPA_PROFIL
  6
CONTINUOUS
 10
111.4999999579304
 20
-99.499999999996419
 30
0.0
  0
VERTEX
  5
195A
  8
SAPA_PROFIL
  6
CONTINUOUS
 10
111.4999999579303
 20
-95.799999999996416
 30
0.0
 42
0.4142139999999024
  0
VERTEX
  5
195B
  8
SAPA_PROFIL
  6
CONTINUOUS
 10
111.1999999579304
 20
-95.499999999996405
 30
0.0
  0
VERTEX
  5
195C
  8
SAPA_PROFIL
  6
CONTINUOUS
 10
110.4324549579304
 20
-95.499999999996405
 30
0.0
 42
0.2896899999999899
  0
VERTEX
  5
195D
  8
SAPA_PROFIL
  6
CONTINUOUS
 10
109.5289469579304
 20
-96.071427999996388
 30
0.0
 42
0.5507600000000346
  0
VERTEX
  5
195E
  8
SAPA_PROFIL
  6
CONTINUOUS
 10
109.7999999579304
 20
-96.499999999996433
 30
0.0
  0
VERTEX
  5
195F
  8
SAPA_PROFIL
  6
CONTINUOUS
 10
109.9999999579304
 20
-96.499999999996433
 30
0.0
 42
-0.4142140000000646
  0
VERTEX
  5
1960
  8
SAPA_PROFIL
  6
CONTINUOUS
 10
110.2999999579304
 20
-96.799999999996402
 30
0.0
  0
VERTEX
  5
1961
  8
SAPA_PROFIL
  6
CONTINUOUS
 10
110.2999999579304
 20
-98.299999999996416
 30
0.0
 42
-0.4142139999999898
  0
VERTEX
  5
1962
  8
SAPA_PROFIL
  6
CONTINUOUS
 10
109.7999999579304
 20
-98.799999999996402
 30
0.0
  0
VERTEX
  5
1963
  8
SAPA_PROFIL
  6
CONTINUOUS
 10
106.4999999579303
 20
-98.799999999996402
 30
0.0
 42
-0.4142140000000147
  0
VERTEX
  5
1964
  8
SAPA_PROFIL
  6
CONTINUOUS
 10
105.9999999579303
 20
-98.299999999996416
 30
0.0
  0
VERTEX
  5
1965
  8
SAPA_PROFIL
  6
CONTINUOUS
 10
105.9999999579303
 20
-96.799999999996402
 30
0.0
 42
-0.4142140000000064
  0
VERTEX
  5
1966
  8
SAPA_PROFIL
  6
CONTINUOUS
 10
106.2999999579304
 20
-96.499999999996433
 30
0.0
  0
VERTEX
  5
1967
  8
SAPA_PROFIL
  6
CONTINUOUS
 10
106.4999999579303
 20
-96.499999999996461
 30
0.0
 42
0.5507599999999604
  0
VERTEX
  5
1968
  8
SAPA_PROFIL
  6
CONTINUOUS
 10
106.7710519579304
 20
-96.071427999996388
 30
0.0
 42
0.2896899999999871
  0
VERTEX
  5
1969
  8
SAPA_PROFIL
  6
CONTINUOUS
 10
105.86754395793039
 20
-95.499999999996405
 30
0.0
  0
VERTEX
  5
196A
  8
SAPA_PROFIL
  6
CONTINUOUS
 10
104.8700729579304
 20
-95.499999999996405
 30
0.0
 42
0.0436609999999814
  0
VERTEX
  5
196B
  8
SAPA_PROFIL
  6
CONTINUOUS
 10
104.7832479579304
 20
-95.507595999996425
 30
0.0
  0
VERTEX
  5
196C
  8
SAPA_PROFIL
  6
CONTINUOUS
 10
103.2131759579304
 20
-95.784441999996417
 30
0.0
 42
0.83909999999999
  0
VERTEX
  5
196D
  8
SAPA_PROFIL
  6
CONTINUOUS
 10
103.2131759579304
 20
-96.769249999996404
 30
0.0
  0
VERTEX
  5
196E
  8
SAPA_PROFIL
  6
CONTINUOUS
 10
104.3868239579304
 20
-96.976194999996409
 30
0.0
 42
-0.3639700000000481
  0
VERTEX
  5
196F
  8
SAPA_PROFIL
  6
CONTINUOUS
 10
104.7999999579304
 20
-97.468598999996431
 30
0.0
  0
VERTEX
  5
1970
  8
SAPA_PROFIL
  6
CONTINUOUS
 10
104.7999999579304
 20
-98.279999999996406
 30
0.0
 42
-0.4373280000000153
  0
VERTEX
  5
1971
  8
SAPA_PROFIL
  6
CONTINUOUS
 10
104.26090495793041
 20
-98.77846899999642
 30
0.0
  0
VERTEX
  5
1972
  8
SAPA_PROFIL
  6
CONTINUOUS
 10
89.787846684514051
 20
-98.211670513600566
 30
0.0
 42
-0.402394135529822
  0
VERTEX
  5
1973
  8
SAPA_PROFIL
  6
CONTINUOUS
 10
89.499999957930356
 20
-97.911916784774235
 30
0.0
  0
VERTEX
  5
1974
  8
SAPA_PROFIL
  6
CONTINUOUS
 10
89.499999957930385
 20
-97.111382999996408
 30
0.0
 42
0.2596810000001402
  0
VERTEX
  5
1975
  8
SAPA_PROFIL
  6
CONTINUOUS
 10
89.405306957930321
 20
-96.941351999996414
 30
0.0
  0
VERTEX
  5
1976
  8
SAPA_PROFIL
  6
CONTINUOUS
 10
87.957959957930484
 20
-96.04495299999634
 30
0.0
 42
0.5877030000000199
  0
VERTEX
  5
1977
  8
SAPA_PROFIL
  6
CONTINUOUS
 10
87.499999957930356
 20
-96.29999999999643
 30
0.0
  0
VERTEX
  5
1978
  8
SAPA_PROFIL
  6
CONTINUOUS
 10
87.499999957930356
 20
-97.699999999996393
 30
0.0
 42
-0.414213999999919
  0
VERTEX
  5
1979
  8
SAPA_PROFIL
  6
CONTINUOUS
 10
87.199999957930444
 20
-97.999999999996405
 30
0.0
  0
VERTEX
  5
197A
  8
SAPA_PROFIL
  6
CONTINUOUS
 10
84.799999957930424
 20
-97.999999999996405
 30
0.0
 42
-0.4142140000000688
  0
VERTEX
  5
197B
  8
SAPA_PROFIL
  6
CONTINUOUS
 10
84.499999957930356
 20
-97.699999999996393
 30
0.0
  0
VERTEX
  5
197C
  8
SAPA_PROFIL
  6
CONTINUOUS
 10
84.499999957930356
 20
-80.299999999996444
 30
0.0
 42
-0.4142140000001147
  0
VERTEX
  5
197D
  8
SAPA_PROFIL
  6
CONTINUOUS
 10
84.799999957930424
 20
-79.999999999996419
 30
0.0
  0
VERTEX
  5
197E
  8
SAPA_PROFIL
  6
CONTINUOUS
 10
87.199999957930444
 20
-79.999999999996433
 30
0.0
 42
-0.4142139999999814
  0
VERTEX
  5
197F
  8
SAPA_PROFIL
  6
CONTINUOUS
 10
87.499999957930356
 20
-80.299999999996444
 30
0.0
  0
VERTEX
  5
1980
  8
SAPA_PROFIL
  6
CONTINUOUS
 10
87.499999957930356
 20
-81.699999999996393
 30
0.0
 42
0.592005416071043
  0
VERTEX
  5
1981
  8
SAPA_PROFIL
  6
CONTINUOUS
 10
87.961203296045255
 20
-81.953008512754167
 30
0.0
  0
VERTEX
  5
1982
  8
SAPA_PROFIL
  6
CONTINUOUS
 10
89.20746895225821
 20
-81.158955482932498
 30
0.0
 42
0.256276985293172
  0
VERTEX
  5
1983
  8
SAPA_PROFIL
  6
CONTINUOUS
 10
89.299999957930339
 20
-80.990282974033889
 30
0.0
  0
VERTEX
  5
1984
  8
SAPA_PROFIL
  6
CONTINUOUS
 10
89.299999957930339
 20
-77.995951659155395
 30
0.0
  0
VERTEX
  5
1985
  8
SAPA_PROFIL
  6
CONTINUOUS
 10
88.790105539366706
 20
-76.676718657393664
 30
0.0
 42
-0.4142135623730872
  0
VERTEX
  5
1986
  8
SAPA_PROFIL
  6
CONTINUOUS
 10
88.990069583874117
 20
-76.302533701917852
 30
0.0
  0
VERTEX
  5
1987
  8
SAPA_PROFIL
  6
CONTINUOUS
 10
89.037915333872604
 20
-76.28801529267075
 30
0.0
  0
VERTEX
  5
1988
  8
SAPA_PROFIL
  6
CONTINUOUS
 10
89.037998941756229
 20
-74.784914211908742
 30
0.0
 42
0.4769755326981644
  0
VERTEX
  5
1989
  8
SAPA_PROFIL
  6
CONTINUOUS
 10
88.666342066810387
 20
-74.482661387402274
 30
0.0
  0
VERTEX
  5
198A
  8
SAPA_PROFIL
  6
CONTINUOUS
 10
86.853111596152104
 20
-74.864107983530005
 30
0.0
 42
0.2216946626430138
  0
VERTEX
  5
198B
  8
SAPA_PROFIL
  6
CONTINUOUS
 10
86.312231764675346
 20
-75.26991688868479
 30
0.0
  0
VERTEX
  5
198C
  8
SAPA_PROFIL
  6
CONTINUOUS
 10
86.160097853566569
 20
-75.554599171916436
 30
0.0
 42
0.5773502691897452
  0
VERTEX
  5
198D
  8
SAPA_PROFIL
  6
CONTINUOUS
 10
86.343051593676748
 20
-75.848755472171248
 30
0.0
  0
VERTEX
  5
198E
  8
SAPA_PROFIL
  6
CONTINUOUS
 10
86.664809321895007
 20
-75.838194105944282
 30
0.0
  0
VERTEX
  5
198F
  8
SAPA_PROFIL
  6
CONTINUOUS
 10
87.749373768866747
 20
-77.724037797805337
 30
0.0
  0
VERTEX
  5
1990
  8
SAPA_PROFIL
  6
CONTINUOUS
 10
87.807447405855839
 20
-77.915420797799044
 30
0.0
 42
-0.7625858545243334
  0
VERTEX
  5
1991
  8
SAPA_PROFIL
  6
CONTINUOUS
 10
87.477121324838834
 20
-78.099999999996555
 30
0.0
 42
0.2134217652834436
  0
VERTEX
  5
1992
  8
SAPA_PROFIL
  6
CONTINUOUS
 10
87.253514527088683
 20
-77.999999999996405
 30
0.0
  0
VERTEX
  5
1993
  8
SAPA_PROFIL
  6
CONTINUOUS
 10
83.400728122588617
 20
-77.999999999996433
 30
0.0
 42
-0.4142135623728953
  0
VERTEX
  5
1994
  8
SAPA_PROFIL
  6
CONTINUOUS
 10
83.100728122588691
 20
-77.699999999996365
 30
0.0
  0
VERTEX
  5
1995
  8
SAPA_PROFIL
  6
CONTINUOUS
 10
83.100728122588691
 20
-77.399999999996169
 30
0.0
  0
VERTEX
  5
1996
  8
SAPA_PROFIL
  6
CONTINUOUS
 10
84.024488553292088
 20
-75.799999999996544
 30
0.0
 42
0.5773502691897648
  0
VERTEX
  5
1997
  8
SAPA_PROFIL
  6
CONTINUOUS
 10
83.851283472535215
 20
-75.499999999996405
 30
0.0
  0
SEQEND
  5
1998
  8
SAPA_PROFIL
  6
CONTINUOUS
  0
POLYLINE
  5
126B
  8
SAPA_PROFIL
  6
CONTINUOUS
 66
     1
 10
0.0
 20
0.0
 30
0.0
 70
     1
  0
VERTEX
  5
1999
  8
SAPA_PROFIL
  6
CONTINUOUS
 10
7.999999957930469
 20
-79.799999916122985
 30
0.0
 42
0.4142135623730951
  0
VERTEX
  5
199A
  8
SAPA_PROFIL
  6
CONTINUOUS
 10
7.6999999579304008
 20
-80.099999916123053
 30
0.0
  0
VERTEX
  5
199B
  8
SAPA_PROFIL
  6
CONTINUOUS
 10
7.6999999579304008
 20
-89.299999916148906
 30
0.0
 42
0.4142135623730951
  0
VERTEX
  5
199C
  8
SAPA_PROFIL
  6
CONTINUOUS
 10
7.9999999579304131
 20
-89.599999916148874
 30
0.0
  0
VERTEX
  5
199D
  8
SAPA_PROFIL
  6
CONTINUOUS
 10
12.50000074707418
 20
-89.599999916148874
 30
0.0
 42
-0.4142135623730951
  0
VERTEX
  5
199E
  8
SAPA_PROFIL
  6
CONTINUOUS
 10
15.199999999999759
 20
-92.299999169074496
 30
0.0
  0
VERTEX
  5
199F
  8
SAPA_PROFIL
  6
CONTINUOUS
 10
15.199999999999759
 20
-97.699999999996436
 30
0.0
 42
0.4142135623732032
  0
VERTEX
  5
19A0
  8
SAPA_PROFIL
  6
CONTINUOUS
 10
15.499999999999879
 20
-97.999999999996405
 30
0.0
  0
VERTEX
  5
19A1
  8
SAPA_PROFIL
  6
CONTINUOUS
 10
17.499999999999879
 20
-97.999999999996405
 30
0.0
  0
VERTEX
  5
19A2
  8
SAPA_PROFIL
  6
CONTINUOUS
 10
17.499999999999879
 20
-97.899999999996396
 30
0.0
 42
-0.4142135623730951
  0
VERTEX
  5
19A3
  8
SAPA_PROFIL
  6
CONTINUOUS
 10
17.699999999999871
 20
-97.699999999996393
 30
0.0
  0
VERTEX
  5
19A4
  8
SAPA_PROFIL
  6
CONTINUOUS
 10
19.299999999999901
 20
-97.699999999996393
 30
0.0
 42
-0.4142135623730951
  0
VERTEX
  5
19A5
  8
SAPA_PROFIL
  6
CONTINUOUS
 10
19.499999999999879
 20
-97.899999999996396
 30
0.0
  0
VERTEX
  5
19A6
  8
SAPA_PROFIL
  6
CONTINUOUS
 10
19.499999999999879
 20
-97.999999999996405
 30
0.0
  0
VERTEX
  5
19A7
  8
SAPA_PROFIL
  6
CONTINUOUS
 10
78.799999957930453
 20
-97.999999999996405
 30
0.0
  0
VERTEX
  5
19A8
  8
SAPA_PROFIL
  6
CONTINUOUS
 10
78.799999957930453
 20
-97.899999999996396
 30
0.0
 42
-0.4142135623730951
  0
VERTEX
  5
19A9
  8
SAPA_PROFIL
  6
CONTINUOUS
 10
78.999999957930441
 20
-97.699999999996393
 30
0.0
  0
VERTEX
  5
19AA
  8
SAPA_PROFIL
  6
CONTINUOUS
 10
80.599999957930464
 20
-97.699999999996393
 30
0.0
 42
-0.4142135623730951
  0
VERTEX
  5
19AB
  8
SAPA_PROFIL
  6
CONTINUOUS
 10
80.799999957930453
 20
-97.899999999996396
 30
0.0
  0
VERTEX
  5
19AC
  8
SAPA_PROFIL
  6
CONTINUOUS
 10
80.799999957930453
 20
-97.999999999996405
 30
0.0
  0
VERTEX
  5
19AD
  8
SAPA_PROFIL
  6
CONTINUOUS
 10
82.499999957930456
 20
-97.999999999996405
 30
0.0
 42
0.4142135623730951
  0
VERTEX
  5
19AE
  8
SAPA_PROFIL
  6
CONTINUOUS
 10
82.799999957930424
 20
-97.699999999996393
 30
0.0
  0
VERTEX
  5
19AF
  8
SAPA_PROFIL
  6
CONTINUOUS
 10
82.799999957930396
 20
-80.099999916123053
 30
0.0
 42
0.4142135623730951
  0
VERTEX
  5
19B0
  8
SAPA_PROFIL
  6
CONTINUOUS
 10
82.499999957930456
 20
-79.799999916123085
 30
0.0
  0
VERTEX
  5
19B1
  8
SAPA_PROFIL
  6
CONTINUOUS
 10
80.799999957930453
 20
-79.799999916123085
 30
0.0
  0
VERTEX
  5
19B2
  8
SAPA_PROFIL
  6
CONTINUOUS
 10
80.799999957930453
 20
-80.099999999996399
 30
0.0
 42
-0.4142135623730951
  0
VERTEX
  5
19B3
  8
SAPA_PROFIL
  6
CONTINUOUS
 10
80.599999957930464
 20
-80.299999999996444
 30
0.0
  0
VERTEX
  5
19B4
  8
SAPA_PROFIL
  6
CONTINUOUS
 10
78.999999957930441
 20
-80.299999999996444
 30
0.0
 42
-0.4142135623730951
  0
VERTEX
  5
19B5
  8
SAPA_PROFIL
  6
CONTINUOUS
 10
78.799999957930453
 20
-80.099999999996399
 30
0.0
  0
VERTEX
  5
19B6
  8
SAPA_PROFIL
  6
CONTINUOUS
 10
78.799999957930453
 20
-79.799999916123085
 30
0.0
  0
VERTEX
  5
19B7
  8
SAPA_PROFIL
  6
CONTINUOUS
 10
19.49999999999994
 20
-79.799999916123085
 30
0.0
  0
VERTEX
  5
19B8
  8
SAPA_PROFIL
  6
CONTINUOUS
 10
19.499999999999879
 20
-80.099999999996399
 30
0.0
 42
-0.4142135623730951
  0
VERTEX
  5
19B9
  8
SAPA_PROFIL
  6
CONTINUOUS
 10
19.299999999999901
 20
-80.299999999996444
 30
0.0
  0
VERTEX
  5
19BA
  8
SAPA_PROFIL
  6
CONTINUOUS
 10
17.699999999999871
 20
-80.299999999996444
 30
0.0
 42
-0.4142135623730951
  0
VERTEX
  5
19BB
  8
SAPA_PROFIL
  6
CONTINUOUS
 10
17.499999999999879
 20
-80.099999999996399
 30
0.0
  0
VERTEX
  5
19BC
  8
SAPA_PROFIL
  6
CONTINUOUS
 10
17.499999999999879
 20
-79.799999916123085
 30
0.0
  0
SEQEND
  5
19BD
  8
SAPA_PROFIL
  6
CONTINUOUS
  0
POLYLINE
  5
126C
  8
SAPA_PROFIL
 62
     4
 66
     1
 10
0.0
 20
0.0
 30
0.0
  0
VERTEX
  5
19BE
  8
SAPA_PROFIL
 62
     4
 10
86.567718872083503
 20
-66.049329122394184
 30
0.0
 42
-0.5571646428658034
  0
VERTEX
  5
19BF
  8
SAPA_PROFIL
 62
     4
 10
85.699999957927943
 20
-65.512368618257369
 30
0.0
  0
VERTEX
  5
19C0
  8
SAPA_PROFIL
 62
     4
 10
85.699999957928412
 20
-48.487631381736172
 30
0.0
 42
-0.5571645048035741
  0
VERTEX
  5
19C1
  8
SAPA_PROFIL
 62
     4
 10
86.567718645794585
 20
-47.950670764775097
 30
0.0
  0
VERTEX
  5
19C2
  8
SAPA_PROFIL
 62
     4
 10
88.233859301862594
 20
-48.78137785232181
 30
0.0
 42
-0.284385813979063
  0
VERTEX
  5
19C3
  8
SAPA_PROFIL
 62
     4
 10
88.399999957930049
 20
-49.04985816080216
 30
0.0
  0
VERTEX
  5
19C4
  8
SAPA_PROFIL
 62
     4
 10
88.399999957930049
 20
-64.950141839191474
 30
0.0
 42
-0.2843858139786238
  0
VERTEX
  5
19C5
  8
SAPA_PROFIL
 62
     4
 10
88.23385930186312
 20
-65.218622147671766
 30
0.0
  0
VERTEX
  5
19C6
  8
SAPA_PROFIL
 62
     4
 10
86.567718645793775
 20
-66.04932923521892
 30
0.0
  0
SEQEND
  5
19C7
  8
SAPA_PROFIL
 62
     4
  0
POLYLINE
  5
126D
  8
SAPA_PROFIL
 62
     4
 66
     1
 10
0.0
 20
0.0
 30
0.0
 70
     1
  0
VERTEX
  5
19C8
  8
SAPA_PROFIL
 62
     4
 10
88.756831472427621
 20
-42.582388815329523
 30
0.0
  0
VERTEX
  5
19C9
  8
SAPA_PROFIL
 62
     4
 10
89.163391668431757
 20
-42.318365536953507
 30
0.0
 42
0.2539676464751066
  0
VERTEX
  5
19CA
  8
SAPA_PROFIL
 62
     4
 10
89.299999957927866
 20
-42.066764366568798
 30
0.0
  0
VERTEX
  5
19CB
  8
SAPA_PROFIL
 62
     4
 10
89.299999957927866
 20
-40.68526478136345
 30
0.0
 42
0.3152987888790479
  0
VERTEX
  5
19CC
  8
SAPA_PROFIL
 62
     4
 10
88.971010029589706
 20
-40.215418470971137
 30
0.0
  0
VERTEX
  5
19CD
  8
SAPA_PROFIL
 62
     4
 10
86.510179839138445
 20
-39.319749530062538
 30
0.0
 42
-0.2694959974287434
  0
VERTEX
  5
19CE
  8
SAPA_PROFIL
 62
     4
 10
86.317047864794532
 20
-39.088230483661192
 30
0.0
 42
-0.0612686379508233
  0
VERTEX
  5
19CF
  8
SAPA_PROFIL
 62
     4
 10
86.303464494164018
 20
-38.795555050807913
 30
0.0
  0
VERTEX
  5
19D0
  8
SAPA_PROFIL
 62
     4
 10
86.101727815435197
 20
-38.44613687349964
 30
0.0
 42
-0.5773502691891679
  0
VERTEX
  5
19D1
  8
SAPA_PROFIL
 62
     4
 10
86.283593150229763
 20
-38.131136873500061
 30
0.0
  0
VERTEX
  5
19D2
  8
SAPA_PROFIL
 62
     4
 10
86.550707678356076
 20
-38.131136873499813
 30
0.0
  0
VERTEX
  5
19D3
  8
SAPA_PROFIL
 62
     4
 10
87.359391139664396
 20
-36.732609172865558
 30
0.0
 42
0.1318219888653519
  0
VERTEX
  5
19D4
  8
SAPA_PROFIL
 62
     4
 10
87.399683536201792
 20
-36.582436070393221
 30
0.0
  0
VERTEX
  5
19D5
  8
SAPA_PROFIL
 62
     4
 10
87.399683536195425
 20
-36.399999999956442
 30
0.0
 42
0.4142135623724291
  0
VERTEX
  5
19D6
  8
SAPA_PROFIL
 62
     4
 10
86.999683536195789
 20
-35.99999999995589
 30
0.0
  0
VERTEX
  5
19D7
  8
SAPA_PROFIL
 62
     4
 10
83.599683536194775
 20
-35.999999999957261
 30
0.0
 42
0.4142135623744271
  0
VERTEX
  5
19D8
  8
SAPA_PROFIL
 62
     4
 10
83.199683536193774
 20
-36.399999999956442
 30
0.0
  0
VERTEX
  5
19D9
  8
SAPA_PROFIL
 62
     4
 10
83.199683536193135
 20
-36.579615242227739
 30
0.0
 42
0.1316524975874005
  0
VERTEX
  5
19DA
  8
SAPA_PROFIL
 62
     4
 10
83.239875915058747
 20
-36.729615242224561
 30
0.0
  0
VERTEX
  5
19DB
  8
SAPA_PROFIL
 62
     4
 10
84.166025361711277
 20
-38.333753139226808
 30
0.0
 42
-0.1316524975875904
  0
VERTEX
  5
19DC
  8
SAPA_PROFIL
 62
     4
 10
84.299999957926033
 20
-38.83375313922852
 30
0.0
  0
VERTEX
  5
19DD
  8
SAPA_PROFIL
 62
     4
 10
84.299999957926033
 20
-39.24999999995589
 30
0.0
 42
-0.4142135623730951
  0
VERTEX
  5
19DE
  8
SAPA_PROFIL
 62
     4
 10
83.299999957926033
 20
-40.249999999955882
 30
0.0
  0
VERTEX
  5
19DF
  8
SAPA_PROFIL
 62
     4
 10
80.299999957928776
 20
-40.249999999955882
 30
0.0
 42
0.9999996830128083
  0
VERTEX
  5
19E0
  8
SAPA_PROFIL
 62
     4
 10
80.299999957926957
 20
-41.24999999995589
 30
0.0
  0
VERTEX
  5
19E1
  8
SAPA_PROFIL
 62
     4
 10
83.299999957926957
 20
-41.24999999995589
 30
0.0
 42
-0.4142135623730951
  0
VERTEX
  5
19E2
  8
SAPA_PROFIL
 62
     4
 10
84.299999957926957
 20
-42.249999999955882
 30
0.0
  0
VERTEX
  5
19E3
  8
SAPA_PROFIL
 62
     4
 10
84.299999957926957
 20
-71.750000000040473
 30
0.0
 42
-0.4142135623730951
  0
VERTEX
  5
19E4
  8
SAPA_PROFIL
 62
     4
 10
83.299999957926957
 20
-72.750000000040473
 30
0.0
  0
VERTEX
  5
19E5
  8
SAPA_PROFIL
 62
     4
 10
80.299999957928776
 20
-72.750000000040473
 30
0.0
 42
0.9999999999999998
  0
VERTEX
  5
19E6
  8
SAPA_PROFIL
 62
     4
 10
80.299999957928776
 20
-73.750000000040473
 30
0.0
  0
VERTEX
  5
19E7
  8
SAPA_PROFIL
 62
     4
 10
83.299999957926957
 20
-73.750000000040473
 30
0.0
 42
-0.4142135623736278
  0
VERTEX
  5
19E8
  8
SAPA_PROFIL
 62
     4
 10
84.299999957926957
 20
-74.750000000040473
 30
0.0
  0
VERTEX
  5
19E9
  8
SAPA_PROFIL
 62
     4
 10
84.299999957926943
 20
-75.166246860766933
 30
0.0
 42
-0.1316524975874375
  0
VERTEX
  5
19EA
  8
SAPA_PROFIL
 62
     4
 10
84.166025361710894
 20
-75.666246860767131
 30
0.0
  0
VERTEX
  5
19EB
  8
SAPA_PROFIL
 62
     4
 10
83.239875915058747
 20
-77.270384757769065
 30
0.0
 42
0.1316524975874
  0
VERTEX
  5
19EC
  8
SAPA_PROFIL
 62
     4
 10
83.199683536193135
 20
-77.42038475776863
 30
0.0
  0
VERTEX
  5
19ED
  8
SAPA_PROFIL
 62
     4
 10
83.199683536193774
 20
-77.600000000039927
 30
0.0
 42
0.4142135623744271
  0
VERTEX
  5
19EE
  8
SAPA_PROFIL
 62
     4
 10
83.599683536194775
 20
-78.000000000039108
 30
0.0
  0
VERTEX
  5
19EF
  8
SAPA_PROFIL
 62
     4
 10
86.999683536195775
 20
-78.000000000040473
 30
0.0
 42
0.4142135623724291
  0
VERTEX
  5
19F0
  8
SAPA_PROFIL
 62
     4
 10
87.399683536195411
 20
-77.600000000039927
 30
0.0
  0
VERTEX
  5
19F1
  8
SAPA_PROFIL
 62
     4
 10
87.399683536201763
 20
-77.417563929603148
 30
0.0
 42
0.1318219888653524
  0
VERTEX
  5
19F2
  8
SAPA_PROFIL
 62
     4
 10
87.359391139664396
 20
-77.267390827130811
 30
0.0
  0
VERTEX
  5
19F3
  8
SAPA_PROFIL
 62
     4
 10
86.550707678440077
 20
-75.868863126651135
 30
0.0
  0
VERTEX
  5
19F4
  8
SAPA_PROFIL
 62
     4
 10
86.28359315022702
 20
-75.868863126651135
 30
0.0
 42
-0.577350269189159
  0
VERTEX
  5
19F5
  8
SAPA_PROFIL
 62
     4
 10
86.101727815432454
 20
-75.553863126651549
 30
0.0
  0
VERTEX
  5
19F6
  8
SAPA_PROFIL
 62
     4
 10
86.303464494109548
 20
-75.204444949432883
 30
0.0
 42
-0.0612687673629489
  0
VERTEX
  5
19F7
  8
SAPA_PROFIL
 62
     4
 10
86.317047864795768
 20
-74.911769516332669
 30
0.0
 42
-0.2694959974285039
  0
VERTEX
  5
19F8
  8
SAPA_PROFIL
 62
     4
 10
86.510179839139724
 20
-74.680250469932162
 30
0.0
  0
VERTEX
  5
19F9
  8
SAPA_PROFIL
 62
     4
 10
88.971010029592875
 20
-73.784581529022489
 30
0.0
 42
0.3152987888784035
  0
VERTEX
  5
19FA
  8
SAPA_PROFIL
 62
     4
 10
89.299999957929444
 20
-73.314735218629266
 30
0.0
  0
VERTEX
  5
19FB
  8
SAPA_PROFIL
 62
     4
 10
89.299999957927866
 20
-71.933235633424829
 30
0.0
 42
0.2539676464741841
  0
VERTEX
  5
19FC
  8
SAPA_PROFIL
 62
     4
 10
89.163391668432595
 20
-71.681634463040751
 30
0.0
  0
VERTEX
  5
19FD
  8
SAPA_PROFIL
 62
     4
 10
88.756831472427621
 20
-71.417611184664111
 30
0.0
 42
0.5862177598324623
  0
VERTEX
  5
19FE
  8
SAPA_PROFIL
 62
     4
 10
88.299999957931107
 20
-71.673352999902448
 30
0.0
  0
VERTEX
  5
19FF
  8
SAPA_PROFIL
 62
     4
 10
88.29999995793878
 20
-72.614527680412266
 30
0.0
 42
-0.3152987888813165
  0
VERTEX
  5
1A00
  8
SAPA_PROFIL
 62
     4
 10
87.971010029602013
 20
-73.084373990810022
 30
0.0
  0
VERTEX
  5
1A01
  8
SAPA_PROFIL
 62
     4
 10
86.771010029590798
 20
-73.521138271933978
 30
0.0
 42
-0.5205670505515651
  0
VERTEX
  5
1A02
  8
SAPA_PROFIL
 62
     4
 10
86.099999957928034
 20
-73.051291961540755
 30
0.0
  0
VERTEX
  5
1A03
  8
SAPA_PROFIL
 62
     4
 10
86.099999957928034
 20
-68.034851020871912
 30
0.0
 42
-0.3702522326300203
  0
VERTEX
  5
1A04
  8
SAPA_PROFIL
 62
     4
 10
86.354459910593718
 20
-67.738327659078578
 30
0.0
 42
-0.0982365330332397
  0
VERTEX
  5
1A05
  8
SAPA_PROFIL
 62
     4
 10
88.042146685588733
 20
-67.647874900867635
 30
0.0
 42
-0.3735060174783164
  0
VERTEX
  5
1A06
  8
SAPA_PROFIL
 62
     4
 10
88.299999957928762
 20
-67.944899568778624
 30
0.0
  0
VERTEX
  5
1A07
  8
SAPA_PROFIL
 62
     4
 10
88.299999957929685
 20
-68.373352999901272
 30
0.0
 42
0.5920056181162531
  0
VERTEX
  5
1A08
  8
SAPA_PROFIL
 62
     4
 10
88.761203460457608
 20
-68.626361756218671
 30
0.0
  0
VERTEX
  5
1A09
  8
SAPA_PROFIL
 62
     4
 10
89.163391668435906
 20
-68.36517768006297
 30
0.0
 42
0.2539676464746725
  0
VERTEX
  5
1A0A
  8
SAPA_PROFIL
 62
     4
 10
89.299999957931263
 20
-68.113576509679206
 30
0.0
  0
VERTEX
  5
1A0B
  8
SAPA_PROFIL
 62
     4
 10
89.299999957929685
 20
-45.886423490313518
 30
0.0
 42
0.2539676464741819
  0
VERTEX
  5
1A0C
  8
SAPA_PROFIL
 62
     4
 10
89.163391668435906
 20
-45.634822319930663
 30
0.0
  0
VERTEX
  5
1A0D
  8
SAPA_PROFIL
 62
     4
 10
88.761203460457565
 20
-45.373638243776853
 30
0.0
 42
0.5920055144124249
  0
VERTEX
  5
1A0E
  8
SAPA_PROFIL
 62
     4
 10
88.299999957929685
 20
-45.626647000092362
 30
0.0
  0
VERTEX
  5
1A0F
  8
SAPA_PROFIL
 62
     4
 10
88.299999983204685
 20
-46.055100477382581
 30
0.0
 42
-0.3735060174775405
  0
VERTEX
  5
1A10
  8
SAPA_PROFIL
 62
     4
 10
88.042146710864614
 20
-46.35212514529227
 30
0.0
 42
-0.0355900683670349
  0
VERTEX
  5
1A11
  8
SAPA_PROFIL
 62
     4
 10
87.426273124064807
 20
-46.396018709324522
 30
0.0
 42
-0.0624282003873116
  0
VERTEX
  5
1A12
  8
SAPA_PROFIL
 62
     4
 10
86.354459935869684
 20
-46.261672387081582
 30
0.0
 42
-0.3702522326309292
  0
VERTEX
  5
1A13
  8
SAPA_PROFIL
 62
     4
 10
86.099999983203944
 20
-45.965149025288198
 30
0.0
  0
VERTEX
  5
1A14
  8
SAPA_PROFIL
 62
     4
 10
86.099999957927807
 20
-40.94870803845469
 30
0.0
 42
-0.5205670505515692
  0
VERTEX
  5
1A15
  8
SAPA_PROFIL
 62
     4
 10
86.771010029590798
 20
-40.478861728061467
 30
0.0
  0
VERTEX
  5
1A16
  8
SAPA_PROFIL
 62
     4
 10
87.971010029600237
 20
-40.915626009186418
 30
0.0
 42
-0.3152987888807539
  0
VERTEX
  5
1A17
  8
SAPA_PROFIL
 62
     4
 10
88.299999957937871
 20
-41.38547231958227
 30
0.0
  0
VERTEX
  5
1A18
  8
SAPA_PROFIL
 62
     4
 10
88.29999995793105
 20
-42.326647000091363
 30
0.0
 42
0.5862175119221242
  0
VERTEX
  5
1A19
  8
SAPA_PROFIL
 62
     4
 10
88.756831283686196
 20
-42.582388931073311
 30
0.0
 42
-0.0000002084758573
  0
SEQEND
  5
1A1A
  8
SAPA_PROFIL
 62
     4
  0
POLYLINE
  5
126E
  8
SAPA_PROFIL
 62
     4
 66
     1
 10
0.0
 20
0.0
 30
0.0
  0
VERTEX
  5
1A1B
  8
SAPA_PROFIL
 62
     4
 10
8.7322810437773928
 20
-66.049329122394184
 30
0.0
 42
0.5571646428658034
  0
VERTEX
  5
1A1C
  8
SAPA_PROFIL
 62
     4
 10
9.599999957932944
 20
-65.512368618257369
 30
0.0
  0
VERTEX
  5
1A1D
  8
SAPA_PROFIL
 62
     4
 10
9.5999999579324822
 20
-48.487631381736172
 30
0.0
 42
0.5571645048035741
  0
VERTEX
  5
1A1E
  8
SAPA_PROFIL
 62
     4
 10
8.7322812700663164
 20
-47.950670764775097
 30
0.0
  0
VERTEX
  5
1A1F
  8
SAPA_PROFIL
 62
     4
 10
7.0661406139982876
 20
-48.78137785232181
 30
0.0
 42
0.284385813979063
  0
VERTEX
  5
1A20
  8
SAPA_PROFIL
 62
     4
 10
6.8999999579308469
 20
-49.04985816080216
 30
0.0
  0
VERTEX
  5
1A21
  8
SAPA_PROFIL
 62
     4
 10
6.8999999579308504
 20
-64.950141839191474
 30
0.0
 42
0.2843858139786238
  0
VERTEX
  5
1A22
  8
SAPA_PROFIL
 62
     4
 10
7.0661406139977787
 20
-65.218622147671766
 30
0.0
  0
VERTEX
  5
1A23
  8
SAPA_PROFIL
 62
     4
 10
8.7322812700671246
 20
-66.04932923521892
 30
0.0
  0
SEQEND
  5
1A24
  8
SAPA_PROFIL
 62
     4
  0
POLYLINE
  5
126F
  8
SAPA_PROFIL
 62
     4
 66
     1
 10
0.0
 20
0.0
 30
0.0
 70
     1
  0
VERTEX
  5
1A25
  8
SAPA_PROFIL
 62
     4
 10
6.5431684434332746
 20
-42.582388815329523
 30
0.0
  0
VERTEX
  5
1A26
  8
SAPA_PROFIL
 62
     4
 10
6.1366082474291321
 20
-42.318365536953507
 30
0.0
 42
-0.2539676464751066
  0
VERTEX
  5
1A27
  8
SAPA_PROFIL
 62
     4
 10
5.9999999579330279
 20
-42.066764366568798
 30
0.0
  0
VERTEX
  5
1A28
  8
SAPA_PROFIL
 62
     4
 10
5.9999999579330279
 20
-40.68526478136345
 30
0.0
 42
-0.3152987888790479
  0
VERTEX
  5
1A29
  8
SAPA_PROFIL
 62
     4
 10
6.328989886271188
 20
-40.215418470971137
 30
0.0
  0
VERTEX
  5
1A2A
  8
SAPA_PROFIL
 62
     4
 10
8.7898200767224637
 20
-39.319749530062538
 30
0.0
 42
0.2694959974287434
  0
VERTEX
  5
1A2B
  8
SAPA_PROFIL
 62
     4
 10
8.9829520510663556
 20
-39.088230483661192
 30
0.0
 42
0.0612686379508233
  0
VERTEX
  5
1A2C
  8
SAPA_PROFIL
 62
     4
 10
8.9965354216968763
 20
-38.795555050807913
 30
0.0
  0
VERTEX
  5
1A2D
  8
SAPA_PROFIL
 62
     4
 10
9.1982721004256973
 20
-38.44613687349964
 30
0.0
 42
0.5773502691891679
  0
VERTEX
  5
1A2E
  8
SAPA_PROFIL
 62
     4
 10
9.0164067656311317
 20
-38.131136873500061
 30
0.0
  0
VERTEX
  5
1A2F
  8
SAPA_PROFIL
 62
     4
 10
8.7492922375048128
 20
-38.131136873499813
 30
0.0
  0
VERTEX
  5
1A30
  8
SAPA_PROFIL
 62
     4
 10
7.9406087761964947
 20
-36.732609172865558
 30
0.0
 42
-0.1318219888653519
  0
VERTEX
  5
1A31
  8
SAPA_PROFIL
 62
     4
 10
7.900316379659106
 20
-36.582436070393221
 30
0.0
  0
VERTEX
  5
1A32
  8
SAPA_PROFIL
 62
     4
 10
7.9003163796654716
 20
-36.399999999956442
 30
0.0
 42
-0.4142135623724291
  0
VERTEX
  5
1A33
  8
SAPA_PROFIL
 62
     4
 10
8.3003163796651087
 20
-35.99999999995589
 30
0.0
  0
VERTEX
  5
1A34
  8
SAPA_PROFIL
 62
     4
 10
11.700316379666109
 20
-35.999999999957261
 30
0.0
 42
-0.4142135623744271
  0
VERTEX
  5
1A35
  8
SAPA_PROFIL
 62
     4
 10
12.10031637966711
 20
-36.399999999956442
 30
0.0
  0
VERTEX
  5
1A36
  8
SAPA_PROFIL
 62
     4
 10
12.10031637966774
 20
-36.579615242227739
 30
0.0
 42
-0.1316524975874005
  0
VERTEX
  5
1A37
  8
SAPA_PROFIL
 62
     4
 10
12.06012400080215
 20
-36.729615242224561
 30
0.0
  0
VERTEX
  5
1A38
  8
SAPA_PROFIL
 62
     4
 10
11.13397455414961
 20
-38.333753139226808
 30
0.0
 42
0.1316524975875904
  0
VERTEX
  5
1A39
  8
SAPA_PROFIL
 62
     4
 10
10.99999995793484
 20
-38.83375313922852
 30
0.0
  0
VERTEX
  5
1A3A
  8
SAPA_PROFIL
 62
     4
 10
10.99999995793484
 20
-39.24999999995589
 30
0.0
 42
0.4142135623730951
  0
VERTEX
  5
1A3B
  8
SAPA_PROFIL
 62
     4
 10
11.99999995793485
 20
-40.249999999955882
 30
0.0
  0
VERTEX
  5
1A3C
  8
SAPA_PROFIL
 62
     4
 10
14.99999995793212
 20
-40.249999999955882
 30
0.0
 42
-0.9999996830128083
  0
VERTEX
  5
1A3D
  8
SAPA_PROFIL
 62
     4
 10
14.999999957933939
 20
-41.24999999995589
 30
0.0
  0
VERTEX
  5
1A3E
  8
SAPA_PROFIL
 62
     4
 10
11.999999957933939
 20
-41.24999999995589
 30
0.0
 42
0.4142135623730951
  0
VERTEX
  5
1A3F
  8
SAPA_PROFIL
 62
     4
 10
10.999999957933939
 20
-42.249999999955882
 30
0.0
  0
VERTEX
  5
1A40
  8
SAPA_PROFIL
 62
     4
 10
10.999999957933939
 20
-71.750000000040473
 30
0.0
 42
0.4142135623730951
  0
VERTEX
  5
1A41
  8
SAPA_PROFIL
 62
     4
 10
11.999999957933939
 20
-72.750000000040473
 30
0.0
  0
VERTEX
  5
1A42
  8
SAPA_PROFIL
 62
     4
 10
14.99999995793212
 20
-72.750000000040473
 30
0.0
 42
-0.9999999999999998
  0
VERTEX
  5
1A43
  8
SAPA_PROFIL
 62
     4
 10
14.99999995793212
 20
-73.750000000040473
 30
0.0
  0
VERTEX
  5
1A44
  8
SAPA_PROFIL
 62
     4
 10
11.999999957933939
 20
-73.750000000040473
 30
0.0
 42
0.4142135623736278
  0
VERTEX
  5
1A45
  8
SAPA_PROFIL
 62
     4
 10
10.999999957933939
 20
-74.750000000040473
 30
0.0
  0
VERTEX
  5
1A46
  8
SAPA_PROFIL
 62
     4
 10
10.999999957933939
 20
-75.166246860766933
 30
0.0
 42
0.1316524975874375
  0
VERTEX
  5
1A47
  8
SAPA_PROFIL
 62
     4
 10
11.133974554149979
 20
-75.666246860767131
 30
0.0
  0
VERTEX
  5
1A48
  8
SAPA_PROFIL
 62
     4
 10
12.06012400080215
 20
-77.270384757769065
 30
0.0
 42
-0.1316524975874
  0
VERTEX
  5
1A49
  8
SAPA_PROFIL
 62
     4
 10
12.10031637966774
 20
-77.42038475776863
 30
0.0
  0
VERTEX
  5
1A4A
  8
SAPA_PROFIL
 62
     4
 10
12.10031637966711
 20
-77.600000000039927
 30
0.0
 42
-0.4142135623744271
  0
VERTEX
  5
1A4B
  8
SAPA_PROFIL
 62
     4
 10
11.700316379666109
 20
-78.000000000039108
 30
0.0
  0
VERTEX
  5
1A4C
  8
SAPA_PROFIL
 62
     4
 10
8.3003163796651123
 20
-78.000000000040473
 30
0.0
 42
-0.4142135623724291
  0
VERTEX
  5
1A4D
  8
SAPA_PROFIL
 62
     4
 10
7.9003163796654761
 20
-77.600000000039927
 30
0.0
  0
VERTEX
  5
1A4E
  8
SAPA_PROFIL
 62
     4
 10
7.9003163796591087
 20
-77.417563929603148
 30
0.0
 42
-0.1318219888653524
  0
VERTEX
  5
1A4F
  8
SAPA_PROFIL
 62
     4
 10
7.9406087761965001
 20
-77.267390827130811
 30
0.0
  0
VERTEX
  5
1A50
  8
SAPA_PROFIL
 62
     4
 10
8.7492922374208373
 20
-75.868863126651135
 30
0.0
  0
VERTEX
  5
1A51
  8
SAPA_PROFIL
 62
     4
 10
9.0164067656338727
 20
-75.868863126651135
 30
0.0
 42
0.577350269189159
  0
VERTEX
  5
1A52
  8
SAPA_PROFIL
 62
     4
 10
9.1982721004284382
 20
-75.553863126651549
 30
0.0
  0
VERTEX
  5
1A53
  8
SAPA_PROFIL
 62
     4
 10
8.996535421751334
 20
-75.204444949432883
 30
0.0
 42
0.0612687673629489
  0
VERTEX
  5
1A54
  8
SAPA_PROFIL
 62
     4
 10
8.9829520510651264
 20
-74.911769516332669
 30
0.0
 42
0.2694959974285039
  0
VERTEX
  5
1A55
  8
SAPA_PROFIL
 62
     4
 10
8.7898200767211776
 20
-74.680250469932162
 30
0.0
  0
VERTEX
  5
1A56
  8
SAPA_PROFIL
 62
     4
 10
6.328989886268011
 20
-73.784581529022489
 30
0.0
 42
-0.3152987888784035
  0
VERTEX
  5
1A57
  8
SAPA_PROFIL
 62
     4
 10
5.9999999579314363
 20
-73.314735218629266
 30
0.0
  0
VERTEX
  5
1A58
  8
SAPA_PROFIL
 62
     4
 10
5.9999999579330341
 20
-71.933235633424829
 30
0.0
 42
-0.2539676464741841
  0
VERTEX
  5
1A59
  8
SAPA_PROFIL
 62
     4
 10
6.1366082474283061
 20
-71.681634463040751
 30
0.0
  0
VERTEX
  5
1A5A
  8
SAPA_PROFIL
 62
     4
 10
6.54316844343328
 20
-71.417611184664111
 30
0.0
 42
-0.5862177598324623
  0
VERTEX
  5
1A5B
  8
SAPA_PROFIL
 62
     4
 10
6.9999999579297869
 20
-71.673352999902448
 30
0.0
  0
VERTEX
  5
1A5C
  8
SAPA_PROFIL
 62
     4
 10
6.999999957922121
 20
-72.614527680412266
 30
0.0
 42
0.3152987888813165
  0
VERTEX
  5
1A5D
  8
SAPA_PROFIL
 62
     4
 10
7.3289898862588743
 20
-73.084373990810022
 30
0.0
  0
VERTEX
  5
1A5E
  8
SAPA_PROFIL
 62
     4
 10
8.5289898862701037
 20
-73.521138271933978
 30
0.0
 42
0.5205670505515651
  0
VERTEX
  5
1A5F
  8
SAPA_PROFIL
 62
     4
 10
9.1999999579328531
 20
-73.051291961540755
 30
0.0
  0
VERTEX
  5
1A60
  8
SAPA_PROFIL
 62
     4
 10
9.1999999579328762
 20
-68.034851020871912
 30
0.0
 42
0.3702522326300203
  0
VERTEX
  5
1A61
  8
SAPA_PROFIL
 62
     4
 10
8.9455400052671727
 20
-67.738327659078578
 30
0.0
 42
0.0982365330332397
  0
VERTEX
  5
1A62
  8
SAPA_PROFIL
 62
     4
 10
7.2578532302721639
 20
-67.647874900867635
 30
0.0
 42
0.3735060174783164
  0
VERTEX
  5
1A63
  8
SAPA_PROFIL
 62
     4
 10
6.999999957932129
 20
-67.944899568778624
 30
0.0
  0
VERTEX
  5
1A64
  8
SAPA_PROFIL
 62
     4
 10
6.9999999579312142
 20
-68.373352999901272
 30
0.0
 42
-0.5920056181162531
  0
VERTEX
  5
1A65
  8
SAPA_PROFIL
 62
     4
 10
6.5387964554032907
 20
-68.626361756218671
 30
0.0
  0
VERTEX
  5
1A66
  8
SAPA_PROFIL
 62
     4
 10
6.1366082474249932
 20
-68.36517768006297
 30
0.0
 42
-0.2539676464746725
  0
VERTEX
  5
1A67
  8
SAPA_PROFIL
 62
     4
 10
5.9999999579296306
 20
-68.113576509679206
 30
0.0
  0
VERTEX
  5
1A68
  8
SAPA_PROFIL
 62
     4
 10
5.9999999579312098
 20
-45.886423490313518
 30
0.0
 42
-0.2539676464741819
  0
VERTEX
  5
1A69
  8
SAPA_PROFIL
 62
     4
 10
6.1366082474249888
 20
-45.634822319930663
 30
0.0
  0
VERTEX
  5
1A6A
  8
SAPA_PROFIL
 62
     4
 10
6.5387964554033227
 20
-45.373638243776853
 30
0.0
 42
-0.5920055144124249
  0
VERTEX
  5
1A6B
  8
SAPA_PROFIL
 62
     4
 10
6.9999999579312098
 20
-45.626647000092362
 30
0.0
  0
VERTEX
  5
1A6C
  8
SAPA_PROFIL
 62
     4
 10
6.9999999326562028
 20
-46.055100477382581
 30
0.0
 42
0.3735060174775405
  0
VERTEX
  5
1A6D
  8
SAPA_PROFIL
 62
     4
 10
7.2578532049962963
 20
-46.35212514529227
 30
0.0
 42
0.0355900683670349
  0
VERTEX
  5
1A6E
  8
SAPA_PROFIL
 62
     4
 10
7.8737267917960798
 20
-46.396018709324522
 30
0.0
 42
0.0624282003873116
  0
VERTEX
  5
1A6F
  8
SAPA_PROFIL
 62
     4
 10
8.9455399799912083
 20
-46.261672387081582
 30
0.0
 42
0.3702522326309292
  0
VERTEX
  5
1A70
  8
SAPA_PROFIL
 62
     4
 10
9.1999999326569313
 20
-45.965149025288198
 30
0.0
  0
VERTEX
  5
1A71
  8
SAPA_PROFIL
 62
     4
 10
9.1999999579330662
 20
-40.94870803845469
 30
0.0
 42
0.5205670505515692
  0
VERTEX
  5
1A72
  8
SAPA_PROFIL
 62
     4
 10
8.5289898862700966
 20
-40.478861728061467
 30
0.0
  0
VERTEX
  5
1A73
  8
SAPA_PROFIL
 62
     4
 10
7.3289898862606506
 20
-40.915626009186418
 30
0.0
 42
0.3152987888807539
  0
VERTEX
  5
1A74
  8
SAPA_PROFIL
 62
     4
 10
6.9999999579230243
 20
-41.38547231958227
 30
0.0
  0
VERTEX
  5
1A75
  8
SAPA_PROFIL
 62
     4
 10
6.9999999579298464
 20
-42.326647000091363
 30
0.0
 42
-0.5862175119221242
  0
VERTEX
  5
1A76
  8
SAPA_PROFIL
 62
     4
 10
6.5431686321747078
 20
-42.582388931073311
 30
0.0
 42
0.0000002084758573
  0
SEQEND
  5
1A77
  8
SAPA_PROFIL
 62
     4
  0
CIRCLE
  5
1270
  8
SAPA_PROFIL
 62
     2
 10
-2.6684925025679558
 20
-19.18265997083796
 30
0.1
 40
0.25
  0
INSERT
  5
1271
  8
SAPA_PROFIL
  6
CONTINUOUS
 62
     2
  2
*U62
 10
0.0
 20
0.0
 30
0.0
1001
ACAD
1002
{
1000
R14_HATCH_DATA
1000
1271
1011
1.0
1021
0.0
1031
0.0
1021
0.0
1031
0.0
1011
0.0
1021
0.0
1031
0.0
1021
1.0
1031
0.0
1011
0.0
1021
0.0
1031
0.0
1021
0.0
1031
1.0
1040
0.1
1010
0.0
1020
0.0
1030
1.0
1000
SOLID
1070
     1
1070
     1
1071
        1
1071
        7
1070
     1
1070
     1
1071
        2
1040
-2.6684925025679558
1040
-19.43265997083796
1040
-1.0
1040
-2.6684925025679558
1040
-18.93265997083796
1040
-1.0
1071
        1
1005
1270
1070
     0
1070
     1
1040
0.0095408196840103
1071
        1
1040
-2.6684925025679558
1040
-19.282659970837958
1040
0.1
1002
}
  0
POLYLINE
  5
1272
  8
SAPA_PROFIL
 62
     2
 66
     1
 10
0.0
 20
0.0
 30
0.1
 70
     1
  0
VERTEX
  5
1A89
  8
SAPA_PROFIL
 62
     2
 10
-5.0000255039109902
 20
-16.508280731972079
 30
0.1
  0
VERTEX
  5
1A8A
  8
SAPA_PROFIL
 62
     2
 10
-5.1000255039109863
 20
-16.508280731972079
 30
0.1
 42
0.4142135623730959
  0
VERTEX
  5
1A8B
  8
SAPA_PROFIL
 62
     2
 10
-5.8000255039109838
 20
-17.208280731972081
 30
0.1
  0
VERTEX
  5
1A8C
  8
SAPA_PROFIL
 62
     2
 10
-5.8000255039109883
 20
-18.308280731972079
 30
0.1
 42
0.4142135623730961
  0
VERTEX
  5
1A8D
  8
SAPA_PROFIL
 62
     2
 10
-5.6000255039109881
 20
-18.508280731972079
 30
0.1
  0
VERTEX
  5
1A8E
  8
SAPA_PROFIL
 62
     2
 10
-4.5000255039109849
 20
-18.508280731972079
 30
0.1
 42
0.4142135623730956
  0
VERTEX
  5
1A8F
  8
SAPA_PROFIL
 62
     2
 10
-4.3000255039109847
 20
-18.308280731972079
 30
0.1
  0
VERTEX
  5
1A90
  8
SAPA_PROFIL
 62
     2
 10
-4.30002550391099
 20
-17.208280731972081
 30
0.1
 42
0.4142135623730946
  0
SEQEND
  5
1A91
  8
SAPA_PROFIL
 62
     2
  0
POLYLINE
  5
1273
  8
SAPA_PROFIL
 62
     2
 66
     1
 10
0.0
 20
0.0
 30
0.1
  0
VERTEX
  5
1A92
  8
SAPA_PROFIL
 62
     2
 10
-3.5000255039109871
 20
-17.808280731972079
 30
0.1
  0
VERTEX
  5
1A93
  8
SAPA_PROFIL
 62
     2
 10
-3.5000255039109902
 20
-18.456046297245159
 30
0.1
 42
0.4416942457848117
  0
VERTEX
  5
1A94
  8
SAPA_PROFIL
 62
     2
 10
-3.281471144283076
 20
-18.655183776738099
 30
0.1
  0
VERTEX
  5
1A95
  8
SAPA_PROFIL
 62
     2
 10
-2.3185798635388992
 20
-18.565467711480061
 30
0.1
 42
-0.4416942457848106
  0
VERTEX
  5
1A96
  8
SAPA_PROFIL
 62
     2
 10
-2.1000255039109872
 20
-18.76460519097299
 30
0.1
  0
VERTEX
  5
1A97
  8
SAPA_PROFIL
 62
     2
 10
-2.1000255039109832
 20
-19.31458753056453
 30
0.1
 42
-0.5445962197109637
  0
VERTEX
  5
1A98
  8
SAPA_PROFIL
 62
     2
 10
-2.8057045493160602
 20
-19.7703244396264
 30
0.1
  0
VERTEX
  5
1A99
  8
SAPA_PROFIL
 62
     2
 10
-3.164755702601326
 20
-19.608280731972069
 30
0.1
  0
VERTEX
  5
1A9A
  8
SAPA_PROFIL
 62
     2
 10
-4.6377149413492189
 20
-19.608280731972069
 30
0.1
 42
-0.336437923496554
  0
VERTEX
  5
1A9B
  8
SAPA_PROFIL
 62
     2
 10
-5.7094586709640538
 20
-19.42077391413034
 30
0.1
  0
VERTEX
  5
1A9C
  8
SAPA_PROFIL
 62
     2
 10
-6.271322306787777
 20
-19.42077391413034
 30
0.1
 42
0.1919812372740513
  0
VERTEX
  5
1A9D
  8
SAPA_PROFIL
 62
     2
 10
-6.6153093543878079
 20
-19.557906292147599
 30
0.1
  0
VERTEX
  5
1A9E
  8
SAPA_PROFIL
 62
     2
 10
-7.0071762847911101
 20
-19.929383768437638
 30
0.1
 42
0.9249153594910841
  0
VERTEX
  5
1A9F
  8
SAPA_PROFIL
 62
     2
 10
-5.3413983562688889
 20
-22.163078583516949
 30
0.1
  0
VERTEX
  5
1AA0
  8
SAPA_PROFIL
 62
     2
 10
-4.256853416600122
 20
-21.62953052826531
 30
0.1
 42
-0.4184584792862776
  0
VERTEX
  5
1AA1
  8
SAPA_PROFIL
 62
     2
 10
-3.6701511000286962
 20
-22.033282648685031
 30
0.1
 42
-0.3891337693453737
  0
VERTEX
  5
1AA2
  8
SAPA_PROFIL
 62
     2
 10
-3.8153179915691711
 20
-22.261371956627642
 30
0.1
  0
VERTEX
  5
1AA3
  8
SAPA_PROFIL
 62
     2
 10
-4.9012140821341781
 20
-22.824277009115519
 30
0.1
 42
-0.8864286961344978
  0
VERTEX
  5
1AA4
  8
SAPA_PROFIL
 62
     2
 10
-7.5729939840707283
 20
-19.46507825359479
 30
0.1
  0
VERTEX
  5
1AA5
  8
SAPA_PROFIL
 62
     2
 10
-8.0035531219519811
 20
-19.349710280305668
 30
0.1
 42
-0.9163311740174273
  0
VERTEX
  5
1AA6
  8
SAPA_PROFIL
 62
     2
 10
-7.8651632068119097
 20
-18.56486207055335
 30
0.1
  0
VERTEX
  5
1AA7
  8
SAPA_PROFIL
 62
     2
 10
-6.8174566524605176
 20
-18.656524516760911
 30
0.1
 42
0.4400105308918339
  0
VERTEX
  5
1AA8
  8
SAPA_PROFIL
 62
     2
 10
-6.6000255039109881
 20
-18.45728557714256
 30
0.1
  0
VERTEX
  5
1AA9
  8
SAPA_PROFIL
 62
     2
 10
-6.6000255039109881
 20
-17.608280731972069
 30
0.1
  0
VERTEX
  5
1AAA
  8
SAPA_PROFIL
 62
     2
 10
-7.0000255039109911
 20
-17.60828073197208
 30
0.1
 42
-0.569380983920789
  0
VERTEX
  5
1AAB
  8
SAPA_PROFIL
 62
     2
 10
-7.1755795494745707
 20
-17.312464360269431
 30
0.1
  0
VERTEX
  5
1AAC
  8
SAPA_PROFIL
 62
     2
 10
-6.4706139495755064
 20
-16.020831616864118
 30
0.1
 42
-0.274387813087548
  0
VERTEX
  5
1AAD
  8
SAPA_PROFIL
 62
     2
 10
-5.9439518128847642
 20
-15.70828073197208
 30
0.1
  0
VERTEX
  5
1AAE
  8
SAPA_PROFIL
 62
     2
 10
-4.1560991949372097
 20
-15.70828073197208
 30
0.1
 42
-0.274387813087548
  0
VERTEX
  5
1AAF
  8
SAPA_PROFIL
 62
     2
 10
-3.6294370582464688
 20
-16.020831616864129
 30
0.1
  0
VERTEX
  5
1AB0
  8
SAPA_PROFIL
 62
     2
 10
-2.9244714583474019
 20
-17.312464360269431
 30
0.1
 42
-0.5693809839207892
  0
VERTEX
  5
1AB1
  8
SAPA_PROFIL
 62
     2
 10
-3.100025503910981
 20
-17.608280731972069
 30
0.1
  0
VERTEX
  5
1AB2
  8
SAPA_PROFIL
 62
     2
 10
-3.5000255039109831
 20
-17.608280731972069
 30
0.1
  0
VERTEX
  5
1AB3
  8
SAPA_PROFIL
 62
     2
 10
-3.5000255039109831
 20
-18.45728557714256
 30
0.1
  0
SEQEND
  5
1AB4
  8
SAPA_PROFIL
 62
     2
  0
POLYLINE
  5
1274
  8
SAPA_PROFIL
 66
     1
 10
0.0
 20
0.0
 30
0.0
 70
     1
  0
VERTEX
  5
1AB5
  8
SAPA_PROFIL
 10
-82.465642868549665
 20
-75.499999996643595
 30
0.0
 42
-0.2679491924311144
  0
VERTEX
  5
1AB6
  8
SAPA_PROFIL
 10
-81.599617464765245
 20
-75.999999996643595
 30
0.0
  0
VERTEX
  5
1AB7
  8
SAPA_PROFIL
 10
-80.589254493683171
 20
-77.749999996643766
 30
0.0
 42
0.2679491924311245
  0
VERTEX
  5
1AB8
  8
SAPA_PROFIL
 10
-80.156241791790933
 20
-77.999999996643766
 30
0.0
  0
VERTEX
  5
1AB9
  8
SAPA_PROFIL
 10
-15.14375820820908
 20
-77.999999996643766
 30
0.0
 42
0.2679491924311231
  0
VERTEX
  5
1ABA
  8
SAPA_PROFIL
 10
-14.71074550631687
 20
-77.749999996643766
 30
0.0
  0
VERTEX
  5
1ABB
  8
SAPA_PROFIL
 10
-13.70038253523466
 20
-75.99999999664368
 30
0.0
 42
-0.2679491924311169
  0
VERTEX
  5
1ABC
  8
SAPA_PROFIL
 10
-12.834357131450361
 20
-75.499999996643766
 30
0.0
  0
VERTEX
  5
1ABD
  8
SAPA_PROFIL
 10
-11.448716485395209
 20
-75.499999996643879
 30
0.0
 42
-0.5773502691897388
  0
VERTEX
  5
1ABE
  8
SAPA_PROFIL
 10
-11.275511404638451
 20
-75.799999996643834
 30
0.0
  0
VERTEX
  5
1ABF
  8
SAPA_PROFIL
 10
-12.19927183534173
 20
-77.399999996643515
 30
0.0
  0
VERTEX
  5
1AC0
  8
SAPA_PROFIL
 10
-12.19927183534173
 20
-77.699999996643697
 30
0.0
 42
0.4142135623729036
  0
VERTEX
  5
1AC1
  8
SAPA_PROFIL
 10
-11.89927183534183
 20
-77.999999996643766
 30
0.0
  0
VERTEX
  5
1AC2
  8
SAPA_PROFIL
 10
-8.0464854308417557
 20
-77.999999996643766
 30
0.0
 42
-0.2134217652834283
  0
VERTEX
  5
1AC3
  8
SAPA_PROFIL
 10
-7.8228786330917037
 20
-78.099999996643874
 30
0.0
 42
0.7625858545243336
  0
VERTEX
  5
1AC4
  8
SAPA_PROFIL
 10
-7.492552552074641
 20
-77.915420794446391
 30
0.0
  0
VERTEX
  5
1AC5
  8
SAPA_PROFIL
 10
-7.5506261890637338
 20
-77.72403779445267
 30
0.0
  0
VERTEX
  5
1AC6
  8
SAPA_PROFIL
 10
-8.6351906360354747
 20
-75.838194102591615
 30
0.0
  0
VERTEX
  5
1AC7
  8
SAPA_PROFIL
 10
-8.9569483642537193
 20
-75.848755468818595
 30
0.0
 42
-0.5773502691897449
  0
VERTEX
  5
1AC8
  8
SAPA_PROFIL
 10
-9.1399021043638982
 20
-75.554599168563755
 30
0.0
  0
VERTEX
  5
1AC9
  8
SAPA_PROFIL
 10
-8.9877681932551354
 20
-75.269916885332123
 30
0.0
 42
-0.221694662643014
  0
VERTEX
  5
1ACA
  8
SAPA_PROFIL
 10
-8.446888361778349
 20
-74.864107980177323
 30
0.0
  0
VERTEX
  5
1ACB
  8
SAPA_PROFIL
 10
-6.6336578911201514
 20
-74.482661384049607
 30
0.0
 42
-0.476975532698164
  0
VERTEX
  5
1ACC
  8
SAPA_PROFIL
 10
-6.2620010161742243
 20
-74.784914208556074
 30
0.0
  0
VERTEX
  5
1ACD
  8
SAPA_PROFIL
 10
-6.2620846240578771
 20
-76.288015289318082
 30
0.0
  0
VERTEX
  5
1ACE
  8
SAPA_PROFIL
 10
-6.3099303740563641
 20
-76.302533698565185
 30
0.0
 42
0.4142135623730868
  0
VERTEX
  5
1ACF
  8
SAPA_PROFIL
 10
-6.5098944185637597
 20
-76.676718654040997
 30
0.0
  0
VERTEX
  5
1AD0
  8
SAPA_PROFIL
 10
-6.0
 20
-77.995951655803054
 30
0.0
  0
VERTEX
  5
1AD1
  8
SAPA_PROFIL
 10
-6.000000000000056
 20
-97.731478393299867
 30
0.0
 42
0.3821712090170688
  0
VERTEX
  5
1AD2
  8
SAPA_PROFIL
 10
-5.7331197840942423
 20
-98.029644588401737
 30
0.0
  0
VERTEX
  5
1AD3
  8
SAPA_PROFIL
 10
0.8448510000000055
 20
-98.555484123366725
 30
0.0
 42
0.4469990000000225
  0
VERTEX
  5
1AD4
  8
SAPA_PROFIL
 10
1.400050999999962
 20
-98.058540123366726
 30
0.0
  0
VERTEX
  5
1AD5
  8
SAPA_PROFIL
 10
1.400050999999962
 20
-96.299999996643749
 30
0.0
 42
-0.414213999999998
  0
VERTEX
  5
1AD6
  8
SAPA_PROFIL
 10
2.4000509999999622
 20
-95.299999996643734
 30
0.0
  0
VERTEX
  5
1AD7
  8
SAPA_PROFIL
 10
2.6675950000000048
 20
-95.299999996643763
 30
0.0
 42
-0.2896899999999803
  0
VERTEX
  5
1AD8
  8
SAPA_PROFIL
 10
3.571102999999936
 20
-95.871427996643732
 30
0.0
 42
-0.5507600000000087
  0
VERTEX
  5
1AD9
  8
SAPA_PROFIL
 10
3.300050999999939
 20
-96.299999996643749
 30
0.0
  0
VERTEX
  5
1ADA
  8
SAPA_PROFIL
 10
3.0000510000000409
 20
-96.299999996643749
 30
0.0
 42
0.4142140000001479
  0
VERTEX
  5
1ADB
  8
SAPA_PROFIL
 10
2.800050999999939
 20
-96.499999996643766
 30
0.0
  0
VERTEX
  5
1ADC
  8
SAPA_PROFIL
 10
2.800050999999939
 20
-97.599999996643803
 30
0.0
 42
0.4142139999999898
  0
VERTEX
  5
1ADD
  8
SAPA_PROFIL
 10
3.800050999999939
 20
-98.599999996643788
 30
0.0
  0
VERTEX
  5
1ADE
  8
SAPA_PROFIL
 10
6.099999999999965
 20
-98.599999996643788
 30
0.0
 42
0.4142139999999898
  0
VERTEX
  5
1ADF
  8
SAPA_PROFIL
 10
7.099999999999965
 20
-97.599999996643803
 30
0.0
  0
VERTEX
  5
1AE0
  8
SAPA_PROFIL
 10
7.0999999999999091
 20
-96.499999996643723
 30
0.0
 42
0.4142139999999398
  0
VERTEX
  5
1AE1
  8
SAPA_PROFIL
 10
6.8999999999999773
 20
-96.299999996643749
 30
0.0
  0
VERTEX
  5
1AE2
  8
SAPA_PROFIL
 10
6.6000509999999499
 20
-96.299999996643749
 30
0.0
 42
-0.5507600000000129
  0
VERTEX
  5
1AE3
  8
SAPA_PROFIL
 10
6.3289980000000119
 20
-95.871427996643746
 30
0.0
 42
-0.2896900000000043
  0
VERTEX
  5
1AE4
  8
SAPA_PROFIL
 10
7.232505999999943
 20
-95.299999996643734
 30
0.0
  0
VERTEX
  5
1AE5
  8
SAPA_PROFIL
 10
7.5
 20
-95.299999996643777
 30
0.0
 42
-0.4142140000000064
  0
VERTEX
  5
1AE6
  8
SAPA_PROFIL
 10
8.5
 20
-96.299999996643749
 30
0.0
  0
VERTEX
  5
1AE7
  8
SAPA_PROFIL
 10
8.4999999999999432
 20
-97.999999996643766
 30
0.0
 42
-0.4142139999999898
  0
VERTEX
  5
1AE8
  8
SAPA_PROFIL
 10
6.4999999999999432
 20
-99.999999996643766
 30
0.0
  0
VERTEX
  5
1AE9
  8
SAPA_PROFIL
 10
-110.9999999999999
 20
-99.999999996643709
 30
0.0
 42
-0.414213999999998
  0
VERTEX
  5
1AEA
  8
SAPA_PROFIL
 10
-111.4999999999999
 20
-99.499999996643737
 30
0.0
  0
VERTEX
  5
1AEB
  8
SAPA_PROFIL
 10
-111.4999999999999
 20
-95.799999996643706
 30
0.0
 42
-0.4142139999999107
  0
VERTEX
  5
1AEC
  8
SAPA_PROFIL
 10
-111.2
 20
-95.499999996643737
 30
0.0
  0
VERTEX
  5
1AED
  8
SAPA_PROFIL
 10
-110.432455
 20
-95.499999996643695
 30
0.0
 42
-0.2896899999999899
  0
VERTEX
  5
1AEE
  8
SAPA_PROFIL
 10
-109.528947
 20
-96.071427996643735
 30
0.0
 42
-0.5507600000000253
  0
VERTEX
  5
1AEF
  8
SAPA_PROFIL
 10
-109.8
 20
-96.499999996643723
 30
0.0
  0
VERTEX
  5
1AF0
  8
SAPA_PROFIL
 10
-109.9999999999999
 20
-96.499999996643723
 30
0.0
 42
0.4142140000000646
  0
VERTEX
  5
1AF1
  8
SAPA_PROFIL
 10
-110.2999999999999
 20
-96.799999996643734
 30
0.0
  0
VERTEX
  5
1AF2
  8
SAPA_PROFIL
 10
-110.2999999999999
 20
-98.299999996643749
 30
0.0
 42
0.414213999999998
  0
VERTEX
  5
1AF3
  8
SAPA_PROFIL
 10
-109.8
 20
-98.799999996643749
 30
0.0
  0
VERTEX
  5
1AF4
  8
SAPA_PROFIL
 10
-106.4999999999999
 20
-98.799999996643749
 30
0.0
 42
0.4142140000000147
  0
VERTEX
  5
1AF5
  8
SAPA_PROFIL
 10
-105.9999999999999
 20
-98.299999996643749
 30
0.0
  0
VERTEX
  5
1AF6
  8
SAPA_PROFIL
 10
-105.9999999999999
 20
-96.799999996643734
 30
0.0
 42
0.4142140000000064
  0
VERTEX
  5
1AF7
  8
SAPA_PROFIL
 10
-106.3
 20
-96.499999996643723
 30
0.0
  0
VERTEX
  5
1AF8
  8
SAPA_PROFIL
 10
-106.4999999999999
 20
-96.499999996643766
 30
0.0
 42
-0.5507599999999967
  0
VERTEX
  5
1AF9
  8
SAPA_PROFIL
 10
-106.7710519999999
 20
-96.071427996643692
 30
0.0
 42
-0.2896899999999881
  0
VERTEX
  5
1AFA
  8
SAPA_PROFIL
 10
-105.867544
 20
-95.499999996643737
 30
0.0
  0
VERTEX
  5
1AFB
  8
SAPA_PROFIL
 10
-104.870073
 20
-95.499999996643751
 30
0.0
 42
-0.0436609999999811
  0
VERTEX
  5
1AFC
  8
SAPA_PROFIL
 10
-104.783248
 20
-95.507595996643744
 30
0.0
  0
VERTEX
  5
1AFD
  8
SAPA_PROFIL
 10
-103.213176
 20
-95.784441996643736
 30
0.0
 42
-0.8390999999999783
  0
VERTEX
  5
1AFE
  8
SAPA_PROFIL
 10
-103.213176
 20
-96.769249996643737
 30
0.0
  0
VERTEX
  5
1AFF
  8
SAPA_PROFIL
 10
-104.386824
 20
-96.976194996643727
 30
0.0
 42
0.3639700000000321
  0
VERTEX
  5
1B00
  8
SAPA_PROFIL
 10
-104.8
 20
-97.468598996643749
 30
0.0
  0
VERTEX
  5
1B01
  8
SAPA_PROFIL
 10
-104.8
 20
-98.279999996643738
 30
0.0
 42
0.4373279999999815
  0
VERTEX
  5
1B02
  8
SAPA_PROFIL
 10
-104.26090499999999
 20
-98.778468996643738
 30
0.0
  0
VERTEX
  5
1B03
  8
SAPA_PROFIL
 10
-89.787846726583624
 20
-98.21167051024787
 30
0.0
 42
0.402394135529822
  0
VERTEX
  5
1B04
  8
SAPA_PROFIL
 10
-89.499999999999929
 20
-97.911916781421581
 30
0.0
  0
VERTEX
  5
1B05
  8
SAPA_PROFIL
 10
-89.499999999999929
 20
-97.111382996643755
 30
0.0
 42
-0.2596810000001258
  0
VERTEX
  5
1B06
  8
SAPA_PROFIL
 10
-89.405306999999937
 20
-96.94135199664376
 30
0.0
  0
VERTEX
  5
1B07
  8
SAPA_PROFIL
 10
-87.957960000000085
 20
-96.044952996643673
 30
0.0
 42
-0.5877030000000313
  0
VERTEX
  5
1B08
  8
SAPA_PROFIL
 10
-87.499999999999943
 20
-96.299999996643777
 30
0.0
  0
VERTEX
  5
1B09
  8
SAPA_PROFIL
 10
-87.499999999999943
 20
-97.699999996643754
 30
0.0
 42
0.4142139999999523
  0
VERTEX
  5
1B0A
  8
SAPA_PROFIL
 10
-87.200000000000045
 20
-97.999999996643766
 30
0.0
  0
VERTEX
  5
1B0B
  8
SAPA_PROFIL
 10
-84.800000000000026
 20
-97.999999996643766
 30
0.0
 42
0.4142140000000606
  0
VERTEX
  5
1B0C
  8
SAPA_PROFIL
 10
-84.499999999999929
 20
-97.699999996643754
 30
0.0
  0
VERTEX
  5
1B0D
  8
SAPA_PROFIL
 10
-84.499999999999929
 20
-80.299999996643777
 30
0.0
 42
0.4142140000001147
  0
VERTEX
  5
1B0E
  8
SAPA_PROFIL
 10
-84.800000000000026
 20
-79.999999996643766
 30
0.0
  0
VERTEX
  5
1B0F
  8
SAPA_PROFIL
 10
-87.200000000000045
 20
-79.999999996643766
 30
0.0
 42
0.4142140000000064
  0
VERTEX
  5
1B10
  8
SAPA_PROFIL
 10
-87.499999999999943
 20
-80.299999996643777
 30
0.0
  0
VERTEX
  5
1B11
  8
SAPA_PROFIL
 10
-87.499999999999943
 20
-81.699999996643754
 30
0.0
 42
-0.5920053870335283
  0
VERTEX
  5
1B12
  8
SAPA_PROFIL
 10
-87.9612033163543
 20
-81.953008523266149
 30
0.0
  0
VERTEX
  5
1B13
  8
SAPA_PROFIL
 10
-89.207468979820788
 20
-81.158955639523924
 30
0.0
 42
-0.2562770082070921
  0
VERTEX
  5
1B14
  8
SAPA_PROFIL
 10
-89.299999999999926
 20
-80.990283121382205
 30
0.0
  0
VERTEX
  5
1B15
  8
SAPA_PROFIL
 10
-89.299999999999926
 20
-77.995951655802685
 30
0.0
  0
VERTEX
  5
1B16
  8
SAPA_PROFIL
 10
-88.790105581436308
 20
-76.676718654040997
 30
0.0
 42
0.4142135623730868
  0
VERTEX
  5
1B17
  8
SAPA_PROFIL
 10
-88.990069625943704
 20
-76.302533698565185
 30
0.0
  0
VERTEX
  5
1B18
  8
SAPA_PROFIL
 10
-89.037915375942191
 20
-76.288015289318082
 30
0.0
  0
VERTEX
  5
1B19
  8
SAPA_PROFIL
 10
-89.037998983825815
 20
-74.784914208556074
 30
0.0
 42
-0.4769755326981641
  0
VERTEX
  5
1B1A
  8
SAPA_PROFIL
 10
-88.666342108879974
 20
-74.482661384049607
 30
0.0
  0
VERTEX
  5
1B1B
  8
SAPA_PROFIL
 10
-86.853111638221677
 20
-74.864107980177323
 30
0.0
 42
-0.2216946626430139
  0
VERTEX
  5
1B1C
  8
SAPA_PROFIL
 10
-86.312231806744947
 20
-75.269916885332123
 30
0.0
  0
VERTEX
  5
1B1D
  8
SAPA_PROFIL
 10
-86.160097895636184
 20
-75.554599168563755
 30
0.0
 42
-0.5773502691897449
  0
VERTEX
  5
1B1E
  8
SAPA_PROFIL
 10
-86.343051635746349
 20
-75.848755468818581
 30
0.0
  0
VERTEX
  5
1B1F
  8
SAPA_PROFIL
 10
-86.664809363964594
 20
-75.838194102591615
 30
0.0
  0
VERTEX
  5
1B20
  8
SAPA_PROFIL
 10
-87.749373810936333
 20
-77.72403779445267
 30
0.0
  0
VERTEX
  5
1B21
  8
SAPA_PROFIL
 10
-87.807447447925426
 20
-77.915420794446391
 30
0.0
 42
0.7625858545243336
  0
VERTEX
  5
1B22
  8
SAPA_PROFIL
 10
-87.477121366908406
 20
-78.099999996643874
 30
0.0
 42
-0.2134217652834432
  0
VERTEX
  5
1B23
  8
SAPA_PROFIL
 10
-87.253514569158284
 20
-77.999999996643766
 30
0.0
  0
VERTEX
  5
1B24
  8
SAPA_PROFIL
 10
-83.400728164658204
 20
-77.999999996643766
 30
0.0
 42
0.4142135623729036
  0
VERTEX
  5
1B25
  8
SAPA_PROFIL
 10
-83.100728164658278
 20
-77.699999996643697
 30
0.0
  0
VERTEX
  5
1B26
  8
SAPA_PROFIL
 10
-83.100728164658278
 20
-77.399999996643515
 30
0.0
  0
VERTEX
  5
1B27
  8
SAPA_PROFIL
 10
-84.024488595361689
 20
-75.799999996643891
 30
0.0
 42
-0.5773502691897388
  0
VERTEX
  5
1B28
  8
SAPA_PROFIL
 10
-83.851283514604802
 20
-75.499999996643766
 30
0.0
  0
SEQEND
  5
1B29
  8
SAPA_PROFIL
  0
POLYLINE
  5
1275
  8
SAPA_PROFIL
  6
CONTINUOUS
 66
     1
 10
0.0
 20
0.0
 30
0.0
 70
     1
  0
VERTEX
  5
1B2A
  8
SAPA_PROFIL
  6
CONTINUOUS
 10
-9.6999999999999318
 20
-80.099999996643731
 30
0.0
 42
-0.4142135623730951
  0
VERTEX
  5
1B2B
  8
SAPA_PROFIL
  6
CONTINUOUS
 10
-9.8999999999999773
 20
-80.299999996643777
 30
0.0
  0
VERTEX
  5
1B2C
  8
SAPA_PROFIL
  6
CONTINUOUS
 10
-11.5
 20
-80.29999999664372
 30
0.0
 42
-0.4142135623730951
  0
VERTEX
  5
1B2D
  8
SAPA_PROFIL
  6
CONTINUOUS
 10
-11.70000000000004
 20
-80.099999996643731
 30
0.0
  0
VERTEX
  5
1B2E
  8
SAPA_PROFIL
  6
CONTINUOUS
 10
-11.69999999999999
 20
-79.799999912770431
 30
0.0
  0
VERTEX
  5
1B2F
  8
SAPA_PROFIL
  6
CONTINUOUS
 10
-78.80000000000004
 20
-79.799999912770431
 30
0.0
  0
VERTEX
  5
1B30
  8
SAPA_PROFIL
  6
CONTINUOUS
 10
-78.799999999999983
 20
-80.099999996643731
 30
0.0
 42
-0.4142135623730951
  0
VERTEX
  5
1B31
  8
SAPA_PROFIL
  6
CONTINUOUS
 10
-79.000000000000028
 20
-80.299999996643777
 30
0.0
  0
VERTEX
  5
1B32
  8
SAPA_PROFIL
  6
CONTINUOUS
 10
-80.600000000000051
 20
-80.29999999664372
 30
0.0
 42
-0.4142135623730951
  0
VERTEX
  5
1B33
  8
SAPA_PROFIL
  6
CONTINUOUS
 10
-80.800000000000026
 20
-80.099999996643731
 30
0.0
  0
VERTEX
  5
1B34
  8
SAPA_PROFIL
  6
CONTINUOUS
 10
-80.800000000000026
 20
-79.799999912770431
 30
0.0
  0
VERTEX
  5
1B35
  8
SAPA_PROFIL
  6
CONTINUOUS
 10
-82.500000000000028
 20
-79.799999912770431
 30
0.0
 42
0.4142135623730951
  0
VERTEX
  5
1B36
  8
SAPA_PROFIL
  6
CONTINUOUS
 10
-82.80000000000004
 20
-80.099999912770414
 30
0.0
  0
VERTEX
  5
1B37
  8
SAPA_PROFIL
  6
CONTINUOUS
 10
-82.800000000000011
 20
-97.699999996643754
 30
0.0
 42
0.4142135623730951
  0
VERTEX
  5
1B38
  8
SAPA_PROFIL
  6
CONTINUOUS
 10
-82.500000000000028
 20
-97.999999996643766
 30
0.0
  0
VERTEX
  5
1B39
  8
SAPA_PROFIL
  6
CONTINUOUS
 10
-80.800000000000026
 20
-97.999999996643766
 30
0.0
  0
VERTEX
  5
1B3A
  8
SAPA_PROFIL
  6
CONTINUOUS
 10
-80.800000000000026
 20
-97.899999996643743
 30
0.0
 42
-0.4142135623730951
  0
VERTEX
  5
1B3B
  8
SAPA_PROFIL
  6
CONTINUOUS
 10
-80.600000000000051
 20
-97.699999996643754
 30
0.0
  0
VERTEX
  5
1B3C
  8
SAPA_PROFIL
  6
CONTINUOUS
 10
-79.000000000000028
 20
-97.699999996643754
 30
0.0
 42
-0.4142135623730951
  0
VERTEX
  5
1B3D
  8
SAPA_PROFIL
  6
CONTINUOUS
 10
-78.80000000000004
 20
-97.899999996643743
 30
0.0
  0
VERTEX
  5
1B3E
  8
SAPA_PROFIL
  6
CONTINUOUS
 10
-78.80000000000004
 20
-97.999999996643766
 30
0.0
  0
VERTEX
  5
1B3F
  8
SAPA_PROFIL
  6
CONTINUOUS
 10
-11.70000000000004
 20
-97.999999996643766
 30
0.0
  0
VERTEX
  5
1B40
  8
SAPA_PROFIL
  6
CONTINUOUS
 10
-11.69999999999999
 20
-97.899999996643743
 30
0.0
 42
-0.4142135623730951
  0
VERTEX
  5
1B41
  8
SAPA_PROFIL
  6
CONTINUOUS
 10
-11.5
 20
-97.699999996643754
 30
0.0
  0
VERTEX
  5
1B42
  8
SAPA_PROFIL
  6
CONTINUOUS
 10
-9.8999999999999773
 20
-97.699999996643754
 30
0.0
 42
-0.4142135623730951
  0
VERTEX
  5
1B43
  8
SAPA_PROFIL
  6
CONTINUOUS
 10
-9.7000000000000455
 20
-97.899999996643743
 30
0.0
  0
VERTEX
  5
1B44
  8
SAPA_PROFIL
  6
CONTINUOUS
 10
-9.7000000000000455
 20
-97.999999996643766
 30
0.0
  0
VERTEX
  5
1B45
  8
SAPA_PROFIL
  6
CONTINUOUS
 10
-8.0
 20
-97.999999996643766
 30
0.0
 42
0.4142135623730951
  0
VERTEX
  5
1B46
  8
SAPA_PROFIL
  6
CONTINUOUS
 10
-7.7000000000000446
 20
-97.699999996643754
 30
0.0
  0
VERTEX
  5
1B47
  8
SAPA_PROFIL
  6
CONTINUOUS
 10
-7.6999999999999877
 20
-80.099999912770414
 30
0.0
 42
0.4142135623730951
  0
VERTEX
  5
1B48
  8
SAPA_PROFIL
  6
CONTINUOUS
 10
-8.0
 20
-79.799999912770431
 30
0.0
  0
VERTEX
  5
1B49
  8
SAPA_PROFIL
  6
CONTINUOUS
 10
-9.7000000000000455
 20
-79.799999912770431
 30
0.0
  0
SEQEND
  5
1B4A
  8
SAPA_PROFIL
  6
CONTINUOUS
  0
POLYLINE
  5
1276
  8
SAPA_PROFIL
 66
     1
 10
0.0
 20
0.0
 30
0.0
 70
     1
  0
VERTEX
  5
1B4B
  8
SAPA_PROFIL
 10
-8.0450092469304515
 20
-35.999999993962327
 30
0.0
  0
VERTEX
  5
1B4C
  8
SAPA_PROFIL
 10
-11.8977956514307
 20
-35.999999993962327
 30
0.0
 42
0.4142135623731784
  0
VERTEX
  5
1B4D
  8
SAPA_PROFIL
 10
-12.197795651430649
 20
-36.299999993962402
 30
0.0
  0
VERTEX
  5
1B4E
  8
SAPA_PROFIL
 10
-12.197795651430649
 20
-36.546410155476529
 30
0.0
 42
0.1316524975874233
  0
VERTEX
  5
1B4F
  8
SAPA_PROFIL
 10
-12.17100073218751
 20
-36.646410155476552
 30
0.0
  0
VERTEX
  5
1B50
  8
SAPA_PROFIL
 10
-11.27403522072737
 20
-38.19999999396245
 30
0.0
 42
-0.577350269188775
  0
VERTEX
  5
1B51
  8
SAPA_PROFIL
 10
-11.4472403014843
 20
-38.499999993962327
 30
0.0
  0
VERTEX
  5
1B52
  8
SAPA_PROFIL
 10
-12.83288094753928
 20
-38.499999993962447
 30
0.0
 42
-0.267949192431105
  0
VERTEX
  5
1B53
  8
SAPA_PROFIL
 10
-13.6989063513237
 20
-37.999999993962497
 30
0.0
  0
VERTEX
  5
1B54
  8
SAPA_PROFIL
 10
-14.70926932089688
 20
-36.249999996575539
 30
0.0
 42
0.2679491932397091
  0
VERTEX
  5
1B55
  8
SAPA_PROFIL
 10
-15.14228202429809
 20
-35.999999996575482
 30
0.0
  0
VERTEX
  5
1B56
  8
SAPA_PROFIL
 10
-80.157717975701672
 20
-35.999999996575468
 30
0.0
 42
0.2679491916226364
  0
VERTEX
  5
1B57
  8
SAPA_PROFIL
 10
-80.590730677593996
 20
-36.249999993962383
 30
0.0
  0
VERTEX
  5
1B58
  8
SAPA_PROFIL
 10
-81.601093648675914
 20
-37.999999993962348
 30
0.0
 42
-0.2679491924311289
  0
VERTEX
  5
1B59
  8
SAPA_PROFIL
 10
-82.467119052460276
 20
-38.499999993962319
 30
0.0
  0
VERTEX
  5
1B5A
  8
SAPA_PROFIL
 10
-83.852759698515371
 20
-38.499999993962319
 30
0.0
 42
-0.5773502691893695
  0
VERTEX
  5
1B5B
  8
SAPA_PROFIL
 10
-84.025964779272385
 20
-38.199999993962372
 30
0.0
  0
VERTEX
  5
1B5C
  8
SAPA_PROFIL
 10
-83.12899926781202
 20
-36.646410155476119
 30
0.0
 42
0.1316524975874061
  0
VERTEX
  5
1B5D
  8
SAPA_PROFIL
 10
-83.102204348568904
 20
-36.54641015547611
 30
0.0
  0
VERTEX
  5
1B5E
  8
SAPA_PROFIL
 10
-83.102204348568904
 20
-36.299999993962388
 30
0.0
 42
0.4142135623732032
  0
VERTEX
  5
1B5F
  8
SAPA_PROFIL
 10
-83.402204348569086
 20
-35.999999993962319
 30
0.0
  0
VERTEX
  5
1B60
  8
SAPA_PROFIL
 10
-87.254990753069194
 20
-35.999999993962341
 30
0.0
 42
-0.2134217652834358
  0
VERTEX
  5
1B61
  8
SAPA_PROFIL
 10
-87.478597550819273
 20
-35.899999993962233
 30
0.0
 42
0.7625858545243257
  0
VERTEX
  5
1B62
  8
SAPA_PROFIL
 10
-87.808923631836294
 20
-36.084579196159709
 30
0.0
  0
VERTEX
  5
1B63
  8
SAPA_PROFIL
 10
-87.750849994847215
 20
-36.275962196153429
 30
0.0
  0
VERTEX
  5
1B64
  8
SAPA_PROFIL
 10
-86.666285547875475
 20
-38.161805888014491
 30
0.0
  0
VERTEX
  5
1B65
  8
SAPA_PROFIL
 10
-86.344527819657202
 20
-38.151244521787497
 30
0.0
 42
-0.5773502691897454
  0
VERTEX
  5
1B66
  8
SAPA_PROFIL
 10
-86.161574079547051
 20
-38.445400822042352
 30
0.0
  0
VERTEX
  5
1B67
  8
SAPA_PROFIL
 10
-86.313707990655814
 20
-38.730083105273977
 30
0.0
 42
-0.2216946626430182
  0
VERTEX
  5
1B68
  8
SAPA_PROFIL
 10
-86.854587822132601
 20
-39.135892010428783
 30
0.0
  0
VERTEX
  5
1B69
  8
SAPA_PROFIL
 10
-88.667818292790827
 20
-39.517338606556493
 30
0.0
 42
-0.476975532698164
  0
VERTEX
  5
1B6A
  8
SAPA_PROFIL
 10
-89.039475167736725
 20
-39.215085782050032
 30
0.0
  0
VERTEX
  5
1B6B
  8
SAPA_PROFIL
 10
-89.039391559853073
 20
-37.711984701288017
 30
0.0
  0
VERTEX
  5
1B6C
  8
SAPA_PROFIL
 10
-88.991545809854586
 20
-37.697466292040907
 30
0.0
 42
0.4142135623730958
  0
VERTEX
  5
1B6D
  8
SAPA_PROFIL
 10
-88.791581765347189
 20
-37.32328133656511
 30
0.0
  0
VERTEX
  5
1B6E
  8
SAPA_PROFIL
 10
-89.299999999999869
 20
-36.007867616719523
 30
0.0
  0
VERTEX
  5
1B6F
  8
SAPA_PROFIL
 10
-89.299999999999898
 20
-33.009716755546208
 30
0.0
 42
-0.2562769736732632
  0
VERTEX
  5
1B70
  8
SAPA_PROFIL
 10
-89.207469001684416
 20
-32.841044251334843
 30
0.0
  0
VERTEX
  5
1B71
  8
SAPA_PROFIL
 10
-87.961203502526502
 20
-32.046991245158253
 30
0.0
 42
-0.5920056181179856
  0
VERTEX
  5
1B72
  8
SAPA_PROFIL
 10
-87.499999999999844
 20
-32.300000001475269
 30
0.0
  0
VERTEX
  5
1B73
  8
SAPA_PROFIL
 10
-87.499999999999844
 20
-33.700000001475253
 30
0.0
 42
0.4142135623731429
  0
VERTEX
  5
1B74
  8
SAPA_PROFIL
 10
-87.199999999999875
 20
-34.000000001475257
 30
0.0
  0
VERTEX
  5
1B75
  8
SAPA_PROFIL
 10
-84.799999999999955
 20
-34.000000001475129
 30
0.0
 42
0.4142135623729847
  0
VERTEX
  5
1B76
  8
SAPA_PROFIL
 10
-84.499999999999972
 20
-33.700000001475253
 30
0.0
  0
VERTEX
  5
1B77
  8
SAPA_PROFIL
 10
-84.499999999999929
 20
-16.300000001475169
 30
0.0
 42
0.4142135623730951
  0
VERTEX
  5
1B78
  8
SAPA_PROFIL
 10
-84.799999999999955
 20
-16.0000000014752
 30
0.0
  0
VERTEX
  5
1B79
  8
SAPA_PROFIL
 10
-87.200000000000045
 20
-16.0000000014752
 30
0.0
 42
0.414213562373018
  0
VERTEX
  5
1B7A
  8
SAPA_PROFIL
 10
-87.499999999999844
 20
-16.300000001475262
 30
0.0
  0
VERTEX
  5
1B7B
  8
SAPA_PROFIL
 10
-87.499999999999744
 20
-17.700000001475271
 30
0.0
 42
-0.5877032589249791
  0
VERTEX
  5
1B7C
  8
SAPA_PROFIL
 10
-87.957960207127456
 20
-17.95504621878537
 30
0.0
  0
VERTEX
  5
1B7D
  8
SAPA_PROFIL
 10
-89.405306804751746
 20
-17.05864724154311
 30
0.0
 42
-0.2596812337301832
  0
VERTEX
  5
1B7E
  8
SAPA_PROFIL
 10
-89.499999999999929
 20
-16.888616430003069
 30
0.0
  0
VERTEX
  5
1B7F
  8
SAPA_PROFIL
 10
-89.499999999999886
 20
-14.19999999664366
 30
0.0
 42
-0.4142135623732303
  0
VERTEX
  5
1B80
  8
SAPA_PROFIL
 10
-89.299999999999969
 20
-13.99999999664367
 30
0.0
  0
VERTEX
  5
1B81
  8
SAPA_PROFIL
 10
-15.49999850584979
 20
-13.999999996643769
 30
0.0
 42
-0.4142135623730077
  0
VERTEX
  5
1B82
  8
SAPA_PROFIL
 10
-13.499999999999771
 20
-15.999998502493201
 30
0.0
  0
VERTEX
  5
1B83
  8
SAPA_PROFIL
 10
-13.499999999999771
 20
-21.700000743718601
 30
0.0
 42
0.4142135623730035
  0
VERTEX
  5
1B84
  8
SAPA_PROFIL
 10
-12.500000747074781
 20
-22.69999999664358
 30
0.0
  0
VERTEX
  5
1B85
  8
SAPA_PROFIL
 10
-4.998980999999703
 20
-22.699999996643641
 30
0.0
 42
-0.4142135623730951
  0
VERTEX
  5
1B86
  8
SAPA_PROFIL
 10
-3.9989809999997461
 20
-23.69999999664358
 30
0.0
  0
VERTEX
  5
1B87
  8
SAPA_PROFIL
 10
-3.9989809999997878
 20
-24.197775146058589
 30
0.0
 42
-0.4142135623729703
  0
VERTEX
  5
1B88
  8
SAPA_PROFIL
 10
-4.198980850584789
 20
-24.39777499664368
 30
0.0
  0
VERTEX
  5
1B89
  8
SAPA_PROFIL
 10
-5.7968315631784453
 20
-24.397774996643601
 30
0.0
 42
0.4146459924388422
  0
VERTEX
  5
1B8A
  8
SAPA_PROFIL
 10
-5.9968313452669131
 20
-24.598070233104139
 30
0.0
  0
VERTEX
  5
1B8B
  8
SAPA_PROFIL
 10
-5.9983878522087961
 20
-36.003696559944132
 30
0.0
  0
VERTEX
  5
1B8C
  8
SAPA_PROFIL
 10
-6.5084182346522281
 20
-37.323281336565088
 30
0.0
 42
0.4142135623730955
  0
VERTEX
  5
1B8D
  8
SAPA_PROFIL
 10
-6.3084541901448317
 20
-37.6974662920409
 30
0.0
  0
VERTEX
  5
1B8E
  8
SAPA_PROFIL
 10
-6.2606084401463447
 20
-37.711984701288003
 30
0.0
  0
VERTEX
  5
1B8F
  8
SAPA_PROFIL
 10
-6.2605248322627212
 20
-39.215085782050011
 30
0.0
 42
-0.4769755326981641
  0
VERTEX
  5
1B90
  8
SAPA_PROFIL
 10
-6.632181707208562
 20
-39.517338606556478
 30
0.0
  0
VERTEX
  5
1B91
  8
SAPA_PROFIL
 10
-8.4454121778668174
 20
-39.135892010428748
 30
0.0
 42
-0.2216946626430181
  0
VERTEX
  5
1B92
  8
SAPA_PROFIL
 10
-8.9862920093436038
 20
-38.730083105273962
 30
0.0
  0
VERTEX
  5
1B93
  8
SAPA_PROFIL
 10
-9.1384259204523666
 20
-38.44540082204233
 30
0.0
 42
-0.5773502691897449
  0
VERTEX
  5
1B94
  8
SAPA_PROFIL
 10
-8.9554721803421877
 20
-38.151244521787497
 30
0.0
  0
VERTEX
  5
1B95
  8
SAPA_PROFIL
 10
-8.6337144521239431
 20
-38.16180588801447
 30
0.0
  0
VERTEX
  5
1B96
  8
SAPA_PROFIL
 10
-7.5491500051522022
 20
-36.275962196153408
 30
0.0
  0
VERTEX
  5
1B97
  8
SAPA_PROFIL
 10
-7.4910763681631094
 20
-36.084579196159702
 30
0.0
 42
0.7625858545243258
  0
VERTEX
  5
1B98
  8
SAPA_PROFIL
 10
-7.8214024491801153
 20
-35.899999993962197
 30
0.0
 42
-0.2134217652834359
  0
SEQEND
  5
1B99
  8
SAPA_PROFIL
  0
POLYLINE
  5
1277
  8
SAPA_PROFIL
  6
CONTINUOUS
 66
     1
 10
0.0
 20
0.0
 30
0.0
 70
     1
  0
VERTEX
  5
1B9A
  8
SAPA_PROFIL
  6
CONTINUOUS
 10
-19.29999999999967
 20
-16.29999999342559
 30
0.0
 42
-0.4142135623728245
  0
VERTEX
  5
1B9B
  8
SAPA_PROFIL
  6
CONTINUOUS
 10
-19.499999999999769
 20
-16.09999999342568
 30
0.0
  0
VERTEX
  5
1B9C
  8
SAPA_PROFIL
  6
CONTINUOUS
 10
-19.499999999999769
 20
-15.99999999342549
 30
0.0
  0
VERTEX
  5
1B9D
  8
SAPA_PROFIL
  6
CONTINUOUS
 10
-78.799999999999756
 20
-15.99999999342549
 30
0.0
  0
VERTEX
  5
1B9E
  8
SAPA_PROFIL
  6
CONTINUOUS
 10
-78.799999999999983
 20
-16.099999993425492
 30
0.0
 42
-0.4142135623730951
  0
VERTEX
  5
1B9F
  8
SAPA_PROFIL
  6
CONTINUOUS
 10
-78.999999999999972
 20
-16.299999993425459
 30
0.0
  0
VERTEX
  5
1BA0
  8
SAPA_PROFIL
  6
CONTINUOUS
 10
-80.599999999999966
 20
-16.299999993425359
 30
0.0
 42
-0.4142135623730951
  0
VERTEX
  5
1BA1
  8
SAPA_PROFIL
  6
CONTINUOUS
 10
-80.799999999999869
 20
-16.099999993425492
 30
0.0
  0
VERTEX
  5
1BA2
  8
SAPA_PROFIL
  6
CONTINUOUS
 10
-80.799999999999869
 20
-15.99999999342549
 30
0.0
  0
VERTEX
  5
1BA3
  8
SAPA_PROFIL
  6
CONTINUOUS
 10
-82.499999999999943
 20
-15.99999999342548
 30
0.0
 42
0.4142135623730847
  0
VERTEX
  5
1BA4
  8
SAPA_PROFIL
  6
CONTINUOUS
 10
-82.799999999999756
 20
-16.299999993425459
 30
0.0
  0
VERTEX
  5
1BA5
  8
SAPA_PROFIL
  6
CONTINUOUS
 10
-82.799999999999756
 20
-33.899999993425467
 30
0.0
 42
0.4142135623730701
  0
VERTEX
  5
1BA6
  8
SAPA_PROFIL
  6
CONTINUOUS
 10
-82.499999999999943
 20
-34.199999993425422
 30
0.0
  0
VERTEX
  5
1BA7
  8
SAPA_PROFIL
  6
CONTINUOUS
 10
-80.799999999999685
 20
-34.199999993425422
 30
0.0
  0
VERTEX
  5
1BA8
  8
SAPA_PROFIL
  6
CONTINUOUS
 10
-80.799999999999926
 20
-33.899999993425411
 30
0.0
 42
-0.4142135623731451
  0
VERTEX
  5
1BA9
  8
SAPA_PROFIL
  6
CONTINUOUS
 10
-80.599999999999767
 20
-33.699999993425422
 30
0.0
  0
VERTEX
  5
1BAA
  8
SAPA_PROFIL
  6
CONTINUOUS
 10
-78.999999999999972
 20
-33.699999993425351
 30
0.0
 42
-0.4142135623732616
  0
VERTEX
  5
1BAB
  8
SAPA_PROFIL
  6
CONTINUOUS
 10
-78.799999999999869
 20
-33.899999993425581
 30
0.0
  0
VERTEX
  5
1BAC
  8
SAPA_PROFIL
  6
CONTINUOUS
 10
-78.799999999999955
 20
-34.199999993425479
 30
0.0
  0
VERTEX
  5
1BAD
  8
SAPA_PROFIL
  6
CONTINUOUS
 10
-19.49999999999957
 20
-34.199999993425479
 30
0.0
  0
VERTEX
  5
1BAE
  8
SAPA_PROFIL
  6
CONTINUOUS
 10
-19.499999999999741
 20
-33.899999993425411
 30
0.0
 42
-0.4142135623732199
  0
VERTEX
  5
1BAF
  8
SAPA_PROFIL
  6
CONTINUOUS
 10
-19.29999999999967
 20
-33.699999993425422
 30
0.0
  0
VERTEX
  5
1BB0
  8
SAPA_PROFIL
  6
CONTINUOUS
 10
-17.699999999999701
 20
-33.699999993425493
 30
0.0
 42
-0.4142135623733448
  0
VERTEX
  5
1BB1
  8
SAPA_PROFIL
  6
CONTINUOUS
 10
-17.499999999999769
 20
-33.899999993425588
 30
0.0
  0
VERTEX
  5
1BB2
  8
SAPA_PROFIL
  6
CONTINUOUS
 10
-17.499999999999769
 20
-34.199999993425429
 30
0.0
  0
VERTEX
  5
1BB3
  8
SAPA_PROFIL
  6
CONTINUOUS
 10
-8.0000000000000036
 20
-34.199999993425429
 30
0.0
 42
0.4142135623732325
  0
VERTEX
  5
1BB4
  8
SAPA_PROFIL
  6
CONTINUOUS
 10
-7.6999999999999051
 20
-33.899999993425418
 30
0.0
  0
VERTEX
  5
1BB5
  8
SAPA_PROFIL
  6
CONTINUOUS
 10
-7.6999999999999051
 20
-24.69999999664358
 30
0.0
 42
0.4142135623732325
  0
VERTEX
  5
1BB6
  8
SAPA_PROFIL
  6
CONTINUOUS
 10
-8.0
 20
-24.399999996643611
 30
0.0
  0
VERTEX
  5
1BB7
  8
SAPA_PROFIL
  6
CONTINUOUS
 10
-12.50000074707469
 20
-24.399999996643611
 30
0.0
 42
-0.4142135623730514
  0
VERTEX
  5
1BB8
  8
SAPA_PROFIL
  6
CONTINUOUS
 10
-15.199999999999701
 20
-21.700000743718771
 30
0.0
  0
VERTEX
  5
1BB9
  8
SAPA_PROFIL
  6
CONTINUOUS
 10
-15.199999999999701
 20
-16.29999999342547
 30
0.0
 42
0.4142135623732907
  0
VERTEX
  5
1BBA
  8
SAPA_PROFIL
  6
CONTINUOUS
 10
-15.499999999999771
 20
-15.99999999342549
 30
0.0
  0
VERTEX
  5
1BBB
  8
SAPA_PROFIL
  6
CONTINUOUS
 10
-17.499999999999769
 20
-15.99999999342549
 30
0.0
  0
VERTEX
  5
1BBC
  8
SAPA_PROFIL
  6
CONTINUOUS
 10
-17.499999999999741
 20
-16.099999993425399
 30
0.0
 42
-0.4142135623732303
  0
VERTEX
  5
1BBD
  8
SAPA_PROFIL
  6
CONTINUOUS
 10
-17.699999999999701
 20
-16.29999999342547
 30
0.0
  0
SEQEND
  5
1BBE
  8
SAPA_PROFIL
  6
CONTINUOUS
  0
POLYLINE
  5
1278
  8
SAPA_PROFIL
 62
     4
 66
     1
 10
0.0
 20
0.0
 30
0.0
  0
VERTEX
  5
1BBF
  8
SAPA_PROFIL
 62
     4
 10
-86.565328512890844
 20
-47.950670874211802
 30
0.0
 42
-0.5571646428658034
  0
VERTEX
  5
1BC0
  8
SAPA_PROFIL
 62
     4
 10
-85.697609598735326
 20
-48.487631378348617
 30
0.0
  0
VERTEX
  5
1BC1
  8
SAPA_PROFIL
 62
     4
 10
-85.697609598735767
 20
-65.512368614869828
 30
0.0
 42
-0.5571645048035741
  0
VERTEX
  5
1BC2
  8
SAPA_PROFIL
 62
     4
 10
-86.565328286601954
 20
-66.049329231830882
 30
0.0
  0
VERTEX
  5
1BC3
  8
SAPA_PROFIL
 62
     4
 10
-88.231468942669949
 20
-65.218622144284183
 30
0.0
 42
-0.284385813979063
  0
VERTEX
  5
1BC4
  8
SAPA_PROFIL
 62
     4
 10
-88.397609598737404
 20
-64.950141835803834
 30
0.0
  0
VERTEX
  5
1BC5
  8
SAPA_PROFIL
 62
     4
 10
-88.397609598737404
 20
-49.049858157414519
 30
0.0
 42
-0.2843858139786238
  0
VERTEX
  5
1BC6
  8
SAPA_PROFIL
 62
     4
 10
-88.231468942670475
 20
-48.781377848934227
 30
0.0
  0
VERTEX
  5
1BC7
  8
SAPA_PROFIL
 62
     4
 10
-86.56532828660113
 20
-47.950670761387073
 30
0.0
  0
SEQEND
  5
1BC8
  8
SAPA_PROFIL
 62
     4
  0
POLYLINE
  5
1279
  8
SAPA_PROFIL
 62
     4
 66
     1
 10
0.0
 20
0.0
 30
0.0
 70
     1
  0
VERTEX
  5
1BC9
  8
SAPA_PROFIL
 62
     4
 10
-88.754441113234975
 20
-71.41761118127647
 30
0.0
  0
VERTEX
  5
1BCA
  8
SAPA_PROFIL
 62
     4
 10
-89.161001309239111
 20
-71.681634459652486
 30
0.0
 42
0.2539676464751066
  0
VERTEX
  5
1BCB
  8
SAPA_PROFIL
 62
     4
 10
-89.297609598735221
 20
-71.933235630037188
 30
0.0
  0
VERTEX
  5
1BCC
  8
SAPA_PROFIL
 62
     4
 10
-89.297609598735221
 20
-73.314735215242536
 30
0.0
 42
0.3152987888790479
  0
VERTEX
  5
1BCD
  8
SAPA_PROFIL
 62
     4
 10
-88.968619670397061
 20
-73.784581525634849
 30
0.0
  0
VERTEX
  5
1BCE
  8
SAPA_PROFIL
 62
     4
 10
-86.507789479945785
 20
-74.680250466543455
 30
0.0
 42
-0.2694959974287434
  0
VERTEX
  5
1BCF
  8
SAPA_PROFIL
 62
     4
 10
-86.314657505601886
 20
-74.911769512944815
 30
0.0
 42
-0.0612686379508233
  0
VERTEX
  5
1BD0
  8
SAPA_PROFIL
 62
     4
 10
-86.301074134971373
 20
-75.204444945798087
 30
0.0
  0
VERTEX
  5
1BD1
  8
SAPA_PROFIL
 62
     4
 10
-86.099337456242552
 20
-75.553863123106353
 30
0.0
 42
-0.5773502691891679
  0
VERTEX
  5
1BD2
  8
SAPA_PROFIL
 62
     4
 10
-86.281202791037117
 20
-75.868863123105939
 30
0.0
  0
VERTEX
  5
1BD3
  8
SAPA_PROFIL
 62
     4
 10
-86.548317319163445
 20
-75.868863123106181
 30
0.0
  0
VERTEX
  5
1BD4
  8
SAPA_PROFIL
 62
     4
 10
-87.357000780471751
 20
-77.267390823740413
 30
0.0
 42
0.1318219888653519
  0
VERTEX
  5
1BD5
  8
SAPA_PROFIL
 62
     4
 10
-87.397293177009146
 20
-77.417563926212779
 30
0.0
  0
VERTEX
  5
1BD6
  8
SAPA_PROFIL
 62
     4
 10
-87.397293177002794
 20
-77.599999996649544
 30
0.0
 42
0.4142135623724291
  0
VERTEX
  5
1BD7
  8
SAPA_PROFIL
 62
     4
 10
-86.997293177003144
 20
-77.999999996650104
 30
0.0
  0
VERTEX
  5
1BD8
  8
SAPA_PROFIL
 62
     4
 10
-83.597293177002143
 20
-77.999999996648739
 30
0.0
 42
0.4142135623744271
  0
VERTEX
  5
1BD9
  8
SAPA_PROFIL
 62
     4
 10
-83.197293177001129
 20
-77.599999996649544
 30
0.0
  0
VERTEX
  5
1BDA
  8
SAPA_PROFIL
 62
     4
 10
-83.197293177000489
 20
-77.420384754378262
 30
0.0
 42
0.1316524975874005
  0
VERTEX
  5
1BDB
  8
SAPA_PROFIL
 62
     4
 10
-83.237485555866087
 20
-77.270384754381439
 30
0.0
  0
VERTEX
  5
1BDC
  8
SAPA_PROFIL
 62
     4
 10
-84.163635002518632
 20
-75.666246857379178
 30
0.0
 42
-0.1316524975875904
  0
VERTEX
  5
1BDD
  8
SAPA_PROFIL
 62
     4
 10
-84.297609598733388
 20
-75.166246857377473
 30
0.0
  0
VERTEX
  5
1BDE
  8
SAPA_PROFIL
 62
     4
 10
-84.297609598733388
 20
-74.749999996650104
 30
0.0
 42
-0.4142135623730951
  0
VERTEX
  5
1BDF
  8
SAPA_PROFIL
 62
     4
 10
-83.297609598733402
 20
-73.749999996650104
 30
0.0
  0
VERTEX
  5
1BE0
  8
SAPA_PROFIL
 62
     4
 10
-80.29760959873613
 20
-73.749999996650104
 30
0.0
 42
0.9999996830128083
  0
VERTEX
  5
1BE1
  8
SAPA_PROFIL
 62
     4
 10
-80.297609598734311
 20
-72.749999996650104
 30
0.0
  0
VERTEX
  5
1BE2
  8
SAPA_PROFIL
 62
     4
 10
-83.297609598734297
 20
-72.749999996650104
 30
0.0
 42
-0.4142135623730951
  0
VERTEX
  5
1BE3
  8
SAPA_PROFIL
 62
     4
 10
-84.297609598734326
 20
-71.749999996650104
 30
0.0
  0
VERTEX
  5
1BE4
  8
SAPA_PROFIL
 62
     4
 10
-84.297609598734326
 20
-42.249999996565521
 30
0.0
 42
-0.4142135623730951
  0
VERTEX
  5
1BE5
  8
SAPA_PROFIL
 62
     4
 10
-83.297609598734297
 20
-41.249999996565521
 30
0.0
  0
VERTEX
  5
1BE6
  8
SAPA_PROFIL
 62
     4
 10
-80.29760959873613
 20
-41.249999996565521
 30
0.0
 42
0.9999999999999998
  0
VERTEX
  5
1BE7
  8
SAPA_PROFIL
 62
     4
 10
-80.29760959873613
 20
-40.249999996565521
 30
0.0
  0
VERTEX
  5
1BE8
  8
SAPA_PROFIL
 62
     4
 10
-83.297609598734297
 20
-40.249999996565521
 30
0.0
 42
-0.4142135623736278
  0
VERTEX
  5
1BE9
  8
SAPA_PROFIL
 62
     4
 10
-84.297609598734326
 20
-39.249999996565521
 30
0.0
  0
VERTEX
  5
1BEA
  8
SAPA_PROFIL
 62
     4
 10
-84.297609598734326
 20
-38.833753135839061
 30
0.0
 42
-0.1316524975874375
  0
VERTEX
  5
1BEB
  8
SAPA_PROFIL
 62
     4
 10
-84.163635002518276
 20
-38.333753135838862
 30
0.0
  0
VERTEX
  5
1BEC
  8
SAPA_PROFIL
 62
     4
 10
-83.237485555866087
 20
-36.729615238836907
 30
0.0
 42
0.1316524975874
  0
VERTEX
  5
1BED
  8
SAPA_PROFIL
 62
     4
 10
-83.197293177000489
 20
-36.57961523883737
 30
0.0
  0
VERTEX
  5
1BEE
  8
SAPA_PROFIL
 62
     4
 10
-83.197293177001129
 20
-36.399999996566073
 30
0.0
 42
0.4142135623744271
  0
VERTEX
  5
1BEF
  8
SAPA_PROFIL
 62
     4
 10
-83.597293177002143
 20
-35.999999996566878
 30
0.0
  0
VERTEX
  5
1BF0
  8
SAPA_PROFIL
 62
     4
 10
-86.997293177003144
 20
-35.999999996565521
 30
0.0
 42
0.4142135623724291
  0
VERTEX
  5
1BF1
  8
SAPA_PROFIL
 62
     4
 10
-87.397293177002794
 20
-36.399999996566073
 30
0.0
  0
VERTEX
  5
1BF2
  8
SAPA_PROFIL
 62
     4
 10
-87.397293177009146
 20
-36.582436067002853
 30
0.0
 42
0.1318219888653524
  0
VERTEX
  5
1BF3
  8
SAPA_PROFIL
 62
     4
 10
-87.357000780471751
 20
-36.73260916947519
 30
0.0
  0
VERTEX
  5
1BF4
  8
SAPA_PROFIL
 62
     4
 10
-86.548317319247417
 20
-38.131136869954837
 30
0.0
  0
VERTEX
  5
1BF5
  8
SAPA_PROFIL
 62
     4
 10
-86.281202791034389
 20
-38.131136869954837
 30
0.0
 42
-0.577350269189159
  0
VERTEX
  5
1BF6
  8
SAPA_PROFIL
 62
     4
 10
-86.099337456239809
 20
-38.446136869954437
 30
0.0
  0
VERTEX
  5
1BF7
  8
SAPA_PROFIL
 62
     4
 10
-86.301074134916917
 20
-38.79555504717311
 30
0.0
 42
-0.0612687673629489
  0
VERTEX
  5
1BF8
  8
SAPA_PROFIL
 62
     4
 10
-86.314657505603122
 20
-39.088230480273317
 30
0.0
 42
-0.2694959974285039
  0
VERTEX
  5
1BF9
  8
SAPA_PROFIL
 62
     4
 10
-86.507789479947064
 20
-39.319749526673839
 30
0.0
  0
VERTEX
  5
1BFA
  8
SAPA_PROFIL
 62
     4
 10
-88.968619670400244
 20
-40.215418467583497
 30
0.0
 42
0.3152987888784035
  0
VERTEX
  5
1BFB
  8
SAPA_PROFIL
 62
     4
 10
-89.297609598736798
 20
-40.68526477797672
 30
0.0
  0
VERTEX
  5
1BFC
  8
SAPA_PROFIL
 62
     4
 10
-89.297609598735221
 20
-42.066764363181157
 30
0.0
 42
0.2539676464741841
  0
VERTEX
  5
1BFD
  8
SAPA_PROFIL
 62
     4
 10
-89.16100130923995
 20
-42.318365533565242
 30
0.0
  0
VERTEX
  5
1BFE
  8
SAPA_PROFIL
 62
     4
 10
-88.754441113234975
 20
-42.582388811941883
 30
0.0
 42
0.5862177598324623
  0
VERTEX
  5
1BFF
  8
SAPA_PROFIL
 62
     4
 10
-88.297609598738461
 20
-42.326646996703538
 30
0.0
  0
VERTEX
  5
1C00
  8
SAPA_PROFIL
 62
     4
 10
-88.297609598746135
 20
-41.38547231619372
 30
0.0
 42
-0.3152987888813165
  0
VERTEX
  5
1C01
  8
SAPA_PROFIL
 62
     4
 10
-87.968619670409367
 20
-40.915626005795971
 30
0.0
  0
VERTEX
  5
1C02
  8
SAPA_PROFIL
 62
     4
 10
-86.768619670398152
 20
-40.478861724672008
 30
0.0
 42
-0.5205670505515651
  0
VERTEX
  5
1C03
  8
SAPA_PROFIL
 62
     4
 10
-86.097609598735403
 20
-40.948708035065231
 30
0.0
  0
VERTEX
  5
1C04
  8
SAPA_PROFIL
 62
     4
 10
-86.097609598735374
 20
-45.965148975734088
 30
0.0
 42
-0.3702522326300203
  0
VERTEX
  5
1C05
  8
SAPA_PROFIL
 62
     4
 10
-86.352069551401087
 20
-46.261672337527408
 30
0.0
 42
-0.0982365330332397
  0
VERTEX
  5
1C06
  8
SAPA_PROFIL
 62
     4
 10
-88.039756326396088
 20
-46.352125095738351
 30
0.0
 42
-0.3735060174783164
  0
VERTEX
  5
1C07
  8
SAPA_PROFIL
 62
     4
 10
-88.29760959873613
 20
-46.055100427827377
 30
0.0
  0
VERTEX
  5
1C08
  8
SAPA_PROFIL
 62
     4
 10
-88.29760959873704
 20
-45.626646996704721
 30
0.0
 42
0.5920056181162531
  0
VERTEX
  5
1C09
  8
SAPA_PROFIL
 62
     4
 10
-88.758813101264963
 20
-45.373638240387322
 30
0.0
  0
VERTEX
  5
1C0A
  8
SAPA_PROFIL
 62
     4
 10
-89.161001309243247
 20
-45.634822316543023
 30
0.0
 42
0.2539676464746725
  0
VERTEX
  5
1C0B
  8
SAPA_PROFIL
 62
     4
 10
-89.297609598738617
 20
-45.886423486926788
 30
0.0
  0
VERTEX
  5
1C0C
  8
SAPA_PROFIL
 62
     4
 10
-89.297609598737026
 20
-68.113576506292475
 30
0.0
 42
0.2539676464741819
  0
VERTEX
  5
1C0D
  8
SAPA_PROFIL
 62
     4
 10
-89.161001309243247
 20
-68.36517767667533
 30
0.0
  0
VERTEX
  5
1C0E
  8
SAPA_PROFIL
 62
     4
 10
-88.758813101264934
 20
-68.626361752829141
 30
0.0
 42
0.5920055144124249
  0
VERTEX
  5
1C0F
  8
SAPA_PROFIL
 62
     4
 10
-88.29760959873704
 20
-68.373352996513631
 30
0.0
  0
VERTEX
  5
1C10
  8
SAPA_PROFIL
 62
     4
 10
-88.29760962401204
 20
-67.944899519223412
 30
0.0
 42
-0.3735060174775405
  0
VERTEX
  5
1C11
  8
SAPA_PROFIL
 62
     4
 10
-88.039756351671954
 20
-67.64787485131373
 30
0.0
 42
-0.0355900683670349
  0
VERTEX
  5
1C12
  8
SAPA_PROFIL
 62
     4
 10
-87.423882764872175
 20
-67.603981287281471
 30
0.0
 42
-0.0624282003873116
  0
VERTEX
  5
1C13
  8
SAPA_PROFIL
 62
     4
 10
-86.352069576677025
 20
-67.738327609524404
 30
0.0
 42
-0.3702522326309292
  0
VERTEX
  5
1C14
  8
SAPA_PROFIL
 62
     4
 10
-86.097609624011298
 20
-68.03485097131778
 30
0.0
  0
VERTEX
  5
1C15
  8
SAPA_PROFIL
 62
     4
 10
-86.097609598735175
 20
-73.051291958151296
 30
0.0
 42
-0.5205670505515692
  0
VERTEX
  5
1C16
  8
SAPA_PROFIL
 62
     4
 10
-86.768619670398152
 20
-73.521138268544519
 30
0.0
  0
VERTEX
  5
1C17
  8
SAPA_PROFIL
 62
     4
 10
-87.968619670407605
 20
-73.084373987419568
 30
0.0
 42
-0.3152987888807539
  0
VERTEX
  5
1C18
  8
SAPA_PROFIL
 62
     4
 10
-88.297609598745225
 20
-72.614527677023716
 30
0.0
  0
VERTEX
  5
1C19
  8
SAPA_PROFIL
 62
     4
 10
-88.297609598738404
 20
-71.673352996514637
 30
0.0
 42
0.5862175119221242
  0
VERTEX
  5
1C1A
  8
SAPA_PROFIL
 62
     4
 10
-88.754440924493537
 20
-71.417611065532668
 30
0.0
 42
-0.0000002084758573
  0
SEQEND
  5
1C1B
  8
SAPA_PROFIL
 62
     4
  0
POLYLINE
  5
127A
  8
SAPA_PROFIL
 62
     4
 66
     1
 10
0.0
 20
0.0
 30
0.0
  0
VERTEX
  5
1C1C
  8
SAPA_PROFIL
 62
     4
 10
-8.7298906845848574
 20
-47.950670874211802
 30
0.0
 42
0.5571646428658034
  0
VERTEX
  5
1C1D
  8
SAPA_PROFIL
 62
     4
 10
-9.5976095987404086
 20
-48.487631378348617
 30
0.0
  0
VERTEX
  5
1C1E
  8
SAPA_PROFIL
 62
     4
 10
-9.5976095987399503
 20
-65.512368614869828
 30
0.0
 42
0.5571645048035741
  0
VERTEX
  5
1C1F
  8
SAPA_PROFIL
 62
     4
 10
-8.7298909108737828
 20
-66.049329231830882
 30
0.0
  0
VERTEX
  5
1C20
  8
SAPA_PROFIL
 62
     4
 10
-7.063750254805754
 20
-65.218622144284183
 30
0.0
 42
0.284385813979063
  0
VERTEX
  5
1C21
  8
SAPA_PROFIL
 62
     4
 10
-6.8976095987383141
 20
-64.950141835803834
 30
0.0
  0
VERTEX
  5
1C22
  8
SAPA_PROFIL
 62
     4
 10
-6.897609598738315
 20
-49.049858157414519
 30
0.0
 42
0.2843858139786238
  0
VERTEX
  5
1C23
  8
SAPA_PROFIL
 62
     4
 10
-7.0637502548052442
 20
-48.781377848934227
 30
0.0
  0
VERTEX
  5
1C24
  8
SAPA_PROFIL
 62
     4
 10
-8.7298909108745892
 20
-47.950670761387073
 30
0.0
  0
SEQEND
  5
1C25
  8
SAPA_PROFIL
 62
     4
  0
POLYLINE
  5
127B
  8
SAPA_PROFIL
 62
     4
 66
     1
 10
0.0
 20
0.0
 30
0.0
 70
     1
  0
VERTEX
  5
1C26
  8
SAPA_PROFIL
 62
     4
 10
-6.540778084240741
 20
-71.41761118127647
 30
0.0
  0
VERTEX
  5
1C27
  8
SAPA_PROFIL
 62
     4
 10
-6.1342178882365976
 20
-71.681634459652486
 30
0.0
 42
-0.2539676464751066
  0
VERTEX
  5
1C28
  8
SAPA_PROFIL
 62
     4
 10
-5.997609598740496
 20
-71.933235630037188
 30
0.0
  0
VERTEX
  5
1C29
  8
SAPA_PROFIL
 62
     4
 10
-5.997609598740496
 20
-73.314735215242536
 30
0.0
 42
-0.3152987888790479
  0
VERTEX
  5
1C2A
  8
SAPA_PROFIL
 62
     4
 10
-6.3265995270786561
 20
-73.784581525634849
 30
0.0
  0
VERTEX
  5
1C2B
  8
SAPA_PROFIL
 62
     4
 10
-8.7874297175299318
 20
-74.680250466543455
 30
0.0
 42
0.2694959974287434
  0
VERTEX
  5
1C2C
  8
SAPA_PROFIL
 62
     4
 10
-8.9805616918738238
 20
-74.911769512944815
 30
0.0
 42
0.0612686379508233
  0
VERTEX
  5
1C2D
  8
SAPA_PROFIL
 62
     4
 10
-8.9941450625043444
 20
-75.204444945798087
 30
0.0
  0
VERTEX
  5
1C2E
  8
SAPA_PROFIL
 62
     4
 10
-9.1958817412331655
 20
-75.553863123106353
 30
0.0
 42
0.5773502691891679
  0
VERTEX
  5
1C2F
  8
SAPA_PROFIL
 62
     4
 10
-9.0140164064385981
 20
-75.868863123105939
 30
0.0
  0
VERTEX
  5
1C30
  8
SAPA_PROFIL
 62
     4
 10
-8.7469018783122792
 20
-75.868863123106181
 30
0.0
  0
VERTEX
  5
1C31
  8
SAPA_PROFIL
 62
     4
 10
-7.9382184170039629
 20
-77.267390823740413
 30
0.0
 42
-0.1318219888653519
  0
VERTEX
  5
1C32
  8
SAPA_PROFIL
 62
     4
 10
-7.8979260204665742
 20
-77.417563926212779
 30
0.0
  0
VERTEX
  5
1C33
  8
SAPA_PROFIL
 62
     4
 10
-7.8979260204729398
 20
-77.599999996649544
 30
0.0
 42
-0.4142135623724291
  0
VERTEX
  5
1C34
  8
SAPA_PROFIL
 62
     4
 10
-8.2979260204725769
 20
-77.999999996650104
 30
0.0
  0
VERTEX
  5
1C35
  8
SAPA_PROFIL
 62
     4
 10
-11.69792602047357
 20
-77.999999996648739
 30
0.0
 42
-0.4142135623744271
  0
VERTEX
  5
1C36
  8
SAPA_PROFIL
 62
     4
 10
-12.09792602047458
 20
-77.599999996649544
 30
0.0
  0
VERTEX
  5
1C37
  8
SAPA_PROFIL
 62
     4
 10
-12.09792602047521
 20
-77.420384754378262
 30
0.0
 42
-0.1316524975874005
  0
VERTEX
  5
1C38
  8
SAPA_PROFIL
 62
     4
 10
-12.057733641609611
 20
-77.270384754381439
 30
0.0
  0
VERTEX
  5
1C39
  8
SAPA_PROFIL
 62
     4
 10
-11.13158419495708
 20
-75.666246857379178
 30
0.0
 42
0.1316524975875904
  0
VERTEX
  5
1C3A
  8
SAPA_PROFIL
 62
     4
 10
-10.99760959874231
 20
-75.166246857377473
 30
0.0
  0
VERTEX
  5
1C3B
  8
SAPA_PROFIL
 62
     4
 10
-10.99760959874231
 20
-74.749999996650104
 30
0.0
 42
0.4142135623730951
  0
VERTEX
  5
1C3C
  8
SAPA_PROFIL
 62
     4
 10
-11.99760959874231
 20
-73.749999996650104
 30
0.0
  0
VERTEX
  5
1C3D
  8
SAPA_PROFIL
 62
     4
 10
-14.99760959873959
 20
-73.749999996650104
 30
0.0
 42
-0.9999996830128083
  0
VERTEX
  5
1C3E
  8
SAPA_PROFIL
 62
     4
 10
-14.9976095987414
 20
-72.749999996650104
 30
0.0
  0
VERTEX
  5
1C3F
  8
SAPA_PROFIL
 62
     4
 10
-11.9976095987414
 20
-72.749999996650104
 30
0.0
 42
0.4142135623730951
  0
VERTEX
  5
1C40
  8
SAPA_PROFIL
 62
     4
 10
-10.9976095987414
 20
-71.749999996650104
 30
0.0
  0
VERTEX
  5
1C41
  8
SAPA_PROFIL
 62
     4
 10
-10.9976095987414
 20
-42.249999996565521
 30
0.0
 42
0.4142135623730951
  0
VERTEX
  5
1C42
  8
SAPA_PROFIL
 62
     4
 10
-11.9976095987414
 20
-41.249999996565521
 30
0.0
  0
VERTEX
  5
1C43
  8
SAPA_PROFIL
 62
     4
 10
-14.99760959873959
 20
-41.249999996565521
 30
0.0
 42
-0.9999999999999998
  0
VERTEX
  5
1C44
  8
SAPA_PROFIL
 62
     4
 10
-14.99760959873959
 20
-40.249999996565521
 30
0.0
  0
VERTEX
  5
1C45
  8
SAPA_PROFIL
 62
     4
 10
-11.9976095987414
 20
-40.249999996565521
 30
0.0
 42
0.4142135623736278
  0
VERTEX
  5
1C46
  8
SAPA_PROFIL
 62
     4
 10
-10.9976095987414
 20
-39.249999996565521
 30
0.0
  0
VERTEX
  5
1C47
  8
SAPA_PROFIL
 62
     4
 10
-10.9976095987414
 20
-38.833753135839061
 30
0.0
 42
0.1316524975874375
  0
VERTEX
  5
1C48
  8
SAPA_PROFIL
 62
     4
 10
-11.131584194957441
 20
-38.333753135838862
 30
0.0
  0
VERTEX
  5
1C49
  8
SAPA_PROFIL
 62
     4
 10
-12.057733641609619
 20
-36.729615238836907
 30
0.0
 42
-0.1316524975874
  0
VERTEX
  5
1C4A
  8
SAPA_PROFIL
 62
     4
 10
-12.09792602047521
 20
-36.57961523883737
 30
0.0
  0
VERTEX
  5
1C4B
  8
SAPA_PROFIL
 62
     4
 10
-12.09792602047458
 20
-36.399999996566073
 30
0.0
 42
-0.4142135623744271
  0
VERTEX
  5
1C4C
  8
SAPA_PROFIL
 62
     4
 10
-11.69792602047357
 20
-35.999999996566878
 30
0.0
  0
VERTEX
  5
1C4D
  8
SAPA_PROFIL
 62
     4
 10
-8.2979260204725769
 20
-35.999999996565521
 30
0.0
 42
-0.4142135623724291
  0
VERTEX
  5
1C4E
  8
SAPA_PROFIL
 62
     4
 10
-7.8979260204729389
 20
-36.399999996566073
 30
0.0
  0
VERTEX
  5
1C4F
  8
SAPA_PROFIL
 62
     4
 10
-7.8979260204665733
 20
-36.582436067002853
 30
0.0
 42
-0.1318219888653524
  0
VERTEX
  5
1C50
  8
SAPA_PROFIL
 62
     4
 10
-7.938218417003962
 20
-36.73260916947519
 30
0.0
  0
VERTEX
  5
1C51
  8
SAPA_PROFIL
 62
     4
 10
-8.7469018782283001
 20
-38.131136869954837
 30
0.0
  0
VERTEX
  5
1C52
  8
SAPA_PROFIL
 62
     4
 10
-9.0140164064413355
 20
-38.131136869954837
 30
0.0
 42
0.577350269189159
  0
VERTEX
  5
1C53
  8
SAPA_PROFIL
 62
     4
 10
-9.1958817412359029
 20
-38.446136869954437
 30
0.0
  0
VERTEX
  5
1C54
  8
SAPA_PROFIL
 62
     4
 10
-8.9941450625587969
 20
-38.79555504717311
 30
0.0
 42
0.0612687673629489
  0
VERTEX
  5
1C55
  8
SAPA_PROFIL
 62
     4
 10
-8.980561691872591
 20
-39.088230480273317
 30
0.0
 42
0.2694959974285039
  0
VERTEX
  5
1C56
  8
SAPA_PROFIL
 62
     4
 10
-8.7874297175286404
 20
-39.319749526673839
 30
0.0
  0
VERTEX
  5
1C57
  8
SAPA_PROFIL
 62
     4
 10
-6.3265995270754738
 20
-40.215418467583497
 30
0.0
 42
-0.3152987888784035
  0
VERTEX
  5
1C58
  8
SAPA_PROFIL
 62
     4
 10
-5.9976095987388991
 20
-40.68526477797672
 30
0.0
  0
VERTEX
  5
1C59
  8
SAPA_PROFIL
 62
     4
 10
-5.9976095987404969
 20
-42.066764363181157
 30
0.0
 42
-0.2539676464741841
  0
VERTEX
  5
1C5A
  8
SAPA_PROFIL
 62
     4
 10
-6.1342178882357681
 20
-42.318365533565242
 30
0.0
  0
VERTEX
  5
1C5B
  8
SAPA_PROFIL
 62
     4
 10
-6.5407780842407428
 20
-42.582388811941883
 30
0.0
 42
-0.5862177598324623
  0
VERTEX
  5
1C5C
  8
SAPA_PROFIL
 62
     4
 10
-6.9976095987372497
 20
-42.326646996703538
 30
0.0
  0
VERTEX
  5
1C5D
  8
SAPA_PROFIL
 62
     4
 10
-6.997609598729583
 20
-41.38547231619372
 30
0.0
 42
0.3152987888813165
  0
VERTEX
  5
1C5E
  8
SAPA_PROFIL
 62
     4
 10
-7.3265995270663371
 20
-40.915626005795971
 30
0.0
  0
VERTEX
  5
1C5F
  8
SAPA_PROFIL
 62
     4
 10
-8.5265995270775665
 20
-40.478861724672008
 30
0.0
 42
0.5205670505515651
  0
VERTEX
  5
1C60
  8
SAPA_PROFIL
 62
     4
 10
-9.1976095987403141
 20
-40.948708035065231
 30
0.0
  0
VERTEX
  5
1C61
  8
SAPA_PROFIL
 62
     4
 10
-9.1976095987403426
 20
-45.965148975734088
 30
0.0
 42
0.3702522326300203
  0
VERTEX
  5
1C62
  8
SAPA_PROFIL
 62
     4
 10
-8.9431496460746374
 20
-46.261672337527408
 30
0.0
 42
0.0982365330332397
  0
VERTEX
  5
1C63
  8
SAPA_PROFIL
 62
     4
 10
-7.2554628710796294
 20
-46.352125095738351
 30
0.0
 42
0.3735060174783164
  0
VERTEX
  5
1C64
  8
SAPA_PROFIL
 62
     4
 10
-6.9976095987395928
 20
-46.055100427827377
 30
0.0
  0
VERTEX
  5
1C65
  8
SAPA_PROFIL
 62
     4
 10
-6.9976095987386779
 20
-45.626646996704721
 30
0.0
 42
-0.5920056181162531
  0
VERTEX
  5
1C66
  8
SAPA_PROFIL
 62
     4
 10
-6.5364060962107562
 20
-45.373638240387322
 30
0.0
  0
VERTEX
  5
1C67
  8
SAPA_PROFIL
 62
     4
 10
-6.1342178882324569
 20
-45.634822316543023
 30
0.0
 42
-0.2539676464746725
  0
VERTEX
  5
1C68
  8
SAPA_PROFIL
 62
     4
 10
-5.9976095987370961
 20
-45.886423486926788
 30
0.0
  0
VERTEX
  5
1C69
  8
SAPA_PROFIL
 62
     4
 10
-5.9976095987386771
 20
-68.113576506292475
 30
0.0
 42
-0.2539676464741819
  0
VERTEX
  5
1C6A
  8
SAPA_PROFIL
 62
     4
 10
-6.1342178882324561
 20
-68.36517767667533
 30
0.0
  0
VERTEX
  5
1C6B
  8
SAPA_PROFIL
 62
     4
 10
-6.5364060962107891
 20
-68.626361752829141
 30
0.0
 42
-0.5920055144124249
  0
VERTEX
  5
1C6C
  8
SAPA_PROFIL
 62
     4
 10
-6.9976095987386771
 20
-68.373352996513631
 30
0.0
  0
VERTEX
  5
1C6D
  8
SAPA_PROFIL
 62
     4
 10
-6.9976095734636701
 20
-67.944899519223412
 30
0.0
 42
0.3735060174775405
  0
VERTEX
  5
1C6E
  8
SAPA_PROFIL
 62
     4
 10
-7.2554628458037618
 20
-67.64787485131373
 30
0.0
 42
0.0355900683670349
  0
VERTEX
  5
1C6F
  8
SAPA_PROFIL
 62
     4
 10
-7.8713364326035471
 20
-67.603981287281471
 30
0.0
 42
0.0624282003873116
  0
VERTEX
  5
1C70
  8
SAPA_PROFIL
 62
     4
 10
-8.9431496207986747
 20
-67.738327609524404
 30
0.0
 42
0.3702522326309292
  0
VERTEX
  5
1C71
  8
SAPA_PROFIL
 62
     4
 10
-9.1976095734643977
 20
-68.03485097131778
 30
0.0
  0
VERTEX
  5
1C72
  8
SAPA_PROFIL
 62
     4
 10
-9.1976095987405344
 20
-73.051291958151296
 30
0.0
 42
0.5205670505515692
  0
VERTEX
  5
1C73
  8
SAPA_PROFIL
 62
     4
 10
-8.5265995270775647
 20
-73.521138268544519
 30
0.0
  0
VERTEX
  5
1C74
  8
SAPA_PROFIL
 62
     4
 10
-7.3265995270681179
 20
-73.084373987419568
 30
0.0
 42
0.3152987888807539
  0
VERTEX
  5
1C75
  8
SAPA_PROFIL
 62
     4
 10
-6.9976095987304907
 20
-72.614527677023716
 30
0.0
  0
VERTEX
  5
1C76
  8
SAPA_PROFIL
 62
     4
 10
-6.9976095987373119
 20
-71.673352996514637
 30
0.0
 42
-0.5862175119221242
  0
VERTEX
  5
1C77
  8
SAPA_PROFIL
 62
     4
 10
-6.540778272982176
 20
-71.417611065532668
 30
0.0
 42
0.0000002084758573
  0
SEQEND
  5
1C78
  8
SAPA_PROFIL
 62
     4
  0
CIRCLE
  5
127C
  8
SAPA_PROFIL
 62
     2
 10
2.6684925025680748
 20
-94.817340026545082
 30
0.1
 40
0.25
  0
INSERT
  5
127D
  8
SAPA_PROFIL
  6
CONTINUOUS
 62
     2
  2
*U63
 10
0.0
 20
0.0
 30
0.0
1001
ACAD
1002
{
1000
R14_HATCH_DATA
1000
127D
1011
1.0
1021
0.0
1031
0.0
1021
0.0
1031
0.0
1011
0.0
1021
0.0
1031
0.0
1021
1.0
1031
0.0
1011
0.0
1021
0.0
1031
0.0
1021
0.0
1031
1.0
1040
0.1
1010
0.0
1020
0.0
1030
1.0
1000
SOLID
1070
     1
1070
     1
1071
        1
1071
        7
1070
     1
1070
     1
1071
        2
1040
2.6684925025680748
1040
-94.567340026545082
1040
-1.0
1040
2.6684925025680748
1040
-95.067340026545097
1040
-1.0
1071
        1
1005
127C
1070
     0
1070
     1
1040
0.0095408196840103
1071
        1
1040
2.6684925025680748
1040
-94.717340026545074
1040
0.1
1002
}
  0
POLYLINE
  5
127E
  8
SAPA_PROFIL
 62
     2
 66
     1
 10
0.0
 20
0.0
 30
0.1
 70
     1
  0
VERTEX
  5
1C8A
  8
SAPA_PROFIL
 62
     2
 10
5.0000255039111066
 20
-97.491719265410964
 30
0.1
  0
VERTEX
  5
1C8B
  8
SAPA_PROFIL
 62
     2
 10
5.1000255039111044
 20
-97.491719265410964
 30
0.1
 42
0.4142135623730959
  0
VERTEX
  5
1C8C
  8
SAPA_PROFIL
 62
     2
 10
5.8000255039111028
 20
-96.791719265410961
 30
0.1
  0
VERTEX
  5
1C8D
  8
SAPA_PROFIL
 62
     2
 10
5.8000255039111073
 20
-95.691719265410967
 30
0.1
 42
0.4142135623730961
  0
VERTEX
  5
1C8E
  8
SAPA_PROFIL
 62
     2
 10
5.6000255039111071
 20
-95.491719265410964
 30
0.1
  0
VERTEX
  5
1C8F
  8
SAPA_PROFIL
 62
     2
 10
4.5000255039111039
 20
-95.491719265410964
 30
0.1
 42
0.4142135623730956
  0
VERTEX
  5
1C90
  8
SAPA_PROFIL
 62
     2
 10
4.3000255039111037
 20
-95.691719265410967
 30
0.1
  0
VERTEX
  5
1C91
  8
SAPA_PROFIL
 62
     2
 10
4.300025503911109
 20
-96.791719265410961
 30
0.1
 42
0.4142135623730946
  0
SEQEND
  5
1C92
  8
SAPA_PROFIL
 62
     2
  0
POLYLINE
  5
127F
  8
SAPA_PROFIL
 62
     2
 66
     1
 10
0.0
 20
0.0
 30
0.1
  0
VERTEX
  5
1C93
  8
SAPA_PROFIL
 62
     2
 10
3.5000255039111061
 20
-96.191719265410967
 30
0.1
  0
VERTEX
  5
1C94
  8
SAPA_PROFIL
 62
     2
 10
3.5000255039111088
 20
-95.543953700137877
 30
0.1
 42
0.4416942457848117
  0
VERTEX
  5
1C95
  8
SAPA_PROFIL
 62
     2
 10
3.281471144283195
 20
-95.344816220644944
 30
0.1
  0
VERTEX
  5
1C96
  8
SAPA_PROFIL
 62
     2
 10
2.3185798635390178
 20
-95.434532285902975
 30
0.1
 42
-0.4416942457848106
  0
VERTEX
  5
1C97
  8
SAPA_PROFIL
 62
     2
 10
2.1000255039111062
 20
-95.235394806410028
 30
0.1
  0
VERTEX
  5
1C98
  8
SAPA_PROFIL
 62
     2
 10
2.1000255039111022
 20
-94.685412466818505
 30
0.1
 42
-0.5445962197109637
  0
VERTEX
  5
1C99
  8
SAPA_PROFIL
 62
     2
 10
2.8057045493161792
 20
-94.229675557756636
 30
0.1
  0
VERTEX
  5
1C9A
  8
SAPA_PROFIL
 62
     2
 10
3.164755702601445
 20
-94.391719265410956
 30
0.1
  0
VERTEX
  5
1C9B
  8
SAPA_PROFIL
 62
     2
 10
4.6377149413493388
 20
-94.391719265410956
 30
0.1
 42
-0.336437923496554
  0
VERTEX
  5
1C9C
  8
SAPA_PROFIL
 62
     2
 10
5.7094586709641728
 20
-94.579226083252692
 30
0.1
  0
VERTEX
  5
1C9D
  8
SAPA_PROFIL
 62
     2
 10
6.271322306787896
 20
-94.579226083252692
 30
0.1
 42
0.1919812372740513
  0
VERTEX
  5
1C9E
  8
SAPA_PROFIL
 62
     2
 10
6.6153093543879269
 20
-94.442093705235436
 30
0.1
  0
VERTEX
  5
1C9F
  8
SAPA_PROFIL
 62
     2
 10
7.00717628479123
 20
-94.070616228945397
 30
0.1
 42
0.9249153594910841
  0
VERTEX
  5
1CA0
  8
SAPA_PROFIL
 62
     2
 10
5.3413983562690097
 20
-91.836921413866094
 30
0.1
  0
VERTEX
  5
1CA1
  8
SAPA_PROFIL
 62
     2
 10
4.2568534166002427
 20
-92.370469469117737
 30
0.1
 42
-0.4184584792862776
  0
VERTEX
  5
1CA2
  8
SAPA_PROFIL
 62
     2
 10
3.6701511000288161
 20
-91.966717348697998
 30
0.1
 42
-0.3891337693453737
  0
VERTEX
  5
1CA3
  8
SAPA_PROFIL
 62
     2
 10
3.8153179915692919
 20
-91.738628040755401
 30
0.1
  0
VERTEX
  5
1CA4
  8
SAPA_PROFIL
 62
     2
 10
4.9012140821342989
 20
-91.175722988267523
 30
0.1
 42
-0.8864286961344978
  0
VERTEX
  5
1CA5
  8
SAPA_PROFIL
 62
     2
 10
7.5729939840708473
 20
-94.534921743788246
 30
0.1
  0
VERTEX
  5
1CA6
  8
SAPA_PROFIL
 62
     2
 10
8.0035531219521001
 20
-94.650289717077356
 30
0.1
 42
-0.9163311740174273
  0
VERTEX
  5
1CA7
  8
SAPA_PROFIL
 62
     2
 10
7.8651632068120287
 20
-95.435137926829697
 30
0.1
  0
VERTEX
  5
1CA8
  8
SAPA_PROFIL
 62
     2
 10
6.8174566524606366
 20
-95.343475480622118
 30
0.1
 42
0.4400105308918339
  0
VERTEX
  5
1CA9
  8
SAPA_PROFIL
 62
     2
 10
6.6000255039111071
 20
-95.542714420240486
 30
0.1
  0
VERTEX
  5
1CAA
  8
SAPA_PROFIL
 62
     2
 10
6.6000255039111071
 20
-96.391719265410956
 30
0.1
  0
VERTEX
  5
1CAB
  8
SAPA_PROFIL
 62
     2
 10
7.0000255039111101
 20
-96.391719265410956
 30
0.1
 42
-0.569380983920789
  0
VERTEX
  5
1CAC
  8
SAPA_PROFIL
 62
     2
 10
7.1755795494746888
 20
-96.687535637113626
 30
0.1
  0
VERTEX
  5
1CAD
  8
SAPA_PROFIL
 62
     2
 10
6.4706139495756227
 20
-97.979168380518914
 30
0.1
 42
-0.274387813087548
  0
VERTEX
  5
1CAE
  8
SAPA_PROFIL
 62
     2
 10
5.9439518128848814
 20
-98.291719265410961
 30
0.1
  0
VERTEX
  5
1CAF
  8
SAPA_PROFIL
 62
     2
 10
4.1560991949373269
 20
-98.291719265410961
 30
0.1
 42
-0.274387813087548
  0
VERTEX
  5
1CB0
  8
SAPA_PROFIL
 62
     2
 10
3.6294370582465869
 20
-97.979168380518914
 30
0.1
  0
VERTEX
  5
1CB1
  8
SAPA_PROFIL
 62
     2
 10
2.9244714583475209
 20
-96.687535637113626
 30
0.1
 42
-0.5693809839207892
  0
VERTEX
  5
1CB2
  8
SAPA_PROFIL
 62
     2
 10
3.1000255039111
 20
-96.391719265410956
 30
0.1
  0
VERTEX
  5
1CB3
  8
SAPA_PROFIL
 62
     2
 10
3.500025503911103
 20
-96.391719265410956
 30
0.1
  0
VERTEX
  5
1CB4
  8
SAPA_PROFIL
 62
     2
 10
3.500025503911103
 20
-95.542714420240486
 30
0.1
  0
SEQEND
  5
1CB5
  8
SAPA_PROFIL
 62
     2
  0
LINE
  5
1290
  8
SAPA_GLAS
 10
-94.499999999999716
 20
-65.350000074839471
 30
0.0
 11
-124.4999999999997
 21
-65.350000074839471
 31
0.0
  0
LINE
  5
1291
  8
SAPA_GLAS
 10
-94.499999999999716
 20
-66.750000074839562
 30
0.0
 11
-124.4999999999997
 21
-66.750000074839562
 31
0.0
  0
LINE
  5
1292
  8
SAPA_GLAS
 10
-104.4999999999997
 20
-70.050000074839517
 30
0.0
 11
-104.4999999999997
 21
-85.050000074839517
 31
0.0
  0
POLYLINE
  5
1293
  8
SAPA_GLAS
 66
     1
 10
0.0
 20
0.0
 30
0.0
  0
VERTEX
  5
1CC0
  8
SAPA_GLAS
 10
-124.4999999999997
 20
-91.050000074839517
 30
0.0
  0
VERTEX
  5
1CC1
  8
SAPA_GLAS
 10
-94.499999999999716
 20
-91.050000074839517
 30
0.0
  0
VERTEX
  5
1CC2
  8
SAPA_GLAS
 10
-94.499999999999716
 20
-62.135631046979967
 30
0.0
  0
VERTEX
  5
1CC3
  8
SAPA_GLAS
 10
-124.4999999999997
 20
-62.135631046979967
 30
0.0
  0
SEQEND
  5
1CC4
  8
SAPA_GLAS
  0
LINE
  5
1294
  8
SAPA_GLAS
 10
-124.4999999999997
 20
-85.050000074839517
 30
0.0
 11
-94.499999999999716
 21
-85.050000074839517
 31
0.0
  0
LINE
  5
1295
  8
SAPA_GLAS
 10
-124.4999999999997
 20
-70.050000074839517
 30
0.0
 11
-94.499999999999716
 21
-70.050000074839517
 31
0.0
  0
LINE
  5
1296
  8
SAPA_GLAS
 10
94.499999999999787
 20
-65.350000074839357
 30
0.0
 11
124.4999999999998
 21
-65.350000074839357
 31
0.0
  0
LINE
  5
1297
  8
SAPA_GLAS
 10
94.499999999999787
 20
-66.750000074839434
 30
0.0
 11
124.4999999999998
 21
-66.750000074839434
 31
0.0
  0
LINE
  5
1298
  8
SAPA_GLAS
 10
104.4999999999998
 20
-70.050000074839403
 30
0.0
 11
104.4999999999998
 21
-85.050000074839403
 31
0.0
  0
POLYLINE
  5
1299
  8
SAPA_GLAS
 66
     1
 10
0.0
 20
0.0
 30
0.0
  0
VERTEX
  5
1CC5
  8
SAPA_GLAS
 10
124.4999999999998
 20
-91.050000074839403
 30
0.0
  0
VERTEX
  5
1CC6
  8
SAPA_GLAS
 10
94.499999999999787
 20
-91.050000074839403
 30
0.0
  0
VERTEX
  5
1CC7
  8
SAPA_GLAS
 10
94.499999999999787
 20
-62.13563104697986
 30
0.0
  0
VERTEX
  5
1CC8
  8
SAPA_GLAS
 10
124.4999999999998
 20
-62.13563104697986
 30
0.0
  0
SEQEND
  5
1CC9
  8
SAPA_GLAS
  0
LINE
  5
129A
  8
SAPA_GLAS
 10
124.4999999999998
 20
-85.050000074839403
 30
0.0
 11
94.499999999999787
 21
-85.050000074839403
 31
0.0
  0
LINE
  5
129B
  8
SAPA_GLAS
 10
124.4999999999998
 20
-70.050000074839403
 30
0.0
 11
94.499999999999787
 21
-70.050000074839403
 31
0.0
  0
POLYLINE
  5
12A6
  8
SAPA_FOGBAND
 62
     2
 10
99.331047449703775
 20
-58.798870999151433
 30
0.0
 66
     1
 70
     8
  0
VERTEX
  8
SAPA_FOGBAND
  5
1D1B
 10
99.3310
 20
-58.7989
 30
0.000000
  70
    32
  0
VERTEX
  8
SAPA_FOGBAND
  5
1D1C
 10
99.3284
 20
-58.8479
 30
0.000000
  70
    32
  0
VERTEX
  8
SAPA_FOGBAND
  5
1D1D
 10
99.3206
 20
-58.8969
 30
0.000000
  70
    32
  0
VERTEX
  8
SAPA_FOGBAND
  5
1D1E
 10
99.3076
 20
-58.9456
 30
0.000000
  70
    32
  0
VERTEX
  8
SAPA_FOGBAND
  5
1D1F
 10
99.2894
 20
-58.9940
 30
0.000000
  70
    32
  0
VERTEX
  8
SAPA_FOGBAND
  5
1D20
 10
99.2661
 20
-59.0419
 30
0.000000
  70
    32
  0
VERTEX
  8
SAPA_FOGBAND
  5
1D21
 10
99.2377
 20
-59.0892
 30
0.000000
  70
    32
  0
VERTEX
  8
SAPA_FOGBAND
  5
1D22
 10
99.2043
 20
-59.1358
 30
0.000000
  70
    32
  0
VERTEX
  8
SAPA_FOGBAND
  5
1D23
 10
99.1660
 20
-59.1816
 30
0.000000
  70
    32
  0
VERTEX
  8
SAPA_FOGBAND
  5
1D24
 10
99.1229
 20
-59.2264
 30
0.000000
  70
    32
  0
VERTEX
  8
SAPA_FOGBAND
  5
1D25
 10
99.0751
 20
-59.2703
 30
0.000000
  70
    32
  0
VERTEX
  8
SAPA_FOGBAND
  5
1D26
 10
99.0226
 20
-59.3130
 30
0.000000
  70
    32
  0
VERTEX
  8
SAPA_FOGBAND
  5
1D27
 10
98.9657
 20
-59.3544
 30
0.000000
  70
    32
  0
VERTEX
  8
SAPA_FOGBAND
  5
1D28
 10
98.9044
 20
-59.3946
 30
0.000000
  70
    32
  0
VERTEX
  8
SAPA_FOGBAND
  5
1D29
 10
98.8390
 20
-59.4333
 30
0.000000
  70
    32
  0
VERTEX
  8
SAPA_FOGBAND
  5
1D2A
 10
98.7695
 20
-59.4704
 30
0.000000
  70
    32
  0
VERTEX
  8
SAPA_FOGBAND
  5
1D2B
 10
98.6961
 20
-59.5060
 30
0.000000
  70
    32
  0
VERTEX
  8
SAPA_FOGBAND
  5
1D2C
 10
98.6191
 20
-59.5398
 30
0.000000
  70
    32
  0
VERTEX
  8
SAPA_FOGBAND
  5
1D2D
 10
98.5385
 20
-59.5719
 30
0.000000
  70
    32
  0
VERTEX
  8
SAPA_FOGBAND
  5
1D2E
 10
98.4546
 20
-59.6021
 30
0.000000
  70
    32
  0
VERTEX
  8
SAPA_FOGBAND
  5
1D2F
 10
98.3676
 20
-59.6303
 30
0.000000
  70
    32
  0
VERTEX
  8
SAPA_FOGBAND
  5
1D30
 10
98.2777
 20
-59.6566
 30
0.000000
  70
    32
  0
VERTEX
  8
SAPA_FOGBAND
  5
1D31
 10
98.1851
 20
-59.6808
 30
0.000000
  70
    32
  0
VERTEX
  8
SAPA_FOGBAND
  5
1D32
 10
98.0901
 20
-59.7029
 30
0.000000
  70
    32
  0
VERTEX
  8
SAPA_FOGBAND
  5
1D33
 10
97.9928
 20
-59.7228
 30
0.000000
  70
    32
  0
VERTEX
  8
SAPA_FOGBAND
  5
1D34
 10
97.8936
 20
-59.7404
 30
0.000000
  70
    32
  0
VERTEX
  8
SAPA_FOGBAND
  5
1D35
 10
97.7925
 20
-59.7558
 30
0.000000
  70
    32
  0
VERTEX
  8
SAPA_FOGBAND
  5
1D36
 10
97.6900
 20
-59.7689
 30
0.000000
  70
    32
  0
VERTEX
  8
SAPA_FOGBAND
  5
1D37
 10
97.5862
 20
-59.7797
 30
0.000000
  70
    32
  0
VERTEX
  8
SAPA_FOGBAND
  5
1D38
 10
97.4813
 20
-59.7880
 30
0.000000
  70
    32
  0
VERTEX
  8
SAPA_FOGBAND
  5
1D39
 10
97.3757
 20
-59.7941
 30
0.000000
  70
    32
  0
VERTEX
  8
SAPA_FOGBAND
  5
1D3A
 10
97.2696
 20
-59.7977
 30
0.000000
  70
    32
  0
VERTEX
  8
SAPA_FOGBAND
  5
1D3B
 10
97.1633
 20
-59.7989
 30
0.000000
  70
    32
  0
VERTEX
  8
SAPA_FOGBAND
  5
1D3C
 10
97.0569
 20
-59.7977
 30
0.000000
  70
    32
  0
VERTEX
  8
SAPA_FOGBAND
  5
1D3D
 10
96.9508
 20
-59.7941
 30
0.000000
  70
    32
  0
VERTEX
  8
SAPA_FOGBAND
  5
1D3E
 10
96.8452
 20
-59.7880
 30
0.000000
  70
    32
  0
VERTEX
  8
SAPA_FOGBAND
  5
1D3F
 10
96.7403
 20
-59.7797
 30
0.000000
  70
    32
  0
VERTEX
  8
SAPA_FOGBAND
  5
1D40
 10
96.6365
 20
-59.7689
 30
0.000000
  70
    32
  0
VERTEX
  8
SAPA_FOGBAND
  5
1D41
 10
96.5340
 20
-59.7558
 30
0.000000
  70
    32
  0
VERTEX
  8
SAPA_FOGBAND
  5
1D42
 10
96.4330
 20
-59.7404
 30
0.000000
  70
    32
  0
VERTEX
  8
SAPA_FOGBAND
  5
1D43
 10
96.3337
 20
-59.7228
 30
0.000000
  70
    32
  0
VERTEX
  8
SAPA_FOGBAND
  5
1D44
 10
96.2364
 20
-59.7029
 30
0.000000
  70
    32
  0
VERTEX
  8
SAPA_FOGBAND
  5
1D45
 10
96.1414
 20
-59.6808
 30
0.000000
  70
    32
  0
VERTEX
  8
SAPA_FOGBAND
  5
1D46
 10
96.0488
 20
-59.6566
 30
0.000000
  70
    32
  0
VERTEX
  8
SAPA_FOGBAND
  5
1D47
 10
95.9589
 20
-59.6303
 30
0.000000
  70
    32
  0
VERTEX
  8
SAPA_FOGBAND
  5
1D48
 10
95.8719
 20
-59.6021
 30
0.000000
  70
    32
  0
VERTEX
  8
SAPA_FOGBAND
  5
1D49
 10
95.7880
 20
-59.5719
 30
0.000000
  70
    32
  0
VERTEX
  8
SAPA_FOGBAND
  5
1D4A
 10
95.7075
 20
-59.5398
 30
0.000000
  70
    32
  0
VERTEX
  8
SAPA_FOGBAND
  5
1D4B
 10
95.6304
 20
-59.5060
 30
0.000000
  70
    32
  0
VERTEX
  8
SAPA_FOGBAND
  5
1D4C
 10
95.5570
 20
-59.4704
 30
0.000000
  70
    32
  0
VERTEX
  8
SAPA_FOGBAND
  5
1D4D
 10
95.4875
 20
-59.4333
 30
0.000000
  70
    32
  0
VERTEX
  8
SAPA_FOGBAND
  5
1D4E
 10
95.4221
 20
-59.3946
 30
0.000000
  70
    32
  0
VERTEX
  8
SAPA_FOGBAND
  5
1D4F
 10
95.3608
 20
-59.3544
 30
0.000000
  70
    32
  0
VERTEX
  8
SAPA_FOGBAND
  5
1D50
 10
95.3039
 20
-59.3130
 30
0.000000
  70
    32
  0
VERTEX
  8
SAPA_FOGBAND
  5
1D51
 10
95.2514
 20
-59.2703
 30
0.000000
  70
    32
  0
VERTEX
  8
SAPA_FOGBAND
  5
1D52
 10
95.2036
 20
-59.2264
 30
0.000000
  70
    32
  0
VERTEX
  8
SAPA_FOGBAND
  5
1D53
 10
95.1605
 20
-59.1816
 30
0.000000
  70
    32
  0
VERTEX
  8
SAPA_FOGBAND
  5
1D54
 10
95.1222
 20
-59.1358
 30
0.000000
  70
    32
  0
VERTEX
  8
SAPA_FOGBAND
  5
1D55
 10
95.0888
 20
-59.0892
 30
0.000000
  70
    32
  0
VERTEX
  8
SAPA_FOGBAND
  5
1D56
 10
95.0604
 20
-59.0419
 30
0.000000
  70
    32
  0
VERTEX
  8
SAPA_FOGBAND
  5
1D57
 10
95.0371
 20
-58.9940
 30
0.000000
  70
    32
  0
VERTEX
  8
SAPA_FOGBAND
  5
1D58
 10
95.0189
 20
-58.9456
 30
0.000000
  70
    32
  0
VERTEX
  8
SAPA_FOGBAND
  5
1D59
 10
95.0059
 20
-58.8969
 30
0.000000
  70
    32
  0
VERTEX
  8
SAPA_FOGBAND
  5
1D5A
 10
94.9981
 20
-58.8479
 30
0.000000
  70
    32
  0
VERTEX
  8
SAPA_FOGBAND
  5
1D5B
 10
94.9955
 20
-58.7989
 30
0.000000
  70
    32
  0
VERTEX
  8
SAPA_FOGBAND
  5
1D5C
 10
94.9981
 20
-58.7498
 30
0.000000
  70
    32
  0
VERTEX
  8
SAPA_FOGBAND
  5
1D5D
 10
95.0059
 20
-58.7009
 30
0.000000
  70
    32
  0
VERTEX
  8
SAPA_FOGBAND
  5
1D5E
 10
95.0189
 20
-58.6521
 30
0.000000
  70
    32
  0
VERTEX
  8
SAPA_FOGBAND
  5
1D5F
 10
95.0371
 20
-58.6038
 30
0.000000
  70
    32
  0
VERTEX
  8
SAPA_FOGBAND
  5
1D60
 10
95.0604
 20
-58.5559
 30
0.000000
  70
    32
  0
VERTEX
  8
SAPA_FOGBAND
  5
1D61
 10
95.0888
 20
-58.5086
 30
0.000000
  70
    32
  0
VERTEX
  8
SAPA_FOGBAND
  5
1D62
 10
95.1222
 20
-58.4620
 30
0.000000
  70
    32
  0
VERTEX
  8
SAPA_FOGBAND
  5
1D63
 10
95.1605
 20
-58.4162
 30
0.000000
  70
    32
  0
VERTEX
  8
SAPA_FOGBAND
  5
1D64
 10
95.2036
 20
-58.3713
 30
0.000000
  70
    32
  0
VERTEX
  8
SAPA_FOGBAND
  5
1D65
 10
95.2514
 20
-58.3275
 30
0.000000
  70
    32
  0
VERTEX
  8
SAPA_FOGBAND
  5
1D66
 10
95.3039
 20
-58.2848
 30
0.000000
  70
    32
  0
VERTEX
  8
SAPA_FOGBAND
  5
1D67
 10
95.3608
 20
-58.2433
 30
0.000000
  70
    32
  0
VERTEX
  8
SAPA_FOGBAND
  5
1D68
 10
95.4221
 20
-58.2032
 30
0.000000
  70
    32
  0
VERTEX
  8
SAPA_FOGBAND
  5
1D69
 10
95.4875
 20
-58.1645
 30
0.000000
  70
    32
  0
VERTEX
  8
SAPA_FOGBAND
  5
1D6A
 10
95.5570
 20
-58.1273
 30
0.000000
  70
    32
  0
VERTEX
  8
SAPA_FOGBAND
  5
1D6B
 10
95.6304
 20
-58.0918
 30
0.000000
  70
    32
  0
VERTEX
  8
SAPA_FOGBAND
  5
1D6C
 10
95.7075
 20
-58.0579
 30
0.000000
  70
    32
  0
VERTEX
  8
SAPA_FOGBAND
  5
1D6D
 10
95.7880
 20
-58.0259
 30
0.000000
  70
    32
  0
VERTEX
  8
SAPA_FOGBAND
  5
1D6E
 10
95.8719
 20
-57.9957
 30
0.000000
  70
    32
  0
VERTEX
  8
SAPA_FOGBAND
  5
1D6F
 10
95.9589
 20
-57.9674
 30
0.000000
  70
    32
  0
VERTEX
  8
SAPA_FOGBAND
  5
1D70
 10
96.0488
 20
-57.9411
 30
0.000000
  70
    32
  0
VERTEX
  8
SAPA_FOGBAND
  5
1D71
 10
96.1414
 20
-57.9169
 30
0.000000
  70
    32
  0
VERTEX
  8
SAPA_FOGBAND
  5
1D72
 10
96.2364
 20
-57.8949
 30
0.000000
  70
    32
  0
VERTEX
  8
SAPA_FOGBAND
  5
1D73
 10
96.3337
 20
-57.8750
 30
0.000000
  70
    32
  0
VERTEX
  8
SAPA_FOGBAND
  5
1D74
 10
96.4330
 20
-57.8573
 30
0.000000
  70
    32
  0
VERTEX
  8
SAPA_FOGBAND
  5
1D75
 10
96.5340
 20
-57.8419
 30
0.000000
  70
    32
  0
VERTEX
  8
SAPA_FOGBAND
  5
1D76
 10
96.6365
 20
-57.8288
 30
0.000000
  70
    32
  0
VERTEX
  8
SAPA_FOGBAND
  5
1D77
 10
96.7403
 20
-57.8181
 30
0.000000
  70
    32
  0
VERTEX
  8
SAPA_FOGBAND
  5
1D78
 10
96.8452
 20
-57.8097
 30
0.000000
  70
    32
  0
VERTEX
  8
SAPA_FOGBAND
  5
1D79
 10
96.9508
 20
-57.8037
 30
0.000000
  70
    32
  0
VERTEX
  8
SAPA_FOGBAND
  5
1D7A
 10
97.0569
 20
-57.8001
 30
0.000000
  70
    32
  0
VERTEX
  8
SAPA_FOGBAND
  5
1D7B
 10
97.1633
 20
-57.7989
 30
0.000000
  70
    32
  0
VERTEX
  8
SAPA_FOGBAND
  5
1D7C
 10
97.2696
 20
-57.8001
 30
0.000000
  70
    32
  0
VERTEX
  8
SAPA_FOGBAND
  5
1D7D
 10
97.3757
 20
-57.8037
 30
0.000000
  70
    32
  0
VERTEX
  8
SAPA_FOGBAND
  5
1D7E
 10
97.4813
 20
-57.8097
 30
0.000000
  70
    32
  0
VERTEX
  8
SAPA_FOGBAND
  5
1D7F
 10
97.5862
 20
-57.8181
 30
0.000000
  70
    32
  0
VERTEX
  8
SAPA_FOGBAND
  5
1D80
 10
97.6900
 20
-57.8288
 30
0.000000
  70
    32
  0
VERTEX
  8
SAPA_FOGBAND
  5
1D81
 10
97.7925
 20
-57.8419
 30
0.000000
  70
    32
  0
VERTEX
  8
SAPA_FOGBAND
  5
1D82
 10
97.8936
 20
-57.8573
 30
0.000000
  70
    32
  0
VERTEX
  8
SAPA_FOGBAND
  5
1D83
 10
97.9928
 20
-57.8750
 30
0.000000
  70
    32
  0
VERTEX
  8
SAPA_FOGBAND
  5
1D84
 10
98.0901
 20
-57.8949
 30
0.000000
  70
    32
  0
VERTEX
  8
SAPA_FOGBAND
  5
1D85
 10
98.1851
 20
-57.9169
 30
0.000000
  70
    32
  0
VERTEX
  8
SAPA_FOGBAND
  5
1D86
 10
98.2777
 20
-57.9411
 30
0.000000
  70
    32
  0
VERTEX
  8
SAPA_FOGBAND
  5
1D87
 10
98.3676
 20
-57.9674
 30
0.000000
  70
    32
  0
VERTEX
  8
SAPA_FOGBAND
  5
1D88
 10
98.4546
 20
-57.9957
 30
0.000000
  70
    32
  0
VERTEX
  8
SAPA_FOGBAND
  5
1D89
 10
98.5385
 20
-58.0259
 30
0.000000
  70
    32
  0
VERTEX
  8
SAPA_FOGBAND
  5
1D8A
 10
98.6191
 20
-58.0579
 30
0.000000
  70
    32
  0
VERTEX
  8
SAPA_FOGBAND
  5
1D8B
 10
98.6961
 20
-58.0918
 30
0.000000
  70
    32
  0
VERTEX
  8
SAPA_FOGBAND
  5
1D8C
 10
98.7695
 20
-58.1273
 30
0.000000
  70
    32
  0
VERTEX
  8
SAPA_FOGBAND
  5
1D8D
 10
98.8390
 20
-58.1645
 30
0.000000
  70
    32
  0
VERTEX
  8
SAPA_FOGBAND
  5
1D8E
 10
98.9044
 20
-58.2032
 30
0.000000
  70
    32
  0
VERTEX
  8
SAPA_FOGBAND
  5
1D8F
 10
98.9657
 20
-58.2433
 30
0.000000
  70
    32
  0
VERTEX
  8
SAPA_FOGBAND
  5
1D90
 10
99.0226
 20
-58.2848
 30
0.000000
  70
    32
  0
VERTEX
  8
SAPA_FOGBAND
  5
1D91
 10
99.0751
 20
-58.3275
 30
0.000000
  70
    32
  0
VERTEX
  8
SAPA_FOGBAND
  5
1D92
 10
99.1229
 20
-58.3713
 30
0.000000
  70
    32
  0
VERTEX
  8
SAPA_FOGBAND
  5
1D93
 10
99.1660
 20
-58.4162
 30
0.000000
  70
    32
  0
VERTEX
  8
SAPA_FOGBAND
  5
1D94
 10
99.2043
 20
-58.4620
 30
0.000000
  70
    32
  0
VERTEX
  8
SAPA_FOGBAND
  5
1D95
 10
99.2377
 20
-58.5086
 30
0.000000
  70
    32
  0
VERTEX
  8
SAPA_FOGBAND
  5
1D96
 10
99.2661
 20
-58.5559
 30
0.000000
  70
    32
  0
VERTEX
  8
SAPA_FOGBAND
  5
1D97
 10
99.2894
 20
-58.6038
 30
0.000000
  70
    32
  0
VERTEX
  8
SAPA_FOGBAND
  5
1D98
 10
99.3076
 20
-58.6521
 30
0.000000
  70
    32
  0
VERTEX
  8
SAPA_FOGBAND
  5
1D99
 10
99.3206
 20
-58.7009
 30
0.000000
  70
    32
  0
VERTEX
  8
SAPA_FOGBAND
  5
1D9A
 10
99.3284
 20
-58.7498
 30
0.000000
  70
    32
  0
VERTEX
  8
SAPA_FOGBAND
  5
1D9B
 10
99.3310
 20
-58.7989
 30
0.000000
  70
    32
  0
SEQEND
  8
SAPA_FOGBAND
  5
1D9C
  0
POLYLINE
  5
12A7
  8
SAPA_FOGBAND
 62
     2
 10
108.84845030875483
 20
-57.340866502487927
 30
0.0
 66
     1
 70
     8
  0
VERTEX
  8
SAPA_FOGBAND
  5
1D9D
 10
108.848
 20
-57.3409
 30
0.000000
  70
    32
  0
VERTEX
  8
SAPA_FOGBAND
  5
1D9E
 10
108.845
 20
-57.4145
 30
0.000000
  70
    32
  0
VERTEX
  8
SAPA_FOGBAND
  5
1D9F
 10
108.834
 20
-57.4879
 30
0.000000
  70
    32
  0
VERTEX
  8
SAPA_FOGBAND
  5
1DA0
 10
108.815
 20
-57.5610
 30
0.000000
  70
    32
  0
VERTEX
  8
SAPA_FOGBAND
  5
1DA1
 10
108.789
 20
-57.6335
 30
0.000000
  70
    32
  0
VERTEX
  8
SAPA_FOGBAND
  5
1DA2
 10
108.756
 20
-57.7053
 30
0.000000
  70
    32
  0
VERTEX
  8
SAPA_FOGBAND
  5
1DA3
 10
108.716
 20
-57.7763
 30
0.000000
  70
    32
  0
VERTEX
  8
SAPA_FOGBAND
  5
1DA4
 10
108.668
 20
-57.8462
 30
0.000000
  70
    32
  0
VERTEX
  8
SAPA_FOGBAND
  5
1DA5
 10
108.614
 20
-57.9149
 30
0.000000
  70
    32
  0
VERTEX
  8
SAPA_FOGBAND
  5
1DA6
 10
108.552
 20
-57.9822
 30
0.000000
  70
    32
  0
VERTEX
  8
SAPA_FOGBAND
  5
1DA7
 10
108.484
 20
-58.0480
 30
0.000000
  70
    32
  0
VERTEX
  8
SAPA_FOGBAND
  5
1DA8
 10
108.410
 20
-58.1120
 30
0.000000
  70
    32
  0
VERTEX
  8
SAPA_FOGBAND
  5
1DA9
 10
108.328
 20
-58.1742
 30
0.000000
  70
    32
  0
VERTEX
  8
SAPA_FOGBAND
  5
1DAA
 10
108.241
 20
-58.2344
 30
0.000000
  70
    32
  0
VERTEX
  8
SAPA_FOGBAND
  5
1DAB
 10
108.148
 20
-58.2925
 30
0.000000
  70
    32
  0
VERTEX
  8
SAPA_FOGBAND
  5
1DAC
 10
108.049
 20
-58.3482
 30
0.000000
  70
    32
  0
VERTEX
  8
SAPA_FOGBAND
  5
1DAD
 10
107.945
 20
-58.4015
 30
0.000000
  70
    32
  0
VERTEX
  8
SAPA_FOGBAND
  5
1DAE
 10
107.835
 20
-58.4523
 30
0.000000
  70
    32
  0
VERTEX
  8
SAPA_FOGBAND
  5
1DAF
 10
107.720
 20
-58.5004
 30
0.000000
  70
    32
  0
VERTEX
  8
SAPA_FOGBAND
  5
1DB0
 10
107.601
 20
-58.5457
 30
0.000000
  70
    32
  0
VERTEX
  8
SAPA_FOGBAND
  5
1DB1
 10
107.477
 20
-58.5881
 30
0.000000
  70
    32
  0
VERTEX
  8
SAPA_FOGBAND
  5
1DB2
 10
107.349
 20
-58.6275
 30
0.000000
  70
    32
  0
VERTEX
  8
SAPA_FOGBAND
  5
1DB3
 10
107.218
 20
-58.6637
 30
0.000000
  70
    32
  0
VERTEX
  8
SAPA_FOGBAND
  5
1DB4
 10
107.082
 20
-58.6969
 30
0.000000
  70
    32
  0
VERTEX
  8
SAPA_FOGBAND
  5
1DB5
 10
106.944
 20
-58.7267
 30
0.000000
  70
    32
  0
VERTEX
  8
SAPA_FOGBAND
  5
1DB6
 10
106.803
 20
-58.7532
 30
0.000000
  70
    32
  0
VERTEX
  8
SAPA_FOGBAND
  5
1DB7
 10
106.659
 20
-58.7763
 30
0.000000
  70
    32
  0
VERTEX
  8
SAPA_FOGBAND
  5
1DB8
 10
106.513
 20
-58.7959
 30
0.000000
  70
    32
  0
VERTEX
  8
SAPA_FOGBAND
  5
1DB9
 10
106.365
 20
-58.8120
 30
0.000000
  70
    32
  0
VERTEX
  8
SAPA_FOGBAND
  5
1DBA
 10
106.216
 20
-58.8246
 30
0.000000
  70
    32
  0
VERTEX
  8
SAPA_FOGBAND
  5
1DBB
 10
106.066
 20
-58.8336
 30
0.000000
  70
    32
  0
VERTEX
  8
SAPA_FOGBAND
  5
1DBC
 10
105.915
 20
-58.8391
 30
0.000000
  70
    32
  0
VERTEX
  8
SAPA_FOGBAND
  5
1DBD
 10
105.763
 20
-58.8409
 30
0.000000
  70
    32
  0
VERTEX
  8
SAPA_FOGBAND
  5
1DBE
 10
105.612
 20
-58.8391
 30
0.000000
  70
    32
  0
VERTEX
  8
SAPA_FOGBAND
  5
1DBF
 10
105.461
 20
-58.8336
 30
0.000000
  70
    32
  0
VERTEX
  8
SAPA_FOGBAND
  5
1DC0
 10
105.311
 20
-58.8246
 30
0.000000
  70
    32
  0
VERTEX
  8
SAPA_FOGBAND
  5
1DC1
 10
105.161
 20
-58.8120
 30
0.000000
  70
    32
  0
VERTEX
  8
SAPA_FOGBAND
  5
1DC2
 10
105.014
 20
-58.7959
 30
0.000000
  70
    32
  0
VERTEX
  8
SAPA_FOGBAND
  5
1DC3
 10
104.868
 20
-58.7763
 30
0.000000
  70
    32
  0
VERTEX
  8
SAPA_FOGBAND
  5
1DC4
 10
104.724
 20
-58.7532
 30
0.000000
  70
    32
  0
VERTEX
  8
SAPA_FOGBAND
  5
1DC5
 10
104.583
 20
-58.7267
 30
0.000000
  70
    32
  0
VERTEX
  8
SAPA_FOGBAND
  5
1DC6
 10
104.444
 20
-58.6969
 30
0.000000
  70
    32
  0
VERTEX
  8
SAPA_FOGBAND
  5
1DC7
 10
104.309
 20
-58.6637
 30
0.000000
  70
    32
  0
VERTEX
  8
SAPA_FOGBAND
  5
1DC8
 10
104.177
 20
-58.6275
 30
0.000000
  70
    32
  0
VERTEX
  8
SAPA_FOGBAND
  5
1DC9
 10
104.049
 20
-58.5881
 30
0.000000
  70
    32
  0
VERTEX
  8
SAPA_FOGBAND
  5
1DCA
 10
103.925
 20
-58.5457
 30
0.000000
  70
    32
  0
VERTEX
  8
SAPA_FOGBAND
  5
1DCB
 10
103.806
 20
-58.5004
 30
0.000000
  70
    32
  0
VERTEX
  8
SAPA_FOGBAND
  5
1DCC
 10
103.691
 20
-58.4523
 30
0.000000
  70
    32
  0
VERTEX
  8
SAPA_FOGBAND
  5
1DCD
 10
103.582
 20
-58.4015
 30
0.000000
  70
    32
  0
VERTEX
  8
SAPA_FOGBAND
  5
1DCE
 10
103.477
 20
-58.3482
 30
0.000000
  70
    32
  0
VERTEX
  8
SAPA_FOGBAND
  5
1DCF
 10
103.378
 20
-58.2925
 30
0.000000
  70
    32
  0
VERTEX
  8
SAPA_FOGBAND
  5
1DD0
 10
103.285
 20
-58.2344
 30
0.000000
  70
    32
  0
VERTEX
  8
SAPA_FOGBAND
  5
1DD1
 10
103.198
 20
-58.1742
 30
0.000000
  70
    32
  0
VERTEX
  8
SAPA_FOGBAND
  5
1DD2
 10
103.117
 20
-58.1120
 30
0.000000
  70
    32
  0
VERTEX
  8
SAPA_FOGBAND
  5
1DD3
 10
103.042
 20
-58.0480
 30
0.000000
  70
    32
  0
VERTEX
  8
SAPA_FOGBAND
  5
1DD4
 10
102.974
 20
-57.9822
 30
0.000000
  70
    32
  0
VERTEX
  8
SAPA_FOGBAND
  5
1DD5
 10
102.913
 20
-57.9149
 30
0.000000
  70
    32
  0
VERTEX
  8
SAPA_FOGBAND
  5
1DD6
 10
102.858
 20
-57.8462
 30
0.000000
  70
    32
  0
VERTEX
  8
SAPA_FOGBAND
  5
1DD7
 10
102.811
 20
-57.7763
 30
0.000000
  70
    32
  0
VERTEX
  8
SAPA_FOGBAND
  5
1DD8
 10
102.770
 20
-57.7053
 30
0.000000
  70
    32
  0
VERTEX
  8
SAPA_FOGBAND
  5
1DD9
 10
102.737
 20
-57.6335
 30
0.000000
  70
    32
  0
VERTEX
  8
SAPA_FOGBAND
  5
1DDA
 10
102.711
 20
-57.5610
 30
0.000000
  70
    32
  0
VERTEX
  8
SAPA_FOGBAND
  5
1DDB
 10
102.693
 20
-57.4879
 30
0.000000
  70
    32
  0
VERTEX
  8
SAPA_FOGBAND
  5
1DDC
 10
102.682
 20
-57.4145
 30
0.000000
  70
    32
  0
VERTEX
  8
SAPA_FOGBAND
  5
1DDD
 10
102.678
 20
-57.3409
 30
0.000000
  70
    32
  0
VERTEX
  8
SAPA_FOGBAND
  5
1DDE
 10
102.682
 20
-57.2673
 30
0.000000
  70
    32
  0
VERTEX
  8
SAPA_FOGBAND
  5
1DDF
 10
102.693
 20
-57.1938
 30
0.000000
  70
    32
  0
VERTEX
  8
SAPA_FOGBAND
  5
1DE0
 10
102.711
 20
-57.1208
 30
0.000000
  70
    32
  0
VERTEX
  8
SAPA_FOGBAND
  5
1DE1
 10
102.737
 20
-57.0482
 30
0.000000
  70
    32
  0
VERTEX
  8
SAPA_FOGBAND
  5
1DE2
 10
102.770
 20
-56.9764
 30
0.000000
  70
    32
  0
VERTEX
  8
SAPA_FOGBAND
  5
1DE3
 10
102.811
 20
-56.9054
 30
0.000000
  70
    32
  0
VERTEX
  8
SAPA_FOGBAND
  5
1DE4
 10
102.858
 20
-56.8355
 30
0.000000
  70
    32
  0
VERTEX
  8
SAPA_FOGBAND
  5
1DE5
 10
102.913
 20
-56.7668
 30
0.000000
  70
    32
  0
VERTEX
  8
SAPA_FOGBAND
  5
1DE6
 10
102.974
 20
-56.6995
 30
0.000000
  70
    32
  0
VERTEX
  8
SAPA_FOGBAND
  5
1DE7
 10
103.042
 20
-56.6338
 30
0.000000
  70
    32
  0
VERTEX
  8
SAPA_FOGBAND
  5
1DE8
 10
103.117
 20
-56.5697
 30
0.000000
  70
    32
  0
VERTEX
  8
SAPA_FOGBAND
  5
1DE9
 10
103.198
 20
-56.5075
 30
0.000000
  70
    32
  0
VERTEX
  8
SAPA_FOGBAND
  5
1DEA
 10
103.285
 20
-56.4473
 30
0.000000
  70
    32
  0
VERTEX
  8
SAPA_FOGBAND
  5
1DEB
 10
103.378
 20
-56.3893
 30
0.000000
  70
    32
  0
VERTEX
  8
SAPA_FOGBAND
  5
1DEC
 10
103.477
 20
-56.3335
 30
0.000000
  70
    32
  0
VERTEX
  8
SAPA_FOGBAND
  5
1DED
 10
103.582
 20
-56.2802
 30
0.000000
  70
    32
  0
VERTEX
  8
SAPA_FOGBAND
  5
1DEE
 10
103.691
 20
-56.2294
 30
0.000000
  70
    32
  0
VERTEX
  8
SAPA_FOGBAND
  5
1DEF
 10
103.806
 20
-56.1814
 30
0.000000
  70
    32
  0
VERTEX
  8
SAPA_FOGBAND
  5
1DF0
 10
103.925
 20
-56.1361
 30
0.000000
  70
    32
  0
VERTEX
  8
SAPA_FOGBAND
  5
1DF1
 10
104.049
 20
-56.0937
 30
0.000000
  70
    32
  0
VERTEX
  8
SAPA_FOGBAND
  5
1DF2
 10
104.177
 20
-56.0543
 30
0.000000
  70
    32
  0
VERTEX
  8
SAPA_FOGBAND
  5
1DF3
 10
104.309
 20
-56.0180
 30
0.000000
  70
    32
  0
VERTEX
  8
SAPA_FOGBAND
  5
1DF4
 10
104.444
 20
-55.9849
 30
0.000000
  70
    32
  0
VERTEX
  8
SAPA_FOGBAND
  5
1DF5
 10
104.583
 20
-55.9550
 30
0.000000
  70
    32
  0
VERTEX
  8
SAPA_FOGBAND
  5
1DF6
 10
104.724
 20
-55.9286
 30
0.000000
  70
    32
  0
VERTEX
  8
SAPA_FOGBAND
  5
1DF7
 10
104.868
 20
-55.9055
 30
0.000000
  70
    32
  0
VERTEX
  8
SAPA_FOGBAND
  5
1DF8
 10
105.014
 20
-55.8858
 30
0.000000
  70
    32
  0
VERTEX
  8
SAPA_FOGBAND
  5
1DF9
 10
105.161
 20
-55.8697
 30
0.000000
  70
    32
  0
VERTEX
  8
SAPA_FOGBAND
  5
1DFA
 10
105.311
 20
-55.8571
 30
0.000000
  70
    32
  0
VERTEX
  8
SAPA_FOGBAND
  5
1DFB
 10
105.461
 20
-55.8481
 30
0.000000
  70
    32
  0
VERTEX
  8
SAPA_FOGBAND
  5
1DFC
 10
105.612
 20
-55.8427
 30
0.000000
  70
    32
  0
VERTEX
  8
SAPA_FOGBAND
  5
1DFD
 10
105.763
 20
-55.8409
 30
0.000000
  70
    32
  0
VERTEX
  8
SAPA_FOGBAND
  5
1DFE
 10
105.915
 20
-55.8427
 30
0.000000
  70
    32
  0
VERTEX
  8
SAPA_FOGBAND
  5
1DFF
 10
106.066
 20
-55.8481
 30
0.000000
  70
    32
  0
VERTEX
  8
SAPA_FOGBAND
  5
1E00
 10
106.216
 20
-55.8571
 30
0.000000
  70
    32
  0
VERTEX
  8
SAPA_FOGBAND
  5
1E01
 10
106.365
 20
-55.8697
 30
0.000000
  70
    32
  0
VERTEX
  8
SAPA_FOGBAND
  5
1E02
 10
106.513
 20
-55.8858
 30
0.000000
  70
    32
  0
VERTEX
  8
SAPA_FOGBAND
  5
1E03
 10
106.659
 20
-55.9055
 30
0.000000
  70
    32
  0
VERTEX
  8
SAPA_FOGBAND
  5
1E04
 10
106.803
 20
-55.9286
 30
0.000000
  70
    32
  0
VERTEX
  8
SAPA_FOGBAND
  5
1E05
 10
106.944
 20
-55.9550
 30
0.000000
  70
    32
  0
VERTEX
  8
SAPA_FOGBAND
  5
1E06
 10
107.082
 20
-55.9849
 30
0.000000
  70
    32
  0
VERTEX
  8
SAPA_FOGBAND
  5
1E07
 10
107.218
 20
-56.0180
 30
0.000000
  70
    32
  0
VERTEX
  8
SAPA_FOGBAND
  5
1E08
 10
107.349
 20
-56.0543
 30
0.000000
  70
    32
  0
VERTEX
  8
SAPA_FOGBAND
  5
1E09
 10
107.477
 20
-56.0937
 30
0.000000
  70
    32
  0
VERTEX
  8
SAPA_FOGBAND
  5
1E0A
 10
107.601
 20
-56.1361
 30
0.000000
  70
    32
  0
VERTEX
  8
SAPA_FOGBAND
  5
1E0B
 10
107.720
 20
-56.1814
 30
0.000000
  70
    32
  0
VERTEX
  8
SAPA_FOGBAND
  5
1E0C
 10
107.835
 20
-56.2294
 30
0.000000
  70
    32
  0
VERTEX
  8
SAPA_FOGBAND
  5
1E0D
 10
107.945
 20
-56.2802
 30
0.000000
  70
    32
  0
VERTEX
  8
SAPA_FOGBAND
  5
1E0E
 10
108.049
 20
-56.3335
 30
0.000000
  70
    32
  0
VERTEX
  8
SAPA_FOGBAND
  5
1E0F
 10
108.148
 20
-56.3893
 30
0.000000
  70
    32
  0
VERTEX
  8
SAPA_FOGBAND
  5
1E10
 10
108.241
 20
-56.4473
 30
0.000000
  70
    32
  0
VERTEX
  8
SAPA_FOGBAND
  5
1E11
 10
108.328
 20
-56.5075
 30
0.000000
  70
    32
  0
VERTEX
  8
SAPA_FOGBAND
  5
1E12
 10
108.410
 20
-56.5697
 30
0.000000
  70
    32
  0
VERTEX
  8
SAPA_FOGBAND
  5
1E13
 10
108.484
 20
-56.6338
 30
0.000000
  70
    32
  0
VERTEX
  8
SAPA_FOGBAND
  5
1E14
 10
108.552
 20
-56.6995
 30
0.000000
  70
    32
  0
VERTEX
  8
SAPA_FOGBAND
  5
1E15
 10
108.614
 20
-56.7668
 30
0.000000
  70
    32
  0
VERTEX
  8
SAPA_FOGBAND
  5
1E16
 10
108.668
 20
-56.8355
 30
0.000000
  70
    32
  0
VERTEX
  8
SAPA_FOGBAND
  5
1E17
 10
108.716
 20
-56.9054
 30
0.000000
  70
    32
  0
VERTEX
  8
SAPA_FOGBAND
  5
1E18
 10
108.756
 20
-56.9764
 30
0.000000
  70
    32
  0
VERTEX
  8
SAPA_FOGBAND
  5
1E19
 10
108.789
 20
-57.0482
 30
0.000000
  70
    32
  0
VERTEX
  8
SAPA_FOGBAND
  5
1E1A
 10
108.815
 20
-57.1208
 30
0.000000
  70
    32
  0
VERTEX
  8
SAPA_FOGBAND
  5
1E1B
 10
108.834
 20
-57.1938
 30
0.000000
  70
    32
  0
VERTEX
  8
SAPA_FOGBAND
  5
1E1C
 10
108.845
 20
-57.2673
 30
0.000000
  70
    32
  0
VERTEX
  8
SAPA_FOGBAND
  5
1E1D
 10
108.848
 20
-57.3409
 30
0.000000
  70
    32
  0
SEQEND
  8
SAPA_FOGBAND
  5
1E1E
  0
POLYLINE
  5
12A8
  8
SAPA_FOGBAND
 62
     2
 66
     1
 10
0.0
 20
0.0
 30
0.0
 70
     1
  0
VERTEX
  5
1CEA
  8
SAPA_FOGBAND
 62
     2
 10
98.319535350715626
 20
-62.13563104697986
 30
0.0
  0
VERTEX
  5
1CEB
  8
SAPA_FOGBAND
 62
     2
 10
112.0000000000143
 20
-62.13563104697986
 30
0.0
 42
0.427966335106886
  0
VERTEX
  5
1CEC
  8
SAPA_FOGBAND
 62
     2
 10
112.29967256773431
 20
-61.821618475620603
 30
0.0
  0
VERTEX
  5
1CED
  8
SAPA_FOGBAND
 62
     2
 10
111.8133726596547
 20
-54.48060882784096
 30
0.0
 42
0.4005932428724212
  0
VERTEX
  5
1CEE
  8
SAPA_FOGBAND
 62
     2
 10
111.51370009193469
 20
-54.194621399200209
 30
0.0
  0
VERTEX
  5
1CEF
  8
SAPA_FOGBAND
 62
     2
 10
109.7000000000143
 20
-54.194621399200209
 30
0.0
  0
VERTEX
  5
1CF0
  8
SAPA_FOGBAND
 62
     2
 10
109.7000000000143
 20
-52.49462139920022
 30
0.0
 42
0.4142135623730951
  0
VERTEX
  5
1CF1
  8
SAPA_FOGBAND
 62
     2
 10
109.4000000000143
 20
-52.194621399200209
 30
0.0
  0
VERTEX
  5
1CF2
  8
SAPA_FOGBAND
 62
     2
 10
101.9812192363884
 20
-52.194621399200209
 30
0.0
 42
0.1379343940649207
  0
VERTEX
  5
1CF3
  8
SAPA_FOGBAND
 62
     2
 10
101.46000092734
 20
-52.341198014055003
 30
0.0
  0
VERTEX
  5
1CF4
  8
SAPA_FOGBAND
 62
     2
 10
89.566100769476378
 20
-58.138163592633433
 30
0.0
 42
0.2613472755167645
  0
VERTEX
  5
1CF5
  8
SAPA_FOGBAND
 62
     2
 10
89.326709924000596
 20
-58.564875285206043
 30
0.0
  0
VERTEX
  5
1CF6
  8
SAPA_FOGBAND
 62
     2
 10
89.326709924000596
 20
-60.369824591950056
 30
0.0
 42
0.3915187749346393
  0
VERTEX
  5
1CF7
  8
SAPA_FOGBAND
 62
     2
 10
90.248687623774117
 20
-61.366776205955162
 30
0.0
  0
VERTEX
  5
1CF8
  8
SAPA_FOGBAND
 62
     2
 10
98.280524200602386
 20
-62.134106853982402
 30
0.0
 42
0.0195279011117891
  0
SEQEND
  5
1CF9
  8
SAPA_FOGBAND
 62
     2
  0
POLYLINE
  5
12A9
  8
SAPA_FOGBAND
 62
     2
 10
-99.331047449703703
 20
-58.798870999151553
 30
0.0
 66
     1
 70
     8
  0
VERTEX
  8
SAPA_FOGBAND
  5
1E1F
 10
-99.3310
 20
-58.7989
 30
0.000000
  70
    32
  0
VERTEX
  8
SAPA_FOGBAND
  5
1E20
 10
-99.3284
 20
-58.8479
 30
0.000000
  70
    32
  0
VERTEX
  8
SAPA_FOGBAND
  5
1E21
 10
-99.3206
 20
-58.8969
 30
0.000000
  70
    32
  0
VERTEX
  8
SAPA_FOGBAND
  5
1E22
 10
-99.3076
 20
-58.9456
 30
0.000000
  70
    32
  0
VERTEX
  8
SAPA_FOGBAND
  5
1E23
 10
-99.2894
 20
-58.9940
 30
0.000000
  70
    32
  0
VERTEX
  8
SAPA_FOGBAND
  5
1E24
 10
-99.2661
 20
-59.0419
 30
0.000000
  70
    32
  0
VERTEX
  8
SAPA_FOGBAND
  5
1E25
 10
-99.2377
 20
-59.0892
 30
0.000000
  70
    32
  0
VERTEX
  8
SAPA_FOGBAND
  5
1E26
 10
-99.2043
 20
-59.1358
 30
0.000000
  70
    32
  0
VERTEX
  8
SAPA_FOGBAND
  5
1E27
 10
-99.1660
 20
-59.1816
 30
0.000000
  70
    32
  0
VERTEX
  8
SAPA_FOGBAND
  5
1E28
 10
-99.1229
 20
-59.2264
 30
0.000000
  70
    32
  0
VERTEX
  8
SAPA_FOGBAND
  5
1E29
 10
-99.0751
 20
-59.2703
 30
0.000000
  70
    32
  0
VERTEX
  8
SAPA_FOGBAND
  5
1E2A
 10
-99.0226
 20
-59.3130
 30
0.000000
  70
    32
  0
VERTEX
  8
SAPA_FOGBAND
  5
1E2B
 10
-98.9657
 20
-59.3544
 30
0.000000
  70
    32
  0
VERTEX
  8
SAPA_FOGBAND
  5
1E2C
 10
-98.9044
 20
-59.3946
 30
0.000000
  70
    32
  0
VERTEX
  8
SAPA_FOGBAND
  5
1E2D
 10
-98.8390
 20
-59.4333
 30
0.000000
  70
    32
  0
VERTEX
  8
SAPA_FOGBAND
  5
1E2E
 10
-98.7695
 20
-59.4704
 30
0.000000
  70
    32
  0
VERTEX
  8
SAPA_FOGBAND
  5
1E2F
 10
-98.6961
 20
-59.5060
 30
0.000000
  70
    32
  0
VERTEX
  8
SAPA_FOGBAND
  5
1E30
 10
-98.6191
 20
-59.5398
 30
0.000000
  70
    32
  0
VERTEX
  8
SAPA_FOGBAND
  5
1E31
 10
-98.5385
 20
-59.5719
 30
0.000000
  70
    32
  0
VERTEX
  8
SAPA_FOGBAND
  5
1E32
 10
-98.4546
 20
-59.6021
 30
0.000000
  70
    32
  0
VERTEX
  8
SAPA_FOGBAND
  5
1E33
 10
-98.3676
 20
-59.6303
 30
0.000000
  70
    32
  0
VERTEX
  8
SAPA_FOGBAND
  5
1E34
 10
-98.2777
 20
-59.6566
 30
0.000000
  70
    32
  0
VERTEX
  8
SAPA_FOGBAND
  5
1E35
 10
-98.1851
 20
-59.6808
 30
0.000000
  70
    32
  0
VERTEX
  8
SAPA_FOGBAND
  5
1E36
 10
-98.0901
 20
-59.7029
 30
0.000000
  70
    32
  0
VERTEX
  8
SAPA_FOGBAND
  5
1E37
 10
-97.9928
 20
-59.7228
 30
0.000000
  70
    32
  0
VERTEX
  8
SAPA_FOGBAND
  5
1E38
 10
-97.8936
 20
-59.7404
 30
0.000000
  70
    32
  0
VERTEX
  8
SAPA_FOGBAND
  5
1E39
 10
-97.7925
 20
-59.7558
 30
0.000000
  70
    32
  0
VERTEX
  8
SAPA_FOGBAND
  5
1E3A
 10
-97.6900
 20
-59.7689
 30
0.000000
  70
    32
  0
VERTEX
  8
SAPA_FOGBAND
  5
1E3B
 10
-97.5862
 20
-59.7797
 30
0.000000
  70
    32
  0
VERTEX
  8
SAPA_FOGBAND
  5
1E3C
 10
-97.4813
 20
-59.7880
 30
0.000000
  70
    32
  0
VERTEX
  8
SAPA_FOGBAND
  5
1E3D
 10
-97.3757
 20
-59.7941
 30
0.000000
  70
    32
  0
VERTEX
  8
SAPA_FOGBAND
  5
1E3E
 10
-97.2696
 20
-59.7977
 30
0.000000
  70
    32
  0
VERTEX
  8
SAPA_FOGBAND
  5
1E3F
 10
-97.1633
 20
-59.7989
 30
0.000000
  70
    32
  0
VERTEX
  8
SAPA_FOGBAND
  5
1E40
 10
-97.0569
 20
-59.7977
 30
0.000000
  70
    32
  0
VERTEX
  8
SAPA_FOGBAND
  5
1E41
 10
-96.9508
 20
-59.7941
 30
0.000000
  70
    32
  0
VERTEX
  8
SAPA_FOGBAND
  5
1E42
 10
-96.8452
 20
-59.7880
 30
0.000000
  70
    32
  0
VERTEX
  8
SAPA_FOGBAND
  5
1E43
 10
-96.7403
 20
-59.7797
 30
0.000000
  70
    32
  0
VERTEX
  8
SAPA_FOGBAND
  5
1E44
 10
-96.6365
 20
-59.7689
 30
0.000000
  70
    32
  0
VERTEX
  8
SAPA_FOGBAND
  5
1E45
 10
-96.5340
 20
-59.7558
 30
0.000000
  70
    32
  0
VERTEX
  8
SAPA_FOGBAND
  5
1E46
 10
-96.4330
 20
-59.7404
 30
0.000000
  70
    32
  0
VERTEX
  8
SAPA_FOGBAND
  5
1E47
 10
-96.3337
 20
-59.7228
 30
0.000000
  70
    32
  0
VERTEX
  8
SAPA_FOGBAND
  5
1E48
 10
-96.2364
 20
-59.7029
 30
0.000000
  70
    32
  0
VERTEX
  8
SAPA_FOGBAND
  5
1E49
 10
-96.1414
 20
-59.6808
 30
0.000000
  70
    32
  0
VERTEX
  8
SAPA_FOGBAND
  5
1E4A
 10
-96.0488
 20
-59.6566
 30
0.000000
  70
    32
  0
VERTEX
  8
SAPA_FOGBAND
  5
1E4B
 10
-95.9589
 20
-59.6303
 30
0.000000
  70
    32
  0
VERTEX
  8
SAPA_FOGBAND
  5
1E4C
 10
-95.8719
 20
-59.6021
 30
0.000000
  70
    32
  0
VERTEX
  8
SAPA_FOGBAND
  5
1E4D
 10
-95.7880
 20
-59.5719
 30
0.000000
  70
    32
  0
VERTEX
  8
SAPA_FOGBAND
  5
1E4E
 10
-95.7075
 20
-59.5398
 30
0.000000
  70
    32
  0
VERTEX
  8
SAPA_FOGBAND
  5
1E4F
 10
-95.6304
 20
-59.5060
 30
0.000000
  70
    32
  0
VERTEX
  8
SAPA_FOGBAND
  5
1E50
 10
-95.5570
 20
-59.4704
 30
0.000000
  70
    32
  0
VERTEX
  8
SAPA_FOGBAND
  5
1E51
 10
-95.4875
 20
-59.4333
 30
0.000000
  70
    32
  0
VERTEX
  8
SAPA_FOGBAND
  5
1E52
 10
-95.4221
 20
-59.3946
 30
0.000000
  70
    32
  0
VERTEX
  8
SAPA_FOGBAND
  5
1E53
 10
-95.3608
 20
-59.3544
 30
0.000000
  70
    32
  0
VERTEX
  8
SAPA_FOGBAND
  5
1E54
 10
-95.3039
 20
-59.3130
 30
0.000000
  70
    32
  0
VERTEX
  8
SAPA_FOGBAND
  5
1E55
 10
-95.2514
 20
-59.2703
 30
0.000000
  70
    32
  0
VERTEX
  8
SAPA_FOGBAND
  5
1E56
 10
-95.2036
 20
-59.2264
 30
0.000000
  70
    32
  0
VERTEX
  8
SAPA_FOGBAND
  5
1E57
 10
-95.1605
 20
-59.1816
 30
0.000000
  70
    32
  0
VERTEX
  8
SAPA_FOGBAND
  5
1E58
 10
-95.1222
 20
-59.1358
 30
0.000000
  70
    32
  0
VERTEX
  8
SAPA_FOGBAND
  5
1E59
 10
-95.0888
 20
-59.0892
 30
0.000000
  70
    32
  0
VERTEX
  8
SAPA_FOGBAND
  5
1E5A
 10
-95.0604
 20
-59.0419
 30
0.000000
  70
    32
  0
VERTEX
  8
SAPA_FOGBAND
  5
1E5B
 10
-95.0371
 20
-58.9940
 30
0.000000
  70
    32
  0
VERTEX
  8
SAPA_FOGBAND
  5
1E5C
 10
-95.0189
 20
-58.9456
 30
0.000000
  70
    32
  0
VERTEX
  8
SAPA_FOGBAND
  5
1E5D
 10
-95.0059
 20
-58.8969
 30
0.000000
  70
    32
  0
VERTEX
  8
SAPA_FOGBAND
  5
1E5E
 10
-94.9981
 20
-58.8479
 30
0.000000
  70
    32
  0
VERTEX
  8
SAPA_FOGBAND
  5
1E5F
 10
-94.9955
 20
-58.7989
 30
0.000000
  70
    32
  0
VERTEX
  8
SAPA_FOGBAND
  5
1E60
 10
-94.9981
 20
-58.7498
 30
0.000000
  70
    32
  0
VERTEX
  8
SAPA_FOGBAND
  5
1E61
 10
-95.0059
 20
-58.7009
 30
0.000000
  70
    32
  0
VERTEX
  8
SAPA_FOGBAND
  5
1E62
 10
-95.0189
 20
-58.6521
 30
0.000000
  70
    32
  0
VERTEX
  8
SAPA_FOGBAND
  5
1E63
 10
-95.0371
 20
-58.6038
 30
0.000000
  70
    32
  0
VERTEX
  8
SAPA_FOGBAND
  5
1E64
 10
-95.0604
 20
-58.5559
 30
0.000000
  70
    32
  0
VERTEX
  8
SAPA_FOGBAND
  5
1E65
 10
-95.0888
 20
-58.5086
 30
0.000000
  70
    32
  0
VERTEX
  8
SAPA_FOGBAND
  5
1E66
 10
-95.1222
 20
-58.4620
 30
0.000000
  70
    32
  0
VERTEX
  8
SAPA_FOGBAND
  5
1E67
 10
-95.1605
 20
-58.4162
 30
0.000000
  70
    32
  0
VERTEX
  8
SAPA_FOGBAND
  5
1E68
 10
-95.2036
 20
-58.3713
 30
0.000000
  70
    32
  0
VERTEX
  8
SAPA_FOGBAND
  5
1E69
 10
-95.2514
 20
-58.3275
 30
0.000000
  70
    32
  0
VERTEX
  8
SAPA_FOGBAND
  5
1E6A
 10
-95.3039
 20
-58.2848
 30
0.000000
  70
    32
  0
VERTEX
  8
SAPA_FOGBAND
  5
1E6B
 10
-95.3608
 20
-58.2433
 30
0.000000
  70
    32
  0
VERTEX
  8
SAPA_FOGBAND
  5
1E6C
 10
-95.4221
 20
-58.2032
 30
0.000000
  70
    32
  0
VERTEX
  8
SAPA_FOGBAND
  5
1E6D
 10
-95.4875
 20
-58.1645
 30
0.000000
  70
    32
  0
VERTEX
  8
SAPA_FOGBAND
  5
1E6E
 10
-95.5570
 20
-58.1273
 30
0.000000
  70
    32
  0
VERTEX
  8
SAPA_FOGBAND
  5
1E6F
 10
-95.6304
 20
-58.0918
 30
0.000000
  70
    32
  0
VERTEX
  8
SAPA_FOGBAND
  5
1E70
 10
-95.7075
 20
-58.0579
 30
0.000000
  70
    32
  0
VERTEX
  8
SAPA_FOGBAND
  5
1E71
 10
-95.7880
 20
-58.0259
 30
0.000000
  70
    32
  0
VERTEX
  8
SAPA_FOGBAND
  5
1E72
 10
-95.8719
 20
-57.9957
 30
0.000000
  70
    32
  0
VERTEX
  8
SAPA_FOGBAND
  5
1E73
 10
-95.9589
 20
-57.9674
 30
0.000000
  70
    32
  0
VERTEX
  8
SAPA_FOGBAND
  5
1E74
 10
-96.0488
 20
-57.9411
 30
0.000000
  70
    32
  0
VERTEX
  8
SAPA_FOGBAND
  5
1E75
 10
-96.1414
 20
-57.9169
 30
0.000000
  70
    32
  0
VERTEX
  8
SAPA_FOGBAND
  5
1E76
 10
-96.2364
 20
-57.8949
 30
0.000000
  70
    32
  0
VERTEX
  8
SAPA_FOGBAND
  5
1E77
 10
-96.3337
 20
-57.8750
 30
0.000000
  70
    32
  0
VERTEX
  8
SAPA_FOGBAND
  5
1E78
 10
-96.4330
 20
-57.8573
 30
0.000000
  70
    32
  0
VERTEX
  8
SAPA_FOGBAND
  5
1E79
 10
-96.5340
 20
-57.8419
 30
0.000000
  70
    32
  0
VERTEX
  8
SAPA_FOGBAND
  5
1E7A
 10
-96.6365
 20
-57.8288
 30
0.000000
  70
    32
  0
VERTEX
  8
SAPA_FOGBAND
  5
1E7B
 10
-96.7403
 20
-57.8181
 30
0.000000
  70
    32
  0
VERTEX
  8
SAPA_FOGBAND
  5
1E7C
 10
-96.8452
 20
-57.8097
 30
0.000000
  70
    32
  0
VERTEX
  8
SAPA_FOGBAND
  5
1E7D
 10
-96.9508
 20
-57.8037
 30
0.000000
  70
    32
  0
VERTEX
  8
SAPA_FOGBAND
  5
1E7E
 10
-97.0569
 20
-57.8001
 30
0.000000
  70
    32
  0
VERTEX
  8
SAPA_FOGBAND
  5
1E7F
 10
-97.1633
 20
-57.7989
 30
0.000000
  70
    32
  0
VERTEX
  8
SAPA_FOGBAND
  5
1E80
 10
-97.2696
 20
-57.8001
 30
0.000000
  70
    32
  0
VERTEX
  8
SAPA_FOGBAND
  5
1E81
 10
-97.3757
 20
-57.8037
 30
0.000000
  70
    32
  0
VERTEX
  8
SAPA_FOGBAND
  5
1E82
 10
-97.4813
 20
-57.8097
 30
0.000000
  70
    32
  0
VERTEX
  8
SAPA_FOGBAND
  5
1E83
 10
-97.5862
 20
-57.8181
 30
0.000000
  70
    32
  0
VERTEX
  8
SAPA_FOGBAND
  5
1E84
 10
-97.6900
 20
-57.8288
 30
0.000000
  70
    32
  0
VERTEX
  8
SAPA_FOGBAND
  5
1E85
 10
-97.7925
 20
-57.8419
 30
0.000000
  70
    32
  0
VERTEX
  8
SAPA_FOGBAND
  5
1E86
 10
-97.8936
 20
-57.8573
 30
0.000000
  70
    32
  0
VERTEX
  8
SAPA_FOGBAND
  5
1E87
 10
-97.9928
 20
-57.8750
 30
0.000000
  70
    32
  0
VERTEX
  8
SAPA_FOGBAND
  5
1E88
 10
-98.0901
 20
-57.8949
 30
0.000000
  70
    32
  0
VERTEX
  8
SAPA_FOGBAND
  5
1E89
 10
-98.1851
 20
-57.9169
 30
0.000000
  70
    32
  0
VERTEX
  8
SAPA_FOGBAND
  5
1E8A
 10
-98.2777
 20
-57.9411
 30
0.000000
  70
    32
  0
VERTEX
  8
SAPA_FOGBAND
  5
1E8B
 10
-98.3676
 20
-57.9674
 30
0.000000
  70
    32
  0
VERTEX
  8
SAPA_FOGBAND
  5
1E8C
 10
-98.4546
 20
-57.9957
 30
0.000000
  70
    32
  0
VERTEX
  8
SAPA_FOGBAND
  5
1E8D
 10
-98.5385
 20
-58.0259
 30
0.000000
  70
    32
  0
VERTEX
  8
SAPA_FOGBAND
  5
1E8E
 10
-98.6191
 20
-58.0579
 30
0.000000
  70
    32
  0
VERTEX
  8
SAPA_FOGBAND
  5
1E8F
 10
-98.6961
 20
-58.0918
 30
0.000000
  70
    32
  0
VERTEX
  8
SAPA_FOGBAND
  5
1E90
 10
-98.7695
 20
-58.1273
 30
0.000000
  70
    32
  0
VERTEX
  8
SAPA_FOGBAND
  5
1E91
 10
-98.8390
 20
-58.1645
 30
0.000000
  70
    32
  0
VERTEX
  8
SAPA_FOGBAND
  5
1E92
 10
-98.9044
 20
-58.2032
 30
0.000000
  70
    32
  0
VERTEX
  8
SAPA_FOGBAND
  5
1E93
 10
-98.9657
 20
-58.2433
 30
0.000000
  70
    32
  0
VERTEX
  8
SAPA_FOGBAND
  5
1E94
 10
-99.0226
 20
-58.2848
 30
0.000000
  70
    32
  0
VERTEX
  8
SAPA_FOGBAND
  5
1E95
 10
-99.0751
 20
-58.3275
 30
0.000000
  70
    32
  0
VERTEX
  8
SAPA_FOGBAND
  5
1E96
 10
-99.1229
 20
-58.3713
 30
0.000000
  70
    32
  0
VERTEX
  8
SAPA_FOGBAND
  5
1E97
 10
-99.1660
 20
-58.4162
 30
0.000000
  70
    32
  0
VERTEX
  8
SAPA_FOGBAND
  5
1E98
 10
-99.2043
 20
-58.4620
 30
0.000000
  70
    32
  0
VERTEX
  8
SAPA_FOGBAND
  5
1E99
 10
-99.2377
 20
-58.5086
 30
0.000000
  70
    32
  0
VERTEX
  8
SAPA_FOGBAND
  5
1E9A
 10
-99.2661
 20
-58.5559
 30
0.000000
  70
    32
  0
VERTEX
  8
SAPA_FOGBAND
  5
1E9B
 10
-99.2894
 20
-58.6038
 30
0.000000
  70
    32
  0
VERTEX
  8
SAPA_FOGBAND
  5
1E9C
 10
-99.3076
 20
-58.6521
 30
0.000000
  70
    32
  0
VERTEX
  8
SAPA_FOGBAND
  5
1E9D
 10
-99.3206
 20
-58.7009
 30
0.000000
  70
    32
  0
VERTEX
  8
SAPA_FOGBAND
  5
1E9E
 10
-99.3284
 20
-58.7498
 30
0.000000
  70
    32
  0
VERTEX
  8
SAPA_FOGBAND
  5
1E9F
 10
-99.3310
 20
-58.7989
 30
0.000000
  70
    32
  0
SEQEND
  8
SAPA_FOGBAND
  5
1EA0
  0
POLYLINE
  5
12AA
  8
SAPA_FOGBAND
 62
     2
 10
-108.84845030875474
 20
-57.340866502488041
 30
0.0
 66
     1
 70
     8
  0
VERTEX
  8
SAPA_FOGBAND
  5
1EA1
 10
-108.848
 20
-57.3409
 30
0.000000
  70
    32
  0
VERTEX
  8
SAPA_FOGBAND
  5
1EA2
 10
-108.845
 20
-57.4145
 30
0.000000
  70
    32
  0
VERTEX
  8
SAPA_FOGBAND
  5
1EA3
 10
-108.834
 20
-57.4879
 30
0.000000
  70
    32
  0
VERTEX
  8
SAPA_FOGBAND
  5
1EA4
 10
-108.815
 20
-57.5610
 30
0.000000
  70
    32
  0
VERTEX
  8
SAPA_FOGBAND
  5
1EA5
 10
-108.789
 20
-57.6335
 30
0.000000
  70
    32
  0
VERTEX
  8
SAPA_FOGBAND
  5
1EA6
 10
-108.756
 20
-57.7053
 30
0.000000
  70
    32
  0
VERTEX
  8
SAPA_FOGBAND
  5
1EA7
 10
-108.716
 20
-57.7763
 30
0.000000
  70
    32
  0
VERTEX
  8
SAPA_FOGBAND
  5
1EA8
 10
-108.668
 20
-57.8462
 30
0.000000
  70
    32
  0
VERTEX
  8
SAPA_FOGBAND
  5
1EA9
 10
-108.614
 20
-57.9149
 30
0.000000
  70
    32
  0
VERTEX
  8
SAPA_FOGBAND
  5
1EAA
 10
-108.552
 20
-57.9822
 30
0.000000
  70
    32
  0
VERTEX
  8
SAPA_FOGBAND
  5
1EAB
 10
-108.484
 20
-58.0480
 30
0.000000
  70
    32
  0
VERTEX
  8
SAPA_FOGBAND
  5
1EAC
 10
-108.410
 20
-58.1120
 30
0.000000
  70
    32
  0
VERTEX
  8
SAPA_FOGBAND
  5
1EAD
 10
-108.328
 20
-58.1742
 30
0.000000
  70
    32
  0
VERTEX
  8
SAPA_FOGBAND
  5
1EAE
 10
-108.241
 20
-58.2344
 30
0.000000
  70
    32
  0
VERTEX
  8
SAPA_FOGBAND
  5
1EAF
 10
-108.148
 20
-58.2925
 30
0.000000
  70
    32
  0
VERTEX
  8
SAPA_FOGBAND
  5
1EB0
 10
-108.049
 20
-58.3482
 30
0.000000
  70
    32
  0
VERTEX
  8
SAPA_FOGBAND
  5
1EB1
 10
-107.945
 20
-58.4015
 30
0.000000
  70
    32
  0
VERTEX
  8
SAPA_FOGBAND
  5
1EB2
 10
-107.835
 20
-58.4523
 30
0.000000
  70
    32
  0
VERTEX
  8
SAPA_FOGBAND
  5
1EB3
 10
-107.720
 20
-58.5004
 30
0.000000
  70
    32
  0
VERTEX
  8
SAPA_FOGBAND
  5
1EB4
 10
-107.601
 20
-58.5457
 30
0.000000
  70
    32
  0
VERTEX
  8
SAPA_FOGBAND
  5
1EB5
 10
-107.477
 20
-58.5881
 30
0.000000
  70
    32
  0
VERTEX
  8
SAPA_FOGBAND
  5
1EB6
 10
-107.349
 20
-58.6275
 30
0.000000
  70
    32
  0
VERTEX
  8
SAPA_FOGBAND
  5
1EB7
 10
-107.218
 20
-58.6637
 30
0.000000
  70
    32
  0
VERTEX
  8
SAPA_FOGBAND
  5
1EB8
 10
-107.082
 20
-58.6969
 30
0.000000
  70
    32
  0
VERTEX
  8
SAPA_FOGBAND
  5
1EB9
 10
-106.944
 20
-58.7267
 30
0.000000
  70
    32
  0
VERTEX
  8
SAPA_FOGBAND
  5
1EBA
 10
-106.803
 20
-58.7532
 30
0.000000
  70
    32
  0
VERTEX
  8
SAPA_FOGBAND
  5
1EBB
 10
-106.659
 20
-58.7763
 30
0.000000
  70
    32
  0
VERTEX
  8
SAPA_FOGBAND
  5
1EBC
 10
-106.513
 20
-58.7959
 30
0.000000
  70
    32
  0
VERTEX
  8
SAPA_FOGBAND
  5
1EBD
 10
-106.365
 20
-58.8120
 30
0.000000
  70
    32
  0
VERTEX
  8
SAPA_FOGBAND
  5
1EBE
 10
-106.216
 20
-58.8246
 30
0.000000
  70
    32
  0
VERTEX
  8
SAPA_FOGBAND
  5
1EBF
 10
-106.066
 20
-58.8336
 30
0.000000
  70
    32
  0
VERTEX
  8
SAPA_FOGBAND
  5
1EC0
 10
-105.915
 20
-58.8391
 30
0.000000
  70
    32
  0
VERTEX
  8
SAPA_FOGBAND
  5
1EC1
 10
-105.763
 20
-58.8409
 30
0.000000
  70
    32
  0
VERTEX
  8
SAPA_FOGBAND
  5
1EC2
 10
-105.612
 20
-58.8391
 30
0.000000
  70
    32
  0
VERTEX
  8
SAPA_FOGBAND
  5
1EC3
 10
-105.461
 20
-58.8336
 30
0.000000
  70
    32
  0
VERTEX
  8
SAPA_FOGBAND
  5
1EC4
 10
-105.311
 20
-58.8246
 30
0.000000
  70
    32
  0
VERTEX
  8
SAPA_FOGBAND
  5
1EC5
 10
-105.161
 20
-58.8120
 30
0.000000
  70
    32
  0
VERTEX
  8
SAPA_FOGBAND
  5
1EC6
 10
-105.014
 20
-58.7959
 30
0.000000
  70
    32
  0
VERTEX
  8
SAPA_FOGBAND
  5
1EC7
 10
-104.868
 20
-58.7763
 30
0.000000
  70
    32
  0
VERTEX
  8
SAPA_FOGBAND
  5
1EC8
 10
-104.724
 20
-58.7532
 30
0.000000
  70
    32
  0
VERTEX
  8
SAPA_FOGBAND
  5
1EC9
 10
-104.583
 20
-58.7267
 30
0.000000
  70
    32
  0
VERTEX
  8
SAPA_FOGBAND
  5
1ECA
 10
-104.444
 20
-58.6969
 30
0.000000
  70
    32
  0
VERTEX
  8
SAPA_FOGBAND
  5
1ECB
 10
-104.309
 20
-58.6637
 30
0.000000
  70
    32
  0
VERTEX
  8
SAPA_FOGBAND
  5
1ECC
 10
-104.177
 20
-58.6275
 30
0.000000
  70
    32
  0
VERTEX
  8
SAPA_FOGBAND
  5
1ECD
 10
-104.049
 20
-58.5881
 30
0.000000
  70
    32
  0
VERTEX
  8
SAPA_FOGBAND
  5
1ECE
 10
-103.925
 20
-58.5457
 30
0.000000
  70
    32
  0
VERTEX
  8
SAPA_FOGBAND
  5
1ECF
 10
-103.806
 20
-58.5004
 30
0.000000
  70
    32
  0
VERTEX
  8
SAPA_FOGBAND
  5
1ED0
 10
-103.691
 20
-58.4523
 30
0.000000
  70
    32
  0
VERTEX
  8
SAPA_FOGBAND
  5
1ED1
 10
-103.582
 20
-58.4015
 30
0.000000
  70
    32
  0
VERTEX
  8
SAPA_FOGBAND
  5
1ED2
 10
-103.477
 20
-58.3482
 30
0.000000
  70
    32
  0
VERTEX
  8
SAPA_FOGBAND
  5
1ED3
 10
-103.378
 20
-58.2925
 30
0.000000
  70
    32
  0
VERTEX
  8
SAPA_FOGBAND
  5
1ED4
 10
-103.285
 20
-58.2344
 30
0.000000
  70
    32
  0
VERTEX
  8
SAPA_FOGBAND
  5
1ED5
 10
-103.198
 20
-58.1742
 30
0.000000
  70
    32
  0
VERTEX
  8
SAPA_FOGBAND
  5
1ED6
 10
-103.117
 20
-58.1120
 30
0.000000
  70
    32
  0
VERTEX
  8
SAPA_FOGBAND
  5
1ED7
 10
-103.042
 20
-58.0480
 30
0.000000
  70
    32
  0
VERTEX
  8
SAPA_FOGBAND
  5
1ED8
 10
-102.974
 20
-57.9822
 30
0.000000
  70
    32
  0
VERTEX
  8
SAPA_FOGBAND
  5
1ED9
 10
-102.913
 20
-57.9149
 30
0.000000
  70
    32
  0
VERTEX
  8
SAPA_FOGBAND
  5
1EDA
 10
-102.858
 20
-57.8462
 30
0.000000
  70
    32
  0
VERTEX
  8
SAPA_FOGBAND
  5
1EDB
 10
-102.811
 20
-57.7763
 30
0.000000
  70
    32
  0
VERTEX
  8
SAPA_FOGBAND
  5
1EDC
 10
-102.770
 20
-57.7053
 30
0.000000
  70
    32
  0
VERTEX
  8
SAPA_FOGBAND
  5
1EDD
 10
-102.737
 20
-57.6335
 30
0.000000
  70
    32
  0
VERTEX
  8
SAPA_FOGBAND
  5
1EDE
 10
-102.711
 20
-57.5610
 30
0.000000
  70
    32
  0
VERTEX
  8
SAPA_FOGBAND
  5
1EDF
 10
-102.693
 20
-57.4879
 30
0.000000
  70
    32
  0
VERTEX
  8
SAPA_FOGBAND
  5
1EE0
 10
-102.682
 20
-57.4145
 30
0.000000
  70
    32
  0
VERTEX
  8
SAPA_FOGBAND
  5
1EE1
 10
-102.678
 20
-57.3409
 30
0.000000
  70
    32
  0
VERTEX
  8
SAPA_FOGBAND
  5
1EE2
 10
-102.682
 20
-57.2673
 30
0.000000
  70
    32
  0
VERTEX
  8
SAPA_FOGBAND
  5
1EE3
 10
-102.693
 20
-57.1938
 30
0.000000
  70
    32
  0
VERTEX
  8
SAPA_FOGBAND
  5
1EE4
 10
-102.711
 20
-57.1208
 30
0.000000
  70
    32
  0
VERTEX
  8
SAPA_FOGBAND
  5
1EE5
 10
-102.737
 20
-57.0482
 30
0.000000
  70
    32
  0
VERTEX
  8
SAPA_FOGBAND
  5
1EE6
 10
-102.770
 20
-56.9764
 30
0.000000
  70
    32
  0
VERTEX
  8
SAPA_FOGBAND
  5
1EE7
 10
-102.811
 20
-56.9054
 30
0.000000
  70
    32
  0
VERTEX
  8
SAPA_FOGBAND
  5
1EE8
 10
-102.858
 20
-56.8355
 30
0.000000
  70
    32
  0
VERTEX
  8
SAPA_FOGBAND
  5
1EE9
 10
-102.913
 20
-56.7668
 30
0.000000
  70
    32
  0
VERTEX
  8
SAPA_FOGBAND
  5
1EEA
 10
-102.974
 20
-56.6995
 30
0.000000
  70
    32
  0
VERTEX
  8
SAPA_FOGBAND
  5
1EEB
 10
-103.042
 20
-56.6338
 30
0.000000
  70
    32
  0
VERTEX
  8
SAPA_FOGBAND
  5
1EEC
 10
-103.117
 20
-56.5697
 30
0.000000
  70
    32
  0
VERTEX
  8
SAPA_FOGBAND
  5
1EED
 10
-103.198
 20
-56.5075
 30
0.000000
  70
    32
  0
VERTEX
  8
SAPA_FOGBAND
  5
1EEE
 10
-103.285
 20
-56.4473
 30
0.000000
  70
    32
  0
VERTEX
  8
SAPA_FOGBAND
  5
1EEF
 10
-103.378
 20
-56.3893
 30
0.000000
  70
    32
  0
VERTEX
  8
SAPA_FOGBAND
  5
1EF0
 10
-103.477
 20
-56.3335
 30
0.000000
  70
    32
  0
VERTEX
  8
SAPA_FOGBAND
  5
1EF1
 10
-103.582
 20
-56.2802
 30
0.000000
  70
    32
  0
VERTEX
  8
SAPA_FOGBAND
  5
1EF2
 10
-103.691
 20
-56.2294
 30
0.000000
  70
    32
  0
VERTEX
  8
SAPA_FOGBAND
  5
1EF3
 10
-103.806
 20
-56.1814
 30
0.000000
  70
    32
  0
VERTEX
  8
SAPA_FOGBAND
  5
1EF4
 10
-103.925
 20
-56.1361
 30
0.000000
  70
    32
  0
VERTEX
  8
SAPA_FOGBAND
  5
1EF5
 10
-104.049
 20
-56.0937
 30
0.000000
  70
    32
  0
VERTEX
  8
SAPA_FOGBAND
  5
1EF6
 10
-104.177
 20
-56.0543
 30
0.000000
  70
    32
  0
VERTEX
  8
SAPA_FOGBAND
  5
1EF7
 10
-104.309
 20
-56.0180
 30
0.000000
  70
    32
  0
VERTEX
  8
SAPA_FOGBAND
  5
1EF8
 10
-104.444
 20
-55.9849
 30
0.000000
  70
    32
  0
VERTEX
  8
SAPA_FOGBAND
  5
1EF9
 10
-104.583
 20
-55.9550
 30
0.000000
  70
    32
  0
VERTEX
  8
SAPA_FOGBAND
  5
1EFA
 10
-104.724
 20
-55.9286
 30
0.000000
  70
    32
  0
VERTEX
  8
SAPA_FOGBAND
  5
1EFB
 10
-104.868
 20
-55.9055
 30
0.000000
  70
    32
  0
VERTEX
  8
SAPA_FOGBAND
  5
1EFC
 10
-105.014
 20
-55.8858
 30
0.000000
  70
    32
  0
VERTEX
  8
SAPA_FOGBAND
  5
1EFD
 10
-105.161
 20
-55.8697
 30
0.000000
  70
    32
  0
VERTEX
  8
SAPA_FOGBAND
  5
1EFE
 10
-105.311
 20
-55.8571
 30
0.000000
  70
    32
  0
VERTEX
  8
SAPA_FOGBAND
  5
1EFF
 10
-105.461
 20
-55.8481
 30
0.000000
  70
    32
  0
VERTEX
  8
SAPA_FOGBAND
  5
1F00
 10
-105.612
 20
-55.8427
 30
0.000000
  70
    32
  0
VERTEX
  8
SAPA_FOGBAND
  5
1F01
 10
-105.763
 20
-55.8409
 30
0.000000
  70
    32
  0
VERTEX
  8
SAPA_FOGBAND
  5
1F02
 10
-105.915
 20
-55.8427
 30
0.000000
  70
    32
  0
VERTEX
  8
SAPA_FOGBAND
  5
1F03
 10
-106.066
 20
-55.8481
 30
0.000000
  70
    32
  0
VERTEX
  8
SAPA_FOGBAND
  5
1F04
 10
-106.216
 20
-55.8571
 30
0.000000
  70
    32
  0
VERTEX
  8
SAPA_FOGBAND
  5
1F05
 10
-106.365
 20
-55.8697
 30
0.000000
  70
    32
  0
VERTEX
  8
SAPA_FOGBAND
  5
1F06
 10
-106.513
 20
-55.8858
 30
0.000000
  70
    32
  0
VERTEX
  8
SAPA_FOGBAND
  5
1F07
 10
-106.659
 20
-55.9055
 30
0.000000
  70
    32
  0
VERTEX
  8
SAPA_FOGBAND
  5
1F08
 10
-106.803
 20
-55.9286
 30
0.000000
  70
    32
  0
VERTEX
  8
SAPA_FOGBAND
  5
1F09
 10
-106.944
 20
-55.9550
 30
0.000000
  70
    32
  0
VERTEX
  8
SAPA_FOGBAND
  5
1F0A
 10
-107.082
 20
-55.9849
 30
0.000000
  70
    32
  0
VERTEX
  8
SAPA_FOGBAND
  5
1F0B
 10
-107.218
 20
-56.0180
 30
0.000000
  70
    32
  0
VERTEX
  8
SAPA_FOGBAND
  5
1F0C
 10
-107.349
 20
-56.0543
 30
0.000000
  70
    32
  0
VERTEX
  8
SAPA_FOGBAND
  5
1F0D
 10
-107.477
 20
-56.0937
 30
0.000000
  70
    32
  0
VERTEX
  8
SAPA_FOGBAND
  5
1F0E
 10
-107.601
 20
-56.1361
 30
0.000000
  70
    32
  0
VERTEX
  8
SAPA_FOGBAND
  5
1F0F
 10
-107.720
 20
-56.1814
 30
0.000000
  70
    32
  0
VERTEX
  8
SAPA_FOGBAND
  5
1F10
 10
-107.835
 20
-56.2294
 30
0.000000
  70
    32
  0
VERTEX
  8
SAPA_FOGBAND
  5
1F11
 10
-107.945
 20
-56.2802
 30
0.000000
  70
    32
  0
VERTEX
  8
SAPA_FOGBAND
  5
1F12
 10
-108.049
 20
-56.3335
 30
0.000000
  70
    32
  0
VERTEX
  8
SAPA_FOGBAND
  5
1F13
 10
-108.148
 20
-56.3893
 30
0.000000
  70
    32
  0
VERTEX
  8
SAPA_FOGBAND
  5
1F14
 10
-108.241
 20
-56.4473
 30
0.000000
  70
    32
  0
VERTEX
  8
SAPA_FOGBAND
  5
1F15
 10
-108.328
 20
-56.5075
 30
0.000000
  70
    32
  0
VERTEX
  8
SAPA_FOGBAND
  5
1F16
 10
-108.410
 20
-56.5697
 30
0.000000
  70
    32
  0
VERTEX
  8
SAPA_FOGBAND
  5
1F17
 10
-108.484
 20
-56.6338
 30
0.000000
  70
    32
  0
VERTEX
  8
SAPA_FOGBAND
  5
1F18
 10
-108.552
 20
-56.6995
 30
0.000000
  70
    32
  0
VERTEX
  8
SAPA_FOGBAND
  5
1F19
 10
-108.614
 20
-56.7668
 30
0.000000
  70
    32
  0
VERTEX
  8
SAPA_FOGBAND
  5
1F1A
 10
-108.668
 20
-56.8355
 30
0.000000
  70
    32
  0
VERTEX
  8
SAPA_FOGBAND
  5
1F1B
 10
-108.716
 20
-56.9054
 30
0.000000
  70
    32
  0
VERTEX
  8
SAPA_FOGBAND
  5
1F1C
 10
-108.756
 20
-56.9764
 30
0.000000
  70
    32
  0
VERTEX
  8
SAPA_FOGBAND
  5
1F1D
 10
-108.789
 20
-57.0482
 30
0.000000
  70
    32
  0
VERTEX
  8
SAPA_FOGBAND
  5
1F1E
 10
-108.815
 20
-57.1208
 30
0.000000
  70
    32
  0
VERTEX
  8
SAPA_FOGBAND
  5
1F1F
 10
-108.834
 20
-57.1938
 30
0.000000
  70
    32
  0
VERTEX
  8
SAPA_FOGBAND
  5
1F20
 10
-108.845
 20
-57.2673
 30
0.000000
  70
    32
  0
VERTEX
  8
SAPA_FOGBAND
  5
1F21
 10
-108.848
 20
-57.3409
 30
0.000000
  70
    32
  0
SEQEND
  8
SAPA_FOGBAND
  5
1F22
  0
POLYLINE
  5
12AB
  8
SAPA_FOGBAND
 62
     2
 66
     1
 10
0.0
 20
0.0
 30
0.0
 70
     1
  0
VERTEX
  5
1CFA
  8
SAPA_FOGBAND
 62
     2
 10
-98.319535350715569
 20
-62.135631046979967
 30
0.0
  0
VERTEX
  5
1CFB
  8
SAPA_FOGBAND
 62
     2
 10
-112.0000000000142
 20
-62.135631046979967
 30
0.0
 42
-0.427966335106886
  0
VERTEX
  5
1CFC
  8
SAPA_FOGBAND
 62
     2
 10
-112.29967256773421
 20
-61.82161847562071
 30
0.0
  0
VERTEX
  5
1CFD
  8
SAPA_FOGBAND
 62
     2
 10
-111.8133726596546
 20
-54.480608827841067
 30
0.0
 42
-0.4005932428724212
  0
VERTEX
  5
1CFE
  8
SAPA_FOGBAND
 62
     2
 10
-111.5137000919346
 20
-54.194621399200322
 30
0.0
  0
VERTEX
  5
1CFF
  8
SAPA_FOGBAND
 62
     2
 10
-109.7000000000142
 20
-54.194621399200322
 30
0.0
  0
VERTEX
  5
1D00
  8
SAPA_FOGBAND
 62
     2
 10
-109.7000000000142
 20
-52.494621399200341
 30
0.0
 42
-0.4142135623730951
  0
VERTEX
  5
1D01
  8
SAPA_FOGBAND
 62
     2
 10
-109.4000000000142
 20
-52.194621399200322
 30
0.0
  0
VERTEX
  5
1D02
  8
SAPA_FOGBAND
 62
     2
 10
-101.9812192363883
 20
-52.194621399200322
 30
0.0
 42
-0.1379343940649207
  0
VERTEX
  5
1D03
  8
SAPA_FOGBAND
 62
     2
 10
-101.46000092733991
 20
-52.341198014055117
 30
0.0
  0
VERTEX
  5
1D04
  8
SAPA_FOGBAND
 62
     2
 10
-89.566100769476336
 20
-58.138163592633553
 30
0.0
 42
-0.2613472755167645
  0
VERTEX
  5
1D05
  8
SAPA_FOGBAND
 62
     2
 10
-89.326709924000525
 20
-58.564875285206163
 30
0.0
  0
VERTEX
  5
1D06
  8
SAPA_FOGBAND
 62
     2
 10
-89.326709924000525
 20
-60.369824591950177
 30
0.0
 42
-0.3915187749346393
  0
VERTEX
  5
1D07
  8
SAPA_FOGBAND
 62
     2
 10
-90.248687623774074
 20
-61.366776205955269
 30
0.0
  0
VERTEX
  5
1D08
  8
SAPA_FOGBAND
 62
     2
 10
-98.280524200602329
 20
-62.134106853982523
 30
0.0
 42
-0.0195279011117891
  0
SEQEND
  5
1D09
  8
SAPA_FOGBAND
 62
     2
  0
DIMENSION
  5
12B4
  8
SAPA_MATT
  2
*D59
 10
-143.2002820921287
 20
-13.99999999940743
 30
-0.1
 11
-145.7002820921287
 21
-56.999999998025586
 31
-0.1
 70
     0
 13
-110.9999999999999
 23
-99.999999996643709
 33
0.0
 14
-89.300000003911094
 24
-13.99999999940745
 34
-0.1
 50
90.0
1001
ACAD
1000
DSTYLE
1002
{
1070
    40
1040
1.0
1002
}
  0
DIMENSION
  5
12B5
  8
SAPA_MATT
  2
*D58
 10
13.499999999999879
 20
-124.7051012061636
 30
0.0
 11
10.999999999999909
 21
-122.2051012061636
 31
0.0
 70
     0
 13
8.4999999999999432
 23
-97.999999996643766
 33
0.0
 14
13.499999999999879
 24
-97.999999999996405
 34
0.0
1001
ACAD
1000
DSTYLE
1002
{
1070
    40
1040
1.0
1002
}
  0
DIMENSION
  5
12B6
  8
SAPA_MATT
  2
*D57
 10
111.4999999579304
 20
-124.7051012061636
 30
0.0
 11
62.499999978965128
 21
-122.2051012061636
 31
0.0
 70
     0
  1
98
 13
13.499999999999879
 23
-97.999999999996405
 33
0.0
 14
111.4999999579304
 24
-99.499999999996419
 34
0.0
1001
ACAD
1000
DSTYLE
1002
{
1070
    40
1040
1.0
1002
}
  0
DIMENSION
  5
12B7
  8
SAPA_MATT
  2
*D56
 10
8.4999999999999414
 20
-124.7051012061636
 30
0.0
 11
-51.500000000000021
 21
-122.2051012061636
 31
0.0
 70
     0
 13
-111.4999999999999
 23
-99.499999996643737
 33
0.0
 14
8.4999999999999432
 24
-97.999999996643766
 34
0.0
1001
ACAD
1000
DSTYLE
1002
{
1070
    40
1040
1.0
1002
}
  0
VIEWPORT
  5
C4
 67
     1
  8
0
 10
160.5543545598442
 20
116.00969601843509
 30
0.0
 40
404.96977709277462
 41
256.8421457311839
 68
     1
 69
     1
1001
ACAD
1000
MVIEW
1002
{
1070
    16
1010
0.0
1020
0.0
1030
0.0
1010
0.0
1020
0.0
1030
1.0
1040
-1.5707963267948959
1040
256.8421457311839
1040
99.206251621246338
1040
-137.70624399185181
1040
50.0
1040
0.0
1040
0.0
1070
     0
1070
     0
1070
     1
1070
     1
1070
     0
1070
     0
1070
     0
1070
     0
1040
0.0
1040
0.0
1040
0.0
1040
10.0
1040
10.0
1040
10.0
1040
10.0
1070
     0
1002
{
1002
}
1002
}
  0
ENDSEC
  0
EOF
