  0
SECTION
  2
HEADER
  9
$ACADVER
  1
AC1009
  9
$INSBASE
 10
45.006823448336007
 20
256.80342482082011
 30
0.0
  9
$EXTMIN
 10
-22.324999918811152
 20
-35.000000004193197
 30
-0.2
  9
$EXTMAX
 10
252.778169486161
 20
224.329260071985
 30
0.1
  9
$LIMMIN
 10
0.0
 20
0.0
  9
$LIMMAX
 10
790.0
 20
790.0
  9
$ORTHOMODE
 70
     0
  9
$REGENMODE
 70
     1
  9
$FILLMODE
 70
     1
  9
$QTEXTMODE
 70
     0
  9
$MIRRTEXT
 70
     1
  9
$DRAGMODE
 70
     2
  9
$LTSCALE
 40
2.5
  9
$OSMODE
 70
   167
  9
$ATTMODE
 70
     1
  9
$TEXTSIZE
 40
5.0
  9
$TRACEWID
 40
0.05
  9
$TEXTSTYLE
  7
ISO
  9
$CLAYER
  8
0
  9
$CELTYPE
  6
BYLAYER
  9
$CECOLOR
 62
   256
  9
$DIMSCALE
 40
0.0
  9
$DIMASZ
 40
3.0
  9
$DIMEXO
 40
1.5
  9
$DIMDLI
 40
10.0
  9
$DIMRND
 40
0.0
  9
$DIMDLE
 40
0.0
  9
$DIMEXE
 40
1.5
  9
$DIMTP
 40
0.0
  9
$DIMTM
 40
0.0
  9
$DIMTXT
 40
3.5
  9
$DIMCEN
 40
-5.0
  9
$DIMTSZ
 40
0.0
  9
$DIMTOL
 70
     0
  9
$DIMLIM
 70
     0
  9
$DIMTIH
 70
     0
  9
$DIMTOH
 70
     1
  9
$DIMSE1
 70
     0
  9
$DIMSE2
 70
     0
  9
$DIMTAD
 70
     1
  9
$DIMZIN
 70
     8
  9
$DIMBLK
  1

  9
$DIMASO
 70
     1
  9
$DIMSHO
 70
     1
  9
$DIMPOST
  1

  9
$DIMAPOST
  1

  9
$DIMALT
 70
     0
  9
$DIMALTD
 70
     0
  9
$DIMALTF
 40
25.399999999999999
  9
$DIMLFAC
 40
-1.0
  9
$DIMTOFL
 70
     1
  9
$DIMTVP
 40
0.0
  9
$DIMTIX
 70
     0
  9
$DIMSOXD
 70
     0
  9
$DIMSAH
 70
     0
  9
$DIMBLK1
  1

  9
$DIMBLK2
  1

  9
$DIMSTYLE
  2
MASKIN
  9
$DIMCLRD
 70
   256
  9
$DIMCLRE
 70
   256
  9
$DIMCLRT
 70
     2
  9
$DIMTFAC
 40
1.0
  9
$DIMGAP
 40
1.0
  9
$LUNITS
 70
     2
  9
$LUPREC
 70
     1
  9
$SKETCHINC
 40
0.1
  9
$FILLETRAD
 40
0.0
  9
$AUNITS
 70
     0
  9
$AUPREC
 70
     0
  9
$MENU
  1
ACAD
  9
$ELEVATION
 40
0.0
  9
$PELEVATION
 40
0.0
  9
$THICKNESS
 40
0.0
  9
$LIMCHECK
 70
     0
  9
$BLIPMODE
 70
     0
  9
$CHAMFERA
 40
0.0
  9
$CHAMFERB
 40
0.0
  9
$SKPOLY
 70
     0
  9
$TDCREATE
 40
2451169.4686749768
  9
$TDUPDATE
 40
2456044.5885669789
  9
$TDINDWG
 40
1.1967560764
  9
$TDUSRTIMER
 40
1.1967560764
  9
$USRTIMER
 70
     1
  9
$ANGBASE
 50
0.0
  9
$ANGDIR
 70
     0
  9
$PDMODE
 70
     0
  9
$PDSIZE
 40
0.0
  9
$PLINEWID
 40
0.0
  9
$COORDS
 70
     1
  9
$SPLFRAME
 70
     0
  9
$SPLINETYPE
 70
     6
  9
$SPLINESEGS
 70
     8
  9
$ATTDIA
 70
     0
  9
$ATTREQ
 70
     1
  9
$HANDLING
 70
     1
  9
$HANDSEED
  5
1E68
  9
$SURFTAB1
 70
     6
  9
$SURFTAB2
 70
     6
  9
$SURFTYPE
 70
     6
  9
$SURFU
 70
     6
  9
$SURFV
 70
     6
  9
$UCSNAME
  2

  9
$UCSORG
 10
0.0
 20
0.0
 30
0.0
  9
$UCSXDIR
 10
1.0
 20
0.0
 30
0.0
  9
$UCSYDIR
 10
0.0
 20
1.0
 30
0.0
  9
$PUCSNAME
  2

  9
$PUCSORG
 10
0.0
 20
0.0
 30
0.0
  9
$PUCSXDIR
 10
1.0
 20
0.0
 30
0.0
  9
$PUCSYDIR
 10
0.0
 20
1.0
 30
0.0
  9
$USERI1
 70
     0
  9
$USERI2
 70
     0
  9
$USERI3
 70
     0
  9
$USERI4
 70
     0
  9
$USERI5
 70
     0
  9
$USERR1
 40
0.0
  9
$USERR2
 40
0.0
  9
$USERR3
 40
0.0
  9
$USERR4
 40
0.0
  9
$USERR5
 40
0.0
  9
$WORLDVIEW
 70
     1
  9
$SHADEDGE
 70
     3
  9
$SHADEDIF
 70
    70
  9
$TILEMODE
 70
     1
  9
$MAXACTVP
 70
    16
  9
$PLIMCHECK
 70
     0
  9
$PEXTMIN
 10
1.0000000000000000E+020
 20
1.0000000000000000E+020
 30
1.0000000000000000E+020
  9
$PEXTMAX
 10
-1.0000000000000000E+020
 20
-1.0000000000000000E+020
 30
-1.0000000000000000E+020
  9
$PLIMMIN
 10
-4.23333740234375
 20
-4.2333331108093262
  9
$PLIMMAX
 10
292.69265747070312
 20
205.7399945259094
  9
$UNITMODE
 70
     0
  9
$VISRETAIN
 70
     1
  9
$PLINEGEN
 70
     0
  9
$PSLTSCALE
 70
     1
  0
ENDSEC
  0
SECTION
  2
TABLES
  0
TABLE
  2
VPORT
 70
     1
  0
VPORT
  2
*ACTIVE
 70
     0
 10
0.0
 20
0.0
 11
1.0
 21
1.0
 12
115.23577511410581
 22
205.13715929756671
 13
0.0
 23
0.0
 14
1.0
 24
1.0
 15
0.0
 25
0.0
 16
0.0
 26
0.0
 36
1.0
 17
0.0
 27
0.0
 37
0.0
 40
269.3451187846278
 41
2.37391304347826
 42
50.0
 43
0.0
 44
0.0
 50
0.0
 51
0.0
 71
     0
 72
   100
 73
     1
 74
     0
 75
     0
 76
     0
 77
     0
 78
     0
  0
ENDTAB
  0
TABLE
  2
LTYPE
 70
    17
  0
LTYPE
  2
CONTINUOUS
 70
     0
  3
Solid line
 72
    65
 73
     0
 40
0.0
  0
LTYPE
  2
BYGG-014413$0$NEWDOT
 70
     0
  3
____ . ____ . ____ . ____ . ____ . ____ . ____
 72
    65
 73
     4
 40
2.0
 49
1.0
 49
-0.5
 49
0.0
 49
-0.5
  0
LTYPE
  2
BYGG-014413$0$ZIGZAG
 70
     0
  3
Zig zag /\/\/\/\/\/\/\/\/\/\/\/\/\/\/\/\/\/\/\/\/\/\/\/
 72
    65
 73
     4
 40
20.32254
 49
0.00254
 49
-5.0800000000000001
 49
-10.16
 49
-5.0800000000000001
  0
LTYPE
  2
BYGG-021556$0$DASHDOT
 70
     0
  3
__ . __ . __ . __ . __ . __ . __ . __ . __ . __
 72
    65
 73
     4
 40
1.0
 49
0.5
 49
-0.25
 49
0.0
 49
-0.25
  0
LTYPE
  2
BYGG-008943$0$DASHDOT
 70
     0
  3
__ . __ . __ . __ . __ . __ . __ . __ . __ . __
 72
    65
 73
     4
 40
1.0
 49
0.5
 49
-0.25
 49
0.0
 49
-0.25
  0
LTYPE
  2
BYGG-00894401$0$DASHDOT
 70
     0
  3
__ . __ . __ . __ . __ . __ . __ . __ . __ . __
 72
    65
 73
     4
 40
1.0
 49
0.5
 49
-0.25
 49
0.0
 49
-0.25
  0
LTYPE
  2
BYGG-025052$0$NEWDOT
 70
     0
  3
____ . ____ . ____ . ____ . ____ . ____ . ____
 72
    65
 73
     4
 40
2.0
 49
1.0
 49
-0.5
 49
0.0
 49
-0.5
  0
LTYPE
  2
BYGG-025052$0$DASHDOT
 70
     0
  3
__ . __ . __ . __ . __ . __ . __ . __ . __ . __
 72
    65
 73
     4
 40
1.0
 49
0.5
 49
-0.25
 49
0.0
 49
-0.25
  0
LTYPE
  2
BYGG-024817$0$NEWDOT
 70
     0
  3
____ . ____ . ____ . ____ . ____ . ____ . ____
 72
    65
 73
     4
 40
2.0
 49
1.0
 49
-0.5
 49
0.0
 49
-0.5
  0
LTYPE
  2
BYGG-021514$0$DASHDOT
 70
     0
  3
__ . __ . __ . __ . __ . __ . __ . __ . __ . __
 72
    65
 73
     4
 40
1.0
 49
0.5
 49
-0.25
 49
0.0
 49
-0.25
  0
LTYPE
  2
BYGG-025060$0$NEWDOT
 70
     0
  3
____ . ____ . ____ . ____ . ____ . ____ . ____
 72
    65
 73
     4
 40
2.0
 49
1.0
 49
-0.5
 49
0.0
 49
-0.5
  0
LTYPE
  2
BYGG-012216$0$DASHDOT
 70
     0
  3
__ . __ . __ . __ . __ . __ . __ . __ . __ . __
 72
    65
 73
     4
 40
1.0
 49
0.5
 49
-0.25
 49
0.0
 49
-0.25
  0
LTYPE
  2
BYGG-01443602$0$NEWDOT
 70
     0
  3
____ . ____ . ____ . ____ . ____ . ____ . ____
 72
    65
 73
     4
 40
2.0
 49
1.0
 49
-0.5
 49
0.0
 49
-0.5
  0
LTYPE
  2
BYGG-01443602$0$ZIGZAG
 70
     0
  3
Zig zag /\/\/\/\/\/\/\/\/\/\/\/\/\/\/\/\/\/\/\/\/\/\/\/
 72
    65
 73
     4
 40
20.32254
 49
0.00254
 49
-5.0800000000000001
 49
-10.16
 49
-5.0800000000000001
  0
LTYPE
  2
BYGG-014196$0$DASHDOT
 70
     0
  3
__ . __ . __ . __ . __ . __ . __ . __ . __ . __
 72
    65
 73
     4
 40
1.0
 49
0.5
 49
-0.25
 49
0.0
 49
-0.25
  0
LTYPE
  2
BYGG-024817$0$DASHDOT
 70
     0
  3
__ . __ . __ . __ . __ . __ . __ . __ . __ . __
 72
    65
 73
     4
 40
1.0
 49
0.5
 49
-0.25
 49
0.0
 49
-0.25
  0
LTYPE
  2
BYGG-025060$0$DASHDOT
 70
     0
  3
__ . __ . __ . __ . __ . __ . __ . __ . __ . __
 72
    65
 73
     4
 40
1.0
 49
0.5
 49
-0.25
 49
0.0
 49
-0.25
  0
ENDTAB
  0
TABLE
  2
LAYER
 70
   117
  0
LAYER
  2
0
 70
     0
 62
     7
  6
CONTINUOUS
  0
LAYER
  2
DEFPOINTS
 70
     0
 62
     7
  6
CONTINUOUS
  0
LAYER
  2
SAPA_ARTIKELNR
 70
     0
 62
     4
  6
CONTINUOUS
  0
LAYER
  2
SAPA_LIGHT
 70
     1
 62
     1
  6
CONTINUOUS
  0
LAYER
  2
SAPA_ANSLUTNING
 70
     0
 62
     6
  6
CONTINUOUS
  0
LAYER
  2
SAPA_FYLLNING
 70
     0
 62
     4
  6
CONTINUOUS
  0
LAYER
  2
SAPA_ISOLATOR
 70
     0
 62
     4
  6
CONTINUOUS
  0
LAYER
  2
SAPA_MATT
 70
     0
 62
     1
  6
CONTINUOUS
  0
LAYER
  2
SAPA_GLAS
 70
     0
 62
     4
  6
CONTINUOUS
  0
LAYER
  2
SAPA_FOGBAND
 70
     0
 62
     2
  6
CONTINUOUS
  0
LAYER
  2
SAPA_PROFIL
 70
     0
 62
     7
  6
CONTINUOUS
  0
ENDTAB
  0
TABLE
  2
STYLE
 70
    45
  0
STYLE
  2
STANDARD
 70
     0
 40
0.0
 41
1.0
 50
0.0
 71
     0
 42
0.2
  3
txt
  4

  0
STYLE
  2
ISO
 70
     0
 40
0.0
 41
1.0
 50
0.0
 71
     0
 42
5.0
  3
isocp3.shx
  4

  0
STYLE
  2

 70
     1
 40
0.0
 41
1.0
 50
0.0
 71
     0
 42
0.2
  3
ltypeshp.shx
  4

  0
STYLE
  2
BYGG-021409$0$STANDARD
 70
     0
 40
0.0
 41
1.0
 50
0.0
 71
     0
 42
0.2
  3
txt
  4

  0
STYLE
  2
BYGG-021409$0$ISO
 70
     0
 40
0.0
 41
1.0
 50
0.0
 71
     0
 42
3.5
  3
txt
  4

  0
STYLE
  2
BYGG-014413$0$STANDARD
 70
     0
 40
0.0
 41
1.0
 50
0.0
 71
     0
 42
0.2
  3
txt
  4

  0
STYLE
  2
BYGG-014413$0$ISO
 70
     0
 40
0.0
 41
1.0
 50
0.0
 71
     0
 42
3.5
  3
isocp3.shx
  4

  0
STYLE
  2
BYGG-021556$0$STANDARD
 70
     0
 40
0.0
 41
1.0
 50
0.0
 71
     0
 42
0.2
  3
txt
  4

  0
STYLE
  2
BYGG-021556$0$ISO
 70
     0
 40
0.0
 41
1.0
 50
0.0
 71
     0
 42
7.0
  3
ISO
  4

  0
STYLE
  2
BYGG-008943$0$STANDARD
 70
     0
 40
0.0
 41
1.0
 50
0.0
 71
     0
 42
0.2
  3
txt
  4

  0
STYLE
  2
BYGG-008943$0$ISO
 70
     0
 40
0.0
 41
1.0
 50
0.0
 71
     0
 42
3.5
  3
txt
  4

  0
STYLE
  2
BYGG-008943$0$CONVERTER_2
 70
     0
 40
0.0
 41
0.72
 50
0.0
 71
     0
 42
0.2
  3
txt.shx
  4

  0
STYLE
  2
BYGG-008943$0$ANNOTATIVE
 70
     0
 40
0.0
 41
1.0
 50
0.0
 71
     0
 42
0.2
  3
txt
  4

  0
STYLE
  2
BYGG-021764$0$STANDARD
 70
     0
 40
0.0
 41
1.0
 50
0.0
 71
     0
 42
0.2
  3
txt
  4

  0
STYLE
  2
BYGG-021764$0$ISO
 70
     0
 40
0.0
 41
1.0
 50
0.0
 71
     0
 42
3.5
  3
txt
  4

  0
STYLE
  2
BYGG-00894401$0$STANDARD
 70
     0
 40
0.0
 41
1.0
 50
0.0
 71
     0
 42
0.2
  3
txt
  4

  0
STYLE
  2
BYGG-00894401$0$ISO
 70
     0
 40
0.0
 41
1.0
 50
0.0
 71
     0
 42
3.5
  3
txt
  4

  0
STYLE
  2
BYGG-00894401$0$CONVERTER_
 70
     0
 40
0.0
 41
0.72
 50
0.0
 71
     0
 42
0.2
  3
txt.shx
  4

  0
STYLE
  2
BYGG-00894401$0$ANNOTATIVE
 70
     0
 40
0.0
 41
1.0
 50
0.0
 71
     0
 42
0.2
  3
txt
  4

  0
STYLE
  2
BYGG-025186$0$STANDARD
 70
     0
 40
0.0
 41
1.0
 50
0.0
 71
     0
 42
0.2
  3
txt
  4

  0
STYLE
  2
BYGG-025186$0$ISO
 70
     0
 40
0.0
 41
1.0
 50
0.0
 71
     0
 42
3.5
  3
txt
  4

  0
STYLE
  2
BYGG-025052$0$STANDARD
 70
     0
 40
0.0
 41
1.0
 50
0.0
 71
     0
 42
0.2
  3
txt
  4

  0
STYLE
  2
BYGG-025052$0$ISO
 70
     0
 40
0.0
 41
1.0
 50
0.0
 71
     0
 42
3.5
  3
txt
  4

  0
STYLE
  2
BYGG-024973$0$STANDARD
 70
     0
 40
0.0
 41
1.0
 50
0.0
 71
     0
 42
0.2
  3
txt
  4

  0
STYLE
  2
BYGG-024973$0$ISO
 70
     0
 40
0.0
 41
1.0
 50
0.0
 71
     0
 42
3.5
  3
txt
  4

  0
STYLE
  2
BYGG-024817$0$STANDARD
 70
     0
 40
0.0
 41
1.0
 50
0.0
 71
     0
 42
0.2
  3
txt
  4

  0
STYLE
  2
BYGG-024817$0$ISO
 70
     0
 40
0.0
 41
1.0
 50
0.0
 71
     0
 42
3.5
  3
txt
  4

  0
STYLE
  2
BYGG-014090$0$STANDARD
 70
     0
 40
0.0
 41
1.0
 50
0.0
 71
     0
 42
0.2
  3
txt
  4

  0
STYLE
  2
BYGG-015465$0$STANDARD
 70
     0
 40
0.0
 41
1.0
 50
0.0
 71
     0
 42
0.2
  3
txt
  4

  0
STYLE
  2
BYGG-015465$0$ISO
 70
     0
 40
0.0
 41
1.0
 50
0.0
 71
     0
 42
3.5
  3
txt
  4

  0
STYLE
  2
BYGG-01443301$0$STANDARD
 70
     0
 40
0.0
 41
1.0
 50
0.0
 71
     0
 42
0.2
  3
txt
  4

  0
STYLE
  2
BYGG-01443301$0$ISO
 70
     0
 40
0.0
 41
1.0
 50
0.0
 71
     0
 42
3.5
  3
isocp3.shx
  4

  0
STYLE
  2
BYGG-021514$0$STANDARD
 70
     0
 40
0.0
 41
1.0
 50
0.0
 71
     0
 42
0.2
  3
txt
  4

  0
STYLE
  2
BYGG-021514$0$ISO
 70
     0
 40
0.0
 41
1.0
 50
0.0
 71
     0
 42
7.0
  3
ISO
  4

  0
STYLE
  2
BYGG-025060$0$STANDARD
 70
     0
 40
0.0
 41
1.0
 50
0.0
 71
     0
 42
0.2
  3
txt
  4

  0
STYLE
  2
BYGG-025060$0$ISO
 70
     0
 40
0.0
 41
1.0
 50
0.0
 71
     0
 42
3.5
  3
txt
  4

  0
STYLE
  2
BYGG-012216$0$STANDARD
 70
     0
 40
0.0
 41
1.0
 50
0.0
 71
     0
 42
0.2
  3
txt
  4

  0
STYLE
  2
BYGG-012216$0$ISO
 70
     0
 40
0.0
 41
1.0
 50
0.0
 71
     0
 42
3.5
  3
txt
  4

  0
STYLE
  2
BYGG-019373$0$STANDARD
 70
     0
 40
0.0
 41
1.0
 50
0.0
 71
     0
 42
0.2
  3
txt
  4

  0
STYLE
  2
BYGG-019373$0$ISO
 70
     0
 40
0.0
 41
1.0
 50
0.0
 71
     0
 42
3.5
  3
txt
  4

  0
STYLE
  2
BYGG-01443602$0$STANDARD
 70
     0
 40
0.0
 41
1.0
 50
0.0
 71
     0
 42
0.2
  3
txt
  4

  0
STYLE
  2
BYGG-01443602$0$ISO
 70
     0
 40
0.0
 41
1.0
 50
0.0
 71
     0
 42
3.5
  3
isocp3.shx
  4

  0
STYLE
  2
BYGG-021358$0$STANDARD
 70
     0
 40
0.0
 41
1.0
 50
0.0
 71
     0
 42
0.2
  3
txt
  4

  0
STYLE
  2
BYGG-014196$0$STANDARD
 70
     0
 40
0.0
 41
1.0
 50
0.0
 71
     0
 42
0.2
  3
txt
  4

  0
STYLE
  2
BYGG-014196$0$ISO
 70
     0
 40
0.0
 41
1.0
 50
0.0
 71
     0
 42
3.5
  3
isocp3.shx
  4

  0
ENDTAB
  0
TABLE
  2
VIEW
 70
     0
  0
ENDTAB
  0
TABLE
  2
UCS
 70
     0
  0
ENDTAB
  0
TABLE
  2
APPID
 70
    25
  0
APPID
  2
ACAD
 70
     0
  0
APPID
  2
ACAD_PSEXT
 70
     0
  0
APPID
  2
ACAECLAYERSTANDARD
 70
     0
  0
APPID
  2
ACAD_MLEADERVER
 70
     0
  0
APPID
  2
ACAD_DSTYLE_DIMJAG
 70
     0
  0
APPID
  2
ACAD_DSTYLE_DIMTALN
 70
     0
  0
APPID
  2
ACDBDYNAMICBLOCKGUID
 70
     0
  0
APPID
  2
ACDBBLOCKREPETAG
 70
     0
  0
APPID
  2
ACAD_DSTYLE_DIMJOGGED_JOGA
 70
     0
  0
APPID
  2
ACAD_EXEMPT_FROM_CAD_STANDARDS
 70
     0
  0
APPID
  2
ACAD_DSTYLE_DIMTEXT_FILL
 70
     0
  0
APPID
  2
ACAD_DSTYLE_DIMEXT_LENGTH
 70
     0
  0
APPID
  2
ACAD_DSTYLE_DIMEXT_ENABLED
 70
     0
  0
APPID
  2
ACAD_DSTYLE_DIM_LINETYPE
 70
     0
  0
APPID
  2
ACAD_DSTYLE_DIM_EXT1_LINETYPE
 70
     0
  0
APPID
  2
ACAD_DSTYLE_DIM_EXT2_LINETYPE
 70
     0
  0
APPID
  2
ACAD_DSTYLE_DIMARC_LENGTH_
 70
     0
  0
APPID
  2
ACADANNOTATIVE
 70
     0
  0
APPID
  2
AMG_ARCHIVE11
 70
     0
  0
APPID
  2
RC_PROFILE
 70
     0
  0
APPID
  2
ACAD_DSTYLE_DIMRADIAL_EXTENSION
 70
     0
  0
APPID
  2
DCO15
 70
     0
  0
APPID
  2
ACAD_NAV_VCDISPLAY
 70
     0
  0
APPID
  2
AEC_XDATA_BOUND_SPACE
 70
     0
  0
APPID
  2
ACCMTRANSPARENCY
 70
     0
  0
ENDTAB
  0
TABLE
  2
DIMSTYLE
 70
    37
  0
DIMSTYLE
  2
MASKIN
 70
     0
  3

  4

  5

  6

  7

 40
0.0
 41
3.0
 42
1.5
 43
10.0
 44
1.5
 45
0.0
 46
0.0
 47
0.0
 48
0.0
140
3.5
141
-5.0
142
0.0
143
25.399999999999999
144
-1.0
145
0.0
146
1.0
147
1.0
 71
     0
 72
     0
 73
     0
 74
     1
 75
     0
 76
     0
 77
     1
 78
     8
170
     0
171
     0
172
     1
173
     0
174
     0
175
     0
176
   256
177
   256
178
     2
  0
DIMSTYLE
  2
BYGG-021409$0$STANDARD
 70
     0
  3

  4

  5

  6

  7

 40
1.0
 41
0.18
 42
0.0625
 43
0.38
 44
0.18
 45
0.0
 46
0.0
 47
0.0
 48
0.0
140
0.18
141
0.09
142
0.0
143
25.399999999999999
144
1.0
145
0.0
146
1.0
147
0.09
 71
     0
 72
     0
 73
     1
 74
     1
 75
     0
 76
     0
 77
     0
 78
     0
170
     0
171
     2
172
     0
173
     0
174
     0
175
     0
176
     0
177
     0
178
     0
  0
DIMSTYLE
  2
BYGG-021409$0$MASKIN
 70
     0
  3

  4

  5

  6

  7

 40
0.0
 41
3.0
 42
1.5
 43
10.0
 44
1.5
 45
0.0
 46
0.0
 47
0.0
 48
0.0
140
3.0
141
-5.0
142
0.0
143
25.399999999999999
144
-1.0
145
0.0
146
1.0
147
1.0
 71
     0
 72
     0
 73
     0
 74
     0
 75
     0
 76
     0
 77
     1
 78
     8
170
     0
171
     0
172
     1
173
     0
174
     0
175
     0
176
   256
177
   256
178
     2
  0
DIMSTYLE
  2
BYGG-021409$0$MASKINX
 70
     0
  3

  4

  5

  6

  7

 40
0.0
 41
3.0
 42
1.5
 43
10.0
 44
1.5
 45
0.0
 46
0.0
 47
0.0
 48
0.0
140
3.0
141
-5.0
142
0.0
143
25.399999999999999
144
-1.0
145
0.0
146
1.0
147
1.0
 71
     0
 72
     0
 73
     0
 74
     0
 75
     0
 76
     0
 77
     1
 78
     8
170
     0
171
     0
172
     1
173
     0
174
     0
175
     0
176
   256
177
   256
178
   256
  0
DIMSTYLE
  2
BYGG-014413$0$MASKIN
 70
     0
  3

  4

  5

  6

  7

 40
0.0
 41
3.0
 42
1.5
 43
10.0
 44
1.5
 45
0.0
 46
0.0
 47
0.0
 48
0.0
140
3.0
141
-5.0
142
0.0
143
25.399999999999999
144
-1.0
145
0.0
146
1.0
147
1.0
 71
     0
 72
     0
 73
     0
 74
     0
 75
     0
 76
     0
 77
     1
 78
     8
170
     0
171
     0
172
     1
173
     0
174
     0
175
     0
176
   256
177
   256
178
   256
  0
DIMSTYLE
  2
BYGG-014413$0$STANDARD
 70
     0
  3

  4

  5

  6

  7

 40
1.0
 41
0.18
 42
0.0625
 43
0.38
 44
0.18
 45
0.0
 46
0.0
 47
0.0
 48
0.0
140
0.18
141
0.09
142
0.0
143
25.399999999999999
144
1.0
145
0.0
146
1.0
147
0.09
 71
     0
 72
     0
 73
     1
 74
     1
 75
     0
 76
     0
 77
     0
 78
     0
170
     0
171
     2
172
     0
173
     0
174
     0
175
     0
176
     0
177
     0
178
     0
  0
DIMSTYLE
  2
BYGG-021556$0$MASKIN
 70
     0
  3

  4

  5

  6

  7

 40
1.0
 41
3.0
 42
1.5
 43
10.0
 44
1.5
 45
0.0
 46
0.0
 47
0.0
 48
0.0
140
3.0
141
-5.0
142
0.0
143
25.399999999999999
144
1.0
145
0.0
146
1.0
147
0.09
 71
     0
 72
     0
 73
     0
 74
     0
 75
     0
 76
     0
 77
     1
 78
     8
170
     0
171
     0
172
     0
173
     0
174
     0
175
     0
176
   256
177
   256
178
   256
  0
DIMSTYLE
  2
BYGG-008943$0$MASKIN
 70
     0
  3

  4

  5

  6

  7

 40
0.0
 41
3.0
 42
1.5
 43
10.0
 44
1.5
 45
0.0
 46
0.0
 47
0.0
 48
0.0
140
3.0
141
-5.0
142
0.0
143
25.399999999999999
144
-1.0
145
0.0
146
1.0
147
1.0
 71
     0
 72
     0
 73
     0
 74
     0
 75
     0
 76
     0
 77
     1
 78
     8
170
     0
171
     0
172
     1
173
     0
174
     0
175
     0
176
   256
177
   256
178
     2
  0
DIMSTYLE
  2
BYGG-008943$0$STANDARD
 70
     0
  3

  4

  5

  6

  7

 40
1.0
 41
0.18
 42
0.0625
 43
0.38
 44
0.18
 45
0.0
 46
0.0
 47
0.0
 48
0.0
140
0.18
141
0.09
142
0.0
143
25.399999999999999
144
1.0
145
0.0
146
1.0
147
0.09
 71
     0
 72
     0
 73
     1
 74
     1
 75
     0
 76
     0
 77
     0
 78
     0
170
     0
171
     2
172
     0
173
     0
174
     0
175
     0
176
     0
177
     0
178
     0
  0
DIMSTYLE
  2
BYGG-008943$0$ANNOTATIVE
 70
     0
  3

  4

  5

  6

  7

 40
1.0
 41
0.18
 42
0.0625
 43
0.38
 44
0.18
 45
0.0
 46
0.0
 47
0.0
 48
0.0
140
0.18
141
0.09
142
0.0
143
25.399999999999999
144
1.0
145
0.0
146
1.0
147
0.09
 71
     0
 72
     0
 73
     1
 74
     1
 75
     0
 76
     0
 77
     0
 78
     0
170
     0
171
     2
172
     0
173
     0
174
     0
175
     0
176
     0
177
     0
178
     0
  0
DIMSTYLE
  2
BYGG-021764$0$STANDARD
 70
     0
  3

  4

  5

  6

  7

 40
1.0
 41
0.18
 42
0.0625
 43
0.38
 44
0.18
 45
0.0
 46
0.0
 47
0.0
 48
0.0
140
0.18
141
0.09
142
0.0
143
25.399999999999999
144
1.0
145
0.0
146
1.0
147
0.09
 71
     0
 72
     0
 73
     1
 74
     1
 75
     0
 76
     0
 77
     0
 78
     0
170
     0
171
     2
172
     0
173
     0
174
     0
175
     0
176
     0
177
     0
178
     0
  0
DIMSTYLE
  2
BYGG-021764$0$MASKIN
 70
     0
  3

  4

  5

  6

  7

 40
0.0
 41
3.0
 42
1.5
 43
10.0
 44
1.5
 45
0.0
 46
0.0
 47
0.0
 48
0.0
140
3.0
141
-5.0
142
0.0
143
25.399999999999999
144
-1.0
145
0.0
146
1.0
147
1.0
 71
     0
 72
     0
 73
     0
 74
     0
 75
     0
 76
     0
 77
     1
 78
     8
170
     0
171
     0
172
     1
173
     0
174
     0
175
     0
176
   256
177
   256
178
     2
  0
DIMSTYLE
  2
BYGG-00894401$0$MASKIN
 70
     0
  3

  4

  5

  6

  7

 40
0.0
 41
3.0
 42
1.5
 43
10.0
 44
1.5
 45
0.0
 46
0.0
 47
0.0
 48
0.0
140
3.0
141
-5.0
142
0.0
143
25.399999999999999
144
-1.0
145
0.0
146
1.0
147
1.0
 71
     0
 72
     0
 73
     0
 74
     0
 75
     0
 76
     0
 77
     1
 78
     8
170
     0
171
     0
172
     1
173
     0
174
     0
175
     0
176
   256
177
   256
178
     2
  0
DIMSTYLE
  2
BYGG-00894401$0$STANDARD
 70
     0
  3

  4

  5

  6

  7

 40
1.0
 41
0.18
 42
0.0625
 43
0.38
 44
0.18
 45
0.0
 46
0.0
 47
0.0
 48
0.0
140
0.18
141
0.09
142
0.0
143
25.399999999999999
144
1.0
145
0.0
146
1.0
147
0.09
 71
     0
 72
     0
 73
     1
 74
     1
 75
     0
 76
     0
 77
     0
 78
     0
170
     0
171
     2
172
     0
173
     0
174
     0
175
     0
176
     0
177
     0
178
     0
  0
DIMSTYLE
  2
BYGG-00894401$0$ANNOTATIVE
 70
     0
  3

  4

  5

  6

  7

 40
1.0
 41
0.18
 42
0.0625
 43
0.38
 44
0.18
 45
0.0
 46
0.0
 47
0.0
 48
0.0
140
0.18
141
0.09
142
0.0
143
25.399999999999999
144
1.0
145
0.0
146
1.0
147
0.09
 71
     0
 72
     0
 73
     1
 74
     1
 75
     0
 76
     0
 77
     0
 78
     0
170
     0
171
     2
172
     0
173
     0
174
     0
175
     0
176
     0
177
     0
178
     0
  0
DIMSTYLE
  2
BYGG-025186$0$MASKIN
 70
     0
  3

  4

  5

  6

  7

 40
0.0
 41
3.0
 42
1.5
 43
10.0
 44
1.5
 45
0.0
 46
0.0
 47
0.0
 48
0.0
140
3.0
141
-5.0
142
0.0
143
25.399999999999999
144
-1.0
145
0.0
146
1.0
147
1.0
 71
     0
 72
     0
 73
     0
 74
     0
 75
     0
 76
     0
 77
     1
 78
     8
170
     0
171
     0
172
     1
173
     0
174
     0
175
     0
176
   256
177
   256
178
     2
  0
DIMSTYLE
  2
BYGG-025052$0$MASKIN
 70
     0
  3

  4

  5

  6

  7

 40
0.0
 41
3.0
 42
1.5
 43
10.0
 44
1.5
 45
0.0
 46
0.0
 47
0.0
 48
0.0
140
3.0
141
-5.0
142
0.0
143
25.399999999999999
144
-1.0
145
0.0
146
1.0
147
1.0
 71
     0
 72
     0
 73
     0
 74
     0
 75
     0
 76
     0
 77
     1
 78
     8
170
     0
171
     0
172
     1
173
     0
174
     0
175
     0
176
   256
177
   256
178
     2
  0
DIMSTYLE
  2
BYGG-025052$0$STANDARD
 70
     0
  3

  4

  5

  6

  7

 40
1.0
 41
0.18
 42
0.0625
 43
0.38
 44
0.18
 45
0.0
 46
0.0
 47
0.0
 48
0.0
140
0.18
141
0.09
142
0.0
143
25.399999999999999
144
1.0
145
0.0
146
1.0
147
0.09
 71
     0
 72
     0
 73
     1
 74
     1
 75
     0
 76
     0
 77
     0
 78
     0
170
     0
171
     2
172
     0
173
     0
174
     0
175
     0
176
     0
177
     0
178
     0
  0
DIMSTYLE
  2
BYGG-024973$0$STANDARD
 70
     0
  3

  4

  5

  6

  7

 40
1.0
 41
0.18
 42
0.0625
 43
0.38
 44
0.18
 45
0.0
 46
0.0
 47
0.0
 48
0.0
140
0.18
141
0.09
142
0.0
143
25.399999999999999
144
1.0
145
0.0
146
1.0
147
0.09
 71
     0
 72
     0
 73
     1
 74
     1
 75
     0
 76
     0
 77
     0
 78
     0
170
     0
171
     2
172
     0
173
     0
174
     0
175
     0
176
     0
177
     0
178
     0
  0
DIMSTYLE
  2
BYGG-024973$0$MASKIN
 70
     0
  3

  4

  5

  6

  7

 40
0.0
 41
3.0
 42
1.5
 43
10.0
 44
1.5
 45
0.0
 46
0.0
 47
0.0
 48
0.0
140
3.0
141
-5.0
142
0.0
143
25.399999999999999
144
-1.0
145
0.0
146
1.0
147
1.0
 71
     0
 72
     0
 73
     0
 74
     0
 75
     0
 76
     0
 77
     1
 78
     8
170
     0
171
     0
172
     1
173
     0
174
     0
175
     0
176
   256
177
   256
178
     2
  0
DIMSTYLE
  2
BYGG-024817$0$MASKIN
 70
     0
  3

  4

  5

  6

  7

 40
0.0
 41
3.0
 42
1.5
 43
10.0
 44
1.5
 45
0.0
 46
0.0
 47
0.0
 48
0.0
140
3.0
141
-5.0
142
0.0
143
25.399999999999999
144
-1.0
145
0.0
146
1.0
147
1.0
 71
     0
 72
     0
 73
     0
 74
     0
 75
     0
 76
     0
 77
     1
 78
     8
170
     0
171
     0
172
     1
173
     0
174
     0
175
     0
176
   256
177
   256
178
     2
  0
DIMSTYLE
  2
BYGG-024817$0$STANDARD
 70
     0
  3

  4

  5

  6

  7

 40
1.0
 41
0.18
 42
0.0625
 43
0.38
 44
0.18
 45
0.0
 46
0.0
 47
0.0
 48
0.0
140
0.18
141
0.09
142
0.0
143
25.399999999999999
144
1.0
145
0.0
146
1.0
147
0.09
 71
     0
 72
     0
 73
     1
 74
     1
 75
     0
 76
     0
 77
     0
 78
     0
170
     0
171
     2
172
     0
173
     0
174
     0
175
     0
176
     0
177
     0
178
     0
  0
DIMSTYLE
  2
BYGG-014090$0$STANDARD
 70
     0
  3

  4

  5

  6

  7

 40
1.0
 41
0.18
 42
0.0625
 43
0.38
 44
0.18
 45
0.0
 46
0.0
 47
0.0
 48
0.0
140
0.18
141
0.09
142
0.0
143
25.399999999999999
144
1.0
145
0.0
146
1.0
147
0.09
 71
     0
 72
     0
 73
     1
 74
     1
 75
     0
 76
     0
 77
     0
 78
     0
170
     0
171
     2
172
     0
173
     0
174
     0
175
     0
176
     0
177
     0
178
     0
  0
DIMSTYLE
  2
BYGG-015465$0$STANDARD
 70
     0
  3

  4

  5

  6

  7

 40
1.0
 41
0.18
 42
0.0625
 43
0.38
 44
0.18
 45
0.0
 46
0.0
 47
0.0
 48
0.0
140
0.18
141
0.09
142
0.0
143
25.399999999999999
144
1.0
145
0.0
146
1.0
147
0.09
 71
     0
 72
     0
 73
     1
 74
     1
 75
     0
 76
     0
 77
     0
 78
     0
170
     0
171
     2
172
     0
173
     0
174
     0
175
     0
176
     0
177
     0
178
     0
  0
DIMSTYLE
  2
BYGG-015465$0$MASKIN
 70
     0
  3

  4

  5

  6

  7

 40
0.0
 41
3.0
 42
1.5
 43
10.0
 44
1.5
 45
0.0
 46
0.0
 47
0.0
 48
0.0
140
3.0
141
-5.0
142
0.0
143
25.399999999999999
144
-1.0
145
0.0
146
1.0
147
1.0
 71
     0
 72
     0
 73
     0
 74
     0
 75
     0
 76
     0
 77
     1
 78
     8
170
     0
171
     0
172
     1
173
     0
174
     0
175
     0
176
   256
177
   256
178
     2
  0
DIMSTYLE
  2
BYGG-01443301$0$MASKIN
 70
     0
  3

  4

  5

  6

  7

 40
0.0
 41
3.0
 42
1.5
 43
10.0
 44
1.5
 45
0.0
 46
0.0
 47
0.0
 48
0.0
140
3.0
141
-5.0
142
0.0
143
25.399999999999999
144
-1.0
145
0.0
146
1.0
147
1.0
 71
     0
 72
     0
 73
     0
 74
     0
 75
     0
 76
     0
 77
     1
 78
     8
170
     0
171
     0
172
     1
173
     0
174
     0
175
     0
176
   256
177
   256
178
   256
  0
DIMSTYLE
  2
BYGG-021514$0$STANDARD
 70
     0
  3

  4

  5

  6

  7

 40
1.0
 41
0.18
 42
0.0625
 43
0.38
 44
0.18
 45
0.0
 46
0.0
 47
0.0
 48
0.0
140
0.18
141
0.09
142
0.0
143
25.399999999999999
144
1.0
145
0.0
146
1.0
147
0.09
 71
     0
 72
     0
 73
     1
 74
     1
 75
     0
 76
     0
 77
     0
 78
     0
170
     0
171
     2
172
     0
173
     0
174
     0
175
     0
176
     0
177
     0
178
     0
  0
DIMSTYLE
  2
BYGG-021514$0$MASKIN
 70
     0
  3

  4

  5

  6

  7

 40
0.0
 41
3.0
 42
1.5
 43
10.0
 44
1.5
 45
0.0
 46
0.0
 47
0.0
 48
0.0
140
3.0
141
-5.0
142
0.0
143
25.399999999999999
144
-1.0
145
0.0
146
1.0
147
1.0
 71
     0
 72
     0
 73
     0
 74
     1
 75
     0
 76
     0
 77
     1
 78
     8
170
     0
171
     0
172
     1
173
     0
174
     0
175
     0
176
   256
177
   256
178
     2
  0
DIMSTYLE
  2
BYGG-025060$0$MASKIN
 70
     0
  3

  4

  5

  6

  7

 40
0.0
 41
3.0
 42
1.5
 43
10.0
 44
1.5
 45
0.0
 46
0.0
 47
0.0
 48
0.0
140
3.0
141
-5.0
142
0.0
143
25.399999999999999
144
-1.0
145
0.0
146
1.0
147
1.0
 71
     0
 72
     0
 73
     0
 74
     0
 75
     0
 76
     0
 77
     1
 78
     8
170
     0
171
     0
172
     1
173
     0
174
     0
175
     0
176
   256
177
   256
178
     2
  0
DIMSTYLE
  2
BYGG-025060$0$STANDARD
 70
     0
  3

  4

  5

  6

  7

 40
1.0
 41
0.18
 42
0.0625
 43
0.38
 44
0.18
 45
0.0
 46
0.0
 47
0.0
 48
0.0
140
0.18
141
0.09
142
0.0
143
25.399999999999999
144
1.0
145
0.0
146
1.0
147
0.09
 71
     0
 72
     0
 73
     1
 74
     1
 75
     0
 76
     0
 77
     0
 78
     0
170
     0
171
     2
172
     0
173
     0
174
     0
175
     0
176
     0
177
     0
178
     0
  0
DIMSTYLE
  2
BYGG-012216$0$MASKIN
 70
     0
  3

  4

  5

  6

  7

 40
0.0
 41
3.0
 42
1.5
 43
10.0
 44
1.5
 45
0.0
 46
0.0
 47
0.0
 48
0.0
140
3.0
141
-5.0
142
0.0
143
25.399999999999999
144
-1.0
145
0.0
146
1.0
147
1.0
 71
     0
 72
     0
 73
     0
 74
     0
 75
     0
 76
     0
 77
     1
 78
     8
170
     0
171
     0
172
     1
173
     0
174
     0
175
     0
176
   256
177
   256
178
     2
  0
DIMSTYLE
  2
BYGG-012216$0$STANDARD
 70
     0
  3

  4

  5

  6

  7

 40
1.0
 41
0.18
 42
0.0625
 43
0.38
 44
0.18
 45
0.0
 46
0.0
 47
0.0
 48
0.0
140
0.18
141
0.09
142
0.0
143
25.399999999999999
144
1.0
145
0.0
146
1.0
147
0.09
 71
     0
 72
     0
 73
     1
 74
     1
 75
     0
 76
     0
 77
     0
 78
     0
170
     0
171
     2
172
     0
173
     0
174
     0
175
     0
176
     0
177
     0
178
     0
  0
DIMSTYLE
  2
BYGG-019373$0$MASKIN
 70
     0
  3

  4

  5

  6

  7

 40
0.0
 41
3.0
 42
1.5
 43
10.0
 44
1.5
 45
0.0
 46
0.0
 47
0.0
 48
0.0
140
3.0
141
-5.0
142
0.0
143
25.399999999999999
144
-1.0
145
0.0
146
1.0
147
1.0
 71
     0
 72
     0
 73
     0
 74
     0
 75
     0
 76
     0
 77
     1
 78
     8
170
     0
171
     0
172
     1
173
     0
174
     0
175
     0
176
   256
177
   256
178
     2
  0
DIMSTYLE
  2
BYGG-01443602$0$MASKIN
 70
     0
  3

  4

  5

  6

  7

 40
0.0
 41
3.0
 42
1.5
 43
10.0
 44
1.5
 45
0.0
 46
0.0
 47
0.0
 48
0.0
140
3.0
141
-5.0
142
0.0
143
25.399999999999999
144
-1.0
145
0.0
146
1.0
147
1.0
 71
     0
 72
     0
 73
     0
 74
     0
 75
     0
 76
     0
 77
     1
 78
     8
170
     0
171
     0
172
     1
173
     0
174
     0
175
     0
176
   256
177
   256
178
   256
  0
DIMSTYLE
  2
BYGG-01443602$0$STANDARD
 70
     0
  3

  4

  5

  6

  7

 40
1.0
 41
0.18
 42
0.0625
 43
0.38
 44
0.18
 45
0.0
 46
0.0
 47
0.0
 48
0.0
140
0.18
141
0.09
142
0.0
143
25.399999999999999
144
1.0
145
0.0
146
1.0
147
0.09
 71
     0
 72
     0
 73
     1
 74
     1
 75
     0
 76
     0
 77
     0
 78
     0
170
     0
171
     2
172
     0
173
     0
174
     0
175
     0
176
     0
177
     0
178
     0
  0
DIMSTYLE
  2
BYGG-021358$0$STANDARD
 70
     0
  3

  4

  5

  6

  7

 40
1.0
 41
0.18
 42
0.0625
 43
0.38
 44
0.18
 45
0.0
 46
0.0
 47
0.0
 48
0.0
140
0.18
141
0.09
142
0.0
143
25.399999999999999
144
1.0
145
0.0
146
1.0
147
0.09
 71
     0
 72
     0
 73
     1
 74
     1
 75
     0
 76
     0
 77
     0
 78
     0
170
     0
171
     2
172
     0
173
     0
174
     0
175
     0
176
     0
177
     0
178
     0
  0
DIMSTYLE
  2
BYGG-014196$0$MASKIN
 70
     0
  3

  4

  5

  6

  7

 40
0.0
 41
3.0
 42
1.5
 43
10.0
 44
1.5
 45
0.0
 46
0.0
 47
0.0
 48
0.0
140
3.0
141
-5.0
142
0.0
143
25.399999999999999
144
-1.0
145
0.0
146
1.0
147
1.0
 71
     0
 72
     0
 73
     0
 74
     0
 75
     0
 76
     0
 77
     1
 78
     8
170
     0
171
     0
172
     1
173
     0
174
     0
175
     0
176
   256
177
   256
178
   256
  0
ENDTAB
  0
ENDSEC
  0
SECTION
  2
BLOCKS
  0
BLOCK
  8
0
  2
$MODEL_SPACE
 70
     0
 10
0.0
 20
0.0
 30
0.0
  3
$MODEL_SPACE
  1

  0
ENDBLK
  5
D
  8
0
  0
BLOCK
 67
     1
  8
0
  2
$PAPER_SPACE
 70
     0
 10
0.0
 20
0.0
 30
0.0
  3
$PAPER_SPACE
  1

  0
ENDBLK
  5
12
 67
     1
  8
0
  0
BLOCK
  8
0
  2
*D93
 70
     1
 10
0.0
 20
0.0
 30
0.0
  3
*D93
  1

  0
LINE
  5
10CA
  8
SAPA_MATT
 10
12.80000009361556
 20
164.9999999961542
 30
0.0000000048844204
 11
-7.4999999188111213
 21
164.9999999961542
 31
0.0000000048844204
  0
LINE
  5
10CB
  8
SAPA_MATT
 10
13.500000087350699
 20
49.999999995807478
 30
0.0000000048844204
 11
-7.4999999188111479
 21
49.999999995807478
 31
0.0000000048844204
  0
LINE
  5
10CC
  8
SAPA_MATT
 10
-5.999999918811123
 20
161.9999999961542
 30
0.0000000048844204
 11
-5.999999918811147
 21
52.999999995807478
 31
0.0000000048844204
  0
SOLID
  5
10CD
  8
SAPA_MATT
 10
-6.499999918811123
 20
161.9999999961542
 30
0.0000000048844204
 11
-5.499999918811123
 21
161.9999999961542
 31
0.0000000048844204
 12
-5.999999918811123
 22
164.9999999961542
 32
0.0000000048844204
 13
-5.999999918811123
 23
164.9999999961542
 33
0.0000000048844204
  0
SOLID
  5
10CE
  8
SAPA_MATT
 10
-6.499999918811147
 20
52.999999995807478
 30
0.0000000048844204
 11
-5.499999918811147
 21
52.999999995807478
 31
0.0000000048844204
 12
-5.9999999188111479
 22
49.999999995807478
 32
0.0000000048844204
 13
-5.9999999188111479
 23
49.999999995807478
 33
0.0000000048844204
  0
INSERT
  5
10CF
  8
0
  2
*U122
 10
0.0
 20
0.0
 30
0.0
  0
POINT
  5
10D0
  8
DEFPOINTS
 62
     0
 10
14.30000009361556
 20
164.9999999961542
 30
0.0
  0
POINT
  5
10D1
  8
DEFPOINTS
 62
     0
 10
15.000000087350699
 20
49.999999995807478
 30
0.0
  0
POINT
  5
10D2
  8
DEFPOINTS
 62
     0
 10
-5.9999999188111479
 20
49.999999995807478
 30
0.0000000048844204
  0
ENDBLK
  5
1068
  8
0
  0
BLOCK
  8
0
  2
*D94
 70
     1
 10
0.0
 20
0.0
 30
0.0
  3
*D94
  1

  0
LINE
  5
10BF
  8
SAPA_MATT
 10
13.500000087350699
 20
49.999999995807478
 30
0.0000000048844204
 11
-7.4999999188111479
 21
49.999999995807478
 31
0.0000000048844204
  0
LINE
  5
10C0
  8
SAPA_MATT
 10
14.49999845920634
 20
45.000000000000078
 30
0.0000000048844204
 11
-7.4999999188111488
 21
45.000000000000078
 31
0.0000000048844204
  0
LINE
  5
10C1
  8
SAPA_MATT
 10
-5.999999918811147
 20
52.999999995807478
 30
0.0000000048844204
 11
-5.9999999188111461
 21
55.999999995807492
 31
0.0000000048844204
  0
LINE
  5
10C2
  8
SAPA_MATT
 10
-5.9999999188111479
 20
42.000000000000092
 30
0.0000000048844204
 11
-5.9999999188111488
 21
39.000000000000092
 31
0.0000000048844204
  0
LINE
  5
10C3
  8
SAPA_MATT
 10
-5.999999918811147
 20
49.999999995807478
 30
0.0000000048844204
 11
-5.9999999188111479
 21
45.000000000000078
 31
0.0000000048844204
  0
SOLID
  5
10C4
  8
SAPA_MATT
 10
-6.499999918811147
 20
52.999999995807478
 30
0.0000000048844204
 11
-5.499999918811147
 21
52.999999995807478
 31
0.0000000048844204
 12
-5.999999918811147
 22
49.999999995807478
 32
0.0000000048844204
 13
-5.999999918811147
 23
49.999999995807478
 33
0.0000000048844204
  0
SOLID
  5
10C5
  8
SAPA_MATT
 10
-6.4999999188111479
 20
42.000000000000092
 30
0.0000000048844204
 11
-5.4999999188111479
 21
42.000000000000092
 31
0.0000000048844204
 12
-5.9999999188111479
 22
45.000000000000078
 32
0.0000000048844204
 13
-5.9999999188111479
 23
45.000000000000078
 33
0.0000000048844204
  0
INSERT
  5
10C6
  8
0
  2
*U121
 10
0.0
 20
0.0
 30
0.0
  0
POINT
  5
10C7
  8
DEFPOINTS
 62
     0
 10
15.000000087350699
 20
49.999999995807478
 30
0.0
  0
POINT
  5
10C8
  8
DEFPOINTS
 62
     0
 10
15.99999845920634
 20
45.000000000000078
 30
0.0
  0
POINT
  5
10C9
  8
DEFPOINTS
 62
     0
 10
-5.9999999188111479
 20
45.000000000000078
 30
0.0000000048844204
  0
ENDBLK
  5
1074
  8
0
  0
BLOCK
  8
0
  2
*D95
 70
     1
 10
0.0
 20
0.0
 30
0.0
  3
*D95
  1

  0
LINE
  5
10B6
  8
SAPA_MATT
 10
14.49999845920634
 20
45.000000000000078
 30
0.0000000048844204
 11
-7.4999999188111488
 21
45.000000000000078
 31
0.0000000048844204
  0
LINE
  5
10B7
  8
SAPA_MATT
 10
12.999999885490119
 20
-22.00000000408707
 30
0.0000000048844204
 11
-7.499999918811163
 21
-22.00000000408707
 31
0.0000000048844204
  0
LINE
  5
10B8
  8
SAPA_MATT
 10
-5.999999918811147
 20
42.000000000000092
 30
0.0000000048844204
 11
-5.9999999188111621
 21
-19.00000000408707
 31
0.0000000048844204
  0
SOLID
  5
10B9
  8
SAPA_MATT
 10
-6.499999918811147
 20
42.000000000000092
 30
0.0000000048844204
 11
-5.499999918811147
 21
42.000000000000092
 31
0.0000000048844204
 12
-5.999999918811147
 22
45.000000000000078
 32
0.0000000048844204
 13
-5.999999918811147
 23
45.000000000000078
 33
0.0000000048844204
  0
SOLID
  5
10BA
  8
SAPA_MATT
 10
-6.4999999188111621
 20
-19.00000000408707
 30
0.0000000048844204
 11
-5.4999999188111621
 21
-19.00000000408707
 31
0.0000000048844204
 12
-5.999999918811163
 22
-22.00000000408707
 32
0.0000000048844204
 13
-5.999999918811163
 23
-22.00000000408707
 33
0.0000000048844204
  0
INSERT
  5
10BB
  8
0
  2
*U120
 10
0.0
 20
0.0
 30
0.0
  0
POINT
  5
10BC
  8
DEFPOINTS
 62
     0
 10
15.99999845920634
 20
45.000000000000078
 30
0.0
  0
POINT
  5
10BD
  8
DEFPOINTS
 62
     0
 10
14.499999885490119
 20
-22.00000000408707
 30
0.0
  0
POINT
  5
10BE
  8
DEFPOINTS
 62
     0
 10
-5.999999918811163
 20
-22.00000000408707
 30
0.0000000048844204
  0
ENDBLK
  5
1082
  8
0
  0
BLOCK
  8
0
  2
*D96
 70
     1
 10
0.0
 20
0.0
 30
0.0
  3
*D96
  1

  0
LINE
  5
10AD
  8
SAPA_MATT
 10
12.80000009361556
 20
164.9999999961542
 30
0.0000000048844204
 11
-19.49999991881111
 21
164.9999999961542
 31
0.0000000048844204
  0
LINE
  5
10AE
  8
SAPA_MATT
 10
12.999999885490119
 20
-22.00000000408707
 30
0.0000000048844204
 11
-19.499999918811149
 21
-22.00000000408706
 31
0.0000000048844204
  0
LINE
  5
10AF
  8
SAPA_MATT
 10
-17.99999991881112
 20
161.9999999961542
 30
0.0000000048844204
 11
-17.999999918811149
 21
-19.00000000408706
 31
0.0000000048844204
  0
SOLID
  5
10B0
  8
SAPA_MATT
 10
-18.49999991881112
 20
161.9999999961542
 30
0.0000000048844204
 11
-17.49999991881112
 21
161.9999999961542
 31
0.0000000048844204
 12
-17.99999991881112
 22
164.9999999961542
 32
0.0000000048844204
 13
-17.99999991881112
 23
164.9999999961542
 33
0.0000000048844204
  0
SOLID
  5
10B1
  8
SAPA_MATT
 10
-18.499999918811149
 20
-19.00000000408706
 30
0.0000000048844204
 11
-17.499999918811149
 21
-19.00000000408706
 31
0.0000000048844204
 12
-17.999999918811149
 22
-22.00000000408706
 32
0.0000000048844204
 13
-17.999999918811149
 23
-22.00000000408706
 33
0.0000000048844204
  0
INSERT
  5
10B2
  8
0
  2
*U119
 10
0.0
 20
0.0
 30
0.0
  0
POINT
  5
10B3
  8
DEFPOINTS
 62
     0
 10
14.30000009361556
 20
164.9999999961542
 30
0.0
  0
POINT
  5
10B4
  8
DEFPOINTS
 62
     0
 10
14.499999885490119
 20
-22.00000000408707
 30
0.0
  0
POINT
  5
10B5
  8
DEFPOINTS
 62
     0
 10
-17.999999918811149
 20
-22.00000000408706
 30
0.0000000048844204
  0
ENDBLK
  5
108E
  8
0
  0
BLOCK
  8
0
  2
*D97
 70
     1
 10
0.0
 20
0.0
 30
0.0
  3
*D97
  1

  0
LINE
  5
10A4
  8
SAPA_MATT
 10
23.800000093401358
 20
201.49999999618669
 30
0.0
 11
23.800000093401358
 21
221.4999999961866
 31
0.0
  0
LINE
  5
10A5
  8
SAPA_MATT
 10
223.80000009340139
 20
201.4999999961866
 30
0.0
 11
223.80000009340139
 21
221.4999999961866
 31
0.0
  0
LINE
  5
10A6
  8
SAPA_MATT
 10
26.800000093401358
 20
219.9999999961866
 30
0.0
 11
220.80000009340131
 21
219.9999999961866
 31
0.0
  0
SOLID
  5
10A7
  8
SAPA_MATT
 10
26.800000093401358
 20
220.49999999618669
 30
0.0
 11
26.800000093401358
 21
219.4999999961866
 31
0.0
 12
23.800000093401358
 22
219.9999999961866
 32
0.0
 13
23.800000093401358
 23
219.9999999961866
 33
0.0
  0
SOLID
  5
10A8
  8
SAPA_MATT
 10
220.80000009340131
 20
220.49999999618669
 30
0.0
 11
220.80000009340131
 21
219.4999999961866
 31
0.0
 12
223.80000009340139
 22
219.9999999961866
 32
0.0
 13
223.80000009340139
 23
219.9999999961866
 33
0.0
  0
INSERT
  5
10A9
  8
0
  2
*U118
 10
0.0
 20
0.0
 30
0.0
  0
POINT
  5
10AA
  8
DEFPOINTS
 62
     0
 10
23.800000093401358
 20
199.9999999961866
 30
0.0
  0
POINT
  5
10AB
  8
DEFPOINTS
 62
     0
 10
223.80000009340139
 20
199.9999999961866
 30
0.0
  0
POINT
  5
10AC
  8
DEFPOINTS
 62
     0
 10
223.80000009340139
 20
219.9999999961866
 30
0.0
  0
ENDBLK
  5
109A
  8
0
  0
BLOCK
  8
0
  2
*X98
 70
     1
 10
0.0
 20
0.0
 30
0.0
  3
*X98
  1

  0
LINE
  5
1A73
  8
0
 62
     0
 10
23.800000093401341
 20
186.31035517095779
 30
0.0
 11
23.757422070077808
 21
186.35293319428141
 31
0.0
  0
LINE
  5
1A74
  8
0
 62
     0
 10
23.800000093401341
 20
185.18782315582419
 30
0.0
 11
23.693277380578969
 21
185.29454586864651
 31
0.0
  0
LINE
  5
1A75
  8
0
 62
     0
 10
23.800000093401341
 20
184.0652911406905
 30
0.0
 11
23.296582453575319
 21
184.56870878051649
 31
0.0
  0
LINE
  5
1A76
  8
0
 62
     0
 10
23.800000093401341
 20
182.9427591255569
 30
0.0
 11
22.547865467980088
 21
184.19489375097811
 31
0.0
  0
LINE
  5
1A77
  8
0
 62
     0
 10
23.80000009340133
 20
181.82022711042319
 30
0.0
 11
21.94209883740033
 21
183.6781283664242
 31
0.0
  0
LINE
  5
1A78
  8
0
 62
     0
 10
23.800000093401341
 20
180.69769509528959
 30
0.0
 11
21.9451421406796
 21
182.5525530480113
 31
0.0
  0
LINE
  5
1A79
  8
0
 62
     0
 10
23.80000009340133
 20
179.57516308015599
 30
0.0
 11
22.23287905358648
 21
181.14228411997081
 31
0.0
  0
LINE
  5
1A7A
  8
0
 62
     0
 10
23.800000093401341
 20
178.4526310650223
 30
0.0
 11
22.52061596649337
 21
179.73201519193029
 31
0.0
  0
LINE
  5
1A7B
  8
0
 62
     0
 10
23.80000009340133
 20
177.3300990498887
 30
0.0
 11
22.80835287940026
 21
178.32174626388971
 31
0.0
  0
LINE
  5
1A7C
  8
0
 62
     0
 10
23.80000009340133
 20
176.2075670347551
 30
0.0
 11
23.096089792307151
 21
176.91147733584921
 31
0.0
  0
LINE
  5
1A7D
  8
0
 62
     0
 10
23.80000009340133
 20
175.08503501962139
 30
0.0
 11
23.115975175089481
 21
175.76905993793321
 31
0.0
  0
LINE
  5
1A7E
  8
0
 62
     0
 10
23.80000009340133
 20
173.9625030044877
 30
0.0
 11
23.051830485590671
 21
174.7106726122984
 31
0.0
  0
LINE
  5
1A7F
  8
0
 62
     0
 10
23.80000009340133
 20
172.8399709893541
 30
0.0
 11
22.987685796091839
 21
173.65228528666361
 31
0.0
  0
LINE
  5
1A80
  8
0
 62
     0
 10
23.80000009340133
 20
171.7174389742205
 30
0.0
 11
22.92354110659301
 21
172.5938979610288
 31
0.0
  0
LINE
  5
1A81
  8
0
 62
     0
 10
23.80000009340133
 20
170.59490695908681
 30
0.0
 11
22.859396417094199
 21
171.5355106353939
 31
0.0
  0
LINE
  5
1A82
  8
0
 62
     0
 10
23.305464803699529
 20
170.55516792266391
 30
0.0
 11
23.80000009340133
 21
171.0497032123657
 31
0.0
  0
LINE
  5
1A83
  8
0
 62
     0
 10
22.839791313880081
 20
171.21202644797819
 30
0.0
 11
23.800000093401319
 21
172.17223522749941
 31
0.0
  0
LINE
  5
1A84
  8
0
 62
     0
 10
22.912212737933149
 20
172.40697988716491
 30
0.0
 11
23.80000009340133
 21
173.29476724263299
 31
0.0
  0
LINE
  5
1A85
  8
0
 62
     0
 10
22.984634161986211
 20
173.60193332635151
 30
0.0
 11
23.800000093401319
 21
174.4172992577667
 31
0.0
  0
LINE
  5
1A86
  8
0
 62
     0
 10
23.057055586039269
 20
174.7968867655382
 30
0.0
 11
23.80000009340133
 21
175.5398312729003
 31
0.0
  0
LINE
  5
1A87
  8
0
 62
     0
 10
23.129477010092319
 20
175.99184020472501
 30
0.0
 11
23.80000009340133
 21
176.66236328803399
 31
0.0
  0
LINE
  5
1A88
  8
0
 62
     0
 10
23.067365737644181
 20
177.05226094741039
 30
0.0
 11
23.80000009340133
 21
177.78489530316759
 31
0.0
  0
LINE
  5
1A89
  8
0
 62
     0
 10
22.877146193703471
 20
177.98457341860339
 30
0.0
 11
23.800000093401309
 21
178.90742731830119
 31
0.0
  0
LINE
  5
1A8A
  8
0
 62
     0
 10
22.686926649762739
 20
178.9168858897963
 30
0.0
 11
23.80000009340133
 21
180.0299593334349
 31
0.0
  0
LINE
  5
1A8B
  8
0
 62
     0
 10
22.496707105822011
 20
179.84919836098919
 30
0.0
 11
23.80000009340133
 21
181.1524913485685
 31
0.0
  0
LINE
  5
1A8C
  8
0
 62
     0
 10
22.306487561881308
 20
180.78151083218211
 30
0.0
 11
23.80000009340133
 21
182.2750233637021
 31
0.0
  0
LINE
  5
1A8D
  8
0
 62
     0
 10
22.116268017940559
 20
181.71382330337511
 30
0.0
 11
23.80000009340133
 21
183.3975553788359
 31
0.0
  0
LINE
  5
1A8E
  8
0
 62
     0
 10
21.926048473999849
 20
182.64613577456799
 30
0.0
 11
23.80000009340133
 21
184.5200873939695
 31
0.0
  0
LINE
  5
1A8F
  8
0
 62
     0
 10
23.708848402516882
 20
185.5514677182187
 30
0.0
 11
23.80000009340133
 21
185.6426194091031
 31
0.0
  0
LINE
  5
1A90
  8
0
 62
     0
 10
23.78126982656994
 20
186.74642115740539
 30
0.0
 11
23.80000009340133
 21
186.76515142423679
 31
0.0
  0
ENDBLK
  5
1A92
  8
0
  0
BLOCK
  8
0
  2
*X99
 70
     1
 10
0.0
 20
0.0
 30
0.0
  3
*X99
  1

  0
LINE
  5
1A94
  8
0
 62
     0
 10
229.38066400167
 20
161.49040611247349
 30
0.0
 11
229.52866488351231
 21
161.74675115938931
 31
0.0
  0
LINE
  5
1A95
  8
0
 62
     0
 10
228.1900390016701
 20
159.4281831197118
 30
0.0
 11
228.5869140016701
 21
160.1155907839657
 31
0.0
  0
LINE
  5
1A96
  8
0
 62
     0
 10
227.08461430883381
 20
157.5135313877781
 30
0.0
 11
227.39628900167011
 21
158.05336779120401
 31
0.0
  0
LINE
  5
1A97
  8
0
 62
     0
 10
228.19003928616621
 20
162.17781361247361
 30
0.0
 11
228.58691428616609
 21
162.86522127672751
 31
0.0
  0
LINE
  5
1A98
  8
0
 62
     0
 10
226.9994142861662
 20
160.1155906197119
 30
0.0
 11
227.39628928616611
 21
160.80299828396579
 31
0.0
  0
LINE
  5
1A99
  8
0
 62
     0
 10
225.80878928616619
 20
158.05336762695021
 30
0.0
 11
226.20566428616621
 21
158.7407752912041
 31
0.0
  0
LINE
  5
1A9A
  8
0
 62
     0
 10
226.9994145706622
 20
162.86522111247359
 30
0.0
 11
227.3378416361227
 21
163.45139398450749
 31
0.0
  0
LINE
  5
1A9B
  8
0
 62
     0
 10
225.8087895706623
 20
160.8029981197119
 30
0.0
 11
226.20566457066229
 21
161.4904057839658
 31
0.0
  0
LINE
  5
1A9C
  8
0
 62
     0
 10
224.61816457066229
 20
158.74077512695021
 30
0.0
 11
225.01503957066231
 21
159.42818279120411
 31
0.0
  0
LINE
  5
1A9D
  8
0
 62
     0
 10
224.6181648551584
 20
161.49040561971191
 30
0.0
 11
225.01503985515839
 21
162.1778132839658
 31
0.0
  0
LINE
  5
1A9E
  8
0
 62
     0
 10
228.58689920787299
 20
161.4903795033421
 30
0.0
 11
228.19002420787299
 21
162.17778716759599
 31
0.0
  0
LINE
  5
1A9F
  8
0
 62
     0
 10
229.6675906847434
 20
159.61856695809581
 30
0.0
 11
229.38064920787289
 21
160.1155641748343
 31
0.0
  0
LINE
  5
1AA0
  8
0
 62
     0
 10
226.2056494923691
 20
162.86519499610381
 30
0.0
 11
225.9160403641431
 21
163.36681272052689
 31
0.0
  0
LINE
  5
1AA1
  8
0
 62
     0
 10
227.39627449236909
 20
160.80297200334209
 30
0.0
 11
226.99939949236909
 21
161.49037966759599
 31
0.0
  0
LINE
  5
1AA2
  8
0
 62
     0
 10
228.5868994923691
 20
158.7407490105804
 30
0.0
 11
228.1900244923691
 21
159.4281566748343
 31
0.0
  0
LINE
  5
1AA3
  8
0
 62
     0
 10
225.0150247768652
 20
162.1777874961038
 30
0.0
 11
224.73001373478979
 21
162.6714411016965
 31
0.0
  0
LINE
  5
1AA4
  8
0
 62
     0
 10
226.2056497768651
 20
160.115564503342
 30
0.0
 11
225.80877477686519
 21
160.80297216759601
 31
0.0
  0
LINE
  5
1AA5
  8
0
 62
     0
 10
227.39627477686511
 20
158.0533415105804
 30
0.0
 11
226.9993997768652
 21
158.74074917483429
 31
0.0
  0
LINE
  5
1AA6
  8
0
 62
     0
 10
225.01502506136131
 20
159.42815700334211
 30
0.0
 11
224.61815006136129
 21
160.115564667596
 31
0.0
  0
LINE
  5
1AA7
  8
0
 62
     0
 10
226.0772276498783
 20
157.58836815209941
 30
0.0
 11
225.80877506136119
 21
158.05334167483429
 31
0.0
  0
LINE
  5
1AA8
  8
0
 62
     0
 10
228.58692964895531
 20
158.7407499961038
 30
0.0
 11
229.23002878409341
 21
158.7407499961038
 31
0.0
  0
LINE
  5
1AA9
  8
0
 62
     0
 10
226.20567964895531
 20
158.7407499961038
 30
0.0
 11
226.9994296489553
 21
158.7407499961038
 31
0.0
  0
LINE
  5
1AAA
  8
0
 62
     0
 10
224.36997140271049
 20
158.7407499961038
 30
0.0
 11
224.61817964895531
 21
158.7407499961038
 31
0.0
  0
LINE
  5
1AAB
  8
0
 62
     0
 10
228.58692964895531
 20
160.11556499610381
 30
0.0
 11
229.38067964895529
 21
160.11556499610381
 31
0.0
  0
LINE
  5
1AAC
  8
0
 62
     0
 10
226.20567964895531
 20
160.11556499610381
 30
0.0
 11
226.9994296489553
 21
160.11556499610381
 31
0.0
  0
LINE
  5
1AAD
  8
0
 62
     0
 10
223.8247337640133
 20
160.11556499610381
 30
0.0
 11
224.61817964895531
 21
160.11556499610381
 31
0.0
  0
LINE
  5
1AAE
  8
0
 62
     0
 10
228.58692964895531
 20
161.49037999610391
 30
0.0
 11
229.38067964895529
 21
161.49037999610391
 31
0.0
  0
LINE
  5
1AAF
  8
0
 62
     0
 10
226.20567964895531
 20
161.49037999610391
 30
0.0
 11
226.9994296489553
 21
161.49037999610391
 31
0.0
  0
LINE
  5
1AB0
  8
0
 62
     0
 10
223.96819016765591
 20
161.49037999610391
 30
0.0
 11
224.61817964895531
 21
161.49037999610391
 31
0.0
  0
LINE
  5
1AB1
  8
0
 62
     0
 10
228.58692964895531
 20
162.8651949961039
 30
0.0
 11
228.6454953147082
 21
162.8651949961039
 31
0.0
  0
LINE
  5
1AB2
  8
0
 62
     0
 10
226.20567964895531
 20
162.8651949961039
 30
0.0
 11
226.9994296489553
 21
162.8651949961039
 31
0.0
  0
ENDBLK
  5
1AB4
  8
0
  0
BLOCK
  8
0
  2
*X100
 70
     1
 10
0.0
 20
0.0
 30
0.0
  3
*X100
  1

  0
LINE
  5
1AB6
  8
0
 62
     0
 10
230.7992622215651
 20
164.623526192951
 30
0.0
 11
230.0872502133326
 21
165.3355382011834
 31
0.0
  0
LINE
  5
1AB7
  8
0
 62
     0
 10
230.2379962139982
 20
164.06226018538419
 30
0.0
 11
228.55384296409881
 21
165.74641343528361
 31
0.0
  0
LINE
  5
1AB8
  8
0
 62
     0
 10
229.67673020643139
 20
163.5009941778174
 30
0.0
 11
227.02043571486479
 21
166.15728866938389
 31
0.0
  0
LINE
  5
1AB9
  8
0
 62
     0
 10
229.344717219052
 20
162.7104751500631
 30
0.0
 11
225.487028465631
 21
166.56816390348411
 31
0.0
  0
LINE
  5
1ABA
  8
0
 62
     0
 10
227.5204539321403
 20
163.4122064218412
 30
0.0
 11
223.9536212163971
 21
166.97903913758441
 31
0.0
  0
LINE
  5
1ABB
  8
0
 62
     0
 10
229.80000009340159
 20
161.13266026057991
 30
0.0
 11
229.71220651916309
 21
161.22045383481839
 31
0.0
  0
LINE
  5
1ABC
  8
0
 62
     0
 10
226.34485544634589
 20
163.46527289250201
 30
0.0
 11
223.80000009340139
 21
166.01012824544651
 31
0.0
  0
LINE
  5
1ABD
  8
0
 62
     0
 10
225.4891425860564
 20
163.19845373765779
 30
0.0
 11
223.80000009340139
 21
164.88759623031279
 31
0.0
  0
LINE
  5
1ABE
  8
0
 62
     0
 10
224.8153559608923
 20
162.7497083476882
 30
0.0
 11
223.80000009340139
 21
163.76506421517919
 31
0.0
  0
LINE
  5
1ABF
  8
0
 62
     0
 10
224.2937226351452
 20
162.1488096583017
 30
0.0
 11
223.80000009340139
 21
162.64253220004551
 31
0.0
  0
LINE
  5
1AC0
  8
0
 62
     0
 10
223.9338604843455
 20
161.38613979396769
 30
0.0
 11
223.80000009340139
 21
161.52000018491179
 31
0.0
  0
LINE
  5
1AC1
  8
0
 62
     0
 10
229.68693648793749
 20
161.31584204813649
 30
0.0
 11
229.80000009340159
 21
161.42890565360059
 31
0.0
  0
LINE
  5
1AC2
  8
0
 62
     0
 10
229.34190244524811
 20
162.0933400205808
 30
0.0
 11
229.629306510242
 21
162.38074408557461
 31
0.0
  0
LINE
  5
1AC3
  8
0
 62
     0
 10
228.8325514338961
 20
162.70652102436239
 30
0.0
 11
231.17114096036599
 21
165.04511055083231
 31
0.0
  0
LINE
  5
1AC4
  8
0
 62
     0
 10
228.17159350167461
 20
163.16809510727461
 30
0.0
 11
230.2858278722434
 21
165.2823294778434
 31
0.0
  0
LINE
  5
1AC5
  8
0
 62
     0
 10
227.33320207794199
 20
163.45223569867559
 30
0.0
 11
229.40051478412099
 21
165.5195484048545
 31
0.0
  0
LINE
  5
1AC6
  8
0
 62
     0
 10
226.19726176336169
 20
163.4388273992289
 30
0.0
 11
228.5152016959984
 21
165.75676733186569
 31
0.0
  0
LINE
  5
1AC7
  8
0
 62
     0
 10
223.80000009340139
 20
161.0415657292686
 30
0.0
 11
223.8611726902522
 21
161.10273832611941
 31
0.0
  0
LINE
  5
1AC8
  8
0
 62
     0
 10
223.80000009340139
 20
162.1640977444022
 30
0.0
 11
227.6298886078759
 21
165.99398625887679
 31
0.0
  0
LINE
  5
1AC9
  8
0
 62
     0
 10
223.80000009340139
 20
163.28662975953591
 30
0.0
 11
226.7445755197534
 21
166.23120518588789
 31
0.0
  0
LINE
  5
1ACA
  8
0
 62
     0
 10
223.80000009340139
 20
164.4091617746696
 30
0.0
 11
225.8592624316309
 21
166.46842411289899
 31
0.0
  0
LINE
  5
1ACB
  8
0
 62
     0
 10
223.80000009340139
 20
165.5316937898032
 30
0.0
 11
224.97394934350839
 21
166.7056430399102
 31
0.0
  0
LINE
  5
1ACC
  8
0
 62
     0
 10
223.80000009340139
 20
166.6542258049368
 30
0.0
 11
224.08863625538581
 21
166.9428619669213
 31
0.0
  0
ENDBLK
  5
1ACE
  8
0
  0
BLOCK
  8
0
  2
*X101
 70
     1
 10
0.0
 20
0.0
 30
0.0
  3
*X101
  1

  0
LINE
  5
1AD0
  8
0
 62
     0
 10
23.80000009340143
 20
167.22731091368581
 30
0.0
 11
23.53976552804049
 21
167.4875454790467
 31
0.0
  0
LINE
  5
1AD1
  8
0
 62
     0
 10
23.80000009340144
 20
166.1047788985521
 30
0.0
 11
22.654452439917971
 21
167.2503265520356
 31
0.0
  0
LINE
  5
1AD2
  8
0
 62
     0
 10
23.80000009340143
 20
164.9822468834185
 30
0.0
 11
21.769139351795449
 21
167.01310762502439
 31
0.0
  0
LINE
  5
1AD3
  8
0
 62
     0
 10
23.80000009340143
 20
163.85971486828481
 30
0.0
 11
20.88382626367294
 21
166.77588869801329
 31
0.0
  0
LINE
  5
1AD4
  8
0
 62
     0
 10
23.800000093401451
 20
162.73718285315121
 30
0.0
 11
19.998513175550421
 21
166.53866977100219
 31
0.0
  0
LINE
  5
1AD5
  8
0
 62
     0
 10
23.80000009340144
 20
161.6146508380175
 30
0.0
 11
19.113200087427909
 21
166.30145084399101
 31
0.0
  0
LINE
  5
1AD6
  8
0
 62
     0
 10
23.80000009340144
 20
160.4921188228839
 30
0.0
 11
18.227886999305401
 21
166.06423191697991
 31
0.0
  0
LINE
  5
1AD7
  8
0
 62
     0
 10
23.80000009340143
 20
159.36958680775021
 30
0.0
 11
17.342573911182878
 21
165.82701298996881
 31
0.0
  0
LINE
  5
1AD8
  8
0
 62
     0
 10
21.26853701485604
 20
160.77851787116199
 30
0.0
 11
16.45726082306037
 21
165.58979406295771
 31
0.0
  0
LINE
  5
1AD9
  8
0
 62
     0
 10
23.80000009340144
 20
158.24705479261661
 30
0.0
 11
23.50444384641267
 21
158.54261103960539
 31
0.0
  0
LINE
  5
1ADA
  8
0
 62
     0
 10
19.851733786984941
 20
161.07278908389949
 30
0.0
 11
15.57194773493786
 21
165.35257513594661
 31
0.0
  0
LINE
  5
1ADB
  8
0
 62
     0
 10
23.800000093401451
 20
157.12452277748301
 30
0.0
 11
23.798715059150119
 21
157.12580781173429
 31
0.0
  0
LINE
  5
1ADC
  8
0
 62
     0
 10
18.833017922798149
 20
160.9689729329526
 30
0.0
 11
14.686634646815349
 21
165.1153562089354
 31
0.0
  0
LINE
  5
1ADD
  8
0
 62
     0
 10
18.001907521106311
 20
160.6775513195108
 30
0.0
 11
15.6994296491442
 21
162.98002919147291
 31
0.0
  0
LINE
  5
1ADE
  8
0
 62
     0
 10
17.30435620943566
 20
160.25257061604779
 30
0.0
 11
15.69942964914418
 21
161.85749717633931
 31
0.0
  0
LINE
  5
1ADF
  8
0
 62
     0
 10
16.721199660448921
 20
159.71319514990091
 30
0.0
 11
15.69942964914417
 21
160.73496516120559
 31
0.0
  0
LINE
  5
1AE0
  8
0
 62
     0
 10
16.249723641584328
 20
159.06213915363179
 30
0.0
 11
15.699429649144159
 21
159.61243314607199
 31
0.0
  0
LINE
  5
1AE1
  8
0
 62
     0
 10
15.901671084725781
 20
158.28765969535681
 30
0.0
 11
15.69942964914414
 21
158.48990113093839
 31
0.0
  0
LINE
  5
1AE2
  8
0
 62
     0
 10
15.712904173409809
 20
157.3538945915391
 30
0.0
 11
15.699429649144131
 21
157.36736911580479
 31
0.0
  0
LINE
  5
1AE3
  8
0
 62
     0
 10
23.766250168427561
 20
157.54556910578819
 30
0.0
 11
23.80000009340144
 21
157.57931903076221
 31
0.0
  0
LINE
  5
1AE4
  8
0
 62
     0
 10
23.542652948266049
 20
158.4445039007604
 30
0.0
 11
23.80000009340144
 21
158.70185104589581
 31
0.0
  0
LINE
  5
1AE5
  8
0
 62
     0
 10
23.16955114324114
 20
159.19393411086909
 30
0.0
 11
23.800000093401451
 21
159.82438306102941
 31
0.0
  0
LINE
  5
1AE6
  8
0
 62
     0
 10
22.676572729209632
 20
159.8234877119713
 30
0.0
 11
23.80000009340144
 21
160.94691507616309
 31
0.0
  0
LINE
  5
1AE7
  8
0
 62
     0
 10
22.072438523558969
 20
160.34188552145429
 30
0.0
 11
23.80000009340144
 21
162.06944709129669
 31
0.0
  0
LINE
  5
1AE8
  8
0
 62
     0
 10
21.351781882031819
 20
160.74376089506069
 30
0.0
 11
23.80000009340143
 21
163.1919791064303
 31
0.0
  0
LINE
  5
1AE9
  8
0
 62
     0
 10
20.491126568607601
 20
161.00563759677021
 30
0.0
 11
23.80000009340143
 21
164.31451112156401
 31
0.0
  0
LINE
  5
1AEA
  8
0
 62
     0
 10
19.423905583070351
 20
161.06094862636661
 30
0.0
 11
23.80000009340144
 21
165.43704313669761
 31
0.0
  0
LINE
  5
1AEB
  8
0
 62
     0
 10
15.69942964914415
 20
157.3364726924404
 30
0.0
 11
15.71255514092835
 21
157.34959818422459
 31
0.0
  0
LINE
  5
1AEC
  8
0
 62
     0
 10
17.831418593714101
 20
160.59099365214391
 30
0.0
 11
23.80000009340143
 21
166.5595751518313
 31
0.0
  0
LINE
  5
1AED
  8
0
 62
     0
 10
15.69942964914417
 20
158.459004707574
 30
0.0
 11
16.182510115150961
 21
158.94208517358081
 31
0.0
  0
LINE
  5
1AEE
  8
0
 62
     0
 10
15.69942964914417
 20
159.58153672270771
 30
0.0
 11
23.629476346966889
 21
167.5115834205304
 31
0.0
  0
LINE
  5
1AEF
  8
0
 62
     0
 10
15.69942964914417
 20
160.70406873784131
 30
0.0
 11
22.096069097733
 21
167.1007081864301
 31
0.0
  0
LINE
  5
1AF0
  8
0
 62
     0
 10
15.699429649144189
 20
161.826600752975
 30
0.0
 11
20.562661848499101
 21
166.68983295232991
 31
0.0
  0
LINE
  5
1AF1
  8
0
 62
     0
 10
15.6994296491442
 20
162.9491327681086
 30
0.0
 11
19.029254599265201
 21
166.27895771822961
 31
0.0
  0
LINE
  5
1AF2
  8
0
 62
     0
 10
15.526240336072711
 20
163.89847547017081
 30
0.0
 11
17.495847350031319
 21
165.86808248412939
 31
0.0
  0
LINE
  5
1AF3
  8
0
 62
     0
 10
14.96497432850591
 20
164.45974147773759
 30
0.0
 11
15.96244010079743
 21
165.45720725002909
 31
0.0
  0
LINE
  5
1AF4
  8
0
 62
     0
 10
14.37424443428052
 20
164.9915435986459
 30
0.0
 11
14.42903285156353
 21
165.0463320159289
 31
0.0
  0
ENDBLK
  5
1AF6
  8
0
  0
BLOCK
  8
0
  2
*X102
 70
     1
 10
0.0
 20
0.0
 30
0.0
  3
*X102
  1

  0
LINE
  5
1AF8
  8
0
 62
     0
 10
23.415057493916361
 20
156.67854178619299
 30
0.0
 11
23.78872777352743
 21
157.3257576957578
 31
0.0
  0
LINE
  5
1AF9
  8
0
 62
     0
 10
22.22443249391635
 20
154.6163187934313
 30
0.0
 11
22.621307493916351
 21
155.3037264576852
 31
0.0
  0
LINE
  5
1AFA
  8
0
 62
     0
 10
22.22443277841246
 20
157.365949286193
 30
0.0
 11
22.621307778412461
 21
158.0533569504469
 31
0.0
  0
LINE
  5
1AFB
  8
0
 62
     0
 10
21.033807778412459
 20
155.30372629343131
 30
0.0
 11
21.430682778412461
 21
155.99113395768521
 31
0.0
  0
LINE
  5
1AFC
  8
0
 62
     0
 10
19.843182778412451
 20
153.24150330066959
 30
0.0
 11
20.240057778412449
 21
153.92891096492349
 31
0.0
  0
LINE
  5
1AFD
  8
0
 62
     0
 10
22.22443306290856
 20
160.1155797789547
 30
0.0
 11
22.26997121810961
 21
160.19445417744581
 31
0.0
  0
LINE
  5
1AFE
  8
0
 62
     0
 10
21.033808062908552
 20
158.05335678619301
 30
0.0
 11
21.43068306290856
 21
158.7407644504469
 31
0.0
  0
LINE
  5
1AFF
  8
0
 62
     0
 10
19.843183062908551
 20
155.99113379343129
 30
0.0
 11
20.240058062908549
 21
156.67854145768521
 31
0.0
  0
LINE
  5
1B00
  8
0
 62
     0
 10
18.65255806290855
 20
153.9289108006696
 30
0.0
 11
19.049433062908552
 21
154.61631846492349
 31
0.0
  0
LINE
  5
1B01
  8
0
 62
     0
 10
21.033808347404658
 20
160.8029872789547
 30
0.0
 11
21.06381982445572
 21
160.8549686820173
 31
0.0
  0
LINE
  5
1B02
  8
0
 62
     0
 10
19.843183347404651
 20
158.74076428619301
 30
0.0
 11
20.240058347404648
 21
159.42817195044691
 31
0.0
  0
LINE
  5
1B03
  8
0
 62
     0
 10
18.652558347404639
 20
156.67854129343129
 30
0.0
 11
19.049433347404651
 21
157.36594895768519
 31
0.0
  0
LINE
  5
1B04
  8
0
 62
     0
 10
17.461933347404639
 20
154.6163183006696
 30
0.0
 11
17.85880834740464
 21
155.3037259649235
 31
0.0
  0
LINE
  5
1B05
  8
0
 62
     0
 10
18.65255863190076
 20
159.42817178619299
 30
0.0
 11
19.049433631900762
 21
160.11557945044689
 31
0.0
  0
LINE
  5
1B06
  8
0
 62
     0
 10
17.461933631900749
 20
157.3659487934313
 30
0.0
 11
17.85880863190075
 21
158.0533564576852
 31
0.0
  0
LINE
  5
1B07
  8
0
 62
     0
 10
16.271308631900752
 20
155.30372580066961
 30
0.0
 11
16.668183631900749
 21
155.99113346492351
 31
0.0
  0
LINE
  5
1B08
  8
0
 62
     0
 10
17.461933916396841
 20
160.115579286193
 30
0.0
 11
17.690568243120079
 21
160.51158555643201
 31
0.0
  0
LINE
  5
1B09
  8
0
 62
     0
 10
16.27130891639683
 20
158.05335629343131
 30
0.0
 11
16.668183916396831
 21
158.7407639576852
 31
0.0
  0
LINE
  5
1B0A
  8
0
 62
     0
 10
21.430668553607571
 20
160.11557534409951
 30
0.0
 11
21.03379355360758
 21
160.80298300835341
 31
0.0
  0
LINE
  5
1B0B
  8
0
 62
     0
 10
22.621293553607568
 20
158.05335235133779
 30
0.0
 11
22.224418553607581
 21
158.74076001559169
 31
0.0
  0
LINE
  5
1B0C
  8
0
 62
     0
 10
23.708896428415098
 20
156.16956891371311
 30
0.0
 11
23.415043553607571
 21
156.67853702283
 31
0.0
  0
LINE
  5
1B0D
  8
0
 62
     0
 10
20.240043838103681
 20
159.42816784409939
 30
0.0
 11
19.843168838103669
 21
160.11557550835329
 31
0.0
  0
LINE
  5
1B0E
  8
0
 62
     0
 10
21.430668838103671
 20
157.36594485133779
 30
0.0
 11
21.033793838103669
 21
158.05335251559171
 31
0.0
  0
LINE
  5
1B0F
  8
0
 62
     0
 10
22.621293838103671
 20
155.3037218585761
 30
0.0
 11
22.22441883810367
 21
155.99112952282999
 31
0.0
  0
LINE
  5
1B10
  8
0
 62
     0
 10
19.049419122599769
 20
158.74076034409941
 30
0.0
 11
18.652544122599782
 21
159.42816800835331
 31
0.0
  0
LINE
  5
1B11
  8
0
 62
     0
 10
20.24004412259977
 20
156.67853735133781
 30
0.0
 11
19.843169122599772
 21
157.36594501559171
 31
0.0
  0
LINE
  5
1B12
  8
0
 62
     0
 10
21.43066912259977
 20
154.61631435857609
 30
0.0
 11
21.033794122599769
 21
155.30372202282999
 31
0.0
  0
LINE
  5
1B13
  8
0
 62
     0
 10
17.85879440709585
 20
158.05335284409949
 30
0.0
 11
17.461919407095859
 21
158.74076050835339
 31
0.0
  0
LINE
  5
1B14
  8
0
 62
     0
 10
19.049419407095851
 20
155.9911298513378
 30
0.0
 11
18.652544407095849
 21
156.6785375155917
 31
0.0
  0
LINE
  5
1B15
  8
0
 62
     0
 10
20.240044407095851
 20
153.92890685857611
 30
0.0
 11
19.84316940709585
 21
154.61631452283001
 31
0.0
  0
LINE
  5
1B16
  8
0
 62
     0
 10
16.668169691591949
 20
157.36594534409949
 30
0.0
 11
16.271294691591962
 21
158.05335300835341
 31
0.0
  0
LINE
  5
1B17
  8
0
 62
     0
 10
17.85879469159195
 20
155.3037223513378
 30
0.0
 11
17.461919691591952
 21
155.99113001559169
 31
0.0
  0
LINE
  5
1B18
  8
0
 62
     0
 10
19.04941969159195
 20
153.24149935857611
 30
0.0
 11
18.652544691591949
 21
153.92890702283
 31
0.0
  0
LINE
  5
1B19
  8
0
 62
     0
 10
16.668169976088059
 20
154.61631485133779
 30
0.0
 11
16.271294976088068
 21
155.3037225155916
 31
0.0
  0
LINE
  5
1B1A
  8
0
 62
     0
 10
19.049429648955321
 20
153.24148999610389
 30
0.0
 11
19.843179648955321
 21
153.24148999610389
 31
0.0
  0
LINE
  5
1B1B
  8
0
 62
     0
 10
21.430679648955319
 20
154.61630499610391
 30
0.0
 11
22.224429648955319
 21
154.61630499610391
 31
0.0
  0
LINE
  5
1B1C
  8
0
 62
     0
 10
19.049429648955321
 20
154.61630499610391
 30
0.0
 11
19.843179648955321
 21
154.61630499610391
 31
0.0
  0
LINE
  5
1B1D
  8
0
 62
     0
 10
16.66817964895532
 20
154.61630499610391
 30
0.0
 11
17.461929648955319
 21
154.61630499610391
 31
0.0
  0
LINE
  5
1B1E
  8
0
 62
     0
 10
21.430679648955319
 20
155.99111999610389
 30
0.0
 11
22.224429648955319
 21
155.99111999610389
 31
0.0
  0
LINE
  5
1B1F
  8
0
 62
     0
 10
19.049429648955321
 20
155.99111999610389
 30
0.0
 11
19.843179648955321
 21
155.99111999610389
 31
0.0
  0
LINE
  5
1B20
  8
0
 62
     0
 10
16.66817964895532
 20
155.99111999610389
 30
0.0
 11
17.461929648955319
 21
155.99111999610389
 31
0.0
  0
LINE
  5
1B21
  8
0
 62
     0
 10
21.430679648955319
 20
157.3659349961039
 30
0.0
 11
22.224429648955319
 21
157.3659349961039
 31
0.0
  0
LINE
  5
1B22
  8
0
 62
     0
 10
19.049429648955321
 20
157.3659349961039
 30
0.0
 11
19.843179648955321
 21
157.3659349961039
 31
0.0
  0
LINE
  5
1B23
  8
0
 62
     0
 10
16.66817964895532
 20
157.3659349961039
 30
0.0
 11
17.461929648955319
 21
157.3659349961039
 31
0.0
  0
LINE
  5
1B24
  8
0
 62
     0
 10
21.430679648955319
 20
158.74074999610389
 30
0.0
 11
22.224429648955319
 21
158.74074999610389
 31
0.0
  0
LINE
  5
1B25
  8
0
 62
     0
 10
19.049429648955321
 20
158.74074999610389
 30
0.0
 11
19.843179648955321
 21
158.74074999610389
 31
0.0
  0
LINE
  5
1B26
  8
0
 62
     0
 10
16.66817964895532
 20
158.74074999610389
 30
0.0
 11
17.461929648955319
 21
158.74074999610389
 31
0.0
  0
LINE
  5
1B27
  8
0
 62
     0
 10
21.430679648955319
 20
160.1155649961039
 30
0.0
 11
22.224429648955311
 21
160.1155649961039
 31
0.0
  0
LINE
  5
1B28
  8
0
 62
     0
 10
19.049429648955321
 20
160.1155649961039
 30
0.0
 11
19.843179648955321
 21
160.1155649961039
 31
0.0
  0
LINE
  5
1B29
  8
0
 62
     0
 10
17.133280097088399
 20
160.1155649961039
 30
0.0
 11
17.461929648955319
 21
160.1155649961039
 31
0.0
  0
ENDBLK
  5
1B2B
  8
0
  0
BLOCK
  8
0
  2
*X103
 70
     1
 10
0.0
 20
0.0
 30
0.0
  3
*X103
  1

  0
LINE
  5
1B2D
  8
0
 62
     0
 10
23.800000093401341
 20
186.31035517095779
 30
0.0
 11
23.757422070077808
 21
186.35293319428141
 31
0.0
  0
LINE
  5
1B2E
  8
0
 62
     0
 10
23.800000093401341
 20
185.18782315582419
 30
0.0
 11
23.693277380578969
 21
185.29454586864651
 31
0.0
  0
LINE
  5
1B2F
  8
0
 62
     0
 10
23.800000093401341
 20
184.0652911406905
 30
0.0
 11
23.296582453575319
 21
184.56870878051649
 31
0.0
  0
LINE
  5
1B30
  8
0
 62
     0
 10
23.800000093401341
 20
182.9427591255569
 30
0.0
 11
22.547865467980088
 21
184.19489375097811
 31
0.0
  0
LINE
  5
1B31
  8
0
 62
     0
 10
23.80000009340133
 20
181.82022711042319
 30
0.0
 11
21.94209883740033
 21
183.6781283664242
 31
0.0
  0
LINE
  5
1B32
  8
0
 62
     0
 10
23.800000093401341
 20
180.69769509528959
 30
0.0
 11
21.9451421406796
 21
182.5525530480113
 31
0.0
  0
LINE
  5
1B33
  8
0
 62
     0
 10
23.80000009340133
 20
179.57516308015599
 30
0.0
 11
22.23287905358648
 21
181.14228411997081
 31
0.0
  0
LINE
  5
1B34
  8
0
 62
     0
 10
23.800000093401341
 20
178.4526310650223
 30
0.0
 11
22.52061596649337
 21
179.73201519193029
 31
0.0
  0
LINE
  5
1B35
  8
0
 62
     0
 10
23.80000009340133
 20
177.3300990498887
 30
0.0
 11
22.80835287940026
 21
178.32174626388971
 31
0.0
  0
LINE
  5
1B36
  8
0
 62
     0
 10
23.80000009340133
 20
176.2075670347551
 30
0.0
 11
23.096089792307151
 21
176.91147733584921
 31
0.0
  0
LINE
  5
1B37
  8
0
 62
     0
 10
23.80000009340133
 20
175.08503501962139
 30
0.0
 11
23.115975175089481
 21
175.76905993793321
 31
0.0
  0
LINE
  5
1B38
  8
0
 62
     0
 10
23.80000009340133
 20
173.9625030044877
 30
0.0
 11
23.051830485590671
 21
174.7106726122984
 31
0.0
  0
LINE
  5
1B39
  8
0
 62
     0
 10
23.80000009340133
 20
172.8399709893541
 30
0.0
 11
22.987685796091839
 21
173.65228528666361
 31
0.0
  0
LINE
  5
1B3A
  8
0
 62
     0
 10
23.80000009340133
 20
171.7174389742205
 30
0.0
 11
22.92354110659301
 21
172.5938979610288
 31
0.0
  0
LINE
  5
1B3B
  8
0
 62
     0
 10
23.80000009340133
 20
170.59490695908681
 30
0.0
 11
22.859396417094199
 21
171.5355106353939
 31
0.0
  0
LINE
  5
1B3C
  8
0
 62
     0
 10
23.305464803699529
 20
170.55516792266391
 30
0.0
 11
23.80000009340133
 21
171.0497032123657
 31
0.0
  0
LINE
  5
1B3D
  8
0
 62
     0
 10
22.839791313880081
 20
171.21202644797819
 30
0.0
 11
23.800000093401319
 21
172.17223522749941
 31
0.0
  0
LINE
  5
1B3E
  8
0
 62
     0
 10
22.912212737933149
 20
172.40697988716491
 30
0.0
 11
23.80000009340133
 21
173.29476724263299
 31
0.0
  0
LINE
  5
1B3F
  8
0
 62
     0
 10
22.984634161986211
 20
173.60193332635151
 30
0.0
 11
23.800000093401319
 21
174.4172992577667
 31
0.0
  0
LINE
  5
1B40
  8
0
 62
     0
 10
23.057055586039269
 20
174.7968867655382
 30
0.0
 11
23.80000009340133
 21
175.5398312729003
 31
0.0
  0
LINE
  5
1B41
  8
0
 62
     0
 10
23.129477010092319
 20
175.99184020472501
 30
0.0
 11
23.80000009340133
 21
176.66236328803399
 31
0.0
  0
LINE
  5
1B42
  8
0
 62
     0
 10
23.067365737644181
 20
177.05226094741039
 30
0.0
 11
23.80000009340133
 21
177.78489530316759
 31
0.0
  0
LINE
  5
1B43
  8
0
 62
     0
 10
22.877146193703471
 20
177.98457341860339
 30
0.0
 11
23.800000093401309
 21
178.90742731830119
 31
0.0
  0
LINE
  5
1B44
  8
0
 62
     0
 10
22.686926649762739
 20
178.9168858897963
 30
0.0
 11
23.80000009340133
 21
180.0299593334349
 31
0.0
  0
LINE
  5
1B45
  8
0
 62
     0
 10
22.496707105822011
 20
179.84919836098919
 30
0.0
 11
23.80000009340133
 21
181.1524913485685
 31
0.0
  0
LINE
  5
1B46
  8
0
 62
     0
 10
22.306487561881308
 20
180.78151083218211
 30
0.0
 11
23.80000009340133
 21
182.2750233637021
 31
0.0
  0
LINE
  5
1B47
  8
0
 62
     0
 10
22.116268017940559
 20
181.71382330337511
 30
0.0
 11
23.80000009340133
 21
183.3975553788359
 31
0.0
  0
LINE
  5
1B48
  8
0
 62
     0
 10
21.926048473999849
 20
182.64613577456799
 30
0.0
 11
23.80000009340133
 21
184.5200873939695
 31
0.0
  0
LINE
  5
1B49
  8
0
 62
     0
 10
23.708848402516882
 20
185.5514677182187
 30
0.0
 11
23.80000009340133
 21
185.6426194091031
 31
0.0
  0
LINE
  5
1B4A
  8
0
 62
     0
 10
23.78126982656994
 20
186.74642115740539
 30
0.0
 11
23.80000009340133
 21
186.76515142423679
 31
0.0
  0
ENDBLK
  5
1B4C
  8
0
  0
BLOCK
  8
0
  2
*X104
 70
     1
 10
0.0
 20
0.0
 30
0.0
  3
*X104
  1

  0
LINE
  5
1B4E
  8
0
 62
     0
 10
229.38066400167
 20
161.49040611247349
 30
0.0
 11
229.52866488351231
 21
161.74675115938931
 31
0.0
  0
LINE
  5
1B4F
  8
0
 62
     0
 10
228.1900390016701
 20
159.4281831197118
 30
0.0
 11
228.5869140016701
 21
160.1155907839657
 31
0.0
  0
LINE
  5
1B50
  8
0
 62
     0
 10
227.08461430883381
 20
157.5135313877781
 30
0.0
 11
227.39628900167011
 21
158.05336779120401
 31
0.0
  0
LINE
  5
1B51
  8
0
 62
     0
 10
228.19003928616621
 20
162.17781361247361
 30
0.0
 11
228.58691428616609
 21
162.86522127672751
 31
0.0
  0
LINE
  5
1B52
  8
0
 62
     0
 10
226.9994142861662
 20
160.1155906197119
 30
0.0
 11
227.39628928616611
 21
160.80299828396579
 31
0.0
  0
LINE
  5
1B53
  8
0
 62
     0
 10
225.80878928616619
 20
158.05336762695021
 30
0.0
 11
226.20566428616621
 21
158.7407752912041
 31
0.0
  0
LINE
  5
1B54
  8
0
 62
     0
 10
226.9994145706622
 20
162.86522111247359
 30
0.0
 11
227.3378416361227
 21
163.45139398450749
 31
0.0
  0
LINE
  5
1B55
  8
0
 62
     0
 10
225.8087895706623
 20
160.8029981197119
 30
0.0
 11
226.20566457066229
 21
161.4904057839658
 31
0.0
  0
LINE
  5
1B56
  8
0
 62
     0
 10
224.61816457066229
 20
158.74077512695021
 30
0.0
 11
225.01503957066231
 21
159.42818279120411
 31
0.0
  0
LINE
  5
1B57
  8
0
 62
     0
 10
224.6181648551584
 20
161.49040561971191
 30
0.0
 11
225.01503985515839
 21
162.1778132839658
 31
0.0
  0
LINE
  5
1B58
  8
0
 62
     0
 10
228.58689920787299
 20
161.4903795033421
 30
0.0
 11
228.19002420787299
 21
162.17778716759599
 31
0.0
  0
LINE
  5
1B59
  8
0
 62
     0
 10
229.6675906847434
 20
159.61856695809581
 30
0.0
 11
229.38064920787289
 21
160.1155641748343
 31
0.0
  0
LINE
  5
1B5A
  8
0
 62
     0
 10
226.2056494923691
 20
162.86519499610381
 30
0.0
 11
225.9160403641431
 21
163.36681272052689
 31
0.0
  0
LINE
  5
1B5B
  8
0
 62
     0
 10
227.39627449236909
 20
160.80297200334209
 30
0.0
 11
226.99939949236909
 21
161.49037966759599
 31
0.0
  0
LINE
  5
1B5C
  8
0
 62
     0
 10
228.5868994923691
 20
158.7407490105804
 30
0.0
 11
228.1900244923691
 21
159.4281566748343
 31
0.0
  0
LINE
  5
1B5D
  8
0
 62
     0
 10
225.0150247768652
 20
162.1777874961038
 30
0.0
 11
224.73001373478979
 21
162.6714411016965
 31
0.0
  0
LINE
  5
1B5E
  8
0
 62
     0
 10
226.2056497768651
 20
160.115564503342
 30
0.0
 11
225.80877477686519
 21
160.80297216759601
 31
0.0
  0
LINE
  5
1B5F
  8
0
 62
     0
 10
227.39627477686511
 20
158.0533415105804
 30
0.0
 11
226.9993997768652
 21
158.74074917483429
 31
0.0
  0
LINE
  5
1B60
  8
0
 62
     0
 10
225.01502506136131
 20
159.42815700334211
 30
0.0
 11
224.61815006136129
 21
160.115564667596
 31
0.0
  0
LINE
  5
1B61
  8
0
 62
     0
 10
226.0772276498783
 20
157.58836815209941
 30
0.0
 11
225.80877506136119
 21
158.05334167483429
 31
0.0
  0
LINE
  5
1B62
  8
0
 62
     0
 10
228.58692964895531
 20
158.7407499961038
 30
0.0
 11
229.23002878409341
 21
158.7407499961038
 31
0.0
  0
LINE
  5
1B63
  8
0
 62
     0
 10
226.20567964895531
 20
158.7407499961038
 30
0.0
 11
226.9994296489553
 21
158.7407499961038
 31
0.0
  0
LINE
  5
1B64
  8
0
 62
     0
 10
224.36997140271049
 20
158.7407499961038
 30
0.0
 11
224.61817964895531
 21
158.7407499961038
 31
0.0
  0
LINE
  5
1B65
  8
0
 62
     0
 10
228.58692964895531
 20
160.11556499610381
 30
0.0
 11
229.38067964895529
 21
160.11556499610381
 31
0.0
  0
LINE
  5
1B66
  8
0
 62
     0
 10
226.20567964895531
 20
160.11556499610381
 30
0.0
 11
226.9994296489553
 21
160.11556499610381
 31
0.0
  0
LINE
  5
1B67
  8
0
 62
     0
 10
223.8247337640133
 20
160.11556499610381
 30
0.0
 11
224.61817964895531
 21
160.11556499610381
 31
0.0
  0
LINE
  5
1B68
  8
0
 62
     0
 10
228.58692964895531
 20
161.49037999610391
 30
0.0
 11
229.38067964895529
 21
161.49037999610391
 31
0.0
  0
LINE
  5
1B69
  8
0
 62
     0
 10
226.20567964895531
 20
161.49037999610391
 30
0.0
 11
226.9994296489553
 21
161.49037999610391
 31
0.0
  0
LINE
  5
1B6A
  8
0
 62
     0
 10
223.96819016765591
 20
161.49037999610391
 30
0.0
 11
224.61817964895531
 21
161.49037999610391
 31
0.0
  0
LINE
  5
1B6B
  8
0
 62
     0
 10
228.58692964895531
 20
162.8651949961039
 30
0.0
 11
228.6454953147082
 21
162.8651949961039
 31
0.0
  0
LINE
  5
1B6C
  8
0
 62
     0
 10
226.20567964895531
 20
162.8651949961039
 30
0.0
 11
226.9994296489553
 21
162.8651949961039
 31
0.0
  0
ENDBLK
  5
1B6E
  8
0
  0
BLOCK
  8
0
  2
*X105
 70
     1
 10
0.0
 20
0.0
 30
0.0
  3
*X105
  1

  0
LINE
  5
1B70
  8
0
 62
     0
 10
230.7992622215651
 20
164.623526192951
 30
0.0
 11
230.0872502133326
 21
165.3355382011834
 31
0.0
  0
LINE
  5
1B71
  8
0
 62
     0
 10
230.2379962139982
 20
164.06226018538419
 30
0.0
 11
228.55384296409881
 21
165.74641343528361
 31
0.0
  0
LINE
  5
1B72
  8
0
 62
     0
 10
229.67673020643139
 20
163.5009941778174
 30
0.0
 11
227.02043571486479
 21
166.15728866938389
 31
0.0
  0
LINE
  5
1B73
  8
0
 62
     0
 10
229.344717219052
 20
162.7104751500631
 30
0.0
 11
225.487028465631
 21
166.56816390348411
 31
0.0
  0
LINE
  5
1B74
  8
0
 62
     0
 10
227.5204539321403
 20
163.4122064218412
 30
0.0
 11
223.9536212163971
 21
166.97903913758441
 31
0.0
  0
LINE
  5
1B75
  8
0
 62
     0
 10
229.80000009340159
 20
161.13266026057991
 30
0.0
 11
229.71220651916309
 21
161.22045383481839
 31
0.0
  0
LINE
  5
1B76
  8
0
 62
     0
 10
226.34485544634589
 20
163.46527289250201
 30
0.0
 11
223.80000009340139
 21
166.01012824544651
 31
0.0
  0
LINE
  5
1B77
  8
0
 62
     0
 10
225.4891425860564
 20
163.19845373765779
 30
0.0
 11
223.80000009340139
 21
164.88759623031279
 31
0.0
  0
LINE
  5
1B78
  8
0
 62
     0
 10
224.8153559608923
 20
162.7497083476882
 30
0.0
 11
223.80000009340139
 21
163.76506421517919
 31
0.0
  0
LINE
  5
1B79
  8
0
 62
     0
 10
224.2937226351452
 20
162.1488096583017
 30
0.0
 11
223.80000009340139
 21
162.64253220004551
 31
0.0
  0
LINE
  5
1B7A
  8
0
 62
     0
 10
223.9338604843455
 20
161.38613979396769
 30
0.0
 11
223.80000009340139
 21
161.52000018491179
 31
0.0
  0
LINE
  5
1B7B
  8
0
 62
     0
 10
229.68693648793749
 20
161.31584204813649
 30
0.0
 11
229.80000009340159
 21
161.42890565360059
 31
0.0
  0
LINE
  5
1B7C
  8
0
 62
     0
 10
229.34190244524811
 20
162.0933400205808
 30
0.0
 11
229.629306510242
 21
162.38074408557461
 31
0.0
  0
LINE
  5
1B7D
  8
0
 62
     0
 10
228.8325514338961
 20
162.70652102436239
 30
0.0
 11
231.17114096036599
 21
165.04511055083231
 31
0.0
  0
LINE
  5
1B7E
  8
0
 62
     0
 10
228.17159350167461
 20
163.16809510727461
 30
0.0
 11
230.2858278722434
 21
165.2823294778434
 31
0.0
  0
LINE
  5
1B7F
  8
0
 62
     0
 10
227.33320207794199
 20
163.45223569867559
 30
0.0
 11
229.40051478412099
 21
165.5195484048545
 31
0.0
  0
LINE
  5
1B80
  8
0
 62
     0
 10
226.19726176336169
 20
163.4388273992289
 30
0.0
 11
228.5152016959984
 21
165.75676733186569
 31
0.0
  0
LINE
  5
1B81
  8
0
 62
     0
 10
223.80000009340139
 20
161.0415657292686
 30
0.0
 11
223.8611726902522
 21
161.10273832611941
 31
0.0
  0
LINE
  5
1B82
  8
0
 62
     0
 10
223.80000009340139
 20
162.1640977444022
 30
0.0
 11
227.6298886078759
 21
165.99398625887679
 31
0.0
  0
LINE
  5
1B83
  8
0
 62
     0
 10
223.80000009340139
 20
163.28662975953591
 30
0.0
 11
226.7445755197534
 21
166.23120518588789
 31
0.0
  0
LINE
  5
1B84
  8
0
 62
     0
 10
223.80000009340139
 20
164.4091617746696
 30
0.0
 11
225.8592624316309
 21
166.46842411289899
 31
0.0
  0
LINE
  5
1B85
  8
0
 62
     0
 10
223.80000009340139
 20
165.5316937898032
 30
0.0
 11
224.97394934350839
 21
166.7056430399102
 31
0.0
  0
LINE
  5
1B86
  8
0
 62
     0
 10
223.80000009340139
 20
166.6542258049368
 30
0.0
 11
224.08863625538581
 21
166.9428619669213
 31
0.0
  0
ENDBLK
  5
1B88
  8
0
  0
BLOCK
  8
0
  2
*X106
 70
     1
 10
0.0
 20
0.0
 30
0.0
  3
*X106
  1

  0
LINE
  5
1B8A
  8
0
 62
     0
 10
23.80000009340143
 20
167.22731091368581
 30
0.0
 11
23.53976552804049
 21
167.4875454790467
 31
0.0
  0
LINE
  5
1B8B
  8
0
 62
     0
 10
23.80000009340144
 20
166.1047788985521
 30
0.0
 11
22.654452439917971
 21
167.2503265520356
 31
0.0
  0
LINE
  5
1B8C
  8
0
 62
     0
 10
23.80000009340143
 20
164.9822468834185
 30
0.0
 11
21.769139351795449
 21
167.01310762502439
 31
0.0
  0
LINE
  5
1B8D
  8
0
 62
     0
 10
23.80000009340143
 20
163.85971486828481
 30
0.0
 11
20.88382626367294
 21
166.77588869801329
 31
0.0
  0
LINE
  5
1B8E
  8
0
 62
     0
 10
23.800000093401451
 20
162.73718285315121
 30
0.0
 11
19.998513175550421
 21
166.53866977100219
 31
0.0
  0
LINE
  5
1B8F
  8
0
 62
     0
 10
23.80000009340144
 20
161.6146508380175
 30
0.0
 11
19.113200087427909
 21
166.30145084399101
 31
0.0
  0
LINE
  5
1B90
  8
0
 62
     0
 10
23.80000009340144
 20
160.4921188228839
 30
0.0
 11
18.227886999305401
 21
166.06423191697991
 31
0.0
  0
LINE
  5
1B91
  8
0
 62
     0
 10
23.80000009340143
 20
159.36958680775021
 30
0.0
 11
17.342573911182878
 21
165.82701298996881
 31
0.0
  0
LINE
  5
1B92
  8
0
 62
     0
 10
21.26853701485604
 20
160.77851787116199
 30
0.0
 11
16.45726082306037
 21
165.58979406295771
 31
0.0
  0
LINE
  5
1B93
  8
0
 62
     0
 10
23.80000009340144
 20
158.24705479261661
 30
0.0
 11
23.50444384641267
 21
158.54261103960539
 31
0.0
  0
LINE
  5
1B94
  8
0
 62
     0
 10
19.851733786984941
 20
161.07278908389949
 30
0.0
 11
15.57194773493786
 21
165.35257513594661
 31
0.0
  0
LINE
  5
1B95
  8
0
 62
     0
 10
23.800000093401451
 20
157.12452277748301
 30
0.0
 11
23.798715059150119
 21
157.12580781173429
 31
0.0
  0
LINE
  5
1B96
  8
0
 62
     0
 10
18.833017922798149
 20
160.9689729329526
 30
0.0
 11
14.686634646815349
 21
165.1153562089354
 31
0.0
  0
LINE
  5
1B97
  8
0
 62
     0
 10
18.001907521106311
 20
160.6775513195108
 30
0.0
 11
15.6994296491442
 21
162.98002919147291
 31
0.0
  0
LINE
  5
1B98
  8
0
 62
     0
 10
17.30435620943566
 20
160.25257061604779
 30
0.0
 11
15.69942964914418
 21
161.85749717633931
 31
0.0
  0
LINE
  5
1B99
  8
0
 62
     0
 10
16.721199660448921
 20
159.71319514990091
 30
0.0
 11
15.69942964914417
 21
160.73496516120559
 31
0.0
  0
LINE
  5
1B9A
  8
0
 62
     0
 10
16.249723641584328
 20
159.06213915363179
 30
0.0
 11
15.699429649144159
 21
159.61243314607199
 31
0.0
  0
LINE
  5
1B9B
  8
0
 62
     0
 10
15.901671084725781
 20
158.28765969535681
 30
0.0
 11
15.69942964914414
 21
158.48990113093839
 31
0.0
  0
LINE
  5
1B9C
  8
0
 62
     0
 10
15.712904173409809
 20
157.3538945915391
 30
0.0
 11
15.699429649144131
 21
157.36736911580479
 31
0.0
  0
LINE
  5
1B9D
  8
0
 62
     0
 10
23.766250168427561
 20
157.54556910578819
 30
0.0
 11
23.80000009340144
 21
157.57931903076221
 31
0.0
  0
LINE
  5
1B9E
  8
0
 62
     0
 10
23.542652948266049
 20
158.4445039007604
 30
0.0
 11
23.80000009340144
 21
158.70185104589581
 31
0.0
  0
LINE
  5
1B9F
  8
0
 62
     0
 10
23.16955114324114
 20
159.19393411086909
 30
0.0
 11
23.800000093401451
 21
159.82438306102941
 31
0.0
  0
LINE
  5
1BA0
  8
0
 62
     0
 10
22.676572729209632
 20
159.8234877119713
 30
0.0
 11
23.80000009340144
 21
160.94691507616309
 31
0.0
  0
LINE
  5
1BA1
  8
0
 62
     0
 10
22.072438523558969
 20
160.34188552145429
 30
0.0
 11
23.80000009340144
 21
162.06944709129669
 31
0.0
  0
LINE
  5
1BA2
  8
0
 62
     0
 10
21.351781882031819
 20
160.74376089506069
 30
0.0
 11
23.80000009340143
 21
163.1919791064303
 31
0.0
  0
LINE
  5
1BA3
  8
0
 62
     0
 10
20.491126568607601
 20
161.00563759677021
 30
0.0
 11
23.80000009340143
 21
164.31451112156401
 31
0.0
  0
LINE
  5
1BA4
  8
0
 62
     0
 10
19.423905583070351
 20
161.06094862636661
 30
0.0
 11
23.80000009340144
 21
165.43704313669761
 31
0.0
  0
LINE
  5
1BA5
  8
0
 62
     0
 10
15.69942964914415
 20
157.3364726924404
 30
0.0
 11
15.71255514092835
 21
157.34959818422459
 31
0.0
  0
LINE
  5
1BA6
  8
0
 62
     0
 10
17.831418593714101
 20
160.59099365214391
 30
0.0
 11
23.80000009340143
 21
166.5595751518313
 31
0.0
  0
LINE
  5
1BA7
  8
0
 62
     0
 10
15.69942964914417
 20
158.459004707574
 30
0.0
 11
16.182510115150961
 21
158.94208517358081
 31
0.0
  0
LINE
  5
1BA8
  8
0
 62
     0
 10
15.69942964914417
 20
159.58153672270771
 30
0.0
 11
23.629476346966889
 21
167.5115834205304
 31
0.0
  0
LINE
  5
1BA9
  8
0
 62
     0
 10
15.69942964914417
 20
160.70406873784131
 30
0.0
 11
22.096069097733
 21
167.1007081864301
 31
0.0
  0
LINE
  5
1BAA
  8
0
 62
     0
 10
15.699429649144189
 20
161.826600752975
 30
0.0
 11
20.562661848499101
 21
166.68983295232991
 31
0.0
  0
LINE
  5
1BAB
  8
0
 62
     0
 10
15.6994296491442
 20
162.9491327681086
 30
0.0
 11
19.029254599265201
 21
166.27895771822961
 31
0.0
  0
LINE
  5
1BAC
  8
0
 62
     0
 10
15.526240336072711
 20
163.89847547017081
 30
0.0
 11
17.495847350031319
 21
165.86808248412939
 31
0.0
  0
LINE
  5
1BAD
  8
0
 62
     0
 10
14.96497432850591
 20
164.45974147773759
 30
0.0
 11
15.96244010079743
 21
165.45720725002909
 31
0.0
  0
LINE
  5
1BAE
  8
0
 62
     0
 10
14.37424443428052
 20
164.9915435986459
 30
0.0
 11
14.42903285156353
 21
165.0463320159289
 31
0.0
  0
ENDBLK
  5
1BB0
  8
0
  0
BLOCK
  8
0
  2
*X107
 70
     1
 10
0.0
 20
0.0
 30
0.0
  3
*X107
  1

  0
LINE
  5
1BB2
  8
0
 62
     0
 10
23.415057493916361
 20
156.67854178619299
 30
0.0
 11
23.78872777352743
 21
157.3257576957578
 31
0.0
  0
LINE
  5
1BB3
  8
0
 62
     0
 10
22.22443249391635
 20
154.6163187934313
 30
0.0
 11
22.621307493916351
 21
155.3037264576852
 31
0.0
  0
LINE
  5
1BB4
  8
0
 62
     0
 10
22.22443277841246
 20
157.365949286193
 30
0.0
 11
22.621307778412461
 21
158.0533569504469
 31
0.0
  0
LINE
  5
1BB5
  8
0
 62
     0
 10
21.033807778412459
 20
155.30372629343131
 30
0.0
 11
21.430682778412461
 21
155.99113395768521
 31
0.0
  0
LINE
  5
1BB6
  8
0
 62
     0
 10
19.843182778412451
 20
153.24150330066959
 30
0.0
 11
20.240057778412449
 21
153.92891096492349
 31
0.0
  0
LINE
  5
1BB7
  8
0
 62
     0
 10
22.22443306290856
 20
160.1155797789547
 30
0.0
 11
22.26997121810961
 21
160.19445417744581
 31
0.0
  0
LINE
  5
1BB8
  8
0
 62
     0
 10
21.033808062908552
 20
158.05335678619301
 30
0.0
 11
21.43068306290856
 21
158.7407644504469
 31
0.0
  0
LINE
  5
1BB9
  8
0
 62
     0
 10
19.843183062908551
 20
155.99113379343129
 30
0.0
 11
20.240058062908549
 21
156.67854145768521
 31
0.0
  0
LINE
  5
1BBA
  8
0
 62
     0
 10
18.65255806290855
 20
153.9289108006696
 30
0.0
 11
19.049433062908552
 21
154.61631846492349
 31
0.0
  0
LINE
  5
1BBB
  8
0
 62
     0
 10
21.033808347404658
 20
160.8029872789547
 30
0.0
 11
21.06381982445572
 21
160.8549686820173
 31
0.0
  0
LINE
  5
1BBC
  8
0
 62
     0
 10
19.843183347404651
 20
158.74076428619301
 30
0.0
 11
20.240058347404648
 21
159.42817195044691
 31
0.0
  0
LINE
  5
1BBD
  8
0
 62
     0
 10
18.652558347404639
 20
156.67854129343129
 30
0.0
 11
19.049433347404651
 21
157.36594895768519
 31
0.0
  0
LINE
  5
1BBE
  8
0
 62
     0
 10
17.461933347404639
 20
154.6163183006696
 30
0.0
 11
17.85880834740464
 21
155.3037259649235
 31
0.0
  0
LINE
  5
1BBF
  8
0
 62
     0
 10
18.65255863190076
 20
159.42817178619299
 30
0.0
 11
19.049433631900762
 21
160.11557945044689
 31
0.0
  0
LINE
  5
1BC0
  8
0
 62
     0
 10
17.461933631900749
 20
157.3659487934313
 30
0.0
 11
17.85880863190075
 21
158.0533564576852
 31
0.0
  0
LINE
  5
1BC1
  8
0
 62
     0
 10
16.271308631900752
 20
155.30372580066961
 30
0.0
 11
16.668183631900749
 21
155.99113346492351
 31
0.0
  0
LINE
  5
1BC2
  8
0
 62
     0
 10
17.461933916396841
 20
160.115579286193
 30
0.0
 11
17.690568243120079
 21
160.51158555643201
 31
0.0
  0
LINE
  5
1BC3
  8
0
 62
     0
 10
16.27130891639683
 20
158.05335629343131
 30
0.0
 11
16.668183916396831
 21
158.7407639576852
 31
0.0
  0
LINE
  5
1BC4
  8
0
 62
     0
 10
21.430668553607571
 20
160.11557534409951
 30
0.0
 11
21.03379355360758
 21
160.80298300835341
 31
0.0
  0
LINE
  5
1BC5
  8
0
 62
     0
 10
22.621293553607568
 20
158.05335235133779
 30
0.0
 11
22.224418553607581
 21
158.74076001559169
 31
0.0
  0
LINE
  5
1BC6
  8
0
 62
     0
 10
23.708896428415098
 20
156.16956891371311
 30
0.0
 11
23.415043553607571
 21
156.67853702283
 31
0.0
  0
LINE
  5
1BC7
  8
0
 62
     0
 10
20.240043838103681
 20
159.42816784409939
 30
0.0
 11
19.843168838103669
 21
160.11557550835329
 31
0.0
  0
LINE
  5
1BC8
  8
0
 62
     0
 10
21.430668838103671
 20
157.36594485133779
 30
0.0
 11
21.033793838103669
 21
158.05335251559171
 31
0.0
  0
LINE
  5
1BC9
  8
0
 62
     0
 10
22.621293838103671
 20
155.3037218585761
 30
0.0
 11
22.22441883810367
 21
155.99112952282999
 31
0.0
  0
LINE
  5
1BCA
  8
0
 62
     0
 10
19.049419122599769
 20
158.74076034409941
 30
0.0
 11
18.652544122599782
 21
159.42816800835331
 31
0.0
  0
LINE
  5
1BCB
  8
0
 62
     0
 10
20.24004412259977
 20
156.67853735133781
 30
0.0
 11
19.843169122599772
 21
157.36594501559171
 31
0.0
  0
LINE
  5
1BCC
  8
0
 62
     0
 10
21.43066912259977
 20
154.61631435857609
 30
0.0
 11
21.033794122599769
 21
155.30372202282999
 31
0.0
  0
LINE
  5
1BCD
  8
0
 62
     0
 10
17.85879440709585
 20
158.05335284409949
 30
0.0
 11
17.461919407095859
 21
158.74076050835339
 31
0.0
  0
LINE
  5
1BCE
  8
0
 62
     0
 10
19.049419407095851
 20
155.9911298513378
 30
0.0
 11
18.652544407095849
 21
156.6785375155917
 31
0.0
  0
LINE
  5
1BCF
  8
0
 62
     0
 10
20.240044407095851
 20
153.92890685857611
 30
0.0
 11
19.84316940709585
 21
154.61631452283001
 31
0.0
  0
LINE
  5
1BD0
  8
0
 62
     0
 10
16.668169691591949
 20
157.36594534409949
 30
0.0
 11
16.271294691591962
 21
158.05335300835341
 31
0.0
  0
LINE
  5
1BD1
  8
0
 62
     0
 10
17.85879469159195
 20
155.3037223513378
 30
0.0
 11
17.461919691591952
 21
155.99113001559169
 31
0.0
  0
LINE
  5
1BD2
  8
0
 62
     0
 10
19.04941969159195
 20
153.24149935857611
 30
0.0
 11
18.652544691591949
 21
153.92890702283
 31
0.0
  0
LINE
  5
1BD3
  8
0
 62
     0
 10
16.668169976088059
 20
154.61631485133779
 30
0.0
 11
16.271294976088068
 21
155.3037225155916
 31
0.0
  0
LINE
  5
1BD4
  8
0
 62
     0
 10
19.049429648955321
 20
153.24148999610389
 30
0.0
 11
19.843179648955321
 21
153.24148999610389
 31
0.0
  0
LINE
  5
1BD5
  8
0
 62
     0
 10
21.430679648955319
 20
154.61630499610391
 30
0.0
 11
22.224429648955319
 21
154.61630499610391
 31
0.0
  0
LINE
  5
1BD6
  8
0
 62
     0
 10
19.049429648955321
 20
154.61630499610391
 30
0.0
 11
19.843179648955321
 21
154.61630499610391
 31
0.0
  0
LINE
  5
1BD7
  8
0
 62
     0
 10
16.66817964895532
 20
154.61630499610391
 30
0.0
 11
17.461929648955319
 21
154.61630499610391
 31
0.0
  0
LINE
  5
1BD8
  8
0
 62
     0
 10
21.430679648955319
 20
155.99111999610389
 30
0.0
 11
22.224429648955319
 21
155.99111999610389
 31
0.0
  0
LINE
  5
1BD9
  8
0
 62
     0
 10
19.049429648955321
 20
155.99111999610389
 30
0.0
 11
19.843179648955321
 21
155.99111999610389
 31
0.0
  0
LINE
  5
1BDA
  8
0
 62
     0
 10
16.66817964895532
 20
155.99111999610389
 30
0.0
 11
17.461929648955319
 21
155.99111999610389
 31
0.0
  0
LINE
  5
1BDB
  8
0
 62
     0
 10
21.430679648955319
 20
157.3659349961039
 30
0.0
 11
22.224429648955319
 21
157.3659349961039
 31
0.0
  0
LINE
  5
1BDC
  8
0
 62
     0
 10
19.049429648955321
 20
157.3659349961039
 30
0.0
 11
19.843179648955321
 21
157.3659349961039
 31
0.0
  0
LINE
  5
1BDD
  8
0
 62
     0
 10
16.66817964895532
 20
157.3659349961039
 30
0.0
 11
17.461929648955319
 21
157.3659349961039
 31
0.0
  0
LINE
  5
1BDE
  8
0
 62
     0
 10
21.430679648955319
 20
158.74074999610389
 30
0.0
 11
22.224429648955319
 21
158.74074999610389
 31
0.0
  0
LINE
  5
1BDF
  8
0
 62
     0
 10
19.049429648955321
 20
158.74074999610389
 30
0.0
 11
19.843179648955321
 21
158.74074999610389
 31
0.0
  0
LINE
  5
1BE0
  8
0
 62
     0
 10
16.66817964895532
 20
158.74074999610389
 30
0.0
 11
17.461929648955319
 21
158.74074999610389
 31
0.0
  0
LINE
  5
1BE1
  8
0
 62
     0
 10
21.430679648955319
 20
160.1155649961039
 30
0.0
 11
22.224429648955311
 21
160.1155649961039
 31
0.0
  0
LINE
  5
1BE2
  8
0
 62
     0
 10
19.049429648955321
 20
160.1155649961039
 30
0.0
 11
19.843179648955321
 21
160.1155649961039
 31
0.0
  0
LINE
  5
1BE3
  8
0
 62
     0
 10
17.133280097088399
 20
160.1155649961039
 30
0.0
 11
17.461929648955319
 21
160.1155649961039
 31
0.0
  0
ENDBLK
  5
1BE5
  8
0
  0
BLOCK
  8
0
  2
*X108
 70
     1
 10
0.0
 20
0.0
 30
0.0
  3
*X108
  1

  0
LINE
  5
1BE7
  8
0
 62
     0
 10
65.568499475788144
 20
66.399999994308658
 30
0.0
 11
65.568499475788144
 21
70.599999994308703
 31
0.0
  0
LINE
  5
1BE8
  8
0
 62
     0
 10
64.457249475788132
 20
66.848861506899539
 30
0.0
 11
64.457249475788132
 21
70.151138281309699
 31
0.0
  0
LINE
  5
1BE9
  8
0
 62
     0
 10
63.34599947578814
 20
67.526744068157385
 30
0.0
 11
63.34599947578814
 21
69.550331634000074
 31
0.0
  0
LINE
  5
1BEA
  8
0
 62
     0
 10
62.234749475788142
 20
67.499999994368977
 30
0.0
 11
62.234749475788142
 21
69.499999994911093
 31
0.0
  0
LINE
  5
1BEB
  8
0
 62
     0
 10
61.12349947578813
 20
67.499999994368977
 30
0.0
 11
61.12349947578813
 21
69.499999994885172
 31
0.0
  0
LINE
  5
1BEC
  8
0
 62
     0
 10
60.012249475788138
 20
67.499999994368977
 30
0.0
 11
60.012249475788138
 21
69.499999994859252
 31
0.0
  0
LINE
  5
1BED
  8
0
 62
     0
 10
58.90099947578814
 20
67.499999994368977
 30
0.0
 11
58.90099947578814
 21
69.499999994833317
 31
0.0
  0
LINE
  5
1BEE
  8
0
 62
     0
 10
57.789749475788142
 20
67.499999994368977
 30
0.0
 11
57.789749475788142
 21
69.499999994807396
 31
0.0
  0
LINE
  5
1BEF
  8
0
 62
     0
 10
56.678499475788129
 20
67.499999994368977
 30
0.0
 11
56.678499475788129
 21
69.499999994781476
 31
0.0
  0
LINE
  5
1BF0
  8
0
 62
     0
 10
55.567249475788138
 20
67.499999994368977
 30
0.0
 11
55.567249475788138
 21
69.499999994755541
 31
0.0
  0
LINE
  5
1BF1
  8
0
 62
     0
 10
54.45599947578814
 20
67.499999994368977
 30
0.0
 11
54.45599947578814
 21
69.49999999472962
 31
0.0
  0
LINE
  5
1BF2
  8
0
 62
     0
 10
53.344749475788142
 20
67.499999994368977
 30
0.0
 11
53.344749475788142
 21
69.499999994703686
 31
0.0
  0
LINE
  5
1BF3
  8
0
 62
     0
 10
52.233499475788143
 20
67.499999994368977
 30
0.0
 11
52.233499475788143
 21
69.499999994677765
 31
0.0
  0
LINE
  5
1BF4
  8
0
 62
     0
 10
51.122249475788131
 20
67.499999994368977
 30
0.0
 11
51.122249475788131
 21
69.499999994651844
 31
0.0
  0
LINE
  5
1BF5
  8
0
 62
     0
 10
50.01099947578814
 20
67.499999994368991
 30
0.0
 11
50.01099947578814
 21
69.499999994625895
 31
0.0
  0
LINE
  5
1BF6
  8
0
 62
     0
 10
48.899749475788141
 20
67.499999994368991
 30
0.0
 11
48.899749475788141
 21
69.499999994599989
 31
0.0
  0
LINE
  5
1BF7
  8
0
 62
     0
 10
47.788499475788143
 20
67.499999994368991
 30
0.0
 11
47.788499475788143
 21
69.499999994574068
 31
0.0
  0
LINE
  5
1BF8
  8
0
 62
     0
 10
46.677249475788138
 20
67.499999994368991
 30
0.0
 11
46.677249475788138
 21
69.499999994548133
 31
0.0
  0
LINE
  5
1BF9
  8
0
 62
     0
 10
45.565999475788132
 20
67.499999994368991
 30
0.0
 11
45.565999475788132
 21
69.499999994522213
 31
0.0
  0
LINE
  5
1BFA
  8
0
 62
     0
 10
44.454749475788141
 20
67.499999994368991
 30
0.0
 11
44.454749475788141
 21
69.499999994496292
 31
0.0
  0
LINE
  5
1BFB
  8
0
 62
     0
 10
43.343499475788143
 20
67.499999994368991
 30
0.0
 11
43.343499475788143
 21
69.499999994470357
 31
0.0
  0
LINE
  5
1BFC
  8
0
 62
     0
 10
42.232249475788137
 20
67.499999994368991
 30
0.0
 11
42.232249475788137
 21
69.499999994444437
 31
0.0
  0
LINE
  5
1BFD
  8
0
 62
     0
 10
41.120999475788139
 20
67.499999994368991
 30
0.0
 11
41.120999475788139
 21
69.499999994418516
 31
0.0
  0
LINE
  5
1BFE
  8
0
 62
     0
 10
40.009749475788126
 20
67.499999994368991
 30
0.0
 11
40.009749475788126
 21
69.499999994392581
 31
0.0
  0
LINE
  5
1BFF
  8
0
 62
     0
 10
38.898499475788142
 20
67.499999994368991
 30
0.0
 11
38.898499475788142
 21
69.504123449411679
 31
0.0
  0
LINE
  5
1C00
  8
0
 62
     0
 10
37.787249475788137
 20
66.989067195704735
 30
0.0
 11
37.787249475788137
 21
70.010932529918207
 31
0.0
  0
LINE
  5
1C01
  8
0
 62
     0
 10
36.675999475788153
 20
66.399999994314413
 30
0.0
 11
36.675999475788153
 21
70.599999994314487
 31
0.0
  0
ENDBLK
  5
1C03
  8
0
  0
BLOCK
  8
0
  2
*X109
 70
     1
 10
0.0
 20
0.0
 30
0.0
  3
*X109
  1

  0
LINE
  5
1C05
  8
0
 62
     0
 10
39.99730242065101
 20
1.111249999999999
 30
0.0
 11
62.002697577211201
 21
1.111249999999999
 31
0.0
  0
LINE
  5
1C06
  8
0
 62
     0
 10
60.253142255002437
 20
2.2224999999999988
 30
0.0
 11
62.407159500039498
 21
2.2224999999999988
 31
0.0
  0
LINE
  5
1C07
  8
0
 62
     0
 10
39.592840497822714
 20
2.2224999999999988
 30
0.0
 11
41.746857742859113
 21
2.2224999999999988
 31
0.0
  0
LINE
  5
1C08
  8
0
 62
     0
 10
64.975393596821519
 20
2.2224999999999988
 30
0.0
 11
65.910771867118143
 21
2.2224999999999988
 31
0.0
  0
LINE
  5
1C09
  8
0
 62
     0
 10
36.089228130747131
 20
2.2224999999999988
 30
0.0
 11
37.02322750587355
 21
2.2224999999999988
 31
0.0
  0
LINE
  5
1C0A
  8
0
 62
     0
 10
60.683265877916043
 20
3.3337499999999989
 30
0.0
 11
63.595775389670237
 21
3.3337499999999989
 31
0.0
  0
LINE
  5
1C0B
  8
0
 62
     0
 10
38.404224608192031
 20
3.3337499999999989
 30
0.0
 11
41.316734119946197
 21
3.3337499999999989
 31
0.0
  0
LINE
  5
1C0C
  8
0
 62
     0
 10
63.721950861259408
 20
3.3337499999999989
 30
0.0
 11
65.999999998931102
 21
3.3337499999999989
 31
0.0
  0
LINE
  5
1C0D
  8
0
 62
     0
 10
35.999999998931088
 20
3.3337499999999989
 30
0.0
 11
38.278049136602903
 21
3.3337499999999989
 31
0.0
  0
LINE
  5
1C0E
  8
0
 62
     0
 10
61.087727800744361
 20
4.4449999999999994
 30
0.0
 11
65.999999998931116
 21
4.4449999999999994
 31
0.0
  0
LINE
  5
1C0F
  8
0
 62
     0
 10
35.999999998931088
 20
4.4449999999999994
 30
0.0
 11
40.9122721971179
 21
4.4449999999999994
 31
0.0
  0
LINE
  5
1C10
  8
0
 62
     0
 10
63.988291175526562
 20
5.5562499999999986
 30
0.0
 11
65.999999998931145
 21
5.5562499999999986
 31
0.0
  0
LINE
  5
1C11
  8
0
 62
     0
 10
35.999999998931088
 20
5.5562499999999986
 30
0.0
 11
38.011708822335677
 21
5.5562499999999986
 31
0.0
  0
ENDBLK
  5
1C13
  8
0
  0
BLOCK
  8
0
  2
*X110
 70
     1
 10
0.0
 20
0.0
 30
0.0
  3
*X110
  1

  0
LINE
  5
1C15
  8
0
 62
     0
 10
36.431500612624617
 20
50.62712136223962
 30
0.0
 11
36.431500612624617
 21
46.427121362239561
 31
0.0
  0
LINE
  5
1C16
  8
0
 62
     0
 10
37.542750612624623
 20
50.178259849648718
 30
0.0
 11
37.542750612624623
 21
46.875983075238558
 31
0.0
  0
LINE
  5
1C17
  8
0
 62
     0
 10
38.654000612624621
 20
49.500377288390879
 30
0.0
 11
38.654000612624621
 21
47.47678972254819
 31
0.0
  0
LINE
  5
1C18
  8
0
 62
     0
 10
39.765250612624619
 20
49.527121362179287
 30
0.0
 11
39.765250612624619
 21
47.527121361637157
 31
0.0
  0
LINE
  5
1C19
  8
0
 62
     0
 10
40.876500612624611
 20
49.527121362179287
 30
0.0
 11
40.876500612624611
 21
47.527121361663092
 31
0.0
  0
LINE
  5
1C1A
  8
0
 62
     0
 10
41.987750612624623
 20
49.527121362179287
 30
0.0
 11
41.987750612624623
 21
47.527121361689012
 31
0.0
  0
LINE
  5
1C1B
  8
0
 62
     0
 10
43.099000612624607
 20
49.527121362179287
 30
0.0
 11
43.099000612624607
 21
47.527121361714947
 31
0.0
  0
LINE
  5
1C1C
  8
0
 62
     0
 10
44.210250612624613
 20
49.527121362179287
 30
0.0
 11
44.210250612624613
 21
47.527121361740861
 31
0.0
  0
LINE
  5
1C1D
  8
0
 62
     0
 10
45.321500612624618
 20
49.527121362179287
 30
0.0
 11
45.321500612624618
 21
47.527121361766788
 31
0.0
  0
LINE
  5
1C1E
  8
0
 62
     0
 10
46.432750612624623
 20
49.527121362179287
 30
0.0
 11
46.432750612624623
 21
47.527121361792723
 31
0.0
  0
LINE
  5
1C1F
  8
0
 62
     0
 10
47.544000612624622
 20
49.527121362179287
 30
0.0
 11
47.544000612624622
 21
47.527121361818637
 31
0.0
  0
LINE
  5
1C20
  8
0
 62
     0
 10
48.65525061262462
 20
49.527121362179287
 30
0.0
 11
48.65525061262462
 21
47.527121361844571
 31
0.0
  0
LINE
  5
1C21
  8
0
 62
     0
 10
49.766500612624618
 20
49.527121362179287
 30
0.0
 11
49.766500612624618
 21
47.527121361870492
 31
0.0
  0
LINE
  5
1C22
  8
0
 62
     0
 10
50.877750612624617
 20
49.527121362179273
 30
0.0
 11
50.877750612624617
 21
47.527121361896413
 31
0.0
  0
LINE
  5
1C23
  8
0
 62
     0
 10
51.989000612624608
 20
49.527121362179273
 30
0.0
 11
51.989000612624608
 21
47.527121361922333
 31
0.0
  0
LINE
  5
1C24
  8
0
 62
     0
 10
53.100250612624613
 20
49.527121362179273
 30
0.0
 11
53.100250612624613
 21
47.527121361948247
 31
0.0
  0
LINE
  5
1C25
  8
0
 62
     0
 10
54.211500612624612
 20
49.527121362179273
 30
0.0
 11
54.211500612624612
 21
47.527121361974189
 31
0.0
  0
LINE
  5
1C26
  8
0
 62
     0
 10
55.322750612624617
 20
49.527121362179273
 30
0.0
 11
55.322750612624617
 21
47.527121362000109
 31
0.0
  0
LINE
  5
1C27
  8
0
 62
     0
 10
56.434000612624622
 20
49.527121362179273
 30
0.0
 11
56.434000612624622
 21
47.52712136202603
 31
0.0
  0
LINE
  5
1C28
  8
0
 62
     0
 10
57.545250612624621
 20
49.527121362179258
 30
0.0
 11
57.545250612624621
 21
47.527121362051957
 31
0.0
  0
LINE
  5
1C29
  8
0
 62
     0
 10
58.656500612624619
 20
49.527121362179258
 30
0.0
 11
58.656500612624619
 21
47.527121362077892
 31
0.0
  0
LINE
  5
1C2A
  8
0
 62
     0
 10
59.76775061262461
 20
49.527121362179258
 30
0.0
 11
59.76775061262461
 21
47.527121362103813
 31
0.0
  0
LINE
  5
1C2B
  8
0
 62
     0
 10
60.879000612624623
 20
49.527121362179273
 30
0.0
 11
60.879000612624623
 21
47.527121362129741
 31
0.0
  0
LINE
  5
1C2C
  8
0
 62
     0
 10
61.990250612624607
 20
49.527121362179273
 30
0.0
 11
61.990250612624607
 21
47.527121362155661
 31
0.0
  0
LINE
  5
1C2D
  8
0
 62
     0
 10
63.101500612624612
 20
49.527121362179273
 30
0.0
 11
63.101500612624612
 21
47.52299790713657
 31
0.0
  0
LINE
  5
1C2E
  8
0
 62
     0
 10
64.212750612624617
 20
50.038054160843529
 30
0.0
 11
64.212750612624617
 21
47.016188826630042
 31
0.0
  0
LINE
  5
1C2F
  8
0
 62
     0
 10
65.324000612624616
 20
50.627121362233837
 30
0.0
 11
65.324000612624616
 21
46.427121362233763
 31
0.0
  0
ENDBLK
  5
1C31
  8
0
  0
BLOCK
  8
0
  2
*X111
 70
     1
 10
0.0
 20
0.0
 30
0.0
  3
*X111
  1

  0
LINE
  5
1C33
  8
0
 62
     0
 10
40.195856225418311
 20
75.564999999999984
 30
0.0
 11
61.804143960956559
 21
75.564999999999984
 31
0.0
  0
LINE
  5
1C34
  8
0
 62
     0
 10
39.791394302590021
 20
76.676249999999996
 30
0.0
 11
62.20860588378487
 21
76.676249999999996
 31
0.0
  0
LINE
  5
1C35
  8
0
 62
     0
 10
60.4847122616614
 20
77.787499999999994
 30
0.0
 11
62.613067806613181
 21
77.787499999999994
 31
0.0
  0
LINE
  5
1C36
  8
0
 62
     0
 10
39.38693237976171
 20
77.787499999999994
 30
0.0
 11
41.515287924713498
 21
77.787499999999994
 31
0.0
  0
LINE
  5
1C37
  8
0
 62
     0
 10
64.000674775326289
 20
77.787499999999994
 30
0.0
 11
66.000000093187424
 21
77.787499999999994
 31
0.0
  0
LINE
  5
1C38
  8
0
 62
     0
 10
36.000000093187431
 20
77.787499999999994
 30
0.0
 11
37.996729665024311
 21
77.787499999999994
 31
0.0
  0
LINE
  5
1C39
  8
0
 62
     0
 10
60.889174184489711
 20
78.898749999999993
 30
0.0
 11
66.000000093187452
 21
78.898749999999993
 31
0.0
  0
LINE
  5
1C3A
  8
0
 62
     0
 10
36.000000093187431
 20
78.898749999999993
 30
0.0
 11
41.110826001885187
 21
78.898749999999993
 31
0.0
  0
LINE
  5
1C3B
  8
0
 62
     0
 10
61.505261732617818
 20
80.009999999999991
 30
0.0
 11
66.000000093187467
 21
80.009999999999991
 31
0.0
  0
LINE
  5
1C3C
  8
0
 62
     0
 10
36.000000093187431
 20
80.009999999999991
 30
0.0
 11
40.49473845374834
 21
80.009999999999991
 31
0.0
  0
LINE
  5
1C3D
  8
0
 62
     0
 10
64.968161192795463
 20
81.121249999999975
 30
0.0
 11
65.91412243000407
 21
81.121249999999975
 31
0.0
  0
LINE
  5
1C3E
  8
0
 62
     0
 10
36.085877756373861
 20
81.121249999999975
 30
0.0
 11
37.031838993579321
 21
81.121249999999975
 31
0.0
  0
ENDBLK
  5
1C40
  8
0
  0
BLOCK
  8
0
  2
*X112
 70
     1
 10
0.0
 20
0.0
 30
0.0
  3
*X112
  1

  0
LINE
  5
1C42
  8
0
 62
     0
 10
37.111249942371671
 20
117.7270760119162
 30
0.0
 11
37.111249942371671
 21
113.92459792500659
 31
0.0
  0
LINE
  5
1C43
  8
0
 62
     0
 10
38.22249994237167
 20
116.6939998011526
 30
0.0
 11
38.22249994237167
 21
114.56617841164351
 31
0.0
  0
LINE
  5
1C44
  8
0
 62
     0
 10
39.333749942371682
 20
117.06638244650399
 30
0.0
 11
39.333749942371682
 21
114.82639319841709
 31
0.0
  0
LINE
  5
1C45
  8
0
 62
     0
 10
40.444999942371673
 20
119.6976333001986
 30
0.0
 11
40.444999942371673
 21
114.95944106145831
 31
0.0
  0
LINE
  5
1C46
  8
0
 62
     0
 10
41.556249942371672
 20
119.7211329174151
 30
0.0
 11
41.556249942371672
 21
117.3250422109158
 31
0.0
  0
LINE
  5
1C47
  8
0
 62
     0
 10
42.66749994237167
 20
119.7211329174151
 30
0.0
 11
42.66749994237167
 21
117.92113291741509
 31
0.0
  0
LINE
  5
1C48
  8
0
 62
     0
 10
43.778749942371668
 20
119.72113291741501
 30
0.0
 11
43.778749942371668
 21
117.92113291741509
 31
0.0
  0
LINE
  5
1C49
  8
0
 62
     0
 10
44.889999942371666
 20
119.72113291741501
 30
0.0
 11
44.889999942371666
 21
117.92113291741509
 31
0.0
  0
LINE
  5
1C4A
  8
0
 62
     0
 10
46.001249942371672
 20
119.72113291741501
 30
0.0
 11
46.001249942371672
 21
117.92113291741509
 31
0.0
  0
LINE
  5
1C4B
  8
0
 62
     0
 10
47.112499942371663
 20
119.72113291741501
 30
0.0
 11
47.112499942371663
 21
117.92113291741509
 31
0.0
  0
LINE
  5
1C4C
  8
0
 62
     0
 10
48.223749942371668
 20
119.72113291741501
 30
0.0
 11
48.223749942371668
 21
117.92113291741509
 31
0.0
  0
LINE
  5
1C4D
  8
0
 62
     0
 10
49.33499994237166
 20
119.72113291741501
 30
0.0
 11
49.33499994237166
 21
117.92113291741509
 31
0.0
  0
LINE
  5
1C4E
  8
0
 62
     0
 10
50.446249942371672
 20
119.72113291741501
 30
0.0
 11
50.446249942371672
 21
117.92113291741499
 31
0.0
  0
LINE
  5
1C4F
  8
0
 62
     0
 10
51.55749994237167
 20
119.72113291741501
 30
0.0
 11
51.55749994237167
 21
117.92113291741499
 31
0.0
  0
LINE
  5
1C50
  8
0
 62
     0
 10
52.668749942371669
 20
119.72113291741501
 30
0.0
 11
52.668749942371669
 21
117.92113291741499
 31
0.0
  0
LINE
  5
1C51
  8
0
 62
     0
 10
53.779999942371681
 20
119.72113291741501
 30
0.0
 11
53.779999942371681
 21
117.92113291741499
 31
0.0
  0
LINE
  5
1C52
  8
0
 62
     0
 10
54.891249942371672
 20
119.72113291741501
 30
0.0
 11
54.891249942371672
 21
117.92113291741499
 31
0.0
  0
LINE
  5
1C53
  8
0
 62
     0
 10
56.002499942371671
 20
119.72113291741501
 30
0.0
 11
56.002499942371671
 21
117.92113291741499
 31
0.0
  0
LINE
  5
1C54
  8
0
 62
     0
 10
57.113749942371669
 20
119.72113291741501
 30
0.0
 11
57.113749942371669
 21
117.92113291741499
 31
0.0
  0
LINE
  5
1C55
  8
0
 62
     0
 10
58.22499994237166
 20
119.72113291741501
 30
0.0
 11
58.22499994237166
 21
117.92113291741499
 31
0.0
  0
LINE
  5
1C56
  8
0
 62
     0
 10
59.336249942371673
 20
119.72113291741501
 30
0.0
 11
59.336249942371673
 21
117.92113291741499
 31
0.0
  0
LINE
  5
1C57
  8
0
 62
     0
 10
60.447499942371671
 20
119.72113291741501
 30
0.0
 11
60.447499942371671
 21
117.3147399993188
 31
0.0
  0
LINE
  5
1C58
  8
0
 62
     0
 10
61.558749942371669
 20
119.6962668078376
 30
0.0
 11
61.558749942371669
 21
114.9572962058883
 31
0.0
  0
LINE
  5
1C59
  8
0
 62
     0
 10
62.669999942371668
 20
117.056080234907
 30
0.0
 11
62.669999942371668
 21
114.82639319841699
 31
0.0
  0
LINE
  5
1C5A
  8
0
 62
     0
 10
63.781249942371673
 20
116.6966275775966
 30
0.0
 11
63.781249942371673
 21
114.5640135222811
 31
0.0
  0
LINE
  5
1C5B
  8
0
 62
     0
 10
64.892499942371671
 20
117.730375833382
 30
0.0
 11
64.892499942371671
 21
113.9224330356441
 31
0.0
  0
ENDBLK
  5
1C5D
  8
0
  0
BLOCK
  8
0
  2
*X113
 70
     1
 10
0.0
 20
0.0
 30
0.0
  3
*X113
  1

  0
LINE
  5
1C5F
  8
0
 62
     0
 10
65.568499475788144
 20
66.399999994308658
 30
0.0
 11
65.568499475788144
 21
70.599999994308703
 31
0.0
  0
LINE
  5
1C60
  8
0
 62
     0
 10
64.457249475788132
 20
66.848861506899539
 30
0.0
 11
64.457249475788132
 21
70.151138281309699
 31
0.0
  0
LINE
  5
1C61
  8
0
 62
     0
 10
63.34599947578814
 20
67.526744068157385
 30
0.0
 11
63.34599947578814
 21
69.550331634000074
 31
0.0
  0
LINE
  5
1C62
  8
0
 62
     0
 10
62.234749475788142
 20
67.499999994368977
 30
0.0
 11
62.234749475788142
 21
69.499999994911093
 31
0.0
  0
LINE
  5
1C63
  8
0
 62
     0
 10
61.12349947578813
 20
67.499999994368977
 30
0.0
 11
61.12349947578813
 21
69.499999994885172
 31
0.0
  0
LINE
  5
1C64
  8
0
 62
     0
 10
60.012249475788138
 20
67.499999994368977
 30
0.0
 11
60.012249475788138
 21
69.499999994859252
 31
0.0
  0
LINE
  5
1C65
  8
0
 62
     0
 10
58.90099947578814
 20
67.499999994368977
 30
0.0
 11
58.90099947578814
 21
69.499999994833317
 31
0.0
  0
LINE
  5
1C66
  8
0
 62
     0
 10
57.789749475788142
 20
67.499999994368977
 30
0.0
 11
57.789749475788142
 21
69.499999994807396
 31
0.0
  0
LINE
  5
1C67
  8
0
 62
     0
 10
56.678499475788129
 20
67.499999994368977
 30
0.0
 11
56.678499475788129
 21
69.499999994781476
 31
0.0
  0
LINE
  5
1C68
  8
0
 62
     0
 10
55.567249475788138
 20
67.499999994368977
 30
0.0
 11
55.567249475788138
 21
69.499999994755541
 31
0.0
  0
LINE
  5
1C69
  8
0
 62
     0
 10
54.45599947578814
 20
67.499999994368977
 30
0.0
 11
54.45599947578814
 21
69.49999999472962
 31
0.0
  0
LINE
  5
1C6A
  8
0
 62
     0
 10
53.344749475788142
 20
67.499999994368977
 30
0.0
 11
53.344749475788142
 21
69.499999994703686
 31
0.0
  0
LINE
  5
1C6B
  8
0
 62
     0
 10
52.233499475788143
 20
67.499999994368977
 30
0.0
 11
52.233499475788143
 21
69.499999994677765
 31
0.0
  0
LINE
  5
1C6C
  8
0
 62
     0
 10
51.122249475788131
 20
67.499999994368977
 30
0.0
 11
51.122249475788131
 21
69.499999994651844
 31
0.0
  0
LINE
  5
1C6D
  8
0
 62
     0
 10
50.01099947578814
 20
67.499999994368991
 30
0.0
 11
50.01099947578814
 21
69.499999994625895
 31
0.0
  0
LINE
  5
1C6E
  8
0
 62
     0
 10
48.899749475788141
 20
67.499999994368991
 30
0.0
 11
48.899749475788141
 21
69.499999994599989
 31
0.0
  0
LINE
  5
1C6F
  8
0
 62
     0
 10
47.788499475788143
 20
67.499999994368991
 30
0.0
 11
47.788499475788143
 21
69.499999994574068
 31
0.0
  0
LINE
  5
1C70
  8
0
 62
     0
 10
46.677249475788138
 20
67.499999994368991
 30
0.0
 11
46.677249475788138
 21
69.499999994548133
 31
0.0
  0
LINE
  5
1C71
  8
0
 62
     0
 10
45.565999475788132
 20
67.499999994368991
 30
0.0
 11
45.565999475788132
 21
69.499999994522213
 31
0.0
  0
LINE
  5
1C72
  8
0
 62
     0
 10
44.454749475788141
 20
67.499999994368991
 30
0.0
 11
44.454749475788141
 21
69.499999994496292
 31
0.0
  0
LINE
  5
1C73
  8
0
 62
     0
 10
43.343499475788143
 20
67.499999994368991
 30
0.0
 11
43.343499475788143
 21
69.499999994470357
 31
0.0
  0
LINE
  5
1C74
  8
0
 62
     0
 10
42.232249475788137
 20
67.499999994368991
 30
0.0
 11
42.232249475788137
 21
69.499999994444437
 31
0.0
  0
LINE
  5
1C75
  8
0
 62
     0
 10
41.120999475788139
 20
67.499999994368991
 30
0.0
 11
41.120999475788139
 21
69.499999994418516
 31
0.0
  0
LINE
  5
1C76
  8
0
 62
     0
 10
40.009749475788126
 20
67.499999994368991
 30
0.0
 11
40.009749475788126
 21
69.499999994392581
 31
0.0
  0
LINE
  5
1C77
  8
0
 62
     0
 10
38.898499475788142
 20
67.499999994368991
 30
0.0
 11
38.898499475788142
 21
69.504123449411679
 31
0.0
  0
LINE
  5
1C78
  8
0
 62
     0
 10
37.787249475788137
 20
66.989067195704735
 30
0.0
 11
37.787249475788137
 21
70.010932529918207
 31
0.0
  0
LINE
  5
1C79
  8
0
 62
     0
 10
36.675999475788153
 20
66.399999994314413
 30
0.0
 11
36.675999475788153
 21
70.599999994314487
 31
0.0
  0
ENDBLK
  5
1C7B
  8
0
  0
BLOCK
  8
0
  2
*X114
 70
     1
 10
0.0
 20
0.0
 30
0.0
  3
*X114
  1

  0
LINE
  5
1C7D
  8
0
 62
     0
 10
39.99730242065101
 20
1.111249999999999
 30
0.0
 11
62.002697577211201
 21
1.111249999999999
 31
0.0
  0
LINE
  5
1C7E
  8
0
 62
     0
 10
60.253142255002437
 20
2.2224999999999988
 30
0.0
 11
62.407159500039498
 21
2.2224999999999988
 31
0.0
  0
LINE
  5
1C7F
  8
0
 62
     0
 10
39.592840497822714
 20
2.2224999999999988
 30
0.0
 11
41.746857742859113
 21
2.2224999999999988
 31
0.0
  0
LINE
  5
1C80
  8
0
 62
     0
 10
64.975393596821519
 20
2.2224999999999988
 30
0.0
 11
65.910771867118143
 21
2.2224999999999988
 31
0.0
  0
LINE
  5
1C81
  8
0
 62
     0
 10
36.089228130747131
 20
2.2224999999999988
 30
0.0
 11
37.02322750587355
 21
2.2224999999999988
 31
0.0
  0
LINE
  5
1C82
  8
0
 62
     0
 10
60.683265877916043
 20
3.3337499999999989
 30
0.0
 11
63.595775389670237
 21
3.3337499999999989
 31
0.0
  0
LINE
  5
1C83
  8
0
 62
     0
 10
38.404224608192031
 20
3.3337499999999989
 30
0.0
 11
41.316734119946197
 21
3.3337499999999989
 31
0.0
  0
LINE
  5
1C84
  8
0
 62
     0
 10
63.721950861259408
 20
3.3337499999999989
 30
0.0
 11
65.999999998931102
 21
3.3337499999999989
 31
0.0
  0
LINE
  5
1C85
  8
0
 62
     0
 10
35.999999998931088
 20
3.3337499999999989
 30
0.0
 11
38.278049136602903
 21
3.3337499999999989
 31
0.0
  0
LINE
  5
1C86
  8
0
 62
     0
 10
61.087727800744361
 20
4.4449999999999994
 30
0.0
 11
65.999999998931116
 21
4.4449999999999994
 31
0.0
  0
LINE
  5
1C87
  8
0
 62
     0
 10
35.999999998931088
 20
4.4449999999999994
 30
0.0
 11
40.9122721971179
 21
4.4449999999999994
 31
0.0
  0
LINE
  5
1C88
  8
0
 62
     0
 10
63.988291175526562
 20
5.5562499999999986
 30
0.0
 11
65.999999998931145
 21
5.5562499999999986
 31
0.0
  0
LINE
  5
1C89
  8
0
 62
     0
 10
35.999999998931088
 20
5.5562499999999986
 30
0.0
 11
38.011708822335677
 21
5.5562499999999986
 31
0.0
  0
ENDBLK
  5
1C8B
  8
0
  0
BLOCK
  8
0
  2
*X115
 70
     1
 10
0.0
 20
0.0
 30
0.0
  3
*X115
  1

  0
LINE
  5
1C8D
  8
0
 62
     0
 10
36.431500612624617
 20
50.62712136223962
 30
0.0
 11
36.431500612624617
 21
46.427121362239561
 31
0.0
  0
LINE
  5
1C8E
  8
0
 62
     0
 10
37.542750612624623
 20
50.178259849648718
 30
0.0
 11
37.542750612624623
 21
46.875983075238558
 31
0.0
  0
LINE
  5
1C8F
  8
0
 62
     0
 10
38.654000612624621
 20
49.500377288390879
 30
0.0
 11
38.654000612624621
 21
47.47678972254819
 31
0.0
  0
LINE
  5
1C90
  8
0
 62
     0
 10
39.765250612624619
 20
49.527121362179287
 30
0.0
 11
39.765250612624619
 21
47.527121361637157
 31
0.0
  0
LINE
  5
1C91
  8
0
 62
     0
 10
40.876500612624611
 20
49.527121362179287
 30
0.0
 11
40.876500612624611
 21
47.527121361663092
 31
0.0
  0
LINE
  5
1C92
  8
0
 62
     0
 10
41.987750612624623
 20
49.527121362179287
 30
0.0
 11
41.987750612624623
 21
47.527121361689012
 31
0.0
  0
LINE
  5
1C93
  8
0
 62
     0
 10
43.099000612624607
 20
49.527121362179287
 30
0.0
 11
43.099000612624607
 21
47.527121361714947
 31
0.0
  0
LINE
  5
1C94
  8
0
 62
     0
 10
44.210250612624613
 20
49.527121362179287
 30
0.0
 11
44.210250612624613
 21
47.527121361740861
 31
0.0
  0
LINE
  5
1C95
  8
0
 62
     0
 10
45.321500612624618
 20
49.527121362179287
 30
0.0
 11
45.321500612624618
 21
47.527121361766788
 31
0.0
  0
LINE
  5
1C96
  8
0
 62
     0
 10
46.432750612624623
 20
49.527121362179287
 30
0.0
 11
46.432750612624623
 21
47.527121361792723
 31
0.0
  0
LINE
  5
1C97
  8
0
 62
     0
 10
47.544000612624622
 20
49.527121362179287
 30
0.0
 11
47.544000612624622
 21
47.527121361818637
 31
0.0
  0
LINE
  5
1C98
  8
0
 62
     0
 10
48.65525061262462
 20
49.527121362179287
 30
0.0
 11
48.65525061262462
 21
47.527121361844571
 31
0.0
  0
LINE
  5
1C99
  8
0
 62
     0
 10
49.766500612624618
 20
49.527121362179287
 30
0.0
 11
49.766500612624618
 21
47.527121361870492
 31
0.0
  0
LINE
  5
1C9A
  8
0
 62
     0
 10
50.877750612624617
 20
49.527121362179273
 30
0.0
 11
50.877750612624617
 21
47.527121361896413
 31
0.0
  0
LINE
  5
1C9B
  8
0
 62
     0
 10
51.989000612624608
 20
49.527121362179273
 30
0.0
 11
51.989000612624608
 21
47.527121361922333
 31
0.0
  0
LINE
  5
1C9C
  8
0
 62
     0
 10
53.100250612624613
 20
49.527121362179273
 30
0.0
 11
53.100250612624613
 21
47.527121361948247
 31
0.0
  0
LINE
  5
1C9D
  8
0
 62
     0
 10
54.211500612624612
 20
49.527121362179273
 30
0.0
 11
54.211500612624612
 21
47.527121361974189
 31
0.0
  0
LINE
  5
1C9E
  8
0
 62
     0
 10
55.322750612624617
 20
49.527121362179273
 30
0.0
 11
55.322750612624617
 21
47.527121362000109
 31
0.0
  0
LINE
  5
1C9F
  8
0
 62
     0
 10
56.434000612624622
 20
49.527121362179273
 30
0.0
 11
56.434000612624622
 21
47.52712136202603
 31
0.0
  0
LINE
  5
1CA0
  8
0
 62
     0
 10
57.545250612624621
 20
49.527121362179258
 30
0.0
 11
57.545250612624621
 21
47.527121362051957
 31
0.0
  0
LINE
  5
1CA1
  8
0
 62
     0
 10
58.656500612624619
 20
49.527121362179258
 30
0.0
 11
58.656500612624619
 21
47.527121362077892
 31
0.0
  0
LINE
  5
1CA2
  8
0
 62
     0
 10
59.76775061262461
 20
49.527121362179258
 30
0.0
 11
59.76775061262461
 21
47.527121362103813
 31
0.0
  0
LINE
  5
1CA3
  8
0
 62
     0
 10
60.879000612624623
 20
49.527121362179273
 30
0.0
 11
60.879000612624623
 21
47.527121362129741
 31
0.0
  0
LINE
  5
1CA4
  8
0
 62
     0
 10
61.990250612624607
 20
49.527121362179273
 30
0.0
 11
61.990250612624607
 21
47.527121362155661
 31
0.0
  0
LINE
  5
1CA5
  8
0
 62
     0
 10
63.101500612624612
 20
49.527121362179273
 30
0.0
 11
63.101500612624612
 21
47.52299790713657
 31
0.0
  0
LINE
  5
1CA6
  8
0
 62
     0
 10
64.212750612624617
 20
50.038054160843529
 30
0.0
 11
64.212750612624617
 21
47.016188826630042
 31
0.0
  0
LINE
  5
1CA7
  8
0
 62
     0
 10
65.324000612624616
 20
50.627121362233837
 30
0.0
 11
65.324000612624616
 21
46.427121362233763
 31
0.0
  0
ENDBLK
  5
1CA9
  8
0
  0
BLOCK
  8
0
  2
*X116
 70
     1
 10
0.0
 20
0.0
 30
0.0
  3
*X116
  1

  0
LINE
  5
1CAB
  8
0
 62
     0
 10
40.195856225418311
 20
75.564999999999984
 30
0.0
 11
61.804143960956559
 21
75.564999999999984
 31
0.0
  0
LINE
  5
1CAC
  8
0
 62
     0
 10
39.791394302590021
 20
76.676249999999996
 30
0.0
 11
62.20860588378487
 21
76.676249999999996
 31
0.0
  0
LINE
  5
1CAD
  8
0
 62
     0
 10
60.4847122616614
 20
77.787499999999994
 30
0.0
 11
62.613067806613181
 21
77.787499999999994
 31
0.0
  0
LINE
  5
1CAE
  8
0
 62
     0
 10
39.38693237976171
 20
77.787499999999994
 30
0.0
 11
41.515287924713498
 21
77.787499999999994
 31
0.0
  0
LINE
  5
1CAF
  8
0
 62
     0
 10
64.000674775326289
 20
77.787499999999994
 30
0.0
 11
66.000000093187424
 21
77.787499999999994
 31
0.0
  0
LINE
  5
1CB0
  8
0
 62
     0
 10
36.000000093187431
 20
77.787499999999994
 30
0.0
 11
37.996729665024311
 21
77.787499999999994
 31
0.0
  0
LINE
  5
1CB1
  8
0
 62
     0
 10
60.889174184489711
 20
78.898749999999993
 30
0.0
 11
66.000000093187452
 21
78.898749999999993
 31
0.0
  0
LINE
  5
1CB2
  8
0
 62
     0
 10
36.000000093187431
 20
78.898749999999993
 30
0.0
 11
41.110826001885187
 21
78.898749999999993
 31
0.0
  0
LINE
  5
1CB3
  8
0
 62
     0
 10
61.505261732617818
 20
80.009999999999991
 30
0.0
 11
66.000000093187467
 21
80.009999999999991
 31
0.0
  0
LINE
  5
1CB4
  8
0
 62
     0
 10
36.000000093187431
 20
80.009999999999991
 30
0.0
 11
40.49473845374834
 21
80.009999999999991
 31
0.0
  0
LINE
  5
1CB5
  8
0
 62
     0
 10
64.968161192795463
 20
81.121249999999975
 30
0.0
 11
65.91412243000407
 21
81.121249999999975
 31
0.0
  0
LINE
  5
1CB6
  8
0
 62
     0
 10
36.085877756373861
 20
81.121249999999975
 30
0.0
 11
37.031838993579321
 21
81.121249999999975
 31
0.0
  0
ENDBLK
  5
1CB8
  8
0
  0
BLOCK
  8
0
  2
*X117
 70
     1
 10
0.0
 20
0.0
 30
0.0
  3
*X117
  1

  0
LINE
  5
1CBA
  8
0
 62
     0
 10
37.111249942371671
 20
117.7270760119162
 30
0.0
 11
37.111249942371671
 21
113.92459792500659
 31
0.0
  0
LINE
  5
1CBB
  8
0
 62
     0
 10
38.22249994237167
 20
116.6939998011526
 30
0.0
 11
38.22249994237167
 21
114.56617841164351
 31
0.0
  0
LINE
  5
1CBC
  8
0
 62
     0
 10
39.333749942371682
 20
117.06638244650399
 30
0.0
 11
39.333749942371682
 21
114.82639319841709
 31
0.0
  0
LINE
  5
1CBD
  8
0
 62
     0
 10
40.444999942371673
 20
119.6976333001986
 30
0.0
 11
40.444999942371673
 21
114.95944106145831
 31
0.0
  0
LINE
  5
1CBE
  8
0
 62
     0
 10
41.556249942371672
 20
119.7211329174151
 30
0.0
 11
41.556249942371672
 21
117.3250422109158
 31
0.0
  0
LINE
  5
1CBF
  8
0
 62
     0
 10
42.66749994237167
 20
119.7211329174151
 30
0.0
 11
42.66749994237167
 21
117.92113291741509
 31
0.0
  0
LINE
  5
1CC0
  8
0
 62
     0
 10
43.778749942371668
 20
119.72113291741501
 30
0.0
 11
43.778749942371668
 21
117.92113291741509
 31
0.0
  0
LINE
  5
1CC1
  8
0
 62
     0
 10
44.889999942371666
 20
119.72113291741501
 30
0.0
 11
44.889999942371666
 21
117.92113291741509
 31
0.0
  0
LINE
  5
1CC2
  8
0
 62
     0
 10
46.001249942371672
 20
119.72113291741501
 30
0.0
 11
46.001249942371672
 21
117.92113291741509
 31
0.0
  0
LINE
  5
1CC3
  8
0
 62
     0
 10
47.112499942371663
 20
119.72113291741501
 30
0.0
 11
47.112499942371663
 21
117.92113291741509
 31
0.0
  0
LINE
  5
1CC4
  8
0
 62
     0
 10
48.223749942371668
 20
119.72113291741501
 30
0.0
 11
48.223749942371668
 21
117.92113291741509
 31
0.0
  0
LINE
  5
1CC5
  8
0
 62
     0
 10
49.33499994237166
 20
119.72113291741501
 30
0.0
 11
49.33499994237166
 21
117.92113291741509
 31
0.0
  0
LINE
  5
1CC6
  8
0
 62
     0
 10
50.446249942371672
 20
119.72113291741501
 30
0.0
 11
50.446249942371672
 21
117.92113291741499
 31
0.0
  0
LINE
  5
1CC7
  8
0
 62
     0
 10
51.55749994237167
 20
119.72113291741501
 30
0.0
 11
51.55749994237167
 21
117.92113291741499
 31
0.0
  0
LINE
  5
1CC8
  8
0
 62
     0
 10
52.668749942371669
 20
119.72113291741501
 30
0.0
 11
52.668749942371669
 21
117.92113291741499
 31
0.0
  0
LINE
  5
1CC9
  8
0
 62
     0
 10
53.779999942371681
 20
119.72113291741501
 30
0.0
 11
53.779999942371681
 21
117.92113291741499
 31
0.0
  0
LINE
  5
1CCA
  8
0
 62
     0
 10
54.891249942371672
 20
119.72113291741501
 30
0.0
 11
54.891249942371672
 21
117.92113291741499
 31
0.0
  0
LINE
  5
1CCB
  8
0
 62
     0
 10
56.002499942371671
 20
119.72113291741501
 30
0.0
 11
56.002499942371671
 21
117.92113291741499
 31
0.0
  0
LINE
  5
1CCC
  8
0
 62
     0
 10
57.113749942371669
 20
119.72113291741501
 30
0.0
 11
57.113749942371669
 21
117.92113291741499
 31
0.0
  0
LINE
  5
1CCD
  8
0
 62
     0
 10
58.22499994237166
 20
119.72113291741501
 30
0.0
 11
58.22499994237166
 21
117.92113291741499
 31
0.0
  0
LINE
  5
1CCE
  8
0
 62
     0
 10
59.336249942371673
 20
119.72113291741501
 30
0.0
 11
59.336249942371673
 21
117.92113291741499
 31
0.0
  0
LINE
  5
1CCF
  8
0
 62
     0
 10
60.447499942371671
 20
119.72113291741501
 30
0.0
 11
60.447499942371671
 21
117.3147399993188
 31
0.0
  0
LINE
  5
1CD0
  8
0
 62
     0
 10
61.558749942371669
 20
119.6962668078376
 30
0.0
 11
61.558749942371669
 21
114.9572962058883
 31
0.0
  0
LINE
  5
1CD1
  8
0
 62
     0
 10
62.669999942371668
 20
117.056080234907
 30
0.0
 11
62.669999942371668
 21
114.82639319841699
 31
0.0
  0
LINE
  5
1CD2
  8
0
 62
     0
 10
63.781249942371673
 20
116.6966275775966
 30
0.0
 11
63.781249942371673
 21
114.5640135222811
 31
0.0
  0
LINE
  5
1CD3
  8
0
 62
     0
 10
64.892499942371671
 20
117.730375833382
 30
0.0
 11
64.892499942371671
 21
113.9224330356441
 31
0.0
  0
ENDBLK
  5
1CD5
  8
0
  0
BLOCK
  8
0
  2
*U118
 70
     1
 10
0.0
 20
0.0
 30
0.0
  3
*U118
  1

  0
TEXT
  5
1E55
  8
SAPA_MATT
 62
     2
 10
115.4637816685797
 20
221.00119036266
 30
0.0
 40
3.5
  1
197-202
  7
ISO
  0
ENDBLK
  5
1E57
  8
0
  0
BLOCK
  8
0
  2
*U119
 70
     1
 10
0.0
 20
0.0
 30
0.0
  3
*U119
  1

  0
TEXT
  5
1E59
  8
SAPA_MATT
 62
     2
 10
-18.999999918811149
 20
68.174999996033577
 30
0.0000000048844204
 40
3.5
  1
187
 50
90.0
  7
ISO
  0
ENDBLK
  5
1E5B
  8
0
  0
BLOCK
  8
0
  2
*U120
 70
     1
 10
0.0
 20
0.0
 30
0.0
  3
*U120
  1

  0
TEXT
  5
1E5D
  8
SAPA_MATT
 62
     2
 10
-6.9999999188111568
 20
9.1547244074053271
 30
0.0000000048844204
 40
3.5
  1
67
 50
90.0
  7
ISO
  0
ENDBLK
  5
1E5F
  8
0
  0
BLOCK
  8
0
  2
*U121
 70
     1
 10
0.0
 20
0.0
 30
0.0
  3
*U121
  1

  0
TEXT
  5
1E61
  8
SAPA_MATT
 62
     2
 10
-6.999999918811155
 20
46.202512624488477
 30
0.0000000048844204
 40
3.5
  1
5
 50
90.0
  7
ISO
  0
ENDBLK
  5
1E63
  8
0
  0
BLOCK
  8
0
  2
*U122
 70
     1
 10
0.0
 20
0.0
 30
0.0
  3
*U122
  1

  0
TEXT
  5
1E65
  8
SAPA_MATT
 62
     2
 10
-6.9999999188111524
 20
104.45251262256549
 30
0.0000000048844204
 40
3.5
  1
115
 50
90.0
  7
ISO
  0
ENDBLK
  5
1E67
  8
0
  0
ENDSEC
  0
SECTION
  2
ENTITIES
  0
POLYLINE
  5
26E
  8
SAPA_LIGHT
 66
     1
 10
0.0
 20
0.0
 30
0.0
 70
     1
  0
VERTEX
  5
111C
  8
SAPA_LIGHT
 10
79.300000072736196
 20
71.999542811895452
 30
0.0
  0
VERTEX
  5
111D
  8
SAPA_LIGHT
 10
79.300000072736253
 20
64.499999979435685
 30
0.0
  0
VERTEX
  5
111E
  8
SAPA_LIGHT
 10
22.700000073076041
 20
64.4999999794357
 30
0.0
  0
VERTEX
  5
111F
  8
SAPA_LIGHT
 10
22.700000084031469
 20
49.999999995806512
 30
0.0
  0
VERTEX
  5
1120
  8
SAPA_LIGHT
 10
14.000000081188849
 20
49.999999995806512
 30
0.0
  0
VERTEX
  5
1121
  8
SAPA_LIGHT
 10
14.00000008118886
 20
119.9999999958073
 30
0.0
  0
VERTEX
  5
1122
  8
SAPA_LIGHT
 10
88.00000008118846
 20
119.9999999958072
 30
0.0
  0
VERTEX
  5
1123
  8
SAPA_LIGHT
 10
88.00000008118846
 20
71.999542811895452
 30
0.0
  0
SEQEND
  5
1124
  8
SAPA_LIGHT
  0
POLYLINE
  5
26F
  8
SAPA_LIGHT
 66
     1
 10
0.0
 20
0.0
 30
0.0
  0
VERTEX
  5
1125
  8
SAPA_LIGHT
 10
46.949999934933722
 20
-21.999999999759211
 30
0.0
  0
VERTEX
  5
1126
  8
SAPA_LIGHT
 10
88.000000055053533
 20
-21.99999999975924
 30
0.0
  0
VERTEX
  5
1127
  8
SAPA_LIGHT
 10
88.000000055227616
 20
67.001476187851011
 30
0.0
  0
VERTEX
  5
1128
  8
SAPA_LIGHT
 10
79.30000008023481
 20
67.001476187851011
 30
0.0
  0
VERTEX
  5
1129
  8
SAPA_LIGHT
 10
79.300000080234696
 20
52.501476183911073
 30
0.0
  0
VERTEX
  5
112A
  8
SAPA_LIGHT
 10
22.70000008964108
 20
52.501476141147123
 30
0.0
  0
VERTEX
  5
112B
  8
SAPA_LIGHT
 10
22.700000089641069
 20
45.000000000000178
 30
0.0
  0
VERTEX
  5
112C
  8
SAPA_LIGHT
 10
14.00000009396925
 20
45.000000000000178
 30
0.0
  0
VERTEX
  5
112D
  8
SAPA_LIGHT
 10
14.00000009379516
 20
-21.999999999759211
 30
0.0
  0
VERTEX
  5
112E
  8
SAPA_LIGHT
 10
22.950000006996561
 20
-21.999999999759211
 30
0.0
  0
SEQEND
  5
112F
  8
SAPA_LIGHT
  0
POLYLINE
  5
270
  8
SAPA_LIGHT
 66
     1
 10
0.0
 20
0.0
 30
0.0
 70
     1
  0
VERTEX
  5
1130
  8
SAPA_LIGHT
 10
22.950000006996561
 20
-5.0000000041932111
 30
0.0
  0
VERTEX
  5
1131
  8
SAPA_LIGHT
 10
22.95000000699655
 20
-35.000000004193197
 30
0.0
  0
VERTEX
  5
1132
  8
SAPA_LIGHT
 10
46.949999934933707
 20
-35.000000004192458
 30
0.0
  0
VERTEX
  5
1133
  8
SAPA_LIGHT
 10
46.949999934933707
 20
-5.0000000041924864
 30
0.0
  0
SEQEND
  5
1134
  8
SAPA_LIGHT
  0
TEXT
  5
275
  8
SAPA_ARTIKELNR
 10
93.371908840070404
 20
93.347666467078724
 30
-0.0000000048844204
 40
3.5
  1
74422
 50
90.0
  7
ISO
  0
LINE
  5
679
  8
SAPA_ANSLUTNING
 10
23.800000093401358
 20
199.9999999961866
 30
0.0
 11
23.80000009340133
 21
139.99999999620371
 31
0.0
  0
LINE
  5
67A
  8
SAPA_ANSLUTNING
 10
24.400000093306499
 20
139.9999999962028
 30
0.0
 11
24.400000093401349
 21
199.9999999961866
 31
0.0
  0
CIRCLE
  5
67E
  8
SAPA_ANSLUTNING
 10
19.74971487127269
 20
157.02378889602269
 30
0.0
 40
4.0502852221286458
1001
ACAD
1000
ASC_BOUNDS
1002
{
1070
    19
1005
1025
1002
}
  0
LINE
  5
67F
  8
SAPA_ANSLUTNING
 10
14.221783935618269
 20
164.99079983626979
 30
0.0
 11
23.800000093401341
 21
167.5572751206785
 31
0.0
  0
POLYLINE
  5
684
  8
SAPA_ANSLUTNING
 66
     1
 10
0.0
 20
0.0
 30
0.0
  0
VERTEX
  5
1135
  8
SAPA_ANSLUTNING
 10
102.303515408161
 20
139.99999999609039
 30
0.0
  0
VERTEX
  5
1136
  8
SAPA_ANSLUTNING
 10
102.30351540815489
 20
127.3026003906396
 30
0.0
 42
-0.9999999999999998
  0
VERTEX
  5
1137
  8
SAPA_ANSLUTNING
 10
93.891514817979925
 20
127.3026003906396
 30
0.0
  0
VERTEX
  5
1138
  8
SAPA_ANSLUTNING
 10
93.891514817979981
 20
135.79399970111919
 30
0.0
 42
0.9999999999999998
  0
VERTEX
  5
1139
  8
SAPA_ANSLUTNING
 10
85.479514227815883
 20
135.79399970111919
 30
0.0
  0
VERTEX
  5
113A
  8
SAPA_ANSLUTNING
 10
85.479514227815883
 20
128.8869643656179
 30
0.0
 42
-0.9999999999999998
  0
VERTEX
  5
113B
  8
SAPA_ANSLUTNING
 10
77.067513637640872
 20
128.8869643656179
 30
0.0
  0
VERTEX
  5
113C
  8
SAPA_ANSLUTNING
 10
77.067513637640872
 20
135.79399970111919
 30
0.0
 42
0.9999999999999998
  0
VERTEX
  5
113D
  8
SAPA_ANSLUTNING
 10
68.655513047476774
 20
135.79399970111919
 30
0.0
  0
VERTEX
  5
113E
  8
SAPA_ANSLUTNING
 10
68.655513047476774
 20
123.9008779242979
 30
0.0
 42
-0.9999999999999998
  0
VERTEX
  5
113F
  8
SAPA_ANSLUTNING
 10
60.243512457301762
 20
123.9008779242979
 30
0.0
  0
VERTEX
  5
1140
  8
SAPA_ANSLUTNING
 10
60.243512457301762
 20
135.79399970111919
 30
0.0
 42
0.9999999999999998
  0
VERTEX
  5
1141
  8
SAPA_ANSLUTNING
 10
51.831511867137671
 20
135.79399970111919
 30
0.0
  0
VERTEX
  5
1142
  8
SAPA_ANSLUTNING
 10
51.831511867137671
 20
123.9008779242979
 30
0.0
 42
-0.9999999999999998
  0
VERTEX
  5
1143
  8
SAPA_ANSLUTNING
 10
43.419511276962652
 20
123.9008779242979
 30
0.0
  0
VERTEX
  5
1144
  8
SAPA_ANSLUTNING
 10
43.419511276962652
 20
135.79399970111919
 30
0.0
 42
0.9999999999999998
  0
VERTEX
  5
1145
  8
SAPA_ANSLUTNING
 10
35.007510686798561
 20
135.79399970111919
 30
0.0
  0
VERTEX
  5
1146
  8
SAPA_ANSLUTNING
 10
35.007510686801012
 20
119.8010220884113
 30
0.0
  0
SEQEND
  5
1147
  8
SAPA_ANSLUTNING
  0
TEXT
  5
687
  8
SAPA_ARTIKELNR
 10
72.432504173513252
 20
126.3041763803067
 30
0.0
 40
3.5
  1
42793
 50
180.0
 51
180.0
  7
ISO
 71
     6
 72
     4
 11
78.811106625293505
 21
128.05701523001551
 31
0.0
  0
TEXT
  5
77F
  8
SAPA_ARTIKELNR
 10
93.371908830297571
 20
26.471421317728598
 30
-0.0000000048844204
 40
3.5
  1
74423
 50
90.0
  7
ISO
  0
TEXT
  5
780
  8
SAPA_ARTIKELNR
 10
11.752510632845331
 20
58.592842679375707
 30
-0.0000000048844204
 40
3.5
  1
74517
 50
90.0
  7
ISO
  0
LINE
  5
896
  8
SAPA_ANSLUTNING
 10
223.80000009340139
 20
199.9999999961866
 30
0.0
 11
223.80000009340131
 21
139.9999999960593
 31
0.0
  0
LINE
  5
897
  8
SAPA_ANSLUTNING
 10
223.2000000933019
 20
139.99999999606021
 30
0.0
 11
223.20000009340129
 21
199.9999999961866
 31
0.0
  0
CIRCLE
  5
899
  8
SAPA_ANSLUTNING
 10
226.80000009340199
 20
160.49999999608031
 30
0.0
 40
3.0000000000000848
1001
ACAD
1000
ASC_BOUNDS
1002
{
1070
    19
1005
1022
1002
}
  0
LINE
  5
89A
  8
SAPA_ANSLUTNING
 10
231.37764580693141
 20
164.98977774396261
 30
0.0
 11
223.80000009340131
 21
167.02020179343219
 31
0.0
  0
LINE
  5
89B
  8
SAPA_ANSLUTNING
 10
223.80000009340131
 20
139.9999999960593
 30
0.0
 11
23.80000009340133
 21
139.99999999620371
 31
0.0
  0
TEXT
  5
89C
  8
SAPA_ARTIKELNR
 10
237.10817244322101
 20
134.62246173000329
 30
0.0
 40
3.5
  1
42796
 50
270.0
 51
180.0
  7
ISO
 71
     6
 72
     4
 11
235.3553335935122
 21
141.01538783199041
 31
0.0
  0
TEXT
  5
971
  8
SAPA_ARTIKELNR
 10
5.714315905278335
 20
179.98037095516401
 30
0.0
 40
3.4999999999999991
  1
42070
 50
205.92875215863239
 51
180.0
  7
ISO
 71
     6
 72
     4
 11
10.578085478291211
 21
184.38789293680969
 31
0.0
  0
POLYLINE
  5
FFA
  8
SAPA_PROFIL
 66
     1
 10
0.0
 20
0.0
 30
0.0
 70
     1
  0
VERTEX
  5
15EC
  8
SAPA_PROFIL
 10
5.5547766358082571
 20
175.28910107333959
 30
0.0
 42
0.9999999999999998
  0
VERTEX
  5
15ED
  8
SAPA_PROFIL
 10
7.0520293804905121
 20
175.198358478372
 30
0.0
  0
VERTEX
  5
15EE
  8
SAPA_PROFIL
 10
7.1133039560154021
 20
176.20938892572309
 30
0.0
 42
-0.2679491924311268
  0
VERTEX
  5
15EF
  8
SAPA_PROFIL
 10
7.389041210944864
 20
176.6264847974889
 30
0.0
  0
VERTEX
  5
15F0
  8
SAPA_PROFIL
 10
17.512302547675269
 20
181.68076740149019
 30
0.0
 42
-0.493145426031307
  0
VERTEX
  5
15F1
  8
SAPA_PROFIL
 10
20.36531852933437
 20
180.29121633398
 30
0.0
  0
VERTEX
  5
15F2
  8
SAPA_PROFIL
 10
20.946746815093949
 20
177.4414942145379
 30
0.0
  0
VERTEX
  5
15F3
  8
SAPA_PROFIL
 10
20.629968053974391
 20
176.49299475934379
 30
0.0
  0
VERTEX
  5
15F4
  8
SAPA_PROFIL
 10
21.293003297088259
 20
175.7444065772379
 30
0.0
  0
VERTEX
  5
15F5
  8
SAPA_PROFIL
 10
20.976224535968701
 20
174.7959071220437
 30
0.0
  0
VERTEX
  5
15F6
  8
SAPA_PROFIL
 10
21.51722529104994
 20
174.18509981433229
 30
0.0
  0
VERTEX
  5
15F7
  8
SAPA_PROFIL
 10
21.304578852264271
 20
170.6764337437568
 30
0.0
 42
0.4142135623730951
  0
VERTEX
  5
15F8
  8
SAPA_PROFIL
 10
22.242252285407378
 20
169.61777018399019
 30
0.0
  0
VERTEX
  5
15F9
  8
SAPA_PROFIL
 10
22.741336533634801
 20
169.5875226523344
 30
0.0
  0
VERTEX
  5
15FA
  8
SAPA_PROFIL
 10
23.24042078186222
 20
169.5572751206785
 30
0.0
 42
0.4142135623730951
  0
VERTEX
  5
15FB
  8
SAPA_PROFIL
 10
23.769752561745499
 20
170.02611183725011
 30
0.0
  0
VERTEX
  5
15FC
  8
SAPA_PROFIL
 10
23.800000093401369
 20
170.52519608547749
 30
0.0
  0
VERTEX
  5
15FD
  8
SAPA_PROFIL
 10
22.801831596946531
 20
170.58569114878921
 30
0.0
  0
VERTEX
  5
15FE
  8
SAPA_PROFIL
 10
23.164801976816879
 20
176.57470212751821
 30
0.0
  0
VERTEX
  5
15FF
  8
SAPA_PROFIL
 10
21.85015283766889
 20
183.018118835807
 30
0.0
 42
-0.3394542588633754
  0
VERTEX
  5
1600
  8
SAPA_PROFIL
 10
22.383272855306618
 20
184.1127169157381
 30
0.0
  0
VERTEX
  5
1601
  8
SAPA_PROFIL
 10
23.660292777239441
 20
184.7502999397949
 30
0.0
  0
VERTEX
  5
1602
  8
SAPA_PROFIL
 10
23.8000001415901
 20
187.05547134029399
 30
0.0
  0
VERTEX
  5
1603
  8
SAPA_PROFIL
 10
6.237379403367397
 20
178.28690896447159
 30
0.0
 42
0.2679491924311207
  0
VERTEX
  5
1604
  8
SAPA_PROFIL
 10
5.6859048935084839
 20
177.4527172209404
 30
0.0
  0
SEQEND
  5
1605
  8
SAPA_PROFIL
  0
POLYLINE
  5
FFB
  8
SAPA_PROFIL
 66
     1
 10
0.0
 20
0.0
 30
0.0
 70
     1
  0
VERTEX
  5
1606
  8
SAPA_PROFIL
 10
98.300000093400953
 20
122.2999999960807
 30
0.0
  0
VERTEX
  5
1607
  8
SAPA_PROFIL
 10
98.300000093400755
 20
122.69999999621579
 30
0.0
 42
0.6370702608048074
  0
VERTEX
  5
1608
  8
SAPA_PROFIL
 10
97.807163810496135
 20
122.92981332915269
 30
0.0
  0
VERTEX
  5
1609
  8
SAPA_PROFIL
 10
96.992836376305135
 20
122.24651147947471
 30
0.0
 42
-0.6370702608055112
  0
VERTEX
  5
160A
  8
SAPA_PROFIL
 10
96.500000093400786
 20
122.4763248124118
 30
0.0
  0
VERTEX
  5
160B
  8
SAPA_PROFIL
 10
96.500000093400786
 20
122.69999999621579
 30
0.0
 42
0.6370702608048074
  0
VERTEX
  5
160C
  8
SAPA_PROFIL
 10
96.007163810496195
 20
122.92981332915269
 30
0.0
  0
VERTEX
  5
160D
  8
SAPA_PROFIL
 10
95.192836376305195
 20
122.24651147947471
 30
0.0
 42
-0.6370702608054489
  0
VERTEX
  5
160E
  8
SAPA_PROFIL
 10
94.700000093400604
 20
122.47632481241151
 30
0.0
  0
VERTEX
  5
160F
  8
SAPA_PROFIL
 10
94.700000093400604
 20
122.69999999621579
 30
0.0
 42
0.6370702608046363
  0
VERTEX
  5
1610
  8
SAPA_PROFIL
 10
94.20716381049624
 20
122.92981332915291
 30
0.0
  0
VERTEX
  5
1611
  8
SAPA_PROFIL
 10
93.392836376305013
 20
122.24651147947471
 30
0.0
 42
-0.6370702608052448
  0
VERTEX
  5
1612
  8
SAPA_PROFIL
 10
92.900000093400649
 20
122.47632481241151
 30
0.0
  0
VERTEX
  5
1613
  8
SAPA_PROFIL
 10
92.900000093400649
 20
122.69999999621579
 30
0.0
 42
0.6370702608044321
  0
VERTEX
  5
1614
  8
SAPA_PROFIL
 10
92.407163810496286
 20
122.92981332915291
 30
0.0
  0
VERTEX
  5
1615
  8
SAPA_PROFIL
 10
91.592836376305058
 20
122.24651147947471
 30
0.0
 42
-0.6370702608054489
  0
VERTEX
  5
1616
  8
SAPA_PROFIL
 10
91.100000093400695
 20
122.47632481241151
 30
0.0
  0
VERTEX
  5
1617
  8
SAPA_PROFIL
 10
91.100000093400695
 20
122.69999999621579
 30
0.0
 42
0.6370702608048074
  0
VERTEX
  5
1618
  8
SAPA_PROFIL
 10
90.607163810496104
 20
122.92981332915269
 30
0.0
  0
VERTEX
  5
1619
  8
SAPA_PROFIL
 10
89.792836376305104
 20
122.24651147947471
 30
0.0
 42
-0.6370702608050736
  0
VERTEX
  5
161A
  8
SAPA_PROFIL
 10
89.300000093400513
 20
122.4763248124118
 30
0.0
  0
VERTEX
  5
161B
  8
SAPA_PROFIL
 10
89.300000093400755
 20
122.69999999621579
 30
0.0
 42
0.6370702608053711
  0
VERTEX
  5
161C
  8
SAPA_PROFIL
 10
88.807163810494998
 20
122.9298133291515
 30
0.0
  0
VERTEX
  5
161D
  8
SAPA_PROFIL
 10
87.992836376305135
 20
122.24651147947471
 30
0.0
 42
-0.6370702608055112
  0
VERTEX
  5
161E
  8
SAPA_PROFIL
 10
87.500000093400786
 20
122.4763248124118
 30
0.0
  0
VERTEX
  5
161F
  8
SAPA_PROFIL
 10
87.500000093400786
 20
122.69999999621579
 30
0.0
 42
0.6370702608058085
  0
VERTEX
  5
1620
  8
SAPA_PROFIL
 10
87.007163810494831
 20
122.9298133291515
 30
0.0
  0
VERTEX
  5
1621
  8
SAPA_PROFIL
 10
86.192836376305195
 20
122.24651147947471
 30
0.0
 42
-0.6370702608054489
  0
VERTEX
  5
1622
  8
SAPA_PROFIL
 10
85.700000093400604
 20
122.47632481241151
 30
0.0
  0
VERTEX
  5
1623
  8
SAPA_PROFIL
 10
85.700000093400604
 20
122.69999999621579
 30
0.0
 42
0.6370702608051669
  0
VERTEX
  5
1624
  8
SAPA_PROFIL
 10
85.207163810494876
 20
122.9298133291515
 30
0.0
  0
VERTEX
  5
1625
  8
SAPA_PROFIL
 10
84.392836376304999
 20
122.24651147947471
 30
0.0
 42
-0.6370702608054489
  0
VERTEX
  5
1626
  8
SAPA_PROFIL
 10
83.900000093400422
 20
122.47632481241151
 30
0.0
  0
VERTEX
  5
1627
  8
SAPA_PROFIL
 10
83.900000093400422
 20
122.69999999621579
 30
0.0
 42
0.6064417173625494
  0
VERTEX
  5
1628
  8
SAPA_PROFIL
 10
83.428195414679294
 20
122.94593322367651
 30
0.0
  0
VERTEX
  5
1629
  8
SAPA_PROFIL
 10
80.513658962198633
 20
120.9098887086375
 30
0.0
 42
0.7336498725448613
  0
VERTEX
  5
162A
  8
SAPA_PROFIL
 10
80.800000093413701
 20
119.99999999620169
 30
0.0
  0
VERTEX
  5
162B
  8
SAPA_PROFIL
 10
231.100000093425
 20
119.9999999957242
 30
0.0
 42
0.4142135623754925
  0
VERTEX
  5
162C
  8
SAPA_PROFIL
 10
231.60000009342869
 20
120.49999999572471
 30
0.0
  0
VERTEX
  5
162D
  8
SAPA_PROFIL
 10
231.60000009340001
 20
164.69999999604261
 30
0.0
 42
0.6681786379188313
  0
VERTEX
  5
162E
  8
SAPA_PROFIL
 10
231.0878680590445
 20
164.9121320303984
 30
0.0
  0
VERTEX
  5
162F
  8
SAPA_PROFIL
 10
229.44644670280741
 20
163.27071067416179
 30
0.0
 42
0.4142135623730951
  0
VERTEX
  5
1630
  8
SAPA_PROFIL
 10
229.44644670280741
 20
162.5636038929751
 30
0.0
  0
VERTEX
  5
1631
  8
SAPA_PROFIL
 10
229.7121321277568
 20
162.29791846802621
 30
0.0
 42
-0.1989123673797157
  0
VERTEX
  5
1632
  8
SAPA_PROFIL
 10
229.8000000934008
 20
162.08578643366991
 30
0.0
  0
VERTEX
  5
1633
  8
SAPA_PROFIL
 10
229.8000000934008
 20
157.9999999960435
 30
0.0
 42
-0.4142135623736278
  0
VERTEX
  5
1634
  8
SAPA_PROFIL
 10
229.30000009340031
 20
157.49999999604341
 30
0.0
  0
VERTEX
  5
1635
  8
SAPA_PROFIL
 10
224.10000009340141
 20
157.49999999605069
 30
0.0
 42
0.4142135623733168
  0
VERTEX
  5
1636
  8
SAPA_PROFIL
 10
223.80000009340071
 20
157.19999999605079
 30
0.0
  0
VERTEX
  5
1637
  8
SAPA_PROFIL
 10
223.80000009340071
 20
155.79999999605161
 30
0.0
 42
0.414213562372873
  0
VERTEX
  5
1638
  8
SAPA_PROFIL
 10
224.10000009340089
 20
155.4999999960516
 30
0.0
  0
VERTEX
  5
1639
  8
SAPA_PROFIL
 10
229.10000009340641
 20
155.4999999960514
 30
0.0
 42
-0.4142135623728287
  0
VERTEX
  5
163A
  8
SAPA_PROFIL
 10
229.60000009340641
 20
154.99999999605191
 30
0.0
  0
VERTEX
  5
163B
  8
SAPA_PROFIL
 10
229.6000000934273
 20
122.49999999573809
 30
0.0
 42
-0.4142135623753593
  0
VERTEX
  5
163C
  8
SAPA_PROFIL
 10
229.10000009342369
 20
121.9999999957376
 30
0.0
  0
VERTEX
  5
163D
  8
SAPA_PROFIL
 10
222.1000000934084
 20
121.9999999957854
 30
0.0
 42
-0.4142135623730951
  0
VERTEX
  5
163E
  8
SAPA_PROFIL
 10
221.10000009342571
 20
122.99999999575989
 30
0.0
  0
VERTEX
  5
163F
  8
SAPA_PROFIL
 10
221.10000009342571
 20
127.5999999956784
 30
0.0
 42
0.4142135623730964
  0
VERTEX
  5
1640
  8
SAPA_PROFIL
 10
220.8000000934255
 20
127.8999999956777
 30
0.0
  0
VERTEX
  5
1641
  8
SAPA_PROFIL
 10
218.5000000934258
 20
127.8999999956777
 30
0.0
 42
0.4142135623730951
  0
VERTEX
  5
1642
  8
SAPA_PROFIL
 10
218.20000009342559
 20
127.59999999567751
 30
0.0
  0
VERTEX
  5
1643
  8
SAPA_PROFIL
 10
218.20000009342559
 20
127.0999999956784
 30
0.0
 42
0.4142135623730951
  0
VERTEX
  5
1644
  8
SAPA_PROFIL
 10
218.5000000934258
 20
126.79999999567821
 30
0.0
  0
VERTEX
  5
1645
  8
SAPA_PROFIL
 10
218.83662701806611
 20
126.79999999567821
 30
0.0
 42
-0.5535245743365466
  0
VERTEX
  5
1646
  8
SAPA_PROFIL
 10
217.0641076954505
 20
122.4894457841292
 30
0.0
  0
VERTEX
  5
1647
  8
SAPA_PROFIL
 10
216.77677678876779
 20
122.7767766908118
 30
0.0
 42
0.4142135623730973
  0
VERTEX
  5
1648
  8
SAPA_PROFIL
 10
216.42322339817451
 20
122.7767766908118
 30
0.0
  0
VERTEX
  5
1649
  8
SAPA_PROFIL
 10
216.13589249148231
 20
122.4894457841192
 30
0.0
 42
-0.5535245743470389
  0
VERTEX
  5
164A
  8
SAPA_PROFIL
 10
214.36337316879579
 20
126.79999999567821
 30
0.0
  0
VERTEX
  5
164B
  8
SAPA_PROFIL
 10
214.70000009342559
 20
126.79999999567821
 30
0.0
 42
0.4142135623730951
  0
VERTEX
  5
164C
  8
SAPA_PROFIL
 10
215.0000000934258
 20
127.0999999956784
 30
0.0
  0
VERTEX
  5
164D
  8
SAPA_PROFIL
 10
215.0000000934258
 20
127.59999999567751
 30
0.0
 42
0.4142135623730951
  0
VERTEX
  5
164E
  8
SAPA_PROFIL
 10
214.70000009342559
 20
127.8999999956777
 30
0.0
  0
VERTEX
  5
164F
  8
SAPA_PROFIL
 10
212.40000009342589
 20
127.8999999956777
 30
0.0
 42
0.4142135623728732
  0
VERTEX
  5
1650
  8
SAPA_PROFIL
 10
212.1000000934261
 20
127.5999999956784
 30
0.0
  0
VERTEX
  5
1651
  8
SAPA_PROFIL
 10
212.10000009342531
 20
122.99999999580361
 30
0.0
 42
-0.4142135623728287
  0
VERTEX
  5
1652
  8
SAPA_PROFIL
 10
211.10000009341201
 20
121.9999999957849
 30
0.0
  0
VERTEX
  5
1653
  8
SAPA_PROFIL
 10
98.600000093398876
 20
121.999999996081
 30
0.0
 42
-0.4142135623708751
  0
SEQEND
  5
1654
  8
SAPA_PROFIL
  0
POLYLINE
  5
FFC
  8
SAPA_PROFIL
 66
     1
 10
0.0
 20
0.0
 30
0.0
  0
VERTEX
  5
1655
  8
SAPA_PROFIL
 10
21.54236366000006
 20
62.072346845035412
 30
0.0
  0
VERTEX
  5
1656
  8
SAPA_PROFIL
 10
21.54236366000006
 20
62.072346845035412
 30
0.0
  0
SEQEND
  5
1657
  8
SAPA_PROFIL
  0
POLYLINE
  5
FFD
  8
SAPA_PROFIL
 66
     1
 10
0.0
 20
0.0
 30
0.0
 70
     1
  0
VERTEX
  5
1658
  8
SAPA_PROFIL
 10
15.708868880357519
 20
57.099949487539902
 30
0.0
  0
VERTEX
  5
1659
  8
SAPA_PROFIL
 10
17.700000094312681
 20
57.099949487539909
 30
0.0
 42
-0.4142135623730795
  0
VERTEX
  5
165A
  8
SAPA_PROFIL
 10
18.700000094312681
 20
56.099949487539917
 30
0.0
  0
VERTEX
  5
165B
  8
SAPA_PROFIL
 10
18.700000094312681
 20
55.832405019577671
 30
0.0
 42
-0.2896898633034337
  0
VERTEX
  5
165C
  8
SAPA_PROFIL
 10
18.128571522881849
 20
54.928897116671529
 30
0.0
 42
-0.5507604245854725
  0
VERTEX
  5
165D
  8
SAPA_PROFIL
 10
17.700000094312681
 20
55.199949487539939
 30
0.0
  0
VERTEX
  5
165E
  8
SAPA_PROFIL
 10
17.700000094312738
 20
55.49994948753983
 30
0.0
 42
0.4142135623730951
  0
VERTEX
  5
165F
  8
SAPA_PROFIL
 10
17.500000094312689
 20
55.699949487539932
 30
0.0
  0
VERTEX
  5
1660
  8
SAPA_PROFIL
 10
16.400000091495802
 20
55.699949487539932
 30
0.0
 42
0.4142135623730863
  0
VERTEX
  5
1661
  8
SAPA_PROFIL
 10
15.400000091495739
 20
54.699949487539882
 30
0.0
  0
VERTEX
  5
1662
  8
SAPA_PROFIL
 10
15.400000091495791
 20
52.399999993878687
 30
0.0
 42
0.4142135623730847
  0
VERTEX
  5
1663
  8
SAPA_PROFIL
 10
16.400000091495802
 20
51.39999999387868
 30
0.0
  0
VERTEX
  5
1664
  8
SAPA_PROFIL
 10
17.500000094312689
 20
51.399999993878687
 30
0.0
 42
0.4142135623730925
  0
VERTEX
  5
1665
  8
SAPA_PROFIL
 10
17.700000094312681
 20
51.599999993878683
 30
0.0
  0
VERTEX
  5
1666
  8
SAPA_PROFIL
 10
17.70000009431439
 20
51.899949487539807
 30
0.0
 42
-0.5507604245854657
  0
VERTEX
  5
1667
  8
SAPA_PROFIL
 10
18.128571522881909
 20
52.171001858408388
 30
0.0
 42
-0.2896898633034307
  0
VERTEX
  5
1668
  8
SAPA_PROFIL
 10
18.700000094312681
 20
51.267493955502133
 30
0.0
  0
VERTEX
  5
1669
  8
SAPA_PROFIL
 10
18.700000094312738
 20
50.99999999387866
 30
0.0
 42
-0.4142135623730951
  0
VERTEX
  5
166A
  8
SAPA_PROFIL
 10
17.700000094312681
 20
49.99999999387866
 30
0.0
  0
VERTEX
  5
166B
  8
SAPA_PROFIL
 10
16.00000009149576
 20
49.999999993878653
 30
0.0
 42
-0.4142135623730871
  0
VERTEX
  5
166C
  8
SAPA_PROFIL
 10
14.000000091495711
 20
51.99999999387871
 30
0.0
  0
VERTEX
  5
166D
  8
SAPA_PROFIL
 10
14.0000000895068
 20
74.699999993853297
 30
0.0
 42
-0.4142135623987623
  0
VERTEX
  5
166E
  8
SAPA_PROFIL
 10
14.30000008950681
 20
74.999999993879626
 30
0.0
  0
VERTEX
  5
166F
  8
SAPA_PROFIL
 10
14.792893308293991
 20
74.999999993879626
 30
0.0
 42
-0.198912367379658
  0
VERTEX
  5
1670
  8
SAPA_PROFIL
 10
15.146446698887271
 20
74.853553384472889
 30
0.0
  0
VERTEX
  5
1671
  8
SAPA_PROFIL
 10
15.853553480073881
 20
74.146446603286293
 30
0.0
 42
0.1989123673796528
  0
VERTEX
  5
1672
  8
SAPA_PROFIL
 10
16.20710687066715
 20
73.99999999387957
 30
0.0
  0
VERTEX
  5
1673
  8
SAPA_PROFIL
 10
17.500000089480601
 20
73.99999999387957
 30
0.0
 42
0.4142135623730659
  0
VERTEX
  5
1674
  8
SAPA_PROFIL
 10
18.000000089480601
 20
74.49999999387957
 30
0.0
  0
VERTEX
  5
1675
  8
SAPA_PROFIL
 10
18.000000089480832
 20
76.884062037236063
 30
0.0
 42
0.1989123673796822
  0
VERTEX
  5
1676
  8
SAPA_PROFIL
 10
17.853553480074101
 20
77.237615427829397
 30
0.0
  0
VERTEX
  5
1677
  8
SAPA_PROFIL
 10
17.086143660854379
 20
78.005025247049176
 30
0.0
 42
-0.9999999999999998
  0
VERTEX
  5
1678
  8
SAPA_PROFIL
 10
18.076093154515569
 20
78.994974740710362
 30
0.0
  0
VERTEX
  5
1679
  8
SAPA_PROFIL
 10
19.853553480074218
 20
77.217514415151712
 30
0.0
 42
-0.1989123673796822
  0
VERTEX
  5
167A
  8
SAPA_PROFIL
 10
20.000000089480942
 20
76.863961024558364
 30
0.0
  0
VERTEX
  5
167B
  8
SAPA_PROFIL
 10
20.000000089480491
 20
72.499999993879513
 30
0.0
 42
-0.4142135623730639
  0
VERTEX
  5
167C
  8
SAPA_PROFIL
 10
19.500000089480491
 20
71.999999993879513
 30
0.0
  0
VERTEX
  5
167D
  8
SAPA_PROFIL
 10
17.50000008948032
 20
71.999999993879513
 30
0.0
 42
0.414213562373064
  0
VERTEX
  5
167E
  8
SAPA_PROFIL
 10
17.00000008948032
 20
71.499999993879513
 30
0.0
  0
VERTEX
  5
167F
  8
SAPA_PROFIL
 10
17.000000089479979
 20
67.999999993879399
 30
0.0
 42
0.4142135623731263
  0
VERTEX
  5
1680
  8
SAPA_PROFIL
 10
17.500000089479979
 20
67.499999993879342
 30
0.0
  0
VERTEX
  5
1681
  8
SAPA_PROFIL
 10
32.2184481029905
 20
67.499999993879342
 30
0.0
 42
0.3639702342662015
  0
VERTEX
  5
1682
  8
SAPA_PROFIL
 10
33.203255856002698
 20
68.326351816212437
 30
0.0
  0
VERTEX
  5
1683
  8
SAPA_PROFIL
 10
34.234291967646378
 20
74.173648171546475
 30
0.0
 42
-0.3639702342662066
  0
VERTEX
  5
1684
  8
SAPA_PROFIL
 10
35.21909972065864
 20
74.999999993879626
 30
0.0
  0
VERTEX
  5
1685
  8
SAPA_PROFIL
 10
39.080000089481501
 20
74.999999993879626
 30
0.0
 42
-0.4142135623730951
  0
VERTEX
  5
1686
  8
SAPA_PROFIL
 10
39.580000089481487
 20
74.49999999387957
 30
0.0
  0
VERTEX
  5
1687
  8
SAPA_PROFIL
 10
39.580000089481487
 20
74.299999993879581
 30
0.0
 42
-0.4142135623730951
  0
VERTEX
  5
1688
  8
SAPA_PROFIL
 10
39.080000089481501
 20
73.799999993879581
 30
0.0
  0
VERTEX
  5
1689
  8
SAPA_PROFIL
 10
39.00000008948134
 20
73.799999993879581
 30
0.0
 42
0.4142135623730619
  0
VERTEX
  5
168A
  8
SAPA_PROFIL
 10
38.50000008948134
 20
73.299999993879581
 30
0.0
  0
VERTEX
  5
168B
  8
SAPA_PROFIL
 10
38.500000089480999
 20
69.999999993879513
 30
0.0
 42
-0.5693809839207964
  0
VERTEX
  5
168C
  8
SAPA_PROFIL
 10
38.204183717778363
 20
69.824445948315955
 30
0.0
  0
VERTEX
  5
168D
  8
SAPA_PROFIL
 10
36.600000089481313
 20
70.799999993879695
 30
0.0
  0
VERTEX
  5
168E
  8
SAPA_PROFIL
 10
36.300000089481578
 20
70.799999993879922
 30
0.0
 42
0.414213562372873
  0
VERTEX
  5
168F
  8
SAPA_PROFIL
 10
36.000000089481397
 20
70.499999993879797
 30
0.0
  0
VERTEX
  5
1690
  8
SAPA_PROFIL
 10
36.000000089481397
 20
66.499999994717101
 30
0.0
 42
-0.2134217652834381
  0
VERTEX
  5
1691
  8
SAPA_PROFIL
 10
35.900000089481281
 20
66.276393196966993
 30
0.0
 42
0.7625858545243276
  0
VERTEX
  5
1692
  8
SAPA_PROFIL
 10
36.084579291678757
 20
65.946067115949973
 30
0.0
  0
VERTEX
  5
1693
  8
SAPA_PROFIL
 10
36.275962291672492
 20
66.004140752939065
 30
0.0
  0
VERTEX
  5
1694
  8
SAPA_PROFIL
 10
38.16180598353354
 20
67.088705199910805
 30
0.0
  0
VERTEX
  5
1695
  8
SAPA_PROFIL
 10
38.151244617306538
 20
67.410462928129064
 30
0.0
 42
-0.577350269189744
  0
VERTEX
  5
1696
  8
SAPA_PROFIL
 10
38.445400917561393
 20
67.593416668239229
 30
0.0
  0
VERTEX
  5
1697
  8
SAPA_PROFIL
 10
38.730083200793032
 20
67.44128275713048
 30
0.0
 42
-0.2216946626430207
  0
VERTEX
  5
1698
  8
SAPA_PROFIL
 10
39.135892105947818
 20
66.90040292565368
 30
0.0
  0
VERTEX
  5
1699
  8
SAPA_PROFIL
 10
39.517338702075541
 20
65.087172454995439
 30
0.0
 42
-0.4769755326981632
  0
VERTEX
  5
169A
  8
SAPA_PROFIL
 10
39.215085877569081
 20
64.715515580049555
 30
0.0
  0
VERTEX
  5
169B
  8
SAPA_PROFIL
 10
37.71198479680708
 20
64.715599187933208
 30
0.0
  0
VERTEX
  5
169C
  8
SAPA_PROFIL
 10
37.69746638755997
 20
64.763444937931695
 30
0.0
 42
0.4142135623730951
  0
VERTEX
  5
169D
  8
SAPA_PROFIL
 10
37.323281432084158
 20
64.963408982439091
 30
0.0
  0
VERTEX
  5
169E
  8
SAPA_PROFIL
 10
36.12431864927315
 20
64.499999993879499
 30
0.0
  0
VERTEX
  5
169F
  8
SAPA_PROFIL
 10
28.6696153326454
 20
64.499999993879399
 30
0.0
  0
VERTEX
  5
16A0
  8
SAPA_PROFIL
 10
28.150000090374789
 20
64.79999999387941
 30
0.0
  0
VERTEX
  5
16A1
  8
SAPA_PROFIL
 10
27.630384848104111
 20
64.499999993879342
 30
0.0
  0
VERTEX
  5
16A2
  8
SAPA_PROFIL
 10
16.281385059064821
 20
64.499999993879158
 30
0.0
 42
0.3955859011959327
  0
VERTEX
  5
16A3
  8
SAPA_PROFIL
 10
15.9819995367969
 20
64.219191373620447
 30
0.0
  0
VERTEX
  5
16A4
  8
SAPA_PROFIL
 10
15.5092785321789
 20
57.312743740700853
 30
0.0
 42
0.433089857303855
  0
SEQEND
  5
16A5
  8
SAPA_PROFIL
  0
POLYLINE
  5
FFE
  8
SAPA_PROFIL
 62
     4
 66
     1
 10
0.0
 20
0.0
 30
0.1
 70
     1
1001
RC_PROFILE
1002
{
1000
Contour
1002
}
  0
VERTEX
  5
16A6
  8
SAPA_PROFIL
 62
     4
 10
38.456136962947433
 20
67.64098075179254
 30
0.1
 42
0.5773502691895099
  0
VERTEX
  5
16A7
  8
SAPA_PROFIL
 62
     4
 10
38.141136962947712
 20
67.459115416997875
 30
0.1
  0
VERTEX
  5
16A8
  8
SAPA_PROFIL
 62
     4
 10
38.141136962947712
 20
67.192000888784847
 30
0.1
  0
VERTEX
  5
16A9
  8
SAPA_PROFIL
 62
     4
 10
36.760000089531161
 20
66.399999994316445
 30
0.1
  0
VERTEX
  5
16AA
  8
SAPA_PROFIL
 62
     4
 10
36.400000089530813
 20
66.399999994307805
 30
0.1
 42
-0.4142135623731464
  0
VERTEX
  5
16AB
  8
SAPA_PROFIL
 62
     4
 10
36.000000089521279
 20
66.79999999429846
 30
0.1
  0
VERTEX
  5
16AC
  8
SAPA_PROFIL
 62
     4
 10
36.000000089441528
 20
70.199999994298423
 30
0.1
 42
-0.4142135623728774
  0
VERTEX
  5
16AD
  8
SAPA_PROFIL
 62
     4
 10
36.400000089431792
 20
70.59999999430795
 30
0.1
  0
VERTEX
  5
16AE
  8
SAPA_PROFIL
 62
     4
 10
36.760000089432083
 20
70.599999994316477
 30
0.1
  0
VERTEX
  5
16AF
  8
SAPA_PROFIL
 62
     4
 10
38.40094838554473
 20
69.659012085403106
 30
0.1
 42
0.130905717258469
  0
VERTEX
  5
16B0
  8
SAPA_PROFIL
 62
     4
 10
38.997894089457994
 20
69.499999994368963
 30
0.1
  0
VERTEX
  5
16B1
  8
SAPA_PROFIL
 62
     4
 10
63.002069427737467
 20
69.499999994928999
 30
0.1
 42
0.1309134860018379
  0
VERTEX
  5
16B2
  8
SAPA_PROFIL
 62
     4
 10
63.599051793335718
 20
69.659012085403106
 30
0.1
  0
VERTEX
  5
16B3
  8
SAPA_PROFIL
 62
     4
 10
65.240000089448131
 20
70.599999994316477
 30
0.1
  0
VERTEX
  5
16B4
  8
SAPA_PROFIL
 62
     4
 10
65.600000089448542
 20
70.59999999430795
 30
0.1
 42
-0.4142135623729619
  0
VERTEX
  5
16B5
  8
SAPA_PROFIL
 62
     4
 10
66.000000089438913
 20
70.199999994298423
 30
0.1
  0
VERTEX
  5
16B6
  8
SAPA_PROFIL
 62
     4
 10
66.000000089359162
 20
66.799999994298446
 30
0.1
 42
-0.4142135623730782
  0
VERTEX
  5
16B7
  8
SAPA_PROFIL
 62
     4
 10
65.600000089349578
 20
66.399999994307905
 30
0.1
  0
VERTEX
  5
16B8
  8
SAPA_PROFIL
 62
     4
 10
65.240000089349337
 20
66.399999994316431
 30
0.1
  0
VERTEX
  5
16B9
  8
SAPA_PROFIL
 62
     4
 10
63.858863215932558
 20
67.192000888784833
 30
0.1
  0
VERTEX
  5
16BA
  8
SAPA_PROFIL
 62
     4
 10
63.858863215932672
 20
67.459115416997861
 30
0.1
 42
0.5773502691896441
  0
VERTEX
  5
16BB
  8
SAPA_PROFIL
 62
     4
 10
63.543863215932952
 20
67.640980751792426
 30
0.1
  0
VERTEX
  5
16BC
  8
SAPA_PROFIL
 62
     4
 10
63.299677381185063
 20
67.499999994368977
 30
0.1
  0
VERTEX
  5
16BD
  8
SAPA_PROFIL
 62
     4
 10
38.700322797695272
 20
67.499999994368991
 30
0.1
  0
SEQEND
  5
16BE
  8
SAPA_PROFIL
 62
     4
  0
POLYLINE
  5
FFF
  8
SAPA_PROFIL
  6
CONTINUOUS
 62
     4
 66
     1
 10
0.0
 20
0.0
 30
0.0
 70
     1
  0
VERTEX
  5
16BF
  8
SAPA_PROFIL
  6
CONTINUOUS
 62
     4
 10
38.141136962947712
 20
67.459115416997875
 30
0.0
  0
VERTEX
  5
16C0
  8
SAPA_PROFIL
  6
CONTINUOUS
 62
     4
 10
38.141136962947712
 20
67.192000888784847
 30
0.0
  0
VERTEX
  5
16C1
  8
SAPA_PROFIL
  6
CONTINUOUS
 62
     4
 10
36.760000089531161
 20
66.399999994316445
 30
0.0
  0
VERTEX
  5
16C2
  8
SAPA_PROFIL
  6
CONTINUOUS
 62
     4
 10
36.400000089530799
 20
66.399999994307805
 30
0.0
 42
-0.4142135623731473
  0
VERTEX
  5
16C3
  8
SAPA_PROFIL
  6
CONTINUOUS
 62
     4
 10
36.000000089521279
 20
66.79999999429846
 30
0.0
  0
VERTEX
  5
16C4
  8
SAPA_PROFIL
  6
CONTINUOUS
 62
     4
 10
36.000000089441521
 20
70.199999994298423
 30
0.0
 42
-0.4142135623728817
  0
VERTEX
  5
16C5
  8
SAPA_PROFIL
  6
CONTINUOUS
 62
     4
 10
36.400000089431792
 20
70.59999999430795
 30
0.0
  0
VERTEX
  5
16C6
  8
SAPA_PROFIL
  6
CONTINUOUS
 62
     4
 10
36.760000089432083
 20
70.599999994316477
 30
0.0
  0
VERTEX
  5
16C7
  8
SAPA_PROFIL
  6
CONTINUOUS
 62
     4
 10
38.400948385544723
 20
69.659012085403106
 30
0.0
 42
0.1309057172584687
  0
VERTEX
  5
16C8
  8
SAPA_PROFIL
  6
CONTINUOUS
 62
     4
 10
38.997894089457979
 20
69.499999994368963
 30
0.0
  0
VERTEX
  5
16C9
  8
SAPA_PROFIL
  6
CONTINUOUS
 62
     4
 10
63.002069427737467
 20
69.499999994928999
 30
0.0
 42
0.1309134860018382
  0
VERTEX
  5
16CA
  8
SAPA_PROFIL
  6
CONTINUOUS
 62
     4
 10
63.599051793335718
 20
69.659012085403106
 30
0.0
  0
VERTEX
  5
16CB
  8
SAPA_PROFIL
  6
CONTINUOUS
 62
     4
 10
65.240000089448131
 20
70.599999994316477
 30
0.0
  0
VERTEX
  5
16CC
  8
SAPA_PROFIL
  6
CONTINUOUS
 62
     4
 10
65.600000089448542
 20
70.59999999430795
 30
0.0
 42
-0.4142135623729598
  0
VERTEX
  5
16CD
  8
SAPA_PROFIL
  6
CONTINUOUS
 62
     4
 10
66.000000089438913
 20
70.199999994298423
 30
0.0
  0
VERTEX
  5
16CE
  8
SAPA_PROFIL
  6
CONTINUOUS
 62
     4
 10
66.000000089359162
 20
66.799999994298446
 30
0.0
 42
-0.4142135623730795
  0
VERTEX
  5
16CF
  8
SAPA_PROFIL
  6
CONTINUOUS
 62
     4
 10
65.600000089349578
 20
66.399999994307905
 30
0.0
  0
VERTEX
  5
16D0
  8
SAPA_PROFIL
  6
CONTINUOUS
 62
     4
 10
65.240000089349337
 20
66.399999994316431
 30
0.0
  0
VERTEX
  5
16D1
  8
SAPA_PROFIL
  6
CONTINUOUS
 62
     4
 10
63.858863215932558
 20
67.192000888784833
 30
0.0
  0
VERTEX
  5
16D2
  8
SAPA_PROFIL
  6
CONTINUOUS
 62
     4
 10
63.858863215932672
 20
67.459115416997861
 30
0.0
 42
0.5773502691896458
  0
VERTEX
  5
16D3
  8
SAPA_PROFIL
  6
CONTINUOUS
 62
     4
 10
63.543863215932952
 20
67.640980751792426
 30
0.0
  0
VERTEX
  5
16D4
  8
SAPA_PROFIL
  6
CONTINUOUS
 62
     4
 10
63.299677381185063
 20
67.499999994368977
 30
0.0
  0
VERTEX
  5
16D5
  8
SAPA_PROFIL
  6
CONTINUOUS
 62
     4
 10
38.700322797695257
 20
67.499999994368991
 30
0.0
  0
VERTEX
  5
16D6
  8
SAPA_PROFIL
  6
CONTINUOUS
 62
     4
 10
38.456136962947419
 20
67.64098075179254
 30
0.0
 42
0.5773502691895091
  0
SEQEND
  5
16D7
  8
SAPA_PROFIL
  6
CONTINUOUS
 62
     4
  0
POLYLINE
  5
1000
  8
SAPA_PROFIL
 66
     1
 10
0.0
 20
0.0
 30
0.0
  0
VERTEX
  5
16D8
  8
SAPA_PROFIL
 10
66.000000089399123
 20
66.574116258479251
 30
0.0
 42
0.2134217652834216
  0
VERTEX
  5
16D9
  8
SAPA_PROFIL
 10
66.100000089399259
 20
66.350509460729143
 30
0.0
 42
-0.7625858545242717
  0
VERTEX
  5
16DA
  8
SAPA_PROFIL
 10
65.915420887201776
 20
66.020183379712108
 30
0.0
  0
VERTEX
  5
16DB
  8
SAPA_PROFIL
 10
65.724037887208056
 20
66.078257016701201
 30
0.0
  0
VERTEX
  5
16DC
  8
SAPA_PROFIL
 10
63.838194195347
 20
67.162821463672941
 30
0.0
  0
VERTEX
  5
16DD
  8
SAPA_PROFIL
 10
63.848755561573959
 20
67.484579191891214
 30
0.0
 42
0.5773502691897205
  0
VERTEX
  5
16DE
  8
SAPA_PROFIL
 10
63.55459926131914
 20
67.667532932001365
 30
0.0
  0
VERTEX
  5
16DF
  8
SAPA_PROFIL
 10
63.269916978087501
 20
67.515399020892659
 30
0.0
 42
0.2216946626430408
  0
VERTEX
  5
16E0
  8
SAPA_PROFIL
 10
62.864108072932709
 20
66.974519189415815
 30
0.0
  0
VERTEX
  5
16E1
  8
SAPA_PROFIL
 10
62.482661476804992
 20
65.161288718757589
 30
0.0
 42
0.476975532698107
  0
VERTEX
  5
16E2
  8
SAPA_PROFIL
 10
62.78491430131146
 20
64.789631843811691
 30
0.0
  0
VERTEX
  5
16E3
  8
SAPA_PROFIL
 10
64.288015382073468
 20
64.789715451695344
 30
0.0
  0
VERTEX
  5
16E4
  8
SAPA_PROFIL
 10
64.30253379132057
 20
64.837561201693831
 30
0.0
 42
-0.4142135623731266
  0
VERTEX
  5
16E5
  8
SAPA_PROFIL
 10
64.676718746796382
 20
65.037525246201227
 30
0.0
  0
VERTEX
  5
16E6
  8
SAPA_PROFIL
 10
65.997834847736044
 20
64.526902994298709
 30
0.0
  0
VERTEX
  5
16E7
  8
SAPA_PROFIL
 10
72.079408089399749
 20
64.526902994298723
 30
0.0
  0
VERTEX
  5
16E8
  8
SAPA_PROFIL
 10
72.600000089399813
 20
64.827466994298732
 30
0.0
  0
VERTEX
  5
16E9
  8
SAPA_PROFIL
 10
73.120593089399904
 20
64.526902994298723
 30
0.0
  0
VERTEX
  5
16EA
  8
SAPA_PROFIL
 10
77.300000089400214
 20
64.526902994298723
 30
0.0
 42
-0.4142140000000108
  0
VERTEX
  5
16EB
  8
SAPA_PROFIL
 10
77.600000089400282
 20
64.226902994298655
 30
0.0
  0
VERTEX
  5
16EC
  8
SAPA_PROFIL
 10
77.600000089400169
 20
62.726902994298541
 30
0.0
 42
0.4142139999998548
  0
VERTEX
  5
16ED
  8
SAPA_PROFIL
 10
77.800000089400214
 20
62.526902994298489
 30
0.0
  0
VERTEX
  5
16EE
  8
SAPA_PROFIL
 10
78.300000089400214
 20
62.526902994298489
 30
0.0
 42
0.4142140000000309
  0
VERTEX
  5
16EF
  8
SAPA_PROFIL
 10
79.300000089400442
 20
63.526902994298602
 30
0.0
  0
VERTEX
  5
16F0
  8
SAPA_PROFIL
 10
79.300000089400442
 20
70.026902994298382
 30
0.0
 42
-0.4142135623731031
  0
VERTEX
  5
16F1
  8
SAPA_PROFIL
 10
81.300000089400442
 20
72.026902994298496
 30
0.0
  0
VERTEX
  5
16F2
  8
SAPA_PROFIL
 10
87.000000089400942
 20
72.026902994298496
 30
0.0
 42
0.4142140000000262
  0
VERTEX
  5
16F3
  8
SAPA_PROFIL
 10
88.000000089401155
 20
73.026902994298609
 30
0.0
  0
VERTEX
  5
16F4
  8
SAPA_PROFIL
 10
88.000000089400928
 20
74.726902994298413
 30
0.0
 42
0.4142139999999169
  0
VERTEX
  5
16F5
  8
SAPA_PROFIL
 10
87.700000089400987
 20
75.026902994298496
 30
0.0
  0
VERTEX
  5
16F6
  8
SAPA_PROFIL
 10
87.243867383207643
 20
75.026902994298496
 30
0.0
 42
0.2308681911255748
  0
VERTEX
  5
16F7
  8
SAPA_PROFIL
 10
86.849862006404365
 20
74.834733731961293
 30
0.0
  0
VERTEX
  5
16F8
  8
SAPA_PROFIL
 10
86.365802061995623
 20
74.219072256635684
 30
0.0
 42
-0.2308681911255704
  0
VERTEX
  5
16F9
  8
SAPA_PROFIL
 10
85.971796685192317
 20
74.026902994298496
 30
0.0
  0
VERTEX
  5
16FA
  8
SAPA_PROFIL
 10
84.000000089400714
 20
74.026902994298496
 30
0.0
 42
-0.4142140000000419
  0
VERTEX
  5
16FB
  8
SAPA_PROFIL
 10
83.500000089400714
 20
74.526902994298496
 30
0.0
  0
VERTEX
  5
16FC
  8
SAPA_PROFIL
 10
83.500000089400714
 20
78.526902994298496
 30
0.0
 42
0.9999999999999998
  0
VERTEX
  5
16FD
  8
SAPA_PROFIL
 10
82.100000089400609
 20
78.526902994298496
 30
0.0
  0
VERTEX
  5
16FE
  8
SAPA_PROFIL
 10
82.100000089400609
 20
75.526902994298837
 30
0.0
 42
-0.4142135623731304
  0
VERTEX
  5
16FF
  8
SAPA_PROFIL
 10
81.600000089400623
 20
75.026902994298723
 30
0.0
  0
VERTEX
  5
1700
  8
SAPA_PROFIL
 10
81.300000089400442
 20
75.026902994298723
 30
0.0
 42
0.4142135623730951
  0
VERTEX
  5
1701
  8
SAPA_PROFIL
 10
76.3000000894001
 20
70.026902994298382
 30
0.0
  0
VERTEX
  5
1702
  8
SAPA_PROFIL
 10
76.3000000894001
 20
68.026902994298723
 30
0.0
 42
-0.414214000000047
  0
VERTEX
  5
1703
  8
SAPA_PROFIL
 10
75.8000000894001
 20
67.526902994298723
 30
0.0
  0
VERTEX
  5
1704
  8
SAPA_PROFIL
 10
69.765225089399564
 20
67.526902994298723
 30
0.0
 42
-0.363970000000007
  0
VERTEX
  5
1705
  8
SAPA_PROFIL
 10
68.780418089399504
 20
68.353254994298752
 30
0.0
  0
VERTEX
  5
1706
  8
SAPA_PROFIL
 10
67.749382089399546
 20
74.200550994299235
 30
0.0
 42
0.3639700000000089
  0
VERTEX
  5
1707
  8
SAPA_PROFIL
 10
66.764574089399375
 20
75.026902994299277
 30
0.0
  0
VERTEX
  5
1708
  8
SAPA_PROFIL
 10
62.903673089399028
 20
75.026902994299277
 30
0.0
 42
0.4142140000000481
  0
VERTEX
  5
1709
  8
SAPA_PROFIL
 10
62.403673089399028
 20
74.526902994299277
 30
0.0
  0
VERTEX
  5
170A
  8
SAPA_PROFIL
 10
62.403673089399028
 20
74.326902994299232
 30
0.0
 42
0.4142139999999776
  0
VERTEX
  5
170B
  8
SAPA_PROFIL
 10
62.903673089399028
 20
73.826902994299232
 30
0.0
  0
VERTEX
  5
170C
  8
SAPA_PROFIL
 10
63.000000089399009
 20
73.826902994299232
 30
0.0
 42
-0.4142140000000459
  0
VERTEX
  5
170D
  8
SAPA_PROFIL
 10
63.500000089399123
 20
73.326902994299118
 30
0.0
  0
VERTEX
  5
170E
  8
SAPA_PROFIL
 10
63.500000089399123
 20
69.975327994298866
 30
0.0
 42
0.5773499999998256
  0
VERTEX
  5
170F
  8
SAPA_PROFIL
 10
63.800000089399077
 20
69.802122994298813
 30
0.0
  0
VERTEX
  5
1710
  8
SAPA_PROFIL
 10
65.400000089399214
 20
70.72588399429894
 30
0.0
  0
VERTEX
  5
1711
  8
SAPA_PROFIL
 10
65.700000089399282
 20
70.72588399429894
 30
0.0
 42
-0.4142139999999518
  0
VERTEX
  5
1712
  8
SAPA_PROFIL
 10
66.000000089399236
 20
70.425883994298871
 30
0.0
  0
VERTEX
  5
1713
  8
SAPA_PROFIL
 10
66.000000089399236
 20
66.574115994298879
 30
0.0
  0
SEQEND
  5
1714
  8
SAPA_PROFIL
  0
POLYLINE
  5
1001
  8
SAPA_PROFIL
 66
     1
 10
0.0
 20
0.0
 30
0.0
 70
     1
  0
VERTEX
  5
1715
  8
SAPA_PROFIL
 10
70.802767621062912
 20
-20.00000000000011
 30
0.0
  0
VERTEX
  5
1716
  8
SAPA_PROFIL
 10
71.458555748539084
 20
4.3999999999999773
 30
0.0
 42
0.6681786379237078
  0
VERTEX
  5
1717
  8
SAPA_PROFIL
 10
70.94642371418081
 20
4.6121320343530661
 30
0.0
  0
VERTEX
  5
1718
  8
SAPA_PROFIL
 10
68.946423714183084
 20
2.612132034355795
 30
0.0
 42
0.733230336258869
  0
VERTEX
  5
1719
  8
SAPA_PROFIL
 10
69.210650201840735
 20
2.1045576740965539
 30
0.0
  0
VERTEX
  5
171A
  8
SAPA_PROFIL
 10
69.80646129523916
 20
2.2096152452680822
 30
0.0
 42
-0.4663076581593259
  0
VERTEX
  5
171B
  8
SAPA_PROFIL
 10
70.158555748539357
 20
1.9141729193646591
 30
0.0
  0
VERTEX
  5
171C
  8
SAPA_PROFIL
 10
69.502767621063185
 20
-20.00000000000011
 30
0.0
 42
-0.41421356237163
  0
VERTEX
  5
171D
  8
SAPA_PROFIL
 10
69.002767621065459
 20
-20.50000000000011
 30
0.0
  0
VERTEX
  5
171E
  8
SAPA_PROFIL
 10
59.800000002218212
 20
-20.50000000000011
 30
0.0
 42
-0.4142135623716965
  0
VERTEX
  5
171F
  8
SAPA_PROFIL
 10
59.300000002218212
 20
-20.000000000005119
 30
0.0
  0
VERTEX
  5
1720
  8
SAPA_PROFIL
 10
59.300000002218212
 20
-8.3000000000016598
 30
0.0
 42
0.4142135623729286
  0
VERTEX
  5
1721
  8
SAPA_PROFIL
 10
59.000000002218478
 20
-8.0000000000014762
 30
0.0
  0
VERTEX
  5
1722
  8
SAPA_PROFIL
 10
58.300000002218212
 20
-8.0000000000014762
 30
0.0
 42
0.414213562373206
  0
VERTEX
  5
1723
  8
SAPA_PROFIL
 10
58.00000000221803
 20
-8.3000000000016598
 30
0.0
  0
VERTEX
  5
1724
  8
SAPA_PROFIL
 10
58.00000000221803
 20
-19.700000000015851
 30
0.0
 42
-0.4142135623732283
  0
VERTEX
  5
1725
  8
SAPA_PROFIL
 10
57.50000000221803
 20
-20.200000000015851
 30
0.0
  0
VERTEX
  5
1726
  8
SAPA_PROFIL
 10
56.30000000221866
 20
-20.200000000014938
 30
0.0
 42
0.4142135623732616
  0
VERTEX
  5
1727
  8
SAPA_PROFIL
 10
56.000000002218478
 20
-20.500000000014669
 30
0.0
  0
VERTEX
  5
1728
  8
SAPA_PROFIL
 10
56.00000000221803
 20
-21.70000000000039
 30
0.0
 42
0.4142135623717076
  0
VERTEX
  5
1729
  8
SAPA_PROFIL
 10
56.300000002219583
 20
-22.00000000000011
 30
0.0
  0
VERTEX
  5
172A
  8
SAPA_PROFIL
 10
86.200000002217834
 20
-22.000000000013749
 30
0.0
 42
0.4142135623732531
  0
VERTEX
  5
172B
  8
SAPA_PROFIL
 10
86.50000000221803
 20
-21.700000000013571
 30
0.0
  0
VERTEX
  5
172C
  8
SAPA_PROFIL
 10
86.50000000221803
 20
-0.2045678985692803
 30
0.0
 42
0.4209196114694233
  0
VERTEX
  5
172D
  8
SAPA_PROFIL
 10
86.300052173265826
 20
-0.0000000000001137
 30
0.0
  0
VERTEX
  5
172E
  8
SAPA_PROFIL
 10
85.499998722985538
 20
-0.0000000000001137
 30
0.0
  0
VERTEX
  5
172F
  8
SAPA_PROFIL
 10
85.499998722985538
 20
-0.2999999999998408
 30
0.0
 42
-0.4142135623730117
  0
VERTEX
  5
1730
  8
SAPA_PROFIL
 10
85.299998722985734
 20
-0.5000000000001137
 30
0.0
  0
VERTEX
  5
1731
  8
SAPA_PROFIL
 10
85.082820957515864
 20
-0.5000000000001137
 30
0.0
 42
-0.1988669396405999
  0
VERTEX
  5
1732
  8
SAPA_PROFIL
 10
84.94142432339936
 20
-0.4414460740368896
 30
0.0
  0
VERTEX
  5
1733
  8
SAPA_PROFIL
 10
84.499823895910836
 20
-0.0000000000001137
 30
0.0
  0
VERTEX
  5
1734
  8
SAPA_PROFIL
 10
84.002767621063185
 20
0.4970562748475232
 30
0.0
  0
VERTEX
  5
1735
  8
SAPA_PROFIL
 10
84.002767621065914
 20
2.0004006564066681
 30
0.0
 42
0.4956073595117196
  0
VERTEX
  5
1736
  8
SAPA_PROFIL
 10
84.216743355581215
 20
3.5774624771264589
 30
0.0
  0
VERTEX
  5
1737
  8
SAPA_PROFIL
 10
83.154564662633888
 20
4.6396411700737872
 30
0.0
 42
0.6681786379165803
  0
VERTEX
  5
1738
  8
SAPA_PROFIL
 10
82.802767621062912
 20
4.4939220642489772
 30
0.0
  0
VERTEX
  5
1739
  8
SAPA_PROFIL
 10
82.802767621062912
 20
-0.0000000000001137
 30
0.0
  0
VERTEX
  5
173A
  8
SAPA_PROFIL
 10
84.87993951020303
 20
-2.0771718891397759
 30
0.0
 42
-0.2061234514950363
  0
VERTEX
  5
173B
  8
SAPA_PROFIL
 10
85.026194200792588
 20
-2.4445774270008078
 30
0.0
  0
VERTEX
  5
173C
  8
SAPA_PROFIL
 10
84.60663071140084
 20
-17.58311288360812
 30
0.0
 42
-0.4061212134723014
  0
VERTEX
  5
173D
  8
SAPA_PROFIL
 10
81.607782224301218
 20
-20.50000000000011
 30
0.0
  0
VERTEX
  5
173E
  8
SAPA_PROFIL
 10
71.302767621065641
 20
-20.50000000000011
 30
0.0
 42
-0.41421356237163
  0
SEQEND
  5
173F
  8
SAPA_PROFIL
  0
POLYLINE
  5
1002
  8
SAPA_PROFIL
 66
     1
 10
0.0
 20
0.0
 30
0.0
 70
     1
  0
VERTEX
  5
1740
  8
SAPA_PROFIL
 10
65.999999998931273
 20
50.453514573814402
 30
0.0
 42
-0.2134217652834387
  0
VERTEX
  5
1741
  8
SAPA_PROFIL
 10
66.099999998931381
 20
50.67712137156451
 30
0.0
 42
0.7625858545243219
  0
VERTEX
  5
1742
  8
SAPA_PROFIL
 10
65.915420796733912
 20
51.00744745258153
 30
0.0
  0
VERTEX
  5
1743
  8
SAPA_PROFIL
 10
65.724037796740191
 20
50.949373815592438
 30
0.0
  0
VERTEX
  5
1744
  8
SAPA_PROFIL
 10
63.838194104879129
 20
49.864809368620691
 30
0.0
  0
VERTEX
  5
1745
  8
SAPA_PROFIL
 10
63.848755471106116
 20
49.543051640402439
 30
0.0
 42
-0.5773502691897439
  0
VERTEX
  5
1746
  8
SAPA_PROFIL
 10
63.554599170851269
 20
49.360097900292281
 30
0.0
  0
VERTEX
  5
1747
  8
SAPA_PROFIL
 10
63.269916887619637
 20
49.512231811401023
 30
0.0
 42
-0.2216946626430187
  0
VERTEX
  5
1748
  8
SAPA_PROFIL
 10
62.864107982464837
 20
50.053111642877823
 30
0.0
  0
VERTEX
  5
1749
  8
SAPA_PROFIL
 10
62.482661386337128
 20
51.866342113536057
 30
0.0
 42
-0.4769755326981641
  0
VERTEX
  5
174A
  8
SAPA_PROFIL
 10
62.784914210843603
 20
52.237998988481948
 30
0.0
  0
VERTEX
  5
174B
  8
SAPA_PROFIL
 10
64.288015291605603
 20
52.237915380598288
 30
0.0
  0
VERTEX
  5
174C
  8
SAPA_PROFIL
 10
64.302533700852706
 20
52.190069630599808
 30
0.0
 42
0.4142135623730944
  0
VERTEX
  5
174D
  8
SAPA_PROFIL
 10
64.676718656328504
 20
51.990105586092412
 30
0.0
  0
VERTEX
  5
174E
  8
SAPA_PROFIL
 10
65.995951658089922
 20
52.500000004655902
 30
0.0
  0
VERTEX
  5
174F
  8
SAPA_PROFIL
 10
85.73147839558743
 20
52.500000004655973
 30
0.0
 42
0.38217120901707
  0
VERTEX
  5
1750
  8
SAPA_PROFIL
 10
86.029644590689344
 20
52.766880220561703
 30
0.0
  0
VERTEX
  5
1751
  8
SAPA_PROFIL
 10
86.555484125654345
 20
59.344851004655922
 30
0.0
 42
0.4469990000000265
  0
VERTEX
  5
1752
  8
SAPA_PROFIL
 10
86.058540125654275
 20
59.900051004656049
 30
0.0
  0
VERTEX
  5
1753
  8
SAPA_PROFIL
 10
84.299999998931298
 20
59.900051004655943
 30
0.0
 42
-0.4142139999999868
  0
VERTEX
  5
1754
  8
SAPA_PROFIL
 10
83.299999998931327
 20
60.900051004655879
 30
0.0
  0
VERTEX
  5
1755
  8
SAPA_PROFIL
 10
83.299999998931284
 20
61.167595004655972
 30
0.0
 42
-0.2896899999999956
  0
VERTEX
  5
1756
  8
SAPA_PROFIL
 10
83.871427998931352
 20
62.071103004655967
 30
0.0
 42
-0.5507599999999603
  0
VERTEX
  5
1757
  8
SAPA_PROFIL
 10
84.299999998931298
 20
61.800051004655913
 30
0.0
  0
VERTEX
  5
1758
  8
SAPA_PROFIL
 10
84.299999998931298
 20
61.500051004655958
 30
0.0
 42
0.4142140000001095
  0
VERTEX
  5
1759
  8
SAPA_PROFIL
 10
84.499999998931344
 20
61.300051004655877
 30
0.0
  0
VERTEX
  5
175A
  8
SAPA_PROFIL
 10
85.59999999893131
 20
61.300051004655941
 30
0.0
 42
0.4142139999999826
  0
VERTEX
  5
175B
  8
SAPA_PROFIL
 10
86.599999998931253
 20
62.300051004655913
 30
0.0
  0
VERTEX
  5
175C
  8
SAPA_PROFIL
 10
86.599999998931295
 20
64.600000004655996
 30
0.0
 42
0.4142139999999877
  0
VERTEX
  5
175D
  8
SAPA_PROFIL
 10
85.599999998931338
 20
65.600000004655953
 30
0.0
  0
VERTEX
  5
175E
  8
SAPA_PROFIL
 10
84.499999998931287
 20
65.600000004655996
 30
0.0
 42
0.4142139999999481
  0
VERTEX
  5
175F
  8
SAPA_PROFIL
 10
84.299999998931327
 20
65.400000004655894
 30
0.0
  0
VERTEX
  5
1760
  8
SAPA_PROFIL
 10
84.299999998931298
 20
65.100051004655981
 30
0.0
 42
-0.5507600000000124
  0
VERTEX
  5
1761
  8
SAPA_PROFIL
 10
83.871427998931296
 20
64.828998004655929
 30
0.0
 42
-0.2896899999999978
  0
VERTEX
  5
1762
  8
SAPA_PROFIL
 10
83.29999999893127
 20
65.73250600465586
 30
0.0
  0
VERTEX
  5
1763
  8
SAPA_PROFIL
 10
83.299999998931298
 20
66.000000004655973
 30
0.0
 42
-0.4142140000000002
  0
VERTEX
  5
1764
  8
SAPA_PROFIL
 10
84.299999998931327
 20
67.000000004655973
 30
0.0
  0
VERTEX
  5
1765
  8
SAPA_PROFIL
 10
85.999999998931287
 20
67.000000004656002
 30
0.0
 42
-0.4142139999999887
  0
VERTEX
  5
1766
  8
SAPA_PROFIL
 10
87.999999998931344
 20
65.000000004655945
 30
0.0
  0
VERTEX
  5
1767
  8
SAPA_PROFIL
 10
87.999999998931287
 20
0.2000000046560153
 30
0.0
 42
-0.4142135623730847
  0
VERTEX
  5
1768
  8
SAPA_PROFIL
 10
87.799999998931298
 20
0.0000000046560125
 30
0.0
  0
VERTEX
  5
1769
  8
SAPA_PROFIL
 10
85.111382998931333
 20
0.0000000046560267
 30
0.0
 42
-0.2596810000000924
  0
VERTEX
  5
176A
  8
SAPA_PROFIL
 10
84.94135199893131
 20
0.0946930046560333
 30
0.0
  0
VERTEX
  5
176B
  8
SAPA_PROFIL
 10
84.044952998931294
 20
1.542040004655955
 30
0.0
 42
-0.5877030000000333
  0
VERTEX
  5
176C
  8
SAPA_PROFIL
 10
84.299999998931355
 20
2.00000000465604
 30
0.0
  0
VERTEX
  5
176D
  8
SAPA_PROFIL
 10
85.699999998931318
 20
2.0000000046560258
 30
0.0
 42
0.4142139999999517
  0
VERTEX
  5
176E
  8
SAPA_PROFIL
 10
85.999999998931315
 20
2.3000000046559519
 30
0.0
  0
VERTEX
  5
176F
  8
SAPA_PROFIL
 10
85.999999998931258
 20
4.7000000046559576
 30
0.0
 42
0.4142140000000525
  0
VERTEX
  5
1770
  8
SAPA_PROFIL
 10
85.699999998931318
 20
5.0000000046559689
 30
0.0
  0
VERTEX
  5
1771
  8
SAPA_PROFIL
 10
68.299999998931355
 20
5.0000000046560258
 30
0.0
 42
0.4142140000001183
  0
VERTEX
  5
1772
  8
SAPA_PROFIL
 10
67.999999998931173
 20
4.70000000465593
 30
0.0
  0
VERTEX
  5
1773
  8
SAPA_PROFIL
 10
67.999999998931273
 20
2.3000000046559239
 30
0.0
 42
0.4142140000000144
  0
VERTEX
  5
1774
  8
SAPA_PROFIL
 10
68.299999998931298
 20
2.0000000046560831
 30
0.0
  0
VERTEX
  5
1775
  8
SAPA_PROFIL
 10
69.699999998931332
 20
2.0000000046560258
 30
0.0
 42
-0.5920054160710128
  0
VERTEX
  5
1776
  8
SAPA_PROFIL
 10
69.953008511689063
 20
1.538796666541127
 30
0.0
  0
VERTEX
  5
1777
  8
SAPA_PROFIL
 10
69.158955481867451
 20
0.292531010328144
 30
0.0
 42
-0.2562769852931535
  0
VERTEX
  5
1778
  8
SAPA_PROFIL
 10
68.990282972968828
 20
0.2000000046560437
 30
0.0
  0
VERTEX
  5
1779
  8
SAPA_PROFIL
 10
65.995951658090448
 20
0.2000000046560295
 30
0.0
  0
VERTEX
  5
177A
  8
SAPA_PROFIL
 10
64.676718656328546
 20
0.7098944232197049
 30
0.0
 42
0.4142135623730948
  0
VERTEX
  5
177B
  8
SAPA_PROFIL
 10
64.302533700852734
 20
0.5099303787123084
 30
0.0
  0
VERTEX
  5
177C
  8
SAPA_PROFIL
 10
64.288015291605632
 20
0.4620846287138214
 30
0.0
  0
VERTEX
  5
177D
  8
SAPA_PROFIL
 10
62.78491421084361
 20
0.4620010208301828
 30
0.0
 42
-0.4769755326981646
  0
VERTEX
  5
177E
  8
SAPA_PROFIL
 10
62.482661386337149
 20
0.8336578957760387
 30
0.0
  0
VERTEX
  5
177F
  8
SAPA_PROFIL
 10
62.86410798246488
 20
2.6468883664342928
 30
0.0
 42
-0.2216946626430189
  0
VERTEX
  5
1780
  8
SAPA_PROFIL
 10
63.269916887619672
 20
3.1877681979110788
 30
0.0
  0
VERTEX
  5
1781
  8
SAPA_PROFIL
 10
63.554599170851311
 20
3.3399021090198562
 30
0.0
 42
-0.5773502691897443
  0
VERTEX
  5
1782
  8
SAPA_PROFIL
 10
63.848755471106116
 20
3.1569483689096631
 30
0.0
  0
VERTEX
  5
1783
  8
SAPA_PROFIL
 10
63.838194104879157
 20
2.835190640691418
 30
0.0
  0
VERTEX
  5
1784
  8
SAPA_PROFIL
 10
65.72403779674022
 20
1.7506261937196781
 30
0.0
  0
VERTEX
  5
1785
  8
SAPA_PROFIL
 10
65.915420796733926
 20
1.6925525567305999
 30
0.0
 42
0.7625858545243274
  0
VERTEX
  5
1786
  8
SAPA_PROFIL
 10
66.099999998931438
 20
2.022878637747592
 30
0.0
 42
-0.2134217652834391
  0
VERTEX
  5
1787
  8
SAPA_PROFIL
 10
65.999999998931315
 20
2.2464854354977142
 30
0.0
  0
VERTEX
  5
1788
  8
SAPA_PROFIL
 10
65.999999998931287
 20
6.099271839997737
 30
0.0
 42
0.4142135623729077
  0
VERTEX
  5
1789
  8
SAPA_PROFIL
 10
65.699999998931219
 20
6.3992718399976338
 30
0.0
  0
VERTEX
  5
178A
  8
SAPA_PROFIL
 10
65.399999998931037
 20
6.3992718399976907
 30
0.0
  0
VERTEX
  5
178B
  8
SAPA_PROFIL
 10
63.799999998931412
 20
5.475511409294409
 30
0.0
 42
-0.5773502691897674
  0
VERTEX
  5
178C
  8
SAPA_PROFIL
 10
63.49999999893128
 20
5.648716490051167
 30
0.0
  0
VERTEX
  5
178D
  8
SAPA_PROFIL
 10
63.49999999893128
 20
7.0343571361063191
 30
0.0
 42
-0.2679491924311062
  0
VERTEX
  5
178E
  8
SAPA_PROFIL
 10
63.999999998931102
 20
7.900382539890753
 30
0.0
  0
VERTEX
  5
178F
  8
SAPA_PROFIL
 10
65.749999998931344
 20
8.9107455109728271
 30
0.0
 42
0.267949192431108
  0
VERTEX
  5
1790
  8
SAPA_PROFIL
 10
65.999999998931287
 20
9.3437582128650352
 30
0.0
  0
VERTEX
  5
1791
  8
SAPA_PROFIL
 10
65.999999998931287
 20
43.356241796446888
 30
0.0
 42
0.2679491924311069
  0
VERTEX
  5
1792
  8
SAPA_PROFIL
 10
65.749999998931315
 20
43.789254498339098
 30
0.0
  0
VERTEX
  5
1793
  8
SAPA_PROFIL
 10
63.999999998931173
 20
44.799617469421193
 30
0.0
 42
-0.2679491924311082
  0
VERTEX
  5
1794
  8
SAPA_PROFIL
 10
63.499999998931287
 20
45.665642873205613
 30
0.0
  0
VERTEX
  5
1795
  8
SAPA_PROFIL
 10
63.49999999893128
 20
47.0512835192607
 30
0.0
 42
-0.5773502691897738
  0
VERTEX
  5
1796
  8
SAPA_PROFIL
 10
63.799999998931362
 20
47.224488600017487
 30
0.0
  0
VERTEX
  5
1797
  8
SAPA_PROFIL
 10
65.399999998931037
 20
46.30072816931424
 30
0.0
  0
VERTEX
  5
1798
  8
SAPA_PROFIL
 10
65.699999998931219
 20
46.30072816931424
 30
0.0
 42
0.4142135623729009
  0
VERTEX
  5
1799
  8
SAPA_PROFIL
 10
65.999999998931344
 20
46.600728169314102
 30
0.0
  0
SEQEND
  5
179A
  8
SAPA_PROFIL
  0
POLYLINE
  5
1003
  8
SAPA_PROFIL
 66
     1
 10
0.0
 20
0.0
 30
0.0
 70
     1
  0
VERTEX
  5
179B
  8
SAPA_PROFIL
 10
68.09999999893131
 20
48.800000004656013
 30
0.0
 42
-0.4142135623730951
  0
VERTEX
  5
179C
  8
SAPA_PROFIL
 10
68.299999998931355
 20
48.600000004656003
 30
0.0
  0
VERTEX
  5
179D
  8
SAPA_PROFIL
 10
68.299999998931298
 20
47.000000004655973
 30
0.0
 42
-0.4142135623730951
  0
VERTEX
  5
179E
  8
SAPA_PROFIL
 10
68.09999999893131
 20
46.800000004655921
 30
0.0
  0
VERTEX
  5
179F
  8
SAPA_PROFIL
 10
67.799999915057981
 20
46.800000004655921
 30
0.0
  0
VERTEX
  5
17A0
  8
SAPA_PROFIL
 10
67.799999915057981
 20
10.70000000465596
 30
0.0
  0
VERTEX
  5
17A1
  8
SAPA_PROFIL
 10
68.09999999893131
 20
10.70000000465598
 30
0.0
 42
-0.4142135623730951
  0
VERTEX
  5
17A2
  8
SAPA_PROFIL
 10
68.299999998931355
 20
10.50000000465597
 30
0.0
  0
VERTEX
  5
17A3
  8
SAPA_PROFIL
 10
68.299999998931298
 20
8.9000000046559471
 30
0.0
 42
-0.4142135623730951
  0
VERTEX
  5
17A4
  8
SAPA_PROFIL
 10
68.09999999893131
 20
8.7000000046559585
 30
0.0
  0
VERTEX
  5
17A5
  8
SAPA_PROFIL
 10
67.799999915057981
 20
8.7000000046559585
 30
0.0
  0
VERTEX
  5
17A6
  8
SAPA_PROFIL
 10
67.799999915058024
 20
7.0000000046559689
 30
0.0
 42
0.4142135623730951
  0
VERTEX
  5
17A7
  8
SAPA_PROFIL
 10
68.099999915057992
 20
6.7000000046559576
 30
0.0
  0
VERTEX
  5
17A8
  8
SAPA_PROFIL
 10
85.699999998931318
 20
6.700000004655986
 30
0.0
 42
0.414213562373095
  0
VERTEX
  5
17A9
  8
SAPA_PROFIL
 10
85.999999998931287
 20
7.0000000046559689
 30
0.0
  0
VERTEX
  5
17AA
  8
SAPA_PROFIL
 10
85.999999998931287
 20
8.7000000046559585
 30
0.0
  0
VERTEX
  5
17AB
  8
SAPA_PROFIL
 10
85.899999998931264
 20
8.7000000046559585
 30
0.0
 42
-0.4142135623730951
  0
VERTEX
  5
17AC
  8
SAPA_PROFIL
 10
85.699999998931318
 20
8.9000000046559471
 30
0.0
  0
VERTEX
  5
17AD
  8
SAPA_PROFIL
 10
85.699999998931276
 20
10.50000000465597
 30
0.0
 42
-0.4142135623730951
  0
VERTEX
  5
17AE
  8
SAPA_PROFIL
 10
85.899999998931264
 20
10.70000000465596
 30
0.0
  0
VERTEX
  5
17AF
  8
SAPA_PROFIL
 10
85.999999998931287
 20
10.70000000465596
 30
0.0
  0
VERTEX
  5
17B0
  8
SAPA_PROFIL
 10
85.999999998931287
 20
46.800000004655921
 30
0.0
  0
VERTEX
  5
17B1
  8
SAPA_PROFIL
 10
85.899999998931264
 20
46.800000004655978
 30
0.0
 42
-0.4142135623730951
  0
VERTEX
  5
17B2
  8
SAPA_PROFIL
 10
85.699999998931318
 20
47.000000004655973
 30
0.0
  0
VERTEX
  5
17B3
  8
SAPA_PROFIL
 10
85.699999998931276
 20
48.600000004656003
 30
0.0
 42
-0.4142135623730898
  0
VERTEX
  5
17B4
  8
SAPA_PROFIL
 10
85.899999998931264
 20
48.800000004655921
 30
0.0
  0
VERTEX
  5
17B5
  8
SAPA_PROFIL
 10
85.999999998931287
 20
48.800000004655921
 30
0.0
  0
VERTEX
  5
17B6
  8
SAPA_PROFIL
 10
85.999999998931344
 20
50.50000000465598
 30
0.0
 42
0.4142135623730953
  0
VERTEX
  5
17B7
  8
SAPA_PROFIL
 10
85.699999998931318
 20
50.800000004655921
 30
0.0
  0
VERTEX
  5
17B8
  8
SAPA_PROFIL
 10
68.099999915057992
 20
50.800000004655992
 30
0.0
 42
0.4142135623730951
  0
VERTEX
  5
17B9
  8
SAPA_PROFIL
 10
67.799999915057981
 20
50.50000000465598
 30
0.0
  0
VERTEX
  5
17BA
  8
SAPA_PROFIL
 10
67.799999915057981
 20
48.800000004655921
 30
0.0
  0
SEQEND
  5
17BB
  8
SAPA_PROFIL
  0
POLYLINE
  5
1004
  8
SAPA_PROFIL
 66
     1
 10
0.0
 20
0.0
 30
0.0
 70
     1
  0
VERTEX
  5
17BC
  8
SAPA_PROFIL
 10
35.999999998931067
 20
2.2464854354977239
 30
0.0
  0
VERTEX
  5
17BD
  8
SAPA_PROFIL
 10
35.999999998931067
 20
6.0992718399977761
 30
0.0
 42
-0.414213562372901
  0
VERTEX
  5
17BE
  8
SAPA_PROFIL
 10
36.299999998931142
 20
6.3992718399976454
 30
0.0
  0
VERTEX
  5
17BF
  8
SAPA_PROFIL
 10
36.599999998931331
 20
6.3992718399977022
 30
0.0
  0
VERTEX
  5
17C0
  8
SAPA_PROFIL
 10
38.199999998930991
 20
5.4755114092944188
 30
0.0
 42
0.5773502691897976
  0
VERTEX
  5
17C1
  8
SAPA_PROFIL
 10
38.499999998931067
 20
5.6487164900511777
 30
0.0
  0
VERTEX
  5
17C2
  8
SAPA_PROFIL
 10
38.499999998931067
 20
7.0343571361063288
 30
0.0
 42
0.2679491924311222
  0
VERTEX
  5
17C3
  8
SAPA_PROFIL
 10
37.999999998931223
 20
7.9003825398907486
 30
0.0
  0
VERTEX
  5
17C4
  8
SAPA_PROFIL
 10
36.249999998931052
 20
8.9107455109728377
 30
0.0
 42
-0.2679491924310994
  0
VERTEX
  5
17C5
  8
SAPA_PROFIL
 10
35.999999998931052
 20
9.3437582128650476
 30
0.0
  0
VERTEX
  5
17C6
  8
SAPA_PROFIL
 10
35.99999999893106
 20
43.35624179644693
 30
0.0
 42
-0.2679491924311005
  0
VERTEX
  5
17C7
  8
SAPA_PROFIL
 10
36.249999998931031
 20
43.78925449833914
 30
0.0
  0
VERTEX
  5
17C8
  8
SAPA_PROFIL
 10
37.99999999893123
 20
44.7996174694212
 30
0.0
 42
0.2679491924311199
  0
VERTEX
  5
17C9
  8
SAPA_PROFIL
 10
38.49999999893106
 20
45.665642873205663
 30
0.0
  0
VERTEX
  5
17CA
  8
SAPA_PROFIL
 10
38.499999998931067
 20
47.051283519260771
 30
0.0
 42
0.5773502691897738
  0
VERTEX
  5
17CB
  8
SAPA_PROFIL
 10
38.199999998930991
 20
47.224488600017558
 30
0.0
  0
VERTEX
  5
17CC
  8
SAPA_PROFIL
 10
36.59999999893131
 20
46.300728169314247
 30
0.0
  0
VERTEX
  5
17CD
  8
SAPA_PROFIL
 10
36.299999998931128
 20
46.300728169314247
 30
0.0
 42
-0.414213562372901
  0
VERTEX
  5
17CE
  8
SAPA_PROFIL
 10
35.999999998931003
 20
46.600728169314181
 30
0.0
  0
VERTEX
  5
17CF
  8
SAPA_PROFIL
 10
35.99999999893106
 20
50.45351457381426
 30
0.0
 42
0.2134217652834299
  0
VERTEX
  5
17D0
  8
SAPA_PROFIL
 10
35.899999998930937
 20
50.677121371564333
 30
0.0
 42
-0.7625858545243327
  0
VERTEX
  5
17D1
  8
SAPA_PROFIL
 10
36.084579201128413
 20
51.007447452581367
 30
0.0
  0
VERTEX
  5
17D2
  8
SAPA_PROFIL
 10
36.275962201122127
 20
50.949373815592281
 30
0.0
  0
VERTEX
  5
17D3
  8
SAPA_PROFIL
 10
38.161805892983182
 20
49.864809368620541
 30
0.0
  0
VERTEX
  5
17D4
  8
SAPA_PROFIL
 10
38.151244526756201
 20
49.543051640402268
 30
0.0
 42
0.5773502691897466
  0
VERTEX
  5
17D5
  8
SAPA_PROFIL
 10
38.445400827011042
 20
49.360097900292118
 30
0.0
  0
VERTEX
  5
17D6
  8
SAPA_PROFIL
 10
38.730083110242688
 20
49.512231811400852
 30
0.0
 42
0.221694662643014
  0
VERTEX
  5
17D7
  8
SAPA_PROFIL
 10
39.135892015397481
 20
50.053111642877667
 30
0.0
  0
VERTEX
  5
17D8
  8
SAPA_PROFIL
 10
39.51733861152519
 20
51.866342113535893
 30
0.0
 42
0.4769755326981641
  0
VERTEX
  5
17D9
  8
SAPA_PROFIL
 10
39.215085787018722
 20
52.237998988481792
 30
0.0
  0
VERTEX
  5
17DA
  8
SAPA_PROFIL
 10
37.711984706256722
 20
52.237915380598132
 30
0.0
  0
VERTEX
  5
17DB
  8
SAPA_PROFIL
 10
37.697466297009612
 20
52.190069630599652
 30
0.0
 42
-0.4142135623730878
  0
VERTEX
  5
17DC
  8
SAPA_PROFIL
 10
37.3232813415338
 20
51.990105586092248
 30
0.0
  0
VERTEX
  5
17DD
  8
SAPA_PROFIL
 10
36.004048339771991
 20
52.500000004655931
 30
0.0
  0
VERTEX
  5
17DE
  8
SAPA_PROFIL
 10
24.600000082778621
 20
52.500000004655959
 30
0.0
 42
-0.4142135623730847
  0
VERTEX
  5
17DF
  8
SAPA_PROFIL
 10
24.400000082778622
 20
52.700000004655969
 30
0.0
  0
VERTEX
  5
17E0
  8
SAPA_PROFIL
 10
24.400000082778629
 20
54.30000000258655
 30
0.0
 42
0.4142135623730951
  0
VERTEX
  5
17E1
  8
SAPA_PROFIL
 10
24.200000082778619
 20
54.50000000258656
 30
0.0
  0
VERTEX
  5
17E2
  8
SAPA_PROFIL
 10
23.700000082778129
 20
54.50000000258656
 30
0.0
 42
0.4142135623730951
  0
VERTEX
  5
17E3
  8
SAPA_PROFIL
 10
22.700000082778558
 20
53.50000000258693
 30
0.0
  0
VERTEX
  5
17E4
  8
SAPA_PROFIL
 10
22.700000082778558
 20
45.999999255512222
 30
0.0
 42
-0.4142135623730951
  0
VERTEX
  5
17E5
  8
SAPA_PROFIL
 10
21.700000829852971
 20
45.000000002586631
 30
0.0
  0
VERTEX
  5
17E6
  8
SAPA_PROFIL
 10
15.99999999893106
 20
45.000000002586489
 30
0.0
 42
0.4142135623730951
  0
VERTEX
  5
17E7
  8
SAPA_PROFIL
 10
13.99999999893106
 20
43.000000002586482
 30
0.0
  0
VERTEX
  5
17E8
  8
SAPA_PROFIL
 10
13.999999998931081
 20
-21.49999999534398
 30
0.0
 42
0.4142139999999795
  0
VERTEX
  5
17E9
  8
SAPA_PROFIL
 10
14.499999998931081
 20
-21.99999999534398
 30
0.0
  0
VERTEX
  5
17EA
  8
SAPA_PROFIL
 10
18.199999998931091
 20
-21.999999995343959
 30
0.0
 42
0.414213999999917
  0
VERTEX
  5
17EB
  8
SAPA_PROFIL
 10
18.499999998931081
 20
-21.69999999534404
 30
0.0
  0
VERTEX
  5
17EC
  8
SAPA_PROFIL
 10
18.499999998931081
 20
-20.932454995343999
 30
0.0
 42
0.2896899999999867
  0
VERTEX
  5
17ED
  8
SAPA_PROFIL
 10
17.92857199893108
 20
-20.02894699534404
 30
0.0
 42
0.5507600000000635
  0
VERTEX
  5
17EE
  8
SAPA_PROFIL
 10
17.49999999893107
 20
-20.299999995343988
 30
0.0
  0
VERTEX
  5
17EF
  8
SAPA_PROFIL
 10
17.49999999893107
 20
-20.49999999534398
 30
0.0
 42
-0.4142140000000558
  0
VERTEX
  5
17F0
  8
SAPA_PROFIL
 10
17.199999998931109
 20
-20.799999995344042
 30
0.0
  0
VERTEX
  5
17F1
  8
SAPA_PROFIL
 10
15.699999998931091
 20
-20.799999995343999
 30
0.0
 42
-0.4142139999999795
  0
VERTEX
  5
17F2
  8
SAPA_PROFIL
 10
15.19999999893111
 20
-20.299999995343988
 30
0.0
  0
VERTEX
  5
17F3
  8
SAPA_PROFIL
 10
15.199999998931091
 20
-16.999999995343948
 30
0.0
 42
-0.4142140000000003
  0
VERTEX
  5
17F4
  8
SAPA_PROFIL
 10
15.699999998931091
 20
-16.499999995343909
 30
0.0
  0
VERTEX
  5
17F5
  8
SAPA_PROFIL
 10
17.199999998931091
 20
-16.499999995343948
 30
0.0
 42
-0.4142140000000143
  0
VERTEX
  5
17F6
  8
SAPA_PROFIL
 10
17.49999999893112
 20
-16.79999999534402
 30
0.0
  0
VERTEX
  5
17F7
  8
SAPA_PROFIL
 10
17.49999999893107
 20
-16.999999995343948
 30
0.0
 42
0.5507599999999967
  0
VERTEX
  5
17F8
  8
SAPA_PROFIL
 10
17.928571998931091
 20
-17.271051995343949
 30
0.0
 42
0.2896899999999865
  0
VERTEX
  5
17F9
  8
SAPA_PROFIL
 10
18.499999998931081
 20
-16.367543995344029
 30
0.0
  0
VERTEX
  5
17FA
  8
SAPA_PROFIL
 10
18.499999998931081
 20
-15.37007299534404
 30
0.0
 42
0.0436609999999814
  0
VERTEX
  5
17FB
  8
SAPA_PROFIL
 10
18.492403998931071
 20
-15.283247995344061
 30
0.0
  0
VERTEX
  5
17FC
  8
SAPA_PROFIL
 10
18.215557998931121
 20
-13.71317599534404
 30
0.0
 42
0.839099999999982
  0
VERTEX
  5
17FD
  8
SAPA_PROFIL
 10
17.23074999893106
 20
-13.71317599534404
 30
0.0
  0
VERTEX
  5
17FE
  8
SAPA_PROFIL
 10
17.023804998931091
 20
-14.88682399534404
 30
0.0
 42
-0.3639700000000465
  0
VERTEX
  5
17FF
  8
SAPA_PROFIL
 10
16.531400998931051
 20
-15.299999995344031
 30
0.0
  0
VERTEX
  5
1800
  8
SAPA_PROFIL
 10
15.719999998931099
 20
-15.299999995344031
 30
0.0
 42
-0.4373279999999983
  0
VERTEX
  5
1801
  8
SAPA_PROFIL
 10
15.221530998931041
 20
-14.760904995344029
 30
0.0
  0
VERTEX
  5
1802
  8
SAPA_PROFIL
 10
15.788329485326919
 20
-0.2878467219276359
 30
0.0
 42
-0.4023941355297885
  0
VERTEX
  5
1803
  8
SAPA_PROFIL
 10
16.088083214153261
 20
0.0000000046560871
 30
0.0
  0
VERTEX
  5
1804
  8
SAPA_PROFIL
 10
16.888616998931081
 20
0.0000000046560586
 30
0.0
 42
0.2596810000001162
  0
VERTEX
  5
1805
  8
SAPA_PROFIL
 10
17.058647998931079
 20
0.0946930046560652
 30
0.0
  0
VERTEX
  5
1806
  8
SAPA_PROFIL
 10
17.955046998931081
 20
1.542040004655959
 30
0.0
 42
0.5877030000000189
  0
VERTEX
  5
1807
  8
SAPA_PROFIL
 10
17.699999998931059
 20
2.0000000046560582
 30
0.0
  0
VERTEX
  5
1808
  8
SAPA_PROFIL
 10
16.299999998931082
 20
2.0000000046560582
 30
0.0
 42
-0.4142139999999518
  0
VERTEX
  5
1809
  8
SAPA_PROFIL
 10
15.9999999989311
 20
2.3000000046559559
 30
0.0
  0
VERTEX
  5
180A
  8
SAPA_PROFIL
 10
15.99999999893107
 20
4.700000004655962
 30
0.0
 42
-0.4142140000000629
  0
VERTEX
  5
180B
  8
SAPA_PROFIL
 10
16.299999998931082
 20
5.0000000046560009
 30
0.0
  0
VERTEX
  5
180C
  8
SAPA_PROFIL
 10
33.699999998931062
 20
5.0000000046560373
 30
0.0
 42
-0.4142140000001044
  0
VERTEX
  5
180D
  8
SAPA_PROFIL
 10
33.999999998931159
 20
4.7000000046559691
 30
0.0
  0
VERTEX
  5
180E
  8
SAPA_PROFIL
 10
33.999999998931081
 20
2.300000004655963
 30
0.0
 42
-0.4142140000000074
  0
VERTEX
  5
180F
  8
SAPA_PROFIL
 10
33.699999998931062
 20
2.0000000046560942
 30
0.0
  0
VERTEX
  5
1810
  8
SAPA_PROFIL
 10
32.299999998931092
 20
2.0000000046560942
 30
0.0
 42
0.5920054160709848
  0
VERTEX
  5
1811
  8
SAPA_PROFIL
 10
32.046991486173333
 20
1.5387966665411379
 30
0.0
  0
VERTEX
  5
1812
  8
SAPA_PROFIL
 10
32.841044515995002
 20
0.2925310103281831
 30
0.0
 42
0.2562769852931301
  0
VERTEX
  5
1813
  8
SAPA_PROFIL
 10
33.00971702489359
 20
0.2000000046560544
 30
0.0
  0
VERTEX
  5
1814
  8
SAPA_PROFIL
 10
36.004048339772602
 20
0.2000000046560544
 30
0.0
  0
VERTEX
  5
1815
  8
SAPA_PROFIL
 10
37.323281341533821
 20
0.7098944232194741
 30
0.0
 42
-0.4142135623730872
  0
VERTEX
  5
1816
  8
SAPA_PROFIL
 10
37.697466297009633
 20
0.5099303787120775
 30
0.0
  0
VERTEX
  5
1817
  8
SAPA_PROFIL
 10
37.711984706256729
 20
0.4620846287135905
 30
0.0
  0
VERTEX
  5
1818
  8
SAPA_PROFIL
 10
39.215085787018737
 20
0.4620010208299661
 30
0.0
 42
0.4769755326981643
  0
VERTEX
  5
1819
  8
SAPA_PROFIL
 10
39.517338611525211
 20
0.8336578957758078
 30
0.0
  0
VERTEX
  5
181A
  8
SAPA_PROFIL
 10
39.135892015397502
 20
2.6468883664340899
 30
0.0
 42
0.221694662643016
  0
VERTEX
  5
181B
  8
SAPA_PROFIL
 10
38.730083110242688
 20
3.1877681979108479
 30
0.0
  0
VERTEX
  5
181C
  8
SAPA_PROFIL
 10
38.445400827011042
 20
3.339902109019611
 30
0.0
 42
0.5773502691897466
  0
VERTEX
  5
181D
  8
SAPA_PROFIL
 10
38.15124452675623
 20
3.1569483689094322
 30
0.0
  0
VERTEX
  5
181E
  8
SAPA_PROFIL
 10
38.161805892983189
 20
2.8351906406911871
 30
0.0
  0
VERTEX
  5
181F
  8
SAPA_PROFIL
 10
36.275962201122141
 20
1.7506261937194481
 30
0.0
  0
VERTEX
  5
1820
  8
SAPA_PROFIL
 10
36.08457920112842
 20
1.692552556730355
 30
0.0
 42
-0.7625858545243331
  0
VERTEX
  5
1821
  8
SAPA_PROFIL
 10
35.899999998930952
 20
2.0228786377473611
 30
0.0
 42
0.2134217652834442
  0
SEQEND
  5
1822
  8
SAPA_PROFIL
  0
POLYLINE
  5
1005
  8
SAPA_PROFIL
 66
     1
 10
0.0
 20
0.0
 30
0.0
 70
     1
  0
VERTEX
  5
1823
  8
SAPA_PROFIL
 10
33.899999998931058
 20
40.999999962586543
 30
0.0
 42
0.4142135623730951
  0
VERTEX
  5
1824
  8
SAPA_PROFIL
 10
33.699999998931048
 20
40.799999962586519
 30
0.0
  0
VERTEX
  5
1825
  8
SAPA_PROFIL
 10
33.699999998931077
 20
39.199999962586482
 30
0.0
 42
0.4142135623730951
  0
VERTEX
  5
1826
  8
SAPA_PROFIL
 10
33.899999998931058
 20
38.999999962586493
 30
0.0
  0
VERTEX
  5
1827
  8
SAPA_PROFIL
 10
34.200000082804372
 20
38.999999962586493
 30
0.0
  0
VERTEX
  5
1828
  8
SAPA_PROFIL
 10
34.20000008280438
 20
10.700000004655969
 30
0.0
  0
VERTEX
  5
1829
  8
SAPA_PROFIL
 10
33.899999998931079
 20
10.700000004655969
 30
0.0
 42
0.4142135623730951
  0
VERTEX
  5
182A
  8
SAPA_PROFIL
 10
33.699999998931062
 20
10.50000000465598
 30
0.0
  0
VERTEX
  5
182B
  8
SAPA_PROFIL
 10
33.699999998931091
 20
8.9000000046559578
 30
0.0
 42
0.4142135623730951
  0
VERTEX
  5
182C
  8
SAPA_PROFIL
 10
33.899999998931079
 20
8.7000000046559691
 30
0.0
  0
VERTEX
  5
182D
  8
SAPA_PROFIL
 10
34.20000008280438
 20
8.7000000046559691
 30
0.0
  0
VERTEX
  5
182E
  8
SAPA_PROFIL
 10
34.20000008280438
 20
7.0000000046559796
 30
0.0
 42
-0.4142135623730951
  0
VERTEX
  5
182F
  8
SAPA_PROFIL
 10
33.900000082804432
 20
6.7000000046559691
 30
0.0
  0
VERTEX
  5
1830
  8
SAPA_PROFIL
 10
16.299999998931082
 20
6.700000004655962
 30
0.0
 42
-0.4142135623730951
  0
VERTEX
  5
1831
  8
SAPA_PROFIL
 10
15.99999999893107
 20
7.0000000046559734
 30
0.0
  0
VERTEX
  5
1832
  8
SAPA_PROFIL
 10
15.99999999893107
 20
8.700000004655962
 30
0.0
  0
VERTEX
  5
1833
  8
SAPA_PROFIL
 10
16.099999998931089
 20
8.700000004655962
 30
0.0
 42
0.4142135623730951
  0
VERTEX
  5
1834
  8
SAPA_PROFIL
 10
16.299999998931082
 20
8.9000000046559506
 30
0.0
  0
VERTEX
  5
1835
  8
SAPA_PROFIL
 10
16.299999998931082
 20
10.50000000465597
 30
0.0
 42
0.4142135623730951
  0
VERTEX
  5
1836
  8
SAPA_PROFIL
 10
16.099999998931089
 20
10.70000000465596
 30
0.0
  0
VERTEX
  5
1837
  8
SAPA_PROFIL
 10
15.99999999893107
 20
10.70000000465596
 30
0.0
  0
VERTEX
  5
1838
  8
SAPA_PROFIL
 10
15.99999999893106
 20
38.999999962586493
 30
0.0
  0
VERTEX
  5
1839
  8
SAPA_PROFIL
 10
16.099999998931089
 20
38.999999962586493
 30
0.0
 42
0.4142135623730951
  0
VERTEX
  5
183A
  8
SAPA_PROFIL
 10
16.299999998931082
 20
39.199999962586482
 30
0.0
  0
VERTEX
  5
183B
  8
SAPA_PROFIL
 10
16.29999999893106
 20
40.799999962586519
 30
0.0
 42
0.4142135623730951
  0
VERTEX
  5
183C
  8
SAPA_PROFIL
 10
16.099999998931079
 20
40.999999962586479
 30
0.0
  0
VERTEX
  5
183D
  8
SAPA_PROFIL
 10
15.99999999893106
 20
40.999999962586479
 30
0.0
  0
VERTEX
  5
183E
  8
SAPA_PROFIL
 10
15.99999999893106
 20
43.000000002586511
 30
0.0
 42
-0.4142135623732158
  0
VERTEX
  5
183F
  8
SAPA_PROFIL
 10
16.299999998931039
 20
43.300000002586607
 30
0.0
  0
VERTEX
  5
1840
  8
SAPA_PROFIL
 10
21.700000829852971
 20
43.300000002586557
 30
0.0
 42
0.4142135623730951
  0
VERTEX
  5
1841
  8
SAPA_PROFIL
 10
24.400000082778639
 20
45.999999255512222
 30
0.0
  0
VERTEX
  5
1842
  8
SAPA_PROFIL
 10
24.400000082778629
 20
50.50000000465598
 30
0.0
 42
-0.4142135623730951
  0
VERTEX
  5
1843
  8
SAPA_PROFIL
 10
24.700000082778619
 20
50.800000004655971
 30
0.0
  0
VERTEX
  5
1844
  8
SAPA_PROFIL
 10
33.900000082804411
 20
50.800000004655971
 30
0.0
 42
-0.4142135623730951
  0
VERTEX
  5
1845
  8
SAPA_PROFIL
 10
34.200000082804372
 20
50.500000004655959
 30
0.0
  0
VERTEX
  5
1846
  8
SAPA_PROFIL
 10
34.200000082804372
 20
40.999999962586479
 30
0.0
  0
SEQEND
  5
1847
  8
SAPA_PROFIL
  0
POLYLINE
  5
1006
  8
SAPA_PROFIL
 62
     4
 66
     1
 10
0.0
 20
0.0
 30
0.0
 70
     1
  0
VERTEX
  5
1848
  8
SAPA_PROFIL
 62
     4
 10
39.037778469483129
 20
3.1732428284989851
 30
0.0
 42
-0.3137019356282051
  0
VERTEX
  5
1849
  8
SAPA_PROFIL
 62
     4
 10
39.318728253029441
 20
2.975617202965565
 30
0.0
  0
VERTEX
  5
184A
  8
SAPA_PROFIL
 62
     4
 10
40.204205965900627
 20
0.5427871814215451
 30
0.0
 42
0.3152987888779321
  0
VERTEX
  5
184B
  8
SAPA_PROFIL
 62
     4
 10
40.580083014217017
 20
0.2795952387518242
 30
0.0
  0
VERTEX
  5
184C
  8
SAPA_PROFIL
 62
     4
 10
50.999999998931138
 20
0.279595238751855
 30
0.0
  0
VERTEX
  5
184D
  8
SAPA_PROFIL
 62
     4
 10
61.419916983649237
 20
0.2795952387519142
 30
0.0
 42
0.3152987888779395
  0
VERTEX
  5
184E
  8
SAPA_PROFIL
 62
     4
 10
61.795794031961613
 20
0.5427871814216352
 30
0.0
  0
VERTEX
  5
184F
  8
SAPA_PROFIL
 62
     4
 10
62.681271744829779
 20
2.975617202957328
 30
0.0
 42
-0.3138982169096283
  0
VERTEX
  5
1850
  8
SAPA_PROFIL
 62
     4
 10
62.962221528343967
 20
3.1732428284976821
 30
0.0
 42
-0.0157923906855865
  0
VERTEX
  5
1851
  8
SAPA_PROFIL
 62
     4
 10
63.313680060682827
 20
3.1766459581372781
 30
0.0
  0
VERTEX
  5
1852
  8
SAPA_PROFIL
 62
     4
 10
63.553863125465107
 20
3.3153157152438029
 30
0.0
 42
-0.5773502691889272
  0
VERTEX
  5
1853
  8
SAPA_PROFIL
 62
     4
 10
63.868863125464827
 20
3.1334503804490099
 30
0.0
  0
VERTEX
  5
1854
  8
SAPA_PROFIL
 62
     4
 10
63.868863125464941
 20
2.8663358522360962
 30
0.0
  0
VERTEX
  5
1855
  8
SAPA_PROFIL
 62
     4
 10
64.199999998931133
 20
2.6701137864517981
 30
0.0
  0
VERTEX
  5
1856
  8
SAPA_PROFIL
 62
     4
 10
65.183320136911647
 20
2.10246962295435
 30
0.0
 42
0.1316524975869703
  0
VERTEX
  5
1857
  8
SAPA_PROFIL
 62
     4
 10
65.288320136910471
 20
2.0743349577497892
 30
0.0
  0
VERTEX
  5
1858
  8
SAPA_PROFIL
 62
     4
 10
65.599999998933043
 20
2.074334957749675
 30
0.0
 42
0.4142135623775584
  0
VERTEX
  5
1859
  8
SAPA_PROFIL
 62
     4
 10
65.999999998931088
 20
2.4743349577499938
 30
0.0
  0
VERTEX
  5
185A
  8
SAPA_PROFIL
 62
     4
 10
65.999999998931145
 20
5.8743349577497437
 30
0.0
 42
0.4142135623773978
  0
VERTEX
  5
185B
  8
SAPA_PROFIL
 62
     4
 10
65.599999998931111
 20
6.2743349577497201
 30
0.0
  0
VERTEX
  5
185C
  8
SAPA_PROFIL
 62
     4
 10
65.288320136907444
 20
6.2743349577497201
 30
0.0
 42
0.1316524975869708
  0
VERTEX
  5
185D
  8
SAPA_PROFIL
 62
     4
 10
65.183320136910496
 20
6.2462002925444766
 30
0.0
  0
VERTEX
  5
185E
  8
SAPA_PROFIL
 62
     4
 10
64.199999998931133
 20
5.6784801461824417
 30
0.0
  0
VERTEX
  5
185F
  8
SAPA_PROFIL
 62
     4
 10
63.605255887260263
 20
5.3351044732103272
 30
0.0
 42
-0.1316524975869772
  0
VERTEX
  5
1860
  8
SAPA_PROFIL
 62
     4
 10
63.00525588725688
 20
5.174334957749811
 30
0.0
  0
VERTEX
  5
1861
  8
SAPA_PROFIL
 62
     4
 10
62.053391554370442
 20
5.1743349577500393
 30
0.0
 42
0.3152987888780149
  0
VERTEX
  5
1862
  8
SAPA_PROFIL
 62
     4
 10
61.113698933598961
 20
4.51635510107565
 30
0.0
  0
VERTEX
  5
1863
  8
SAPA_PROFIL
 62
     4
 10
60.322584908689088
 20
2.3427871814219579
 30
0.0
 42
-0.3152987888779391
  0
VERTEX
  5
1864
  8
SAPA_PROFIL
 62
     4
 10
59.946707860374573
 20
2.079595238751839
 30
0.0
  0
VERTEX
  5
1865
  8
SAPA_PROFIL
 62
     4
 10
50.999999998931138
 20
2.0795952387518382
 30
0.0
  0
VERTEX
  5
1866
  8
SAPA_PROFIL
 62
     4
 10
42.053292137487659
 20
2.0795952387517791
 30
0.0
 42
-0.3152987888779318
  0
VERTEX
  5
1867
  8
SAPA_PROFIL
 62
     4
 10
41.677415089174502
 20
2.3427871814182031
 30
0.0
  0
VERTEX
  5
1868
  8
SAPA_PROFIL
 62
     4
 10
40.886301064263392
 20
4.516355101075419
 30
0.0
 42
0.3152987888779361
  0
VERTEX
  5
1869
  8
SAPA_PROFIL
 62
     4
 10
39.9466084434628
 20
5.1743349577497488
 30
0.0
  0
VERTEX
  5
186A
  8
SAPA_PROFIL
 62
     4
 10
38.994744110605303
 20
5.1743349577497488
 30
0.0
 42
-0.1316524975869766
  0
VERTEX
  5
186B
  8
SAPA_PROFIL
 62
     4
 10
38.394744110612102
 20
5.335104473204467
 30
0.0
  0
VERTEX
  5
186C
  8
SAPA_PROFIL
 62
     4
 10
37.807179675903598
 20
5.6743349577496911
 30
0.0
  0
VERTEX
  5
186D
  8
SAPA_PROFIL
 62
     4
 10
36.816679860951673
 20
6.2462002925444136
 30
0.0
 42
0.1316524975869832
  0
VERTEX
  5
186E
  8
SAPA_PROFIL
 62
     4
 10
36.711679860948578
 20
6.274334957749657
 30
0.0
  0
VERTEX
  5
186F
  8
SAPA_PROFIL
 62
     4
 10
36.399999998931058
 20
6.2743349577497138
 30
0.0
 42
0.414213562371655
  0
VERTEX
  5
1870
  8
SAPA_PROFIL
 62
     4
 10
35.999999998931088
 20
5.8743349577457584
 30
0.0
  0
VERTEX
  5
1871
  8
SAPA_PROFIL
 62
     4
 10
35.999999998931088
 20
2.4743349577497029
 30
0.0
 42
0.4142135623716633
  0
VERTEX
  5
1872
  8
SAPA_PROFIL
 62
     4
 10
36.399999998933112
 20
2.0743349577497261
 30
0.0
  0
VERTEX
  5
1873
  8
SAPA_PROFIL
 62
     4
 10
36.711679860951762
 20
2.0743349577497261
 30
0.0
 42
0.1316524975869709
  0
VERTEX
  5
1874
  8
SAPA_PROFIL
 62
     4
 10
36.816679860952348
 20
2.1024696229553101
 30
0.0
  0
VERTEX
  5
1875
  8
SAPA_PROFIL
 62
     4
 10
38.131136872397349
 20
2.86633585223609
 30
0.0
  0
VERTEX
  5
1876
  8
SAPA_PROFIL
 62
     4
 10
38.131136872397462
 20
3.133450380449005
 30
0.0
 42
-0.5773502691889269
  0
VERTEX
  5
1877
  8
SAPA_PROFIL
 62
     4
 10
38.446136872397183
 20
3.3153157152437971
 30
0.0
  0
VERTEX
  5
1878
  8
SAPA_PROFIL
 62
     4
 10
38.686319937179469
 20
3.1766459581372741
 30
0.0
 42
-0.015792390685586
  0
SEQEND
  5
1879
  8
SAPA_PROFIL
 62
     4
  0
POLYLINE
  5
1007
  8
SAPA_PROFIL
 62
     4
 66
     1
 10
0.0
 20
0.0
 30
0.1
 70
     1
1001
RC_PROFILE
1002
{
1000
Contour
1002
}
  0
VERTEX
  5
187A
  8
SAPA_PROFIL
 62
     4
 10
63.543863125465343
 20
49.386140604755717
 30
0.1
 42
0.5773502691895099
  0
VERTEX
  5
187B
  8
SAPA_PROFIL
 62
     4
 10
63.858863125465049
 20
49.568005939550389
 30
0.1
  0
VERTEX
  5
187C
  8
SAPA_PROFIL
 62
     4
 10
63.858863125465049
 20
49.835120467763417
 30
0.1
  0
VERTEX
  5
187D
  8
SAPA_PROFIL
 62
     4
 10
65.239999998881601
 20
50.627121362231819
 30
0.1
  0
VERTEX
  5
187E
  8
SAPA_PROFIL
 62
     4
 10
65.599999998881955
 20
50.627121362240459
 30
0.1
 42
-0.4142135623731464
  0
VERTEX
  5
187F
  8
SAPA_PROFIL
 62
     4
 10
65.999999998891482
 20
50.227121362249797
 30
0.1
  0
VERTEX
  5
1880
  8
SAPA_PROFIL
 62
     4
 10
65.999999998971234
 20
46.827121362249827
 30
0.1
 42
-0.4142135623728774
  0
VERTEX
  5
1881
  8
SAPA_PROFIL
 62
     4
 10
65.599999998980977
 20
46.4271213622403
 30
0.1
  0
VERTEX
  5
1882
  8
SAPA_PROFIL
 62
     4
 10
65.239999998980679
 20
46.42712136223178
 30
0.1
  0
VERTEX
  5
1883
  8
SAPA_PROFIL
 62
     4
 10
63.599051702868039
 20
47.368109271145151
 30
0.1
 42
0.130905717258469
  0
VERTEX
  5
1884
  8
SAPA_PROFIL
 62
     4
 10
63.002105998954782
 20
47.52712136217928
 30
0.1
  0
VERTEX
  5
1885
  8
SAPA_PROFIL
 62
     4
 10
38.997930660675287
 20
47.527121361619258
 30
0.1
 42
0.1309134860018379
  0
VERTEX
  5
1886
  8
SAPA_PROFIL
 62
     4
 10
38.400948295077043
 20
47.368109271145151
 30
0.1
  0
VERTEX
  5
1887
  8
SAPA_PROFIL
 62
     4
 10
36.759999998964631
 20
46.42712136223178
 30
0.1
  0
VERTEX
  5
1888
  8
SAPA_PROFIL
 62
     4
 10
36.399999998964219
 20
46.4271213622403
 30
0.1
 42
-0.4142135623729619
  0
VERTEX
  5
1889
  8
SAPA_PROFIL
 62
     4
 10
35.999999998973848
 20
46.827121362249827
 30
0.1
  0
VERTEX
  5
188A
  8
SAPA_PROFIL
 62
     4
 10
35.9999999990536
 20
50.227121362249811
 30
0.1
 42
-0.4142135623730782
  0
VERTEX
  5
188B
  8
SAPA_PROFIL
 62
     4
 10
36.399999999063191
 20
50.627121362240352
 30
0.1
  0
VERTEX
  5
188C
  8
SAPA_PROFIL
 62
     4
 10
36.759999999063432
 20
50.627121362231833
 30
0.1
  0
VERTEX
  5
188D
  8
SAPA_PROFIL
 62
     4
 10
38.14113687248021
 20
49.835120467763431
 30
0.1
  0
VERTEX
  5
188E
  8
SAPA_PROFIL
 62
     4
 10
38.141136872480089
 20
49.56800593955041
 30
0.1
 42
0.5773502691896441
  0
VERTEX
  5
188F
  8
SAPA_PROFIL
 62
     4
 10
38.45613687247981
 20
49.38614060475583
 30
0.1
  0
VERTEX
  5
1890
  8
SAPA_PROFIL
 62
     4
 10
38.700322707227699
 20
49.527121362179287
 30
0.1
  0
VERTEX
  5
1891
  8
SAPA_PROFIL
 62
     4
 10
63.299677290717497
 20
49.527121362179273
 30
0.1
  0
SEQEND
  5
1892
  8
SAPA_PROFIL
 62
     4
  0
POLYLINE
  5
1008
  8
SAPA_PROFIL
  6
CONTINUOUS
 62
     4
 66
     1
 10
0.0
 20
0.0
 30
0.0
 70
     1
  0
VERTEX
  5
1893
  8
SAPA_PROFIL
  6
CONTINUOUS
 62
     4
 10
63.858863125465049
 20
49.568005939550389
 30
0.0
  0
VERTEX
  5
1894
  8
SAPA_PROFIL
  6
CONTINUOUS
 62
     4
 10
63.858863125465049
 20
49.835120467763417
 30
0.0
  0
VERTEX
  5
1895
  8
SAPA_PROFIL
  6
CONTINUOUS
 62
     4
 10
65.239999998881601
 20
50.627121362231819
 30
0.0
  0
VERTEX
  5
1896
  8
SAPA_PROFIL
  6
CONTINUOUS
 62
     4
 10
65.599999998881955
 20
50.627121362240459
 30
0.0
 42
-0.4142135623731473
  0
VERTEX
  5
1897
  8
SAPA_PROFIL
  6
CONTINUOUS
 62
     4
 10
65.999999998891482
 20
50.227121362249797
 30
0.0
  0
VERTEX
  5
1898
  8
SAPA_PROFIL
  6
CONTINUOUS
 62
     4
 10
65.999999998971234
 20
46.827121362249827
 30
0.0
 42
-0.4142135623728817
  0
VERTEX
  5
1899
  8
SAPA_PROFIL
  6
CONTINUOUS
 62
     4
 10
65.599999998980977
 20
46.4271213622403
 30
0.0
  0
VERTEX
  5
189A
  8
SAPA_PROFIL
  6
CONTINUOUS
 62
     4
 10
65.239999998980679
 20
46.42712136223178
 30
0.0
  0
VERTEX
  5
189B
  8
SAPA_PROFIL
  6
CONTINUOUS
 62
     4
 10
63.599051702868039
 20
47.368109271145151
 30
0.0
 42
0.1309057172584687
  0
VERTEX
  5
189C
  8
SAPA_PROFIL
  6
CONTINUOUS
 62
     4
 10
63.002105998954782
 20
47.52712136217928
 30
0.0
  0
VERTEX
  5
189D
  8
SAPA_PROFIL
  6
CONTINUOUS
 62
     4
 10
38.997930660675287
 20
47.527121361619258
 30
0.0
 42
0.1309134860018382
  0
VERTEX
  5
189E
  8
SAPA_PROFIL
  6
CONTINUOUS
 62
     4
 10
38.400948295077043
 20
47.368109271145151
 30
0.0
  0
VERTEX
  5
189F
  8
SAPA_PROFIL
  6
CONTINUOUS
 62
     4
 10
36.759999998964631
 20
46.42712136223178
 30
0.0
  0
VERTEX
  5
18A0
  8
SAPA_PROFIL
  6
CONTINUOUS
 62
     4
 10
36.399999998964219
 20
46.427121362240307
 30
0.0
 42
-0.4142135623729598
  0
VERTEX
  5
18A1
  8
SAPA_PROFIL
  6
CONTINUOUS
 62
     4
 10
35.999999998973848
 20
46.827121362249841
 30
0.0
  0
VERTEX
  5
18A2
  8
SAPA_PROFIL
  6
CONTINUOUS
 62
     4
 10
35.9999999990536
 20
50.227121362249811
 30
0.0
 42
-0.4142135623730795
  0
VERTEX
  5
18A3
  8
SAPA_PROFIL
  6
CONTINUOUS
 62
     4
 10
36.399999999063191
 20
50.627121362240352
 30
0.0
  0
VERTEX
  5
18A4
  8
SAPA_PROFIL
  6
CONTINUOUS
 62
     4
 10
36.759999999063432
 20
50.627121362231833
 30
0.0
  0
VERTEX
  5
18A5
  8
SAPA_PROFIL
  6
CONTINUOUS
 62
     4
 10
38.14113687248021
 20
49.835120467763431
 30
0.0
  0
VERTEX
  5
18A6
  8
SAPA_PROFIL
  6
CONTINUOUS
 62
     4
 10
38.141136872480089
 20
49.56800593955041
 30
0.0
 42
0.5773502691896458
  0
VERTEX
  5
18A7
  8
SAPA_PROFIL
  6
CONTINUOUS
 62
     4
 10
38.45613687247981
 20
49.38614060475583
 30
0.0
  0
VERTEX
  5
18A8
  8
SAPA_PROFIL
  6
CONTINUOUS
 62
     4
 10
38.700322707227699
 20
49.527121362179287
 30
0.0
  0
VERTEX
  5
18A9
  8
SAPA_PROFIL
  6
CONTINUOUS
 62
     4
 10
63.299677290717497
 20
49.527121362179273
 30
0.0
  0
VERTEX
  5
18AA
  8
SAPA_PROFIL
  6
CONTINUOUS
 62
     4
 10
63.543863125465343
 20
49.386140604755717
 30
0.0
 42
0.5773502691895091
  0
SEQEND
  5
18AB
  8
SAPA_PROFIL
  6
CONTINUOUS
 62
     4
  0
POLYLINE
  5
1009
  8
SAPA_PROFIL
 66
     1
 10
0.0
 20
0.0
 30
0.0
 70
     1
  0
VERTEX
  5
18AC
  8
SAPA_PROFIL
 10
81.999429645936686
 20
116.41228675406821
 30
0.0
 42
-0.2679491924315167
  0
VERTEX
  5
18AD
  8
SAPA_PROFIL
 10
82.149429645936664
 20
116.1524791329326
 30
0.0
  0
VERTEX
  5
18AE
  8
SAPA_PROFIL
 10
82.149429645936209
 20
115.7999999961808
 30
0.0
 42
0.4142135623730951
  0
VERTEX
  5
18AF
  8
SAPA_PROFIL
 10
82.449429645937187
 20
115.4999999961797
 30
0.0
  0
VERTEX
  5
18B0
  8
SAPA_PROFIL
 10
85.249429642736686
 20
115.4999999961763
 30
0.0
 42
0.4142135623728859
  0
VERTEX
  5
18B1
  8
SAPA_PROFIL
 10
85.749429642737311
 20
115.9999999961754
 30
0.0
  0
VERTEX
  5
18B2
  8
SAPA_PROFIL
 10
85.749429642739244
 20
116.9999999961839
 30
0.0
 42
0.4142135623733615
  0
VERTEX
  5
18B3
  8
SAPA_PROFIL
 10
84.749429642740253
 20
117.99999999618591
 30
0.0
  0
VERTEX
  5
18B4
  8
SAPA_PROFIL
 10
83.383404238952366
 20
117.9999999961872
 30
0.0
 42
-0.1316524975871477
  0
VERTEX
  5
18B5
  8
SAPA_PROFIL
 10
83.133404238952878
 20
118.066987294295
 30
0.0
  0
VERTEX
  5
18B6
  8
SAPA_PROFIL
 10
80.420968673642733
 20
119.6330126980864
 30
0.0
 42
0.1316524975872168
  0
VERTEX
  5
18B7
  8
SAPA_PROFIL
 10
80.170968673643074
 20
119.69999999619419
 30
0.0
  0
VERTEX
  5
18B8
  8
SAPA_PROFIL
 10
72.249429642742754
 20
119.69999999619979
 30
0.0
 42
-0.4142135623729286
  0
VERTEX
  5
18B9
  8
SAPA_PROFIL
 10
71.949429642742928
 20
119.9999999961997
 30
0.0
  0
VERTEX
  5
18BA
  8
SAPA_PROFIL
 10
71.949429642742302
 20
123.4765584192709
 30
0.0
 42
-0.4244748162096643
  0
VERTEX
  5
18BB
  8
SAPA_PROFIL
 10
72.25989949175306
 20
123.7763756673767
 30
0.0
  0
VERTEX
  5
18BC
  8
SAPA_PROFIL
 10
88.181204693558868
 20
123.2203914384169
 30
0.0
 42
-0.4142135623730951
  0
VERTEX
  5
18BD
  8
SAPA_PROFIL
 10
88.470552092653861
 20
122.9101043413004
 30
0.0
  0
VERTEX
  5
18BE
  8
SAPA_PROFIL
 10
88.449612394632311
 20
122.310469845089
 30
0.0
 42
0.6370702608075453
  0
VERTEX
  5
18BF
  8
SAPA_PROFIL
 10
88.934128085335772
 20
122.0635967699962
 30
0.0
  0
VERTEX
  5
18C0
  8
SAPA_PROFIL
 10
90.707788524346086
 20
123.4493321772986
 30
0.0
 42
0.7002075382097091
  0
VERTEX
  5
18C1
  8
SAPA_PROFIL
 10
90.417407535034499
 20
124.34303296761151
 30
0.0
  0
VERTEX
  5
18C2
  8
SAPA_PROFIL
 10
69.559899491756596
 20
125.07139319816299
 30
0.0
 42
0.4244748162048541
  0
VERTEX
  5
18C3
  8
SAPA_PROFIL
 10
69.249429642745838
 20
124.7715759500621
 30
0.0
  0
VERTEX
  5
18C4
  8
SAPA_PROFIL
 10
69.249429642734114
 20
124.04999999620399
 30
0.0
 42
0.4142135623740385
  0
VERTEX
  5
18C5
  8
SAPA_PROFIL
 10
69.549429642734424
 20
123.7499999962028
 30
0.0
  0
VERTEX
  5
18C6
  8
SAPA_PROFIL
 10
70.449429642731445
 20
123.7499999962029
 30
0.0
 42
-0.4142135623724291
  0
VERTEX
  5
18C7
  8
SAPA_PROFIL
 10
70.7494296427314
 20
123.4499999962036
 30
0.0
  0
VERTEX
  5
18C8
  8
SAPA_PROFIL
 10
70.749429642742768
 20
118.4999999961975
 30
0.0
 42
-0.4142135623740522
  0
VERTEX
  5
18C9
  8
SAPA_PROFIL
 10
70.249429642742257
 20
117.99999999619629
 30
0.0
  0
VERTEX
  5
18CA
  8
SAPA_PROFIL
 10
68.749429642741632
 20
117.9999999961977
 30
0.0
 42
0.4142135623729374
  0
VERTEX
  5
18CB
  8
SAPA_PROFIL
 10
68.249429642741177
 20
117.4999999961985
 30
0.0
  0
VERTEX
  5
18CC
  8
SAPA_PROFIL
 10
68.249429642739017
 20
115.9999999961984
 30
0.0
 42
0.4142135623731454
  0
VERTEX
  5
18CD
  8
SAPA_PROFIL
 10
68.749429642738392
 20
115.4999999961977
 30
0.0
  0
VERTEX
  5
18CE
  8
SAPA_PROFIL
 10
71.149429645937346
 20
115.4999999961946
 30
0.0
 42
0.414213562373503
  0
VERTEX
  5
18CF
  8
SAPA_PROFIL
 10
71.649429645938014
 20
115.9999999961947
 30
0.0
  0
VERTEX
  5
18D0
  8
SAPA_PROFIL
 10
71.649429645937971
 20
116.4999999962005
 30
0.0
 42
-0.414213562373547
  0
VERTEX
  5
18D1
  8
SAPA_PROFIL
 10
72.649429645939449
 20
117.4999999962005
 30
0.0
  0
VERTEX
  5
18D2
  8
SAPA_PROFIL
 10
79.981480450302456
 20
117.4999999961898
 30
0.0
 42
-0.1316524975870585
  0
VERTEX
  5
18D3
  8
SAPA_PROFIL
 10
80.231480450301774
 20
117.43301269808209
 30
0.0
  0
SEQEND
  5
18D4
  8
SAPA_PROFIL
  0
POLYLINE
  5
100A
  8
SAPA_PROFIL
 66
     1
 10
0.0
 20
0.0
 30
0.0
 70
     1
  0
VERTEX
  5
18D5
  8
SAPA_PROFIL
 10
39.517338705746781
 20
75.834386051950304
 30
0.0
 42
-0.4769755326981641
  0
VERTEX
  5
18D6
  8
SAPA_PROFIL
 10
39.21508588124032
 20
75.462729177004434
 30
0.0
  0
VERTEX
  5
18D7
  8
SAPA_PROFIL
 10
37.711984800478312
 20
75.462812784888087
 30
0.0
  0
VERTEX
  5
18D8
  8
SAPA_PROFIL
 10
37.697466391231202
 20
75.510658534886574
 30
0.0
 42
0.4142135623730958
  0
VERTEX
  5
18D9
  8
SAPA_PROFIL
 10
37.323281435755391
 20
75.71062257939397
 30
0.0
  0
VERTEX
  5
18DA
  8
SAPA_PROFIL
 10
36.002164477604701
 20
75.199999996172295
 30
0.0
  0
VERTEX
  5
18DB
  8
SAPA_PROFIL
 10
33.043207626169988
 20
75.199999996172295
 30
0.0
 42
-0.2596812337299856
  0
VERTEX
  5
18DC
  8
SAPA_PROFIL
 10
32.78816140885997
 20
75.342039789044549
 30
0.0
  0
VERTEX
  5
18DD
  8
SAPA_PROFIL
 10
32.045062781518709
 20
76.541864083011291
 30
0.0
 42
-0.587935048733185
  0
VERTEX
  5
18DE
  8
SAPA_PROFIL
 10
32.300000093358683
 20
76.999999996171397
 30
0.0
  0
VERTEX
  5
18DF
  8
SAPA_PROFIL
 10
33.700000093358703
 20
76.999999996171454
 30
0.0
 42
0.4142135623731227
  0
VERTEX
  5
18E0
  8
SAPA_PROFIL
 10
34.000000093358672
 20
77.299999996171351
 30
0.0
  0
VERTEX
  5
18E1
  8
SAPA_PROFIL
 10
34.000000093358679
 20
79.699999996172352
 30
0.0
 42
0.414213562373109
  0
VERTEX
  5
18E2
  8
SAPA_PROFIL
 10
33.700000093358703
 20
79.999999996172306
 30
0.0
  0
VERTEX
  5
18E3
  8
SAPA_PROFIL
 10
16.300000177135669
 20
79.999999996172363
 30
0.0
 42
0.4142135623730882
  0
VERTEX
  5
18E4
  8
SAPA_PROFIL
 10
16.000000177134648
 20
79.699999996172352
 30
0.0
  0
VERTEX
  5
18E5
  8
SAPA_PROFIL
 10
16.000000177134659
 20
77.299999996172431
 30
0.0
 42
0.4142135623720964
  0
VERTEX
  5
18E6
  8
SAPA_PROFIL
 10
16.30000017713466
 20
76.999999996172306
 30
0.0
  0
VERTEX
  5
18E7
  8
SAPA_PROFIL
 10
17.70000017713468
 20
76.999999996173216
 30
0.0
 42
-0.5877032589246419
  0
VERTEX
  5
18E8
  8
SAPA_PROFIL
 10
17.95504639444567
 20
76.542039789044424
 30
0.0
  0
VERTEX
  5
18E9
  8
SAPA_PROFIL
 10
17.087971037236692
 20
75.142039789044503
 30
0.0
 42
-0.2596812337300243
  0
VERTEX
  5
18EA
  8
SAPA_PROFIL
 10
16.832924819926681
 20
74.999999996172306
 30
0.0
  0
VERTEX
  5
18EB
  8
SAPA_PROFIL
 10
14.30000009329067
 20
74.999999996172306
 30
0.0
 42
-0.4142135623731088
  0
VERTEX
  5
18EC
  8
SAPA_PROFIL
 10
14.000000093290691
 20
75.299999996172303
 30
0.0
  0
VERTEX
  5
18ED
  8
SAPA_PROFIL
 10
14.00000009329071
 20
164.69999999582939
 30
0.0
 42
-0.6681786379192997
  0
VERTEX
  5
18EE
  8
SAPA_PROFIL
 10
14.512132128201239
 20
164.91213203041499
 30
0.0
  0
VERTEX
  5
18EF
  8
SAPA_PROFIL
 10
15.55355348433832
 20
163.8707106742778
 30
0.0
 42
-0.1989123673796784
  0
VERTEX
  5
18F0
  8
SAPA_PROFIL
 10
15.700000093745031
 20
163.51715728368461
 30
0.0
  0
VERTEX
  5
18F1
  8
SAPA_PROFIL
 10
15.70000009374491
 20
152.99999999604179
 30
0.0
 42
0.4142135623731617
  0
VERTEX
  5
18F2
  8
SAPA_PROFIL
 10
16.200000093745029
 20
152.49999999604179
 30
0.0
  0
VERTEX
  5
18F3
  8
SAPA_PROFIL
 10
18.3005705379991
 20
152.4999999960425
 30
0.0
 42
-0.4241420668413202
  0
VERTEX
  5
18F4
  8
SAPA_PROFIL
 10
19.300000093408212
 20
151.4662277621637
 30
0.0
 42
-0.2988658713671491
  0
VERTEX
  5
18F5
  8
SAPA_PROFIL
 10
18.72914196663023
 20
150.5289476252056
 30
0.0
 42
-0.5507604245839972
  0
VERTEX
  5
18F6
  8
SAPA_PROFIL
 10
18.300570538043889
 20
150.79999999605269
 30
0.0
  0
VERTEX
  5
18F7
  8
SAPA_PROFIL
 10
18.300570538026172
 20
151.09999999604281
 30
0.0
 42
0.4142135623717422
  0
VERTEX
  5
18F8
  8
SAPA_PROFIL
 10
18.100570538014178
 20
151.2999999960297
 30
0.0
  0
VERTEX
  5
18F9
  8
SAPA_PROFIL
 10
17.800570537896199
 20
151.2999999960137
 30
0.0
 42
0.4142135623558401
  0
VERTEX
  5
18FA
  8
SAPA_PROFIL
 10
16.000570537999049
 20
149.4999999960157
 30
0.0
  0
VERTEX
  5
18FB
  8
SAPA_PROFIL
 10
16.000570537997099
 20
148.79999999579971
 30
0.0
 42
0.4142135623563557
  0
VERTEX
  5
18FC
  8
SAPA_PROFIL
 10
17.800570537891279
 20
146.9999999957968
 30
0.0
  0
VERTEX
  5
18FD
  8
SAPA_PROFIL
 10
18.100570538008039
 20
146.9999999957785
 30
0.0
 42
0.4142135623703688
  0
VERTEX
  5
18FE
  8
SAPA_PROFIL
 10
18.300570538020189
 20
147.1999999957666
 30
0.0
  0
VERTEX
  5
18FF
  8
SAPA_PROFIL
 10
18.300570538039288
 20
147.4999999957588
 30
0.0
 42
-0.5507604245876419
  0
VERTEX
  5
1900
  8
SAPA_PROFIL
 10
18.729141966633762
 20
147.7710523666039
 30
0.0
 42
-0.2988658713647653
  0
VERTEX
  5
1901
  8
SAPA_PROFIL
 10
19.30000009340133
 20
146.83377222964469
 30
0.0
 42
-0.4241420668424131
  0
VERTEX
  5
1902
  8
SAPA_PROFIL
 10
18.300570537990119
 20
145.79999999576671
 30
0.0
  0
VERTEX
  5
1903
  8
SAPA_PROFIL
 10
16.300000093692031
 20
145.79999999577271
 30
0.0
 42
0.4142135623741493
  0
VERTEX
  5
1904
  8
SAPA_PROFIL
 10
16.000000093690161
 20
145.4999999957727
 30
0.0
  0
VERTEX
  5
1905
  8
SAPA_PROFIL
 10
16.000000093690151
 20
120.4999999961546
 30
0.0
 42
0.4142135623730909
  0
VERTEX
  5
1906
  8
SAPA_PROFIL
 10
16.500000093690112
 20
119.9999999961546
 30
0.0
  0
VERTEX
  5
1907
  8
SAPA_PROFIL
 10
16.83292481992676
 20
119.99999999617241
 30
0.0
 42
-0.2596812337300516
  0
VERTEX
  5
1908
  8
SAPA_PROFIL
 10
17.087971037236759
 20
119.85796020330019
 30
0.0
  0
VERTEX
  5
1909
  8
SAPA_PROFIL
 10
17.955046394445681
 20
118.4579602033004
 30
0.0
 42
-0.5877032589248035
  0
VERTEX
  5
190A
  8
SAPA_PROFIL
 10
17.70000017713469
 20
117.99999999617241
 30
0.0
  0
VERTEX
  5
190B
  8
SAPA_PROFIL
 10
16.30000017713467
 20
117.99999999617241
 30
0.0
 42
0.4142135623721171
  0
VERTEX
  5
190C
  8
SAPA_PROFIL
 10
16.000000177135671
 20
117.69999999617239
 30
0.0
  0
VERTEX
  5
190D
  8
SAPA_PROFIL
 10
16.000000177134648
 20
115.2999999961723
 30
0.0
 42
0.4142135623730951
  0
VERTEX
  5
190E
  8
SAPA_PROFIL
 10
16.300000177135669
 20
114.9999999961713
 30
0.0
  0
VERTEX
  5
190F
  8
SAPA_PROFIL
 10
33.700000093358703
 20
114.99999999617241
 30
0.0
 42
0.414213562373081
  0
VERTEX
  5
1910
  8
SAPA_PROFIL
 10
34.000000093358651
 20
115.2999999961723
 30
0.0
  0
VERTEX
  5
1911
  8
SAPA_PROFIL
 10
34.000000093358672
 20
117.69999999617239
 30
0.0
 42
0.4142135623740523
  0
VERTEX
  5
1912
  8
SAPA_PROFIL
 10
33.700000093358703
 20
117.9999999961733
 30
0.0
  0
VERTEX
  5
1913
  8
SAPA_PROFIL
 10
32.300000093358683
 20
117.9999999961734
 30
0.0
 42
-0.5874715141143722
  0
VERTEX
  5
1914
  8
SAPA_PROFIL
 10
32.044845090772831
 20
118.4577844207991
 30
0.0
  0
VERTEX
  5
1915
  8
SAPA_PROFIL
 10
32.78816140885997
 20
119.6579602032959
 30
0.0
 42
-0.2596812337299913
  0
VERTEX
  5
1916
  8
SAPA_PROFIL
 10
33.043207626169917
 20
119.7999999961723
 30
0.0
  0
VERTEX
  5
1917
  8
SAPA_PROFIL
 10
36.002164477604488
 20
119.7999999961724
 30
0.0
  0
VERTEX
  5
1918
  8
SAPA_PROFIL
 10
37.323281435755383
 20
119.2893774129507
 30
0.0
 42
0.4142135623730951
  0
VERTEX
  5
1919
  8
SAPA_PROFIL
 10
37.697466391231202
 20
119.4893414574581
 30
0.0
  0
VERTEX
  5
191A
  8
SAPA_PROFIL
 10
37.711984800478298
 20
119.5371872074566
 30
0.0
  0
VERTEX
  5
191B
  8
SAPA_PROFIL
 10
39.215085881240299
 20
119.53727081534019
 30
0.0
 42
-0.4769755326981643
  0
VERTEX
  5
191C
  8
SAPA_PROFIL
 10
39.517338705746781
 20
119.16561394039429
 30
0.0
  0
VERTEX
  5
191D
  8
SAPA_PROFIL
 10
39.135892109619057
 20
117.3523834697361
 30
0.0
 42
-0.2216946626430191
  0
VERTEX
  5
191E
  8
SAPA_PROFIL
 10
38.730083204464258
 20
116.8115036382593
 30
0.0
  0
VERTEX
  5
191F
  8
SAPA_PROFIL
 10
38.445400921232611
 20
116.65936972715051
 30
0.0
 42
-0.5773502691897461
  0
VERTEX
  5
1920
  8
SAPA_PROFIL
 10
38.151244620977799
 20
116.8423234672607
 30
0.0
  0
VERTEX
  5
1921
  8
SAPA_PROFIL
 10
38.161805987204772
 20
117.164081195479
 30
0.0
  0
VERTEX
  5
1922
  8
SAPA_PROFIL
 10
36.27596229534371
 20
118.2486456424507
 30
0.0
  0
VERTEX
  5
1923
  8
SAPA_PROFIL
 10
36.08457929534999
 20
118.3067192794398
 30
0.0
 42
0.7625858545243258
  0
VERTEX
  5
1924
  8
SAPA_PROFIL
 10
35.900000093152507
 20
117.9763931984228
 30
0.0
 42
-0.2134217652834387
  0
VERTEX
  5
1925
  8
SAPA_PROFIL
 10
36.00000009315265
 20
117.7527864006727
 30
0.0
  0
VERTEX
  5
1926
  8
SAPA_PROFIL
 10
36.000000093222212
 20
113.8999999961657
 30
0.0
 42
0.4142135623650482
  0
VERTEX
  5
1927
  8
SAPA_PROFIL
 10
36.300000093219673
 20
113.59999999617121
 30
0.0
  0
VERTEX
  5
1928
  8
SAPA_PROFIL
 10
36.591626601015292
 20
113.59999999616841
 30
0.0
  0
VERTEX
  5
1929
  8
SAPA_PROFIL
 10
38.20000009322203
 20
114.52859486485021
 30
0.0
 42
-0.5773502691894928
  0
VERTEX
  5
192A
  8
SAPA_PROFIL
 10
38.500000093221757
 20
114.3553897840934
 30
0.0
  0
VERTEX
  5
192B
  8
SAPA_PROFIL
 10
38.500000093221757
 20
112.9697491380396
 30
0.0
 42
-0.2679491924314051
  0
VERTEX
  5
192C
  8
SAPA_PROFIL
 10
38.000000093221303
 20
112.1037237342548
 30
0.0
  0
VERTEX
  5
192D
  8
SAPA_PROFIL
 10
36.250000093223044
 20
111.09336076317589
 30
0.0
 42
0.2679491924313525
  0
VERTEX
  5
192E
  8
SAPA_PROFIL
 10
36.000000093222667
 20
110.6603480612835
 30
0.0
  0
VERTEX
  5
192F
  8
SAPA_PROFIL
 10
36.000000093222667
 20
84.339651931061155
 30
0.0
 42
0.2679491924313525
  0
VERTEX
  5
1930
  8
SAPA_PROFIL
 10
36.250000093223044
 20
83.906639229168704
 30
0.0
  0
VERTEX
  5
1931
  8
SAPA_PROFIL
 10
38.000000093221317
 20
82.896276258089841
 30
0.0
 42
-0.2679491924314051
  0
VERTEX
  5
1932
  8
SAPA_PROFIL
 10
38.500000093221793
 20
82.030250854305095
 30
0.0
  0
VERTEX
  5
1933
  8
SAPA_PROFIL
 10
38.500000093221772
 20
80.644610208251237
 30
0.0
 42
-0.577350269189493
  0
VERTEX
  5
1934
  8
SAPA_PROFIL
 10
38.200000093222052
 20
80.471405127494407
 30
0.0
  0
VERTEX
  5
1935
  8
SAPA_PROFIL
 10
36.591626601015307
 20
81.399999996176206
 30
0.0
  0
VERTEX
  5
1936
  8
SAPA_PROFIL
 10
36.30000009321968
 20
81.399999996173477
 30
0.0
 42
0.414213562365048
  0
VERTEX
  5
1937
  8
SAPA_PROFIL
 10
36.000000093222233
 20
81.099999996178965
 30
0.0
  0
VERTEX
  5
1938
  8
SAPA_PROFIL
 10
36.00000009315265
 20
77.247213591671965
 30
0.0
 42
-0.2134217652834387
  0
VERTEX
  5
1939
  8
SAPA_PROFIL
 10
35.900000093152507
 20
77.023606793921843
 30
0.0
 42
0.7625858545243238
  0
VERTEX
  5
193A
  8
SAPA_PROFIL
 10
36.084579295349997
 20
76.693280712904823
 30
0.0
  0
VERTEX
  5
193B
  8
SAPA_PROFIL
 10
36.275962295343717
 20
76.751354349893944
 30
0.0
  0
VERTEX
  5
193C
  8
SAPA_PROFIL
 10
38.161805987204772
 20
77.835918796865684
 30
0.0
  0
VERTEX
  5
193D
  8
SAPA_PROFIL
 10
38.151244620977813
 20
78.157676525083929
 30
0.0
 42
-0.5773502691897471
  0
VERTEX
  5
193E
  8
SAPA_PROFIL
 10
38.445400921232618
 20
78.340630265194108
 30
0.0
  0
VERTEX
  5
193F
  8
SAPA_PROFIL
 10
38.730083204464272
 20
78.188496354085345
 30
0.0
 42
-0.2216946626430199
  0
VERTEX
  5
1940
  8
SAPA_PROFIL
 10
39.135892109619071
 20
77.647616522608558
 30
0.0
  0
SEQEND
  5
1941
  8
SAPA_PROFIL
  0
POLYLINE
  5
100B
  8
SAPA_PROFIL
 66
     1
 10
0.0
 20
0.0
 30
0.0
 70
     1
  0
VERTEX
  5
1942
  8
SAPA_PROFIL
 10
34.000000093222653
 20
81.699999996172295
 30
0.0
 42
0.4142135623730951
  0
VERTEX
  5
1943
  8
SAPA_PROFIL
 10
34.300000093222671
 20
81.999999996172306
 30
0.0
  0
VERTEX
  5
1944
  8
SAPA_PROFIL
 10
34.300000093222671
 20
83.499999996197104
 30
0.0
 42
0.4142135623398939
  0
VERTEX
  5
1945
  8
SAPA_PROFIL
 10
34.000000093256681
 20
83.799999996197556
 30
0.0
 42
-0.4142135623398802
  0
VERTEX
  5
1946
  8
SAPA_PROFIL
 10
33.700000093290662
 20
84.099999996197553
 30
0.0
  0
VERTEX
  5
1947
  8
SAPA_PROFIL
 10
33.700000093290093
 20
85.499999996197602
 30
0.0
 42
-0.4142135623398524
  0
VERTEX
  5
1948
  8
SAPA_PROFIL
 10
34.000000099025669
 20
85.799999996197613
 30
0.0
  0
VERTEX
  5
1949
  8
SAPA_PROFIL
 10
34.000000093256659
 20
85.799999996198181
 30
0.0
 42
0.4142135623398941
  0
VERTEX
  5
194A
  8
SAPA_PROFIL
 10
34.300000093222671
 20
86.099999996197681
 30
0.0
  0
VERTEX
  5
194B
  8
SAPA_PROFIL
 10
34.300000093222671
 20
108.8999999961427
 30
0.0
 42
0.4142135623398939
  0
VERTEX
  5
194C
  8
SAPA_PROFIL
 10
34.000000093256681
 20
109.19999999614279
 30
0.0
 42
-0.4142135623398317
  0
VERTEX
  5
194D
  8
SAPA_PROFIL
 10
33.700000093290662
 20
109.4999999961428
 30
0.0
  0
VERTEX
  5
194E
  8
SAPA_PROFIL
 10
33.700000093290463
 20
110.8999999961428
 30
0.0
 42
-0.4142135623398802
  0
VERTEX
  5
194F
  8
SAPA_PROFIL
 10
34.000000099025669
 20
111.19999999614279
 30
0.0
  0
VERTEX
  5
1950
  8
SAPA_PROFIL
 10
34.000000093256659
 20
111.19999999614301
 30
0.0
 42
0.4142135623398941
  0
VERTEX
  5
1951
  8
SAPA_PROFIL
 10
34.300000093222671
 20
111.4999999961433
 30
0.0
  0
VERTEX
  5
1952
  8
SAPA_PROFIL
 10
34.300000093222671
 20
112.99999999617231
 30
0.0
 42
0.4142135623731159
  0
VERTEX
  5
1953
  8
SAPA_PROFIL
 10
34.000000093222653
 20
113.2999999961723
 30
0.0
  0
VERTEX
  5
1954
  8
SAPA_PROFIL
 10
16.0000000866157
 20
113.2999999961723
 30
0.0
 42
0.4142264962912997
  0
VERTEX
  5
1955
  8
SAPA_PROFIL
 10
15.70000008690819
 20
112.9999867484852
 30
0.0
  0
VERTEX
  5
1956
  8
SAPA_PROFIL
 10
15.70000008690819
 20
111.499999996144
 30
0.0
 42
0.4142135654887987
  0
VERTEX
  5
1957
  8
SAPA_PROFIL
 10
16.00000009009948
 20
111.199999996144
 30
0.0
 42
-0.4142135654887846
  0
VERTEX
  5
1958
  8
SAPA_PROFIL
 10
16.30000009329067
 20
110.8999999961428
 30
0.0
  0
VERTEX
  5
1959
  8
SAPA_PROFIL
 10
16.300000093290649
 20
109.4999999961428
 30
0.0
 42
-0.4142135623731367
  0
VERTEX
  5
195A
  8
SAPA_PROFIL
 10
16.000000093290719
 20
109.19999999614279
 30
0.0
 42
0.4142135623731372
  0
VERTEX
  5
195B
  8
SAPA_PROFIL
 10
15.70000009329058
 20
108.8999999961427
 30
0.0
  0
VERTEX
  5
195C
  8
SAPA_PROFIL
 10
15.700000093290701
 20
86.099999996197681
 30
0.0
 42
0.4142135623731367
  0
VERTEX
  5
195D
  8
SAPA_PROFIL
 10
16.00000009329074
 20
85.79999999619767
 30
0.0
 42
-0.4142135623731372
  0
VERTEX
  5
195E
  8
SAPA_PROFIL
 10
16.300000093290659
 20
85.499999996197602
 30
0.0
  0
VERTEX
  5
195F
  8
SAPA_PROFIL
 10
16.300000093290649
 20
84.099999996197553
 30
0.0
 42
-0.4142135654887848
  0
VERTEX
  5
1960
  8
SAPA_PROFIL
 10
16.000000090099469
 20
83.799999996197158
 30
0.0
 42
0.41427398757146
  0
VERTEX
  5
1961
  8
SAPA_PROFIL
 10
15.700000093290701
 20
83.499938109350836
 30
0.0
  0
VERTEX
  5
1962
  8
SAPA_PROFIL
 10
15.700000093290701
 20
81.999999996172306
 30
0.0
 42
0.4142135623730812
  0
VERTEX
  5
1963
  8
SAPA_PROFIL
 10
16.00000009329068
 20
81.699999996172352
 30
0.0
  0
SEQEND
  5
1964
  8
SAPA_PROFIL
  0
POLYLINE
  5
100C
  8
SAPA_PROFIL
 62
     4
 66
     1
 10
0.0
 20
0.0
 30
0.0
 70
     1
  0
VERTEX
  5
1965
  8
SAPA_PROFIL
 62
     4
 10
39.037778563739472
 20
78.172514664676811
 30
0.0
 42
-0.3137019356282051
  0
VERTEX
  5
1966
  8
SAPA_PROFIL
 62
     4
 10
39.31872834728577
 20
77.974889039143392
 30
0.0
  0
VERTEX
  5
1967
  8
SAPA_PROFIL
 62
     4
 10
40.204206060156963
 20
75.542059017599371
 30
0.0
 42
0.3152987888779321
  0
VERTEX
  5
1968
  8
SAPA_PROFIL
 62
     4
 10
40.58008310847336
 20
75.27886707492965
 30
0.0
  0
VERTEX
  5
1969
  8
SAPA_PROFIL
 62
     4
 10
51.000000093187481
 20
75.278867074929664
 30
0.0
  0
VERTEX
  5
196A
  8
SAPA_PROFIL
 62
     4
 10
61.419917077905581
 20
75.278867074929735
 30
0.0
 42
0.3152987888779395
  0
VERTEX
  5
196B
  8
SAPA_PROFIL
 62
     4
 10
61.795794126217942
 20
75.542059017599456
 30
0.0
  0
VERTEX
  5
196C
  8
SAPA_PROFIL
 62
     4
 10
62.681271839086122
 20
77.974889039135149
 30
0.0
 42
-0.3138982169096283
  0
VERTEX
  5
196D
  8
SAPA_PROFIL
 62
     4
 10
62.96222162260031
 20
78.172514664675504
 30
0.0
 42
-0.0157923906855865
  0
VERTEX
  5
196E
  8
SAPA_PROFIL
 62
     4
 10
63.313680154939163
 20
78.175917794315112
 30
0.0
  0
VERTEX
  5
196F
  8
SAPA_PROFIL
 62
     4
 10
63.55386321972145
 20
78.314587551421624
 30
0.0
 42
-0.5773502691889272
  0
VERTEX
  5
1970
  8
SAPA_PROFIL
 62
     4
 10
63.86886321972117
 20
78.132722216626831
 30
0.0
  0
VERTEX
  5
1971
  8
SAPA_PROFIL
 62
     4
 10
63.86886321972127
 20
77.865607688413917
 30
0.0
  0
VERTEX
  5
1972
  8
SAPA_PROFIL
 62
     4
 10
64.200000093187469
 20
77.669385622629619
 30
0.0
  0
VERTEX
  5
1973
  8
SAPA_PROFIL
 62
     4
 10
65.183320231167983
 20
77.101741459132171
 30
0.0
 42
0.1316524975869703
  0
VERTEX
  5
1974
  8
SAPA_PROFIL
 62
     4
 10
65.288320231166807
 20
77.07360679392761
 30
0.0
  0
VERTEX
  5
1975
  8
SAPA_PROFIL
 62
     4
 10
65.600000093189379
 20
77.073606793927496
 30
0.0
 42
0.4142135623775584
  0
VERTEX
  5
1976
  8
SAPA_PROFIL
 62
     4
 10
66.000000093187424
 20
77.473606793927814
 30
0.0
  0
VERTEX
  5
1977
  8
SAPA_PROFIL
 62
     4
 10
66.000000093187481
 20
80.873606793927564
 30
0.0
 42
0.4142135623773978
  0
VERTEX
  5
1978
  8
SAPA_PROFIL
 62
     4
 10
65.600000093187447
 20
81.273606793927542
 30
0.0
  0
VERTEX
  5
1979
  8
SAPA_PROFIL
 62
     4
 10
65.288320231163794
 20
81.273606793927542
 30
0.0
 42
0.1316524975869708
  0
VERTEX
  5
197A
  8
SAPA_PROFIL
 62
     4
 10
65.183320231166846
 20
81.245472128722284
 30
0.0
  0
VERTEX
  5
197B
  8
SAPA_PROFIL
 62
     4
 10
64.200000093187469
 20
80.677751982360249
 30
0.0
  0
VERTEX
  5
197C
  8
SAPA_PROFIL
 62
     4
 10
63.605255981516592
 20
80.334376309388148
 30
0.0
 42
-0.1316524975869772
  0
VERTEX
  5
197D
  8
SAPA_PROFIL
 62
     4
 10
63.005255981513208
 20
80.173606793927647
 30
0.0
  0
VERTEX
  5
197E
  8
SAPA_PROFIL
 62
     4
 10
62.053391648626778
 20
80.173606793927846
 30
0.0
 42
0.3152987888780149
  0
VERTEX
  5
197F
  8
SAPA_PROFIL
 62
     4
 10
61.11369902785529
 20
79.515626937253472
 30
0.0
  0
VERTEX
  5
1980
  8
SAPA_PROFIL
 62
     4
 10
60.322585002945431
 20
77.34205901759978
 30
0.0
 42
-0.3152987888779391
  0
VERTEX
  5
1981
  8
SAPA_PROFIL
 62
     4
 10
59.946707954630909
 20
77.078867074929661
 30
0.0
  0
VERTEX
  5
1982
  8
SAPA_PROFIL
 62
     4
 10
51.000000093187481
 20
77.078867074929661
 30
0.0
  0
VERTEX
  5
1983
  8
SAPA_PROFIL
 62
     4
 10
42.053292231743988
 20
77.078867074929605
 30
0.0
 42
-0.3152987888779318
  0
VERTEX
  5
1984
  8
SAPA_PROFIL
 62
     4
 10
41.677415183430838
 20
77.342059017596029
 30
0.0
  0
VERTEX
  5
1985
  8
SAPA_PROFIL
 62
     4
 10
40.886301158519721
 20
79.515626937253245
 30
0.0
 42
0.3152987888779361
  0
VERTEX
  5
1986
  8
SAPA_PROFIL
 62
     4
 10
39.946608537719129
 20
80.173606793927576
 30
0.0
  0
VERTEX
  5
1987
  8
SAPA_PROFIL
 62
     4
 10
38.994744204861632
 20
80.173606793927576
 30
0.0
 42
-0.1316524975869766
  0
VERTEX
  5
1988
  8
SAPA_PROFIL
 62
     4
 10
38.394744204868431
 20
80.334376309382279
 30
0.0
  0
VERTEX
  5
1989
  8
SAPA_PROFIL
 62
     4
 10
37.807179770159927
 20
80.673606793927519
 30
0.0
  0
VERTEX
  5
198A
  8
SAPA_PROFIL
 62
     4
 10
36.816679955208002
 20
81.245472128722241
 30
0.0
 42
0.1316524975869832
  0
VERTEX
  5
198B
  8
SAPA_PROFIL
 62
     4
 10
36.711679955204907
 20
81.273606793927485
 30
0.0
  0
VERTEX
  5
198C
  8
SAPA_PROFIL
 62
     4
 10
36.400000093187401
 20
81.273606793927542
 30
0.0
 42
0.414213562371655
  0
VERTEX
  5
198D
  8
SAPA_PROFIL
 62
     4
 10
36.000000093187431
 20
80.873606793923585
 30
0.0
  0
VERTEX
  5
198E
  8
SAPA_PROFIL
 62
     4
 10
36.000000093187431
 20
77.47360679392753
 30
0.0
 42
0.4142135623716633
  0
VERTEX
  5
198F
  8
SAPA_PROFIL
 62
     4
 10
36.400000093189448
 20
77.073606793927553
 30
0.0
  0
VERTEX
  5
1990
  8
SAPA_PROFIL
 62
     4
 10
36.711679955208098
 20
77.073606793927553
 30
0.0
 42
0.1316524975869709
  0
VERTEX
  5
1991
  8
SAPA_PROFIL
 62
     4
 10
36.816679955208677
 20
77.101741459133123
 30
0.0
  0
VERTEX
  5
1992
  8
SAPA_PROFIL
 62
     4
 10
38.131136966653678
 20
77.865607688413917
 30
0.0
  0
VERTEX
  5
1993
  8
SAPA_PROFIL
 62
     4
 10
38.131136966653798
 20
78.132722216626831
 30
0.0
 42
-0.5773502691889269
  0
VERTEX
  5
1994
  8
SAPA_PROFIL
 62
     4
 10
38.446136966653512
 20
78.314587551421624
 30
0.0
  0
VERTEX
  5
1995
  8
SAPA_PROFIL
 62
     4
 10
38.686320031435812
 20
78.175917794315083
 30
0.0
 42
-0.015792390685586
  0
SEQEND
  5
1996
  8
SAPA_PROFIL
 62
     4
  0
POLYLINE
  5
100D
  8
SAPA_PROFIL
 62
     4
 66
     1
 10
0.0
 20
0.0
 30
0.0
 70
     1
  0
VERTEX
  5
1997
  8
SAPA_PROFIL
 62
     4
 10
39.037778563739479
 20
116.8274853276679
 30
0.0
 42
0.3137019356282051
  0
VERTEX
  5
1998
  8
SAPA_PROFIL
 62
     4
 10
39.318728347285777
 20
117.02511095320131
 30
0.0
  0
VERTEX
  5
1999
  8
SAPA_PROFIL
 62
     4
 10
40.20420606015697
 20
119.4579409747453
 30
0.0
 42
-0.3152987888779321
  0
VERTEX
  5
199A
  8
SAPA_PROFIL
 62
     4
 10
40.580083108473367
 20
119.7211329174151
 30
0.0
  0
VERTEX
  5
199B
  8
SAPA_PROFIL
 62
     4
 10
51.000000093187488
 20
119.72113291741501
 30
0.0
  0
VERTEX
  5
199C
  8
SAPA_PROFIL
 62
     4
 10
61.419917077905588
 20
119.72113291741501
 30
0.0
 42
-0.3152987888779395
  0
VERTEX
  5
199D
  8
SAPA_PROFIL
 62
     4
 10
61.795794126217949
 20
119.4579409747452
 30
0.0
  0
VERTEX
  5
199E
  8
SAPA_PROFIL
 62
     4
 10
62.681271839086143
 20
117.02511095320951
 30
0.0
 42
0.3138982169096283
  0
VERTEX
  5
199F
  8
SAPA_PROFIL
 62
     4
 10
62.962221622600332
 20
116.82748532766919
 30
0.0
 42
0.0157923906855865
  0
VERTEX
  5
19A0
  8
SAPA_PROFIL
 62
     4
 10
63.313680154939178
 20
116.8240821980296
 30
0.0
  0
VERTEX
  5
19A1
  8
SAPA_PROFIL
 62
     4
 10
63.553863219721457
 20
116.6854124409231
 30
0.0
 42
0.5773502691889272
  0
VERTEX
  5
19A2
  8
SAPA_PROFIL
 62
     4
 10
63.86886321972117
 20
116.86727777571789
 30
0.0
  0
VERTEX
  5
19A3
  8
SAPA_PROFIL
 62
     4
 10
63.868863219721291
 20
117.1343923039308
 30
0.0
  0
VERTEX
  5
19A4
  8
SAPA_PROFIL
 62
     4
 10
64.200000093187484
 20
117.33061436971509
 30
0.0
  0
VERTEX
  5
19A5
  8
SAPA_PROFIL
 62
     4
 10
65.183320231167997
 20
117.8982585332125
 30
0.0
 42
-0.1316524975869703
  0
VERTEX
  5
19A6
  8
SAPA_PROFIL
 62
     4
 10
65.288320231166821
 20
117.9263931984171
 30
0.0
  0
VERTEX
  5
19A7
  8
SAPA_PROFIL
 62
     4
 10
65.600000093189394
 20
117.9263931984172
 30
0.0
 42
-0.4142135623775584
  0
VERTEX
  5
19A8
  8
SAPA_PROFIL
 62
     4
 10
66.000000093187438
 20
117.5263931984169
 30
0.0
  0
VERTEX
  5
19A9
  8
SAPA_PROFIL
 62
     4
 10
66.000000093187495
 20
114.12639319841711
 30
0.0
 42
-0.4142135623773978
  0
VERTEX
  5
19AA
  8
SAPA_PROFIL
 62
     4
 10
65.600000093187461
 20
113.7263931984172
 30
0.0
  0
VERTEX
  5
19AB
  8
SAPA_PROFIL
 62
     4
 10
65.288320231163809
 20
113.7263931984172
 30
0.0
 42
-0.1316524975869708
  0
VERTEX
  5
19AC
  8
SAPA_PROFIL
 62
     4
 10
65.18332023116686
 20
113.7545278636224
 30
0.0
  0
VERTEX
  5
19AD
  8
SAPA_PROFIL
 62
     4
 10
64.200000093187484
 20
114.32224800998441
 30
0.0
  0
VERTEX
  5
19AE
  8
SAPA_PROFIL
 62
     4
 10
63.605255981516599
 20
114.66562368295661
 30
0.0
 42
0.1316524975869772
  0
VERTEX
  5
19AF
  8
SAPA_PROFIL
 62
     4
 10
63.00525598151323
 20
114.82639319841709
 30
0.0
  0
VERTEX
  5
19B0
  8
SAPA_PROFIL
 62
     4
 10
62.0533916486268
 20
114.8263931984168
 30
0.0
 42
-0.3152987888780149
  0
VERTEX
  5
19B1
  8
SAPA_PROFIL
 62
     4
 10
61.113699027855297
 20
115.4843730550912
 30
0.0
  0
VERTEX
  5
19B2
  8
SAPA_PROFIL
 62
     4
 10
60.322585002945452
 20
117.6579409747449
 30
0.0
 42
0.3152987888779391
  0
VERTEX
  5
19B3
  8
SAPA_PROFIL
 62
     4
 10
59.946707954630917
 20
117.92113291741499
 30
0.0
  0
VERTEX
  5
19B4
  8
SAPA_PROFIL
 62
     4
 10
51.000000093187488
 20
117.92113291741499
 30
0.0
  0
VERTEX
  5
19B5
  8
SAPA_PROFIL
 62
     4
 10
42.05329223174401
 20
117.92113291741509
 30
0.0
 42
0.3152987888779318
  0
VERTEX
  5
19B6
  8
SAPA_PROFIL
 62
     4
 10
41.677415183430853
 20
117.6579409747487
 30
0.0
  0
VERTEX
  5
19B7
  8
SAPA_PROFIL
 62
     4
 10
40.886301158519743
 20
115.4843730550915
 30
0.0
 42
-0.3152987888779361
  0
VERTEX
  5
19B8
  8
SAPA_PROFIL
 62
     4
 10
39.94660853771915
 20
114.82639319841709
 30
0.0
  0
VERTEX
  5
19B9
  8
SAPA_PROFIL
 62
     4
 10
38.994744204861647
 20
114.82639319841709
 30
0.0
 42
0.1316524975869766
  0
VERTEX
  5
19BA
  8
SAPA_PROFIL
 62
     4
 10
38.394744204868438
 20
114.6656236829624
 30
0.0
  0
VERTEX
  5
19BB
  8
SAPA_PROFIL
 62
     4
 10
37.807179770159948
 20
114.32639319841719
 30
0.0
  0
VERTEX
  5
19BC
  8
SAPA_PROFIL
 62
     4
 10
36.816679955208024
 20
113.7545278636225
 30
0.0
 42
-0.1316524975869832
  0
VERTEX
  5
19BD
  8
SAPA_PROFIL
 62
     4
 10
36.711679955204929
 20
113.7263931984172
 30
0.0
  0
VERTEX
  5
19BE
  8
SAPA_PROFIL
 62
     4
 10
36.400000093187423
 20
113.7263931984172
 30
0.0
 42
-0.414213562371655
  0
VERTEX
  5
19BF
  8
SAPA_PROFIL
 62
     4
 10
36.000000093187438
 20
114.1263931984211
 30
0.0
  0
VERTEX
  5
19C0
  8
SAPA_PROFIL
 62
     4
 10
36.000000093187438
 20
117.5263931984172
 30
0.0
 42
-0.4142135623716633
  0
VERTEX
  5
19C1
  8
SAPA_PROFIL
 62
     4
 10
36.400000093189462
 20
117.9263931984172
 30
0.0
  0
VERTEX
  5
19C2
  8
SAPA_PROFIL
 62
     4
 10
36.711679955208112
 20
117.9263931984172
 30
0.0
 42
-0.1316524975869709
  0
VERTEX
  5
19C3
  8
SAPA_PROFIL
 62
     4
 10
36.816679955208699
 20
117.8982585332116
 30
0.0
  0
VERTEX
  5
19C4
  8
SAPA_PROFIL
 62
     4
 10
38.131136966653699
 20
117.1343923039308
 30
0.0
  0
VERTEX
  5
19C5
  8
SAPA_PROFIL
 62
     4
 10
38.131136966653813
 20
116.86727777571789
 30
0.0
 42
0.5773502691889269
  0
VERTEX
  5
19C6
  8
SAPA_PROFIL
 62
     4
 10
38.446136966653533
 20
116.6854124409231
 30
0.0
  0
VERTEX
  5
19C7
  8
SAPA_PROFIL
 62
     4
 10
38.68632003143582
 20
116.8240821980296
 30
0.0
 42
0.015792390685586
  0
SEQEND
  5
19C8
  8
SAPA_PROFIL
 62
     4
  0
POLYLINE
  5
100E
  8
SAPA_PROFIL
 66
     1
 10
0.0
 20
0.0
 30
0.0
 70
     1
  0
VERTEX
  5
19C9
  8
SAPA_PROFIL
 10
66.000000093187481
 20
77.245737407761297
 30
0.0
 42
0.2134217652834387
  0
VERTEX
  5
19CA
  8
SAPA_PROFIL
 10
66.100000093187617
 20
77.022130610011189
 30
0.0
 42
-0.7625858545243283
  0
VERTEX
  5
19CB
  8
SAPA_PROFIL
 10
65.915420890990134
 20
76.691804528994169
 30
0.0
  0
VERTEX
  5
19CC
  8
SAPA_PROFIL
 10
65.724037890996414
 20
76.749878165983262
 30
0.0
  0
VERTEX
  5
19CD
  8
SAPA_PROFIL
 10
63.838194199135351
 20
77.834442612955002
 30
0.0
  0
VERTEX
  5
19CE
  8
SAPA_PROFIL
 10
63.848755565362339
 20
78.15620034117326
 30
0.0
 42
0.5773502691897439
  0
VERTEX
  5
19CF
  8
SAPA_PROFIL
 10
63.554599265107498
 20
78.339154081283425
 30
0.0
  0
VERTEX
  5
19D0
  8
SAPA_PROFIL
 10
63.269916981875852
 20
78.187020170174677
 30
0.0
 42
0.2216946626430187
  0
VERTEX
  5
19D1
  8
SAPA_PROFIL
 10
62.864108076721067
 20
77.646140338697876
 30
0.0
  0
VERTEX
  5
19D2
  8
SAPA_PROFIL
 10
62.48266148059335
 20
75.832909868039636
 30
0.0
 42
0.4769755326981641
  0
VERTEX
  5
19D3
  8
SAPA_PROFIL
 10
62.784914305099818
 20
75.461252993093751
 30
0.0
  0
VERTEX
  5
19D4
  8
SAPA_PROFIL
 10
64.288015385861826
 20
75.461336600977404
 30
0.0
  0
VERTEX
  5
19D5
  8
SAPA_PROFIL
 10
64.302533795108928
 20
75.509182350975891
 30
0.0
 42
-0.4142135623730948
  0
VERTEX
  5
19D6
  8
SAPA_PROFIL
 10
64.67671875058474
 20
75.709146395483288
 30
0.0
  0
VERTEX
  5
19D7
  8
SAPA_PROFIL
 10
65.994016426819954
 20
75.199999996172323
 30
0.0
  0
VERTEX
  5
19D8
  8
SAPA_PROFIL
 10
68.99028334126713
 20
75.199999996172352
 30
0.0
 42
0.2562769736732679
  0
VERTEX
  5
19D9
  8
SAPA_PROFIL
 10
69.158955845478488
 20
75.292530994487819
 30
0.0
  0
VERTEX
  5
19DA
  8
SAPA_PROFIL
 10
69.953008851654943
 20
76.538796493645535
 30
0.0
 42
0.5920056181179401
  0
VERTEX
  5
19DB
  8
SAPA_PROFIL
 10
69.700000095337998
 20
76.999999996172207
 30
0.0
  0
VERTEX
  5
19DC
  8
SAPA_PROFIL
 10
68.300000095338007
 20
76.999999996172207
 30
0.0
 42
-0.4142135623729876
  0
VERTEX
  5
19DD
  8
SAPA_PROFIL
 10
68.000000095337924
 20
77.29999999617219
 30
0.0
  0
VERTEX
  5
19DE
  8
SAPA_PROFIL
 10
68.000000095337995
 20
79.699999996172195
 30
0.0
 42
-0.4142135623730951
  0
VERTEX
  5
19DF
  8
SAPA_PROFIL
 10
68.300000095338007
 20
79.999999996172207
 30
0.0
  0
VERTEX
  5
19E0
  8
SAPA_PROFIL
 10
85.700000095338012
 20
79.999999996172207
 30
0.0
 42
-0.414213562373088
  0
VERTEX
  5
19E1
  8
SAPA_PROFIL
 10
86.000000095337995
 20
79.699999996172195
 30
0.0
  0
VERTEX
  5
19E2
  8
SAPA_PROFIL
 10
86.000000095337995
 20
77.29999999617219
 30
0.0
 42
-0.4142135623730882
  0
VERTEX
  5
19E3
  8
SAPA_PROFIL
 10
85.700000095338012
 20
76.999999996172207
 30
0.0
  0
VERTEX
  5
19E4
  8
SAPA_PROFIL
 10
84.300000095338007
 20
76.999999996172221
 30
0.0
 42
0.5877032589249568
  0
VERTEX
  5
19E5
  8
SAPA_PROFIL
 10
84.044953878027911
 20
76.542039789044495
 30
0.0
  0
VERTEX
  5
19E6
  8
SAPA_PROFIL
 10
84.941352855270196
 20
75.094693191420433
 30
0.0
 42
0.2596812337300067
  0
VERTEX
  5
19E7
  8
SAPA_PROFIL
 10
85.111383666810227
 20
74.999999996172306
 30
0.0
  0
VERTEX
  5
19E8
  8
SAPA_PROFIL
 10
87.700000100169618
 20
74.999999996172292
 30
0.0
 42
0.414213562373081
  0
VERTEX
  5
19E9
  8
SAPA_PROFIL
 10
88.000000100169615
 20
75.299999996172289
 30
0.0
  0
VERTEX
  5
19EA
  8
SAPA_PROFIL
 10
88.000000100169615
 20
119.6999999961722
 30
0.0
 42
0.4142135623730811
  0
VERTEX
  5
19EB
  8
SAPA_PROFIL
 10
87.700000100169618
 20
119.99999999617221
 30
0.0
  0
VERTEX
  5
19EC
  8
SAPA_PROFIL
 10
85.111383661978607
 20
119.99999999617221
 30
0.0
 42
0.2596812337301466
  0
VERTEX
  5
19ED
  8
SAPA_PROFIL
 10
84.941352850438506
 20
119.90530680092409
 30
0.0
  0
VERTEX
  5
19EE
  8
SAPA_PROFIL
 10
84.044953873196306
 20
118.4579602032999
 30
0.0
 42
0.5877032589248845
  0
VERTEX
  5
19EF
  8
SAPA_PROFIL
 10
84.300000090506416
 20
117.99999999617231
 30
0.0
  0
VERTEX
  5
19F0
  8
SAPA_PROFIL
 10
85.700000090506407
 20
117.99999999617221
 30
0.0
 42
-0.4142135623732062
  0
VERTEX
  5
19F1
  8
SAPA_PROFIL
 10
86.000000090506305
 20
117.6999999961722
 30
0.0
  0
VERTEX
  5
19F2
  8
SAPA_PROFIL
 10
86.000000090506504
 20
115.2999999961722
 30
0.0
 42
-0.4142135623730948
  0
VERTEX
  5
19F3
  8
SAPA_PROFIL
 10
85.700000090506407
 20
114.99999999617231
 30
0.0
  0
VERTEX
  5
19F4
  8
SAPA_PROFIL
 10
68.300000090506401
 20
114.99999999617221
 30
0.0
 42
-0.4142135623730118
  0
VERTEX
  5
19F5
  8
SAPA_PROFIL
 10
68.000000090506475
 20
115.2999999961722
 30
0.0
  0
VERTEX
  5
19F6
  8
SAPA_PROFIL
 10
68.000000090506404
 20
117.6999999961722
 30
0.0
 42
-0.4142135623730951
  0
VERTEX
  5
19F7
  8
SAPA_PROFIL
 10
68.300000090506401
 20
117.99999999617221
 30
0.0
  0
VERTEX
  5
19F8
  8
SAPA_PROFIL
 10
69.700000090506393
 20
117.99999999617231
 30
0.0
 42
0.5920056172513317
  0
VERTEX
  5
19F9
  8
SAPA_PROFIL
 10
69.9530088472372
 20
118.4612034980497
 30
0.0
  0
VERTEX
  5
19FA
  8
SAPA_PROFIL
 10
69.158955845420238
 20
119.7074689974238
 30
0.0
 42
0.2562769743570819
  0
VERTEX
  5
19FB
  8
SAPA_PROFIL
 10
68.990283340933033
 20
119.7999999961722
 30
0.0
  0
VERTEX
  5
19FC
  8
SAPA_PROFIL
 10
65.994016426820252
 20
119.7999999961722
 30
0.0
  0
VERTEX
  5
19FD
  8
SAPA_PROFIL
 10
64.676718750584683
 20
119.2908535968611
 30
0.0
 42
-0.414213562373094
  0
VERTEX
  5
19FE
  8
SAPA_PROFIL
 10
64.302533795108872
 20
119.49081764136849
 30
0.0
  0
VERTEX
  5
19FF
  8
SAPA_PROFIL
 10
64.288015385861769
 20
119.538663391367
 30
0.0
  0
VERTEX
  5
1A00
  8
SAPA_PROFIL
 10
62.784914305099761
 20
119.53874699925061
 30
0.0
 42
0.4769755326981644
  0
VERTEX
  5
1A01
  8
SAPA_PROFIL
 10
62.482661480593293
 20
119.16709012430471
 30
0.0
  0
VERTEX
  5
1A02
  8
SAPA_PROFIL
 10
62.86410807672101
 20
117.3538596536465
 30
0.0
 42
0.2216946626430193
  0
VERTEX
  5
1A03
  8
SAPA_PROFIL
 10
63.269916981875809
 20
116.81297982216969
 30
0.0
  0
VERTEX
  5
1A04
  8
SAPA_PROFIL
 10
63.554599265107463
 20
116.6608459110609
 30
0.0
 42
0.577350269189744
  0
VERTEX
  5
1A05
  8
SAPA_PROFIL
 10
63.848755565362261
 20
116.8437996511711
 30
0.0
  0
VERTEX
  5
1A06
  8
SAPA_PROFIL
 10
63.838194199135302
 20
117.1655573793894
 30
0.0
  0
VERTEX
  5
1A07
  8
SAPA_PROFIL
 10
65.724037890996357
 20
118.2501218263611
 30
0.0
  0
VERTEX
  5
1A08
  8
SAPA_PROFIL
 10
65.915420890990063
 20
118.3081954633502
 30
0.0
 42
-0.7625858545243295
  0
VERTEX
  5
1A09
  8
SAPA_PROFIL
 10
66.10000009318756
 20
117.9778693823332
 30
0.0
 42
0.2134217652834391
  0
VERTEX
  5
1A0A
  8
SAPA_PROFIL
 10
66.000000093187424
 20
117.7542625845831
 30
0.0
  0
VERTEX
  5
1A0B
  8
SAPA_PROFIL
 10
66.000000093187424
 20
113.90147618008309
 30
0.0
 42
-0.4142135623730049
  0
VERTEX
  5
1A0C
  8
SAPA_PROFIL
 10
65.700000093187384
 20
113.6014761800832
 30
0.0
  0
VERTEX
  5
1A0D
  8
SAPA_PROFIL
 10
65.400000093187302
 20
113.6014761800831
 30
0.0
  0
VERTEX
  5
1A0E
  8
SAPA_PROFIL
 10
63.800000093187393
 20
114.52523661078649
 30
0.0
 42
0.577350269189614
  0
VERTEX
  5
1A0F
  8
SAPA_PROFIL
 10
63.50000009318741
 20
114.35203153002961
 30
0.0
  0
VERTEX
  5
1A10
  8
SAPA_PROFIL
 10
63.50000009318741
 20
112.9663908839745
 30
0.0
 42
0.2679491924311176
  0
VERTEX
  5
1A11
  8
SAPA_PROFIL
 10
64.000000093187424
 20
112.10036548019011
 30
0.0
  0
VERTEX
  5
1A12
  8
SAPA_PROFIL
 10
65.750000090574503
 20
111.0900025106167
 30
0.0
 42
-0.2679491924311136
  0
VERTEX
  5
1A13
  8
SAPA_PROFIL
 10
66.000000090574488
 20
110.6569898087245
 30
0.0
  0
VERTEX
  5
1A14
  8
SAPA_PROFIL
 10
66.000000090574488
 20
84.343010183619825
 30
0.0
 42
-0.2679491924311212
  0
VERTEX
  5
1A15
  8
SAPA_PROFIL
 10
65.750000090574488
 20
83.909997481727629
 30
0.0
  0
VERTEX
  5
1A16
  8
SAPA_PROFIL
 10
64.000000093187424
 20
82.899634512154407
 30
0.0
 42
0.2679491924311269
  0
VERTEX
  5
1A17
  8
SAPA_PROFIL
 10
63.50000009318741
 20
82.03360910836993
 30
0.0
  0
VERTEX
  5
1A18
  8
SAPA_PROFIL
 10
63.50000009318741
 20
80.647968462314907
 30
0.0
 42
0.5773502691898932
  0
VERTEX
  5
1A19
  8
SAPA_PROFIL
 10
63.800000093187393
 20
80.474763381558006
 30
0.0
  0
VERTEX
  5
1A1A
  8
SAPA_PROFIL
 10
65.400000093187302
 20
81.398523812261317
 30
0.0
  0
VERTEX
  5
1A1B
  8
SAPA_PROFIL
 10
65.700000093187384
 20
81.398523812261317
 30
0.0
 42
-0.4142135623730916
  0
VERTEX
  5
1A1C
  8
SAPA_PROFIL
 10
66.000000093187424
 20
81.098523812261305
 30
0.0
  0
SEQEND
  5
1A1D
  8
SAPA_PROFIL
  0
POLYLINE
  5
100F
  8
SAPA_PROFIL
 66
     1
 10
0.0
 20
0.0
 30
0.0
 70
     1
  0
VERTEX
  5
1A1E
  8
SAPA_PROFIL
 10
85.700000100169504
 20
110.99999999617221
 30
0.0
  0
VERTEX
  5
1A1F
  8
SAPA_PROFIL
 10
85.700000100169518
 20
109.5999999961722
 30
0.0
 42
0.4142135623731021
  0
VERTEX
  5
1A20
  8
SAPA_PROFIL
 10
86.000000100169501
 20
109.2999999961722
 30
0.0
  0
VERTEX
  5
1A21
  8
SAPA_PROFIL
 10
86.100000100169495
 20
109.2999999961722
 30
0.0
 42
-0.4142135623730847
  0
VERTEX
  5
1A22
  8
SAPA_PROFIL
 10
86.300000100169513
 20
109.0999999961722
 30
0.0
  0
VERTEX
  5
1A23
  8
SAPA_PROFIL
 10
86.300000100169513
 20
85.899999996172298
 30
0.0
 42
-0.41421356237309
  0
VERTEX
  5
1A24
  8
SAPA_PROFIL
 10
86.100000100169495
 20
85.699999996172295
 30
0.0
  0
VERTEX
  5
1A25
  8
SAPA_PROFIL
 10
86.000000100169501
 20
85.699999996172181
 30
0.0
 42
0.4142135623731055
  0
VERTEX
  5
1A26
  8
SAPA_PROFIL
 10
85.700000100169504
 20
85.399999996172184
 30
0.0
  0
VERTEX
  5
1A27
  8
SAPA_PROFIL
 10
85.700000100169504
 20
83.999999996172306
 30
0.0
 42
0.4142135623731991
  0
VERTEX
  5
1A28
  8
SAPA_PROFIL
 10
86.000000100169501
 20
83.699999996172195
 30
0.0
  0
VERTEX
  5
1A29
  8
SAPA_PROFIL
 10
86.100000100169495
 20
83.699999996172195
 30
0.0
 42
-0.4142135623730898
  0
VERTEX
  5
1A2A
  8
SAPA_PROFIL
 10
86.300000100169399
 20
83.499999996172278
 30
0.0
  0
VERTEX
  5
1A2B
  8
SAPA_PROFIL
 10
86.300000100169598
 20
81.999999996172306
 30
0.0
 42
-0.4142135623731019
  0
VERTEX
  5
1A2C
  8
SAPA_PROFIL
 10
86.000000100169615
 20
81.699999996172295
 30
0.0
  0
VERTEX
  5
1A2D
  8
SAPA_PROFIL
 10
68.0000000964028
 20
81.699999996172295
 30
0.0
 42
-0.4142135623730951
  0
VERTEX
  5
1A2E
  8
SAPA_PROFIL
 10
67.700000096402803
 20
81.999999996172306
 30
0.0
  0
VERTEX
  5
1A2F
  8
SAPA_PROFIL
 10
67.700000096402803
 20
83.499999996172193
 30
0.0
 42
-0.4142135623730795
  0
VERTEX
  5
1A30
  8
SAPA_PROFIL
 10
67.900000096402707
 20
83.699999996172266
 30
0.0
  0
VERTEX
  5
1A31
  8
SAPA_PROFIL
 10
68.000000095449138
 20
83.699999996172195
 30
0.0
 42
0.4142135624945151
  0
VERTEX
  5
1A32
  8
SAPA_PROFIL
 10
68.30000009544915
 20
83.999999996296566
 30
0.0
  0
VERTEX
  5
1A33
  8
SAPA_PROFIL
 10
68.30000009486875
 20
85.399999996296572
 30
0.0
 42
0.414213562251668
  0
VERTEX
  5
1A34
  8
SAPA_PROFIL
 10
68.000000094868753
 20
85.699999996172181
 30
0.0
  0
VERTEX
  5
1A35
  8
SAPA_PROFIL
 10
67.900000096240788
 20
85.699999996172181
 30
0.0
 42
-0.4142135621360074
  0
VERTEX
  5
1A36
  8
SAPA_PROFIL
 10
67.700000096240657
 20
85.899999996010393
 30
0.0
  0
VERTEX
  5
1A37
  8
SAPA_PROFIL
 10
67.700000089765311
 20
109.0999999960103
 30
0.0
 42
-0.4142135626101672
  0
VERTEX
  5
1A38
  8
SAPA_PROFIL
 10
67.900000089765285
 20
109.2999999961722
 30
0.0
  0
VERTEX
  5
1A39
  8
SAPA_PROFIL
 10
68.000000091137423
 20
109.2999999961722
 30
0.0
 42
0.4142135624945428
  0
VERTEX
  5
1A3A
  8
SAPA_PROFIL
 10
68.300000091137434
 20
109.5999999962966
 30
0.0
  0
VERTEX
  5
1A3B
  8
SAPA_PROFIL
 10
68.300000090556964
 20
110.99999999629659
 30
0.0
 42
0.4142135622516402
  0
VERTEX
  5
1A3C
  8
SAPA_PROFIL
 10
68.000000090556952
 20
111.2999999961722
 30
0.0
  0
VERTEX
  5
1A3D
  8
SAPA_PROFIL
 10
67.900000090354297
 20
111.2999999961722
 30
0.0
 42
-0.414213562258404
  0
VERTEX
  5
1A3E
  8
SAPA_PROFIL
 10
67.700000090354294
 20
111.4999999960939
 30
0.0
  0
VERTEX
  5
1A3F
  8
SAPA_PROFIL
 10
67.700000089730281
 20
112.99999999604741
 30
0.0
 42
-0.4142135624949383
  0
VERTEX
  5
1A40
  8
SAPA_PROFIL
 10
68.000000089730293
 20
113.2999999961722
 30
0.0
  0
VERTEX
  5
1A41
  8
SAPA_PROFIL
 10
86.000000100169544
 20
113.2999999961722
 30
0.0
 42
-0.4142135623730882
  0
VERTEX
  5
1A42
  8
SAPA_PROFIL
 10
86.300000100169513
 20
112.99999999617221
 30
0.0
  0
VERTEX
  5
1A43
  8
SAPA_PROFIL
 10
86.300000100169626
 20
111.49999999617221
 30
0.0
 42
-0.4142135623730847
  0
VERTEX
  5
1A44
  8
SAPA_PROFIL
 10
86.100000100169595
 20
111.2999999961722
 30
0.0
  0
VERTEX
  5
1A45
  8
SAPA_PROFIL
 10
86.000000100169501
 20
111.2999999961722
 30
0.0
 42
0.4142135623730881
  0
SEQEND
  5
1A46
  8
SAPA_PROFIL
  0
POLYLINE
  5
1010
  8
SAPA_PROFIL
 62
     2
 66
     1
 10
0.0
 20
0.0
 30
0.0
  0
VERTEX
  5
1A47
  8
SAPA_PROFIL
 62
     2
 10
19.300000093401248
 20
147.73840761905751
 30
0.0
  0
VERTEX
  5
1A48
  8
SAPA_PROFIL
 62
     2
 10
18.209081283248508
 20
147.9307660390499
 30
0.0
  0
VERTEX
  5
1A49
  8
SAPA_PROFIL
 62
     2
 10
18.093381743728571
 20
147.49896947914829
 30
0.0
 42
-0.4430158954262519
  0
VERTEX
  5
1A4A
  8
SAPA_PROFIL
 62
     2
 10
17.829905315621598
 20
147.36349243160419
 30
0.0
  0
VERTEX
  5
1A4B
  8
SAPA_PROFIL
 62
     2
 10
16.559417567703399
 20
147.84044062482309
 30
0.0
 42
-0.3125358528825162
  0
VERTEX
  5
1A4C
  8
SAPA_PROFIL
 62
     2
 10
16.30000009340171
 20
148.21492233795249
 30
0.0
  0
VERTEX
  5
1A4D
  8
SAPA_PROFIL
 62
     2
 10
16.300000093401248
 20
150.08507765386281
 30
0.0
 42
-0.3125358528825104
  0
VERTEX
  5
1A4E
  8
SAPA_PROFIL
 62
     2
 10
16.559417567703399
 20
150.45955936699221
 30
0.0
  0
VERTEX
  5
1A4F
  8
SAPA_PROFIL
 62
     2
 10
17.829905315621598
 20
150.9365075602114
 30
0.0
 42
-0.4430158954262519
  0
VERTEX
  5
1A50
  8
SAPA_PROFIL
 62
     2
 10
18.093381743728461
 20
150.8010305126673
 30
0.0
  0
VERTEX
  5
1A51
  8
SAPA_PROFIL
 62
     2
 10
18.209081283248508
 20
150.36923395276551
 30
0.0
  0
VERTEX
  5
1A52
  8
SAPA_PROFIL
 62
     2
 10
19.300000093401248
 20
150.5614999959077
 30
0.0
  0
SEQEND
  5
1A53
  8
SAPA_PROFIL
 62
     2
  0
POLYLINE
  5
1011
  8
SAPA_PROFIL
 62
     2
 66
     1
 10
0.0
 20
0.0
 30
0.0
 70
     1
  0
VERTEX
  5
1A54
  8
SAPA_PROFIL
 62
     2
 10
19.300000093401248
 20
147.74999999590781
 30
0.0
 42
0.285714285714282
  0
VERTEX
  5
1A55
  8
SAPA_PROFIL
 62
     2
 10
19.300000093401248
 20
150.5499999959078
 30
0.0
  0
VERTEX
  5
1A56
  8
SAPA_PROFIL
 62
     2
 10
19.30000009340171
 20
152.62378016529561
 30
0.0
 42
-0.3882600129940275
  0
VERTEX
  5
1A57
  8
SAPA_PROFIL
 62
     2
 10
19.573210819681261
 20
152.9225816626371
 30
0.0
  0
VERTEX
  5
1A58
  8
SAPA_PROFIL
 62
     2
 10
23.473210819681359
 20
153.38879158656351
 30
0.0
 42
-0.4406523138893894
  0
VERTEX
  5
1A59
  8
SAPA_PROFIL
 62
     2
 10
23.800000093401248
 20
153.08999008922169
 30
0.0
  0
VERTEX
  5
1A5A
  8
SAPA_PROFIL
 62
     2
 10
23.800000093401248
 20
151.38019809230141
 30
0.0
 42
-0.3394542588634375
  0
VERTEX
  5
1A5B
  8
SAPA_PROFIL
 62
     2
 10
23.577645806932249
 20
151.09042034441481
 30
0.0
  0
VERTEX
  5
1A5C
  8
SAPA_PROFIL
 62
     2
 10
23.36006002476466
 20
150.88804061648341
 30
0.0
 42
0.3394542588633663
  0
VERTEX
  5
1A5D
  8
SAPA_PROFIL
 62
     2
 10
23.137705738295661
 20
150.59826286859661
 30
0.0
  0
VERTEX
  5
1A5E
  8
SAPA_PROFIL
 62
     2
 10
23.137705738295661
 20
147.70173712321881
 30
0.0
 42
0.3394542588634373
  0
VERTEX
  5
1A5F
  8
SAPA_PROFIL
 62
     2
 10
23.36006002476466
 20
147.4119593753322
 30
0.0
  0
VERTEX
  5
1A60
  8
SAPA_PROFIL
 62
     2
 10
23.577645806932249
 20
147.2095796474008
 30
0.0
 42
-0.3394542588633662
  0
VERTEX
  5
1A61
  8
SAPA_PROFIL
 62
     2
 10
23.800000093401248
 20
146.919801899514
 30
0.0
  0
VERTEX
  5
1A62
  8
SAPA_PROFIL
 62
     2
 10
23.800000093401248
 20
145.2100099025939
 30
0.0
 42
-0.4406523138893994
  0
VERTEX
  5
1A63
  8
SAPA_PROFIL
 62
     2
 10
23.473210819681359
 20
144.9112084052523
 30
0.0
  0
VERTEX
  5
1A64
  8
SAPA_PROFIL
 62
     2
 10
19.573210819681261
 20
145.37741832917851
 30
0.0
 42
-0.3882600129940462
  0
VERTEX
  5
1A65
  8
SAPA_PROFIL
 62
     2
 10
19.300000093401248
 20
145.67621982651991
 30
0.0
  0
VERTEX
  5
1A66
  8
SAPA_PROFIL
 62
     2
 10
19.300000093401248
 20
147.73840761905751
 30
0.0
  0
SEQEND
  5
1A67
  8
SAPA_PROFIL
 62
     2
  0
LINE
  5
101A
  8
SAPA_GLAS
 10
28.949999922547711
 20
-15.00000000000006
 30
0.0
 11
40.949999922547697
 21
-15.00000000000006
 31
0.0
  0
POLYLINE
  5
101B
  8
SAPA_GLAS
 66
     1
 10
0.0
 20
0.0
 30
0.0
  0
VERTEX
  5
1A6D
  8
SAPA_GLAS
 10
46.949999922547697
 20
-35.000000000000057
 30
0.0
  0
VERTEX
  5
1A6E
  8
SAPA_GLAS
 10
46.949999922547697
 20
-5.000000000000056
 30
0.0
  0
VERTEX
  5
1A6F
  8
SAPA_GLAS
 10
22.949999922547711
 20
-5.000000000000056
 30
0.0
  0
VERTEX
  5
1A70
  8
SAPA_GLAS
 10
22.949999922547711
 20
-35.000000000000057
 30
0.0
  0
SEQEND
  5
1A71
  8
SAPA_GLAS
  0
LINE
  5
101C
  8
SAPA_GLAS
 10
40.949999922547697
 20
-35.000000000000057
 30
0.0
 11
40.949999922547697
 21
-5.000000000000056
 31
0.0
  0
LINE
  5
101D
  8
SAPA_GLAS
 10
28.949999922547711
 20
-35.000000000000057
 30
0.0
 11
28.949999922547711
 21
-5.000000000000056
 31
0.0
  0
INSERT
  5
1027
  8
SAPA_FYLLNING
  6
CONTINUOUS
  2
*X103
 10
0.0
 20
0.0
 30
0.0
1001
ACAD
1000
HATCH
1002
{
1070
    19
1000
ANSI37
1040
0.25
1040
0.0
1000
R14_HATCH_DATA
1000
1027
1011
1.0
1021
0.0
1031
0.0
1021
0.0
1031
0.0
1011
0.0
1021
0.0
1031
0.0
1021
1.0
1031
0.0
1011
0.0
1021
0.0
1031
0.0
1021
0.0
1031
1.0
1040
0.0
1010
0.0
1020
0.0
1030
1.0
1000
ANSI37
1070
     0
1070
     0
1071
        1
1071
        7
1070
     1
1070
     1
1071
        7
1040
23.800000093401341
1040
187.05547054520329
1040
0.0
1040
23.66029277723781
1040
184.7502999397918
1040
0.0
1040
22.383272855305002
1040
184.11271691573509
1040
0.3394542588633754
1040
21.850152837667292
1040
183.0181188358039
1040
0.0
1040
23.164801976815301
1040
176.57470212751511
1040
0.0
1040
22.80183159694516
1040
170.58569114878929
1040
0.0
1040
23.800000093401341
1040
170.52519608547749
1040
0.0
1071
        0
1070
     0
1070
     1
1040
0.0
1040
0.25
1070
     0
1070
     2
1040
0.7853981633974483
1040
-0.0005703510446757
1040
89.999999996103924
1040
-0.5612660075668221
1040
0.5612660075668221
1070
     0
1040
2.3561944901923439
1040
-0.0005703510446757
1040
89.999999996103924
1040
-0.5612660075668221
1040
-0.5612660075668221
1070
     0
1040
0.0258300345760058
1071
        1
1040
22.990152516005502
1040
182.73309092612121
1040
0.0
1002
}
  0
INSERT
  5
1028
  8
SAPA_FYLLNING
  6
CONTINUOUS
  2
*X104
 10
0.0
 20
0.0
 30
0.0
1001
ACAD
1000
HATCH
1002
{
1070
    19
1000
HEX
1040
0.25
1040
-3.1415926535897931
1000
R14_HATCH_DATA
1000
1028
1011
1.0
1021
0.0
1031
0.0
1021
0.0
1031
0.0
1011
0.0
1021
0.0
1031
0.0
1021
1.0
1031
0.0
1011
0.0
1021
0.0
1031
0.0
1021
0.0
1031
1.0
1040
0.0
1010
0.0
1020
0.0
1030
1.0
1000
HEX
1070
     0
1070
     0
1071
        1
1071
        7
1070
     1
1070
     1
1071
        2
1040
223.80000009340191
1040
160.49999999608031
1040
1.0
1040
229.80000009340199
1040
160.49999999608031
1040
1.0
1071
        0
1070
     0
1070
     1
1040
-3.1415926535897931
1040
0.25
1070
     0
1070
     3
1040
6.2831853071795862
1040
99.999429648955328
1040
89.999999996103909
1040
0.0000000000000005
1040
1.374814999999999
1070
     2
1040
0.79375
1040
-1.587499999999999
1040
2.0943951023931939
1040
99.999429648955328
1040
89.999999996103909
1040
-1.1906247155039029
1040
-0.6874074999999992
1070
     2
1040
0.7937499999999998
1040
-1.587499999999999
1040
1.0471975511965961
1040
100.7931796489553
1040
89.999999996103909
1040
-1.190624715503902
1040
0.6874075000000005
1070
     2
1040
0.7937499999999998
1040
-1.587499999999999
1040
0.0216905703044498
1071
        1
1040
227.08657203602701
1040
160.56593617474209
1040
0.0
1002
}
  0
INSERT
  5
1029
  8
SAPA_FYLLNING
  6
CONTINUOUS
  2
*X105
 10
0.0
 20
0.0
 30
0.0
1001
ACAD
1000
HATCH
1002
{
1070
    19
1000
ANSI37
1040
0.25
1040
-3.1415926535897931
1000
R14_HATCH_DATA
1000
1029
1011
1.0
1021
0.0
1031
0.0
1021
0.0
1031
0.0
1011
0.0
1021
0.0
1031
0.0
1021
1.0
1031
0.0
1011
0.0
1021
0.0
1031
0.0
1021
0.0
1031
1.0
1040
0.0
1010
0.0
1020
0.0
1030
1.0
1000
ANSI37
1070
     0
1070
     0
1071
        1
1071
        7
1070
     1
1070
     1
1071
        9
1040
223.80000009340139
1040
167.02020179343151
1040
0.0
1040
223.80000009340139
1040
160.49999999607959
1040
-1.0
1040
229.80000009340159
1040
160.49999999607959
1040
0.0
1040
229.80000009340159
1040
162.08578643370279
1040
0.1989123673796868
1040
229.7121321277582
1040
162.29791846805861
1040
0.0
1040
229.44644670280869
1040
162.56360389300761
1040
-0.4142135623730951
1040
229.44644670280829
1040
163.27071067419419
1040
0.0
1040
231.08786805904489
1040
164.9121320304308
1040
-0.2679491924312271
1040
231.37764580693161
1040
164.98977774396189
1040
0.0
1071
        0
1070
     0
1070
     1
1040
-3.1415926535897931
1040
0.25
1070
     0
1070
     2
1040
0.7853981633974481
1040
99.999429648955328
1040
89.999999996103909
1040
-0.5612660075668218
1040
0.5612660075668224
1070
     0
1040
2.3561944901923439
1040
99.999429648955328
1040
89.999999996103909
1040
-0.5612660075668224
1040
-0.5612660075668218
1070
     0
1040
0.0212842410303403
1071
        1
1040
225.89878207328451
1040
165.04388522614249
1040
0.0
1002
}
  0
INSERT
  5
102A
  8
SAPA_FYLLNING
  6
CONTINUOUS
  2
*X106
 10
0.0
 20
0.0
 30
0.0
1001
ACAD
1000
HATCH
1002
{
1070
    19
1000
ANSI37
1040
0.25
1040
-3.1415926535897931
1000
R14_HATCH_DATA
1000
102A
1011
1.0
1021
0.0
1031
0.0
1021
0.0
1031
0.0
1011
0.0
1021
0.0
1031
0.0
1021
1.0
1031
0.0
1011
0.0
1021
0.0
1031
0.0
1021
0.0
1031
1.0
1040
0.0
1010
0.0
1020
0.0
1030
1.0
1000
ANSI37
1070
     0
1070
     0
1071
        1
1071
        7
1070
     1
1070
     1
1071
        7
1040
23.80000009340144
1040
167.5572751206779
1040
0.0
1040
14.221783935618401
1040
164.99079983626919
1040
-0.2679491924311903
1040
14.511561683505329
1040
164.91315412273829
1040
0.0
1040
15.55298303973748
1040
163.871732766506
1040
-0.198912367379658
1040
15.6994296491442
1040
163.51817937591281
1040
0.0
1040
15.699429649144131
1040
157.0237888960221
1040
-1.0
1040
23.80000009340144
1040
157.0237888960221
1040
0.0
1071
        0
1070
     0
1070
     1
1040
-3.1415926535897931
1040
0.25
1070
     0
1070
     2
1040
0.7853981633974481
1040
-0.0005703510447006
1040
89.999999996103924
1040
-0.5612660075668218
1040
0.5612660075668224
1070
     0
1040
2.3561944901923439
1040
-0.0005703510447006
1040
89.999999996103924
1040
-0.5612660075668224
1040
-0.5612660075668218
1070
     0
1040
0.0363322098761133
1071
        1
1040
20.705541344208111
1040
163.9258193842409
1040
0.0
1002
}
  0
INSERT
  5
102B
  8
SAPA_FYLLNING
  6
CONTINUOUS
  2
*X107
 10
0.0
 20
0.0
 30
0.0
1001
ACAD
1000
HATCH
1002
{
1070
    19
1000
HEX
1040
0.25
1040
-3.1415926535897931
1000
R14_HATCH_DATA
1000
102B
1011
1.0
1021
0.0
1031
0.0
1021
0.0
1031
0.0
1011
0.0
1021
0.0
1031
0.0
1021
1.0
1031
0.0
1011
0.0
1021
0.0
1031
0.0
1021
0.0
1031
1.0
1040
0.0
1010
0.0
1020
0.0
1030
1.0
1000
HEX
1070
     0
1070
     0
1071
        1
1071
        7
1070
     1
1070
     1
1071
        2
1040
15.69942964914404
1040
157.02378889602269
1040
1.0
1040
23.80000009340133
1040
157.02378889602269
1040
1.0
1071
        0
1070
     0
1070
     1
1040
-3.1415926535897931
1040
0.25
1070
     0
1070
     3
1040
6.2831853071795862
1040
-0.0005703510447006
1040
89.999999996103924
1040
0.0000000000000005
1040
1.374814999999999
1070
     2
1040
0.79375
1040
-1.587499999999999
1040
2.0943951023931939
1040
-0.0005703510447006
1040
89.999999996103924
1040
-1.1906247155039029
1040
-0.6874074999999992
1070
     2
1040
0.7937499999999998
1040
-1.587499999999999
1040
1.0471975511965961
1040
0.7931796489553024
1040
89.999999996103924
1040
-1.190624715503902
1040
0.6874075000000005
1070
     2
1040
0.7937499999999998
1040
-1.587499999999999
1040
0.0303180261480682
1071
        1
1040
19.925492530259561
1040
157.03537099361739
1040
0.0
1002
}
  0
INSERT
  5
1035
  8
SAPA_ISOLATOR
  6
CONTINUOUS
  2
*X113
 10
0.0
 20
0.0
 30
0.0
1001
ACAD
1000
HATCH
1002
{
1070
    19
1000
ANSI31
1040
0.35
1040
7.0685834705770336
1000
R14_HATCH_DATA
1000
1035
1011
1.0
1021
0.0
1031
0.0
1021
0.0
1031
0.0
1011
0.0
1021
0.0
1031
0.0
1021
1.0
1031
0.0
1011
0.0
1021
0.0
1031
0.0
1021
0.0
1031
1.0
1040
0.0
1010
0.0
1020
0.0
1030
1.0
1000
ANSI31
1070
     0
1070
     0
1071
        1
1071
        7
1070
     1
1070
     1
1071
       24
1040
38.997894089457994
1040
69.499999994368963
1040
-0.1309057172584691
1040
38.40094838554473
1040
69.659012085403106
1040
0.0
1040
36.76000008943209
1040
70.599999994316477
1040
0.0
1040
36.400000089431792
1040
70.59999999430795
1040
0.4142135623728775
1040
36.000000089441528
1040
70.199999994298423
1040
0.0
1040
36.000000089521279
1040
66.79999999429846
1040
0.4142135623731472
1040
36.400000089530813
1040
66.399999994307805
1040
0.0
1040
36.760000089531161
1040
66.399999994316445
1040
0.0
1040
38.141136962947712
1040
67.192000888784847
1040
0.0
1040
38.141136962947712
1040
67.459115416997875
1040
-0.5773502691895098
1040
38.456136962947433
1040
67.64098075179254
1040
0.0
1040
38.700322797695272
1040
67.499999994368991
1040
0.0
1040
63.29967738118507
1040
67.499999994368977
1040
0.0
1040
63.543863215932952
1040
67.640980751792426
1040
-0.5773502691896486
1040
63.858863215932672
1040
67.459115416997861
1040
0.0
1040
63.858863215932558
1040
67.192000888784833
1040
0.0
1040
65.240000089349337
1040
66.399999994316431
1040
0.0
1040
65.600000089349578
1040
66.399999994307905
1040
0.4142135623730794
1040
66.000000089359162
1040
66.799999994298446
1040
0.0
1040
66.000000089438913
1040
70.199999994298423
1040
0.4142135623729623
1040
65.600000089448542
1040
70.59999999430795
1040
0.0
1040
65.240000089448131
1040
70.599999994316477
1040
0.0
1040
63.599051793335718
1040
69.659012085403106
1040
-0.1309134860018382
1040
63.002069427737467
1040
69.499999994928999
1040
0.0
1071
        0
1070
     0
1070
     1
1040
7.0685834705770336
1040
0.35
1070
     0
1070
     1
1040
1.5707963267948959
1040
90.015999475788135
1040
35.57177712366417
1040
-1.111249999999999
1040
0.0000000000000004
1070
     0
1040
0.1003283970076292
1071
        1
1040
51.534434692314719
1040
68.714936212715955
1040
0.0
1002
}
  0
INSERT
  5
1036
  8
SAPA_ISOLATOR
  6
CONTINUOUS
  2
*X114
 10
0.0
 20
0.0
 30
0.0
1001
ACAD
1000
HATCH
1002
{
1070
    19
1000
ANSI31
1040
0.35
1040
5.4977871437821371
1000
R14_HATCH_DATA
1000
1036
1011
1.0
1021
0.0
1031
0.0
1021
0.0
1031
0.0
1011
0.0
1021
0.0
1031
0.0
1021
1.0
1031
0.0
1011
0.0
1021
0.0
1031
0.0
1021
0.0
1031
1.0
1040
0.0
1010
0.0
1020
0.0
1030
1.0
1000
ANSI31
1070
     0
1070
     0
1071
        1
1071
        1
1071
       49
1070
     2
1040
39.036257501489608
1040
2.8725649693434931
1040
0.3006817060114675
1040
-1.5657379063807291
1040
-0.3498199254894492
1070
     0
1070
     1
1040
39.318728253029441
1040
2.975617202965565
1040
40.204205965900627
1040
0.5427871814215451
1070
     2
1040
40.580083014216761
1040
0.679595238754363
1040
0.400000000002539
1040
3.490658503993135
1040
4.7123889803853398
1070
     1
1070
     1
1040
40.580083014217017
1040
0.2795952387518242
1040
50.999999998931138
1040
0.279595238751855
1070
     1
1040
50.999999998931138
1040
0.279595238751855
1040
61.419916983649237
1040
0.2795952387519151
1070
     2
1040
61.419916983647497
1040
0.6795952387515646
1040
0.3999999999996488
1040
4.7123889803890684
1040
5.9341194567812998
1070
     1
1070
     1
1040
61.795794031961613
1040
0.5427871814216352
1040
62.681271744829779
1040
2.975617202957328
1070
     2
1040
62.963634316977199
1040
2.8727187600135879
1040
0.3005273892841634
1040
3.4910552070390422
1040
4.7076879318700922
1070
     0
1070
     2
1040
63.191810291915502
1040
-2.3874002465113349
1040
5.5653807064749881
1040
4.6711242502471872
1040
4.7342885622872561
1070
     0
1070
     1
1040
63.313680060682827
1040
3.1766459581372781
1040
63.553863125465107
1040
3.315315715243802
1070
     2
1040
63.658863125464819
1040
3.133450380448902
1040
0.2100000000000017
1040
4.188790204787975
1040
6.2831853071790738
1070
     0
1070
     1
1040
63.868863125464827
1040
3.1334503804490099
1040
63.868863125464941
1040
2.8663358522360962
1070
     1
1040
63.868863125464941
1040
2.8663358522360962
1040
64.199999998931133
1040
2.6701137864517981
1070
     1
1040
64.199999998931133
1040
2.6701137864517981
1040
65.183320136911647
1040
2.10246962295435
1070
     2
1040
65.288320136909917
1040
2.284334957747896
1040
0.209999999998109
1040
4.1887902047907026
1040
4.7123889803873293
1070
     1
1070
     1
1040
65.288320136910471
1040
2.0743349577497892
1040
65.599999998933043
1040
2.0743349577496759
1070
     2
1040
65.599999998934948
1040
2.4743349577458091
1040
0.3999999999961332
1040
4.7123889803799113
1040
6.2831853071900472
1070
     1
1070
     1
1040
65.999999998931088
1040
2.4743349577499938
1040
65.999999998931145
1040
5.8743349577497428
1070
     2
1040
65.599999998934081
1040
5.8743349577526534
1040
0.3999999999970676
1040
6.2831853071723121
1040
7.8539816339818991
1070
     1
1070
     1
1040
65.599999998931111
1040
6.2743349577497201
1040
65.288320136907444
1040
6.2743349577497201
1070
     2
1040
65.288320136909107
1040
6.064334957754772
1040
0.2099999999949489
1040
1.57079632680278
1040
2.0943951023994072
1070
     1
1070
     1
1040
65.183320136910496
1040
6.2462002925444766
1040
64.199999998931133
1040
5.6784801461824417
1070
     1
1040
64.199999998931133
1040
5.6784801461824417
1040
63.605255887260263
1040
5.3351044732103272
1070
     2
1040
63.005255887254137
1040
6.374334957760718
1040
1.2000000000109059
1040
1.047197551195963
1040
1.5707963267926159
1070
     0
1070
     1
1040
63.00525588725688
1040
5.174334957749811
1040
62.053391554370442
1040
5.1743349577500402
1070
     2
1040
62.053391554379459
1040
4.1743349577577868
1040
0.9999999999922533
1040
1.570796326803906
1040
2.7925268031964121
1070
     1
1070
     1
1040
61.113698933598961
1040
4.51635510107565
1040
60.322584908689088
1040
2.3427871814219592
1070
     2
1040
59.946707860373621
1040
2.4795952387532312
1040
0.4000000000013905
1040
0.3490658504002764
1040
1.5707963267925069
1070
     0
1070
     1
1040
59.946707860374573
1040
2.079595238751839
1040
50.999999998931138
1040
2.0795952387518359
1070
     1
1040
50.999999998931138
1040
2.0795952387518382
1040
42.053292137487659
1040
2.0795952387517791
1070
     2
1040
42.053292137486658
1040
2.4795952387503561
1040
0.3999999999985775
1040
1.570796326792411
1040
2.7925268031846149
1070
     0
1070
     1
1040
41.677415089174502
1040
2.3427871814182031
1040
40.886301064263392
1040
4.516355101075419
1070
     2
1040
39.946608443468243
1040
4.1743349577365381
1040
1.000000000013211
1040
6.632251157587703
1040
7.853981633979922
1070
     1
1070
     1
1040
39.9466084434628
1040
5.1743349577497488
1040
38.994744110605303
1040
5.1743349577497488
1070
     2
1040
38.994744110602298
1040
6.3743349577387756
1040
1.1999999999890261
1040
1.570796326792401
1040
2.094395102389051
1070
     0
1070
     1
1040
38.394744110612102
1040
5.335104473204467
1040
37.807179675903598
1040
5.674334957749692
1070
     1
1040
37.807179675903598
1040
5.6743349577496911
1040
36.816679860951673
1040
6.2462002925444136
1070
     2
1040
36.711679860949999
1040
6.0643349577432719
1040
0.2100000000063851
1040
7.3303828583845627
1040
7.8539816339812401
1070
     1
1070
     1
1040
36.711679860948578
1040
6.274334957749657
1040
36.399999998931058
1040
6.2743349577497138
1070
     2
1040
36.399999998934042
1040
5.874334957746763
1040
0.40000000000295
1040
1.5707963268023291
1040
3.141592653592308
1070
     1
1070
     1
1040
35.999999998931088
1040
5.8743349577457584
1040
35.999999998931088
1040
2.4743349577497029
1070
     2
1040
36.399999998933069
1040
2.4743349577517031
1040
0.4000000000019782
1040
3.1415926535947949
1040
4.7123889803848034
1070
     1
1070
     1
1040
36.399999998933112
1040
2.0743349577497261
1040
36.711679860951762
1040
2.0743349577497261
1070
     2
1040
36.711679860951293
1040
2.2843349577516339
1040
0.2100000000019078
1040
4.7123889803869421
1040
5.2359877559835688
1070
     1
1070
     1
1040
36.816679860952348
1040
2.1024696229553101
1040
38.131136872397349
1040
2.86633585223609
1070
     1
1040
38.131136872397349
1040
2.86633585223609
1040
38.131136872397462
1040
3.1334503804490041
1070
     2
1040
38.341136872397463
1040
3.133450380448898
1040
0.2100000000000017
1040
3.1415926535902998
1040
5.235987755981399
1070
     0
1070
     1
1040
38.446136872397183
1040
3.3153157152437971
1040
38.686319937179469
1040
3.1766459581372741
1070
     2
1040
38.808189705949871
1040
-2.3874002459538448
1040
5.5653807059176952
1040
4.6904893984793761
1040
4.7536537105194441
1070
     0
1071
        0
1070
     0
1070
     1
1040
5.4977871437821371
1040
0.35
1070
     0
1070
     1
1040
0.0
1040
0.0
1040
0.0
1040
0.0000000000000003
1040
1.111249999999999
1070
     0
1071
        1
1040
35.999999848115323
1040
0.2795950457316385
1040
0.0
1002
}
  0
INSERT
  5
1037
  8
SAPA_ISOLATOR
  6
CONTINUOUS
  2
*X115
 10
0.0
 20
0.0
 30
0.0
1001
ACAD
1000
HATCH
1002
{
1070
    19
1000
ANSI31
1040
0.35
1040
3.926990816987241
1000
R14_HATCH_DATA
1000
1037
1011
1.0
1021
0.0
1031
0.0
1021
0.0
1031
0.0
1011
0.0
1021
0.0
1031
0.0
1021
1.0
1031
0.0
1011
0.0
1021
0.0
1031
0.0
1021
0.0
1031
1.0
1040
0.0
1010
0.0
1020
0.0
1030
1.0
1000
ANSI31
1070
     0
1070
     0
1071
        1
1071
        7
1070
     1
1070
     1
1071
       24
1040
63.002105998954782
1040
47.52712136217928
1040
-0.1309057172584691
1040
63.599051702868039
1040
47.368109271145151
1040
0.0
1040
65.239999998980664
1040
46.42712136223178
1040
0.0
1040
65.599999998980977
1040
46.4271213622403
1040
0.4142135623728775
1040
65.999999998971234
1040
46.827121362249827
1040
0.0
1040
65.999999998891482
1040
50.227121362249797
1040
0.4142135623731472
1040
65.599999998881955
1040
50.627121362240459
1040
0.0
1040
65.239999998881601
1040
50.627121362231819
1040
0.0
1040
63.858863125465049
1040
49.835120467763417
1040
0.0
1040
63.858863125465049
1040
49.568005939550389
1040
-0.5773502691895098
1040
63.543863125465343
1040
49.386140604755717
1040
0.0
1040
63.299677290717497
1040
49.527121362179273
1040
0.0
1040
38.700322707227691
1040
49.527121362179287
1040
0.0
1040
38.45613687247981
1040
49.38614060475583
1040
-0.5773502691896486
1040
38.141136872480089
1040
49.56800593955041
1040
0.0
1040
38.14113687248021
1040
49.835120467763431
1040
0.0
1040
36.759999999063417
1040
50.627121362231833
1040
0.0
1040
36.399999999063191
1040
50.627121362240352
1040
0.4142135623730794
1040
35.9999999990536
1040
50.227121362249811
1040
0.0
1040
35.999999998973848
1040
46.827121362249827
1040
0.4142135623729623
1040
36.399999998964219
1040
46.4271213622403
1040
0.0
1040
36.759999998964616
1040
46.42712136223178
1040
0.0
1040
38.400948295077043
1040
47.368109271145151
1040
-0.1309134860018382
1040
38.997930660675287
1040
47.527121361619258
1040
0.0
1071
        0
1070
     0
1070
     1
1040
3.926990816987241
1040
0.35
1070
     0
1070
     1
1040
4.7123889803846888
1040
11.98400061262463
1040
81.455344232884102
1040
1.111249999999999
1040
-0.0000000000000005
1070
     0
1040
0.1003283970076292
1071
        1
1040
50.465565396098022
1040
48.312185143832302
1040
0.0
1002
}
  0
INSERT
  5
1038
  8
SAPA_ISOLATOR
  6
CONTINUOUS
  2
*X116
 10
0.0
 20
0.0
 30
0.0
1001
ACAD
1000
HATCH
1002
{
1070
    19
1000
ANSI31
1040
0.35
1040
5.4977871437821371
1000
R14_HATCH_DATA
1000
1038
1011
1.0
1021
0.0
1031
0.0
1021
0.0
1031
0.0
1011
0.0
1021
0.0
1031
0.0
1021
1.0
1031
0.0
1011
0.0
1021
0.0
1031
0.0
1021
0.0
1031
1.0
1040
0.0
1010
0.0
1020
0.0
1030
1.0
1000
ANSI31
1070
     0
1070
     0
1071
        1
1071
        1
1071
       49
1070
     2
1040
39.036257595745951
1040
77.871836805521326
1040
0.3006817060114675
1040
-1.5657379063807291
1040
-0.3498199254894492
1070
     0
1070
     1
1040
39.31872834728577
1040
77.974889039143392
1040
40.204206060156963
1040
75.542059017599371
1070
     2
1040
40.58008310847309
1040
75.678867074932185
1040
0.400000000002539
1040
3.490658503993135
1040
4.7123889803853398
1070
     1
1070
     1
1040
40.58008310847336
1040
75.27886707492965
1040
51.000000093187481
1040
75.278867074929664
1070
     1
1040
51.000000093187481
1040
75.278867074929664
1040
61.419917077905581
1040
75.278867074929735
1070
     2
1040
61.419917077903833
1040
75.678867074929386
1040
0.3999999999996488
1040
4.7123889803890684
1040
5.9341194567812998
1070
     1
1070
     1
1040
61.795794126217942
1040
75.542059017599456
1040
62.681271839086122
1040
77.974889039135149
1070
     2
1040
62.963634411233542
1040
77.871990596191395
1040
0.3005273892841634
1040
3.4910552070390422
1040
4.7076879318700922
1070
     0
1070
     2
1040
63.191810386171831
1040
72.611871589666492
1040
5.5653807064749881
1040
4.6711242502471872
1040
4.7342885622872561
1070
     0
1070
     1
1040
63.313680154939163
1040
78.175917794315112
1040
63.55386321972145
1040
78.314587551421639
1070
     2
1040
63.658863219721162
1040
78.132722216626732
1040
0.2100000000000017
1040
4.188790204787975
1040
6.2831853071790738
1070
     0
1070
     1
1040
63.86886321972117
1040
78.132722216626831
1040
63.86886321972127
1040
77.865607688413917
1070
     1
1040
63.86886321972127
1040
77.865607688413917
1040
64.200000093187469
1040
77.669385622629619
1070
     1
1040
64.200000093187469
1040
77.669385622629619
1040
65.183320231167983
1040
77.101741459132171
1070
     2
1040
65.288320231166253
1040
77.283606793925713
1040
0.209999999998109
1040
4.1887902047907026
1040
4.7123889803873293
1070
     1
1070
     1
1040
65.288320231166807
1040
77.07360679392761
1040
65.600000093189379
1040
77.073606793927496
1070
     2
1040
65.600000093191284
1040
77.473606793923636
1040
0.3999999999961332
1040
4.7123889803799113
1040
6.2831853071900472
1070
     1
1070
     1
1040
66.000000093187424
1040
77.473606793927814
1040
66.000000093187481
1040
80.873606793927564
1070
     2
1040
65.600000093190417
1040
80.873606793930477
1040
0.3999999999970676
1040
6.2831853071723121
1040
7.8539816339818991
1070
     1
1070
     1
1040
65.600000093187447
1040
81.273606793927542
1040
65.288320231163794
1040
81.273606793927542
1070
     2
1040
65.288320231165443
1040
81.063606793932607
1040
0.2099999999949489
1040
1.57079632680278
1040
2.0943951023994072
1070
     1
1070
     1
1040
65.183320231166846
1040
81.245472128722284
1040
64.200000093187469
1040
80.677751982360249
1070
     1
1040
64.200000093187469
1040
80.677751982360249
1040
63.605255981516592
1040
80.334376309388148
1070
     2
1040
63.00525598151048
1040
81.373606793938549
1040
1.2000000000109059
1040
1.047197551195963
1040
1.5707963267926159
1070
     0
1070
     1
1040
63.005255981513208
1040
80.173606793927647
1040
62.053391648626778
1040
80.173606793927846
1070
     2
1040
62.053391648635802
1040
79.173606793935619
1040
0.9999999999922533
1040
1.570796326803906
1040
2.7925268031964121
1070
     1
1070
     1
1040
61.11369902785529
1040
79.515626937253472
1040
60.322585002945431
1040
77.34205901759978
1070
     2
1040
59.946707954629957
1040
77.47886707493106
1040
0.4000000000013905
1040
0.3490658504002764
1040
1.5707963267925069
1070
     0
1070
     1
1040
59.946707954630909
1040
77.078867074929661
1040
51.000000093187481
1040
77.078867074929661
1070
     1
1040
51.000000093187481
1040
77.078867074929661
1040
42.053292231743988
1040
77.078867074929605
1070
     2
1040
42.053292231743001
1040
77.478867074928189
1040
0.3999999999985775
1040
1.570796326792411
1040
2.7925268031846149
1070
     0
1070
     1
1040
41.677415183430838
1040
77.342059017596029
1040
40.886301158519721
1040
79.515626937253245
1070
     2
1040
39.946608537724572
1040
79.173606793914345
1040
1.000000000013211
1040
6.632251157587703
1040
7.853981633979922
1070
     1
1070
     1
1040
39.946608537719129
1040
80.173606793927576
1040
38.994744204861632
1040
80.173606793927576
1070
     2
1040
38.994744204858641
1040
81.373606793916593
1040
1.1999999999890261
1040
1.570796326792401
1040
2.094395102389051
1070
     0
1070
     1
1040
38.394744204868431
1040
80.334376309382279
1040
37.807179770159927
1040
80.673606793927519
1070
     1
1040
37.807179770159927
1040
80.673606793927519
1040
36.816679955208002
1040
81.245472128722241
1070
     2
1040
36.711679955206328
1040
81.063606793921096
1040
0.2100000000063851
1040
7.3303828583845627
1040
7.8539816339812401
1070
     1
1070
     1
1040
36.711679955204907
1040
81.273606793927485
1040
36.400000093187401
1040
81.273606793927542
1070
     2
1040
36.400000093190371
1040
80.873606793924594
1040
0.40000000000295
1040
1.5707963268023291
1040
3.141592653592308
1070
     1
1070
     1
1040
36.000000093187431
1040
80.873606793923585
1040
36.000000093187431
1040
77.47360679392753
1070
     2
1040
36.400000093189412
1040
77.473606793929534
1040
0.4000000000019782
1040
3.1415926535947949
1040
4.7123889803848034
1070
     1
1070
     1
1040
36.400000093189448
1040
77.073606793927553
1040
36.711679955208098
1040
77.073606793927553
1070
     2
1040
36.711679955207622
1040
77.283606793929465
1040
0.2100000000019078
1040
4.7123889803869421
1040
5.2359877559835688
1070
     1
1070
     1
1040
36.816679955208677
1040
77.101741459133123
1040
38.131136966653678
1040
77.865607688413917
1070
     1
1040
38.131136966653678
1040
77.865607688413917
1040
38.131136966653798
1040
78.132722216626831
1070
     2
1040
38.341136966653799
1040
78.132722216626732
1040
0.2100000000000017
1040
3.1415926535902998
1040
5.235987755981399
1070
     0
1070
     1
1040
38.446136966653512
1040
78.314587551421624
1040
38.686320031435812
1040
78.175917794315083
1070
     2
1040
38.808189800206208
1040
72.611871590223984
1040
5.5653807059176952
1040
4.6904893984793761
1040
4.7536537105194441
1070
     0
1071
        0
1070
     0
1070
     1
1040
5.4977871437821371
1040
0.35
1070
     0
1070
     1
1040
0.0
1040
0.0
1040
0.0
1040
0.0000000000000003
1040
1.111249999999999
1070
     0
1071
        1
1040
35.999999942371659
1040
75.278866881909465
1040
0.0
1002
}
  0
INSERT
  5
1039
  8
SAPA_ISOLATOR
  6
CONTINUOUS
  2
*X117
 10
0.0
 20
0.0
 30
0.0
1001
ACAD
1000
HATCH
1002
{
1070
    19
1000
ANSI31
1040
0.35
1040
3.926990816987241
1000
R14_HATCH_DATA
1000
1039
1011
1.0
1021
0.0
1031
0.0
1021
0.0
1031
0.0
1011
0.0
1021
0.0
1031
0.0
1021
1.0
1031
0.0
1011
0.0
1021
0.0
1031
0.0
1021
0.0
1031
1.0
1040
0.0
1010
0.0
1020
0.0
1030
1.0
1000
ANSI31
1070
     0
1070
     0
1071
        1
1071
        1
1071
       49
1070
     2
1040
39.036257595745973
1040
117.1281631868234
1040
0.3006817060114675
1040
-1.5657379063807291
1040
-0.3498199254894492
1070
     1
1070
     1
1040
39.318728347285777
1040
117.02511095320131
1040
40.20420606015697
1040
119.4579409747453
1070
     2
1040
40.580083108473112
1040
119.3211329174125
1040
0.400000000002539
1040
3.490658503993135
1040
4.7123889803853398
1070
     0
1070
     1
1040
40.580083108473367
1040
119.7211329174151
1040
51.000000093187488
1040
119.72113291741501
1070
     1
1040
51.000000093187488
1040
119.72113291741501
1040
61.419917077905588
1040
119.72113291741501
1070
     2
1040
61.419917077903847
1040
119.3211329174153
1040
0.3999999999996488
1040
4.7123889803890684
1040
5.9341194567812998
1070
     0
1070
     1
1040
61.795794126217949
1040
119.4579409747452
1040
62.681271839086143
1040
117.02511095320951
1070
     2
1040
62.963634411233549
1040
117.1280093961533
1040
0.3005273892841634
1040
3.4910552070390422
1040
4.7076879318700922
1070
     1
1070
     2
1040
63.191810386171838
1040
122.38812840267821
1040
5.5653807064749881
1040
4.6711242502471872
1040
4.7342885622872561
1070
     1
1070
     1
1040
63.313680154939178
1040
116.8240821980296
1040
63.553863219721457
1040
116.6854124409231
1070
     2
1040
63.658863219721177
1040
116.86727777571799
1040
0.2100000000000017
1040
4.188790204787975
1040
6.2831853071790738
1070
     1
1070
     1
1040
63.86886321972117
1040
116.86727777571789
1040
63.868863219721291
1040
117.1343923039308
1070
     1
1040
63.868863219721291
1040
117.1343923039308
1040
64.200000093187484
1040
117.33061436971509
1070
     1
1040
64.200000093187484
1040
117.33061436971509
1040
65.183320231167997
1040
117.8982585332125
1070
     2
1040
65.288320231166267
1040
117.716393198419
1040
0.209999999998109
1040
4.1887902047907026
1040
4.7123889803873293
1070
     0
1070
     1
1040
65.288320231166821
1040
117.9263931984171
1040
65.600000093189394
1040
117.9263931984172
1070
     2
1040
65.600000093191312
1040
117.5263931984211
1040
0.3999999999961332
1040
4.7123889803799113
1040
6.2831853071900472
1070
     0
1070
     1
1040
66.000000093187438
1040
117.5263931984169
1040
66.000000093187495
1040
114.12639319841711
1070
     2
1040
65.600000093190431
1040
114.12639319841421
1040
0.3999999999970676
1040
6.2831853071723121
1040
7.8539816339818991
1070
     0
1070
     1
1040
65.600000093187461
1040
113.7263931984172
1040
65.288320231163809
1040
113.7263931984172
1070
     2
1040
65.288320231165471
1040
113.93639319841211
1040
0.2099999999949489
1040
1.57079632680278
1040
2.0943951023994072
1070
     0
1070
     1
1040
65.18332023116686
1040
113.7545278636224
1040
64.200000093187484
1040
114.32224800998441
1070
     1
1040
64.200000093187484
1040
114.32224800998441
1040
63.605255981516599
1040
114.66562368295661
1070
     2
1040
63.005255981510487
1040
113.62639319840611
1040
1.2000000000109059
1040
1.047197551195963
1040
1.5707963267926159
1070
     1
1070
     1
1040
63.00525598151323
1040
114.82639319841709
1040
62.0533916486268
1040
114.8263931984168
1070
     2
1040
62.053391648635802
1040
115.82639319840909
1040
0.9999999999922533
1040
1.570796326803906
1040
2.7925268031964121
1070
     0
1070
     1
1040
61.113699027855297
1040
115.4843730550912
1040
60.322585002945452
1040
117.6579409747449
1070
     2
1040
59.946707954629971
1040
117.5211329174136
1040
0.4000000000013905
1040
0.3490658504002764
1040
1.5707963267925069
1070
     1
1070
     1
1040
59.946707954630917
1040
117.92113291741499
1040
51.000000093187488
1040
117.92113291741499
1070
     1
1040
51.000000093187488
1040
117.92113291741499
1040
42.05329223174401
1040
117.92113291741509
1070
     2
1040
42.053292231743022
1040
117.52113291741649
1040
0.3999999999985775
1040
1.570796326792411
1040
2.7925268031846149
1070
     1
1070
     1
1040
41.677415183430853
1040
117.6579409747487
1040
40.886301158519743
1040
115.4843730550915
1070
     2
1040
39.946608537724579
1040
115.8263931984303
1040
1.000000000013211
1040
6.632251157587703
1040
7.853981633979922
1070
     0
1070
     1
1040
39.94660853771915
1040
114.82639319841709
1040
38.994744204861647
1040
114.82639319841709
1070
     2
1040
38.994744204858648
1040
113.6263931984281
1040
1.1999999999890261
1040
1.570796326792401
1040
2.094395102389051
1070
     1
1070
     1
1040
38.394744204868438
1040
114.6656236829624
1040
37.807179770159948
1040
114.32639319841719
1070
     1
1040
37.807179770159948
1040
114.32639319841719
1040
36.816679955208024
1040
113.7545278636225
1070
     2
1040
36.71167995520635
1040
113.9363931984236
1040
0.2100000000063851
1040
7.3303828583845627
1040
7.8539816339812401
1070
     0
1070
     1
1040
36.711679955204929
1040
113.7263931984172
1040
36.400000093187423
1040
113.7263931984172
1070
     2
1040
36.400000093190378
1040
114.1263931984201
1040
0.40000000000295
1040
1.5707963268023291
1040
3.141592653592308
1070
     0
1070
     1
1040
36.000000093187438
1040
114.1263931984211
1040
36.000000093187438
1040
117.5263931984172
1070
     2
1040
36.400000093189419
1040
117.52639319841521
1040
0.4000000000019782
1040
3.1415926535947949
1040
4.7123889803848034
1070
     0
1070
     1
1040
36.400000093189462
1040
117.9263931984172
1040
36.711679955208112
1040
117.9263931984172
1070
     2
1040
36.711679955207643
1040
117.7163931984152
1040
0.2100000000019078
1040
4.7123889803869421
1040
5.2359877559835688
1070
     0
1070
     1
1040
36.816679955208699
1040
117.8982585332116
1040
38.131136966653699
1040
117.1343923039308
1070
     1
1040
38.131136966653699
1040
117.1343923039308
1040
38.131136966653813
1040
116.86727777571789
1070
     2
1040
38.341136966653821
1040
116.86727777571799
1040
0.2100000000000017
1040
3.1415926535902998
1040
5.235987755981399
1070
     1
1070
     1
1040
38.446136966653533
1040
116.6854124409231
1040
38.68632003143582
1040
116.8240821980296
1070
     2
1040
38.808189800206222
1040
122.3881284021207
1040
5.5653807059176952
1040
4.6904893984793761
1040
4.7536537105194441
1070
     1
1071
        0
1070
     0
1070
     1
1040
3.926990816987241
1040
0.35
1070
     0
1070
     1
1040
4.7123889803846888
1040
35.99999994237168
1040
119.7211331104352
1040
1.111249999999999
1040
-0.0000000000000005
1070
     0
1071
        1
1040
35.99999994237168
1040
119.7211331104352
1040
0.0
1002
}
  0
CIRCLE
  5
104B
  8
SAPA_FOGBAND
 10
82.650080482904414
 20
63.466573513995961
 30
0.0000000195376815
 40
0.25
  0
POLYLINE
  5
104C
  8
SAPA_FOGBAND
 66
     1
 10
0.0
 20
0.0
 30
0.0000000195376815
 70
     1
  0
VERTEX
  5
1D95
  8
SAPA_FOGBAND
 10
83.498608620328142
 20
62.666573513996681
 30
0.0000000195376815
 42
-0.6341370759941026
  0
VERTEX
  5
1D96
  8
SAPA_FOGBAND
 10
83.421469698744318
 20
62.83020987763198
 30
0.0000000195376815
 42
0.3592455179659193
  0
VERTEX
  5
1D97
  8
SAPA_FOGBAND
 10
83.421469698744318
 20
64.102937150359921
 30
0.0000000195376815
 42
-0.6341370759941019
  0
VERTEX
  5
1D98
  8
SAPA_FOGBAND
 10
83.498608620328142
 20
64.266573513997045
 30
0.0000000195376815
  0
VERTEX
  5
1D99
  8
SAPA_FOGBAND
 10
84.850080482904218
 20
64.266573513997045
 30
0.0000000195376815
 42
-0.4142135623730951
  0
VERTEX
  5
1D9A
  8
SAPA_FOGBAND
 10
85.350080482904232
 20
63.766573513997038
 30
0.0000000195376815
  0
VERTEX
  5
1D9B
  8
SAPA_FOGBAND
 10
85.350080482904232
 20
63.166573513996681
 30
0.0000000195376815
 42
-0.4142135623730951
  0
VERTEX
  5
1D9C
  8
SAPA_FOGBAND
 10
84.850080482904218
 20
62.666573513996681
 30
0.0000000195376815
  0
SEQEND
  5
1D9D
  8
SAPA_FOGBAND
  0
POLYLINE
  5
104D
  8
SAPA_FOGBAND
 66
     1
 10
0.0
 20
0.0
 30
0.0000000195376815
 70
     1
  0
VERTEX
  5
1D9E
  8
SAPA_FOGBAND
 10
83.283987764025284
 20
66.172995642623263
 30
0.0000000195376815
  0
VERTEX
  5
1D9F
  8
SAPA_FOGBAND
 10
83.229456067600637
 20
64.779643815959261
 30
0.0000000195376815
  0
VERTEX
  5
1DA0
  8
SAPA_FOGBAND
 10
84.296722612985036
 20
64.779643815959261
 30
0.0000000195376815
  0
VERTEX
  5
1DA1
  8
SAPA_FOGBAND
 10
84.357732771079455
 20
65.418337323017894
 30
0.0000000195376815
 42
-0.4995370695832079
  0
VERTEX
  5
1DA2
  8
SAPA_FOGBAND
 10
84.65444961651373
 20
65.537690991771214
 30
0.0000000195376815
  0
VERTEX
  5
1DA3
  8
SAPA_FOGBAND
 10
85.707107511102663
 20
64.831655016537169
 30
0.0000000195376815
 42
-0.250021237196914
  0
VERTEX
  5
1DA4
  8
SAPA_FOGBAND
 10
86.150080482904414
 20
64.001160651800873
 30
0.0000000195376815
  0
VERTEX
  5
1DA5
  8
SAPA_FOGBAND
 10
86.150080482904414
 20
62.931986376191027
 30
0.0000000195376815
 42
-0.250021237196914
  0
VERTEX
  5
1DA6
  8
SAPA_FOGBAND
 10
85.707107511102663
 20
62.101492011456557
 30
0.0000000195376815
  0
VERTEX
  5
1DA7
  8
SAPA_FOGBAND
 10
84.65444961651373
 20
61.395456036222512
 30
0.0000000195376815
 42
-0.4995370695831766
  0
VERTEX
  5
1DA8
  8
SAPA_FOGBAND
 10
84.357732771079455
 20
61.514809704975832
 30
0.0000000195376815
  0
VERTEX
  5
1DA9
  8
SAPA_FOGBAND
 10
84.292095080899358
 20
62.122304921739541
 30
0.0000000195376815
  0
VERTEX
  5
1DAA
  8
SAPA_FOGBAND
 10
83.224828535514931
 20
62.122304921739541
 30
0.0000000195376815
  0
VERTEX
  5
1DAB
  8
SAPA_FOGBAND
 10
83.242530974097818
 20
61.234004662545757
 30
0.0000000195376815
 42
-0.4400105308918379
  0
VERTEX
  5
1DAC
  8
SAPA_FOGBAND
 10
83.043292034479364
 20
61.016573513997052
 30
0.0000000195376815
  0
VERTEX
  5
1DAD
  8
SAPA_FOGBAND
 10
83.008296569069117
 20
61.016573513997052
 30
0.0000000195376815
 42
-0.3888787318529988
  0
VERTEX
  5
1DAE
  8
SAPA_FOGBAND
 10
82.410579750213984
 20
61.564280068347998
 30
0.0000000195376815
  0
VERTEX
  5
1DAF
  8
SAPA_FOGBAND
 10
82.337587300746137
 20
62.398587583474061
 30
0.0000000195376815
 42
0.2668174844056302
  0
VERTEX
  5
1DB0
  8
SAPA_FOGBAND
 10
82.223637048090623
 20
62.562059281436497
 30
0.0000000195376815
 42
-0.6341045221175712
  0
VERTEX
  5
1DB1
  8
SAPA_FOGBAND
 10
82.223637048090623
 20
64.371087746557222
 30
0.0000000195376815
 42
0.2668174844056113
  0
VERTEX
  5
1DB2
  8
SAPA_FOGBAND
 10
82.337587300746137
 20
64.534559444519672
 30
0.0000000195376815
  0
VERTEX
  5
1DB3
  8
SAPA_FOGBAND
 10
82.410178449224645
 20
65.36428006834727
 30
0.0000000195376815
 42
0.3932191662530252
  0
VERTEX
  5
1DB4
  8
SAPA_FOGBAND
 10
81.766611341594526
 20
66.116573513997409
 30
0.0000000195376815
 42
0.7365260079582157
  0
VERTEX
  5
1DB5
  8
SAPA_FOGBAND
 10
80.793830941502847
 20
62.683771024739023
 30
0.0000000195376815
 42
-1.00000000000107
  0
VERTEX
  5
1DB6
  8
SAPA_FOGBAND
 10
80.439285486957516
 20
62.199728133394139
 30
0.0000000195376815
 42
-0.7363451539893881
  0
VERTEX
  5
1DB7
  8
SAPA_FOGBAND
 10
81.766611341594526
 20
66.716573513995954
 30
0.0000000195376815
  0
VERTEX
  5
1DB8
  8
SAPA_FOGBAND
 10
82.785890414979477
 20
66.716573513995954
 30
0.0000000195376815
 42
-0.4400105308918419
  0
SEQEND
  5
1DB9
  8
SAPA_FOGBAND
  0
LINE
  5
104E
  8
SAPA_FOGBAND
 10
83.299999947700158
 20
65.800753660138852
 30
0.0
 11
83.299999947700158
 21
65.800753660137033
 31
0.0
  0
POLYLINE
  5
104F
  8
SAPA_FOGBAND
 66
     1
 10
0.0
 20
0.0
 30
0.0
 70
   129
  0
VERTEX
  5
1DBA
  8
SAPA_FOGBAND
 10
50.58481947962445
 20
-5.5617182862643508
 30
0.0
  0
VERTEX
  5
1DBB
  8
SAPA_FOGBAND
 10
50.821383535074801
 20
-5.612229112967781
 30
0.0
  0
VERTEX
  5
1DBC
  8
SAPA_FOGBAND
 10
51.049397549199739
 20
-5.761936000195476
 30
0.0
  0
VERTEX
  5
1DBD
  8
SAPA_FOGBAND
 10
51.260620501444009
 20
-6.0054281509861189
 30
0.0
  0
VERTEX
  5
1DBE
  8
SAPA_FOGBAND
 10
51.447418243977161
 20
-6.3339051245976057
 30
0.0
  0
VERTEX
  5
1DBF
  8
SAPA_FOGBAND
 10
51.60303941968732
 20
-6.7354949073642842
 30
0.0
  0
VERTEX
  5
1DC0
  8
SAPA_FOGBAND
 10
51.721859473817403
 20
-7.1956829982064496
 30
0.0
  0
VERTEX
  5
1DC1
  8
SAPA_FOGBAND
 10
51.799583940028697
 20
-7.69783700051181
 30
0.0
  0
VERTEX
  5
1DC2
  8
SAPA_FOGBAND
 10
51.833403653603
 20
-8.2238077602870021
 30
0.0
  0
VERTEX
  5
1DC3
  8
SAPA_FOGBAND
 10
51.822096281975519
 20
-8.7545853238717086
 30
0.0
  0
VERTEX
  5
1DC4
  8
SAPA_FOGBAND
 10
51.766070503017538
 20
-9.2709860071891512
 30
0.0
  0
VERTEX
  5
1DC5
  8
SAPA_FOGBAND
 10
51.66735123435501
 20
-9.7543457440761472
 30
0.0
  0
VERTEX
  5
1DC6
  8
SAPA_FOGBAND
 10
51.529506447567201
 20
-10.187194654260621
 30
0.0
  0
VERTEX
  5
1DC7
  8
SAPA_FOGBAND
 10
51.357518212400009
 20
-10.553888450350369
 30
0.0
  0
VERTEX
  5
1DC8
  8
SAPA_FOGBAND
 10
51.15760263178344
 20
-10.841173863143981
 30
0.0
  0
VERTEX
  5
1DC9
  8
SAPA_FOGBAND
 10
50.936985175676
 20
-11.03866764930814
 30
0.0
  0
VERTEX
  5
1DCA
  8
SAPA_FOGBAND
 10
50.70363953375454
 20
-11.139231868846361
 30
0.0
  0
VERTEX
  5
1DCB
  8
SAPA_FOGBAND
 10
50.465999425494147
 20
-11.139231868846361
 30
0.0
  0
VERTEX
  5
1DCC
  8
SAPA_FOGBAND
 10
50.232653783572459
 20
-11.03866764930814
 30
0.0
  0
VERTEX
  5
1DCD
  8
SAPA_FOGBAND
 10
50.012036327465012
 20
-10.841173863143981
 30
0.0
  0
VERTEX
  5
1DCE
  8
SAPA_FOGBAND
 10
49.81212074684845
 20
-10.553888450350369
 30
0.0
  0
VERTEX
  5
1DCF
  8
SAPA_FOGBAND
 10
49.640132511681479
 20
-10.187194654260621
 30
0.0
  0
VERTEX
  5
1DD0
  8
SAPA_FOGBAND
 10
49.502287724893897
 20
-9.7543457440761472
 30
0.0
  0
VERTEX
  5
1DD1
  8
SAPA_FOGBAND
 10
49.403568456230907
 20
-9.2709860071891512
 30
0.0
  0
VERTEX
  5
1DD2
  8
SAPA_FOGBAND
 10
49.347542677273168
 20
-8.7545853238717086
 30
0.0
  0
VERTEX
  5
1DD3
  8
SAPA_FOGBAND
 10
49.336235305645452
 20
-8.2238077602870021
 30
0.0
  0
VERTEX
  5
1DD4
  8
SAPA_FOGBAND
 10
49.370055019219762
 20
-7.69783700051181
 30
0.0
  0
VERTEX
  5
1DD5
  8
SAPA_FOGBAND
 10
49.447779485431049
 20
-7.1956829982064496
 30
0.0
  0
VERTEX
  5
1DD6
  8
SAPA_FOGBAND
 10
49.566599539561587
 20
-6.7354949073642842
 30
0.0
  0
VERTEX
  5
1DD7
  8
SAPA_FOGBAND
 10
49.72222071527176
 20
-6.3339051245976057
 30
0.0
  0
VERTEX
  5
1DD8
  8
SAPA_FOGBAND
 10
49.909018457804912
 20
-6.0054281509861189
 30
0.0
  0
VERTEX
  5
1DD9
  8
SAPA_FOGBAND
 10
50.120241410048948
 20
-5.761936000195476
 30
0.0
  0
VERTEX
  5
1DDA
  8
SAPA_FOGBAND
 10
50.348255424173878
 20
-5.612229112967781
 30
0.0
  0
SEQEND
  5
1DDB
  8
SAPA_FOGBAND
  0
POLYLINE
  5
1050
  8
SAPA_FOGBAND
 66
     1
 10
0.0
 20
0.0
 30
0.0
 70
     1
  0
VERTEX
  5
1DDC
  8
SAPA_FOGBAND
 10
46.949999922547697
 20
-8.819535350701301
 30
0.0
  0
VERTEX
  5
1DDD
  8
SAPA_FOGBAND
 10
46.949999922547697
 20
-22.50000000000006
 30
0.0
 42
0.427966335106886
  0
VERTEX
  5
1DDE
  8
SAPA_FOGBAND
 10
47.264012493907103
 20
-22.799672567719941
 30
0.0
  0
VERTEX
  5
1DDF
  8
SAPA_FOGBAND
 10
55.664012493906739
 20
-22.313372659640269
 30
0.0
 42
0.4005932428724212
  0
VERTEX
  5
1DE0
  8
SAPA_FOGBAND
 10
55.949999922547697
 20
-22.013700091920381
 30
0.0
  0
VERTEX
  5
1DE1
  8
SAPA_FOGBAND
 10
55.949999922547697
 20
-20.199999999999878
 30
0.0
  0
VERTEX
  5
1DE2
  8
SAPA_FOGBAND
 10
57.649999922547522
 20
-20.199999999999878
 30
0.0
 42
0.4142135623730951
  0
VERTEX
  5
1DE3
  8
SAPA_FOGBAND
 10
57.949999922547697
 20
-19.899999999999689
 30
0.0
  0
VERTEX
  5
1DE4
  8
SAPA_FOGBAND
 10
57.949999922547697
 20
-12.481219236374329
 30
0.0
 42
0.1379343940649207
  0
VERTEX
  5
1DE5
  8
SAPA_FOGBAND
 10
57.80342330769281
 20
-11.96000092732544
 30
0.0
  0
VERTEX
  5
1DE6
  8
SAPA_FOGBAND
 10
50.99620506978453
 20
-0.0393908454757934
 30
0.0
 42
0.2613472755167645
  0
VERTEX
  5
1DE7
  8
SAPA_FOGBAND
 10
50.569493377211977
 20
0.1999999999997612
 30
0.0
  0
VERTEX
  5
1DE8
  8
SAPA_FOGBAND
 10
48.77479676004895
 20
0.1999999999997612
 30
0.0
 42
0.3915187749346393
  0
VERTEX
  5
1DE9
  8
SAPA_FOGBAND
 10
47.777845146043553
 20
-0.7219776997736176
 30
0.0
  0
VERTEX
  5
1DEA
  8
SAPA_FOGBAND
 10
46.951524115544998
 20
-8.7805242005879904
 30
0.0
 42
0.0195279011117891
  0
SEQEND
  5
1DEB
  8
SAPA_FOGBAND
  0
POLYLINE
  5
1051
  8
SAPA_FOGBAND
 66
     1
 10
0.0
 20
0.0
 30
0.0
 70
   129
  0
VERTEX
  5
1DEC
  8
SAPA_FOGBAND
 10
52.429565315253967
 20
-13.28637780303694
 30
0.0
  0
VERTEX
  5
1DED
  8
SAPA_FOGBAND
 10
52.666129370704311
 20
-13.33688862974037
 30
0.0
  0
VERTEX
  5
1DEE
  8
SAPA_FOGBAND
 10
52.894143384829249
 20
-13.486595516968061
 30
0.0
  0
VERTEX
  5
1DEF
  8
SAPA_FOGBAND
 10
53.105366337073519
 20
-13.73008766775871
 30
0.0
  0
VERTEX
  5
1DF0
  8
SAPA_FOGBAND
 10
53.292164079606657
 20
-14.058564641370189
 30
0.0
  0
VERTEX
  5
1DF1
  8
SAPA_FOGBAND
 10
53.44778525531683
 20
-14.460154424136871
 30
0.0
  0
VERTEX
  5
1DF2
  8
SAPA_FOGBAND
 10
53.566605309446913
 20
-14.920342514979041
 30
0.0
  0
VERTEX
  5
1DF3
  8
SAPA_FOGBAND
 10
53.644329775658207
 20
-15.422496517284401
 30
0.0
  0
VERTEX
  5
1DF4
  8
SAPA_FOGBAND
 10
53.67814948923251
 20
-15.94846727705959
 30
0.0
  0
VERTEX
  5
1DF5
  8
SAPA_FOGBAND
 10
53.666842117605029
 20
-16.479244840644299
 30
0.0
  0
VERTEX
  5
1DF6
  8
SAPA_FOGBAND
 10
53.610816338647062
 20
-16.995645523961741
 30
0.0
  0
VERTEX
  5
1DF7
  8
SAPA_FOGBAND
 10
53.51209706998452
 20
-17.479005260848741
 30
0.0
  0
VERTEX
  5
1DF8
  8
SAPA_FOGBAND
 10
53.374252283196711
 20
-17.911854171033209
 30
0.0
  0
VERTEX
  5
1DF9
  8
SAPA_FOGBAND
 10
53.202264048029512
 20
-18.278547967122961
 30
0.0
  0
VERTEX
  5
1DFA
  8
SAPA_FOGBAND
 10
53.002348467412958
 20
-18.565833379916569
 30
0.0
  0
VERTEX
  5
1DFB
  8
SAPA_FOGBAND
 10
52.78173101130551
 20
-18.763327166080732
 30
0.0
  0
VERTEX
  5
1DFC
  8
SAPA_FOGBAND
 10
52.54838536938405
 20
-18.863891385618949
 30
0.0
  0
VERTEX
  5
1DFD
  8
SAPA_FOGBAND
 10
52.31074526112365
 20
-18.863891385618949
 30
0.0
  0
VERTEX
  5
1DFE
  8
SAPA_FOGBAND
 10
52.077399619201962
 20
-18.763327166080732
 30
0.0
  0
VERTEX
  5
1DFF
  8
SAPA_FOGBAND
 10
51.856782163094522
 20
-18.565833379916569
 30
0.0
  0
VERTEX
  5
1E00
  8
SAPA_FOGBAND
 10
51.65686658247796
 20
-18.278547967122961
 30
0.0
  0
VERTEX
  5
1E01
  8
SAPA_FOGBAND
 10
51.484878347310989
 20
-17.911854171033209
 30
0.0
  0
VERTEX
  5
1E02
  8
SAPA_FOGBAND
 10
51.347033560523407
 20
-17.479005260848741
 30
0.0
  0
VERTEX
  5
1E03
  8
SAPA_FOGBAND
 10
51.248314291860417
 20
-16.995645523961741
 30
0.0
  0
VERTEX
  5
1E04
  8
SAPA_FOGBAND
 10
51.192288512902678
 20
-16.479244840644299
 30
0.0
  0
VERTEX
  5
1E05
  8
SAPA_FOGBAND
 10
51.18098114127497
 20
-15.94846727705959
 30
0.0
  0
VERTEX
  5
1E06
  8
SAPA_FOGBAND
 10
51.214800854849273
 20
-15.422496517284401
 30
0.0
  0
VERTEX
  5
1E07
  8
SAPA_FOGBAND
 10
51.292525321060573
 20
-14.920342514979041
 30
0.0
  0
VERTEX
  5
1E08
  8
SAPA_FOGBAND
 10
51.411345375191111
 20
-14.460154424136871
 30
0.0
  0
VERTEX
  5
1E09
  8
SAPA_FOGBAND
 10
51.56696655090127
 20
-14.058564641370189
 30
0.0
  0
VERTEX
  5
1E0A
  8
SAPA_FOGBAND
 10
51.753764293434408
 20
-13.73008766775871
 30
0.0
  0
VERTEX
  5
1E0B
  8
SAPA_FOGBAND
 10
51.964987245678451
 20
-13.486595516968061
 30
0.0
  0
VERTEX
  5
1E0C
  8
SAPA_FOGBAND
 10
52.193001259803388
 20
-13.33688862974037
 30
0.0
  0
SEQEND
  5
1E0D
  8
SAPA_FOGBAND
  0
POLYLINE
  5
1052
  8
SAPA_FOGBAND
 66
     1
 10
0.0
 20
0.0
 30
0.0
  0
VERTEX
  5
1E0E
  8
SAPA_FOGBAND
 10
18.4499999225477
 20
-20.056372436892222
 30
0.0
 42
0.285714285714282
  0
VERTEX
  5
1E0F
  8
SAPA_FOGBAND
 10
18.4499999225477
 20
-17.256372436892029
 30
0.0
  0
VERTEX
  5
1E10
  8
SAPA_FOGBAND
 10
18.449999922548159
 20
-15.18259226750439
 30
0.0
 42
-0.3882600129940275
  0
VERTEX
  5
1E11
  8
SAPA_FOGBAND
 10
18.72321064882772
 20
-14.88379077016276
 30
0.0
  0
VERTEX
  5
1E12
  8
SAPA_FOGBAND
 10
22.623210648827811
 20
-14.41758084623649
 30
0.0
 42
-0.4406523138893894
  0
VERTEX
  5
1E13
  8
SAPA_FOGBAND
 10
22.949999922547711
 20
-14.716382343578569
 30
0.0
  0
VERTEX
  5
1E14
  8
SAPA_FOGBAND
 10
22.949999922547711
 20
-16.426174340498669
 30
0.0
 42
-0.3394542588634375
  0
VERTEX
  5
1E15
  8
SAPA_FOGBAND
 10
22.727645636078709
 20
-16.715952088385219
 30
0.0
  0
VERTEX
  5
1E16
  8
SAPA_FOGBAND
 10
22.510059853911109
 20
-16.918331816316879
 30
0.0
 42
0.3394542588633663
  0
VERTEX
  5
1E17
  8
SAPA_FOGBAND
 10
22.287705567442121
 20
-17.208109564203419
 30
0.0
  0
VERTEX
  5
1E18
  8
SAPA_FOGBAND
 10
22.287705567442121
 20
-20.10463530958128
 30
0.0
 42
0.3394542588634373
  0
VERTEX
  5
1E19
  8
SAPA_FOGBAND
 10
22.510059853911109
 20
-20.39441305746783
 30
0.0
  0
VERTEX
  5
1E1A
  8
SAPA_FOGBAND
 10
22.727645636078709
 20
-20.596792785399028
 30
0.0
 42
-0.3394542588633662
  0
VERTEX
  5
1E1B
  8
SAPA_FOGBAND
 10
22.949999922547711
 20
-20.886570533286029
 30
0.0
  0
VERTEX
  5
1E1C
  8
SAPA_FOGBAND
 10
22.949999922547711
 20
-22.596362530206139
 30
0.0
 42
-0.4406523138893994
  0
VERTEX
  5
1E1D
  8
SAPA_FOGBAND
 10
22.623210648827811
 20
-22.895164027547761
 30
0.0
  0
VERTEX
  5
1E1E
  8
SAPA_FOGBAND
 10
18.72321064882772
 20
-22.428954103621489
 30
0.0
 42
-0.3882600129940462
  0
VERTEX
  5
1E1F
  8
SAPA_FOGBAND
 10
18.4499999225477
 20
-22.130152606279871
 30
0.0
  0
VERTEX
  5
1E20
  8
SAPA_FOGBAND
 10
18.4499999225477
 20
-20.067964813742549
 30
0.0
  0
SEQEND
  5
1E21
  8
SAPA_FOGBAND
  0
POLYLINE
  5
1053
  8
SAPA_FOGBAND
 66
     1
 10
0.0
 20
0.0
 30
0.0
  0
VERTEX
  5
1E22
  8
SAPA_FOGBAND
 10
18.4499999225477
 20
-20.067964813742549
 30
0.0
  0
VERTEX
  5
1E23
  8
SAPA_FOGBAND
 10
17.359081112394961
 20
-19.87560639374993
 30
0.0
  0
VERTEX
  5
1E24
  8
SAPA_FOGBAND
 10
17.24338157287502
 20
-20.307402953652002
 30
0.0
 42
-0.4430158954262519
  0
VERTEX
  5
1E25
  8
SAPA_FOGBAND
 10
16.97990514476805
 20
-20.44288000119565
 30
0.0
  0
VERTEX
  5
1E26
  8
SAPA_FOGBAND
 10
15.70941739684986
 20
-19.965931807976691
 30
0.0
 42
-0.3125358528825162
  0
VERTEX
  5
1E27
  8
SAPA_FOGBAND
 10
15.449999922548161
 20
-19.59145009484752
 30
0.0
  0
VERTEX
  5
1E28
  8
SAPA_FOGBAND
 10
15.4499999225477
 20
-17.721294778937189
 30
0.0
 42
-0.3125358528825104
  0
VERTEX
  5
1E29
  8
SAPA_FOGBAND
 10
15.70941739684986
 20
-17.346813065807559
 30
0.0
  0
VERTEX
  5
1E2A
  8
SAPA_FOGBAND
 10
16.97990514476805
 20
-16.869864872588611
 30
0.0
 42
-0.4430158954262519
  0
VERTEX
  5
1E2B
  8
SAPA_FOGBAND
 10
17.24338157287502
 20
-17.005341920132711
 30
0.0
  0
VERTEX
  5
1E2C
  8
SAPA_FOGBAND
 10
17.359081112394961
 20
-17.437138480034321
 30
0.0
  0
VERTEX
  5
1E2D
  8
SAPA_FOGBAND
 10
18.431769226162491
 20
-17.247994623691788
 30
0.0
  0
SEQEND
  5
1E2E
  8
SAPA_FOGBAND
  0
POLYLINE
  5
1054
  8
SAPA_FOGBAND
 66
     1
 10
0.0
 20
0.0
 30
0.0000000195376815
 70
     1
  0
VERTEX
  5
1E2F
  8
SAPA_FOGBAND
 10
18.716012526499419
 20
50.8277325173785
 30
0.0000000195376815
  0
VERTEX
  5
1E30
  8
SAPA_FOGBAND
 10
18.770544222924059
 20
52.221084344044321
 30
0.0000000195376815
  0
VERTEX
  5
1E31
  8
SAPA_FOGBAND
 10
17.703277677539639
 20
52.221084344044321
 30
0.0000000195376815
  0
VERTEX
  5
1E32
  8
SAPA_FOGBAND
 10
17.64226751944523
 20
51.582390836985688
 30
0.0000000195376815
 42
-0.4995370695832079
  0
VERTEX
  5
1E33
  8
SAPA_FOGBAND
 10
17.345550674010958
 20
51.463037168230549
 30
0.0000000195376815
  0
VERTEX
  5
1E34
  8
SAPA_FOGBAND
 10
16.292892779422012
 20
52.16907314346642
 30
0.0000000195376815
 42
-0.250021237196914
  0
VERTEX
  5
1E35
  8
SAPA_FOGBAND
 10
15.849919807620269
 20
52.999567508200897
 30
0.0000000195376815
  0
VERTEX
  5
1E36
  8
SAPA_FOGBAND
 10
15.849919807620269
 20
54.068741783810729
 30
0.0000000195376815
 42
-0.250021237196914
  0
VERTEX
  5
1E37
  8
SAPA_FOGBAND
 10
16.292892779422012
 20
54.899236148545221
 30
0.0000000195376815
  0
VERTEX
  5
1E38
  8
SAPA_FOGBAND
 10
17.345550674010958
 20
55.605272123779251
 30
0.0000000195376815
 42
-0.4995370695831766
  0
VERTEX
  5
1E39
  8
SAPA_FOGBAND
 10
17.64226751944523
 20
55.485918455025931
 30
0.0000000195376815
  0
VERTEX
  5
1E3A
  8
SAPA_FOGBAND
 10
17.707905209625331
 20
54.878423238264041
 30
0.0000000195376815
  0
VERTEX
  5
1E3B
  8
SAPA_FOGBAND
 10
18.775171755009762
 20
54.878423238264041
 30
0.0000000195376815
  0
VERTEX
  5
1E3C
  8
SAPA_FOGBAND
 10
18.757469316426871
 20
55.766723497455999
 30
0.0000000195376815
 42
-0.4400105308918379
  0
VERTEX
  5
1E3D
  8
SAPA_FOGBAND
 10
18.956708256045321
 20
55.984154646004718
 30
0.0000000195376815
  0
VERTEX
  5
1E3E
  8
SAPA_FOGBAND
 10
18.991703721455568
 20
55.984154646004718
 30
0.0000000195376815
 42
-0.3888787318529988
  0
VERTEX
  5
1E3F
  8
SAPA_FOGBAND
 10
19.589420540310702
 20
55.436448091653759
 30
0.0000000195376815
  0
VERTEX
  5
1E40
  8
SAPA_FOGBAND
 10
19.662412989778549
 20
54.602140576527709
 30
0.0000000195376815
 42
0.2668174844056302
  0
VERTEX
  5
1E41
  8
SAPA_FOGBAND
 10
19.776363242434059
 20
54.438668878565252
 30
0.0000000195376815
 42
-0.6341045221175712
  0
VERTEX
  5
1E42
  8
SAPA_FOGBAND
 10
19.776363242434059
 20
52.629640413444541
 30
0.0000000195376815
 42
0.2668174844056113
  0
VERTEX
  5
1E43
  8
SAPA_FOGBAND
 10
19.662412989778549
 20
52.466168715482091
 30
0.0000000195376815
  0
VERTEX
  5
1E44
  8
SAPA_FOGBAND
 10
19.589821841300029
 20
51.636448091654493
 30
0.0000000195376815
 42
0.3932191662530252
  0
VERTEX
  5
1E45
  8
SAPA_FOGBAND
 10
20.233388948930159
 20
50.884154646006174
 30
0.0000000195376815
 42
0.7365260079582157
  0
VERTEX
  5
1E46
  8
SAPA_FOGBAND
 10
21.206169349021831
 20
54.31695713526274
 30
0.0000000195376815
 42
-1.00000000000107
  0
VERTEX
  5
1E47
  8
SAPA_FOGBAND
 10
21.560714803567191
 20
54.801000026607618
 30
0.0000000195376815
 42
-0.7363451539893881
  0
VERTEX
  5
1E48
  8
SAPA_FOGBAND
 10
20.233388948930159
 20
50.284154646005803
 30
0.0000000195376815
  0
VERTEX
  5
1E49
  8
SAPA_FOGBAND
 10
19.214109875545208
 20
50.28415464600581
 30
0.0000000195376815
 42
-0.4400105308918419
  0
SEQEND
  5
1E4A
  8
SAPA_FOGBAND
  0
CIRCLE
  5
1055
  8
SAPA_FOGBAND
 10
19.349919807620271
 20
53.53415464600581
 30
0.0000000195376815
 40
0.25
  0
POLYLINE
  5
1056
  8
SAPA_FOGBAND
 66
     1
 10
0.0
 20
0.0
 30
0.0000000195376815
 70
     1
  0
VERTEX
  5
1E4B
  8
SAPA_FOGBAND
 10
18.501391670196551
 20
54.334154646005082
 30
0.0000000195376815
 42
-0.6341370759941026
  0
VERTEX
  5
1E4C
  8
SAPA_FOGBAND
 10
18.57853059178036
 20
54.170518282369777
 30
0.0000000195376815
 42
0.3592455179659193
  0
VERTEX
  5
1E4D
  8
SAPA_FOGBAND
 10
18.57853059178036
 20
52.897791009641843
 30
0.0000000195376815
 42
-0.6341370759941019
  0
VERTEX
  5
1E4E
  8
SAPA_FOGBAND
 10
18.501391670196551
 20
52.734154646004711
 30
0.0000000195376815
  0
VERTEX
  5
1E4F
  8
SAPA_FOGBAND
 10
17.149919807620449
 20
52.734154646004718
 30
0.0000000195376815
 42
-0.4142135623730951
  0
VERTEX
  5
1E50
  8
SAPA_FOGBAND
 10
16.649919807620449
 20
53.234154646004718
 30
0.0000000195376815
  0
VERTEX
  5
1E51
  8
SAPA_FOGBAND
 10
16.649919807620449
 20
53.834154646005089
 30
0.0000000195376815
 42
-0.4142135623730951
  0
VERTEX
  5
1E52
  8
SAPA_FOGBAND
 10
17.149919807620449
 20
54.334154646005089
 30
0.0000000195376815
  0
SEQEND
  5
1E53
  8
SAPA_FOGBAND
  0
LINE
  5
1057
  8
SAPA_FOGBAND
 10
18.700000342824531
 20
51.19997449986473
 30
0.0
 11
18.700000342824531
 21
51.19997449986473
 31
0.0
  0
DIMENSION
  5
1061
  8
SAPA_MATT
  2
*D97
 10
223.80000009340139
 20
219.9999999961866
 30
0.0
 11
123.80000009340129
 21
222.75119036266
 31
0.0
 70
     0
  1
197-202
 13
23.800000093401358
 23
199.9999999961866
 33
0.0
 14
223.80000009340139
 24
199.9999999961866
 34
0.0
1001
ACAD
1000
DSTYLE
1002
{
1070
    40
1040
1.0
1002
}
  0
DIMENSION
  5
1062
  8
SAPA_MATT
  2
*D96
 10
-17.999999918811149
 20
-22.00000000408706
 30
0.0000000048844204
 11
-20.749999918811149
 21
71.49999999603358
 31
0.0000000048844204
 70
     0
 13
14.30000009361556
 23
164.9999999961542
 33
0.0
 14
14.499999885490119
 24
-22.00000000408707
 34
0.0
 50
270.0
1001
ACAD
1000
DSTYLE
1002
{
1070
    40
1040
1.0
1002
}
  0
DIMENSION
  5
1063
  8
SAPA_MATT
  2
*D95
 10
-5.999999918811163
 20
-22.00000000408707
 30
0.0000000048844204
 11
-8.7499999188111577
 21
11.499999997956509
 31
0.0000000048844204
 70
     0
 13
15.99999845920634
 23
45.000000000000078
 33
0.0
 14
14.499999885490119
 24
-22.00000000408707
 34
0.0
 50
270.0
1001
ACAD
1000
DSTYLE
1002
{
1070
    40
1040
1.0
1002
}
  0
DIMENSION
  5
1064
  8
SAPA_MATT
  2
*D94
 10
-5.9999999188111479
 20
45.000000000000078
 30
0.0000000048844204
 11
-8.7499999188111541
 21
47.499999997903778
 31
0.0000000048844204
 70
     0
 13
15.000000087350699
 23
49.999999995807478
 33
0.0
 14
15.99999845920634
 24
45.000000000000078
 34
0.0
 50
270.0
1001
ACAD
1000
DSTYLE
1002
{
1070
    40
1040
1.0
1002
}
  0
DIMENSION
  5
1065
  8
SAPA_MATT
  2
*D93
 10
-5.9999999188111479
 20
49.999999995807478
 30
0.0000000048844204
 11
-8.7499999188111524
 21
107.4999999959808
 31
0.0000000048844204
 70
     0
 13
14.30000009361556
 23
164.9999999961542
 33
0.0
 14
15.000000087350699
 24
49.999999995807478
 34
0.0
 50
270.0
1001
ACAD
1000
DSTYLE
1002
{
1070
    40
1040
1.0
1002
}
  0
ENDSEC
  0
EOF
