  0
SECTION
  2
HEADER
  9
$ACADVER
  1
AC1009
  9
$INSBASE
 10
45.006823448336007
 20
256.80342482082011
 30
0.0
  9
$EXTMIN
 10
-22.324999918811042
 20
-35.000000004193602
 30
-0.2
  9
$EXTMAX
 10
252.7781694861612
 20
224.32926007198461
 30
0.1
  9
$LIMMIN
 10
0.0
 20
0.0
  9
$LIMMAX
 10
790.0
 20
790.0
  9
$ORTHOMODE
 70
     0
  9
$REGENMODE
 70
     1
  9
$FILLMODE
 70
     1
  9
$QTEXTMODE
 70
     0
  9
$MIRRTEXT
 70
     1
  9
$DRAGMODE
 70
     2
  9
$LTSCALE
 40
2.5
  9
$OSMODE
 70
   167
  9
$ATTMODE
 70
     1
  9
$TEXTSIZE
 40
5.0
  9
$TRACEWID
 40
0.05
  9
$TEXTSTYLE
  7
ISO
  9
$CLAYER
  8
0
  9
$CELTYPE
  6
BYLAYER
  9
$CECOLOR
 62
   256
  9
$DIMSCALE
 40
0.0
  9
$DIMASZ
 40
3.0
  9
$DIMEXO
 40
1.5
  9
$DIMDLI
 40
10.0
  9
$DIMRND
 40
0.0
  9
$DIMDLE
 40
0.0
  9
$DIMEXE
 40
1.5
  9
$DIMTP
 40
0.0
  9
$DIMTM
 40
0.0
  9
$DIMTXT
 40
3.5
  9
$DIMCEN
 40
-5.0
  9
$DIMTSZ
 40
0.0
  9
$DIMTOL
 70
     0
  9
$DIMLIM
 70
     0
  9
$DIMTIH
 70
     0
  9
$DIMTOH
 70
     1
  9
$DIMSE1
 70
     0
  9
$DIMSE2
 70
     0
  9
$DIMTAD
 70
     1
  9
$DIMZIN
 70
     8
  9
$DIMBLK
  1

  9
$DIMASO
 70
     1
  9
$DIMSHO
 70
     1
  9
$DIMPOST
  1

  9
$DIMAPOST
  1

  9
$DIMALT
 70
     0
  9
$DIMALTD
 70
     0
  9
$DIMALTF
 40
25.399999999999999
  9
$DIMLFAC
 40
-1.0
  9
$DIMTOFL
 70
     1
  9
$DIMTVP
 40
0.0
  9
$DIMTIX
 70
     0
  9
$DIMSOXD
 70
     0
  9
$DIMSAH
 70
     0
  9
$DIMBLK1
  1

  9
$DIMBLK2
  1

  9
$DIMSTYLE
  2
MASKIN
  9
$DIMCLRD
 70
   256
  9
$DIMCLRE
 70
   256
  9
$DIMCLRT
 70
     2
  9
$DIMTFAC
 40
1.0
  9
$DIMGAP
 40
1.0
  9
$LUNITS
 70
     2
  9
$LUPREC
 70
     1
  9
$SKETCHINC
 40
0.1
  9
$FILLETRAD
 40
0.0
  9
$AUNITS
 70
     0
  9
$AUPREC
 70
     0
  9
$MENU
  1
ACAD
  9
$ELEVATION
 40
0.0
  9
$PELEVATION
 40
0.0
  9
$THICKNESS
 40
0.0
  9
$LIMCHECK
 70
     0
  9
$BLIPMODE
 70
     0
  9
$CHAMFERA
 40
0.0
  9
$CHAMFERB
 40
0.0
  9
$SKPOLY
 70
     0
  9
$TDCREATE
 40
2451169.4686749768
  9
$TDUPDATE
 40
2456044.5781675461
  9
$TDINDWG
 40
1.1986218519
  9
$TDUSRTIMER
 40
1.1986218519
  9
$USRTIMER
 70
     1
  9
$ANGBASE
 50
0.0
  9
$ANGDIR
 70
     0
  9
$PDMODE
 70
     0
  9
$PDSIZE
 40
0.0
  9
$PLINEWID
 40
0.0
  9
$COORDS
 70
     1
  9
$SPLFRAME
 70
     0
  9
$SPLINETYPE
 70
     6
  9
$SPLINESEGS
 70
     8
  9
$ATTDIA
 70
     0
  9
$ATTREQ
 70
     1
  9
$HANDLING
 70
     1
  9
$HANDSEED
  5
1DB9
  9
$SURFTAB1
 70
     6
  9
$SURFTAB2
 70
     6
  9
$SURFTYPE
 70
     6
  9
$SURFU
 70
     6
  9
$SURFV
 70
     6
  9
$UCSNAME
  2

  9
$UCSORG
 10
0.0
 20
0.0
 30
0.0
  9
$UCSXDIR
 10
1.0
 20
0.0
 30
0.0
  9
$UCSYDIR
 10
0.0
 20
1.0
 30
0.0
  9
$PUCSNAME
  2

  9
$PUCSORG
 10
0.0
 20
0.0
 30
0.0
  9
$PUCSXDIR
 10
1.0
 20
0.0
 30
0.0
  9
$PUCSYDIR
 10
0.0
 20
1.0
 30
0.0
  9
$USERI1
 70
     0
  9
$USERI2
 70
     0
  9
$USERI3
 70
     0
  9
$USERI4
 70
     0
  9
$USERI5
 70
     0
  9
$USERR1
 40
0.0
  9
$USERR2
 40
0.0
  9
$USERR3
 40
0.0
  9
$USERR4
 40
0.0
  9
$USERR5
 40
0.0
  9
$WORLDVIEW
 70
     1
  9
$SHADEDGE
 70
     3
  9
$SHADEDIF
 70
    70
  9
$TILEMODE
 70
     1
  9
$MAXACTVP
 70
    16
  9
$PLIMCHECK
 70
     0
  9
$PEXTMIN
 10
1.0000000000000000E+020
 20
1.0000000000000000E+020
 30
1.0000000000000000E+020
  9
$PEXTMAX
 10
-1.0000000000000000E+020
 20
-1.0000000000000000E+020
 30
-1.0000000000000000E+020
  9
$PLIMMIN
 10
-4.23333740234375
 20
-4.2333331108093262
  9
$PLIMMAX
 10
292.69265747070312
 20
205.7399945259094
  9
$UNITMODE
 70
     0
  9
$VISRETAIN
 70
     1
  9
$PLINEGEN
 70
     0
  9
$PSLTSCALE
 70
     1
  0
ENDSEC
  0
SECTION
  2
TABLES
  0
TABLE
  2
VPORT
 70
     1
  0
VPORT
  2
*ACTIVE
 70
     0
 10
0.0
 20
0.0
 11
1.0
 21
1.0
 12
119.6786176202433
 22
156.04736177216179
 13
0.0
 23
0.0
 14
1.0
 24
1.0
 15
0.0
 25
0.0
 16
0.0
 26
0.0
 36
1.0
 17
0.0
 27
0.0
 37
0.0
 40
252.51493099230669
 41
2.37391304347826
 42
50.0
 43
0.0
 44
0.0
 50
0.0
 51
0.0
 71
     0
 72
   100
 73
     1
 74
     0
 75
     0
 76
     0
 77
     0
 78
     0
  0
ENDTAB
  0
TABLE
  2
LTYPE
 70
    18
  0
LTYPE
  2
CONTINUOUS
 70
     0
  3
Solid line
 72
    65
 73
     0
 40
0.0
  0
LTYPE
  2
BYGG-014413$0$NEWDOT
 70
     0
  3
____ . ____ . ____ . ____ . ____ . ____ . ____
 72
    65
 73
     4
 40
2.0
 49
1.0
 49
-0.5
 49
0.0
 49
-0.5
  0
LTYPE
  2
BYGG-014413$0$ZIGZAG
 70
     0
  3
Zig zag /\/\/\/\/\/\/\/\/\/\/\/\/\/\/\/\/\/\/\/\/\/\/\/
 72
    65
 73
     4
 40
20.32254
 49
0.00254
 49
-5.0800000000000001
 49
-10.16
 49
-5.0800000000000001
  0
LTYPE
  2
BYGG-021556$0$DASHDOT
 70
     0
  3
__ . __ . __ . __ . __ . __ . __ . __ . __ . __
 72
    65
 73
     4
 40
1.0
 49
0.5
 49
-0.25
 49
0.0
 49
-0.25
  0
LTYPE
  2
BYGG-008943$0$DASHDOT
 70
     0
  3
__ . __ . __ . __ . __ . __ . __ . __ . __ . __
 72
    65
 73
     4
 40
1.0
 49
0.5
 49
-0.25
 49
0.0
 49
-0.25
  0
LTYPE
  2
BYGG-00894401$0$DASHDOT
 70
     0
  3
__ . __ . __ . __ . __ . __ . __ . __ . __ . __
 72
    65
 73
     4
 40
1.0
 49
0.5
 49
-0.25
 49
0.0
 49
-0.25
  0
LTYPE
  2
BYGG-021526$0$DASHDOT
 70
     0
  3
__ . __ . __ . __ . __ . __ . __ . __ . __ . __
 72
    65
 73
     4
 40
1.0
 49
0.5
 49
-0.25
 49
0.0
 49
-0.25
  0
LTYPE
  2
BYGG-024800$0$NEWDOT
 70
     0
  3
____ . ____ . ____ . ____ . ____ . ____ . ____
 72
    65
 73
     4
 40
2.0
 49
1.0
 49
-0.5
 49
0.0
 49
-0.5
  0
LTYPE
  2
BYGG-024807$0$NEWDOT
 70
     0
  3
____ . ____ . ____ . ____ . ____ . ____ . ____
 72
    65
 73
     4
 40
2.0
 49
1.0
 49
-0.5
 49
0.0
 49
-0.5
  0
LTYPE
  2
BYGG-025052$0$NEWDOT
 70
     0
  3
____ . ____ . ____ . ____ . ____ . ____ . ____
 72
    65
 73
     4
 40
2.0
 49
1.0
 49
-0.5
 49
0.0
 49
-0.5
  0
LTYPE
  2
BYGG-025052$0$DASHDOT
 70
     0
  3
__ . __ . __ . __ . __ . __ . __ . __ . __ . __
 72
    65
 73
     4
 40
1.0
 49
0.5
 49
-0.25
 49
0.0
 49
-0.25
  0
LTYPE
  2
BYGG-024817$0$NEWDOT
 70
     0
  3
____ . ____ . ____ . ____ . ____ . ____ . ____
 72
    65
 73
     4
 40
2.0
 49
1.0
 49
-0.5
 49
0.0
 49
-0.5
  0
LTYPE
  2
BYGG-014196$0$DASHDOT
 70
     0
  3
__ . __ . __ . __ . __ . __ . __ . __ . __ . __
 72
    65
 73
     4
 40
1.0
 49
0.5
 49
-0.25
 49
0.0
 49
-0.25
  0
LTYPE
  2
BYGG-01443602$0$NEWDOT
 70
     0
  3
____ . ____ . ____ . ____ . ____ . ____ . ____
 72
    65
 73
     4
 40
2.0
 49
1.0
 49
-0.5
 49
0.0
 49
-0.5
  0
LTYPE
  2
BYGG-01443602$0$ZIGZAG
 70
     0
  3
Zig zag /\/\/\/\/\/\/\/\/\/\/\/\/\/\/\/\/\/\/\/\/\/\/\/
 72
    65
 73
     4
 40
20.32254
 49
0.00254
 49
-5.0800000000000001
 49
-10.16
 49
-5.0800000000000001
  0
LTYPE
  2
BYGG-024807$0$DASHDOT
 70
     0
  3
__ . __ . __ . __ . __ . __ . __ . __ . __ . __
 72
    65
 73
     4
 40
1.0
 49
0.5
 49
-0.25
 49
0.0
 49
-0.25
  0
LTYPE
  2
BYGG-024800$0$DASHDOT
 70
     0
  3
__ . __ . __ . __ . __ . __ . __ . __ . __ . __
 72
    65
 73
     4
 40
1.0
 49
0.5
 49
-0.25
 49
0.0
 49
-0.25
  0
LTYPE
  2
BYGG-024817$0$DASHDOT
 70
     0
  3
__ . __ . __ . __ . __ . __ . __ . __ . __ . __
 72
    65
 73
     4
 40
1.0
 49
0.5
 49
-0.25
 49
0.0
 49
-0.25
  0
ENDTAB
  0
TABLE
  2
LAYER
 70
   117
  0
LAYER
  2
0
 70
     0
 62
     7
  6
CONTINUOUS
  0
LAYER
  2
DEFPOINTS
 70
     0
 62
     7
  6
CONTINUOUS
  0
LAYER
  2
SAPA_ARTIKELNR
 70
     0
 62
     4
  6
CONTINUOUS
  0
LAYER
  2
SAPA_LIGHT
 70
     1
 62
     1
  6
CONTINUOUS
  0
LAYER
  2
SAPA_ANSLUTNING
 70
     0
 62
     6
  6
CONTINUOUS
  0
LAYER
  2
SAPA_FYLLNING
 70
     0
 62
     4
  6
CONTINUOUS
  0
LAYER
  2
SAPA_ISOLATOR
 70
     0
 62
     4
  6
CONTINUOUS
  0
LAYER
  2
SAPA_MATT
 70
     0
 62
     1
  6
CONTINUOUS
  0
LAYER
  2
SAPA_GLAS
 70
     0
 62
     4
  6
CONTINUOUS
  0
LAYER
  2
SAPA_FOGBAND
 70
     0
 62
     2
  6
CONTINUOUS
  0
LAYER
  2
SAPA_PROFIL
 70
     0
 62
     7
  6
CONTINUOUS
  0
ENDTAB
  0
TABLE
  2
STYLE
 70
    47
  0
STYLE
  2
STANDARD
 70
     0
 40
0.0
 41
1.0
 50
0.0
 71
     0
 42
0.2
  3
txt
  4

  0
STYLE
  2
ISO
 70
     0
 40
0.0
 41
1.0
 50
0.0
 71
     0
 42
5.0
  3
isocp3.shx
  4

  0
STYLE
  2

 70
     1
 40
0.0
 41
1.0
 50
0.0
 71
     0
 42
0.2
  3
ltypeshp.shx
  4

  0
STYLE
  2
BYGG-021409$0$STANDARD
 70
     0
 40
0.0
 41
1.0
 50
0.0
 71
     0
 42
0.2
  3
txt
  4

  0
STYLE
  2
BYGG-021409$0$ISO
 70
     0
 40
0.0
 41
1.0
 50
0.0
 71
     0
 42
3.5
  3
txt
  4

  0
STYLE
  2
BYGG-014413$0$STANDARD
 70
     0
 40
0.0
 41
1.0
 50
0.0
 71
     0
 42
0.2
  3
txt
  4

  0
STYLE
  2
BYGG-014413$0$ISO
 70
     0
 40
0.0
 41
1.0
 50
0.0
 71
     0
 42
3.5
  3
isocp3.shx
  4

  0
STYLE
  2
BYGG-021556$0$STANDARD
 70
     0
 40
0.0
 41
1.0
 50
0.0
 71
     0
 42
0.2
  3
txt
  4

  0
STYLE
  2
BYGG-021556$0$ISO
 70
     0
 40
0.0
 41
1.0
 50
0.0
 71
     0
 42
7.0
  3
ISO
  4

  0
STYLE
  2
BYGG-008943$0$STANDARD
 70
     0
 40
0.0
 41
1.0
 50
0.0
 71
     0
 42
0.2
  3
txt
  4

  0
STYLE
  2
BYGG-008943$0$ISO
 70
     0
 40
0.0
 41
1.0
 50
0.0
 71
     0
 42
3.5
  3
txt
  4

  0
STYLE
  2
BYGG-008943$0$CONVERTER_2
 70
     0
 40
0.0
 41
0.72
 50
0.0
 71
     0
 42
0.2
  3
txt.shx
  4

  0
STYLE
  2
BYGG-008943$0$ANNOTATIVE
 70
     0
 40
0.0
 41
1.0
 50
0.0
 71
     0
 42
0.2
  3
txt
  4

  0
STYLE
  2
BYGG-021764$0$STANDARD
 70
     0
 40
0.0
 41
1.0
 50
0.0
 71
     0
 42
0.2
  3
txt
  4

  0
STYLE
  2
BYGG-021764$0$ISO
 70
     0
 40
0.0
 41
1.0
 50
0.0
 71
     0
 42
3.5
  3
txt
  4

  0
STYLE
  2
BYGG-00894401$0$STANDARD
 70
     0
 40
0.0
 41
1.0
 50
0.0
 71
     0
 42
0.2
  3
txt
  4

  0
STYLE
  2
BYGG-00894401$0$ISO
 70
     0
 40
0.0
 41
1.0
 50
0.0
 71
     0
 42
3.5
  3
txt
  4

  0
STYLE
  2
BYGG-00894401$0$CONVERTER_
 70
     0
 40
0.0
 41
0.72
 50
0.0
 71
     0
 42
0.2
  3
txt.shx
  4

  0
STYLE
  2
BYGG-00894401$0$ANNOTATIVE
 70
     0
 40
0.0
 41
1.0
 50
0.0
 71
     0
 42
0.2
  3
txt
  4

  0
STYLE
  2
BYGG-021526$0$STANDARD
 70
     0
 40
0.0
 41
1.0
 50
0.0
 71
     0
 42
0.2
  3
txt
  4

  0
STYLE
  2
BYGG-021526$0$ISO
 70
     0
 40
0.0
 41
1.0
 50
0.0
 71
     0
 42
3.5
  3
isocp3.shx
  4

  0
STYLE
  2
BYGG-021526$0$ANNOTATIVE
 70
     0
 40
0.0
 41
1.0
 50
0.0
 71
     0
 42
0.2
  3
txt
  4

  0
STYLE
  2
BYGG-024800$0$STANDARD
 70
     0
 40
0.0
 41
1.0
 50
0.0
 71
     0
 42
0.2
  3
txt
  4

  0
STYLE
  2
BYGG-024800$0$ISO
 70
     0
 40
0.0
 41
1.0
 50
0.0
 71
     0
 42
3.5
  3
txt
  4

  0
STYLE
  2
BYGG-024807$0$STANDARD
 70
     0
 40
0.0
 41
1.0
 50
0.0
 71
     0
 42
0.2
  3
txt
  4

  0
STYLE
  2
BYGG-024807$0$ISO
 70
     0
 40
0.0
 41
1.0
 50
0.0
 71
     0
 42
3.5
  3
txt
  4

  0
STYLE
  2
BYGG-024807$0$ANNOTATIVE
 70
     0
 40
0.0
 41
1.0
 50
0.0
 71
     0
 42
0.2
  3
txt
  4

  0
STYLE
  2
BYGG-024973$0$STANDARD
 70
     0
 40
0.0
 41
1.0
 50
0.0
 71
     0
 42
0.2
  3
txt
  4

  0
STYLE
  2
BYGG-024973$0$ISO
 70
     0
 40
0.0
 41
1.0
 50
0.0
 71
     0
 42
3.5
  3
txt
  4

  0
STYLE
  2
BYGG-025186$0$STANDARD
 70
     0
 40
0.0
 41
1.0
 50
0.0
 71
     0
 42
0.2
  3
txt
  4

  0
STYLE
  2
BYGG-025186$0$ISO
 70
     0
 40
0.0
 41
1.0
 50
0.0
 71
     0
 42
3.5
  3
txt
  4

  0
STYLE
  2
BYGG-025052$0$STANDARD
 70
     0
 40
0.0
 41
1.0
 50
0.0
 71
     0
 42
0.2
  3
txt
  4

  0
STYLE
  2
BYGG-025052$0$ISO
 70
     0
 40
0.0
 41
1.0
 50
0.0
 71
     0
 42
3.5
  3
txt
  4

  0
STYLE
  2
BYGG-024817$0$STANDARD
 70
     0
 40
0.0
 41
1.0
 50
0.0
 71
     0
 42
0.2
  3
txt
  4

  0
STYLE
  2
BYGG-024817$0$ISO
 70
     0
 40
0.0
 41
1.0
 50
0.0
 71
     0
 42
3.5
  3
txt
  4

  0
STYLE
  2
BYGG-014090$0$STANDARD
 70
     0
 40
0.0
 41
1.0
 50
0.0
 71
     0
 42
0.2
  3
txt
  4

  0
STYLE
  2
BYGG-015465$0$STANDARD
 70
     0
 40
0.0
 41
1.0
 50
0.0
 71
     0
 42
0.2
  3
txt
  4

  0
STYLE
  2
BYGG-015465$0$ISO
 70
     0
 40
0.0
 41
1.0
 50
0.0
 71
     0
 42
3.5
  3
txt
  4

  0
STYLE
  2
BYGG-01443301$0$STANDARD
 70
     0
 40
0.0
 41
1.0
 50
0.0
 71
     0
 42
0.2
  3
txt
  4

  0
STYLE
  2
BYGG-01443301$0$ISO
 70
     0
 40
0.0
 41
1.0
 50
0.0
 71
     0
 42
3.5
  3
isocp3.shx
  4

  0
STYLE
  2
BYGG-021358$0$STANDARD
 70
     0
 40
0.0
 41
1.0
 50
0.0
 71
     0
 42
0.2
  3
txt
  4

  0
STYLE
  2
BYGG-014196$0$STANDARD
 70
     0
 40
0.0
 41
1.0
 50
0.0
 71
     0
 42
0.2
  3
txt
  4

  0
STYLE
  2
BYGG-014196$0$ISO
 70
     0
 40
0.0
 41
1.0
 50
0.0
 71
     0
 42
3.5
  3
isocp3.shx
  4

  0
STYLE
  2
BYGG-019373$0$STANDARD
 70
     0
 40
0.0
 41
1.0
 50
0.0
 71
     0
 42
0.2
  3
txt
  4

  0
STYLE
  2
BYGG-019373$0$ISO
 70
     0
 40
0.0
 41
1.0
 50
0.0
 71
     0
 42
3.5
  3
txt
  4

  0
STYLE
  2
BYGG-01443602$0$STANDARD
 70
     0
 40
0.0
 41
1.0
 50
0.0
 71
     0
 42
0.2
  3
txt
  4

  0
STYLE
  2
BYGG-01443602$0$ISO
 70
     0
 40
0.0
 41
1.0
 50
0.0
 71
     0
 42
3.5
  3
isocp3.shx
  4

  0
ENDTAB
  0
TABLE
  2
VIEW
 70
     0
  0
ENDTAB
  0
TABLE
  2
UCS
 70
     0
  0
ENDTAB
  0
TABLE
  2
APPID
 70
    25
  0
APPID
  2
ACAD
 70
     0
  0
APPID
  2
ACAD_PSEXT
 70
     0
  0
APPID
  2
ACAECLAYERSTANDARD
 70
     0
  0
APPID
  2
ACAD_MLEADERVER
 70
     0
  0
APPID
  2
ACAD_DSTYLE_DIMJAG
 70
     0
  0
APPID
  2
ACAD_DSTYLE_DIMTALN
 70
     0
  0
APPID
  2
ACDBDYNAMICBLOCKGUID
 70
     0
  0
APPID
  2
ACDBBLOCKREPETAG
 70
     0
  0
APPID
  2
ACAD_DSTYLE_DIMJOGGED_JOGA
 70
     0
  0
APPID
  2
ACAD_EXEMPT_FROM_CAD_STANDARDS
 70
     0
  0
APPID
  2
ACAD_DSTYLE_DIMTEXT_FILL
 70
     0
  0
APPID
  2
ACAD_DSTYLE_DIMEXT_LENGTH
 70
     0
  0
APPID
  2
ACAD_DSTYLE_DIMEXT_ENABLED
 70
     0
  0
APPID
  2
ACAD_DSTYLE_DIM_LINETYPE
 70
     0
  0
APPID
  2
ACAD_DSTYLE_DIM_EXT1_LINETYPE
 70
     0
  0
APPID
  2
ACAD_DSTYLE_DIM_EXT2_LINETYPE
 70
     0
  0
APPID
  2
ACAD_DSTYLE_DIMARC_LENGTH_
 70
     0
  0
APPID
  2
ACADANNOTATIVE
 70
     0
  0
APPID
  2
AMG_ARCHIVE11
 70
     0
  0
APPID
  2
RC_PROFILE
 70
     0
  0
APPID
  2
ACAD_DSTYLE_DIMRADIAL_EXTENSION
 70
     0
  0
APPID
  2
DCO15
 70
     0
  0
APPID
  2
ACAD_NAV_VCDISPLAY
 70
     0
  0
APPID
  2
AEC_XDATA_BOUND_SPACE
 70
     0
  0
APPID
  2
ACCMTRANSPARENCY
 70
     0
  0
ENDTAB
  0
TABLE
  2
DIMSTYLE
 70
    40
  0
DIMSTYLE
  2
MASKIN
 70
     0
  3

  4

  5

  6

  7

 40
0.0
 41
3.0
 42
1.5
 43
10.0
 44
1.5
 45
0.0
 46
0.0
 47
0.0
 48
0.0
140
3.5
141
-5.0
142
0.0
143
25.399999999999999
144
-1.0
145
0.0
146
1.0
147
1.0
 71
     0
 72
     0
 73
     0
 74
     1
 75
     0
 76
     0
 77
     1
 78
     8
170
     0
171
     0
172
     1
173
     0
174
     0
175
     0
176
   256
177
   256
178
     2
  0
DIMSTYLE
  2
BYGG-021409$0$STANDARD
 70
     0
  3

  4

  5

  6

  7

 40
1.0
 41
0.18
 42
0.0625
 43
0.38
 44
0.18
 45
0.0
 46
0.0
 47
0.0
 48
0.0
140
0.18
141
0.09
142
0.0
143
25.399999999999999
144
1.0
145
0.0
146
1.0
147
0.09
 71
     0
 72
     0
 73
     1
 74
     1
 75
     0
 76
     0
 77
     0
 78
     0
170
     0
171
     2
172
     0
173
     0
174
     0
175
     0
176
     0
177
     0
178
     0
  0
DIMSTYLE
  2
BYGG-021409$0$MASKIN
 70
     0
  3

  4

  5

  6

  7

 40
0.0
 41
3.0
 42
1.5
 43
10.0
 44
1.5
 45
0.0
 46
0.0
 47
0.0
 48
0.0
140
3.0
141
-5.0
142
0.0
143
25.399999999999999
144
-1.0
145
0.0
146
1.0
147
1.0
 71
     0
 72
     0
 73
     0
 74
     0
 75
     0
 76
     0
 77
     1
 78
     8
170
     0
171
     0
172
     1
173
     0
174
     0
175
     0
176
   256
177
   256
178
     2
  0
DIMSTYLE
  2
BYGG-021409$0$MASKINX
 70
     0
  3

  4

  5

  6

  7

 40
0.0
 41
3.0
 42
1.5
 43
10.0
 44
1.5
 45
0.0
 46
0.0
 47
0.0
 48
0.0
140
3.0
141
-5.0
142
0.0
143
25.399999999999999
144
-1.0
145
0.0
146
1.0
147
1.0
 71
     0
 72
     0
 73
     0
 74
     0
 75
     0
 76
     0
 77
     1
 78
     8
170
     0
171
     0
172
     1
173
     0
174
     0
175
     0
176
   256
177
   256
178
   256
  0
DIMSTYLE
  2
BYGG-014413$0$MASKIN
 70
     0
  3

  4

  5

  6

  7

 40
0.0
 41
3.0
 42
1.5
 43
10.0
 44
1.5
 45
0.0
 46
0.0
 47
0.0
 48
0.0
140
3.0
141
-5.0
142
0.0
143
25.399999999999999
144
-1.0
145
0.0
146
1.0
147
1.0
 71
     0
 72
     0
 73
     0
 74
     0
 75
     0
 76
     0
 77
     1
 78
     8
170
     0
171
     0
172
     1
173
     0
174
     0
175
     0
176
   256
177
   256
178
   256
  0
DIMSTYLE
  2
BYGG-014413$0$STANDARD
 70
     0
  3

  4

  5

  6

  7

 40
1.0
 41
0.18
 42
0.0625
 43
0.38
 44
0.18
 45
0.0
 46
0.0
 47
0.0
 48
0.0
140
0.18
141
0.09
142
0.0
143
25.399999999999999
144
1.0
145
0.0
146
1.0
147
0.09
 71
     0
 72
     0
 73
     1
 74
     1
 75
     0
 76
     0
 77
     0
 78
     0
170
     0
171
     2
172
     0
173
     0
174
     0
175
     0
176
     0
177
     0
178
     0
  0
DIMSTYLE
  2
BYGG-021556$0$MASKIN
 70
     0
  3

  4

  5

  6

  7

 40
1.0
 41
3.0
 42
1.5
 43
10.0
 44
1.5
 45
0.0
 46
0.0
 47
0.0
 48
0.0
140
3.0
141
-5.0
142
0.0
143
25.399999999999999
144
1.0
145
0.0
146
1.0
147
0.09
 71
     0
 72
     0
 73
     0
 74
     0
 75
     0
 76
     0
 77
     1
 78
     8
170
     0
171
     0
172
     0
173
     0
174
     0
175
     0
176
   256
177
   256
178
   256
  0
DIMSTYLE
  2
BYGG-008943$0$MASKIN
 70
     0
  3

  4

  5

  6

  7

 40
0.0
 41
3.0
 42
1.5
 43
10.0
 44
1.5
 45
0.0
 46
0.0
 47
0.0
 48
0.0
140
3.0
141
-5.0
142
0.0
143
25.399999999999999
144
-1.0
145
0.0
146
1.0
147
1.0
 71
     0
 72
     0
 73
     0
 74
     0
 75
     0
 76
     0
 77
     1
 78
     8
170
     0
171
     0
172
     1
173
     0
174
     0
175
     0
176
   256
177
   256
178
     2
  0
DIMSTYLE
  2
BYGG-008943$0$STANDARD
 70
     0
  3

  4

  5

  6

  7

 40
1.0
 41
0.18
 42
0.0625
 43
0.38
 44
0.18
 45
0.0
 46
0.0
 47
0.0
 48
0.0
140
0.18
141
0.09
142
0.0
143
25.399999999999999
144
1.0
145
0.0
146
1.0
147
0.09
 71
     0
 72
     0
 73
     1
 74
     1
 75
     0
 76
     0
 77
     0
 78
     0
170
     0
171
     2
172
     0
173
     0
174
     0
175
     0
176
     0
177
     0
178
     0
  0
DIMSTYLE
  2
BYGG-008943$0$ANNOTATIVE
 70
     0
  3

  4

  5

  6

  7

 40
1.0
 41
0.18
 42
0.0625
 43
0.38
 44
0.18
 45
0.0
 46
0.0
 47
0.0
 48
0.0
140
0.18
141
0.09
142
0.0
143
25.399999999999999
144
1.0
145
0.0
146
1.0
147
0.09
 71
     0
 72
     0
 73
     1
 74
     1
 75
     0
 76
     0
 77
     0
 78
     0
170
     0
171
     2
172
     0
173
     0
174
     0
175
     0
176
     0
177
     0
178
     0
  0
DIMSTYLE
  2
BYGG-021764$0$STANDARD
 70
     0
  3

  4

  5

  6

  7

 40
1.0
 41
0.18
 42
0.0625
 43
0.38
 44
0.18
 45
0.0
 46
0.0
 47
0.0
 48
0.0
140
0.18
141
0.09
142
0.0
143
25.399999999999999
144
1.0
145
0.0
146
1.0
147
0.09
 71
     0
 72
     0
 73
     1
 74
     1
 75
     0
 76
     0
 77
     0
 78
     0
170
     0
171
     2
172
     0
173
     0
174
     0
175
     0
176
     0
177
     0
178
     0
  0
DIMSTYLE
  2
BYGG-021764$0$MASKIN
 70
     0
  3

  4

  5

  6

  7

 40
0.0
 41
3.0
 42
1.5
 43
10.0
 44
1.5
 45
0.0
 46
0.0
 47
0.0
 48
0.0
140
3.0
141
-5.0
142
0.0
143
25.399999999999999
144
-1.0
145
0.0
146
1.0
147
1.0
 71
     0
 72
     0
 73
     0
 74
     0
 75
     0
 76
     0
 77
     1
 78
     8
170
     0
171
     0
172
     1
173
     0
174
     0
175
     0
176
   256
177
   256
178
     2
  0
DIMSTYLE
  2
BYGG-00894401$0$MASKIN
 70
     0
  3

  4

  5

  6

  7

 40
0.0
 41
3.0
 42
1.5
 43
10.0
 44
1.5
 45
0.0
 46
0.0
 47
0.0
 48
0.0
140
3.0
141
-5.0
142
0.0
143
25.399999999999999
144
-1.0
145
0.0
146
1.0
147
1.0
 71
     0
 72
     0
 73
     0
 74
     0
 75
     0
 76
     0
 77
     1
 78
     8
170
     0
171
     0
172
     1
173
     0
174
     0
175
     0
176
   256
177
   256
178
     2
  0
DIMSTYLE
  2
BYGG-00894401$0$STANDARD
 70
     0
  3

  4

  5

  6

  7

 40
1.0
 41
0.18
 42
0.0625
 43
0.38
 44
0.18
 45
0.0
 46
0.0
 47
0.0
 48
0.0
140
0.18
141
0.09
142
0.0
143
25.399999999999999
144
1.0
145
0.0
146
1.0
147
0.09
 71
     0
 72
     0
 73
     1
 74
     1
 75
     0
 76
     0
 77
     0
 78
     0
170
     0
171
     2
172
     0
173
     0
174
     0
175
     0
176
     0
177
     0
178
     0
  0
DIMSTYLE
  2
BYGG-00894401$0$ANNOTATIVE
 70
     0
  3

  4

  5

  6

  7

 40
1.0
 41
0.18
 42
0.0625
 43
0.38
 44
0.18
 45
0.0
 46
0.0
 47
0.0
 48
0.0
140
0.18
141
0.09
142
0.0
143
25.399999999999999
144
1.0
145
0.0
146
1.0
147
0.09
 71
     0
 72
     0
 73
     1
 74
     1
 75
     0
 76
     0
 77
     0
 78
     0
170
     0
171
     2
172
     0
173
     0
174
     0
175
     0
176
     0
177
     0
178
     0
  0
DIMSTYLE
  2
BYGG-021526$0$MASKIN1
 70
     0
  3

  4

  5

  6

  7

 40
0.0
 41
3.0
 42
1.5
 43
10.0
 44
1.5
 45
0.0
 46
0.0
 47
0.0
 48
0.0
140
3.0
141
-5.0
142
0.0
143
25.399999999999999
144
-1.0
145
0.0
146
1.0
147
1.0
 71
     0
 72
     0
 73
     0
 74
     0
 75
     0
 76
     0
 77
     1
 78
     8
170
     0
171
     0
172
     1
173
     0
174
     0
175
     0
176
   256
177
   256
178
   256
  0
DIMSTYLE
  2
BYGG-021526$0$STANDARD
 70
     0
  3

  4

  5

  6

  7

 40
1.0
 41
0.18
 42
0.0625
 43
0.38
 44
0.18
 45
0.0
 46
0.0
 47
0.0
 48
0.0
140
0.18
141
0.09
142
0.0
143
25.399999999999999
144
1.0
145
0.0
146
1.0
147
0.09
 71
     0
 72
     0
 73
     1
 74
     1
 75
     0
 76
     0
 77
     0
 78
     0
170
     0
171
     2
172
     0
173
     0
174
     0
175
     0
176
     0
177
     0
178
     0
  0
DIMSTYLE
  2
BYGG-021526$0$ANNOTATIVE
 70
     0
  3

  4

  5

  6

  7

 40
1.0
 41
0.18
 42
0.0625
 43
0.38
 44
0.18
 45
0.0
 46
0.0
 47
0.0
 48
0.0
140
0.18
141
0.09
142
0.0
143
25.399999999999999
144
1.0
145
0.0
146
1.0
147
0.09
 71
     0
 72
     0
 73
     1
 74
     1
 75
     0
 76
     0
 77
     0
 78
     0
170
     0
171
     2
172
     0
173
     0
174
     0
175
     0
176
     0
177
     0
178
     0
  0
DIMSTYLE
  2
BYGG-021526$0$MASKIN
 70
     0
  3

  4

  5

  6

  7

 40
0.0
 41
3.0
 42
1.5
 43
10.0
 44
1.5
 45
0.0
 46
0.0
 47
0.0
 48
0.0
140
3.0
141
-5.0
142
0.0
143
25.399999999999999
144
-1.0
145
0.0
146
1.0
147
1.0
 71
     0
 72
     0
 73
     0
 74
     1
 75
     0
 76
     0
 77
     1
 78
     8
170
     0
171
     0
172
     1
173
     0
174
     0
175
     0
176
   256
177
   256
178
     2
  0
DIMSTYLE
  2
BYGG-024800$0$MASKIN
 70
     0
  3

  4

  5

  6

  7

 40
0.0
 41
3.0
 42
1.5
 43
10.0
 44
1.5
 45
0.0
 46
0.0
 47
0.0
 48
0.0
140
3.0
141
-5.0
142
0.0
143
25.399999999999999
144
-1.0
145
0.0
146
1.0
147
1.0
 71
     0
 72
     0
 73
     0
 74
     0
 75
     0
 76
     0
 77
     1
 78
     8
170
     0
171
     0
172
     1
173
     0
174
     0
175
     0
176
   256
177
   256
178
     2
  0
DIMSTYLE
  2
BYGG-024800$0$STANDARD
 70
     0
  3

  4

  5

  6

  7

 40
1.0
 41
0.18
 42
0.0625
 43
0.38
 44
0.18
 45
0.0
 46
0.0
 47
0.0
 48
0.0
140
0.18
141
0.09
142
0.0
143
25.399999999999999
144
1.0
145
0.0
146
1.0
147
0.09
 71
     0
 72
     0
 73
     1
 74
     1
 75
     0
 76
     0
 77
     0
 78
     0
170
     0
171
     2
172
     0
173
     0
174
     0
175
     0
176
     0
177
     0
178
     0
  0
DIMSTYLE
  2
BYGG-024807$0$MASKIN
 70
     0
  3

  4

  5

  6

  7

 40
0.0
 41
3.0
 42
1.5
 43
10.0
 44
1.5
 45
0.0
 46
0.0
 47
0.0
 48
0.0
140
3.0
141
-5.0
142
0.0
143
25.399999999999999
144
-1.0
145
0.0
146
1.0
147
1.0
 71
     0
 72
     0
 73
     0
 74
     0
 75
     0
 76
     0
 77
     1
 78
     8
170
     0
171
     0
172
     1
173
     0
174
     0
175
     0
176
   256
177
   256
178
     2
  0
DIMSTYLE
  2
BYGG-024807$0$STANDARD
 70
     0
  3

  4

  5

  6

  7

 40
1.0
 41
0.18
 42
0.0625
 43
0.38
 44
0.18
 45
0.0
 46
0.0
 47
0.0
 48
0.0
140
0.18
141
0.09
142
0.0
143
25.399999999999999
144
1.0
145
0.0
146
1.0
147
0.09
 71
     0
 72
     0
 73
     1
 74
     1
 75
     0
 76
     0
 77
     0
 78
     0
170
     0
171
     2
172
     0
173
     0
174
     0
175
     0
176
     0
177
     0
178
     0
  0
DIMSTYLE
  2
BYGG-024807$0$ANNOTATIVE
 70
     0
  3

  4

  5

  6

  7

 40
1.0
 41
0.18
 42
0.0625
 43
0.38
 44
0.18
 45
0.0
 46
0.0
 47
0.0
 48
0.0
140
0.18
141
0.09
142
0.0
143
25.399999999999999
144
1.0
145
0.0
146
1.0
147
0.09
 71
     0
 72
     0
 73
     1
 74
     1
 75
     0
 76
     0
 77
     0
 78
     0
170
     0
171
     2
172
     0
173
     0
174
     0
175
     0
176
     0
177
     0
178
     0
  0
DIMSTYLE
  2
BYGG-024973$0$STANDARD
 70
     0
  3

  4

  5

  6

  7

 40
1.0
 41
0.18
 42
0.0625
 43
0.38
 44
0.18
 45
0.0
 46
0.0
 47
0.0
 48
0.0
140
0.18
141
0.09
142
0.0
143
25.399999999999999
144
1.0
145
0.0
146
1.0
147
0.09
 71
     0
 72
     0
 73
     1
 74
     1
 75
     0
 76
     0
 77
     0
 78
     0
170
     0
171
     2
172
     0
173
     0
174
     0
175
     0
176
     0
177
     0
178
     0
  0
DIMSTYLE
  2
BYGG-024973$0$MASKIN
 70
     0
  3

  4

  5

  6

  7

 40
0.0
 41
3.0
 42
1.5
 43
10.0
 44
1.5
 45
0.0
 46
0.0
 47
0.0
 48
0.0
140
3.0
141
-5.0
142
0.0
143
25.399999999999999
144
-1.0
145
0.0
146
1.0
147
1.0
 71
     0
 72
     0
 73
     0
 74
     0
 75
     0
 76
     0
 77
     1
 78
     8
170
     0
171
     0
172
     1
173
     0
174
     0
175
     0
176
   256
177
   256
178
     2
  0
DIMSTYLE
  2
BYGG-025186$0$MASKIN
 70
     0
  3

  4

  5

  6

  7

 40
0.0
 41
3.0
 42
1.5
 43
10.0
 44
1.5
 45
0.0
 46
0.0
 47
0.0
 48
0.0
140
3.0
141
-5.0
142
0.0
143
25.399999999999999
144
-1.0
145
0.0
146
1.0
147
1.0
 71
     0
 72
     0
 73
     0
 74
     0
 75
     0
 76
     0
 77
     1
 78
     8
170
     0
171
     0
172
     1
173
     0
174
     0
175
     0
176
   256
177
   256
178
     2
  0
DIMSTYLE
  2
BYGG-025052$0$MASKIN
 70
     0
  3

  4

  5

  6

  7

 40
0.0
 41
3.0
 42
1.5
 43
10.0
 44
1.5
 45
0.0
 46
0.0
 47
0.0
 48
0.0
140
3.0
141
-5.0
142
0.0
143
25.399999999999999
144
-1.0
145
0.0
146
1.0
147
1.0
 71
     0
 72
     0
 73
     0
 74
     0
 75
     0
 76
     0
 77
     1
 78
     8
170
     0
171
     0
172
     1
173
     0
174
     0
175
     0
176
   256
177
   256
178
     2
  0
DIMSTYLE
  2
BYGG-025052$0$STANDARD
 70
     0
  3

  4

  5

  6

  7

 40
1.0
 41
0.18
 42
0.0625
 43
0.38
 44
0.18
 45
0.0
 46
0.0
 47
0.0
 48
0.0
140
0.18
141
0.09
142
0.0
143
25.399999999999999
144
1.0
145
0.0
146
1.0
147
0.09
 71
     0
 72
     0
 73
     1
 74
     1
 75
     0
 76
     0
 77
     0
 78
     0
170
     0
171
     2
172
     0
173
     0
174
     0
175
     0
176
     0
177
     0
178
     0
  0
DIMSTYLE
  2
BYGG-024817$0$MASKIN
 70
     0
  3

  4

  5

  6

  7

 40
0.0
 41
3.0
 42
1.5
 43
10.0
 44
1.5
 45
0.0
 46
0.0
 47
0.0
 48
0.0
140
3.0
141
-5.0
142
0.0
143
25.399999999999999
144
-1.0
145
0.0
146
1.0
147
1.0
 71
     0
 72
     0
 73
     0
 74
     0
 75
     0
 76
     0
 77
     1
 78
     8
170
     0
171
     0
172
     1
173
     0
174
     0
175
     0
176
   256
177
   256
178
     2
  0
DIMSTYLE
  2
BYGG-024817$0$STANDARD
 70
     0
  3

  4

  5

  6

  7

 40
1.0
 41
0.18
 42
0.0625
 43
0.38
 44
0.18
 45
0.0
 46
0.0
 47
0.0
 48
0.0
140
0.18
141
0.09
142
0.0
143
25.399999999999999
144
1.0
145
0.0
146
1.0
147
0.09
 71
     0
 72
     0
 73
     1
 74
     1
 75
     0
 76
     0
 77
     0
 78
     0
170
     0
171
     2
172
     0
173
     0
174
     0
175
     0
176
     0
177
     0
178
     0
  0
DIMSTYLE
  2
BYGG-014090$0$STANDARD
 70
     0
  3

  4

  5

  6

  7

 40
1.0
 41
0.18
 42
0.0625
 43
0.38
 44
0.18
 45
0.0
 46
0.0
 47
0.0
 48
0.0
140
0.18
141
0.09
142
0.0
143
25.399999999999999
144
1.0
145
0.0
146
1.0
147
0.09
 71
     0
 72
     0
 73
     1
 74
     1
 75
     0
 76
     0
 77
     0
 78
     0
170
     0
171
     2
172
     0
173
     0
174
     0
175
     0
176
     0
177
     0
178
     0
  0
DIMSTYLE
  2
BYGG-015465$0$STANDARD
 70
     0
  3

  4

  5

  6

  7

 40
1.0
 41
0.18
 42
0.0625
 43
0.38
 44
0.18
 45
0.0
 46
0.0
 47
0.0
 48
0.0
140
0.18
141
0.09
142
0.0
143
25.399999999999999
144
1.0
145
0.0
146
1.0
147
0.09
 71
     0
 72
     0
 73
     1
 74
     1
 75
     0
 76
     0
 77
     0
 78
     0
170
     0
171
     2
172
     0
173
     0
174
     0
175
     0
176
     0
177
     0
178
     0
  0
DIMSTYLE
  2
BYGG-015465$0$MASKIN
 70
     0
  3

  4

  5

  6

  7

 40
0.0
 41
3.0
 42
1.5
 43
10.0
 44
1.5
 45
0.0
 46
0.0
 47
0.0
 48
0.0
140
3.0
141
-5.0
142
0.0
143
25.399999999999999
144
-1.0
145
0.0
146
1.0
147
1.0
 71
     0
 72
     0
 73
     0
 74
     0
 75
     0
 76
     0
 77
     1
 78
     8
170
     0
171
     0
172
     1
173
     0
174
     0
175
     0
176
   256
177
   256
178
     2
  0
DIMSTYLE
  2
BYGG-01443301$0$MASKIN
 70
     0
  3

  4

  5

  6

  7

 40
0.0
 41
3.0
 42
1.5
 43
10.0
 44
1.5
 45
0.0
 46
0.0
 47
0.0
 48
0.0
140
3.0
141
-5.0
142
0.0
143
25.399999999999999
144
-1.0
145
0.0
146
1.0
147
1.0
 71
     0
 72
     0
 73
     0
 74
     0
 75
     0
 76
     0
 77
     1
 78
     8
170
     0
171
     0
172
     1
173
     0
174
     0
175
     0
176
   256
177
   256
178
   256
  0
DIMSTYLE
  2
BYGG-021358$0$STANDARD
 70
     0
  3

  4

  5

  6

  7

 40
1.0
 41
0.18
 42
0.0625
 43
0.38
 44
0.18
 45
0.0
 46
0.0
 47
0.0
 48
0.0
140
0.18
141
0.09
142
0.0
143
25.399999999999999
144
1.0
145
0.0
146
1.0
147
0.09
 71
     0
 72
     0
 73
     1
 74
     1
 75
     0
 76
     0
 77
     0
 78
     0
170
     0
171
     2
172
     0
173
     0
174
     0
175
     0
176
     0
177
     0
178
     0
  0
DIMSTYLE
  2
BYGG-014196$0$MASKIN
 70
     0
  3

  4

  5

  6

  7

 40
0.0
 41
3.0
 42
1.5
 43
10.0
 44
1.5
 45
0.0
 46
0.0
 47
0.0
 48
0.0
140
3.0
141
-5.0
142
0.0
143
25.399999999999999
144
-1.0
145
0.0
146
1.0
147
1.0
 71
     0
 72
     0
 73
     0
 74
     0
 75
     0
 76
     0
 77
     1
 78
     8
170
     0
171
     0
172
     1
173
     0
174
     0
175
     0
176
   256
177
   256
178
   256
  0
DIMSTYLE
  2
BYGG-019373$0$MASKIN
 70
     0
  3

  4

  5

  6

  7

 40
0.0
 41
3.0
 42
1.5
 43
10.0
 44
1.5
 45
0.0
 46
0.0
 47
0.0
 48
0.0
140
3.0
141
-5.0
142
0.0
143
25.399999999999999
144
-1.0
145
0.0
146
1.0
147
1.0
 71
     0
 72
     0
 73
     0
 74
     0
 75
     0
 76
     0
 77
     1
 78
     8
170
     0
171
     0
172
     1
173
     0
174
     0
175
     0
176
   256
177
   256
178
     2
  0
DIMSTYLE
  2
BYGG-01443602$0$MASKIN
 70
     0
  3

  4

  5

  6

  7

 40
0.0
 41
3.0
 42
1.5
 43
10.0
 44
1.5
 45
0.0
 46
0.0
 47
0.0
 48
0.0
140
3.0
141
-5.0
142
0.0
143
25.399999999999999
144
-1.0
145
0.0
146
1.0
147
1.0
 71
     0
 72
     0
 73
     0
 74
     0
 75
     0
 76
     0
 77
     1
 78
     8
170
     0
171
     0
172
     1
173
     0
174
     0
175
     0
176
   256
177
   256
178
   256
  0
DIMSTYLE
  2
BYGG-01443602$0$STANDARD
 70
     0
  3

  4

  5

  6

  7

 40
1.0
 41
0.18
 42
0.0625
 43
0.38
 44
0.18
 45
0.0
 46
0.0
 47
0.0
 48
0.0
140
0.18
141
0.09
142
0.0
143
25.399999999999999
144
1.0
145
0.0
146
1.0
147
0.09
 71
     0
 72
     0
 73
     1
 74
     1
 75
     0
 76
     0
 77
     0
 78
     0
170
     0
171
     2
172
     0
173
     0
174
     0
175
     0
176
     0
177
     0
178
     0
  0
ENDTAB
  0
ENDSEC
  0
SECTION
  2
BLOCKS
  0
BLOCK
  8
0
  2
$MODEL_SPACE
 70
     0
 10
0.0
 20
0.0
 30
0.0
  3
$MODEL_SPACE
  1

  0
ENDBLK
  5
D
  8
0
  0
BLOCK
 67
     1
  8
0
  2
$PAPER_SPACE
 70
     0
 10
0.0
 20
0.0
 30
0.0
  3
$PAPER_SPACE
  1

  0
ENDBLK
  5
12
 67
     1
  8
0
  0
BLOCK
  8
0
  2
*D89
 70
     1
 10
0.0
 20
0.0
 30
0.0
  3
*D89
  1

  0
LINE
  5
102F
  8
SAPA_MATT
 10
12.800000093615679
 20
164.9999999961538
 30
0.0000000048844204
 11
-7.4999999188109996
 21
164.9999999961538
 31
0.0000000048844204
  0
LINE
  5
1030
  8
SAPA_MATT
 10
13.50000008735082
 20
71.999999995807073
 30
0.0000000048844204
 11
-7.4999999188110218
 21
71.999999995807073
 31
0.0000000048844204
  0
LINE
  5
1031
  8
SAPA_MATT
 10
-5.9999999188110031
 20
161.9999999961538
 30
0.0000000048844204
 11
-5.9999999188110209
 21
74.999999995807073
 31
0.0000000048844204
  0
SOLID
  5
1032
  8
SAPA_MATT
 10
-6.4999999188110031
 20
161.9999999961538
 30
0.0000000048844204
 11
-5.4999999188110031
 21
161.9999999961538
 31
0.0000000048844204
 12
-5.9999999188110023
 22
164.9999999961538
 32
0.0000000048844204
 13
-5.9999999188110023
 23
164.9999999961538
 33
0.0000000048844204
  0
SOLID
  5
1033
  8
SAPA_MATT
 10
-6.4999999188110209
 20
74.999999995807073
 30
0.0000000048844204
 11
-5.4999999188110209
 21
74.999999995807073
 31
0.0000000048844204
 12
-5.9999999188110218
 22
71.999999995807073
 32
0.0000000048844204
 13
-5.9999999188110218
 23
71.999999995807073
 33
0.0000000048844204
  0
INSERT
  5
1034
  8
0
  2
*U118
 10
0.0
 20
0.0
 30
0.0
  0
POINT
  5
1035
  8
DEFPOINTS
 62
     0
 10
14.30000009361569
 20
164.9999999961538
 30
0.0
  0
POINT
  5
1036
  8
DEFPOINTS
 62
     0
 10
15.00000008735082
 20
71.999999995807073
 30
0.0
  0
POINT
  5
1037
  8
DEFPOINTS
 62
     0
 10
-5.9999999188110218
 20
71.999999995807073
 30
0.0000000048844204
  0
ENDBLK
  5
FCD
  8
0
  0
BLOCK
  8
0
  2
*D90
 70
     1
 10
0.0
 20
0.0
 30
0.0
  3
*D90
  1

  0
LINE
  5
1024
  8
SAPA_MATT
 10
13.50000008735082
 20
71.999999995807073
 30
0.0000000048844204
 11
-7.4999999188110218
 21
71.999999995807073
 31
0.0000000048844204
  0
LINE
  5
1025
  8
SAPA_MATT
 10
14.49999845920647
 20
66.999999999999687
 30
0.0000000048844204
 11
-7.4999999188110227
 21
66.999999999999687
 31
0.0000000048844204
  0
LINE
  5
1026
  8
SAPA_MATT
 10
-5.9999999188110218
 20
74.999999995807073
 30
0.0000000048844204
 11
-5.9999999188110218
 21
77.999999995807087
 31
0.0000000048844204
  0
LINE
  5
1027
  8
SAPA_MATT
 10
-5.9999999188110253
 20
63.999999999999687
 30
0.0000000048844204
 11
-5.9999999188110262
 21
60.999999999999687
 31
0.0000000048844204
  0
LINE
  5
1028
  8
SAPA_MATT
 10
-5.9999999188110227
 20
71.999999995807073
 30
0.0000000048844204
 11
-5.9999999188110236
 21
66.999999999999687
 31
0.0000000048844204
  0
SOLID
  5
1029
  8
SAPA_MATT
 10
-6.4999999188110218
 20
74.999999995807073
 30
0.0000000048844204
 11
-5.4999999188110218
 21
74.999999995807073
 31
0.0000000048844204
 12
-5.9999999188110227
 22
71.999999995807073
 32
0.0000000048844204
 13
-5.9999999188110227
 23
71.999999995807073
 33
0.0000000048844204
  0
SOLID
  5
102A
  8
SAPA_MATT
 10
-6.4999999188110253
 20
63.999999999999687
 30
0.0000000048844204
 11
-5.4999999188110253
 21
63.999999999999687
 31
0.0000000048844204
 12
-5.9999999188110236
 22
66.999999999999687
 32
0.0000000048844204
 13
-5.9999999188110236
 23
66.999999999999687
 33
0.0000000048844204
  0
INSERT
  5
102B
  8
0
  2
*U117
 10
0.0
 20
0.0
 30
0.0
  0
POINT
  5
102C
  8
DEFPOINTS
 62
     0
 10
15.00000008735082
 20
71.999999995807073
 30
0.0
  0
POINT
  5
102D
  8
DEFPOINTS
 62
     0
 10
15.99999845920647
 20
66.999999999999687
 30
0.0
  0
POINT
  5
102E
  8
DEFPOINTS
 62
     0
 10
-5.9999999188110236
 20
66.999999999999687
 30
0.0000000048844204
  0
ENDBLK
  5
FD9
  8
0
  0
BLOCK
  8
0
  2
*D91
 70
     1
 10
0.0
 20
0.0
 30
0.0
  3
*D91
  1

  0
LINE
  5
101B
  8
SAPA_MATT
 10
14.49999845920647
 20
66.999999999999687
 30
0.0000000048844204
 11
-7.49999991881102
 21
66.999999999999687
 31
0.0000000048844204
  0
LINE
  5
101C
  8
SAPA_MATT
 10
12.99999988549024
 20
-22.000000004087472
 30
0.0000000048844204
 11
-7.4999999188110396
 21
-22.000000004087472
 31
0.0000000048844204
  0
LINE
  5
101D
  8
SAPA_MATT
 10
-5.9999999188110191
 20
63.999999999999687
 30
0.0000000048844204
 11
-5.9999999188110369
 21
-19.000000004087472
 31
0.0000000048844204
  0
SOLID
  5
101E
  8
SAPA_MATT
 10
-6.4999999188110191
 20
63.999999999999687
 30
0.0000000048844204
 11
-5.4999999188110191
 21
63.999999999999687
 31
0.0000000048844204
 12
-5.9999999188110182
 22
66.999999999999687
 32
0.0000000048844204
 13
-5.9999999188110182
 23
66.999999999999687
 33
0.0000000048844204
  0
SOLID
  5
101F
  8
SAPA_MATT
 10
-6.4999999188110369
 20
-19.000000004087472
 30
0.0000000048844204
 11
-5.4999999188110369
 21
-19.000000004087472
 31
0.0000000048844204
 12
-5.9999999188110378
 22
-22.000000004087472
 32
0.0000000048844204
 13
-5.9999999188110378
 23
-22.000000004087472
 33
0.0000000048844204
  0
INSERT
  5
1020
  8
0
  2
*U116
 10
0.0
 20
0.0
 30
0.0
  0
POINT
  5
1021
  8
DEFPOINTS
 62
     0
 10
15.99999845920647
 20
66.999999999999687
 30
0.0
  0
POINT
  5
1022
  8
DEFPOINTS
 62
     0
 10
14.49999988549024
 20
-22.000000004087472
 30
0.0
  0
POINT
  5
1023
  8
DEFPOINTS
 62
     0
 10
-5.9999999188110378
 20
-22.000000004087472
 30
0.0000000048844204
  0
ENDBLK
  5
FE7
  8
0
  0
BLOCK
  8
0
  2
*D92
 70
     1
 10
0.0
 20
0.0
 30
0.0
  3
*D92
  1

  0
LINE
  5
1012
  8
SAPA_MATT
 10
12.800000093615679
 20
164.9999999961538
 30
0.0000000048844204
 11
-19.499999918811
 21
164.9999999961538
 31
0.0000000048844204
  0
LINE
  5
1013
  8
SAPA_MATT
 10
12.99999988549024
 20
-22.000000004087472
 30
0.0000000048844204
 11
-19.499999918811039
 21
-22.000000004087461
 31
0.0000000048844204
  0
LINE
  5
1014
  8
SAPA_MATT
 10
-17.999999918811
 20
161.9999999961538
 30
0.0000000048844204
 11
-17.999999918811039
 21
-19.000000004087461
 31
0.0000000048844204
  0
SOLID
  5
1015
  8
SAPA_MATT
 10
-18.499999918811
 20
161.9999999961538
 30
0.0000000048844204
 11
-17.499999918811
 21
161.9999999961538
 31
0.0000000048844204
 12
-17.999999918811
 22
164.9999999961538
 32
0.0000000048844204
 13
-17.999999918811
 23
164.9999999961538
 33
0.0000000048844204
  0
SOLID
  5
1016
  8
SAPA_MATT
 10
-18.499999918811039
 20
-19.000000004087461
 30
0.0000000048844204
 11
-17.499999918811039
 21
-19.000000004087461
 31
0.0000000048844204
 12
-17.999999918811039
 22
-22.000000004087461
 32
0.0000000048844204
 13
-17.999999918811039
 23
-22.000000004087461
 33
0.0000000048844204
  0
INSERT
  5
1017
  8
0
  2
*U115
 10
0.0
 20
0.0
 30
0.0
  0
POINT
  5
1018
  8
DEFPOINTS
 62
     0
 10
14.30000009361569
 20
164.9999999961538
 30
0.0
  0
POINT
  5
1019
  8
DEFPOINTS
 62
     0
 10
14.49999988549024
 20
-22.000000004087472
 30
0.0
  0
POINT
  5
101A
  8
DEFPOINTS
 62
     0
 10
-17.999999918811039
 20
-22.000000004087461
 30
0.0000000048844204
  0
ENDBLK
  5
FF3
  8
0
  0
BLOCK
  8
0
  2
*D93
 70
     1
 10
0.0
 20
0.0
 30
0.0
  3
*D93
  1

  0
LINE
  5
1009
  8
SAPA_MATT
 10
23.800000093401479
 20
201.49999999618629
 30
0.0
 11
23.800000093401479
 21
221.4999999961862
 31
0.0
  0
LINE
  5
100A
  8
SAPA_MATT
 10
223.80000009340151
 20
201.4999999961862
 30
0.0
 11
223.80000009340151
 21
221.4999999961862
 31
0.0
  0
LINE
  5
100B
  8
SAPA_MATT
 10
26.800000093401479
 20
219.9999999961862
 30
0.0
 11
220.80000009340139
 21
219.9999999961862
 31
0.0
  0
SOLID
  5
100C
  8
SAPA_MATT
 10
26.800000093401479
 20
220.49999999618629
 30
0.0
 11
26.800000093401479
 21
219.4999999961862
 31
0.0
 12
23.800000093401479
 22
219.9999999961862
 32
0.0
 13
23.800000093401479
 23
219.9999999961862
 33
0.0
  0
SOLID
  5
100D
  8
SAPA_MATT
 10
220.80000009340139
 20
220.49999999618629
 30
0.0
 11
220.80000009340139
 21
219.4999999961862
 31
0.0
 12
223.80000009340151
 22
219.9999999961862
 32
0.0
 13
223.80000009340151
 23
219.9999999961862
 33
0.0
  0
INSERT
  5
100E
  8
0
  2
*U114
 10
0.0
 20
0.0
 30
0.0
  0
POINT
  5
100F
  8
DEFPOINTS
 62
     0
 10
23.800000093401479
 20
199.99999999618629
 30
0.0
  0
POINT
  5
1010
  8
DEFPOINTS
 62
     0
 10
223.80000009340151
 20
199.99999999618609
 30
0.0
  0
POINT
  5
1011
  8
DEFPOINTS
 62
     0
 10
223.80000009340151
 20
219.9999999961862
 30
0.0
  0
ENDBLK
  5
FFF
  8
0
  0
BLOCK
  8
0
  2
*X94
 70
     1
 10
0.0
 20
0.0
 30
0.0
  3
*X94
  1

  0
LINE
  5
19EE
  8
0
 62
     0
 10
229.3806640016702
 20
161.49040611247321
 30
0.0
 11
229.52866488351239
 21
161.74675115938891
 31
0.0
  0
LINE
  5
19EF
  8
0
 62
     0
 10
228.19003900167019
 20
159.42818311971149
 30
0.0
 11
228.58691400167021
 21
160.11559078396539
 31
0.0
  0
LINE
  5
19F0
  8
0
 62
     0
 10
227.08461430883381
 20
157.51353138777759
 30
0.0
 11
227.3962890016702
 21
158.0533677912037
 31
0.0
  0
LINE
  5
19F1
  8
0
 62
     0
 10
228.1900392861663
 20
162.17781361247319
 30
0.0
 11
228.58691428616629
 21
162.86522127672711
 31
0.0
  0
LINE
  5
19F2
  8
0
 62
     0
 10
226.99941428616631
 20
160.1155906197115
 30
0.0
 11
227.39628928616631
 21
160.80299828396539
 31
0.0
  0
LINE
  5
19F3
  8
0
 62
     0
 10
225.8087892861663
 20
158.05336762694981
 30
0.0
 11
226.2056642861663
 21
158.7407752912037
 31
0.0
  0
LINE
  5
19F4
  8
0
 62
     0
 10
226.9994145706624
 20
162.86522111247319
 30
0.0
 11
227.33784163612279
 21
163.45139398450709
 31
0.0
  0
LINE
  5
19F5
  8
0
 62
     0
 10
225.80878957066241
 20
160.8029981197115
 30
0.0
 11
226.20566457066241
 21
161.4904057839654
 31
0.0
  0
LINE
  5
19F6
  8
0
 62
     0
 10
224.6181645706624
 20
158.74077512694981
 30
0.0
 11
225.0150395706624
 21
159.42818279120371
 31
0.0
  0
LINE
  5
19F7
  8
0
 62
     0
 10
224.61816485515851
 20
161.49040561971151
 30
0.0
 11
225.01503985515851
 21
162.17781328396541
 31
0.0
  0
LINE
  5
19F8
  8
0
 62
     0
 10
228.5868992078731
 20
161.4903795033417
 30
0.0
 11
228.19002420787311
 21
162.1777871675956
 31
0.0
  0
LINE
  5
19F9
  8
0
 62
     0
 10
229.66759068474349
 20
159.61856695809541
 30
0.0
 11
229.38064920787309
 21
160.11556417483391
 31
0.0
  0
LINE
  5
19FA
  8
0
 62
     0
 10
226.20564949236919
 20
162.86519499610341
 30
0.0
 11
225.91604036414321
 21
163.3668127205265
 31
0.0
  0
LINE
  5
19FB
  8
0
 62
     0
 10
227.3962744923692
 20
160.80297200334169
 30
0.0
 11
226.99939949236909
 21
161.49037966759559
 31
0.0
  0
LINE
  5
19FC
  8
0
 62
     0
 10
228.5868994923691
 20
158.74074901058
 30
0.0
 11
228.1900244923691
 21
159.4281566748339
 31
0.0
  0
LINE
  5
19FD
  8
0
 62
     0
 10
225.0150247768652
 20
162.17778749610341
 30
0.0
 11
224.73001373478979
 21
162.6714411016961
 31
0.0
  0
LINE
  5
19FE
  8
0
 62
     0
 10
226.20564977686519
 20
160.11556450334169
 30
0.0
 11
225.80877477686519
 21
160.80297216759561
 31
0.0
  0
LINE
  5
19FF
  8
0
 62
     0
 10
227.3962747768652
 20
158.05334151058
 30
0.0
 11
226.9993997768652
 21
158.74074917483389
 31
0.0
  0
LINE
  5
1A00
  8
0
 62
     0
 10
225.01502506136131
 20
159.42815700334171
 30
0.0
 11
224.6181500613614
 21
160.11556466759561
 31
0.0
  0
LINE
  5
1A01
  8
0
 62
     0
 10
226.07722764987841
 20
157.58836815209901
 30
0.0
 11
225.8087750613613
 21
158.05334167483389
 31
0.0
  0
LINE
  5
1A02
  8
0
 62
     0
 10
228.58692964895539
 20
158.74074999610349
 30
0.0
 11
229.23002878409349
 21
158.74074999610349
 31
0.0
  0
LINE
  5
1A03
  8
0
 62
     0
 10
226.2056796489554
 20
158.74074999610349
 30
0.0
 11
226.99942964895541
 21
158.74074999610349
 31
0.0
  0
LINE
  5
1A04
  8
0
 62
     0
 10
224.3699714027106
 20
158.74074999610349
 30
0.0
 11
224.61817964895539
 21
158.74074999610349
 31
0.0
  0
LINE
  5
1A05
  8
0
 62
     0
 10
228.58692964895539
 20
160.11556499610339
 30
0.0
 11
229.38067964895541
 21
160.11556499610339
 31
0.0
  0
LINE
  5
1A06
  8
0
 62
     0
 10
226.2056796489554
 20
160.11556499610339
 30
0.0
 11
226.99942964895541
 21
160.11556499610339
 31
0.0
  0
LINE
  5
1A07
  8
0
 62
     0
 10
223.82473376401339
 20
160.11556499610339
 30
0.0
 11
224.61817964895539
 21
160.11556499610339
 31
0.0
  0
LINE
  5
1A08
  8
0
 62
     0
 10
228.58692964895539
 20
161.49037999610351
 30
0.0
 11
229.38067964895541
 21
161.49037999610351
 31
0.0
  0
LINE
  5
1A09
  8
0
 62
     0
 10
226.2056796489554
 20
161.49037999610351
 30
0.0
 11
226.99942964895541
 21
161.49037999610351
 31
0.0
  0
LINE
  5
1A0A
  8
0
 62
     0
 10
223.9681901676561
 20
161.49037999610351
 30
0.0
 11
224.61817964895539
 21
161.49037999610351
 31
0.0
  0
LINE
  5
1A0B
  8
0
 62
     0
 10
228.58692964895539
 20
162.8651949961035
 30
0.0
 11
228.64549531470831
 21
162.8651949961035
 31
0.0
  0
LINE
  5
1A0C
  8
0
 62
     0
 10
226.2056796489554
 20
162.8651949961035
 30
0.0
 11
226.99942964895541
 21
162.8651949961035
 31
0.0
  0
ENDBLK
  5
1A0E
  8
0
  0
BLOCK
  8
0
  2
*X95
 70
     1
 10
0.0
 20
0.0
 30
0.0
  3
*X95
  1

  0
LINE
  5
1A10
  8
0
 62
     0
 10
230.7992622215651
 20
164.62352619295061
 30
0.0
 11
230.08725021333279
 21
165.335538201183
 31
0.0
  0
LINE
  5
1A11
  8
0
 62
     0
 10
230.23799621399829
 20
164.06226018538379
 30
0.0
 11
228.55384296409889
 21
165.74641343528319
 31
0.0
  0
LINE
  5
1A12
  8
0
 62
     0
 10
229.6767302064315
 20
163.50099417781701
 30
0.0
 11
227.02043571486499
 21
166.15728866938349
 31
0.0
  0
LINE
  5
1A13
  8
0
 62
     0
 10
229.34471721905209
 20
162.71047515006271
 30
0.0
 11
225.487028465631
 21
166.56816390348371
 31
0.0
  0
LINE
  5
1A14
  8
0
 62
     0
 10
227.52045393214041
 20
163.41220642184069
 30
0.0
 11
223.9536212163971
 21
166.97903913758401
 31
0.0
  0
LINE
  5
1A15
  8
0
 62
     0
 10
229.80000009340171
 20
161.1326602605794
 30
0.0
 11
229.7122065191632
 21
161.2204538348179
 31
0.0
  0
LINE
  5
1A16
  8
0
 62
     0
 10
226.34485544634589
 20
163.46527289250159
 30
0.0
 11
223.80000009340151
 21
166.010128245446
 31
0.0
  0
LINE
  5
1A17
  8
0
 62
     0
 10
225.48914258605649
 20
163.19845373765739
 30
0.0
 11
223.80000009340151
 21
164.8875962303124
 31
0.0
  0
LINE
  5
1A18
  8
0
 62
     0
 10
224.81535596089239
 20
162.7497083476878
 30
0.0
 11
223.80000009340151
 21
163.7650642151788
 31
0.0
  0
LINE
  5
1A19
  8
0
 62
     0
 10
224.29372263514529
 20
162.1488096583013
 30
0.0
 11
223.80000009340151
 21
162.64253220004511
 31
0.0
  0
LINE
  5
1A1A
  8
0
 62
     0
 10
223.9338604843457
 20
161.38613979396729
 30
0.0
 11
223.80000009340151
 21
161.52000018491151
 31
0.0
  0
LINE
  5
1A1B
  8
0
 62
     0
 10
229.6869364879376
 20
161.31584204813609
 30
0.0
 11
229.80000009340171
 21
161.42890565360031
 31
0.0
  0
LINE
  5
1A1C
  8
0
 62
     0
 10
229.34190244524819
 20
162.0933400205804
 30
0.0
 11
229.62930651024209
 21
162.38074408557429
 31
0.0
  0
LINE
  5
1A1D
  8
0
 62
     0
 10
228.83255143389621
 20
162.70652102436199
 30
0.0
 11
231.17114096036599
 21
165.04511055083191
 31
0.0
  0
LINE
  5
1A1E
  8
0
 62
     0
 10
228.17159350167469
 20
163.1680951072741
 30
0.0
 11
230.28582787224349
 21
165.28232947784301
 31
0.0
  0
LINE
  5
1A1F
  8
0
 62
     0
 10
227.3332020779421
 20
163.4522356986752
 30
0.0
 11
229.40051478412099
 21
165.51954840485411
 31
0.0
  0
LINE
  5
1A20
  8
0
 62
     0
 10
226.19726176336169
 20
163.4388273992285
 30
0.0
 11
228.51520169599851
 21
165.75676733186521
 31
0.0
  0
LINE
  5
1A21
  8
0
 62
     0
 10
223.80000009340151
 20
161.04156572926831
 30
0.0
 11
223.86117269025229
 21
161.10273832611909
 31
0.0
  0
LINE
  5
1A22
  8
0
 62
     0
 10
223.80000009340151
 20
162.16409774440189
 30
0.0
 11
227.62988860787601
 21
165.99398625887639
 31
0.0
  0
LINE
  5
1A23
  8
0
 62
     0
 10
223.80000009340151
 20
163.2866297595356
 30
0.0
 11
226.7445755197534
 21
166.23120518588749
 31
0.0
  0
LINE
  5
1A24
  8
0
 62
     0
 10
223.80000009340151
 20
164.4091617746692
 30
0.0
 11
225.8592624316309
 21
166.4684241128987
 31
0.0
  0
LINE
  5
1A25
  8
0
 62
     0
 10
223.80000009340151
 20
165.53169378980289
 30
0.0
 11
224.97394934350839
 21
166.7056430399098
 31
0.0
  0
LINE
  5
1A26
  8
0
 62
     0
 10
223.80000009340151
 20
166.65422580493649
 30
0.0
 11
224.08863625538589
 21
166.9428619669209
 31
0.0
  0
ENDBLK
  5
1A28
  8
0
  0
BLOCK
  8
0
  2
*X96
 70
     1
 10
0.0
 20
0.0
 30
0.0
  3
*X96
  1

  0
LINE
  5
1A2A
  8
0
 62
     0
 10
23.800000093401451
 20
186.31035517095739
 30
0.0
 11
23.757422070077919
 21
186.35293319428101
 31
0.0
  0
LINE
  5
1A2B
  8
0
 62
     0
 10
23.800000093401469
 20
185.18782315582379
 30
0.0
 11
23.693277380579119
 21
185.29454586864611
 31
0.0
  0
LINE
  5
1A2C
  8
0
 62
     0
 10
23.800000093401451
 20
184.06529114069011
 30
0.0
 11
23.296582453575422
 21
184.5687087805162
 31
0.0
  0
LINE
  5
1A2D
  8
0
 62
     0
 10
23.800000093401451
 20
182.94275912555651
 30
0.0
 11
22.547865467980198
 21
184.19489375097771
 31
0.0
  0
LINE
  5
1A2E
  8
0
 62
     0
 10
23.800000093401461
 20
181.82022711042279
 30
0.0
 11
21.942098837400462
 21
183.67812836642381
 31
0.0
  0
LINE
  5
1A2F
  8
0
 62
     0
 10
23.800000093401451
 20
180.69769509528919
 30
0.0
 11
21.945142140679732
 21
182.55255304801091
 31
0.0
  0
LINE
  5
1A30
  8
0
 62
     0
 10
23.800000093401469
 20
179.57516308015551
 30
0.0
 11
22.232879053586611
 21
181.14228411997041
 31
0.0
  0
LINE
  5
1A31
  8
0
 62
     0
 10
23.800000093401451
 20
178.4526310650219
 30
0.0
 11
22.520615966493509
 21
179.7320151919298
 31
0.0
  0
LINE
  5
1A32
  8
0
 62
     0
 10
23.800000093401469
 20
177.33009904988819
 30
0.0
 11
22.808352879400399
 21
178.32174626388931
 31
0.0
  0
LINE
  5
1A33
  8
0
 62
     0
 10
23.800000093401451
 20
176.20756703475459
 30
0.0
 11
23.096089792307289
 21
176.91147733584879
 31
0.0
  0
LINE
  5
1A34
  8
0
 62
     0
 10
23.800000093401469
 20
175.08503501962099
 30
0.0
 11
23.11597517508962
 21
175.76905993793281
 31
0.0
  0
LINE
  5
1A35
  8
0
 62
     0
 10
23.800000093401451
 20
173.9625030044873
 30
0.0
 11
23.051830485590781
 21
174.710672612298
 31
0.0
  0
LINE
  5
1A36
  8
0
 62
     0
 10
23.800000093401469
 20
172.8399709893537
 30
0.0
 11
22.987685796091981
 21
173.65228528666319
 31
0.0
  0
LINE
  5
1A37
  8
0
 62
     0
 10
23.800000093401451
 20
171.71743897421999
 30
0.0
 11
22.923541106593142
 21
172.5938979610284
 31
0.0
  0
LINE
  5
1A38
  8
0
 62
     0
 10
23.800000093401469
 20
170.59490695908639
 30
0.0
 11
22.859396417094331
 21
171.53551063539351
 31
0.0
  0
LINE
  5
1A39
  8
0
 62
     0
 10
23.30546480369965
 20
170.55516792266349
 30
0.0
 11
23.800000093401461
 21
171.04970321236539
 31
0.0
  0
LINE
  5
1A3A
  8
0
 62
     0
 10
22.83979131388023
 20
171.21202644797779
 30
0.0
 11
23.800000093401451
 21
172.17223522749899
 31
0.0
  0
LINE
  5
1A3B
  8
0
 62
     0
 10
22.91221273793327
 20
172.40697988716451
 30
0.0
 11
23.800000093401469
 21
173.2947672426327
 31
0.0
  0
LINE
  5
1A3C
  8
0
 62
     0
 10
22.984634161986339
 20
173.6019333263512
 30
0.0
 11
23.800000093401469
 21
174.4172992577663
 31
0.0
  0
LINE
  5
1A3D
  8
0
 62
     0
 10
23.0570555860394
 20
174.79688676553789
 30
0.0
 11
23.800000093401461
 21
175.5398312728999
 31
0.0
  0
LINE
  5
1A3E
  8
0
 62
     0
 10
23.129477010092451
 20
175.99184020472461
 30
0.0
 11
23.800000093401469
 21
176.66236328803359
 31
0.0
  0
LINE
  5
1A3F
  8
0
 62
     0
 10
23.06736573764432
 20
177.0522609474101
 30
0.0
 11
23.800000093401461
 21
177.78489530316719
 31
0.0
  0
LINE
  5
1A40
  8
0
 62
     0
 10
22.877146193703599
 20
177.98457341860299
 30
0.0
 11
23.800000093401469
 21
178.9074273183009
 31
0.0
  0
LINE
  5
1A41
  8
0
 62
     0
 10
22.686926649762871
 20
178.91688588979591
 30
0.0
 11
23.800000093401451
 21
180.0299593334345
 31
0.0
  0
LINE
  5
1A42
  8
0
 62
     0
 10
22.49670710582215
 20
179.84919836098891
 30
0.0
 11
23.800000093401469
 21
181.15249134856819
 31
0.0
  0
LINE
  5
1A43
  8
0
 62
     0
 10
22.306487561881429
 20
180.78151083218179
 30
0.0
 11
23.800000093401461
 21
182.27502336370179
 31
0.0
  0
LINE
  5
1A44
  8
0
 62
     0
 10
22.116268017940708
 20
181.71382330337471
 30
0.0
 11
23.800000093401469
 21
183.39755537883551
 31
0.0
  0
LINE
  5
1A45
  8
0
 62
     0
 10
21.926048473999959
 20
182.6461357745676
 30
0.0
 11
23.800000093401451
 21
184.52008739396911
 31
0.0
  0
LINE
  5
1A46
  8
0
 62
     0
 10
23.70884840251701
 20
185.5514677182183
 30
0.0
 11
23.800000093401469
 21
185.64261940910271
 31
0.0
  0
LINE
  5
1A47
  8
0
 62
     0
 10
23.781269826570082
 20
186.746421157405
 30
0.0
 11
23.800000093401469
 21
186.76515142423639
 31
0.0
  0
ENDBLK
  5
1A49
  8
0
  0
BLOCK
  8
0
  2
*X97
 70
     1
 10
0.0
 20
0.0
 30
0.0
  3
*X97
  1

  0
LINE
  5
1A4B
  8
0
 62
     0
 10
23.800000093401572
 20
167.22731091368539
 30
0.0
 11
23.53976552804059
 21
167.4875454790463
 31
0.0
  0
LINE
  5
1A4C
  8
0
 62
     0
 10
23.800000093401561
 20
166.1047788985517
 30
0.0
 11
22.654452439918082
 21
167.2503265520352
 31
0.0
  0
LINE
  5
1A4D
  8
0
 62
     0
 10
23.800000093401561
 20
164.9822468834181
 30
0.0
 11
21.769139351795559
 21
167.01310762502411
 31
0.0
  0
LINE
  5
1A4E
  8
0
 62
     0
 10
23.800000093401561
 20
163.85971486828441
 30
0.0
 11
20.883826263673051
 21
166.77588869801289
 31
0.0
  0
LINE
  5
1A4F
  8
0
 62
     0
 10
23.80000009340155
 20
162.73718285315081
 30
0.0
 11
19.998513175550539
 21
166.53866977100179
 31
0.0
  0
LINE
  5
1A50
  8
0
 62
     0
 10
23.800000093401561
 20
161.6146508380171
 30
0.0
 11
19.11320008742803
 21
166.30145084399069
 31
0.0
  0
LINE
  5
1A51
  8
0
 62
     0
 10
23.80000009340155
 20
160.4921188228835
 30
0.0
 11
18.227886999305511
 21
166.06423191697951
 31
0.0
  0
LINE
  5
1A52
  8
0
 62
     0
 10
23.80000009340154
 20
159.3695868077499
 30
0.0
 11
17.342573911182988
 21
165.82701298996841
 31
0.0
  0
LINE
  5
1A53
  8
0
 62
     0
 10
21.268537014856161
 20
160.7785178711616
 30
0.0
 11
16.45726082306048
 21
165.58979406295731
 31
0.0
  0
LINE
  5
1A54
  8
0
 62
     0
 10
23.800000093401561
 20
158.24705479261621
 30
0.0
 11
23.504443846412791
 21
158.54261103960499
 31
0.0
  0
LINE
  5
1A55
  8
0
 62
     0
 10
19.851733786985061
 20
161.0727890838991
 30
0.0
 11
15.57194773493797
 21
165.35257513594621
 31
0.0
  0
LINE
  5
1A56
  8
0
 62
     0
 10
23.80000009340155
 20
157.12452277748261
 30
0.0
 11
23.79871505915024
 21
157.12580781173389
 31
0.0
  0
LINE
  5
1A57
  8
0
 62
     0
 10
18.83301792279827
 20
160.9689729329522
 30
0.0
 11
14.68663464681546
 21
165.115356208935
 31
0.0
  0
LINE
  5
1A58
  8
0
 62
     0
 10
18.001907521106428
 20
160.6775513195104
 30
0.0
 11
15.69942964914433
 21
162.98002919147251
 31
0.0
  0
LINE
  5
1A59
  8
0
 62
     0
 10
17.304356209435781
 20
160.25257061604739
 30
0.0
 11
15.699429649144321
 21
161.85749717633891
 31
0.0
  0
LINE
  5
1A5A
  8
0
 62
     0
 10
16.721199660449042
 20
159.71319514990051
 30
0.0
 11
15.6994296491443
 21
160.7349651612052
 31
0.0
  0
LINE
  5
1A5B
  8
0
 62
     0
 10
16.249723641584449
 20
159.06213915363139
 30
0.0
 11
15.699429649144291
 21
159.6124331460716
 31
0.0
  0
LINE
  5
1A5C
  8
0
 62
     0
 10
15.9016710847259
 20
158.28765969535641
 30
0.0
 11
15.69942964914428
 21
158.48990113093799
 31
0.0
  0
LINE
  5
1A5D
  8
0
 62
     0
 10
15.71290417340993
 20
157.3538945915387
 30
0.0
 11
15.69942964914426
 21
157.36736911580439
 31
0.0
  0
LINE
  5
1A5E
  8
0
 62
     0
 10
23.766250168427678
 20
157.54556910578791
 30
0.0
 11
23.800000093401561
 21
157.5793190307617
 31
0.0
  0
LINE
  5
1A5F
  8
0
 62
     0
 10
23.542652948266181
 20
158.44450390076
 30
0.0
 11
23.80000009340155
 21
158.70185104589541
 31
0.0
  0
LINE
  5
1A60
  8
0
 62
     0
 10
23.169551143241272
 20
159.1939341108687
 30
0.0
 11
23.80000009340155
 21
159.82438306102901
 31
0.0
  0
LINE
  5
1A61
  8
0
 62
     0
 10
22.676572729209759
 20
159.8234877119709
 30
0.0
 11
23.80000009340154
 21
160.94691507616261
 31
0.0
  0
LINE
  5
1A62
  8
0
 62
     0
 10
22.0724385235591
 20
160.34188552145389
 30
0.0
 11
23.800000093401561
 21
162.0694470912963
 31
0.0
  0
LINE
  5
1A63
  8
0
 62
     0
 10
21.35178188203195
 20
160.74376089506029
 30
0.0
 11
23.80000009340155
 21
163.19197910643001
 31
0.0
  0
LINE
  5
1A64
  8
0
 62
     0
 10
20.491126568607719
 20
161.00563759676979
 30
0.0
 11
23.80000009340155
 21
164.31451112156361
 31
0.0
  0
LINE
  5
1A65
  8
0
 62
     0
 10
19.423905583070479
 20
161.06094862636621
 30
0.0
 11
23.80000009340154
 21
165.43704313669721
 31
0.0
  0
LINE
  5
1A66
  8
0
 62
     0
 10
15.69942964914426
 20
157.33647269243991
 30
0.0
 11
15.71255514092848
 21
157.34959818422419
 31
0.0
  0
LINE
  5
1A67
  8
0
 62
     0
 10
17.831418593714218
 20
160.59099365214351
 30
0.0
 11
23.800000093401561
 21
166.5595751518309
 31
0.0
  0
LINE
  5
1A68
  8
0
 62
     0
 10
15.699429649144269
 20
158.4590047075736
 30
0.0
 11
16.182510115151089
 21
158.94208517358041
 31
0.0
  0
LINE
  5
1A69
  8
0
 62
     0
 10
15.69942964914428
 20
159.58153672270731
 30
0.0
 11
23.629476346967021
 21
167.51158342053
 31
0.0
  0
LINE
  5
1A6A
  8
0
 62
     0
 10
15.6994296491443
 20
160.70406873784091
 30
0.0
 11
22.096069097733132
 21
167.1007081864297
 31
0.0
  0
LINE
  5
1A6B
  8
0
 62
     0
 10
15.69942964914431
 20
161.8266007529746
 30
0.0
 11
20.562661848499229
 21
166.68983295232951
 31
0.0
  0
LINE
  5
1A6C
  8
0
 62
     0
 10
15.69942964914433
 20
162.9491327681082
 30
0.0
 11
19.029254599265329
 21
166.27895771822921
 31
0.0
  0
LINE
  5
1A6D
  8
0
 62
     0
 10
15.52624033607284
 20
163.89847547017041
 30
0.0
 11
17.49584735003144
 21
165.86808248412899
 31
0.0
  0
LINE
  5
1A6E
  8
0
 62
     0
 10
14.96497432850604
 20
164.4597414777372
 30
0.0
 11
15.962440100797521
 21
165.45720725002869
 31
0.0
  0
LINE
  5
1A6F
  8
0
 62
     0
 10
14.37424443428065
 20
164.99154359864551
 30
0.0
 11
14.42903285156363
 21
165.0463320159285
 31
0.0
  0
ENDBLK
  5
1A71
  8
0
  0
BLOCK
  8
0
  2
*X98
 70
     1
 10
0.0
 20
0.0
 30
0.0
  3
*X98
  1

  0
LINE
  5
1A73
  8
0
 62
     0
 10
23.415057493916471
 20
156.6785417861926
 30
0.0
 11
23.788727773527551
 21
157.3257576957574
 31
0.0
  0
LINE
  5
1A74
  8
0
 62
     0
 10
22.224432493916471
 20
154.61631879343091
 30
0.0
 11
22.621307493916461
 21
155.3037264576848
 31
0.0
  0
LINE
  5
1A75
  8
0
 62
     0
 10
22.224432778412581
 20
157.3659492861926
 30
0.0
 11
22.621307778412579
 21
158.0533569504465
 31
0.0
  0
LINE
  5
1A76
  8
0
 62
     0
 10
21.03380777841258
 20
155.30372629343091
 30
0.0
 11
21.430682778412582
 21
155.99113395768481
 31
0.0
  0
LINE
  5
1A77
  8
0
 62
     0
 10
19.843182778412569
 20
153.24150330066919
 30
0.0
 11
20.24005777841257
 21
153.92891096492309
 31
0.0
  0
LINE
  5
1A78
  8
0
 62
     0
 10
22.22443306290868
 20
160.1155797789543
 30
0.0
 11
22.269971218109731
 21
160.19445417744549
 31
0.0
  0
LINE
  5
1A79
  8
0
 62
     0
 10
21.033808062908669
 20
158.05335678619261
 30
0.0
 11
21.43068306290867
 21
158.74076445044651
 31
0.0
  0
LINE
  5
1A7A
  8
0
 62
     0
 10
19.843183062908668
 20
155.99113379343089
 30
0.0
 11
20.24005806290867
 21
156.67854145768479
 31
0.0
  0
LINE
  5
1A7B
  8
0
 62
     0
 10
18.65255806290866
 20
153.9289108006692
 30
0.0
 11
19.049433062908658
 21
154.6163184649231
 31
0.0
  0
LINE
  5
1A7C
  8
0
 62
     0
 10
21.03380834740479
 20
160.8029872789543
 30
0.0
 11
21.063819824455859
 21
160.8549686820169
 31
0.0
  0
LINE
  5
1A7D
  8
0
 62
     0
 10
19.843183347404779
 20
158.74076428619259
 30
0.0
 11
20.240058347404791
 21
159.42817195044651
 31
0.0
  0
LINE
  5
1A7E
  8
0
 62
     0
 10
18.652558347404781
 20
156.6785412934309
 30
0.0
 11
19.049433347404779
 21
157.36594895768479
 31
0.0
  0
LINE
  5
1A7F
  8
0
 62
     0
 10
17.461933347404781
 20
154.61631830066921
 30
0.0
 11
17.858808347404779
 21
155.3037259649231
 31
0.0
  0
LINE
  5
1A80
  8
0
 62
     0
 10
18.65255863190087
 20
159.42817178619259
 30
0.0
 11
19.049433631900879
 21
160.11557945044649
 31
0.0
  0
LINE
  5
1A81
  8
0
 62
     0
 10
17.46193363190087
 20
157.3659487934309
 30
0.0
 11
17.858808631900871
 21
158.0533564576848
 31
0.0
  0
LINE
  5
1A82
  8
0
 62
     0
 10
16.271308631900869
 20
155.30372580066921
 30
0.0
 11
16.66818363190087
 21
155.99113346492311
 31
0.0
  0
LINE
  5
1A83
  8
0
 62
     0
 10
17.461933916396969
 20
160.1155792861926
 30
0.0
 11
17.6905682431202
 21
160.5115855564315
 31
0.0
  0
LINE
  5
1A84
  8
0
 62
     0
 10
16.271308916396961
 20
158.05335629343091
 30
0.0
 11
16.668183916396959
 21
158.74076395768481
 31
0.0
  0
LINE
  5
1A85
  8
0
 62
     0
 10
21.430668553607681
 20
160.115575344099
 30
0.0
 11
21.03379355360768
 21
160.80298300835301
 31
0.0
  0
LINE
  5
1A86
  8
0
 62
     0
 10
22.621293553607678
 20
158.0533523513374
 30
0.0
 11
22.224418553607681
 21
158.74076001559129
 31
0.0
  0
LINE
  5
1A87
  8
0
 62
     0
 10
23.708896428415219
 20
156.16956891371271
 30
0.0
 11
23.415043553607681
 21
156.6785370228296
 31
0.0
  0
LINE
  5
1A88
  8
0
 62
     0
 10
20.240043838103801
 20
159.42816784409911
 30
0.0
 11
19.8431688381038
 21
160.115575508353
 31
0.0
  0
LINE
  5
1A89
  8
0
 62
     0
 10
21.430668838103792
 20
157.36594485133739
 30
0.0
 11
21.03379383810379
 21
158.05335251559131
 31
0.0
  0
LINE
  5
1A8A
  8
0
 62
     0
 10
22.621293838103789
 20
155.3037218585757
 30
0.0
 11
22.224418838103791
 21
155.9911295228296
 31
0.0
  0
LINE
  5
1A8B
  8
0
 62
     0
 10
19.0494191225999
 20
158.7407603440991
 30
0.0
 11
18.652544122599899
 21
159.42816800835291
 31
0.0
  0
LINE
  5
1A8C
  8
0
 62
     0
 10
20.24004412259989
 20
156.67853735133741
 30
0.0
 11
19.843169122599889
 21
157.36594501559131
 31
0.0
  0
LINE
  5
1A8D
  8
0
 62
     0
 10
21.430669122599891
 20
154.61631435857569
 30
0.0
 11
21.0337941225999
 21
155.30372202282959
 31
0.0
  0
LINE
  5
1A8E
  8
0
 62
     0
 10
17.858794407095981
 20
158.05335284409909
 30
0.0
 11
17.46191940709598
 21
158.74076050835299
 31
0.0
  0
LINE
  5
1A8F
  8
0
 62
     0
 10
19.049419407095971
 20
155.9911298513374
 30
0.0
 11
18.652544407095981
 21
156.6785375155913
 31
0.0
  0
LINE
  5
1A90
  8
0
 62
     0
 10
20.240044407095969
 20
153.92890685857569
 30
0.0
 11
19.843169407095971
 21
154.61631452282961
 31
0.0
  0
LINE
  5
1A91
  8
0
 62
     0
 10
16.66816969159208
 20
157.36594534409909
 30
0.0
 11
16.271294691592079
 21
158.05335300835301
 31
0.0
  0
LINE
  5
1A92
  8
0
 62
     0
 10
17.85879469159207
 20
155.3037223513374
 30
0.0
 11
17.461919691592069
 21
155.9911300155913
 31
0.0
  0
LINE
  5
1A93
  8
0
 62
     0
 10
19.049419691592071
 20
153.24149935857571
 30
0.0
 11
18.65254469159207
 21
153.92890702282961
 31
0.0
  0
LINE
  5
1A94
  8
0
 62
     0
 10
16.66816997608818
 20
154.61631485133739
 30
0.0
 11
16.271294976088178
 21
155.30372251559129
 31
0.0
  0
LINE
  5
1A95
  8
0
 62
     0
 10
19.049429648955439
 20
153.2414899961035
 30
0.0
 11
19.843179648955442
 21
153.2414899961035
 31
0.0
  0
LINE
  5
1A96
  8
0
 62
     0
 10
21.430679648955451
 20
154.61630499610351
 30
0.0
 11
22.224429648955439
 21
154.61630499610351
 31
0.0
  0
LINE
  5
1A97
  8
0
 62
     0
 10
19.049429648955439
 20
154.61630499610351
 30
0.0
 11
19.843179648955442
 21
154.61630499610351
 31
0.0
  0
LINE
  5
1A98
  8
0
 62
     0
 10
16.668179648955441
 20
154.61630499610351
 30
0.0
 11
17.46192964895544
 21
154.61630499610351
 31
0.0
  0
LINE
  5
1A99
  8
0
 62
     0
 10
21.43067964895544
 20
155.99111999610349
 30
0.0
 11
22.224429648955439
 21
155.99111999610349
 31
0.0
  0
LINE
  5
1A9A
  8
0
 62
     0
 10
19.049429648955439
 20
155.99111999610349
 30
0.0
 11
19.843179648955442
 21
155.99111999610349
 31
0.0
  0
LINE
  5
1A9B
  8
0
 62
     0
 10
16.668179648955441
 20
155.99111999610349
 30
0.0
 11
17.46192964895544
 21
155.99111999610349
 31
0.0
  0
LINE
  5
1A9C
  8
0
 62
     0
 10
21.43067964895544
 20
157.3659349961035
 30
0.0
 11
22.224429648955439
 21
157.3659349961035
 31
0.0
  0
LINE
  5
1A9D
  8
0
 62
     0
 10
19.049429648955439
 20
157.3659349961035
 30
0.0
 11
19.843179648955442
 21
157.3659349961035
 31
0.0
  0
LINE
  5
1A9E
  8
0
 62
     0
 10
16.668179648955441
 20
157.3659349961035
 30
0.0
 11
17.46192964895544
 21
157.3659349961035
 31
0.0
  0
LINE
  5
1A9F
  8
0
 62
     0
 10
21.430679648955451
 20
158.74074999610349
 30
0.0
 11
22.224429648955439
 21
158.74074999610349
 31
0.0
  0
LINE
  5
1AA0
  8
0
 62
     0
 10
19.049429648955439
 20
158.74074999610349
 30
0.0
 11
19.843179648955442
 21
158.74074999610349
 31
0.0
  0
LINE
  5
1AA1
  8
0
 62
     0
 10
16.668179648955441
 20
158.74074999610349
 30
0.0
 11
17.46192964895544
 21
158.74074999610349
 31
0.0
  0
LINE
  5
1AA2
  8
0
 62
     0
 10
21.43067964895544
 20
160.1155649961035
 30
0.0
 11
22.224429648955439
 21
160.1155649961035
 31
0.0
  0
LINE
  5
1AA3
  8
0
 62
     0
 10
19.049429648955439
 20
160.1155649961035
 30
0.0
 11
19.843179648955442
 21
160.1155649961035
 31
0.0
  0
LINE
  5
1AA4
  8
0
 62
     0
 10
17.13328009708853
 20
160.1155649961035
 30
0.0
 11
17.46192964895544
 21
160.1155649961035
 31
0.0
  0
ENDBLK
  5
1AA6
  8
0
  0
BLOCK
  8
0
  2
*X99
 70
     1
 10
0.0
 20
0.0
 30
0.0
  3
*X99
  1

  0
LINE
  5
1AA8
  8
0
 62
     0
 10
229.3806640016702
 20
161.49040611247321
 30
0.0
 11
229.52866488351239
 21
161.74675115938891
 31
0.0
  0
LINE
  5
1AA9
  8
0
 62
     0
 10
228.19003900167019
 20
159.42818311971149
 30
0.0
 11
228.58691400167021
 21
160.11559078396539
 31
0.0
  0
LINE
  5
1AAA
  8
0
 62
     0
 10
227.08461430883381
 20
157.51353138777759
 30
0.0
 11
227.3962890016702
 21
158.0533677912037
 31
0.0
  0
LINE
  5
1AAB
  8
0
 62
     0
 10
228.1900392861663
 20
162.17781361247319
 30
0.0
 11
228.58691428616629
 21
162.86522127672711
 31
0.0
  0
LINE
  5
1AAC
  8
0
 62
     0
 10
226.99941428616631
 20
160.1155906197115
 30
0.0
 11
227.39628928616631
 21
160.80299828396539
 31
0.0
  0
LINE
  5
1AAD
  8
0
 62
     0
 10
225.8087892861663
 20
158.05336762694981
 30
0.0
 11
226.2056642861663
 21
158.7407752912037
 31
0.0
  0
LINE
  5
1AAE
  8
0
 62
     0
 10
226.9994145706624
 20
162.86522111247319
 30
0.0
 11
227.33784163612279
 21
163.45139398450709
 31
0.0
  0
LINE
  5
1AAF
  8
0
 62
     0
 10
225.80878957066241
 20
160.8029981197115
 30
0.0
 11
226.20566457066241
 21
161.4904057839654
 31
0.0
  0
LINE
  5
1AB0
  8
0
 62
     0
 10
224.6181645706624
 20
158.74077512694981
 30
0.0
 11
225.0150395706624
 21
159.42818279120371
 31
0.0
  0
LINE
  5
1AB1
  8
0
 62
     0
 10
224.61816485515851
 20
161.49040561971151
 30
0.0
 11
225.01503985515851
 21
162.17781328396541
 31
0.0
  0
LINE
  5
1AB2
  8
0
 62
     0
 10
228.5868992078731
 20
161.4903795033417
 30
0.0
 11
228.19002420787311
 21
162.1777871675956
 31
0.0
  0
LINE
  5
1AB3
  8
0
 62
     0
 10
229.66759068474349
 20
159.61856695809541
 30
0.0
 11
229.38064920787309
 21
160.11556417483391
 31
0.0
  0
LINE
  5
1AB4
  8
0
 62
     0
 10
226.20564949236919
 20
162.86519499610341
 30
0.0
 11
225.91604036414321
 21
163.3668127205265
 31
0.0
  0
LINE
  5
1AB5
  8
0
 62
     0
 10
227.3962744923692
 20
160.80297200334169
 30
0.0
 11
226.99939949236909
 21
161.49037966759559
 31
0.0
  0
LINE
  5
1AB6
  8
0
 62
     0
 10
228.5868994923691
 20
158.74074901058
 30
0.0
 11
228.1900244923691
 21
159.4281566748339
 31
0.0
  0
LINE
  5
1AB7
  8
0
 62
     0
 10
225.0150247768652
 20
162.17778749610341
 30
0.0
 11
224.73001373478979
 21
162.6714411016961
 31
0.0
  0
LINE
  5
1AB8
  8
0
 62
     0
 10
226.20564977686519
 20
160.11556450334169
 30
0.0
 11
225.80877477686519
 21
160.80297216759561
 31
0.0
  0
LINE
  5
1AB9
  8
0
 62
     0
 10
227.3962747768652
 20
158.05334151058
 30
0.0
 11
226.9993997768652
 21
158.74074917483389
 31
0.0
  0
LINE
  5
1ABA
  8
0
 62
     0
 10
225.01502506136131
 20
159.42815700334171
 30
0.0
 11
224.6181500613614
 21
160.11556466759561
 31
0.0
  0
LINE
  5
1ABB
  8
0
 62
     0
 10
226.07722764987841
 20
157.58836815209901
 30
0.0
 11
225.8087750613613
 21
158.05334167483389
 31
0.0
  0
LINE
  5
1ABC
  8
0
 62
     0
 10
228.58692964895539
 20
158.74074999610349
 30
0.0
 11
229.23002878409349
 21
158.74074999610349
 31
0.0
  0
LINE
  5
1ABD
  8
0
 62
     0
 10
226.2056796489554
 20
158.74074999610349
 30
0.0
 11
226.99942964895541
 21
158.74074999610349
 31
0.0
  0
LINE
  5
1ABE
  8
0
 62
     0
 10
224.3699714027106
 20
158.74074999610349
 30
0.0
 11
224.61817964895539
 21
158.74074999610349
 31
0.0
  0
LINE
  5
1ABF
  8
0
 62
     0
 10
228.58692964895539
 20
160.11556499610339
 30
0.0
 11
229.38067964895541
 21
160.11556499610339
 31
0.0
  0
LINE
  5
1AC0
  8
0
 62
     0
 10
226.2056796489554
 20
160.11556499610339
 30
0.0
 11
226.99942964895541
 21
160.11556499610339
 31
0.0
  0
LINE
  5
1AC1
  8
0
 62
     0
 10
223.82473376401339
 20
160.11556499610339
 30
0.0
 11
224.61817964895539
 21
160.11556499610339
 31
0.0
  0
LINE
  5
1AC2
  8
0
 62
     0
 10
228.58692964895539
 20
161.49037999610351
 30
0.0
 11
229.38067964895541
 21
161.49037999610351
 31
0.0
  0
LINE
  5
1AC3
  8
0
 62
     0
 10
226.2056796489554
 20
161.49037999610351
 30
0.0
 11
226.99942964895541
 21
161.49037999610351
 31
0.0
  0
LINE
  5
1AC4
  8
0
 62
     0
 10
223.9681901676561
 20
161.49037999610351
 30
0.0
 11
224.61817964895539
 21
161.49037999610351
 31
0.0
  0
LINE
  5
1AC5
  8
0
 62
     0
 10
228.58692964895539
 20
162.8651949961035
 30
0.0
 11
228.64549531470831
 21
162.8651949961035
 31
0.0
  0
LINE
  5
1AC6
  8
0
 62
     0
 10
226.2056796489554
 20
162.8651949961035
 30
0.0
 11
226.99942964895541
 21
162.8651949961035
 31
0.0
  0
ENDBLK
  5
1AC8
  8
0
  0
BLOCK
  8
0
  2
*X100
 70
     1
 10
0.0
 20
0.0
 30
0.0
  3
*X100
  1

  0
LINE
  5
1ACA
  8
0
 62
     0
 10
230.7992622215651
 20
164.62352619295061
 30
0.0
 11
230.08725021333279
 21
165.335538201183
 31
0.0
  0
LINE
  5
1ACB
  8
0
 62
     0
 10
230.23799621399829
 20
164.06226018538379
 30
0.0
 11
228.55384296409889
 21
165.74641343528319
 31
0.0
  0
LINE
  5
1ACC
  8
0
 62
     0
 10
229.6767302064315
 20
163.50099417781701
 30
0.0
 11
227.02043571486499
 21
166.15728866938349
 31
0.0
  0
LINE
  5
1ACD
  8
0
 62
     0
 10
229.34471721905209
 20
162.71047515006271
 30
0.0
 11
225.487028465631
 21
166.56816390348371
 31
0.0
  0
LINE
  5
1ACE
  8
0
 62
     0
 10
227.52045393214041
 20
163.41220642184069
 30
0.0
 11
223.9536212163971
 21
166.97903913758401
 31
0.0
  0
LINE
  5
1ACF
  8
0
 62
     0
 10
229.80000009340171
 20
161.1326602605794
 30
0.0
 11
229.7122065191632
 21
161.2204538348179
 31
0.0
  0
LINE
  5
1AD0
  8
0
 62
     0
 10
226.34485544634589
 20
163.46527289250159
 30
0.0
 11
223.80000009340151
 21
166.010128245446
 31
0.0
  0
LINE
  5
1AD1
  8
0
 62
     0
 10
225.48914258605649
 20
163.19845373765739
 30
0.0
 11
223.80000009340151
 21
164.8875962303124
 31
0.0
  0
LINE
  5
1AD2
  8
0
 62
     0
 10
224.81535596089239
 20
162.7497083476878
 30
0.0
 11
223.80000009340151
 21
163.7650642151788
 31
0.0
  0
LINE
  5
1AD3
  8
0
 62
     0
 10
224.29372263514529
 20
162.1488096583013
 30
0.0
 11
223.80000009340151
 21
162.64253220004511
 31
0.0
  0
LINE
  5
1AD4
  8
0
 62
     0
 10
223.9338604843457
 20
161.38613979396729
 30
0.0
 11
223.80000009340151
 21
161.52000018491151
 31
0.0
  0
LINE
  5
1AD5
  8
0
 62
     0
 10
229.6869364879376
 20
161.31584204813609
 30
0.0
 11
229.80000009340171
 21
161.42890565360031
 31
0.0
  0
LINE
  5
1AD6
  8
0
 62
     0
 10
229.34190244524819
 20
162.0933400205804
 30
0.0
 11
229.62930651024209
 21
162.38074408557429
 31
0.0
  0
LINE
  5
1AD7
  8
0
 62
     0
 10
228.83255143389621
 20
162.70652102436199
 30
0.0
 11
231.17114096036599
 21
165.04511055083191
 31
0.0
  0
LINE
  5
1AD8
  8
0
 62
     0
 10
228.17159350167469
 20
163.1680951072741
 30
0.0
 11
230.28582787224349
 21
165.28232947784301
 31
0.0
  0
LINE
  5
1AD9
  8
0
 62
     0
 10
227.3332020779421
 20
163.4522356986752
 30
0.0
 11
229.40051478412099
 21
165.51954840485411
 31
0.0
  0
LINE
  5
1ADA
  8
0
 62
     0
 10
226.19726176336169
 20
163.4388273992285
 30
0.0
 11
228.51520169599851
 21
165.75676733186521
 31
0.0
  0
LINE
  5
1ADB
  8
0
 62
     0
 10
223.80000009340151
 20
161.04156572926831
 30
0.0
 11
223.86117269025229
 21
161.10273832611909
 31
0.0
  0
LINE
  5
1ADC
  8
0
 62
     0
 10
223.80000009340151
 20
162.16409774440189
 30
0.0
 11
227.62988860787601
 21
165.99398625887639
 31
0.0
  0
LINE
  5
1ADD
  8
0
 62
     0
 10
223.80000009340151
 20
163.2866297595356
 30
0.0
 11
226.7445755197534
 21
166.23120518588749
 31
0.0
  0
LINE
  5
1ADE
  8
0
 62
     0
 10
223.80000009340151
 20
164.4091617746692
 30
0.0
 11
225.8592624316309
 21
166.4684241128987
 31
0.0
  0
LINE
  5
1ADF
  8
0
 62
     0
 10
223.80000009340151
 20
165.53169378980289
 30
0.0
 11
224.97394934350839
 21
166.7056430399098
 31
0.0
  0
LINE
  5
1AE0
  8
0
 62
     0
 10
223.80000009340151
 20
166.65422580493649
 30
0.0
 11
224.08863625538589
 21
166.9428619669209
 31
0.0
  0
ENDBLK
  5
1AE2
  8
0
  0
BLOCK
  8
0
  2
*X101
 70
     1
 10
0.0
 20
0.0
 30
0.0
  3
*X101
  1

  0
LINE
  5
1AE4
  8
0
 62
     0
 10
23.800000093401451
 20
186.31035517095739
 30
0.0
 11
23.757422070077919
 21
186.35293319428101
 31
0.0
  0
LINE
  5
1AE5
  8
0
 62
     0
 10
23.800000093401469
 20
185.18782315582379
 30
0.0
 11
23.693277380579119
 21
185.29454586864611
 31
0.0
  0
LINE
  5
1AE6
  8
0
 62
     0
 10
23.800000093401451
 20
184.06529114069011
 30
0.0
 11
23.296582453575422
 21
184.5687087805162
 31
0.0
  0
LINE
  5
1AE7
  8
0
 62
     0
 10
23.800000093401451
 20
182.94275912555651
 30
0.0
 11
22.547865467980198
 21
184.19489375097771
 31
0.0
  0
LINE
  5
1AE8
  8
0
 62
     0
 10
23.800000093401461
 20
181.82022711042279
 30
0.0
 11
21.942098837400462
 21
183.67812836642381
 31
0.0
  0
LINE
  5
1AE9
  8
0
 62
     0
 10
23.800000093401451
 20
180.69769509528919
 30
0.0
 11
21.945142140679732
 21
182.55255304801091
 31
0.0
  0
LINE
  5
1AEA
  8
0
 62
     0
 10
23.800000093401469
 20
179.57516308015551
 30
0.0
 11
22.232879053586611
 21
181.14228411997041
 31
0.0
  0
LINE
  5
1AEB
  8
0
 62
     0
 10
23.800000093401451
 20
178.4526310650219
 30
0.0
 11
22.520615966493509
 21
179.7320151919298
 31
0.0
  0
LINE
  5
1AEC
  8
0
 62
     0
 10
23.800000093401469
 20
177.33009904988819
 30
0.0
 11
22.808352879400399
 21
178.32174626388931
 31
0.0
  0
LINE
  5
1AED
  8
0
 62
     0
 10
23.800000093401451
 20
176.20756703475459
 30
0.0
 11
23.096089792307289
 21
176.91147733584879
 31
0.0
  0
LINE
  5
1AEE
  8
0
 62
     0
 10
23.800000093401469
 20
175.08503501962099
 30
0.0
 11
23.11597517508962
 21
175.76905993793281
 31
0.0
  0
LINE
  5
1AEF
  8
0
 62
     0
 10
23.800000093401451
 20
173.9625030044873
 30
0.0
 11
23.051830485590781
 21
174.710672612298
 31
0.0
  0
LINE
  5
1AF0
  8
0
 62
     0
 10
23.800000093401469
 20
172.8399709893537
 30
0.0
 11
22.987685796091981
 21
173.65228528666319
 31
0.0
  0
LINE
  5
1AF1
  8
0
 62
     0
 10
23.800000093401451
 20
171.71743897421999
 30
0.0
 11
22.923541106593142
 21
172.5938979610284
 31
0.0
  0
LINE
  5
1AF2
  8
0
 62
     0
 10
23.800000093401469
 20
170.59490695908639
 30
0.0
 11
22.859396417094331
 21
171.53551063539351
 31
0.0
  0
LINE
  5
1AF3
  8
0
 62
     0
 10
23.30546480369965
 20
170.55516792266349
 30
0.0
 11
23.800000093401461
 21
171.04970321236539
 31
0.0
  0
LINE
  5
1AF4
  8
0
 62
     0
 10
22.83979131388023
 20
171.21202644797779
 30
0.0
 11
23.800000093401451
 21
172.17223522749899
 31
0.0
  0
LINE
  5
1AF5
  8
0
 62
     0
 10
22.91221273793327
 20
172.40697988716451
 30
0.0
 11
23.800000093401469
 21
173.2947672426327
 31
0.0
  0
LINE
  5
1AF6
  8
0
 62
     0
 10
22.984634161986339
 20
173.6019333263512
 30
0.0
 11
23.800000093401469
 21
174.4172992577663
 31
0.0
  0
LINE
  5
1AF7
  8
0
 62
     0
 10
23.0570555860394
 20
174.79688676553789
 30
0.0
 11
23.800000093401461
 21
175.5398312728999
 31
0.0
  0
LINE
  5
1AF8
  8
0
 62
     0
 10
23.129477010092451
 20
175.99184020472461
 30
0.0
 11
23.800000093401469
 21
176.66236328803359
 31
0.0
  0
LINE
  5
1AF9
  8
0
 62
     0
 10
23.06736573764432
 20
177.0522609474101
 30
0.0
 11
23.800000093401461
 21
177.78489530316719
 31
0.0
  0
LINE
  5
1AFA
  8
0
 62
     0
 10
22.877146193703599
 20
177.98457341860299
 30
0.0
 11
23.800000093401469
 21
178.9074273183009
 31
0.0
  0
LINE
  5
1AFB
  8
0
 62
     0
 10
22.686926649762871
 20
178.91688588979591
 30
0.0
 11
23.800000093401451
 21
180.0299593334345
 31
0.0
  0
LINE
  5
1AFC
  8
0
 62
     0
 10
22.49670710582215
 20
179.84919836098891
 30
0.0
 11
23.800000093401469
 21
181.15249134856819
 31
0.0
  0
LINE
  5
1AFD
  8
0
 62
     0
 10
22.306487561881429
 20
180.78151083218179
 30
0.0
 11
23.800000093401461
 21
182.27502336370179
 31
0.0
  0
LINE
  5
1AFE
  8
0
 62
     0
 10
22.116268017940708
 20
181.71382330337471
 30
0.0
 11
23.800000093401469
 21
183.39755537883551
 31
0.0
  0
LINE
  5
1AFF
  8
0
 62
     0
 10
21.926048473999959
 20
182.6461357745676
 30
0.0
 11
23.800000093401451
 21
184.52008739396911
 31
0.0
  0
LINE
  5
1B00
  8
0
 62
     0
 10
23.70884840251701
 20
185.5514677182183
 30
0.0
 11
23.800000093401469
 21
185.64261940910271
 31
0.0
  0
LINE
  5
1B01
  8
0
 62
     0
 10
23.781269826570082
 20
186.746421157405
 30
0.0
 11
23.800000093401469
 21
186.76515142423639
 31
0.0
  0
ENDBLK
  5
1B03
  8
0
  0
BLOCK
  8
0
  2
*X102
 70
     1
 10
0.0
 20
0.0
 30
0.0
  3
*X102
  1

  0
LINE
  5
1B05
  8
0
 62
     0
 10
23.800000093401572
 20
167.22731091368539
 30
0.0
 11
23.53976552804059
 21
167.4875454790463
 31
0.0
  0
LINE
  5
1B06
  8
0
 62
     0
 10
23.800000093401561
 20
166.1047788985517
 30
0.0
 11
22.654452439918082
 21
167.2503265520352
 31
0.0
  0
LINE
  5
1B07
  8
0
 62
     0
 10
23.800000093401561
 20
164.9822468834181
 30
0.0
 11
21.769139351795559
 21
167.01310762502411
 31
0.0
  0
LINE
  5
1B08
  8
0
 62
     0
 10
23.800000093401561
 20
163.85971486828441
 30
0.0
 11
20.883826263673051
 21
166.77588869801289
 31
0.0
  0
LINE
  5
1B09
  8
0
 62
     0
 10
23.80000009340155
 20
162.73718285315081
 30
0.0
 11
19.998513175550539
 21
166.53866977100179
 31
0.0
  0
LINE
  5
1B0A
  8
0
 62
     0
 10
23.800000093401561
 20
161.6146508380171
 30
0.0
 11
19.11320008742803
 21
166.30145084399069
 31
0.0
  0
LINE
  5
1B0B
  8
0
 62
     0
 10
23.80000009340155
 20
160.4921188228835
 30
0.0
 11
18.227886999305511
 21
166.06423191697951
 31
0.0
  0
LINE
  5
1B0C
  8
0
 62
     0
 10
23.80000009340154
 20
159.3695868077499
 30
0.0
 11
17.342573911182988
 21
165.82701298996841
 31
0.0
  0
LINE
  5
1B0D
  8
0
 62
     0
 10
21.268537014856161
 20
160.7785178711616
 30
0.0
 11
16.45726082306048
 21
165.58979406295731
 31
0.0
  0
LINE
  5
1B0E
  8
0
 62
     0
 10
23.800000093401561
 20
158.24705479261621
 30
0.0
 11
23.504443846412791
 21
158.54261103960499
 31
0.0
  0
LINE
  5
1B0F
  8
0
 62
     0
 10
19.851733786985061
 20
161.0727890838991
 30
0.0
 11
15.57194773493797
 21
165.35257513594621
 31
0.0
  0
LINE
  5
1B10
  8
0
 62
     0
 10
23.80000009340155
 20
157.12452277748261
 30
0.0
 11
23.79871505915024
 21
157.12580781173389
 31
0.0
  0
LINE
  5
1B11
  8
0
 62
     0
 10
18.83301792279827
 20
160.9689729329522
 30
0.0
 11
14.68663464681546
 21
165.115356208935
 31
0.0
  0
LINE
  5
1B12
  8
0
 62
     0
 10
18.001907521106428
 20
160.6775513195104
 30
0.0
 11
15.69942964914433
 21
162.98002919147251
 31
0.0
  0
LINE
  5
1B13
  8
0
 62
     0
 10
17.304356209435781
 20
160.25257061604739
 30
0.0
 11
15.699429649144321
 21
161.85749717633891
 31
0.0
  0
LINE
  5
1B14
  8
0
 62
     0
 10
16.721199660449042
 20
159.71319514990051
 30
0.0
 11
15.6994296491443
 21
160.7349651612052
 31
0.0
  0
LINE
  5
1B15
  8
0
 62
     0
 10
16.249723641584449
 20
159.06213915363139
 30
0.0
 11
15.699429649144291
 21
159.6124331460716
 31
0.0
  0
LINE
  5
1B16
  8
0
 62
     0
 10
15.9016710847259
 20
158.28765969535641
 30
0.0
 11
15.69942964914428
 21
158.48990113093799
 31
0.0
  0
LINE
  5
1B17
  8
0
 62
     0
 10
15.71290417340993
 20
157.3538945915387
 30
0.0
 11
15.69942964914426
 21
157.36736911580439
 31
0.0
  0
LINE
  5
1B18
  8
0
 62
     0
 10
23.766250168427678
 20
157.54556910578791
 30
0.0
 11
23.800000093401561
 21
157.5793190307617
 31
0.0
  0
LINE
  5
1B19
  8
0
 62
     0
 10
23.542652948266181
 20
158.44450390076
 30
0.0
 11
23.80000009340155
 21
158.70185104589541
 31
0.0
  0
LINE
  5
1B1A
  8
0
 62
     0
 10
23.169551143241272
 20
159.1939341108687
 30
0.0
 11
23.80000009340155
 21
159.82438306102901
 31
0.0
  0
LINE
  5
1B1B
  8
0
 62
     0
 10
22.676572729209759
 20
159.8234877119709
 30
0.0
 11
23.80000009340154
 21
160.94691507616261
 31
0.0
  0
LINE
  5
1B1C
  8
0
 62
     0
 10
22.0724385235591
 20
160.34188552145389
 30
0.0
 11
23.800000093401561
 21
162.0694470912963
 31
0.0
  0
LINE
  5
1B1D
  8
0
 62
     0
 10
21.35178188203195
 20
160.74376089506029
 30
0.0
 11
23.80000009340155
 21
163.19197910643001
 31
0.0
  0
LINE
  5
1B1E
  8
0
 62
     0
 10
20.491126568607719
 20
161.00563759676979
 30
0.0
 11
23.80000009340155
 21
164.31451112156361
 31
0.0
  0
LINE
  5
1B1F
  8
0
 62
     0
 10
19.423905583070479
 20
161.06094862636621
 30
0.0
 11
23.80000009340154
 21
165.43704313669721
 31
0.0
  0
LINE
  5
1B20
  8
0
 62
     0
 10
15.69942964914426
 20
157.33647269243991
 30
0.0
 11
15.71255514092848
 21
157.34959818422419
 31
0.0
  0
LINE
  5
1B21
  8
0
 62
     0
 10
17.831418593714218
 20
160.59099365214351
 30
0.0
 11
23.800000093401561
 21
166.5595751518309
 31
0.0
  0
LINE
  5
1B22
  8
0
 62
     0
 10
15.699429649144269
 20
158.4590047075736
 30
0.0
 11
16.182510115151089
 21
158.94208517358041
 31
0.0
  0
LINE
  5
1B23
  8
0
 62
     0
 10
15.69942964914428
 20
159.58153672270731
 30
0.0
 11
23.629476346967021
 21
167.51158342053
 31
0.0
  0
LINE
  5
1B24
  8
0
 62
     0
 10
15.6994296491443
 20
160.70406873784091
 30
0.0
 11
22.096069097733132
 21
167.1007081864297
 31
0.0
  0
LINE
  5
1B25
  8
0
 62
     0
 10
15.69942964914431
 20
161.8266007529746
 30
0.0
 11
20.562661848499229
 21
166.68983295232951
 31
0.0
  0
LINE
  5
1B26
  8
0
 62
     0
 10
15.69942964914433
 20
162.9491327681082
 30
0.0
 11
19.029254599265329
 21
166.27895771822921
 31
0.0
  0
LINE
  5
1B27
  8
0
 62
     0
 10
15.52624033607284
 20
163.89847547017041
 30
0.0
 11
17.49584735003144
 21
165.86808248412899
 31
0.0
  0
LINE
  5
1B28
  8
0
 62
     0
 10
14.96497432850604
 20
164.4597414777372
 30
0.0
 11
15.962440100797521
 21
165.45720725002869
 31
0.0
  0
LINE
  5
1B29
  8
0
 62
     0
 10
14.37424443428065
 20
164.99154359864551
 30
0.0
 11
14.42903285156363
 21
165.0463320159285
 31
0.0
  0
ENDBLK
  5
1B2B
  8
0
  0
BLOCK
  8
0
  2
*X103
 70
     1
 10
0.0
 20
0.0
 30
0.0
  3
*X103
  1

  0
LINE
  5
1B2D
  8
0
 62
     0
 10
23.415057493916471
 20
156.6785417861926
 30
0.0
 11
23.788727773527551
 21
157.3257576957574
 31
0.0
  0
LINE
  5
1B2E
  8
0
 62
     0
 10
22.224432493916471
 20
154.61631879343091
 30
0.0
 11
22.621307493916461
 21
155.3037264576848
 31
0.0
  0
LINE
  5
1B2F
  8
0
 62
     0
 10
22.224432778412581
 20
157.3659492861926
 30
0.0
 11
22.621307778412579
 21
158.0533569504465
 31
0.0
  0
LINE
  5
1B30
  8
0
 62
     0
 10
21.03380777841258
 20
155.30372629343091
 30
0.0
 11
21.430682778412582
 21
155.99113395768481
 31
0.0
  0
LINE
  5
1B31
  8
0
 62
     0
 10
19.843182778412569
 20
153.24150330066919
 30
0.0
 11
20.24005777841257
 21
153.92891096492309
 31
0.0
  0
LINE
  5
1B32
  8
0
 62
     0
 10
22.22443306290868
 20
160.1155797789543
 30
0.0
 11
22.269971218109731
 21
160.19445417744549
 31
0.0
  0
LINE
  5
1B33
  8
0
 62
     0
 10
21.033808062908669
 20
158.05335678619261
 30
0.0
 11
21.43068306290867
 21
158.74076445044651
 31
0.0
  0
LINE
  5
1B34
  8
0
 62
     0
 10
19.843183062908668
 20
155.99113379343089
 30
0.0
 11
20.24005806290867
 21
156.67854145768479
 31
0.0
  0
LINE
  5
1B35
  8
0
 62
     0
 10
18.65255806290866
 20
153.9289108006692
 30
0.0
 11
19.049433062908658
 21
154.6163184649231
 31
0.0
  0
LINE
  5
1B36
  8
0
 62
     0
 10
21.03380834740479
 20
160.8029872789543
 30
0.0
 11
21.063819824455859
 21
160.8549686820169
 31
0.0
  0
LINE
  5
1B37
  8
0
 62
     0
 10
19.843183347404779
 20
158.74076428619259
 30
0.0
 11
20.240058347404791
 21
159.42817195044651
 31
0.0
  0
LINE
  5
1B38
  8
0
 62
     0
 10
18.652558347404781
 20
156.6785412934309
 30
0.0
 11
19.049433347404779
 21
157.36594895768479
 31
0.0
  0
LINE
  5
1B39
  8
0
 62
     0
 10
17.461933347404781
 20
154.61631830066921
 30
0.0
 11
17.858808347404779
 21
155.3037259649231
 31
0.0
  0
LINE
  5
1B3A
  8
0
 62
     0
 10
18.65255863190087
 20
159.42817178619259
 30
0.0
 11
19.049433631900879
 21
160.11557945044649
 31
0.0
  0
LINE
  5
1B3B
  8
0
 62
     0
 10
17.46193363190087
 20
157.3659487934309
 30
0.0
 11
17.858808631900871
 21
158.0533564576848
 31
0.0
  0
LINE
  5
1B3C
  8
0
 62
     0
 10
16.271308631900869
 20
155.30372580066921
 30
0.0
 11
16.66818363190087
 21
155.99113346492311
 31
0.0
  0
LINE
  5
1B3D
  8
0
 62
     0
 10
17.461933916396969
 20
160.1155792861926
 30
0.0
 11
17.6905682431202
 21
160.5115855564315
 31
0.0
  0
LINE
  5
1B3E
  8
0
 62
     0
 10
16.271308916396961
 20
158.05335629343091
 30
0.0
 11
16.668183916396959
 21
158.74076395768481
 31
0.0
  0
LINE
  5
1B3F
  8
0
 62
     0
 10
21.430668553607681
 20
160.115575344099
 30
0.0
 11
21.03379355360768
 21
160.80298300835301
 31
0.0
  0
LINE
  5
1B40
  8
0
 62
     0
 10
22.621293553607678
 20
158.0533523513374
 30
0.0
 11
22.224418553607681
 21
158.74076001559129
 31
0.0
  0
LINE
  5
1B41
  8
0
 62
     0
 10
23.708896428415219
 20
156.16956891371271
 30
0.0
 11
23.415043553607681
 21
156.6785370228296
 31
0.0
  0
LINE
  5
1B42
  8
0
 62
     0
 10
20.240043838103801
 20
159.42816784409911
 30
0.0
 11
19.8431688381038
 21
160.115575508353
 31
0.0
  0
LINE
  5
1B43
  8
0
 62
     0
 10
21.430668838103792
 20
157.36594485133739
 30
0.0
 11
21.03379383810379
 21
158.05335251559131
 31
0.0
  0
LINE
  5
1B44
  8
0
 62
     0
 10
22.621293838103789
 20
155.3037218585757
 30
0.0
 11
22.224418838103791
 21
155.9911295228296
 31
0.0
  0
LINE
  5
1B45
  8
0
 62
     0
 10
19.0494191225999
 20
158.7407603440991
 30
0.0
 11
18.652544122599899
 21
159.42816800835291
 31
0.0
  0
LINE
  5
1B46
  8
0
 62
     0
 10
20.24004412259989
 20
156.67853735133741
 30
0.0
 11
19.843169122599889
 21
157.36594501559131
 31
0.0
  0
LINE
  5
1B47
  8
0
 62
     0
 10
21.430669122599891
 20
154.61631435857569
 30
0.0
 11
21.0337941225999
 21
155.30372202282959
 31
0.0
  0
LINE
  5
1B48
  8
0
 62
     0
 10
17.858794407095981
 20
158.05335284409909
 30
0.0
 11
17.46191940709598
 21
158.74076050835299
 31
0.0
  0
LINE
  5
1B49
  8
0
 62
     0
 10
19.049419407095971
 20
155.9911298513374
 30
0.0
 11
18.652544407095981
 21
156.6785375155913
 31
0.0
  0
LINE
  5
1B4A
  8
0
 62
     0
 10
20.240044407095969
 20
153.92890685857569
 30
0.0
 11
19.843169407095971
 21
154.61631452282961
 31
0.0
  0
LINE
  5
1B4B
  8
0
 62
     0
 10
16.66816969159208
 20
157.36594534409909
 30
0.0
 11
16.271294691592079
 21
158.05335300835301
 31
0.0
  0
LINE
  5
1B4C
  8
0
 62
     0
 10
17.85879469159207
 20
155.3037223513374
 30
0.0
 11
17.461919691592069
 21
155.9911300155913
 31
0.0
  0
LINE
  5
1B4D
  8
0
 62
     0
 10
19.049419691592071
 20
153.24149935857571
 30
0.0
 11
18.65254469159207
 21
153.92890702282961
 31
0.0
  0
LINE
  5
1B4E
  8
0
 62
     0
 10
16.66816997608818
 20
154.61631485133739
 30
0.0
 11
16.271294976088178
 21
155.30372251559129
 31
0.0
  0
LINE
  5
1B4F
  8
0
 62
     0
 10
19.049429648955439
 20
153.2414899961035
 30
0.0
 11
19.843179648955442
 21
153.2414899961035
 31
0.0
  0
LINE
  5
1B50
  8
0
 62
     0
 10
21.430679648955451
 20
154.61630499610351
 30
0.0
 11
22.224429648955439
 21
154.61630499610351
 31
0.0
  0
LINE
  5
1B51
  8
0
 62
     0
 10
19.049429648955439
 20
154.61630499610351
 30
0.0
 11
19.843179648955442
 21
154.61630499610351
 31
0.0
  0
LINE
  5
1B52
  8
0
 62
     0
 10
16.668179648955441
 20
154.61630499610351
 30
0.0
 11
17.46192964895544
 21
154.61630499610351
 31
0.0
  0
LINE
  5
1B53
  8
0
 62
     0
 10
21.43067964895544
 20
155.99111999610349
 30
0.0
 11
22.224429648955439
 21
155.99111999610349
 31
0.0
  0
LINE
  5
1B54
  8
0
 62
     0
 10
19.049429648955439
 20
155.99111999610349
 30
0.0
 11
19.843179648955442
 21
155.99111999610349
 31
0.0
  0
LINE
  5
1B55
  8
0
 62
     0
 10
16.668179648955441
 20
155.99111999610349
 30
0.0
 11
17.46192964895544
 21
155.99111999610349
 31
0.0
  0
LINE
  5
1B56
  8
0
 62
     0
 10
21.43067964895544
 20
157.3659349961035
 30
0.0
 11
22.224429648955439
 21
157.3659349961035
 31
0.0
  0
LINE
  5
1B57
  8
0
 62
     0
 10
19.049429648955439
 20
157.3659349961035
 30
0.0
 11
19.843179648955442
 21
157.3659349961035
 31
0.0
  0
LINE
  5
1B58
  8
0
 62
     0
 10
16.668179648955441
 20
157.3659349961035
 30
0.0
 11
17.46192964895544
 21
157.3659349961035
 31
0.0
  0
LINE
  5
1B59
  8
0
 62
     0
 10
21.430679648955451
 20
158.74074999610349
 30
0.0
 11
22.224429648955439
 21
158.74074999610349
 31
0.0
  0
LINE
  5
1B5A
  8
0
 62
     0
 10
19.049429648955439
 20
158.74074999610349
 30
0.0
 11
19.843179648955442
 21
158.74074999610349
 31
0.0
  0
LINE
  5
1B5B
  8
0
 62
     0
 10
16.668179648955441
 20
158.74074999610349
 30
0.0
 11
17.46192964895544
 21
158.74074999610349
 31
0.0
  0
LINE
  5
1B5C
  8
0
 62
     0
 10
21.43067964895544
 20
160.1155649961035
 30
0.0
 11
22.224429648955439
 21
160.1155649961035
 31
0.0
  0
LINE
  5
1B5D
  8
0
 62
     0
 10
19.049429648955439
 20
160.1155649961035
 30
0.0
 11
19.843179648955442
 21
160.1155649961035
 31
0.0
  0
LINE
  5
1B5E
  8
0
 62
     0
 10
17.13328009708853
 20
160.1155649961035
 30
0.0
 11
17.46192964895544
 21
160.1155649961035
 31
0.0
  0
ENDBLK
  5
1B60
  8
0
  0
BLOCK
  8
0
  2
*X104
 70
     1
 10
0.0
 20
0.0
 30
0.0
  3
*X104
  1

  0
LINE
  5
1B62
  8
0
 62
     0
 10
40.195856225418282
 20
75.564999999999984
 30
0.0
 11
61.804143960956829
 21
75.564999999999984
 31
0.0
  0
LINE
  5
1B63
  8
0
 62
     0
 10
39.791394302589993
 20
76.676249999999996
 30
0.0
 11
62.208605883785133
 21
76.676249999999996
 31
0.0
  0
LINE
  5
1B64
  8
0
 62
     0
 10
60.484712261661663
 20
77.787499999999994
 30
0.0
 11
62.613067806613437
 21
77.787499999999994
 31
0.0
  0
LINE
  5
1B65
  8
0
 62
     0
 10
39.386932379761689
 20
77.787499999999994
 30
0.0
 11
41.515287924713483
 21
77.787499999999994
 31
0.0
  0
LINE
  5
1B66
  8
0
 62
     0
 10
64.000674775325749
 20
77.787499999999994
 30
0.0
 11
66.000000093187538
 21
77.787499999999994
 31
0.0
  0
LINE
  5
1B67
  8
0
 62
     0
 10
36.000000093187552
 20
77.787499999999994
 30
0.0
 11
37.9967296650251
 21
77.787499999999994
 31
0.0
  0
LINE
  5
1B68
  8
0
 62
     0
 10
60.889174184489988
 20
78.898749999999993
 30
0.0
 11
66.000000093187566
 21
78.898749999999993
 31
0.0
  0
LINE
  5
1B69
  8
0
 62
     0
 10
36.000000093187552
 20
78.898749999999993
 30
0.0
 11
41.110826001885179
 21
78.898749999999993
 31
0.0
  0
LINE
  5
1B6A
  8
0
 62
     0
 10
61.50526173261855
 20
80.009999999999991
 30
0.0
 11
66.00000009318758
 21
80.009999999999991
 31
0.0
  0
LINE
  5
1B6B
  8
0
 62
     0
 10
36.000000093187552
 20
80.009999999999991
 30
0.0
 11
40.494738453747857
 21
80.009999999999991
 31
0.0
  0
LINE
  5
1B6C
  8
0
 62
     0
 10
64.968161192796259
 20
81.121249999999975
 30
0.0
 11
65.914122430003872
 21
81.121249999999975
 31
0.0
  0
LINE
  5
1B6D
  8
0
 62
     0
 10
36.085877756374309
 20
81.121249999999975
 30
0.0
 11
37.031838993578759
 21
81.121249999999975
 31
0.0
  0
ENDBLK
  5
1B6F
  8
0
  0
BLOCK
  8
0
  2
*X105
 70
     1
 10
0.0
 20
0.0
 30
0.0
  3
*X105
  1

  0
LINE
  5
1B71
  8
0
 62
     0
 10
37.111249942371799
 20
117.7270760119158
 30
0.0
 11
37.111249942371799
 21
113.9245979250062
 31
0.0
  0
LINE
  5
1B72
  8
0
 62
     0
 10
38.22249994237179
 20
116.6939998011522
 30
0.0
 11
38.22249994237179
 21
114.56617841164309
 31
0.0
  0
LINE
  5
1B73
  8
0
 62
     0
 10
39.333749942371803
 20
117.0663824465036
 30
0.0
 11
39.333749942371803
 21
114.8263931984167
 31
0.0
  0
LINE
  5
1B74
  8
0
 62
     0
 10
40.444999942371787
 20
119.69763330019821
 30
0.0
 11
40.444999942371787
 21
114.95944106145789
 31
0.0
  0
LINE
  5
1B75
  8
0
 62
     0
 10
41.556249942371792
 20
119.72113291741471
 30
0.0
 11
41.556249942371792
 21
117.3250422109154
 31
0.0
  0
LINE
  5
1B76
  8
0
 62
     0
 10
42.667499942371791
 20
119.72113291741471
 30
0.0
 11
42.667499942371791
 21
117.9211329174147
 31
0.0
  0
LINE
  5
1B77
  8
0
 62
     0
 10
43.778749942371789
 20
119.72113291741459
 30
0.0
 11
43.778749942371789
 21
117.9211329174147
 31
0.0
  0
LINE
  5
1B78
  8
0
 62
     0
 10
44.889999942371787
 20
119.72113291741459
 30
0.0
 11
44.889999942371787
 21
117.9211329174147
 31
0.0
  0
LINE
  5
1B79
  8
0
 62
     0
 10
46.001249942371793
 20
119.72113291741459
 30
0.0
 11
46.001249942371793
 21
117.9211329174147
 31
0.0
  0
LINE
  5
1B7A
  8
0
 62
     0
 10
47.112499942371791
 20
119.72113291741459
 30
0.0
 11
47.112499942371791
 21
117.9211329174147
 31
0.0
  0
LINE
  5
1B7B
  8
0
 62
     0
 10
48.223749942371789
 20
119.72113291741459
 30
0.0
 11
48.223749942371789
 21
117.9211329174147
 31
0.0
  0
LINE
  5
1B7C
  8
0
 62
     0
 10
49.334999942371788
 20
119.72113291741459
 30
0.0
 11
49.334999942371788
 21
117.9211329174147
 31
0.0
  0
LINE
  5
1B7D
  8
0
 62
     0
 10
50.446249942371793
 20
119.72113291741459
 30
0.0
 11
50.446249942371793
 21
117.9211329174146
 31
0.0
  0
LINE
  5
1B7E
  8
0
 62
     0
 10
51.557499942371791
 20
119.72113291741459
 30
0.0
 11
51.557499942371791
 21
117.9211329174146
 31
0.0
  0
LINE
  5
1B7F
  8
0
 62
     0
 10
52.66874994237179
 20
119.72113291741459
 30
0.0
 11
52.66874994237179
 21
117.9211329174146
 31
0.0
  0
LINE
  5
1B80
  8
0
 62
     0
 10
53.779999942371781
 20
119.72113291741459
 30
0.0
 11
53.779999942371781
 21
117.9211329174146
 31
0.0
  0
LINE
  5
1B81
  8
0
 62
     0
 10
54.891249942371793
 20
119.72113291741459
 30
0.0
 11
54.891249942371793
 21
117.9211329174146
 31
0.0
  0
LINE
  5
1B82
  8
0
 62
     0
 10
56.002499942371792
 20
119.72113291741459
 30
0.0
 11
56.002499942371792
 21
117.9211329174146
 31
0.0
  0
LINE
  5
1B83
  8
0
 62
     0
 10
57.113749942371783
 20
119.72113291741459
 30
0.0
 11
57.113749942371783
 21
117.9211329174146
 31
0.0
  0
LINE
  5
1B84
  8
0
 62
     0
 10
58.224999942371802
 20
119.72113291741459
 30
0.0
 11
58.224999942371802
 21
117.9211329174146
 31
0.0
  0
LINE
  5
1B85
  8
0
 62
     0
 10
59.336249942371794
 20
119.72113291741459
 30
0.0
 11
59.336249942371794
 21
117.9211329174146
 31
0.0
  0
LINE
  5
1B86
  8
0
 62
     0
 10
60.447499942371792
 20
119.72113291741459
 30
0.0
 11
60.447499942371792
 21
117.31473999931841
 31
0.0
  0
LINE
  5
1B87
  8
0
 62
     0
 10
61.55874994237179
 20
119.6962668078372
 30
0.0
 11
61.55874994237179
 21
114.9572962058879
 31
0.0
  0
LINE
  5
1B88
  8
0
 62
     0
 10
62.669999942371788
 20
117.0560802349066
 30
0.0
 11
62.669999942371788
 21
114.8263931984166
 31
0.0
  0
LINE
  5
1B89
  8
0
 62
     0
 10
63.781249942371787
 20
116.6966275775962
 30
0.0
 11
63.781249942371787
 21
114.5640135222808
 31
0.0
  0
LINE
  5
1B8A
  8
0
 62
     0
 10
64.892499942371785
 20
117.7303758333816
 30
0.0
 11
64.892499942371785
 21
113.92243303564371
 31
0.0
  0
ENDBLK
  5
1B8C
  8
0
  0
BLOCK
  8
0
  2
*X106
 70
     1
 10
0.0
 20
0.0
 30
0.0
  3
*X106
  1

  0
LINE
  5
1B8E
  8
0
 62
     0
 10
39.995697793732703
 20
1.111249999999999
 30
0.0
 11
62.004302213115963
 21
1.111249999999999
 31
0.0
  0
LINE
  5
1B8F
  8
0
 62
     0
 10
60.256787705162019
 20
2.2224999999999988
 30
0.0
 11
62.408764135944281
 21
2.2224999999999988
 31
0.0
  0
LINE
  5
1B90
  8
0
 62
     0
 10
39.591235870904399
 20
2.2224999999999988
 30
0.0
 11
41.743212301686
 21
2.2224999999999988
 31
0.0
  0
LINE
  5
1B91
  8
0
 62
     0
 10
64.967756506579192
 20
2.2224999999999988
 30
0.0
 11
65.914293244396745
 21
2.2224999999999988
 31
0.0
  0
LINE
  5
1B92
  8
0
 62
     0
 10
36.08570676245494
 20
2.2224999999999988
 30
0.0
 11
37.030813958595068
 21
2.2224999999999988
 31
0.0
  0
LINE
  5
1B93
  8
0
 62
     0
 10
60.684870513820812
 20
3.3337499999999989
 30
0.0
 11
63.612017547601731
 21
3.3337499999999989
 31
0.0
  0
LINE
  5
1B94
  8
0
 62
     0
 10
38.387982459246999
 20
3.3337499999999989
 30
0.0
 11
41.315129493027897
 21
3.3337499999999989
 31
0.0
  0
LINE
  5
1B95
  8
0
 62
     0
 10
63.705708712314369
 20
3.3337499999999989
 30
0.0
 11
66.000000003424333
 21
3.3337499999999989
 31
0.0
  0
LINE
  5
1B96
  8
0
 62
     0
 10
36.000000003424319
 20
3.3337499999999989
 30
0.0
 11
38.294291294534389
 21
3.3337499999999989
 31
0.0
  0
LINE
  5
1B97
  8
0
 62
     0
 10
61.08933243664913
 20
4.4449999999999994
 30
0.0
 11
66.000000003424347
 21
4.4449999999999994
 31
0.0
  0
LINE
  5
1B98
  8
0
 62
     0
 10
36.000000003424319
 20
4.4449999999999994
 30
0.0
 11
40.910667570199593
 21
4.4449999999999994
 31
0.0
  0
LINE
  5
1B99
  8
0
 62
     0
 10
63.995927252617342
 20
5.5562499999999986
 30
0.0
 11
66.000000003424375
 21
5.5562499999999986
 31
0.0
  0
LINE
  5
1B9A
  8
0
 62
     0
 10
36.000000003424319
 20
5.5562499999999986
 30
0.0
 11
38.004072754231359
 21
5.5562499999999986
 31
0.0
  0
ENDBLK
  5
1B9C
  8
0
  0
BLOCK
  8
0
  2
*X107
 70
     1
 10
0.0
 20
0.0
 30
0.0
  3
*X107
  1

  0
LINE
  5
1B9E
  8
0
 62
     0
 10
36.431500617117621
 20
50.627121370808723
 30
0.0
 11
36.431500617117621
 21
46.427121370808671
 31
0.0
  0
LINE
  5
1B9F
  8
0
 62
     0
 10
37.542750617117619
 20
50.178259858217828
 30
0.0
 11
37.542750617117619
 21
46.875983083807668
 31
0.0
  0
LINE
  5
1BA0
  8
0
 62
     0
 10
38.654000617117617
 20
49.500377296959982
 30
0.0
 11
38.654000617117617
 21
47.476789731117293
 31
0.0
  0
LINE
  5
1BA1
  8
0
 62
     0
 10
39.765250617117623
 20
49.527121370748389
 30
0.0
 11
39.765250617117623
 21
47.52712137020626
 31
0.0
  0
LINE
  5
1BA2
  8
0
 62
     0
 10
40.876500617117607
 20
49.527121370748389
 30
0.0
 11
40.876500617117607
 21
47.527121370232187
 31
0.0
  0
LINE
  5
1BA3
  8
0
 62
     0
 10
41.987750617117619
 20
49.527121370748397
 30
0.0
 11
41.987750617117619
 21
47.527121370258122
 31
0.0
  0
LINE
  5
1BA4
  8
0
 62
     0
 10
43.099000617117611
 20
49.527121370748397
 30
0.0
 11
43.099000617117611
 21
47.52712137028405
 31
0.0
  0
LINE
  5
1BA5
  8
0
 62
     0
 10
44.210250617117623
 20
49.527121370748397
 30
0.0
 11
44.210250617117623
 21
47.52712137030997
 31
0.0
  0
LINE
  5
1BA6
  8
0
 62
     0
 10
45.321500617117621
 20
49.527121370748389
 30
0.0
 11
45.321500617117621
 21
47.527121370335891
 31
0.0
  0
LINE
  5
1BA7
  8
0
 62
     0
 10
46.432750617117613
 20
49.527121370748389
 30
0.0
 11
46.432750617117613
 21
47.527121370361833
 31
0.0
  0
LINE
  5
1BA8
  8
0
 62
     0
 10
47.544000617117618
 20
49.527121370748389
 30
0.0
 11
47.544000617117618
 21
47.527121370387739
 31
0.0
  0
LINE
  5
1BA9
  8
0
 62
     0
 10
48.655250617117609
 20
49.527121370748389
 30
0.0
 11
48.655250617117609
 21
47.527121370413667
 31
0.0
  0
LINE
  5
1BAA
  8
0
 62
     0
 10
49.766500617117622
 20
49.527121370748389
 30
0.0
 11
49.766500617117622
 21
47.527121370439602
 31
0.0
  0
LINE
  5
1BAB
  8
0
 62
     0
 10
50.87775061711762
 20
49.527121370748368
 30
0.0
 11
50.87775061711762
 21
47.527121370465508
 31
0.0
  0
LINE
  5
1BAC
  8
0
 62
     0
 10
51.989000617117611
 20
49.527121370748368
 30
0.0
 11
51.989000617117611
 21
47.527121370491429
 31
0.0
  0
LINE
  5
1BAD
  8
0
 62
     0
 10
53.100250617117617
 20
49.527121370748368
 30
0.0
 11
53.100250617117617
 21
47.527121370517357
 31
0.0
  0
LINE
  5
1BAE
  8
0
 62
     0
 10
54.211500617117608
 20
49.527121370748368
 30
0.0
 11
54.211500617117608
 21
47.527121370543291
 31
0.0
  0
LINE
  5
1BAF
  8
0
 62
     0
 10
55.32275061711762
 20
49.527121370748368
 30
0.0
 11
55.32275061711762
 21
47.527121370569212
 31
0.0
  0
LINE
  5
1BB0
  8
0
 62
     0
 10
56.434000617117619
 20
49.527121370748368
 30
0.0
 11
56.434000617117619
 21
47.527121370595133
 31
0.0
  0
LINE
  5
1BB1
  8
0
 62
     0
 10
57.545250617117617
 20
49.527121370748361
 30
0.0
 11
57.545250617117617
 21
47.527121370621067
 31
0.0
  0
LINE
  5
1BB2
  8
0
 62
     0
 10
58.656500617117608
 20
49.527121370748361
 30
0.0
 11
58.656500617117608
 21
47.527121370646988
 31
0.0
  0
LINE
  5
1BB3
  8
0
 62
     0
 10
59.767750617117613
 20
49.527121370748361
 30
0.0
 11
59.767750617117613
 21
47.527121370672909
 31
0.0
  0
LINE
  5
1BB4
  8
0
 62
     0
 10
60.879000617117619
 20
49.527121370748368
 30
0.0
 11
60.879000617117619
 21
47.527121370698843
 31
0.0
  0
LINE
  5
1BB5
  8
0
 62
     0
 10
61.99025061711761
 20
49.527121370748368
 30
0.0
 11
61.99025061711761
 21
47.527121370724771
 31
0.0
  0
LINE
  5
1BB6
  8
0
 62
     0
 10
63.101500617117622
 20
49.527121370748368
 30
0.0
 11
63.101500617117622
 21
47.52299791570568
 31
0.0
  0
LINE
  5
1BB7
  8
0
 62
     0
 10
64.212750617117621
 20
50.038054169412632
 30
0.0
 11
64.212750617117621
 21
47.016188835199138
 31
0.0
  0
LINE
  5
1BB8
  8
0
 62
     0
 10
65.324000617117605
 20
50.627121370802939
 30
0.0
 11
65.324000617117605
 21
46.427121370802872
 31
0.0
  0
ENDBLK
  5
1BBA
  8
0
  0
BLOCK
  8
0
  2
*X108
 70
     1
 10
0.0
 20
0.0
 30
0.0
  3
*X108
  1

  0
LINE
  5
1BBC
  8
0
 62
     0
 10
64.760439205183815
 20
66.674999999999997
 30
0.0
 11
65.979967193592344
 21
66.674999999999997
 31
0.0
  0
LINE
  5
1BBD
  8
0
 62
     0
 10
36.020032982330548
 20
66.674999999999997
 30
0.0
 11
37.239560970738992
 21
66.674999999999997
 31
0.0
  0
LINE
  5
1BBE
  8
0
 62
     0
 10
36.000000088019348
 20
67.786249999999995
 30
0.0
 11
66.000000087903487
 21
67.786249999999995
 31
0.0
  0
LINE
  5
1BBF
  8
0
 62
     0
 10
36.000000087993278
 20
68.897499999999994
 30
0.0
 11
66.00000008792955
 21
68.897499999999994
 31
0.0
  0
LINE
  5
1BC0
  8
0
 62
     0
 10
64.208944681667944
 20
70.008749999999992
 30
0.0
 11
66.000000087955613
 21
70.008749999999992
 31
0.0
  0
LINE
  5
1BC1
  8
0
 62
     0
 10
36.000000087967223
 20
70.008749999999992
 30
0.0
 11
37.791055494255012
 21
70.008749999999992
 31
0.0
  0
ENDBLK
  5
1BC3
  8
0
  0
BLOCK
  8
0
  2
*X109
 70
     1
 10
0.0
 20
0.0
 30
0.0
  3
*X109
  1

  0
LINE
  5
1BC5
  8
0
 62
     0
 10
40.195856225418282
 20
75.564999999999984
 30
0.0
 11
61.804143960956829
 21
75.564999999999984
 31
0.0
  0
LINE
  5
1BC6
  8
0
 62
     0
 10
39.791394302589993
 20
76.676249999999996
 30
0.0
 11
62.208605883785133
 21
76.676249999999996
 31
0.0
  0
LINE
  5
1BC7
  8
0
 62
     0
 10
60.484712261661663
 20
77.787499999999994
 30
0.0
 11
62.613067806613437
 21
77.787499999999994
 31
0.0
  0
LINE
  5
1BC8
  8
0
 62
     0
 10
39.386932379761689
 20
77.787499999999994
 30
0.0
 11
41.515287924713483
 21
77.787499999999994
 31
0.0
  0
LINE
  5
1BC9
  8
0
 62
     0
 10
64.000674775325749
 20
77.787499999999994
 30
0.0
 11
66.000000093187538
 21
77.787499999999994
 31
0.0
  0
LINE
  5
1BCA
  8
0
 62
     0
 10
36.000000093187552
 20
77.787499999999994
 30
0.0
 11
37.9967296650251
 21
77.787499999999994
 31
0.0
  0
LINE
  5
1BCB
  8
0
 62
     0
 10
60.889174184489988
 20
78.898749999999993
 30
0.0
 11
66.000000093187566
 21
78.898749999999993
 31
0.0
  0
LINE
  5
1BCC
  8
0
 62
     0
 10
36.000000093187552
 20
78.898749999999993
 30
0.0
 11
41.110826001885179
 21
78.898749999999993
 31
0.0
  0
LINE
  5
1BCD
  8
0
 62
     0
 10
61.50526173261855
 20
80.009999999999991
 30
0.0
 11
66.00000009318758
 21
80.009999999999991
 31
0.0
  0
LINE
  5
1BCE
  8
0
 62
     0
 10
36.000000093187552
 20
80.009999999999991
 30
0.0
 11
40.494738453747857
 21
80.009999999999991
 31
0.0
  0
LINE
  5
1BCF
  8
0
 62
     0
 10
64.968161192796259
 20
81.121249999999975
 30
0.0
 11
65.914122430003872
 21
81.121249999999975
 31
0.0
  0
LINE
  5
1BD0
  8
0
 62
     0
 10
36.085877756374309
 20
81.121249999999975
 30
0.0
 11
37.031838993578759
 21
81.121249999999975
 31
0.0
  0
ENDBLK
  5
1BD2
  8
0
  0
BLOCK
  8
0
  2
*X110
 70
     1
 10
0.0
 20
0.0
 30
0.0
  3
*X110
  1

  0
LINE
  5
1BD4
  8
0
 62
     0
 10
37.111249942371799
 20
117.7270760119158
 30
0.0
 11
37.111249942371799
 21
113.9245979250062
 31
0.0
  0
LINE
  5
1BD5
  8
0
 62
     0
 10
38.22249994237179
 20
116.6939998011522
 30
0.0
 11
38.22249994237179
 21
114.56617841164309
 31
0.0
  0
LINE
  5
1BD6
  8
0
 62
     0
 10
39.333749942371803
 20
117.0663824465036
 30
0.0
 11
39.333749942371803
 21
114.8263931984167
 31
0.0
  0
LINE
  5
1BD7
  8
0
 62
     0
 10
40.444999942371787
 20
119.69763330019821
 30
0.0
 11
40.444999942371787
 21
114.95944106145789
 31
0.0
  0
LINE
  5
1BD8
  8
0
 62
     0
 10
41.556249942371792
 20
119.72113291741471
 30
0.0
 11
41.556249942371792
 21
117.3250422109154
 31
0.0
  0
LINE
  5
1BD9
  8
0
 62
     0
 10
42.667499942371791
 20
119.72113291741471
 30
0.0
 11
42.667499942371791
 21
117.9211329174147
 31
0.0
  0
LINE
  5
1BDA
  8
0
 62
     0
 10
43.778749942371789
 20
119.72113291741459
 30
0.0
 11
43.778749942371789
 21
117.9211329174147
 31
0.0
  0
LINE
  5
1BDB
  8
0
 62
     0
 10
44.889999942371787
 20
119.72113291741459
 30
0.0
 11
44.889999942371787
 21
117.9211329174147
 31
0.0
  0
LINE
  5
1BDC
  8
0
 62
     0
 10
46.001249942371793
 20
119.72113291741459
 30
0.0
 11
46.001249942371793
 21
117.9211329174147
 31
0.0
  0
LINE
  5
1BDD
  8
0
 62
     0
 10
47.112499942371791
 20
119.72113291741459
 30
0.0
 11
47.112499942371791
 21
117.9211329174147
 31
0.0
  0
LINE
  5
1BDE
  8
0
 62
     0
 10
48.223749942371789
 20
119.72113291741459
 30
0.0
 11
48.223749942371789
 21
117.9211329174147
 31
0.0
  0
LINE
  5
1BDF
  8
0
 62
     0
 10
49.334999942371788
 20
119.72113291741459
 30
0.0
 11
49.334999942371788
 21
117.9211329174147
 31
0.0
  0
LINE
  5
1BE0
  8
0
 62
     0
 10
50.446249942371793
 20
119.72113291741459
 30
0.0
 11
50.446249942371793
 21
117.9211329174146
 31
0.0
  0
LINE
  5
1BE1
  8
0
 62
     0
 10
51.557499942371791
 20
119.72113291741459
 30
0.0
 11
51.557499942371791
 21
117.9211329174146
 31
0.0
  0
LINE
  5
1BE2
  8
0
 62
     0
 10
52.66874994237179
 20
119.72113291741459
 30
0.0
 11
52.66874994237179
 21
117.9211329174146
 31
0.0
  0
LINE
  5
1BE3
  8
0
 62
     0
 10
53.779999942371781
 20
119.72113291741459
 30
0.0
 11
53.779999942371781
 21
117.9211329174146
 31
0.0
  0
LINE
  5
1BE4
  8
0
 62
     0
 10
54.891249942371793
 20
119.72113291741459
 30
0.0
 11
54.891249942371793
 21
117.9211329174146
 31
0.0
  0
LINE
  5
1BE5
  8
0
 62
     0
 10
56.002499942371792
 20
119.72113291741459
 30
0.0
 11
56.002499942371792
 21
117.9211329174146
 31
0.0
  0
LINE
  5
1BE6
  8
0
 62
     0
 10
57.113749942371783
 20
119.72113291741459
 30
0.0
 11
57.113749942371783
 21
117.9211329174146
 31
0.0
  0
LINE
  5
1BE7
  8
0
 62
     0
 10
58.224999942371802
 20
119.72113291741459
 30
0.0
 11
58.224999942371802
 21
117.9211329174146
 31
0.0
  0
LINE
  5
1BE8
  8
0
 62
     0
 10
59.336249942371794
 20
119.72113291741459
 30
0.0
 11
59.336249942371794
 21
117.9211329174146
 31
0.0
  0
LINE
  5
1BE9
  8
0
 62
     0
 10
60.447499942371792
 20
119.72113291741459
 30
0.0
 11
60.447499942371792
 21
117.31473999931841
 31
0.0
  0
LINE
  5
1BEA
  8
0
 62
     0
 10
61.55874994237179
 20
119.6962668078372
 30
0.0
 11
61.55874994237179
 21
114.9572962058879
 31
0.0
  0
LINE
  5
1BEB
  8
0
 62
     0
 10
62.669999942371788
 20
117.0560802349066
 30
0.0
 11
62.669999942371788
 21
114.8263931984166
 31
0.0
  0
LINE
  5
1BEC
  8
0
 62
     0
 10
63.781249942371787
 20
116.6966275775962
 30
0.0
 11
63.781249942371787
 21
114.5640135222808
 31
0.0
  0
LINE
  5
1BED
  8
0
 62
     0
 10
64.892499942371785
 20
117.7303758333816
 30
0.0
 11
64.892499942371785
 21
113.92243303564371
 31
0.0
  0
ENDBLK
  5
1BEF
  8
0
  0
BLOCK
  8
0
  2
*X111
 70
     1
 10
0.0
 20
0.0
 30
0.0
  3
*X111
  1

  0
LINE
  5
1BF1
  8
0
 62
     0
 10
39.995697793732703
 20
1.111249999999999
 30
0.0
 11
62.004302213115963
 21
1.111249999999999
 31
0.0
  0
LINE
  5
1BF2
  8
0
 62
     0
 10
60.256787705162019
 20
2.2224999999999988
 30
0.0
 11
62.408764135944281
 21
2.2224999999999988
 31
0.0
  0
LINE
  5
1BF3
  8
0
 62
     0
 10
39.591235870904399
 20
2.2224999999999988
 30
0.0
 11
41.743212301686
 21
2.2224999999999988
 31
0.0
  0
LINE
  5
1BF4
  8
0
 62
     0
 10
64.967756506579192
 20
2.2224999999999988
 30
0.0
 11
65.914293244396745
 21
2.2224999999999988
 31
0.0
  0
LINE
  5
1BF5
  8
0
 62
     0
 10
36.08570676245494
 20
2.2224999999999988
 30
0.0
 11
37.030813958595068
 21
2.2224999999999988
 31
0.0
  0
LINE
  5
1BF6
  8
0
 62
     0
 10
60.684870513820812
 20
3.3337499999999989
 30
0.0
 11
63.612017547601731
 21
3.3337499999999989
 31
0.0
  0
LINE
  5
1BF7
  8
0
 62
     0
 10
38.387982459246999
 20
3.3337499999999989
 30
0.0
 11
41.315129493027897
 21
3.3337499999999989
 31
0.0
  0
LINE
  5
1BF8
  8
0
 62
     0
 10
63.705708712314369
 20
3.3337499999999989
 30
0.0
 11
66.000000003424333
 21
3.3337499999999989
 31
0.0
  0
LINE
  5
1BF9
  8
0
 62
     0
 10
36.000000003424319
 20
3.3337499999999989
 30
0.0
 11
38.294291294534389
 21
3.3337499999999989
 31
0.0
  0
LINE
  5
1BFA
  8
0
 62
     0
 10
61.08933243664913
 20
4.4449999999999994
 30
0.0
 11
66.000000003424347
 21
4.4449999999999994
 31
0.0
  0
LINE
  5
1BFB
  8
0
 62
     0
 10
36.000000003424319
 20
4.4449999999999994
 30
0.0
 11
40.910667570199593
 21
4.4449999999999994
 31
0.0
  0
LINE
  5
1BFC
  8
0
 62
     0
 10
63.995927252617342
 20
5.5562499999999986
 30
0.0
 11
66.000000003424375
 21
5.5562499999999986
 31
0.0
  0
LINE
  5
1BFD
  8
0
 62
     0
 10
36.000000003424319
 20
5.5562499999999986
 30
0.0
 11
38.004072754231359
 21
5.5562499999999986
 31
0.0
  0
ENDBLK
  5
1BFF
  8
0
  0
BLOCK
  8
0
  2
*X112
 70
     1
 10
0.0
 20
0.0
 30
0.0
  3
*X112
  1

  0
LINE
  5
1C01
  8
0
 62
     0
 10
36.431500617117621
 20
50.627121370808723
 30
0.0
 11
36.431500617117621
 21
46.427121370808671
 31
0.0
  0
LINE
  5
1C02
  8
0
 62
     0
 10
37.542750617117619
 20
50.178259858217828
 30
0.0
 11
37.542750617117619
 21
46.875983083807668
 31
0.0
  0
LINE
  5
1C03
  8
0
 62
     0
 10
38.654000617117617
 20
49.500377296959982
 30
0.0
 11
38.654000617117617
 21
47.476789731117293
 31
0.0
  0
LINE
  5
1C04
  8
0
 62
     0
 10
39.765250617117623
 20
49.527121370748389
 30
0.0
 11
39.765250617117623
 21
47.52712137020626
 31
0.0
  0
LINE
  5
1C05
  8
0
 62
     0
 10
40.876500617117607
 20
49.527121370748389
 30
0.0
 11
40.876500617117607
 21
47.527121370232187
 31
0.0
  0
LINE
  5
1C06
  8
0
 62
     0
 10
41.987750617117619
 20
49.527121370748397
 30
0.0
 11
41.987750617117619
 21
47.527121370258122
 31
0.0
  0
LINE
  5
1C07
  8
0
 62
     0
 10
43.099000617117611
 20
49.527121370748397
 30
0.0
 11
43.099000617117611
 21
47.52712137028405
 31
0.0
  0
LINE
  5
1C08
  8
0
 62
     0
 10
44.210250617117623
 20
49.527121370748397
 30
0.0
 11
44.210250617117623
 21
47.52712137030997
 31
0.0
  0
LINE
  5
1C09
  8
0
 62
     0
 10
45.321500617117621
 20
49.527121370748389
 30
0.0
 11
45.321500617117621
 21
47.527121370335891
 31
0.0
  0
LINE
  5
1C0A
  8
0
 62
     0
 10
46.432750617117613
 20
49.527121370748389
 30
0.0
 11
46.432750617117613
 21
47.527121370361833
 31
0.0
  0
LINE
  5
1C0B
  8
0
 62
     0
 10
47.544000617117618
 20
49.527121370748389
 30
0.0
 11
47.544000617117618
 21
47.527121370387739
 31
0.0
  0
LINE
  5
1C0C
  8
0
 62
     0
 10
48.655250617117609
 20
49.527121370748389
 30
0.0
 11
48.655250617117609
 21
47.527121370413667
 31
0.0
  0
LINE
  5
1C0D
  8
0
 62
     0
 10
49.766500617117622
 20
49.527121370748389
 30
0.0
 11
49.766500617117622
 21
47.527121370439602
 31
0.0
  0
LINE
  5
1C0E
  8
0
 62
     0
 10
50.87775061711762
 20
49.527121370748368
 30
0.0
 11
50.87775061711762
 21
47.527121370465508
 31
0.0
  0
LINE
  5
1C0F
  8
0
 62
     0
 10
51.989000617117611
 20
49.527121370748368
 30
0.0
 11
51.989000617117611
 21
47.527121370491429
 31
0.0
  0
LINE
  5
1C10
  8
0
 62
     0
 10
53.100250617117617
 20
49.527121370748368
 30
0.0
 11
53.100250617117617
 21
47.527121370517357
 31
0.0
  0
LINE
  5
1C11
  8
0
 62
     0
 10
54.211500617117608
 20
49.527121370748368
 30
0.0
 11
54.211500617117608
 21
47.527121370543291
 31
0.0
  0
LINE
  5
1C12
  8
0
 62
     0
 10
55.32275061711762
 20
49.527121370748368
 30
0.0
 11
55.32275061711762
 21
47.527121370569212
 31
0.0
  0
LINE
  5
1C13
  8
0
 62
     0
 10
56.434000617117619
 20
49.527121370748368
 30
0.0
 11
56.434000617117619
 21
47.527121370595133
 31
0.0
  0
LINE
  5
1C14
  8
0
 62
     0
 10
57.545250617117617
 20
49.527121370748361
 30
0.0
 11
57.545250617117617
 21
47.527121370621067
 31
0.0
  0
LINE
  5
1C15
  8
0
 62
     0
 10
58.656500617117608
 20
49.527121370748361
 30
0.0
 11
58.656500617117608
 21
47.527121370646988
 31
0.0
  0
LINE
  5
1C16
  8
0
 62
     0
 10
59.767750617117613
 20
49.527121370748361
 30
0.0
 11
59.767750617117613
 21
47.527121370672909
 31
0.0
  0
LINE
  5
1C17
  8
0
 62
     0
 10
60.879000617117619
 20
49.527121370748368
 30
0.0
 11
60.879000617117619
 21
47.527121370698843
 31
0.0
  0
LINE
  5
1C18
  8
0
 62
     0
 10
61.99025061711761
 20
49.527121370748368
 30
0.0
 11
61.99025061711761
 21
47.527121370724771
 31
0.0
  0
LINE
  5
1C19
  8
0
 62
     0
 10
63.101500617117622
 20
49.527121370748368
 30
0.0
 11
63.101500617117622
 21
47.52299791570568
 31
0.0
  0
LINE
  5
1C1A
  8
0
 62
     0
 10
64.212750617117621
 20
50.038054169412632
 30
0.0
 11
64.212750617117621
 21
47.016188835199138
 31
0.0
  0
LINE
  5
1C1B
  8
0
 62
     0
 10
65.324000617117605
 20
50.627121370802939
 30
0.0
 11
65.324000617117605
 21
46.427121370802872
 31
0.0
  0
ENDBLK
  5
1C1D
  8
0
  0
BLOCK
  8
0
  2
*X113
 70
     1
 10
0.0
 20
0.0
 30
0.0
  3
*X113
  1

  0
LINE
  5
1C1F
  8
0
 62
     0
 10
64.760439205183815
 20
66.674999999999997
 30
0.0
 11
65.979967193592344
 21
66.674999999999997
 31
0.0
  0
LINE
  5
1C20
  8
0
 62
     0
 10
36.020032982330548
 20
66.674999999999997
 30
0.0
 11
37.239560970738992
 21
66.674999999999997
 31
0.0
  0
LINE
  5
1C21
  8
0
 62
     0
 10
36.000000088019348
 20
67.786249999999995
 30
0.0
 11
66.000000087903487
 21
67.786249999999995
 31
0.0
  0
LINE
  5
1C22
  8
0
 62
     0
 10
36.000000087993278
 20
68.897499999999994
 30
0.0
 11
66.00000008792955
 21
68.897499999999994
 31
0.0
  0
LINE
  5
1C23
  8
0
 62
     0
 10
64.208944681667944
 20
70.008749999999992
 30
0.0
 11
66.000000087955613
 21
70.008749999999992
 31
0.0
  0
LINE
  5
1C24
  8
0
 62
     0
 10
36.000000087967223
 20
70.008749999999992
 30
0.0
 11
37.791055494255012
 21
70.008749999999992
 31
0.0
  0
ENDBLK
  5
1C26
  8
0
  0
BLOCK
  8
0
  2
*U114
 70
     1
 10
0.0
 20
0.0
 30
0.0
  3
*U114
  1

  0
TEXT
  5
1DA6
  8
SAPA_MATT
 62
     2
 10
115.4637816685798
 20
221.0011903626596
 30
0.0
 40
3.5
  1
197-202
  7
ISO
  0
ENDBLK
  5
1DA8
  8
0
  0
BLOCK
  8
0
  2
*U115
 70
     1
 10
0.0
 20
0.0
 30
0.0
  3
*U115
  1

  0
TEXT
  5
1DAA
  8
SAPA_MATT
 62
     2
 10
-18.999999918811032
 20
68.174999996033179
 30
0.0000000048844204
 40
3.5
  1
187
 50
90.0
  7
ISO
  0
ENDBLK
  5
1DAC
  8
0
  0
BLOCK
  8
0
  2
*U116
 70
     1
 10
0.0
 20
0.0
 30
0.0
  3
*U116
  1

  0
TEXT
  5
1DAE
  8
SAPA_MATT
 62
     2
 10
-6.9999999188110307
 20
19.924711409703029
 30
0.0000000048844204
 40
3.5
  1
89
 50
90.0
  7
ISO
  0
ENDBLK
  5
1DB0
  8
0
  0
BLOCK
  8
0
  2
*U117
 70
     1
 10
0.0
 20
0.0
 30
0.0
  3
*U117
  1

  0
TEXT
  5
1DB2
  8
SAPA_MATT
 62
     2
 10
-6.9999999188110351
 20
68.202512624488094
 30
0.0000000048844204
 40
3.5
  1
5
 50
90.0
  7
ISO
  0
ENDBLK
  5
1DB4
  8
0
  0
BLOCK
  8
0
  2
*U118
 70
     1
 10
0.0
 20
0.0
 30
0.0
  3
*U118
  1

  0
TEXT
  5
1DB6
  8
SAPA_MATT
 62
     2
 10
-6.9999999188110307
 20
116.0377698392505
 30
0.0000000048844204
 40
3.5
  1
93
 50
90.0
  7
ISO
  0
ENDBLK
  5
1DB8
  8
0
  0
ENDSEC
  0
SECTION
  2
ENTITIES
  0
POLYLINE
  5
26E
  8
SAPA_LIGHT
 66
     1
 10
0.0
 20
0.0
 30
0.0
 70
     1
  0
VERTEX
  5
1082
  8
SAPA_LIGHT
 10
22.70000008964125
 20
71.999542811895054
 30
0.0
  0
VERTEX
  5
1083
  8
SAPA_LIGHT
 10
22.700000089641179
 20
67.499999979435302
 30
0.0
  0
VERTEX
  5
1084
  8
SAPA_LIGHT
 10
79.300000089301392
 20
67.499999979435273
 30
0.0
  0
VERTEX
  5
1085
  8
SAPA_LIGHT
 10
79.30000007834596
 20
49.999999995806093
 30
0.0
  0
VERTEX
  5
1086
  8
SAPA_LIGHT
 10
88.000000081188574
 20
49.999999995806093
 30
0.0
  0
VERTEX
  5
1087
  8
SAPA_LIGHT
 10
88.000000081188588
 20
119.9999999958068
 30
0.0
  0
VERTEX
  5
1088
  8
SAPA_LIGHT
 10
14.000000081188981
 20
119.9999999958069
 30
0.0
  0
VERTEX
  5
1089
  8
SAPA_LIGHT
 10
14.000000081188981
 20
71.999542811895054
 30
0.0
  0
SEQEND
  5
108A
  8
SAPA_LIGHT
  0
POLYLINE
  5
26F
  8
SAPA_LIGHT
 66
     1
 10
0.0
 20
0.0
 30
0.0
  0
VERTEX
  5
108B
  8
SAPA_LIGHT
 10
22.950000007170772
 20
-21.99999999975962
 30
0.0
  0
VERTEX
  5
108C
  8
SAPA_LIGHT
 10
14.000000107323871
 20
-21.99999999975962
 30
0.0
  0
VERTEX
  5
108D
  8
SAPA_LIGHT
 10
14.000000107149811
 20
67.001476187850614
 30
0.0
  0
VERTEX
  5
108E
  8
SAPA_LIGHT
 10
22.700000082142608
 20
67.001476187850614
 30
0.0
  0
VERTEX
  5
108F
  8
SAPA_LIGHT
 10
22.700000082142729
 20
52.501476183910682
 30
0.0
  0
VERTEX
  5
1090
  8
SAPA_LIGHT
 10
79.300000072736353
 20
52.501476141146703
 30
0.0
  0
VERTEX
  5
1091
  8
SAPA_LIGHT
 10
79.300000072736353
 20
44.999999999999758
 30
0.0
  0
VERTEX
  5
1092
  8
SAPA_LIGHT
 10
88.000000068408156
 20
44.999999999999758
 30
0.0
  0
VERTEX
  5
1093
  8
SAPA_LIGHT
 10
88.000000068582239
 20
-21.999999999759648
 30
0.0
  0
VERTEX
  5
1094
  8
SAPA_LIGHT
 10
46.949999935107918
 20
-21.99999999975962
 30
0.0
  0
SEQEND
  5
1095
  8
SAPA_LIGHT
  0
POLYLINE
  5
270
  8
SAPA_LIGHT
 66
     1
 10
0.0
 20
0.0
 30
0.0
 70
     1
  0
VERTEX
  5
1096
  8
SAPA_LIGHT
 10
22.950000006996682
 20
-5.0000000041936161
 30
0.0
  0
VERTEX
  5
1097
  8
SAPA_LIGHT
 10
22.950000006996671
 20
-35.000000004193602
 30
0.0
  0
VERTEX
  5
1098
  8
SAPA_LIGHT
 10
46.949999934933821
 20
-35.000000004192863
 30
0.0
  0
VERTEX
  5
1099
  8
SAPA_LIGHT
 10
46.949999934933828
 20
-5.0000000041928914
 30
0.0
  0
SEQEND
  5
109A
  8
SAPA_LIGHT
  0
TEXT
  5
275
  8
SAPA_ARTIKELNR
 10
93.555793790828815
 20
93.434550023236028
 30
-0.0000000048844204
 40
3.5
  1
74422
 50
90.0
  7
ISO
  0
TEXT
  5
276
  8
SAPA_ARTIKELNR
 10
93.555793793441993
 20
19.12758573794677
 30
-0.0000000048844204
 40
3.5
  1
74424
 50
90.0
  7
ISO
  0
TEXT
  5
277
  8
SAPA_ARTIKELNR
 10
93.555793790828787
 20
60.031733656055472
 30
-0.0000000048844204
 40
3.5
  1
74517
 50
90.0
  7
ISO
  0
LINE
  5
679
  8
SAPA_ANSLUTNING
 10
23.800000093401479
 20
199.99999999618629
 30
0.0
 11
23.800000093401451
 21
139.99999999620329
 31
0.0
  0
LINE
  5
67A
  8
SAPA_ANSLUTNING
 10
24.40000009330662
 20
139.9999999962024
 30
0.0
 11
24.400000093401481
 21
199.99999999618629
 31
0.0
  0
CIRCLE
  5
67E
  8
SAPA_ANSLUTNING
 10
19.749714871272801
 20
157.02378889602241
 30
0.0
 40
4.0502852221286458
1001
ACAD
1000
ASC_BOUNDS
1002
{
1070
    19
1005
F88
1002
}
  0
LINE
  5
67F
  8
SAPA_ANSLUTNING
 10
14.22178393561839
 20
164.99079983626939
 30
0.0
 11
23.800000093401461
 21
167.5572751206781
 31
0.0
  0
POLYLINE
  5
684
  8
SAPA_ANSLUTNING
 66
     1
 10
0.0
 20
0.0
 30
0.0
  0
VERTEX
  5
109B
  8
SAPA_ANSLUTNING
 10
102.82064756462719
 20
139.99999999609
 30
0.0
  0
VERTEX
  5
109C
  8
SAPA_ANSLUTNING
 10
102.8206475646211
 20
127.3026003906392
 30
0.0
 42
-0.9999999999999998
  0
VERTEX
  5
109D
  8
SAPA_ANSLUTNING
 10
94.408646974446086
 20
127.3026003906392
 30
0.0
  0
VERTEX
  5
109E
  8
SAPA_ANSLUTNING
 10
94.408646974446157
 20
135.79399970111879
 30
0.0
 42
0.9999999999999998
  0
VERTEX
  5
109F
  8
SAPA_ANSLUTNING
 10
85.996646384282059
 20
135.79399970111879
 30
0.0
  0
VERTEX
  5
10A0
  8
SAPA_ANSLUTNING
 10
85.996646384282059
 20
128.8869643656175
 30
0.0
 42
-0.9999999999999998
  0
VERTEX
  5
10A1
  8
SAPA_ANSLUTNING
 10
77.584645794107047
 20
128.8869643656175
 30
0.0
  0
VERTEX
  5
10A2
  8
SAPA_ANSLUTNING
 10
77.584645794107047
 20
135.79399970111879
 30
0.0
 42
0.9999999999999998
  0
VERTEX
  5
10A3
  8
SAPA_ANSLUTNING
 10
69.172645203942949
 20
135.79399970111879
 30
0.0
  0
VERTEX
  5
10A4
  8
SAPA_ANSLUTNING
 10
69.17264520394292
 20
123.9008779242975
 30
0.0
 42
-0.9999999999999998
  0
VERTEX
  5
10A5
  8
SAPA_ANSLUTNING
 10
60.76064461376793
 20
123.9008779242975
 30
0.0
  0
VERTEX
  5
10A6
  8
SAPA_ANSLUTNING
 10
60.76064461376793
 20
135.79399970111879
 30
0.0
 42
0.9999999999999998
  0
VERTEX
  5
10A7
  8
SAPA_ANSLUTNING
 10
52.348644023603832
 20
135.79399970111879
 30
0.0
  0
VERTEX
  5
10A8
  8
SAPA_ANSLUTNING
 10
52.348644023603832
 20
123.9008779242975
 30
0.0
 42
-0.9999999999999998
  0
VERTEX
  5
10A9
  8
SAPA_ANSLUTNING
 10
43.93664343342882
 20
123.9008779242975
 30
0.0
  0
VERTEX
  5
10AA
  8
SAPA_ANSLUTNING
 10
43.93664343342882
 20
135.79399970111879
 30
0.0
 42
0.9999999999999998
  0
VERTEX
  5
10AB
  8
SAPA_ANSLUTNING
 10
35.524642843264722
 20
135.79399970111879
 30
0.0
  0
VERTEX
  5
10AC
  8
SAPA_ANSLUTNING
 10
35.524642843267173
 20
119.8010220884109
 30
0.0
  0
SEQEND
  5
10AD
  8
SAPA_ANSLUTNING
  0
TEXT
  5
687
  8
SAPA_ARTIKELNR
 10
72.432504173513379
 20
126.3041763803063
 30
0.0
 40
3.5
  1
42793
 50
180.0
 51
180.0
  7
ISO
 71
     6
 72
     4
 11
78.811106625293647
 21
128.05701523001511
 31
0.0
  0
TEXT
  5
774
  8
SAPA_ARTIKELNR
 10
5.7143159052784558
 20
179.98037095516361
 30
0.0
 40
3.4999999999999991
  1
42070
 50
205.92875215863239
 51
180.0
  7
ISO
 71
     6
 72
     4
 11
10.57808547829133
 21
184.38789293680929
 31
0.0
  0
POLYLINE
  5
77C
  8
SAPA_ANSLUTNING
 66
     1
 10
0.0
 20
0.0
 30
0.0
 70
     1
  0
VERTEX
  5
10AE
  8
SAPA_ANSLUTNING
 10
24.400000093309551
 20
138.99999999619899
 30
0.0
  0
VERTEX
  5
10AF
  8
SAPA_ANSLUTNING
 10
34.524642843265461
 20
138.99999999619899
 30
0.0
  0
VERTEX
  5
10B0
  8
SAPA_ANSLUTNING
 10
34.524642843265461
 20
128.85528486743601
 30
0.0
  0
VERTEX
  5
10B1
  8
SAPA_ANSLUTNING
 10
35.524642843265461
 20
128.85528486743601
 30
0.0
  0
VERTEX
  5
10B2
  8
SAPA_ANSLUTNING
 10
35.524642843265461
 20
139.99999999619899
 30
0.0
  0
VERTEX
  5
10B3
  8
SAPA_ANSLUTNING
 10
25.400000093309782
 20
139.99999999619899
 30
0.0
  0
VERTEX
  5
10B4
  8
SAPA_ANSLUTNING
 10
25.400000093309551
 20
153.99999999619899
 30
0.0
  0
VERTEX
  5
10B5
  8
SAPA_ANSLUTNING
 10
24.400000093309551
 20
153.99999999619899
 30
0.0
  0
SEQEND
  5
10B6
  8
SAPA_ANSLUTNING
  0
LINE
  5
8FB
  8
SAPA_ANSLUTNING
 10
223.80000009340151
 20
199.99999999618609
 30
0.0
 11
223.80000009340151
 21
139.9999999960589
 31
0.0
  0
LINE
  5
8FC
  8
SAPA_ANSLUTNING
 10
223.20000009330201
 20
139.9999999960597
 30
0.0
 11
223.2000000934014
 21
199.99999999618609
 31
0.0
  0
CIRCLE
  5
8FE
  8
SAPA_ANSLUTNING
 10
226.8000000934021
 20
160.49999999607991
 30
0.0
 40
3.0000000000000848
1001
ACAD
1000
ASC_BOUNDS
1002
{
1070
    19
1005
F84
1002
}
  0
LINE
  5
8FF
  8
SAPA_ANSLUTNING
 10
231.37764580693161
 20
164.98977774396221
 30
0.0
 11
223.80000009340151
 21
167.02020179343171
 31
0.0
  0
LINE
  5
900
  8
SAPA_ANSLUTNING
 10
223.80000009340151
 20
139.9999999960589
 30
0.0
 11
23.800000093401451
 21
139.99999999620329
 31
0.0
  0
TEXT
  5
901
  8
SAPA_ARTIKELNR
 10
237.10817244322121
 20
134.6224617300029
 30
0.0
 40
3.5
  1
42796
 50
270.0
 51
180.0
  7
ISO
 71
     6
 72
     4
 11
235.35533359351231
 21
141.0153878319899
 31
0.0
  0
POLYLINE
  5
F4B
  8
SAPA_PROFIL
 66
     1
 10
0.0
 20
0.0
 30
0.0
 70
     1
  0
VERTEX
  5
1561
  8
SAPA_PROFIL
 10
98.300000093401195
 20
122.2999999960802
 30
0.0
  0
VERTEX
  5
1562
  8
SAPA_PROFIL
 10
98.300000093400953
 20
122.6999999962154
 30
0.0
 42
0.6370702608048074
  0
VERTEX
  5
1563
  8
SAPA_PROFIL
 10
97.807163810496377
 20
122.9298133291522
 30
0.0
  0
VERTEX
  5
1564
  8
SAPA_PROFIL
 10
96.992836376305377
 20
122.24651147947429
 30
0.0
 42
-0.6370702608055112
  0
VERTEX
  5
1565
  8
SAPA_PROFIL
 10
96.500000093401013
 20
122.47632481241131
 30
0.0
  0
VERTEX
  5
1566
  8
SAPA_PROFIL
 10
96.500000093401013
 20
122.6999999962154
 30
0.0
 42
0.6370702608048074
  0
VERTEX
  5
1567
  8
SAPA_PROFIL
 10
96.007163810496436
 20
122.9298133291522
 30
0.0
  0
VERTEX
  5
1568
  8
SAPA_PROFIL
 10
95.192836376305408
 20
122.24651147947429
 30
0.0
 42
-0.6370702608054489
  0
VERTEX
  5
1569
  8
SAPA_PROFIL
 10
94.700000093400831
 20
122.47632481241109
 30
0.0
  0
VERTEX
  5
156A
  8
SAPA_PROFIL
 10
94.700000093400831
 20
122.6999999962154
 30
0.0
 42
0.6370702608046363
  0
VERTEX
  5
156B
  8
SAPA_PROFIL
 10
94.207163810496468
 20
122.9298133291524
 30
0.0
  0
VERTEX
  5
156C
  8
SAPA_PROFIL
 10
93.39283637630524
 20
122.24651147947429
 30
0.0
 42
-0.6370702608052448
  0
VERTEX
  5
156D
  8
SAPA_PROFIL
 10
92.900000093400877
 20
122.47632481241109
 30
0.0
  0
VERTEX
  5
156E
  8
SAPA_PROFIL
 10
92.900000093400877
 20
122.6999999962154
 30
0.0
 42
0.6370702608044321
  0
VERTEX
  5
156F
  8
SAPA_PROFIL
 10
92.407163810496513
 20
122.9298133291524
 30
0.0
  0
VERTEX
  5
1570
  8
SAPA_PROFIL
 10
91.592836376305286
 20
122.24651147947429
 30
0.0
 42
-0.6370702608054489
  0
VERTEX
  5
1571
  8
SAPA_PROFIL
 10
91.100000093400922
 20
122.47632481241109
 30
0.0
  0
VERTEX
  5
1572
  8
SAPA_PROFIL
 10
91.100000093400922
 20
122.6999999962154
 30
0.0
 42
0.6370702608048074
  0
VERTEX
  5
1573
  8
SAPA_PROFIL
 10
90.607163810496331
 20
122.9298133291522
 30
0.0
  0
VERTEX
  5
1574
  8
SAPA_PROFIL
 10
89.792836376305331
 20
122.24651147947429
 30
0.0
 42
-0.6370702608050736
  0
VERTEX
  5
1575
  8
SAPA_PROFIL
 10
89.300000093400755
 20
122.47632481241131
 30
0.0
  0
VERTEX
  5
1576
  8
SAPA_PROFIL
 10
89.300000093400953
 20
122.6999999962154
 30
0.0
 42
0.6370702608053711
  0
VERTEX
  5
1577
  8
SAPA_PROFIL
 10
88.807163810495226
 20
122.9298133291511
 30
0.0
  0
VERTEX
  5
1578
  8
SAPA_PROFIL
 10
87.992836376305377
 20
122.24651147947429
 30
0.0
 42
-0.6370702608055112
  0
VERTEX
  5
1579
  8
SAPA_PROFIL
 10
87.500000093401013
 20
122.47632481241131
 30
0.0
  0
VERTEX
  5
157A
  8
SAPA_PROFIL
 10
87.500000093401013
 20
122.6999999962154
 30
0.0
 42
0.6370702608058085
  0
VERTEX
  5
157B
  8
SAPA_PROFIL
 10
87.007163810495058
 20
122.9298133291511
 30
0.0
  0
VERTEX
  5
157C
  8
SAPA_PROFIL
 10
86.192836376305436
 20
122.24651147947429
 30
0.0
 42
-0.6370702608054489
  0
VERTEX
  5
157D
  8
SAPA_PROFIL
 10
85.700000093400817
 20
122.47632481241109
 30
0.0
  0
VERTEX
  5
157E
  8
SAPA_PROFIL
 10
85.700000093400817
 20
122.6999999962154
 30
0.0
 42
0.6370702608051669
  0
VERTEX
  5
157F
  8
SAPA_PROFIL
 10
85.207163810495103
 20
122.9298133291511
 30
0.0
  0
VERTEX
  5
1580
  8
SAPA_PROFIL
 10
84.39283637630524
 20
122.24651147947429
 30
0.0
 42
-0.6370702608054489
  0
VERTEX
  5
1581
  8
SAPA_PROFIL
 10
83.900000093400649
 20
122.47632481241109
 30
0.0
  0
VERTEX
  5
1582
  8
SAPA_PROFIL
 10
83.900000093400649
 20
122.6999999962154
 30
0.0
 42
0.6064417173625494
  0
VERTEX
  5
1583
  8
SAPA_PROFIL
 10
83.428195414679507
 20
122.94593322367611
 30
0.0
  0
VERTEX
  5
1584
  8
SAPA_PROFIL
 10
80.513658962198861
 20
120.909888708637
 30
0.0
 42
0.7336498725448613
  0
VERTEX
  5
1585
  8
SAPA_PROFIL
 10
80.800000093413928
 20
119.9999999962012
 30
0.0
  0
VERTEX
  5
1586
  8
SAPA_PROFIL
 10
231.10000009342531
 20
119.9999999957238
 30
0.0
 42
0.4142135623754925
  0
VERTEX
  5
1587
  8
SAPA_PROFIL
 10
231.60000009342889
 20
120.4999999957242
 30
0.0
  0
VERTEX
  5
1588
  8
SAPA_PROFIL
 10
231.60000009340021
 20
164.6999999960421
 30
0.0
 42
0.6681786379188313
  0
VERTEX
  5
1589
  8
SAPA_PROFIL
 10
231.08786805904469
 20
164.912132030398
 30
0.0
  0
VERTEX
  5
158A
  8
SAPA_PROFIL
 10
229.44644670280761
 20
163.27071067416131
 30
0.0
 42
0.4142135623730951
  0
VERTEX
  5
158B
  8
SAPA_PROFIL
 10
229.44644670280761
 20
162.5636038929747
 30
0.0
  0
VERTEX
  5
158C
  8
SAPA_PROFIL
 10
229.712132127757
 20
162.2979184680257
 30
0.0
 42
-0.1989123673797157
  0
VERTEX
  5
158D
  8
SAPA_PROFIL
 10
229.800000093401
 20
162.0857864336694
 30
0.0
  0
VERTEX
  5
158E
  8
SAPA_PROFIL
 10
229.800000093401
 20
157.99999999604299
 30
0.0
 42
-0.4142135623736278
  0
VERTEX
  5
158F
  8
SAPA_PROFIL
 10
229.30000009340051
 20
157.49999999604299
 30
0.0
  0
VERTEX
  5
1590
  8
SAPA_PROFIL
 10
224.1000000934016
 20
157.49999999605029
 30
0.0
 42
0.4142135623733168
  0
VERTEX
  5
1591
  8
SAPA_PROFIL
 10
223.800000093401
 20
157.19999999605031
 30
0.0
  0
VERTEX
  5
1592
  8
SAPA_PROFIL
 10
223.800000093401
 20
155.7999999960511
 30
0.0
 42
0.414213562372873
  0
VERTEX
  5
1593
  8
SAPA_PROFIL
 10
224.10000009340121
 20
155.4999999960512
 30
0.0
  0
VERTEX
  5
1594
  8
SAPA_PROFIL
 10
229.10000009340661
 20
155.49999999605089
 30
0.0
 42
-0.4142135623728287
  0
VERTEX
  5
1595
  8
SAPA_PROFIL
 10
229.60000009340661
 20
154.9999999960514
 30
0.0
  0
VERTEX
  5
1596
  8
SAPA_PROFIL
 10
229.6000000934275
 20
122.4999999957376
 30
0.0
 42
-0.4142135623753593
  0
VERTEX
  5
1597
  8
SAPA_PROFIL
 10
229.10000009342389
 20
121.9999999957372
 30
0.0
  0
VERTEX
  5
1598
  8
SAPA_PROFIL
 10
222.10000009340871
 20
121.9999999957849
 30
0.0
 42
-0.4142135623730951
  0
VERTEX
  5
1599
  8
SAPA_PROFIL
 10
221.1000000934259
 20
122.9999999957595
 30
0.0
  0
VERTEX
  5
159A
  8
SAPA_PROFIL
 10
221.1000000934259
 20
127.599999995678
 30
0.0
 42
0.4142135623730964
  0
VERTEX
  5
159B
  8
SAPA_PROFIL
 10
220.80000009342581
 20
127.89999999567721
 30
0.0
  0
VERTEX
  5
159C
  8
SAPA_PROFIL
 10
218.500000093426
 20
127.89999999567721
 30
0.0
 42
0.4142135623730951
  0
VERTEX
  5
159D
  8
SAPA_PROFIL
 10
218.20000009342581
 20
127.59999999567709
 30
0.0
  0
VERTEX
  5
159E
  8
SAPA_PROFIL
 10
218.20000009342581
 20
127.099999995678
 30
0.0
 42
0.4142135623730951
  0
VERTEX
  5
159F
  8
SAPA_PROFIL
 10
218.500000093426
 20
126.79999999567779
 30
0.0
  0
VERTEX
  5
15A0
  8
SAPA_PROFIL
 10
218.83662701806631
 20
126.79999999567779
 30
0.0
 42
-0.5535245743365466
  0
VERTEX
  5
15A1
  8
SAPA_PROFIL
 10
217.0641076954507
 20
122.4894457841287
 30
0.0
  0
VERTEX
  5
15A2
  8
SAPA_PROFIL
 10
216.7767767887681
 20
122.7767766908114
 30
0.0
 42
0.4142135623730973
  0
VERTEX
  5
15A3
  8
SAPA_PROFIL
 10
216.42322339817471
 20
122.7767766908114
 30
0.0
  0
VERTEX
  5
15A4
  8
SAPA_PROFIL
 10
216.13589249148251
 20
122.4894457841187
 30
0.0
 42
-0.5535245743470389
  0
VERTEX
  5
15A5
  8
SAPA_PROFIL
 10
214.36337316879599
 20
126.79999999567779
 30
0.0
  0
VERTEX
  5
15A6
  8
SAPA_PROFIL
 10
214.7000000934259
 20
126.79999999567779
 30
0.0
 42
0.4142135623730951
  0
VERTEX
  5
15A7
  8
SAPA_PROFIL
 10
215.000000093426
 20
127.099999995678
 30
0.0
  0
VERTEX
  5
15A8
  8
SAPA_PROFIL
 10
215.000000093426
 20
127.59999999567709
 30
0.0
 42
0.4142135623730951
  0
VERTEX
  5
15A9
  8
SAPA_PROFIL
 10
214.7000000934259
 20
127.89999999567721
 30
0.0
  0
VERTEX
  5
15AA
  8
SAPA_PROFIL
 10
212.40000009342609
 20
127.89999999567721
 30
0.0
 42
0.4142135623728732
  0
VERTEX
  5
15AB
  8
SAPA_PROFIL
 10
212.10000009342639
 20
127.599999995678
 30
0.0
  0
VERTEX
  5
15AC
  8
SAPA_PROFIL
 10
212.10000009342551
 20
122.99999999580309
 30
0.0
 42
-0.4142135623728287
  0
VERTEX
  5
15AD
  8
SAPA_PROFIL
 10
211.10000009341229
 20
121.99999999578451
 30
0.0
  0
VERTEX
  5
15AE
  8
SAPA_PROFIL
 10
98.600000093399103
 20
121.9999999960805
 30
0.0
 42
-0.4142135623708751
  0
SEQEND
  5
15AF
  8
SAPA_PROFIL
  0
POLYLINE
  5
F4C
  8
SAPA_PROFIL
 66
     1
 10
0.0
 20
0.0
 30
0.0
 70
     1
  0
VERTEX
  5
15B0
  8
SAPA_PROFIL
 10
5.5547766358083699
 20
175.2891010733392
 30
0.0
 42
0.9999999999999998
  0
VERTEX
  5
15B1
  8
SAPA_PROFIL
 10
7.0520293804906258
 20
175.1983584783716
 30
0.0
  0
VERTEX
  5
15B2
  8
SAPA_PROFIL
 10
7.1133039560155149
 20
176.20938892572269
 30
0.0
 42
-0.2679491924311268
  0
VERTEX
  5
15B3
  8
SAPA_PROFIL
 10
7.3890412109449777
 20
176.6264847974885
 30
0.0
  0
VERTEX
  5
15B4
  8
SAPA_PROFIL
 10
17.512302547675379
 20
181.68076740148979
 30
0.0
 42
-0.493145426031307
  0
VERTEX
  5
15B5
  8
SAPA_PROFIL
 10
20.365318529334491
 20
180.29121633397961
 30
0.0
  0
VERTEX
  5
15B6
  8
SAPA_PROFIL
 10
20.946746815094059
 20
177.4414942145375
 30
0.0
  0
VERTEX
  5
15B7
  8
SAPA_PROFIL
 10
20.629968053974508
 20
176.49299475934339
 30
0.0
  0
VERTEX
  5
15B8
  8
SAPA_PROFIL
 10
21.293003297088369
 20
175.7444065772375
 30
0.0
  0
VERTEX
  5
15B9
  8
SAPA_PROFIL
 10
20.976224535968811
 20
174.7959071220433
 30
0.0
  0
VERTEX
  5
15BA
  8
SAPA_PROFIL
 10
21.51722529105005
 20
174.18509981433189
 30
0.0
  0
VERTEX
  5
15BB
  8
SAPA_PROFIL
 10
21.304578852264392
 20
170.67643374375641
 30
0.0
 42
0.4142135623730951
  0
VERTEX
  5
15BC
  8
SAPA_PROFIL
 10
22.242252285407488
 20
169.61777018398979
 30
0.0
  0
VERTEX
  5
15BD
  8
SAPA_PROFIL
 10
22.741336533634922
 20
169.587522652334
 30
0.0
  0
VERTEX
  5
15BE
  8
SAPA_PROFIL
 10
23.24042078186233
 20
169.5572751206781
 30
0.0
 42
0.4142135623730951
  0
VERTEX
  5
15BF
  8
SAPA_PROFIL
 10
23.769752561745619
 20
170.02611183724969
 30
0.0
  0
VERTEX
  5
15C0
  8
SAPA_PROFIL
 10
23.800000093401479
 20
170.52519608547709
 30
0.0
  0
VERTEX
  5
15C1
  8
SAPA_PROFIL
 10
22.801831596946641
 20
170.58569114878881
 30
0.0
  0
VERTEX
  5
15C2
  8
SAPA_PROFIL
 10
23.164801976816989
 20
176.57470212751781
 30
0.0
  0
VERTEX
  5
15C3
  8
SAPA_PROFIL
 10
21.850152837669011
 20
183.0181188358066
 30
0.0
 42
-0.3394542588633754
  0
VERTEX
  5
15C4
  8
SAPA_PROFIL
 10
22.383272855306728
 20
184.11271691573771
 30
0.0
  0
VERTEX
  5
15C5
  8
SAPA_PROFIL
 10
23.660292777239551
 20
184.7502999397945
 30
0.0
  0
VERTEX
  5
15C6
  8
SAPA_PROFIL
 10
23.800000141590221
 20
187.05547134029359
 30
0.0
  0
VERTEX
  5
15C7
  8
SAPA_PROFIL
 10
6.2373794033675098
 20
178.28690896447119
 30
0.0
 42
0.2679491924311207
  0
VERTEX
  5
15C8
  8
SAPA_PROFIL
 10
5.6859048935085976
 20
177.45271722094
 30
0.0
  0
SEQEND
  5
15C9
  8
SAPA_PROFIL
  0
POLYLINE
  5
F4D
  8
SAPA_PROFIL
 66
     1
 10
0.0
 20
0.0
 30
0.0
 70
     1
  0
VERTEX
  5
15CA
  8
SAPA_PROFIL
 10
81.999429645936786
 20
116.41228675406779
 30
0.0
 42
-0.2679491924315167
  0
VERTEX
  5
15CB
  8
SAPA_PROFIL
 10
82.149429645936777
 20
116.1524791329322
 30
0.0
  0
VERTEX
  5
15CC
  8
SAPA_PROFIL
 10
82.149429645936323
 20
115.7999999961804
 30
0.0
 42
0.4142135623730951
  0
VERTEX
  5
15CD
  8
SAPA_PROFIL
 10
82.449429645937315
 20
115.4999999961793
 30
0.0
  0
VERTEX
  5
15CE
  8
SAPA_PROFIL
 10
85.2494296427368
 20
115.4999999961759
 30
0.0
 42
0.4142135623728859
  0
VERTEX
  5
15CF
  8
SAPA_PROFIL
 10
85.749429642737425
 20
115.99999999617501
 30
0.0
  0
VERTEX
  5
15D0
  8
SAPA_PROFIL
 10
85.749429642739344
 20
116.9999999961835
 30
0.0
 42
0.4142135623733615
  0
VERTEX
  5
15D1
  8
SAPA_PROFIL
 10
84.749429642740381
 20
117.99999999618549
 30
0.0
  0
VERTEX
  5
15D2
  8
SAPA_PROFIL
 10
83.383404238952494
 20
117.9999999961868
 30
0.0
 42
-0.1316524975871477
  0
VERTEX
  5
15D3
  8
SAPA_PROFIL
 10
83.133404238953005
 20
118.06698729429461
 30
0.0
  0
VERTEX
  5
15D4
  8
SAPA_PROFIL
 10
80.420968673642847
 20
119.63301269808601
 30
0.0
 42
0.1316524975872168
  0
VERTEX
  5
15D5
  8
SAPA_PROFIL
 10
80.170968673643188
 20
119.6999999961938
 30
0.0
  0
VERTEX
  5
15D6
  8
SAPA_PROFIL
 10
72.249429642742882
 20
119.6999999961994
 30
0.0
 42
-0.4142135623729286
  0
VERTEX
  5
15D7
  8
SAPA_PROFIL
 10
71.949429642743041
 20
119.99999999619931
 30
0.0
  0
VERTEX
  5
15D8
  8
SAPA_PROFIL
 10
71.949429642742416
 20
123.4765584192705
 30
0.0
 42
-0.4244748162096643
  0
VERTEX
  5
15D9
  8
SAPA_PROFIL
 10
72.259899491753174
 20
123.7763756673763
 30
0.0
  0
VERTEX
  5
15DA
  8
SAPA_PROFIL
 10
88.181204693558982
 20
123.2203914384165
 30
0.0
 42
-0.4142135623730951
  0
VERTEX
  5
15DB
  8
SAPA_PROFIL
 10
88.470552092653975
 20
122.9101043413
 30
0.0
  0
VERTEX
  5
15DC
  8
SAPA_PROFIL
 10
88.449612394632425
 20
122.3104698450886
 30
0.0
 42
0.6370702608075453
  0
VERTEX
  5
15DD
  8
SAPA_PROFIL
 10
88.934128085335885
 20
122.0635967699958
 30
0.0
  0
VERTEX
  5
15DE
  8
SAPA_PROFIL
 10
90.707788524346185
 20
123.4493321772982
 30
0.0
 42
0.7002075382097091
  0
VERTEX
  5
15DF
  8
SAPA_PROFIL
 10
90.417407535034613
 20
124.34303296761109
 30
0.0
  0
VERTEX
  5
15E0
  8
SAPA_PROFIL
 10
69.55989949175671
 20
125.0713931981626
 30
0.0
 42
0.4244748162048541
  0
VERTEX
  5
15E1
  8
SAPA_PROFIL
 10
69.249429642745952
 20
124.7715759500617
 30
0.0
  0
VERTEX
  5
15E2
  8
SAPA_PROFIL
 10
69.249429642734242
 20
124.0499999962036
 30
0.0
 42
0.4142135623740385
  0
VERTEX
  5
15E3
  8
SAPA_PROFIL
 10
69.549429642734523
 20
123.7499999962024
 30
0.0
  0
VERTEX
  5
15E4
  8
SAPA_PROFIL
 10
70.449429642731559
 20
123.7499999962025
 30
0.0
 42
-0.4142135623724291
  0
VERTEX
  5
15E5
  8
SAPA_PROFIL
 10
70.749429642731513
 20
123.4499999962032
 30
0.0
  0
VERTEX
  5
15E6
  8
SAPA_PROFIL
 10
70.749429642742882
 20
118.4999999961971
 30
0.0
 42
-0.4142135623740522
  0
VERTEX
  5
15E7
  8
SAPA_PROFIL
 10
70.249429642742371
 20
117.9999999961959
 30
0.0
  0
VERTEX
  5
15E8
  8
SAPA_PROFIL
 10
68.749429642741745
 20
117.9999999961973
 30
0.0
 42
0.4142135623729374
  0
VERTEX
  5
15E9
  8
SAPA_PROFIL
 10
68.249429642741291
 20
117.4999999961981
 30
0.0
  0
VERTEX
  5
15EA
  8
SAPA_PROFIL
 10
68.24942964273913
 20
115.999999996198
 30
0.0
 42
0.4142135623731454
  0
VERTEX
  5
15EB
  8
SAPA_PROFIL
 10
68.749429642738505
 20
115.4999999961973
 30
0.0
  0
VERTEX
  5
15EC
  8
SAPA_PROFIL
 10
71.14942964593746
 20
115.49999999619421
 30
0.0
 42
0.414213562373503
  0
VERTEX
  5
15ED
  8
SAPA_PROFIL
 10
71.649429645938142
 20
115.9999999961943
 30
0.0
  0
VERTEX
  5
15EE
  8
SAPA_PROFIL
 10
71.649429645938085
 20
116.4999999962001
 30
0.0
 42
-0.414213562373547
  0
VERTEX
  5
15EF
  8
SAPA_PROFIL
 10
72.649429645939563
 20
117.4999999962001
 30
0.0
  0
VERTEX
  5
15F0
  8
SAPA_PROFIL
 10
79.98148045030257
 20
117.4999999961894
 30
0.0
 42
-0.1316524975870585
  0
VERTEX
  5
15F1
  8
SAPA_PROFIL
 10
80.231480450301873
 20
117.4330126980817
 30
0.0
  0
SEQEND
  5
15F2
  8
SAPA_PROFIL
  0
POLYLINE
  5
F4E
  8
SAPA_PROFIL
 66
     1
 10
0.0
 20
0.0
 30
0.0
 70
     1
  0
VERTEX
  5
15F3
  8
SAPA_PROFIL
 10
39.517338705746901
 20
75.834386051949906
 30
0.0
 42
-0.4769755326981641
  0
VERTEX
  5
15F4
  8
SAPA_PROFIL
 10
39.215085881240427
 20
75.462729177004036
 30
0.0
  0
VERTEX
  5
15F5
  8
SAPA_PROFIL
 10
37.711984800478419
 20
75.462812784887689
 30
0.0
  0
VERTEX
  5
15F6
  8
SAPA_PROFIL
 10
37.697466391231323
 20
75.510658534886176
 30
0.0
 42
0.4142135623730958
  0
VERTEX
  5
15F7
  8
SAPA_PROFIL
 10
37.323281435755497
 20
75.710622579393572
 30
0.0
  0
VERTEX
  5
15F8
  8
SAPA_PROFIL
 10
36.002164477604808
 20
75.199999996171897
 30
0.0
  0
VERTEX
  5
15F9
  8
SAPA_PROFIL
 10
33.043207626170101
 20
75.199999996171897
 30
0.0
 42
-0.2596812337299856
  0
VERTEX
  5
15FA
  8
SAPA_PROFIL
 10
32.788161408860077
 20
75.342039789044151
 30
0.0
  0
VERTEX
  5
15FB
  8
SAPA_PROFIL
 10
32.045062781518823
 20
76.541864083010893
 30
0.0
 42
-0.587935048733185
  0
VERTEX
  5
15FC
  8
SAPA_PROFIL
 10
32.30000009335879
 20
76.999999996170999
 30
0.0
  0
VERTEX
  5
15FD
  8
SAPA_PROFIL
 10
33.70000009335881
 20
76.999999996171056
 30
0.0
 42
0.4142135623731227
  0
VERTEX
  5
15FE
  8
SAPA_PROFIL
 10
34.000000093358778
 20
77.299999996170953
 30
0.0
  0
VERTEX
  5
15FF
  8
SAPA_PROFIL
 10
34.0000000933588
 20
79.699999996171954
 30
0.0
 42
0.414213562373109
  0
VERTEX
  5
1600
  8
SAPA_PROFIL
 10
33.700000093358817
 20
79.999999996171908
 30
0.0
  0
VERTEX
  5
1601
  8
SAPA_PROFIL
 10
16.300000177135789
 20
79.999999996171965
 30
0.0
 42
0.4142135623730882
  0
VERTEX
  5
1602
  8
SAPA_PROFIL
 10
16.000000177134769
 20
79.699999996171954
 30
0.0
  0
VERTEX
  5
1603
  8
SAPA_PROFIL
 10
16.00000017713479
 20
77.299999996172033
 30
0.0
 42
0.4142135623720964
  0
VERTEX
  5
1604
  8
SAPA_PROFIL
 10
16.30000017713478
 20
76.999999996171894
 30
0.0
  0
VERTEX
  5
1605
  8
SAPA_PROFIL
 10
17.7000001771348
 20
76.999999996172818
 30
0.0
 42
-0.5877032589246419
  0
VERTEX
  5
1606
  8
SAPA_PROFIL
 10
17.955046394445791
 20
76.542039789044026
 30
0.0
  0
VERTEX
  5
1607
  8
SAPA_PROFIL
 10
17.087971037236809
 20
75.142039789044105
 30
0.0
 42
-0.2596812337300243
  0
VERTEX
  5
1608
  8
SAPA_PROFIL
 10
16.832924819926799
 20
74.999999996171908
 30
0.0
  0
VERTEX
  5
1609
  8
SAPA_PROFIL
 10
14.300000093290789
 20
74.999999996171908
 30
0.0
 42
-0.4142135623731088
  0
VERTEX
  5
160A
  8
SAPA_PROFIL
 10
14.00000009329081
 20
75.29999999617192
 30
0.0
  0
VERTEX
  5
160B
  8
SAPA_PROFIL
 10
14.000000093290829
 20
164.69999999582899
 30
0.0
 42
-0.6681786379192997
  0
VERTEX
  5
160C
  8
SAPA_PROFIL
 10
14.51213212820136
 20
164.9121320304146
 30
0.0
  0
VERTEX
  5
160D
  8
SAPA_PROFIL
 10
15.55355348433844
 20
163.8707106742774
 30
0.0
 42
-0.1989123673796784
  0
VERTEX
  5
160E
  8
SAPA_PROFIL
 10
15.70000009374515
 20
163.51715728368421
 30
0.0
  0
VERTEX
  5
160F
  8
SAPA_PROFIL
 10
15.700000093745039
 20
152.9999999960414
 30
0.0
 42
0.4142135623731617
  0
VERTEX
  5
1610
  8
SAPA_PROFIL
 10
16.20000009374515
 20
152.4999999960414
 30
0.0
  0
VERTEX
  5
1611
  8
SAPA_PROFIL
 10
18.300570537999221
 20
152.49999999604211
 30
0.0
 42
-0.4241420668413202
  0
VERTEX
  5
1612
  8
SAPA_PROFIL
 10
19.300000093408329
 20
151.4662277621633
 30
0.0
 42
-0.2988658713671491
  0
VERTEX
  5
1613
  8
SAPA_PROFIL
 10
18.729141966630351
 20
150.52894762520521
 30
0.0
 42
-0.5507604245839972
  0
VERTEX
  5
1614
  8
SAPA_PROFIL
 10
18.30057053804402
 20
150.79999999605229
 30
0.0
  0
VERTEX
  5
1615
  8
SAPA_PROFIL
 10
18.300570538026289
 20
151.0999999960423
 30
0.0
 42
0.4142135623717422
  0
VERTEX
  5
1616
  8
SAPA_PROFIL
 10
18.100570538014299
 20
151.2999999960293
 30
0.0
  0
VERTEX
  5
1617
  8
SAPA_PROFIL
 10
17.80057053789632
 20
151.2999999960133
 30
0.0
 42
0.4142135623558401
  0
VERTEX
  5
1618
  8
SAPA_PROFIL
 10
16.00057053799917
 20
149.4999999960153
 30
0.0
  0
VERTEX
  5
1619
  8
SAPA_PROFIL
 10
16.00057053799722
 20
148.79999999579931
 30
0.0
 42
0.4142135623563557
  0
VERTEX
  5
161A
  8
SAPA_PROFIL
 10
17.800570537891399
 20
146.9999999957964
 30
0.0
  0
VERTEX
  5
161B
  8
SAPA_PROFIL
 10
18.10057053800816
 20
146.9999999957781
 30
0.0
 42
0.4142135623703688
  0
VERTEX
  5
161C
  8
SAPA_PROFIL
 10
18.30057053802031
 20
147.19999999576621
 30
0.0
  0
VERTEX
  5
161D
  8
SAPA_PROFIL
 10
18.300570538039409
 20
147.4999999957584
 30
0.0
 42
-0.5507604245876419
  0
VERTEX
  5
161E
  8
SAPA_PROFIL
 10
18.729141966633879
 20
147.7710523666035
 30
0.0
 42
-0.2988658713647653
  0
VERTEX
  5
161F
  8
SAPA_PROFIL
 10
19.300000093401451
 20
146.8337722296443
 30
0.0
 42
-0.4241420668424131
  0
VERTEX
  5
1620
  8
SAPA_PROFIL
 10
18.300570537990239
 20
145.79999999576631
 30
0.0
  0
VERTEX
  5
1621
  8
SAPA_PROFIL
 10
16.300000093692152
 20
145.79999999577231
 30
0.0
 42
0.4142135623741493
  0
VERTEX
  5
1622
  8
SAPA_PROFIL
 10
16.000000093690279
 20
145.49999999577221
 30
0.0
  0
VERTEX
  5
1623
  8
SAPA_PROFIL
 10
16.000000093690272
 20
120.4999999961542
 30
0.0
 42
0.4142135623730909
  0
VERTEX
  5
1624
  8
SAPA_PROFIL
 10
16.500000093690229
 20
119.9999999961542
 30
0.0
  0
VERTEX
  5
1625
  8
SAPA_PROFIL
 10
16.832924819926891
 20
119.99999999617199
 30
0.0
 42
-0.2596812337300516
  0
VERTEX
  5
1626
  8
SAPA_PROFIL
 10
17.08797103723688
 20
119.8579602032998
 30
0.0
  0
VERTEX
  5
1627
  8
SAPA_PROFIL
 10
17.955046394445802
 20
118.4579602033
 30
0.0
 42
-0.5877032589248035
  0
VERTEX
  5
1628
  8
SAPA_PROFIL
 10
17.700000177134811
 20
117.99999999617199
 30
0.0
  0
VERTEX
  5
1629
  8
SAPA_PROFIL
 10
16.300000177134791
 20
117.99999999617199
 30
0.0
 42
0.4142135623721171
  0
VERTEX
  5
162A
  8
SAPA_PROFIL
 10
16.000000177135789
 20
117.699999996172
 30
0.0
  0
VERTEX
  5
162B
  8
SAPA_PROFIL
 10
16.000000177134769
 20
115.29999999617191
 30
0.0
 42
0.4142135623730951
  0
VERTEX
  5
162C
  8
SAPA_PROFIL
 10
16.3000001771358
 20
114.9999999961709
 30
0.0
  0
VERTEX
  5
162D
  8
SAPA_PROFIL
 10
33.700000093358817
 20
114.99999999617199
 30
0.0
 42
0.414213562373081
  0
VERTEX
  5
162E
  8
SAPA_PROFIL
 10
34.000000093358778
 20
115.29999999617191
 30
0.0
  0
VERTEX
  5
162F
  8
SAPA_PROFIL
 10
34.000000093358793
 20
117.699999996172
 30
0.0
 42
0.4142135623740523
  0
VERTEX
  5
1630
  8
SAPA_PROFIL
 10
33.700000093358817
 20
117.9999999961729
 30
0.0
  0
VERTEX
  5
1631
  8
SAPA_PROFIL
 10
32.300000093358797
 20
117.999999996173
 30
0.0
 42
-0.5874715141143722
  0
VERTEX
  5
1632
  8
SAPA_PROFIL
 10
32.044845090772952
 20
118.4577844207987
 30
0.0
  0
VERTEX
  5
1633
  8
SAPA_PROFIL
 10
32.788161408860091
 20
119.6579602032955
 30
0.0
 42
-0.2596812337299913
  0
VERTEX
  5
1634
  8
SAPA_PROFIL
 10
33.043207626170052
 20
119.79999999617191
 30
0.0
  0
VERTEX
  5
1635
  8
SAPA_PROFIL
 10
36.002164477604609
 20
119.79999999617201
 30
0.0
  0
VERTEX
  5
1636
  8
SAPA_PROFIL
 10
37.323281435755497
 20
119.2893774129503
 30
0.0
 42
0.4142135623730951
  0
VERTEX
  5
1637
  8
SAPA_PROFIL
 10
37.697466391231323
 20
119.4893414574577
 30
0.0
  0
VERTEX
  5
1638
  8
SAPA_PROFIL
 10
37.711984800478419
 20
119.5371872074562
 30
0.0
  0
VERTEX
  5
1639
  8
SAPA_PROFIL
 10
39.215085881240427
 20
119.5372708153398
 30
0.0
 42
-0.4769755326981643
  0
VERTEX
  5
163A
  8
SAPA_PROFIL
 10
39.517338705746901
 20
119.1656139403939
 30
0.0
  0
VERTEX
  5
163B
  8
SAPA_PROFIL
 10
39.135892109619178
 20
117.3523834697357
 30
0.0
 42
-0.2216946626430191
  0
VERTEX
  5
163C
  8
SAPA_PROFIL
 10
38.730083204464378
 20
116.8115036382589
 30
0.0
  0
VERTEX
  5
163D
  8
SAPA_PROFIL
 10
38.445400921232732
 20
116.65936972715009
 30
0.0
 42
-0.5773502691897461
  0
VERTEX
  5
163E
  8
SAPA_PROFIL
 10
38.15124462097792
 20
116.8423234672603
 30
0.0
  0
VERTEX
  5
163F
  8
SAPA_PROFIL
 10
38.161805987204893
 20
117.1640811954786
 30
0.0
  0
VERTEX
  5
1640
  8
SAPA_PROFIL
 10
36.275962295343831
 20
118.2486456424503
 30
0.0
  0
VERTEX
  5
1641
  8
SAPA_PROFIL
 10
36.08457929535011
 20
118.30671927943941
 30
0.0
 42
0.7625858545243258
  0
VERTEX
  5
1642
  8
SAPA_PROFIL
 10
35.900000093152627
 20
117.9763931984224
 30
0.0
 42
-0.2134217652834387
  0
VERTEX
  5
1643
  8
SAPA_PROFIL
 10
36.000000093152771
 20
117.75278640067231
 30
0.0
  0
VERTEX
  5
1644
  8
SAPA_PROFIL
 10
36.00000009322234
 20
113.89999999616531
 30
0.0
 42
0.4142135623650482
  0
VERTEX
  5
1645
  8
SAPA_PROFIL
 10
36.300000093219793
 20
113.59999999617079
 30
0.0
  0
VERTEX
  5
1646
  8
SAPA_PROFIL
 10
36.59162660101542
 20
113.59999999616799
 30
0.0
  0
VERTEX
  5
1647
  8
SAPA_PROFIL
 10
38.200000093222158
 20
114.52859486484979
 30
0.0
 42
-0.5773502691894928
  0
VERTEX
  5
1648
  8
SAPA_PROFIL
 10
38.500000093221892
 20
114.35538978409301
 30
0.0
  0
VERTEX
  5
1649
  8
SAPA_PROFIL
 10
38.500000093221892
 20
112.96974913803921
 30
0.0
 42
-0.2679491924314051
  0
VERTEX
  5
164A
  8
SAPA_PROFIL
 10
38.000000093221431
 20
112.1037237342544
 30
0.0
  0
VERTEX
  5
164B
  8
SAPA_PROFIL
 10
36.250000093223171
 20
111.0933607631755
 30
0.0
 42
0.2679491924313525
  0
VERTEX
  5
164C
  8
SAPA_PROFIL
 10
36.000000093222788
 20
110.6603480612831
 30
0.0
  0
VERTEX
  5
164D
  8
SAPA_PROFIL
 10
36.000000093222788
 20
84.339651931060743
 30
0.0
 42
0.2679491924313525
  0
VERTEX
  5
164E
  8
SAPA_PROFIL
 10
36.250000093223157
 20
83.90663922916832
 30
0.0
  0
VERTEX
  5
164F
  8
SAPA_PROFIL
 10
38.000000093221438
 20
82.896276258089443
 30
0.0
 42
-0.2679491924314051
  0
VERTEX
  5
1650
  8
SAPA_PROFIL
 10
38.500000093221907
 20
82.030250854304683
 30
0.0
  0
VERTEX
  5
1651
  8
SAPA_PROFIL
 10
38.500000093221892
 20
80.644610208250825
 30
0.0
 42
-0.577350269189493
  0
VERTEX
  5
1652
  8
SAPA_PROFIL
 10
38.200000093222172
 20
80.471405127494023
 30
0.0
  0
VERTEX
  5
1653
  8
SAPA_PROFIL
 10
36.591626601015427
 20
81.399999996175808
 30
0.0
  0
VERTEX
  5
1654
  8
SAPA_PROFIL
 10
36.300000093219801
 20
81.399999996173065
 30
0.0
 42
0.414213562365048
  0
VERTEX
  5
1655
  8
SAPA_PROFIL
 10
36.000000093222347
 20
81.099999996178582
 30
0.0
  0
VERTEX
  5
1656
  8
SAPA_PROFIL
 10
36.000000093152771
 20
77.247213591671567
 30
0.0
 42
-0.2134217652834387
  0
VERTEX
  5
1657
  8
SAPA_PROFIL
 10
35.900000093152627
 20
77.023606793921459
 30
0.0
 42
0.7625858545243238
  0
VERTEX
  5
1658
  8
SAPA_PROFIL
 10
36.08457929535011
 20
76.693280712904425
 30
0.0
  0
VERTEX
  5
1659
  8
SAPA_PROFIL
 10
36.275962295343831
 20
76.751354349893546
 30
0.0
  0
VERTEX
  5
165A
  8
SAPA_PROFIL
 10
38.161805987204893
 20
77.835918796865286
 30
0.0
  0
VERTEX
  5
165B
  8
SAPA_PROFIL
 10
38.151244620977927
 20
78.157676525083531
 30
0.0
 42
-0.5773502691897471
  0
VERTEX
  5
165C
  8
SAPA_PROFIL
 10
38.445400921232739
 20
78.34063026519371
 30
0.0
  0
VERTEX
  5
165D
  8
SAPA_PROFIL
 10
38.730083204464393
 20
78.188496354084947
 30
0.0
 42
-0.2216946626430199
  0
VERTEX
  5
165E
  8
SAPA_PROFIL
 10
39.135892109619178
 20
77.64761652260816
 30
0.0
  0
SEQEND
  5
165F
  8
SAPA_PROFIL
  0
POLYLINE
  5
F4F
  8
SAPA_PROFIL
 66
     1
 10
0.0
 20
0.0
 30
0.0
 70
     1
  0
VERTEX
  5
1660
  8
SAPA_PROFIL
 10
34.000000093222774
 20
81.699999996171897
 30
0.0
 42
0.4142135623730951
  0
VERTEX
  5
1661
  8
SAPA_PROFIL
 10
34.300000093222792
 20
81.999999996171894
 30
0.0
  0
VERTEX
  5
1662
  8
SAPA_PROFIL
 10
34.300000093222792
 20
83.499999996196692
 30
0.0
 42
0.4142135623398939
  0
VERTEX
  5
1663
  8
SAPA_PROFIL
 10
34.000000093256801
 20
83.799999996197158
 30
0.0
 42
-0.4142135623398802
  0
VERTEX
  5
1664
  8
SAPA_PROFIL
 10
33.700000093290782
 20
84.09999999619717
 30
0.0
  0
VERTEX
  5
1665
  8
SAPA_PROFIL
 10
33.700000093290207
 20
85.499999996197204
 30
0.0
 42
-0.4142135623398524
  0
VERTEX
  5
1666
  8
SAPA_PROFIL
 10
34.00000009902579
 20
85.799999996197215
 30
0.0
  0
VERTEX
  5
1667
  8
SAPA_PROFIL
 10
34.00000009325678
 20
85.799999996197769
 30
0.0
 42
0.4142135623398941
  0
VERTEX
  5
1668
  8
SAPA_PROFIL
 10
34.300000093222792
 20
86.099999996197283
 30
0.0
  0
VERTEX
  5
1669
  8
SAPA_PROFIL
 10
34.300000093222792
 20
108.8999999961423
 30
0.0
 42
0.4142135623398939
  0
VERTEX
  5
166A
  8
SAPA_PROFIL
 10
34.000000093256801
 20
109.1999999961424
 30
0.0
 42
-0.4142135623398317
  0
VERTEX
  5
166B
  8
SAPA_PROFIL
 10
33.700000093290782
 20
109.49999999614241
 30
0.0
  0
VERTEX
  5
166C
  8
SAPA_PROFIL
 10
33.700000093290583
 20
110.8999999961424
 30
0.0
 42
-0.4142135623398802
  0
VERTEX
  5
166D
  8
SAPA_PROFIL
 10
34.000000099025797
 20
111.1999999961424
 30
0.0
  0
VERTEX
  5
166E
  8
SAPA_PROFIL
 10
34.000000093256787
 20
111.19999999614259
 30
0.0
 42
0.4142135623398941
  0
VERTEX
  5
166F
  8
SAPA_PROFIL
 10
34.300000093222792
 20
111.4999999961429
 30
0.0
  0
VERTEX
  5
1670
  8
SAPA_PROFIL
 10
34.300000093222792
 20
112.99999999617189
 30
0.0
 42
0.4142135623731159
  0
VERTEX
  5
1671
  8
SAPA_PROFIL
 10
34.000000093222781
 20
113.29999999617191
 30
0.0
  0
VERTEX
  5
1672
  8
SAPA_PROFIL
 10
16.00000008661582
 20
113.29999999617191
 30
0.0
 42
0.4142264962912997
  0
VERTEX
  5
1673
  8
SAPA_PROFIL
 10
15.700000086908309
 20
112.9999867484848
 30
0.0
  0
VERTEX
  5
1674
  8
SAPA_PROFIL
 10
15.700000086908309
 20
111.4999999961436
 30
0.0
 42
0.4142135654887987
  0
VERTEX
  5
1675
  8
SAPA_PROFIL
 10
16.000000090099601
 20
111.1999999961436
 30
0.0
 42
-0.4142135654887846
  0
VERTEX
  5
1676
  8
SAPA_PROFIL
 10
16.30000009329078
 20
110.8999999961424
 30
0.0
  0
VERTEX
  5
1677
  8
SAPA_PROFIL
 10
16.30000009329077
 20
109.49999999614241
 30
0.0
 42
-0.4142135623731367
  0
VERTEX
  5
1678
  8
SAPA_PROFIL
 10
16.00000009329084
 20
109.1999999961424
 30
0.0
 42
0.4142135623731372
  0
VERTEX
  5
1679
  8
SAPA_PROFIL
 10
15.70000009329071
 20
108.8999999961423
 30
0.0
  0
VERTEX
  5
167A
  8
SAPA_PROFIL
 10
15.700000093290811
 20
86.099999996197283
 30
0.0
 42
0.4142135623731367
  0
VERTEX
  5
167B
  8
SAPA_PROFIL
 10
16.000000093290861
 20
85.799999996197286
 30
0.0
 42
-0.4142135623731372
  0
VERTEX
  5
167C
  8
SAPA_PROFIL
 10
16.30000009329078
 20
85.499999996197204
 30
0.0
  0
VERTEX
  5
167D
  8
SAPA_PROFIL
 10
16.30000009329077
 20
84.09999999619717
 30
0.0
 42
-0.4142135654887848
  0
VERTEX
  5
167E
  8
SAPA_PROFIL
 10
16.00000009009959
 20
83.799999996196746
 30
0.0
 42
0.41427398757146
  0
VERTEX
  5
167F
  8
SAPA_PROFIL
 10
15.700000093290811
 20
83.499938109350438
 30
0.0
  0
VERTEX
  5
1680
  8
SAPA_PROFIL
 10
15.700000093290811
 20
81.999999996171894
 30
0.0
 42
0.4142135623730812
  0
VERTEX
  5
1681
  8
SAPA_PROFIL
 10
16.000000093290801
 20
81.699999996171954
 30
0.0
  0
SEQEND
  5
1682
  8
SAPA_PROFIL
  0
POLYLINE
  5
F50
  8
SAPA_PROFIL
 62
     4
 66
     1
 10
0.0
 20
0.0
 30
0.0
 70
     1
  0
VERTEX
  5
1683
  8
SAPA_PROFIL
 62
     4
 10
39.037778563739593
 20
78.172514664676413
 30
0.0
 42
-0.3137019356282051
  0
VERTEX
  5
1684
  8
SAPA_PROFIL
 62
     4
 10
39.318728347285891
 20
77.974889039142994
 30
0.0
  0
VERTEX
  5
1685
  8
SAPA_PROFIL
 62
     4
 10
40.204206060157077
 20
75.542059017598973
 30
0.0
 42
0.3152987888779321
  0
VERTEX
  5
1686
  8
SAPA_PROFIL
 62
     4
 10
40.580083108473467
 20
75.278867074929252
 30
0.0
  0
VERTEX
  5
1687
  8
SAPA_PROFIL
 62
     4
 10
51.000000093187602
 20
75.278867074929281
 30
0.0
  0
VERTEX
  5
1688
  8
SAPA_PROFIL
 62
     4
 10
61.419917077905701
 20
75.278867074929337
 30
0.0
 42
0.3152987888779395
  0
VERTEX
  5
1689
  8
SAPA_PROFIL
 62
     4
 10
61.795794126218063
 20
75.542059017599058
 30
0.0
  0
VERTEX
  5
168A
  8
SAPA_PROFIL
 62
     4
 10
62.681271839086243
 20
77.974889039134752
 30
0.0
 42
-0.3138982169096283
  0
VERTEX
  5
168B
  8
SAPA_PROFIL
 62
     4
 10
62.962221622600417
 20
78.172514664675106
 30
0.0
 42
-0.0157923906855865
  0
VERTEX
  5
168C
  8
SAPA_PROFIL
 62
     4
 10
63.313680154939277
 20
78.175917794314714
 30
0.0
  0
VERTEX
  5
168D
  8
SAPA_PROFIL
 62
     4
 10
63.55386321972157
 20
78.314587551421226
 30
0.0
 42
-0.5773502691889272
  0
VERTEX
  5
168E
  8
SAPA_PROFIL
 62
     4
 10
63.868863219721277
 20
78.132722216626433
 30
0.0
  0
VERTEX
  5
168F
  8
SAPA_PROFIL
 62
     4
 10
63.868863219721398
 20
77.865607688413519
 30
0.0
  0
VERTEX
  5
1690
  8
SAPA_PROFIL
 62
     4
 10
64.200000093187583
 20
77.669385622629221
 30
0.0
  0
VERTEX
  5
1691
  8
SAPA_PROFIL
 62
     4
 10
65.183320231168096
 20
77.101741459131773
 30
0.0
 42
0.1316524975869703
  0
VERTEX
  5
1692
  8
SAPA_PROFIL
 62
     4
 10
65.288320231166921
 20
77.073606793927212
 30
0.0
  0
VERTEX
  5
1693
  8
SAPA_PROFIL
 62
     4
 10
65.600000093189493
 20
77.073606793927098
 30
0.0
 42
0.4142135623775584
  0
VERTEX
  5
1694
  8
SAPA_PROFIL
 62
     4
 10
66.000000093187538
 20
77.473606793927416
 30
0.0
  0
VERTEX
  5
1695
  8
SAPA_PROFIL
 62
     4
 10
66.000000093187595
 20
80.873606793927166
 30
0.0
 42
0.4142135623773978
  0
VERTEX
  5
1696
  8
SAPA_PROFIL
 62
     4
 10
65.60000009318756
 20
81.273606793927144
 30
0.0
  0
VERTEX
  5
1697
  8
SAPA_PROFIL
 62
     4
 10
65.288320231163894
 20
81.273606793927144
 30
0.0
 42
0.1316524975869708
  0
VERTEX
  5
1698
  8
SAPA_PROFIL
 62
     4
 10
65.18332023116696
 20
81.2454721287219
 30
0.0
  0
VERTEX
  5
1699
  8
SAPA_PROFIL
 62
     4
 10
64.200000093187583
 20
80.677751982359865
 30
0.0
  0
VERTEX
  5
169A
  8
SAPA_PROFIL
 62
     4
 10
63.605255981516713
 20
80.334376309387764
 30
0.0
 42
-0.1316524975869772
  0
VERTEX
  5
169B
  8
SAPA_PROFIL
 62
     4
 10
63.005255981513343
 20
80.173606793927235
 30
0.0
  0
VERTEX
  5
169C
  8
SAPA_PROFIL
 62
     4
 10
62.053391648626899
 20
80.173606793927462
 30
0.0
 42
0.3152987888780149
  0
VERTEX
  5
169D
  8
SAPA_PROFIL
 62
     4
 10
61.113699027855411
 20
79.515626937253074
 30
0.0
  0
VERTEX
  5
169E
  8
SAPA_PROFIL
 62
     4
 10
60.322585002945551
 20
77.342059017599382
 30
0.0
 42
-0.3152987888779391
  0
VERTEX
  5
169F
  8
SAPA_PROFIL
 62
     4
 10
59.94670795463103
 20
77.078867074929263
 30
0.0
  0
VERTEX
  5
16A0
  8
SAPA_PROFIL
 62
     4
 10
51.000000093187602
 20
77.078867074929263
 30
0.0
  0
VERTEX
  5
16A1
  8
SAPA_PROFIL
 62
     4
 10
42.053292231744123
 20
77.078867074929207
 30
0.0
 42
-0.3152987888779318
  0
VERTEX
  5
16A2
  8
SAPA_PROFIL
 62
     4
 10
41.677415183430952
 20
77.342059017595631
 30
0.0
  0
VERTEX
  5
16A3
  8
SAPA_PROFIL
 62
     4
 10
40.886301158519849
 20
79.515626937252847
 30
0.0
 42
0.3152987888779361
  0
VERTEX
  5
16A4
  8
SAPA_PROFIL
 62
     4
 10
39.94660853771925
 20
80.173606793927178
 30
0.0
  0
VERTEX
  5
16A5
  8
SAPA_PROFIL
 62
     4
 10
38.994744204861753
 20
80.173606793927178
 30
0.0
 42
-0.1316524975869766
  0
VERTEX
  5
16A6
  8
SAPA_PROFIL
 62
     4
 10
38.394744204868552
 20
80.334376309381895
 30
0.0
  0
VERTEX
  5
16A7
  8
SAPA_PROFIL
 62
     4
 10
37.807179770160047
 20
80.673606793927107
 30
0.0
  0
VERTEX
  5
16A8
  8
SAPA_PROFIL
 62
     4
 10
36.816679955208123
 20
81.245472128721843
 30
0.0
 42
0.1316524975869832
  0
VERTEX
  5
16A9
  8
SAPA_PROFIL
 62
     4
 10
36.711679955205042
 20
81.273606793927087
 30
0.0
  0
VERTEX
  5
16AA
  8
SAPA_PROFIL
 62
     4
 10
36.400000093187529
 20
81.273606793927144
 30
0.0
 42
0.414213562371655
  0
VERTEX
  5
16AB
  8
SAPA_PROFIL
 62
     4
 10
36.000000093187552
 20
80.873606793923173
 30
0.0
  0
VERTEX
  5
16AC
  8
SAPA_PROFIL
 62
     4
 10
36.000000093187552
 20
77.473606793927132
 30
0.0
 42
0.4142135623716633
  0
VERTEX
  5
16AD
  8
SAPA_PROFIL
 62
     4
 10
36.400000093189568
 20
77.073606793927155
 30
0.0
  0
VERTEX
  5
16AE
  8
SAPA_PROFIL
 62
     4
 10
36.711679955208218
 20
77.073606793927155
 30
0.0
 42
0.1316524975869709
  0
VERTEX
  5
16AF
  8
SAPA_PROFIL
 62
     4
 10
36.816679955208812
 20
77.101741459132739
 30
0.0
  0
VERTEX
  5
16B0
  8
SAPA_PROFIL
 62
     4
 10
38.131136966653813
 20
77.865607688413519
 30
0.0
  0
VERTEX
  5
16B1
  8
SAPA_PROFIL
 62
     4
 10
38.131136966653919
 20
78.132722216626433
 30
0.0
 42
-0.5773502691889269
  0
VERTEX
  5
16B2
  8
SAPA_PROFIL
 62
     4
 10
38.446136966653633
 20
78.314587551421226
 30
0.0
  0
VERTEX
  5
16B3
  8
SAPA_PROFIL
 62
     4
 10
38.686320031435933
 20
78.175917794314699
 30
0.0
 42
-0.015792390685586
  0
SEQEND
  5
16B4
  8
SAPA_PROFIL
 62
     4
  0
POLYLINE
  5
F51
  8
SAPA_PROFIL
 62
     4
 66
     1
 10
0.0
 20
0.0
 30
0.0
 70
     1
  0
VERTEX
  5
16B5
  8
SAPA_PROFIL
 62
     4
 10
39.0377785637396
 20
116.8274853276675
 30
0.0
 42
0.3137019356282051
  0
VERTEX
  5
16B6
  8
SAPA_PROFIL
 62
     4
 10
39.318728347285898
 20
117.02511095320089
 30
0.0
  0
VERTEX
  5
16B7
  8
SAPA_PROFIL
 62
     4
 10
40.204206060157098
 20
119.4579409747449
 30
0.0
 42
-0.3152987888779321
  0
VERTEX
  5
16B8
  8
SAPA_PROFIL
 62
     4
 10
40.580083108473488
 20
119.72113291741471
 30
0.0
  0
VERTEX
  5
16B9
  8
SAPA_PROFIL
 62
     4
 10
51.000000093187623
 20
119.72113291741459
 30
0.0
  0
VERTEX
  5
16BA
  8
SAPA_PROFIL
 62
     4
 10
61.419917077905708
 20
119.72113291741459
 30
0.0
 42
-0.3152987888779395
  0
VERTEX
  5
16BB
  8
SAPA_PROFIL
 62
     4
 10
61.795794126218077
 20
119.4579409747448
 30
0.0
  0
VERTEX
  5
16BC
  8
SAPA_PROFIL
 62
     4
 10
62.68127183908625
 20
117.02511095320909
 30
0.0
 42
0.3138982169096283
  0
VERTEX
  5
16BD
  8
SAPA_PROFIL
 62
     4
 10
62.962221622600431
 20
116.8274853276688
 30
0.0
 42
0.0157923906855865
  0
VERTEX
  5
16BE
  8
SAPA_PROFIL
 62
     4
 10
63.313680154939291
 20
116.8240821980292
 30
0.0
  0
VERTEX
  5
16BF
  8
SAPA_PROFIL
 62
     4
 10
63.553863219721578
 20
116.6854124409227
 30
0.0
 42
0.5773502691889272
  0
VERTEX
  5
16C0
  8
SAPA_PROFIL
 62
     4
 10
63.868863219721298
 20
116.8672777757175
 30
0.0
  0
VERTEX
  5
16C1
  8
SAPA_PROFIL
 62
     4
 10
63.868863219721412
 20
117.1343923039304
 30
0.0
  0
VERTEX
  5
16C2
  8
SAPA_PROFIL
 62
     4
 10
64.200000093187612
 20
117.3306143697147
 30
0.0
  0
VERTEX
  5
16C3
  8
SAPA_PROFIL
 62
     4
 10
65.183320231168125
 20
117.8982585332121
 30
0.0
 42
-0.1316524975869703
  0
VERTEX
  5
16C4
  8
SAPA_PROFIL
 62
     4
 10
65.288320231166949
 20
117.9263931984167
 30
0.0
  0
VERTEX
  5
16C5
  8
SAPA_PROFIL
 62
     4
 10
65.600000093189522
 20
117.9263931984168
 30
0.0
 42
-0.4142135623775584
  0
VERTEX
  5
16C6
  8
SAPA_PROFIL
 62
     4
 10
66.000000093187566
 20
117.5263931984165
 30
0.0
  0
VERTEX
  5
16C7
  8
SAPA_PROFIL
 62
     4
 10
66.000000093187623
 20
114.12639319841669
 30
0.0
 42
-0.4142135623773978
  0
VERTEX
  5
16C8
  8
SAPA_PROFIL
 62
     4
 10
65.600000093187589
 20
113.7263931984168
 30
0.0
  0
VERTEX
  5
16C9
  8
SAPA_PROFIL
 62
     4
 10
65.288320231163937
 20
113.7263931984168
 30
0.0
 42
-0.1316524975869708
  0
VERTEX
  5
16CA
  8
SAPA_PROFIL
 62
     4
 10
65.183320231166974
 20
113.754527863622
 30
0.0
  0
VERTEX
  5
16CB
  8
SAPA_PROFIL
 62
     4
 10
64.200000093187612
 20
114.32224800998399
 30
0.0
  0
VERTEX
  5
16CC
  8
SAPA_PROFIL
 62
     4
 10
63.605255981516727
 20
114.66562368295619
 30
0.0
 42
0.1316524975869772
  0
VERTEX
  5
16CD
  8
SAPA_PROFIL
 62
     4
 10
63.005255981513351
 20
114.8263931984167
 30
0.0
  0
VERTEX
  5
16CE
  8
SAPA_PROFIL
 62
     4
 10
62.053391648626921
 20
114.8263931984164
 30
0.0
 42
-0.3152987888780149
  0
VERTEX
  5
16CF
  8
SAPA_PROFIL
 62
     4
 10
61.113699027855432
 20
115.4843730550908
 30
0.0
  0
VERTEX
  5
16D0
  8
SAPA_PROFIL
 62
     4
 10
60.322585002945559
 20
117.65794097474451
 30
0.0
 42
0.3152987888779391
  0
VERTEX
  5
16D1
  8
SAPA_PROFIL
 62
     4
 10
59.946707954631037
 20
117.9211329174146
 30
0.0
  0
VERTEX
  5
16D2
  8
SAPA_PROFIL
 62
     4
 10
51.000000093187623
 20
117.9211329174146
 30
0.0
  0
VERTEX
  5
16D3
  8
SAPA_PROFIL
 62
     4
 10
42.05329223174413
 20
117.9211329174147
 30
0.0
 42
0.3152987888779318
  0
VERTEX
  5
16D4
  8
SAPA_PROFIL
 62
     4
 10
41.677415183430973
 20
117.6579409747483
 30
0.0
  0
VERTEX
  5
16D5
  8
SAPA_PROFIL
 62
     4
 10
40.886301158519863
 20
115.4843730550911
 30
0.0
 42
-0.3152987888779361
  0
VERTEX
  5
16D6
  8
SAPA_PROFIL
 62
     4
 10
39.946608537719271
 20
114.8263931984167
 30
0.0
  0
VERTEX
  5
16D7
  8
SAPA_PROFIL
 62
     4
 10
38.994744204861767
 20
114.8263931984167
 30
0.0
 42
0.1316524975869766
  0
VERTEX
  5
16D8
  8
SAPA_PROFIL
 62
     4
 10
38.394744204868573
 20
114.66562368296201
 30
0.0
  0
VERTEX
  5
16D9
  8
SAPA_PROFIL
 62
     4
 10
37.807179770160069
 20
114.3263931984168
 30
0.0
  0
VERTEX
  5
16DA
  8
SAPA_PROFIL
 62
     4
 10
36.816679955208137
 20
113.7545278636221
 30
0.0
 42
-0.1316524975869832
  0
VERTEX
  5
16DB
  8
SAPA_PROFIL
 62
     4
 10
36.711679955205049
 20
113.7263931984168
 30
0.0
  0
VERTEX
  5
16DC
  8
SAPA_PROFIL
 62
     4
 10
36.400000093187543
 20
113.7263931984168
 30
0.0
 42
-0.414213562371655
  0
VERTEX
  5
16DD
  8
SAPA_PROFIL
 62
     4
 10
36.000000093187559
 20
114.1263931984207
 30
0.0
  0
VERTEX
  5
16DE
  8
SAPA_PROFIL
 62
     4
 10
36.000000093187559
 20
117.5263931984168
 30
0.0
 42
-0.4142135623716633
  0
VERTEX
  5
16DF
  8
SAPA_PROFIL
 62
     4
 10
36.40000009318959
 20
117.9263931984168
 30
0.0
  0
VERTEX
  5
16E0
  8
SAPA_PROFIL
 62
     4
 10
36.71167995520824
 20
117.9263931984168
 30
0.0
 42
-0.1316524975869709
  0
VERTEX
  5
16E1
  8
SAPA_PROFIL
 62
     4
 10
36.816679955208819
 20
117.89825853321121
 30
0.0
  0
VERTEX
  5
16E2
  8
SAPA_PROFIL
 62
     4
 10
38.13113696665382
 20
117.1343923039304
 30
0.0
  0
VERTEX
  5
16E3
  8
SAPA_PROFIL
 62
     4
 10
38.131136966653933
 20
116.8672777757175
 30
0.0
 42
0.5773502691889269
  0
VERTEX
  5
16E4
  8
SAPA_PROFIL
 62
     4
 10
38.446136966653647
 20
116.6854124409227
 30
0.0
  0
VERTEX
  5
16E5
  8
SAPA_PROFIL
 62
     4
 10
38.68632003143594
 20
116.8240821980292
 30
0.0
 42
0.015792390685586
  0
SEQEND
  5
16E6
  8
SAPA_PROFIL
 62
     4
  0
POLYLINE
  5
F52
  8
SAPA_PROFIL
 66
     1
 10
0.0
 20
0.0
 30
0.0
 70
     1
  0
VERTEX
  5
16E7
  8
SAPA_PROFIL
 10
66.000000093187595
 20
77.245737407760899
 30
0.0
 42
0.2134217652834387
  0
VERTEX
  5
16E8
  8
SAPA_PROFIL
 10
66.100000093187731
 20
77.022130610010791
 30
0.0
 42
-0.7625858545243283
  0
VERTEX
  5
16E9
  8
SAPA_PROFIL
 10
65.915420890990248
 20
76.691804528993771
 30
0.0
  0
VERTEX
  5
16EA
  8
SAPA_PROFIL
 10
65.724037890996513
 20
76.749878165982864
 30
0.0
  0
VERTEX
  5
16EB
  8
SAPA_PROFIL
 10
63.838194199135472
 20
77.834442612954604
 30
0.0
  0
VERTEX
  5
16EC
  8
SAPA_PROFIL
 10
63.848755565362453
 20
78.156200341172863
 30
0.0
 42
0.5773502691897439
  0
VERTEX
  5
16ED
  8
SAPA_PROFIL
 10
63.554599265107612
 20
78.339154081283013
 30
0.0
  0
VERTEX
  5
16EE
  8
SAPA_PROFIL
 10
63.269916981875973
 20
78.187020170174279
 30
0.0
 42
0.2216946626430187
  0
VERTEX
  5
16EF
  8
SAPA_PROFIL
 10
62.86410807672118
 20
77.646140338697464
 30
0.0
  0
VERTEX
  5
16F0
  8
SAPA_PROFIL
 10
62.482661480593471
 20
75.832909868039224
 30
0.0
 42
0.4769755326981641
  0
VERTEX
  5
16F1
  8
SAPA_PROFIL
 10
62.784914305099932
 20
75.461252993093353
 30
0.0
  0
VERTEX
  5
16F2
  8
SAPA_PROFIL
 10
64.288015385861939
 20
75.461336600977006
 30
0.0
  0
VERTEX
  5
16F3
  8
SAPA_PROFIL
 10
64.302533795109042
 20
75.509182350975493
 30
0.0
 42
-0.4142135623730948
  0
VERTEX
  5
16F4
  8
SAPA_PROFIL
 10
64.676718750584854
 20
75.70914639548289
 30
0.0
  0
VERTEX
  5
16F5
  8
SAPA_PROFIL
 10
65.994016426820082
 20
75.19999999617194
 30
0.0
  0
VERTEX
  5
16F6
  8
SAPA_PROFIL
 10
68.990283341267244
 20
75.199999996171954
 30
0.0
 42
0.2562769736732679
  0
VERTEX
  5
16F7
  8
SAPA_PROFIL
 10
69.158955845478602
 20
75.292530994487421
 30
0.0
  0
VERTEX
  5
16F8
  8
SAPA_PROFIL
 10
69.953008851655056
 20
76.538796493645151
 30
0.0
 42
0.5920056181179401
  0
VERTEX
  5
16F9
  8
SAPA_PROFIL
 10
69.700000095338112
 20
76.999999996171809
 30
0.0
  0
VERTEX
  5
16FA
  8
SAPA_PROFIL
 10
68.30000009533812
 20
76.999999996171809
 30
0.0
 42
-0.4142135623729876
  0
VERTEX
  5
16FB
  8
SAPA_PROFIL
 10
68.000000095338024
 20
77.299999996171792
 30
0.0
  0
VERTEX
  5
16FC
  8
SAPA_PROFIL
 10
68.000000095338095
 20
79.699999996171783
 30
0.0
 42
-0.4142135623730951
  0
VERTEX
  5
16FD
  8
SAPA_PROFIL
 10
68.30000009533812
 20
79.999999996171795
 30
0.0
  0
VERTEX
  5
16FE
  8
SAPA_PROFIL
 10
85.700000095338126
 20
79.999999996171795
 30
0.0
 42
-0.414213562373088
  0
VERTEX
  5
16FF
  8
SAPA_PROFIL
 10
86.000000095338123
 20
79.699999996171783
 30
0.0
  0
VERTEX
  5
1700
  8
SAPA_PROFIL
 10
86.000000095338123
 20
77.299999996171792
 30
0.0
 42
-0.4142135623730882
  0
VERTEX
  5
1701
  8
SAPA_PROFIL
 10
85.700000095338126
 20
76.999999996171809
 30
0.0
  0
VERTEX
  5
1702
  8
SAPA_PROFIL
 10
84.300000095338106
 20
76.999999996171823
 30
0.0
 42
0.5877032589249568
  0
VERTEX
  5
1703
  8
SAPA_PROFIL
 10
84.044953878028025
 20
76.542039789044097
 30
0.0
  0
VERTEX
  5
1704
  8
SAPA_PROFIL
 10
84.94135285527031
 20
75.094693191420035
 30
0.0
 42
0.2596812337300067
  0
VERTEX
  5
1705
  8
SAPA_PROFIL
 10
85.111383666810326
 20
74.999999996171908
 30
0.0
  0
VERTEX
  5
1706
  8
SAPA_PROFIL
 10
87.700000100169731
 20
74.999999996171894
 30
0.0
 42
0.414213562373081
  0
VERTEX
  5
1707
  8
SAPA_PROFIL
 10
88.000000100169714
 20
75.299999996171891
 30
0.0
  0
VERTEX
  5
1708
  8
SAPA_PROFIL
 10
88.000000100169714
 20
119.6999999961718
 30
0.0
 42
0.4142135623730811
  0
VERTEX
  5
1709
  8
SAPA_PROFIL
 10
87.700000100169731
 20
119.99999999617179
 30
0.0
  0
VERTEX
  5
170A
  8
SAPA_PROFIL
 10
85.111383661978721
 20
119.99999999617179
 30
0.0
 42
0.2596812337301466
  0
VERTEX
  5
170B
  8
SAPA_PROFIL
 10
84.941352850438619
 20
119.9053068009237
 30
0.0
  0
VERTEX
  5
170C
  8
SAPA_PROFIL
 10
84.044953873196405
 20
118.45796020329951
 30
0.0
 42
0.5877032589248845
  0
VERTEX
  5
170D
  8
SAPA_PROFIL
 10
84.300000090506529
 20
117.99999999617189
 30
0.0
  0
VERTEX
  5
170E
  8
SAPA_PROFIL
 10
85.700000090506521
 20
117.99999999617179
 30
0.0
 42
-0.4142135623732062
  0
VERTEX
  5
170F
  8
SAPA_PROFIL
 10
86.000000090506447
 20
117.6999999961718
 30
0.0
  0
VERTEX
  5
1710
  8
SAPA_PROFIL
 10
86.000000090506617
 20
115.29999999617181
 30
0.0
 42
-0.4142135623730948
  0
VERTEX
  5
1711
  8
SAPA_PROFIL
 10
85.700000090506521
 20
114.99999999617189
 30
0.0
  0
VERTEX
  5
1712
  8
SAPA_PROFIL
 10
68.300000090506515
 20
114.99999999617179
 30
0.0
 42
-0.4142135623730118
  0
VERTEX
  5
1713
  8
SAPA_PROFIL
 10
68.000000090506603
 20
115.29999999617181
 30
0.0
  0
VERTEX
  5
1714
  8
SAPA_PROFIL
 10
68.000000090506518
 20
117.6999999961718
 30
0.0
 42
-0.4142135623730951
  0
VERTEX
  5
1715
  8
SAPA_PROFIL
 10
68.300000090506515
 20
117.99999999617179
 30
0.0
  0
VERTEX
  5
1716
  8
SAPA_PROFIL
 10
69.700000090506506
 20
117.99999999617189
 30
0.0
 42
0.5920056172513317
  0
VERTEX
  5
1717
  8
SAPA_PROFIL
 10
69.953008847237314
 20
118.4612034980493
 30
0.0
  0
VERTEX
  5
1718
  8
SAPA_PROFIL
 10
69.158955845420351
 20
119.7074689974234
 30
0.0
 42
0.2562769743570819
  0
VERTEX
  5
1719
  8
SAPA_PROFIL
 10
68.990283340933146
 20
119.79999999617181
 30
0.0
  0
VERTEX
  5
171A
  8
SAPA_PROFIL
 10
65.994016426820366
 20
119.79999999617181
 30
0.0
  0
VERTEX
  5
171B
  8
SAPA_PROFIL
 10
64.676718750584797
 20
119.2908535968607
 30
0.0
 42
-0.414213562373094
  0
VERTEX
  5
171C
  8
SAPA_PROFIL
 10
64.302533795108985
 20
119.4908176413681
 30
0.0
  0
VERTEX
  5
171D
  8
SAPA_PROFIL
 10
64.288015385861883
 20
119.5386633913666
 30
0.0
  0
VERTEX
  5
171E
  8
SAPA_PROFIL
 10
62.784914305099868
 20
119.53874699925019
 30
0.0
 42
0.4769755326981644
  0
VERTEX
  5
171F
  8
SAPA_PROFIL
 10
62.4826614805934
 20
119.16709012430429
 30
0.0
  0
VERTEX
  5
1720
  8
SAPA_PROFIL
 10
62.864108076721124
 20
117.3538596536461
 30
0.0
 42
0.2216946626430193
  0
VERTEX
  5
1721
  8
SAPA_PROFIL
 10
63.269916981875923
 20
116.8129798221693
 30
0.0
  0
VERTEX
  5
1722
  8
SAPA_PROFIL
 10
63.554599265107569
 20
116.66084591106051
 30
0.0
 42
0.577350269189744
  0
VERTEX
  5
1723
  8
SAPA_PROFIL
 10
63.848755565362382
 20
116.8437996511707
 30
0.0
  0
VERTEX
  5
1724
  8
SAPA_PROFIL
 10
63.838194199135422
 20
117.165557379389
 30
0.0
  0
VERTEX
  5
1725
  8
SAPA_PROFIL
 10
65.72403789099647
 20
118.2501218263607
 30
0.0
  0
VERTEX
  5
1726
  8
SAPA_PROFIL
 10
65.915420890990191
 20
118.3081954633498
 30
0.0
 42
-0.7625858545243295
  0
VERTEX
  5
1727
  8
SAPA_PROFIL
 10
66.100000093187674
 20
117.9778693823328
 30
0.0
 42
0.2134217652834391
  0
VERTEX
  5
1728
  8
SAPA_PROFIL
 10
66.000000093187538
 20
117.7542625845827
 30
0.0
  0
VERTEX
  5
1729
  8
SAPA_PROFIL
 10
66.000000093187538
 20
113.9014761800827
 30
0.0
 42
-0.4142135623730049
  0
VERTEX
  5
172A
  8
SAPA_PROFIL
 10
65.700000093187512
 20
113.6014761800828
 30
0.0
  0
VERTEX
  5
172B
  8
SAPA_PROFIL
 10
65.400000093187415
 20
113.6014761800827
 30
0.0
  0
VERTEX
  5
172C
  8
SAPA_PROFIL
 10
63.800000093187499
 20
114.5252366107861
 30
0.0
 42
0.577350269189614
  0
VERTEX
  5
172D
  8
SAPA_PROFIL
 10
63.500000093187531
 20
114.35203153002919
 30
0.0
  0
VERTEX
  5
172E
  8
SAPA_PROFIL
 10
63.500000093187531
 20
112.9663908839741
 30
0.0
 42
0.2679491924311176
  0
VERTEX
  5
172F
  8
SAPA_PROFIL
 10
64.000000093187538
 20
112.10036548018969
 30
0.0
  0
VERTEX
  5
1730
  8
SAPA_PROFIL
 10
65.750000090574616
 20
111.0900025106163
 30
0.0
 42
-0.2679491924311136
  0
VERTEX
  5
1731
  8
SAPA_PROFIL
 10
66.000000090574602
 20
110.65698980872411
 30
0.0
  0
VERTEX
  5
1732
  8
SAPA_PROFIL
 10
66.000000090574602
 20
84.343010183619441
 30
0.0
 42
-0.2679491924311212
  0
VERTEX
  5
1733
  8
SAPA_PROFIL
 10
65.750000090574602
 20
83.909997481727217
 30
0.0
  0
VERTEX
  5
1734
  8
SAPA_PROFIL
 10
64.000000093187538
 20
82.899634512153995
 30
0.0
 42
0.2679491924311269
  0
VERTEX
  5
1735
  8
SAPA_PROFIL
 10
63.500000093187531
 20
82.033609108369546
 30
0.0
  0
VERTEX
  5
1736
  8
SAPA_PROFIL
 10
63.500000093187531
 20
80.647968462314495
 30
0.0
 42
0.5773502691898932
  0
VERTEX
  5
1737
  8
SAPA_PROFIL
 10
63.800000093187499
 20
80.474763381557622
 30
0.0
  0
VERTEX
  5
1738
  8
SAPA_PROFIL
 10
65.400000093187415
 20
81.398523812260905
 30
0.0
  0
VERTEX
  5
1739
  8
SAPA_PROFIL
 10
65.700000093187512
 20
81.398523812260905
 30
0.0
 42
-0.4142135623730916
  0
VERTEX
  5
173A
  8
SAPA_PROFIL
 10
66.000000093187538
 20
81.098523812260922
 30
0.0
  0
SEQEND
  5
173B
  8
SAPA_PROFIL
  0
POLYLINE
  5
F53
  8
SAPA_PROFIL
 66
     1
 10
0.0
 20
0.0
 30
0.0
 70
     1
  0
VERTEX
  5
173C
  8
SAPA_PROFIL
 10
85.700000100169603
 20
110.99999999617179
 30
0.0
  0
VERTEX
  5
173D
  8
SAPA_PROFIL
 10
85.700000100169632
 20
109.5999999961718
 30
0.0
 42
0.4142135623731021
  0
VERTEX
  5
173E
  8
SAPA_PROFIL
 10
86.000000100169615
 20
109.29999999617181
 30
0.0
  0
VERTEX
  5
173F
  8
SAPA_PROFIL
 10
86.100000100169595
 20
109.29999999617181
 30
0.0
 42
-0.4142135623730847
  0
VERTEX
  5
1740
  8
SAPA_PROFIL
 10
86.300000100169626
 20
109.0999999961718
 30
0.0
  0
VERTEX
  5
1741
  8
SAPA_PROFIL
 10
86.300000100169626
 20
85.899999996171886
 30
0.0
 42
-0.41421356237309
  0
VERTEX
  5
1742
  8
SAPA_PROFIL
 10
86.100000100169595
 20
85.699999996171897
 30
0.0
  0
VERTEX
  5
1743
  8
SAPA_PROFIL
 10
86.000000100169615
 20
85.699999996171783
 30
0.0
 42
0.4142135623731055
  0
VERTEX
  5
1744
  8
SAPA_PROFIL
 10
85.700000100169603
 20
85.399999996171786
 30
0.0
  0
VERTEX
  5
1745
  8
SAPA_PROFIL
 10
85.700000100169603
 20
83.999999996171908
 30
0.0
 42
0.4142135623731991
  0
VERTEX
  5
1746
  8
SAPA_PROFIL
 10
86.000000100169615
 20
83.699999996171783
 30
0.0
  0
VERTEX
  5
1747
  8
SAPA_PROFIL
 10
86.100000100169595
 20
83.699999996171783
 30
0.0
 42
-0.4142135623730898
  0
VERTEX
  5
1748
  8
SAPA_PROFIL
 10
86.300000100169513
 20
83.499999996171866
 30
0.0
  0
VERTEX
  5
1749
  8
SAPA_PROFIL
 10
86.300000100169711
 20
81.999999996171923
 30
0.0
 42
-0.4142135623731019
  0
VERTEX
  5
174A
  8
SAPA_PROFIL
 10
86.000000100169729
 20
81.699999996171911
 30
0.0
  0
VERTEX
  5
174B
  8
SAPA_PROFIL
 10
68.000000096402914
 20
81.699999996171911
 30
0.0
 42
-0.4142135623730951
  0
VERTEX
  5
174C
  8
SAPA_PROFIL
 10
67.700000096402917
 20
81.999999996171894
 30
0.0
  0
VERTEX
  5
174D
  8
SAPA_PROFIL
 10
67.700000096402917
 20
83.499999996171795
 30
0.0
 42
-0.4142135623730795
  0
VERTEX
  5
174E
  8
SAPA_PROFIL
 10
67.90000009640282
 20
83.699999996171869
 30
0.0
  0
VERTEX
  5
174F
  8
SAPA_PROFIL
 10
68.000000095449252
 20
83.699999996171783
 30
0.0
 42
0.4142135624945151
  0
VERTEX
  5
1750
  8
SAPA_PROFIL
 10
68.300000095449263
 20
83.999999996296168
 30
0.0
  0
VERTEX
  5
1751
  8
SAPA_PROFIL
 10
68.300000094868864
 20
85.399999996296174
 30
0.0
 42
0.414213562251668
  0
VERTEX
  5
1752
  8
SAPA_PROFIL
 10
68.000000094868867
 20
85.699999996171783
 30
0.0
  0
VERTEX
  5
1753
  8
SAPA_PROFIL
 10
67.900000096240902
 20
85.699999996171783
 30
0.0
 42
-0.4142135621360074
  0
VERTEX
  5
1754
  8
SAPA_PROFIL
 10
67.700000096240771
 20
85.89999999601001
 30
0.0
  0
VERTEX
  5
1755
  8
SAPA_PROFIL
 10
67.700000089765425
 20
109.0999999960099
 30
0.0
 42
-0.4142135626101672
  0
VERTEX
  5
1756
  8
SAPA_PROFIL
 10
67.900000089765399
 20
109.29999999617181
 30
0.0
  0
VERTEX
  5
1757
  8
SAPA_PROFIL
 10
68.000000091137537
 20
109.29999999617181
 30
0.0
 42
0.4142135624945428
  0
VERTEX
  5
1758
  8
SAPA_PROFIL
 10
68.300000091137548
 20
109.59999999629621
 30
0.0
  0
VERTEX
  5
1759
  8
SAPA_PROFIL
 10
68.300000090557077
 20
110.9999999962962
 30
0.0
 42
0.4142135622516402
  0
VERTEX
  5
175A
  8
SAPA_PROFIL
 10
68.000000090557066
 20
111.29999999617181
 30
0.0
  0
VERTEX
  5
175B
  8
SAPA_PROFIL
 10
67.900000090354411
 20
111.29999999617181
 30
0.0
 42
-0.414213562258404
  0
VERTEX
  5
175C
  8
SAPA_PROFIL
 10
67.700000090354408
 20
111.49999999609351
 30
0.0
  0
VERTEX
  5
175D
  8
SAPA_PROFIL
 10
67.700000089730395
 20
112.99999999604699
 30
0.0
 42
-0.4142135624949383
  0
VERTEX
  5
175E
  8
SAPA_PROFIL
 10
68.000000089730406
 20
113.29999999617181
 30
0.0
  0
VERTEX
  5
175F
  8
SAPA_PROFIL
 10
86.000000100169643
 20
113.29999999617181
 30
0.0
 42
-0.4142135623730882
  0
VERTEX
  5
1760
  8
SAPA_PROFIL
 10
86.300000100169626
 20
112.99999999617179
 30
0.0
  0
VERTEX
  5
1761
  8
SAPA_PROFIL
 10
86.300000100169726
 20
111.49999999617179
 30
0.0
 42
-0.4142135623730847
  0
VERTEX
  5
1762
  8
SAPA_PROFIL
 10
86.100000100169737
 20
111.29999999617181
 30
0.0
  0
VERTEX
  5
1763
  8
SAPA_PROFIL
 10
86.000000100169615
 20
111.29999999617181
 30
0.0
 42
0.4142135623730881
  0
SEQEND
  5
1764
  8
SAPA_PROFIL
  0
POLYLINE
  5
F54
  8
SAPA_PROFIL
 62
     2
 66
     1
 10
0.0
 20
0.0
 30
0.0
  0
VERTEX
  5
1765
  8
SAPA_PROFIL
 62
     2
 10
19.300000093401358
 20
147.738407619057
 30
0.0
  0
VERTEX
  5
1766
  8
SAPA_PROFIL
 62
     2
 10
18.209081283248619
 20
147.93076603904939
 30
0.0
  0
VERTEX
  5
1767
  8
SAPA_PROFIL
 62
     2
 10
18.093381743728681
 20
147.4989694791478
 30
0.0
 42
-0.4430158954262519
  0
VERTEX
  5
1768
  8
SAPA_PROFIL
 62
     2
 10
17.829905315621708
 20
147.3634924316037
 30
0.0
  0
VERTEX
  5
1769
  8
SAPA_PROFIL
 62
     2
 10
16.55941756770352
 20
147.84044062482269
 30
0.0
 42
-0.3125358528825162
  0
VERTEX
  5
176A
  8
SAPA_PROFIL
 62
     2
 10
16.30000009340182
 20
148.214922337952
 30
0.0
  0
VERTEX
  5
176B
  8
SAPA_PROFIL
 62
     2
 10
16.300000093401358
 20
150.08507765386241
 30
0.0
 42
-0.3125358528825104
  0
VERTEX
  5
176C
  8
SAPA_PROFIL
 62
     2
 10
16.55941756770352
 20
150.45955936699181
 30
0.0
  0
VERTEX
  5
176D
  8
SAPA_PROFIL
 62
     2
 10
17.829905315621708
 20
150.936507560211
 30
0.0
 42
-0.4430158954262519
  0
VERTEX
  5
176E
  8
SAPA_PROFIL
 62
     2
 10
18.093381743728571
 20
150.8010305126669
 30
0.0
  0
VERTEX
  5
176F
  8
SAPA_PROFIL
 62
     2
 10
18.209081283248619
 20
150.369233952765
 30
0.0
  0
VERTEX
  5
1770
  8
SAPA_PROFIL
 62
     2
 10
19.300000093401358
 20
150.5614999959073
 30
0.0
  0
SEQEND
  5
1771
  8
SAPA_PROFIL
 62
     2
  0
POLYLINE
  5
F55
  8
SAPA_PROFIL
 62
     2
 66
     1
 10
0.0
 20
0.0
 30
0.0
 70
     1
  0
VERTEX
  5
1772
  8
SAPA_PROFIL
 62
     2
 10
19.300000093401358
 20
147.74999999590739
 30
0.0
 42
0.285714285714282
  0
VERTEX
  5
1773
  8
SAPA_PROFIL
 62
     2
 10
19.300000093401358
 20
150.54999999590731
 30
0.0
  0
VERTEX
  5
1774
  8
SAPA_PROFIL
 62
     2
 10
19.30000009340182
 20
152.62378016529519
 30
0.0
 42
-0.3882600129940275
  0
VERTEX
  5
1775
  8
SAPA_PROFIL
 62
     2
 10
19.573210819681378
 20
152.92258166263659
 30
0.0
  0
VERTEX
  5
1776
  8
SAPA_PROFIL
 62
     2
 10
23.473210819681469
 20
153.38879158656309
 30
0.0
 42
-0.4406523138893894
  0
VERTEX
  5
1777
  8
SAPA_PROFIL
 62
     2
 10
23.800000093401369
 20
153.0899900892212
 30
0.0
  0
VERTEX
  5
1778
  8
SAPA_PROFIL
 62
     2
 10
23.800000093401369
 20
151.3801980923009
 30
0.0
 42
-0.3394542588634375
  0
VERTEX
  5
1779
  8
SAPA_PROFIL
 62
     2
 10
23.57764580693237
 20
151.09042034441441
 30
0.0
  0
VERTEX
  5
177A
  8
SAPA_PROFIL
 62
     2
 10
23.360060024764781
 20
150.8880406164829
 30
0.0
 42
0.3394542588633663
  0
VERTEX
  5
177B
  8
SAPA_PROFIL
 62
     2
 10
23.137705738295779
 20
150.59826286859621
 30
0.0
  0
VERTEX
  5
177C
  8
SAPA_PROFIL
 62
     2
 10
23.137705738295779
 20
147.70173712321829
 30
0.0
 42
0.3394542588634373
  0
VERTEX
  5
177D
  8
SAPA_PROFIL
 62
     2
 10
23.360060024764781
 20
147.4119593753318
 30
0.0
  0
VERTEX
  5
177E
  8
SAPA_PROFIL
 62
     2
 10
23.57764580693237
 20
147.20957964740029
 30
0.0
 42
-0.3394542588633662
  0
VERTEX
  5
177F
  8
SAPA_PROFIL
 62
     2
 10
23.800000093401369
 20
146.91980189951349
 30
0.0
  0
VERTEX
  5
1780
  8
SAPA_PROFIL
 62
     2
 10
23.800000093401369
 20
145.21000990259341
 30
0.0
 42
-0.4406523138893994
  0
VERTEX
  5
1781
  8
SAPA_PROFIL
 62
     2
 10
23.473210819681469
 20
144.91120840525181
 30
0.0
  0
VERTEX
  5
1782
  8
SAPA_PROFIL
 62
     2
 10
19.573210819681378
 20
145.37741832917811
 30
0.0
 42
-0.3882600129940462
  0
VERTEX
  5
1783
  8
SAPA_PROFIL
 62
     2
 10
19.300000093401358
 20
145.67621982651951
 30
0.0
  0
VERTEX
  5
1784
  8
SAPA_PROFIL
 62
     2
 10
19.300000093401358
 20
147.738407619057
 30
0.0
  0
SEQEND
  5
1785
  8
SAPA_PROFIL
 62
     2
  0
POLYLINE
  5
F56
  8
SAPA_PROFIL
 66
     1
 10
0.0
 20
0.0
 30
0.0
 70
     1
  0
VERTEX
  5
1786
  8
SAPA_PROFIL
 10
66.000000003424375
 20
50.454990753069062
 30
0.0
  0
VERTEX
  5
1787
  8
SAPA_PROFIL
 10
66.000000003424375
 20
46.602204348568833
 30
0.0
 42
-0.4142135623731784
  0
VERTEX
  5
1788
  8
SAPA_PROFIL
 10
65.700000003424307
 20
46.302204348568679
 30
0.0
  0
VERTEX
  5
1789
  8
SAPA_PROFIL
 10
65.400000003423955
 20
46.30220434856885
 30
0.0
  0
VERTEX
  5
178A
  8
SAPA_PROFIL
 10
63.80000000342433
 20
47.225964779272253
 30
0.0
 42
0.5773502691887984
  0
VERTEX
  5
178B
  8
SAPA_PROFIL
 10
63.500000003424368
 20
47.052759698515217
 30
0.0
  0
VERTEX
  5
178C
  8
SAPA_PROFIL
 10
63.500000003424368
 20
45.667119052460251
 30
0.0
 42
0.2679491924311038
  0
VERTEX
  5
178D
  8
SAPA_PROFIL
 10
64.000000003424205
 20
44.801093648675817
 30
0.0
  0
VERTEX
  5
178E
  8
SAPA_PROFIL
 10
65.75000000081117
 20
43.790730679102637
 30
0.0
 42
-0.2679491932396976
  0
VERTEX
  5
178F
  8
SAPA_PROFIL
 10
66.000000000811198
 20
43.357717975701448
 30
0.0
  0
VERTEX
  5
1790
  8
SAPA_PROFIL
 10
66.000000000811241
 20
10.71961524227042
 30
0.0
  0
VERTEX
  5
1791
  8
SAPA_PROFIL
 10
66.300000000811238
 20
10.199999999999759
 30
0.0
  0
VERTEX
  5
1792
  8
SAPA_PROFIL
 10
66.000000000811241
 20
9.6803847577290867
 30
0.0
  0
VERTEX
  5
1793
  8
SAPA_PROFIL
 10
66.000000000811241
 20
9.3422820242977593
 30
0.0
 42
-0.2679491916226445
  0
VERTEX
  5
1794
  8
SAPA_PROFIL
 10
65.750000003424333
 20
8.9092693224054642
 30
0.0
  0
VERTEX
  5
1795
  8
SAPA_PROFIL
 10
64.000000003424333
 20
7.8989063513235456
 30
0.0
 42
0.2679491924311319
  0
VERTEX
  5
1796
  8
SAPA_PROFIL
 10
63.50000000342439
 20
7.0328809475391552
 30
0.0
  0
VERTEX
  5
1797
  8
SAPA_PROFIL
 10
63.50000000342439
 20
5.64724030148406
 30
0.0
 42
0.5773502691893683
  0
VERTEX
  5
1798
  8
SAPA_PROFIL
 10
63.800000003424337
 20
5.4740352207270462
 30
0.0
  0
VERTEX
  5
1799
  8
SAPA_PROFIL
 10
65.400000003424381
 20
6.3977956514305268
 30
0.0
  0
VERTEX
  5
179A
  8
SAPA_PROFIL
 10
65.700000003424321
 20
6.3977956514305268
 30
0.0
 42
-0.4142135623732059
  0
VERTEX
  5
179B
  8
SAPA_PROFIL
 10
66.00000000342439
 20
6.0977956514303449
 30
0.0
  0
VERTEX
  5
179C
  8
SAPA_PROFIL
 10
66.00000000342439
 20
2.245009246930223
 30
0.0
 42
0.2134217652834387
  0
VERTEX
  5
179D
  8
SAPA_PROFIL
 10
66.100000003424512
 20
2.021402449180115
 30
0.0
 42
-0.7625858545243238
  0
VERTEX
  5
179E
  8
SAPA_PROFIL
 10
65.915420801227029
 20
1.6910763681630949
 30
0.0
  0
VERTEX
  5
179F
  8
SAPA_PROFIL
 10
65.724037801233294
 20
1.749150005152188
 30
0.0
  0
VERTEX
  5
17A0
  8
SAPA_PROFIL
 10
63.838194109372253
 20
2.8337144521239281
 30
0.0
  0
VERTEX
  5
17A1
  8
SAPA_PROFIL
 10
63.848755475599233
 20
3.155472180342187
 30
0.0
 42
0.5773502691897466
  0
VERTEX
  5
17A2
  8
SAPA_PROFIL
 10
63.554599175344393
 20
3.3384259204523512
 30
0.0
  0
VERTEX
  5
17A3
  8
SAPA_PROFIL
 10
63.269916892112747
 20
3.1862920093436031
 30
0.0
 42
0.221694662643019
  0
VERTEX
  5
17A4
  8
SAPA_PROFIL
 10
62.864107986957961
 20
2.6454121778668021
 30
0.0
  0
VERTEX
  5
17A5
  8
SAPA_PROFIL
 10
62.482661390830252
 20
0.8321817072085622
 30
0.0
 42
0.476975532698164
  0
VERTEX
  5
17A6
  8
SAPA_PROFIL
 10
62.784914215336713
 20
0.4605248322626779
 30
0.0
  0
VERTEX
  5
17A7
  8
SAPA_PROFIL
 10
64.28801529609872
 20
0.4606084401463307
 30
0.0
  0
VERTEX
  5
17A8
  8
SAPA_PROFIL
 10
64.302533705345823
 20
0.5084541901448177
 30
0.0
 42
-0.4142135623730951
  0
VERTEX
  5
17A9
  8
SAPA_PROFIL
 10
64.676718660821635
 20
0.7084182346522141
 30
0.0
  0
VERTEX
  5
17AA
  8
SAPA_PROFIL
 10
65.992132380667016
 20
0.1999999999996049
 30
0.0
  0
VERTEX
  5
17AB
  8
SAPA_PROFIL
 10
68.990283241840544
 20
0.1999999999997612
 30
0.0
 42
0.2562769736732418
  0
VERTEX
  5
17AC
  8
SAPA_PROFIL
 10
69.158955746051902
 20
0.2925309983152147
 30
0.0
  0
VERTEX
  5
17AD
  8
SAPA_PROFIL
 10
69.953008752228513
 20
1.538796497472958
 30
0.0
 42
0.5920056181180006
  0
VERTEX
  5
17AE
  8
SAPA_PROFIL
 10
69.69999999591144
 20
1.9999999999996581
 30
0.0
  0
VERTEX
  5
17AF
  8
SAPA_PROFIL
 10
68.299999995911463
 20
1.9999999999996581
 30
0.0
 42
-0.4142135623731505
  0
VERTEX
  5
17B0
  8
SAPA_PROFIL
 10
67.999999995911423
 20
2.299999999999641
 30
0.0
  0
VERTEX
  5
17B1
  8
SAPA_PROFIL
 10
67.999999995911566
 20
4.6999999999995623
 30
0.0
 42
-0.4142135623729841
  0
VERTEX
  5
17B2
  8
SAPA_PROFIL
 10
68.299999995911463
 20
4.9999999999995728
 30
0.0
  0
VERTEX
  5
17B3
  8
SAPA_PROFIL
 10
85.699999995911526
 20
4.9999999999995524
 30
0.0
 42
-0.4142135623730882
  0
VERTEX
  5
17B4
  8
SAPA_PROFIL
 10
85.999999995911537
 20
4.6999999999995694
 30
0.0
  0
VERTEX
  5
17B5
  8
SAPA_PROFIL
 10
85.999999995911509
 20
2.299999999999478
 30
0.0
 42
-0.4142135623730118
  0
VERTEX
  5
17B6
  8
SAPA_PROFIL
 10
85.699999995911455
 20
1.999999999999666
 30
0.0
  0
VERTEX
  5
17B7
  8
SAPA_PROFIL
 10
84.299999995911435
 20
1.999999999999666
 30
0.0
 42
0.5877032589249656
  0
VERTEX
  5
17B8
  8
SAPA_PROFIL
 10
84.044953778601325
 20
1.542039792872067
 30
0.0
  0
VERTEX
  5
17B9
  8
SAPA_PROFIL
 10
84.941352755843525
 20
0.0946931952477499
 30
0.0
 42
0.2596812337301635
  0
VERTEX
  5
17BA
  8
SAPA_PROFIL
 10
85.111383567383626
 20
-0.0000000000004192
 30
0.0
  0
VERTEX
  5
17BB
  8
SAPA_PROFIL
 10
87.80000000074304
 20
-0.0000000000004192
 30
0.0
 42
0.4142135623732095
  0
VERTEX
  5
17BC
  8
SAPA_PROFIL
 10
88.000000000743029
 20
0.1999999999995694
 30
0.0
  0
VERTEX
  5
17BD
  8
SAPA_PROFIL
 10
88.000000000743029
 20
43.00000149414975
 30
0.0
 42
0.4142135623730067
  0
VERTEX
  5
17BE
  8
SAPA_PROFIL
 10
86.000001494893525
 20
44.999999999999737
 30
0.0
  0
VERTEX
  5
17BF
  8
SAPA_PROFIL
 10
80.299999253668105
 20
44.999999999999737
 30
0.0
 42
-0.4142135623729993
  0
VERTEX
  5
17C0
  8
SAPA_PROFIL
 10
79.300000000743012
 20
45.999999252924752
 30
0.0
  0
VERTEX
  5
17C1
  8
SAPA_PROFIL
 10
79.300000000743111
 20
53.501018999999843
 30
0.0
 42
0.4142135623730951
  0
VERTEX
  5
17C2
  8
SAPA_PROFIL
 10
78.300000000743097
 20
54.501018999999751
 30
0.0
  0
VERTEX
  5
17C3
  8
SAPA_PROFIL
 10
77.80222485132812
 20
54.501018999999751
 30
0.0
 42
0.4142135623729598
  0
VERTEX
  5
17C4
  8
SAPA_PROFIL
 10
77.602225000743019
 20
54.301019149414742
 30
0.0
  0
VERTEX
  5
17C5
  8
SAPA_PROFIL
 10
77.602225000743104
 20
52.70316843682108
 30
0.0
 42
-0.414645992438811
  0
VERTEX
  5
17C6
  8
SAPA_PROFIL
 10
77.401929764282571
 20
52.503168654732612
 30
0.0
  0
VERTEX
  5
17C7
  8
SAPA_PROFIL
 10
65.996303437442236
 20
52.50161214779073
 30
0.0
  0
VERTEX
  5
17C8
  8
SAPA_PROFIL
 10
64.676718660821635
 20
51.991581765347433
 30
0.0
 42
-0.4142135623730951
  0
VERTEX
  5
17C9
  8
SAPA_PROFIL
 10
64.302533705345823
 20
52.19154580985483
 30
0.0
  0
VERTEX
  5
17CA
  8
SAPA_PROFIL
 10
64.28801529609872
 20
52.23939155985331
 30
0.0
  0
VERTEX
  5
17CB
  8
SAPA_PROFIL
 10
62.784914215336713
 20
52.239475167736948
 30
0.0
 42
0.4769755326981641
  0
VERTEX
  5
17CC
  8
SAPA_PROFIL
 10
62.482661390830252
 20
51.8678182927911
 30
0.0
  0
VERTEX
  5
17CD
  8
SAPA_PROFIL
 10
62.864107986957961
 20
50.054587822132852
 30
0.0
 42
0.2216946626430191
  0
VERTEX
  5
17CE
  8
SAPA_PROFIL
 10
63.269916892112761
 20
49.513707990656059
 30
0.0
  0
VERTEX
  5
17CF
  8
SAPA_PROFIL
 10
63.554599175344407
 20
49.361574079547282
 30
0.0
 42
0.5773502691897466
  0
VERTEX
  5
17D0
  8
SAPA_PROFIL
 10
63.848755475599212
 20
49.544527819657482
 30
0.0
  0
VERTEX
  5
17D1
  8
SAPA_PROFIL
 10
63.838194109372253
 20
49.866285547875712
 30
0.0
  0
VERTEX
  5
17D2
  8
SAPA_PROFIL
 10
65.724037801233294
 20
50.950849994847459
 30
0.0
  0
VERTEX
  5
17D3
  8
SAPA_PROFIL
 10
65.915420801227029
 20
51.008923631836531
 30
0.0
 42
-0.7625858545243257
  0
VERTEX
  5
17D4
  8
SAPA_PROFIL
 10
66.100000003424512
 20
50.678597550819539
 30
0.0
 42
0.2134217652834391
  0
SEQEND
  5
17D5
  8
SAPA_PROFIL
  0
POLYLINE
  5
F57
  8
SAPA_PROFIL
 66
     1
 10
0.0
 20
0.0
 30
0.0
 70
     1
  0
VERTEX
  5
17D6
  8
SAPA_PROFIL
 10
86.000000003961205
 20
42.999999999999737
 30
0.0
  0
VERTEX
  5
17D7
  8
SAPA_PROFIL
 10
86.000000003961205
 20
40.99999999999973
 30
0.0
  0
VERTEX
  5
17D8
  8
SAPA_PROFIL
 10
85.900000003961296
 20
40.999999999999822
 30
0.0
 42
0.4142135623732199
  0
VERTEX
  5
17D9
  8
SAPA_PROFIL
 10
85.700000003961222
 20
40.799999999999827
 30
0.0
  0
VERTEX
  5
17DA
  8
SAPA_PROFIL
 10
85.700000003961108
 20
39.199999999999839
 30
0.0
 42
0.4142135623727933
  0
VERTEX
  5
17DB
  8
SAPA_PROFIL
 10
85.900000003960997
 20
38.999999999999737
 30
0.0
  0
VERTEX
  5
17DC
  8
SAPA_PROFIL
 10
86.000000003961205
 20
38.999999999999737
 30
0.0
  0
VERTEX
  5
17DD
  8
SAPA_PROFIL
 10
86.000000003961205
 20
10.69999999999977
 30
0.0
  0
VERTEX
  5
17DE
  8
SAPA_PROFIL
 10
85.900000003961225
 20
10.699999999999539
 30
0.0
 42
0.4142135623730847
  0
VERTEX
  5
17DF
  8
SAPA_PROFIL
 10
85.700000003961236
 20
10.49999999999954
 30
0.0
  0
VERTEX
  5
17E0
  8
SAPA_PROFIL
 10
85.700000003961335
 20
8.899999999999558
 30
0.0
 42
0.4142135623730847
  0
VERTEX
  5
17E1
  8
SAPA_PROFIL
 10
85.900000003961225
 20
8.6999999999996689
 30
0.0
  0
VERTEX
  5
17E2
  8
SAPA_PROFIL
 10
86.000000003961205
 20
8.6999999999996689
 30
0.0
  0
VERTEX
  5
17E3
  8
SAPA_PROFIL
 10
86.000000003961205
 20
6.9999999999995657
 30
0.0
 42
-0.4142135623730675
  0
VERTEX
  5
17E4
  8
SAPA_PROFIL
 10
85.700000003961236
 20
6.6999999999997684
 30
0.0
  0
VERTEX
  5
17E5
  8
SAPA_PROFIL
 10
68.100000003961242
 20
6.6999999999997613
 30
0.0
 42
-0.4142135623730673
  0
VERTEX
  5
17E6
  8
SAPA_PROFIL
 10
67.800000003961273
 20
6.9999999999995728
 30
0.0
  0
VERTEX
  5
17E7
  8
SAPA_PROFIL
 10
67.800000003961273
 20
8.6999999999998323
 30
0.0
  0
VERTEX
  5
17E8
  8
SAPA_PROFIL
 10
68.100000003961284
 20
8.6999999999995907
 30
0.0
 42
0.4142135623731367
  0
VERTEX
  5
17E9
  8
SAPA_PROFIL
 10
68.300000003961287
 20
8.8999999999997481
 30
0.0
  0
VERTEX
  5
17EA
  8
SAPA_PROFIL
 10
68.300000003961344
 20
10.499999999999529
 30
0.0
 42
0.4142135623732407
  0
VERTEX
  5
17EB
  8
SAPA_PROFIL
 10
68.100000003961114
 20
10.69999999999964
 30
0.0
  0
VERTEX
  5
17EC
  8
SAPA_PROFIL
 10
67.80000000396123
 20
10.699999999999561
 30
0.0
  0
VERTEX
  5
17ED
  8
SAPA_PROFIL
 10
67.800000003961216
 20
38.999999999999929
 30
0.0
  0
VERTEX
  5
17EE
  8
SAPA_PROFIL
 10
68.100000003961284
 20
38.999999999999758
 30
0.0
 42
0.4142135623732199
  0
VERTEX
  5
17EF
  8
SAPA_PROFIL
 10
68.300000003961273
 20
39.199999999999832
 30
0.0
  0
VERTEX
  5
17F0
  8
SAPA_PROFIL
 10
68.300000003961173
 20
40.799999999999827
 30
0.0
 42
0.4142135623733448
  0
VERTEX
  5
17F1
  8
SAPA_PROFIL
 10
68.100000003961114
 20
40.999999999999723
 30
0.0
  0
VERTEX
  5
17F2
  8
SAPA_PROFIL
 10
67.800000003961273
 20
40.999999999999723
 30
0.0
  0
VERTEX
  5
17F3
  8
SAPA_PROFIL
 10
67.800000003961273
 20
50.499999999999531
 30
0.0
 42
-0.4142135623732061
  0
VERTEX
  5
17F4
  8
SAPA_PROFIL
 10
68.100000003961284
 20
50.799999999999621
 30
0.0
  0
VERTEX
  5
17F5
  8
SAPA_PROFIL
 10
77.300000000743111
 20
50.799999999999628
 30
0.0
 42
-0.4142135623732059
  0
VERTEX
  5
17F6
  8
SAPA_PROFIL
 10
77.600000000743094
 20
50.499999999999538
 30
0.0
  0
VERTEX
  5
17F7
  8
SAPA_PROFIL
 10
77.600000000743094
 20
45.999999252924837
 30
0.0
 42
0.414213562373052
  0
VERTEX
  5
17F8
  8
SAPA_PROFIL
 10
80.299999253667934
 20
43.299999999999827
 30
0.0
  0
VERTEX
  5
17F9
  8
SAPA_PROFIL
 10
85.700000003961222
 20
43.299999999999827
 30
0.0
 42
-0.4142135623732891
  0
SEQEND
  5
17FA
  8
SAPA_PROFIL
  0
POLYLINE
  5
F58
  8
SAPA_PROFIL
 66
     1
 10
0.0
 20
0.0
 30
0.1
 70
     1
  0
VERTEX
  5
17FB
  8
SAPA_PROFIL
 10
38.00000000350677
 20
44.799617468676018
 30
0.1
 42
0.2679491924311119
  0
VERTEX
  5
17FC
  8
SAPA_PROFIL
 10
38.500000003506671
 20
45.665642872460332
 30
0.1
  0
VERTEX
  5
17FD
  8
SAPA_PROFIL
 10
38.500000003506557
 20
47.051283518515447
 30
0.1
 42
0.5773502691897603
  0
VERTEX
  5
17FE
  8
SAPA_PROFIL
 10
38.200000003506602
 20
47.224488599272242
 30
0.1
  0
VERTEX
  5
17FF
  8
SAPA_PROFIL
 10
36.600000003506921
 20
46.300728168568931
 30
0.1
  0
VERTEX
  5
1800
  8
SAPA_PROFIL
 10
36.300000003506739
 20
46.300728168568931
 30
0.1
 42
-0.4142135623728995
  0
VERTEX
  5
1801
  8
SAPA_PROFIL
 10
36.000000003506671
 20
46.60072816856885
 30
0.1
  0
VERTEX
  5
1802
  8
SAPA_PROFIL
 10
36.000000003506727
 20
50.453514573068929
 30
0.1
 42
0.2134217652834313
  0
VERTEX
  5
1803
  8
SAPA_PROFIL
 10
35.900000003506612
 20
50.677121370819009
 30
0.1
 42
-0.7625858545243313
  0
VERTEX
  5
1804
  8
SAPA_PROFIL
 10
36.084579205704067
 20
51.00744745183605
 30
0.1
  0
VERTEX
  5
1805
  8
SAPA_PROFIL
 10
36.275962205697802
 20
50.949373814846957
 30
0.1
  0
VERTEX
  5
1806
  8
SAPA_PROFIL
 10
38.16180589755885
 20
49.864809367875218
 30
0.1
  0
VERTEX
  5
1807
  8
SAPA_PROFIL
 10
38.151244531331862
 20
49.543051639656937
 30
0.1
 42
0.5773502691897454
  0
VERTEX
  5
1808
  8
SAPA_PROFIL
 10
38.44540083158671
 20
49.360097899546787
 30
0.1
  0
VERTEX
  5
1809
  8
SAPA_PROFIL
 10
38.730083114818363
 20
49.512231810655528
 30
0.1
 42
0.2216946626430149
  0
VERTEX
  5
180A
  8
SAPA_PROFIL
 10
39.135892019973141
 20
50.053111642132343
 30
0.1
  0
VERTEX
  5
180B
  8
SAPA_PROFIL
 10
39.517338616100858
 20
51.866342112790569
 30
0.1
 42
0.476975532698164
  0
VERTEX
  5
180C
  8
SAPA_PROFIL
 10
39.21508579159439
 20
52.237998987736468
 30
0.1
  0
VERTEX
  5
180D
  8
SAPA_PROFIL
 10
37.711984710832382
 20
52.237915379852808
 30
0.1
  0
VERTEX
  5
180E
  8
SAPA_PROFIL
 10
37.69746630158528
 20
52.190069629854321
 30
0.1
 42
-0.4142135623730875
  0
VERTEX
  5
180F
  8
SAPA_PROFIL
 10
37.323281346109468
 20
51.990105585346932
 30
0.1
  0
VERTEX
  5
1810
  8
SAPA_PROFIL
 10
36.004048344347439
 20
52.500000003910657
 30
0.1
  0
VERTEX
  5
1811
  8
SAPA_PROFIL
 10
16.268521606850591
 20
52.500000003910657
 30
0.1
 42
-0.3821712090170728
  0
VERTEX
  5
1812
  8
SAPA_PROFIL
 10
15.97035541174867
 20
52.766880219816422
 30
0.1
  0
VERTEX
  5
1813
  8
SAPA_PROFIL
 10
15.444515876783671
 20
59.344851003910641
 30
0.1
 42
-0.4469990000000183
  0
VERTEX
  5
1814
  8
SAPA_PROFIL
 10
15.94145987678368
 20
59.900051003910619
 30
0.1
  0
VERTEX
  5
1815
  8
SAPA_PROFIL
 10
17.70000000350668
 20
59.900051003910662
 30
0.1
 42
0.414213999999998
  0
VERTEX
  5
1816
  8
SAPA_PROFIL
 10
18.700000003506691
 20
60.900051003910633
 30
0.1
  0
VERTEX
  5
1817
  8
SAPA_PROFIL
 10
18.70000000350667
 20
61.167595003910641
 30
0.1
 42
0.2896899999999924
  0
VERTEX
  5
1818
  8
SAPA_PROFIL
 10
18.128572003506669
 20
62.071103003910679
 30
0.1
 42
0.5507599999999715
  0
VERTEX
  5
1819
  8
SAPA_PROFIL
 10
17.70000000350668
 20
61.80005100391066
 30
0.1
  0
VERTEX
  5
181A
  8
SAPA_PROFIL
 10
17.700000003506691
 20
61.500051003910677
 30
0.1
 42
-0.4142140000001125
  0
VERTEX
  5
181B
  8
SAPA_PROFIL
 10
17.500000003506671
 20
61.30005100391066
 30
0.1
  0
VERTEX
  5
181C
  8
SAPA_PROFIL
 10
16.400000003506651
 20
61.30005100391066
 30
0.1
 42
-0.4142139999999939
  0
VERTEX
  5
181D
  8
SAPA_PROFIL
 10
15.40000000350665
 20
62.30005100391066
 30
0.1
  0
VERTEX
  5
181E
  8
SAPA_PROFIL
 10
15.40000000350665
 20
64.600000003910623
 30
0.1
 42
-0.4142139999999918
  0
VERTEX
  5
181F
  8
SAPA_PROFIL
 10
16.400000003506651
 20
65.600000003910623
 30
0.1
  0
VERTEX
  5
1820
  8
SAPA_PROFIL
 10
17.500000003506671
 20
65.600000003910651
 30
0.1
 42
-0.4142139999999378
  0
VERTEX
  5
1821
  8
SAPA_PROFIL
 10
17.70000000350668
 20
65.400000003910634
 30
0.1
  0
VERTEX
  5
1822
  8
SAPA_PROFIL
 10
17.700000003506709
 20
65.100051003910664
 30
0.1
 42
0.5507599999999796
  0
VERTEX
  5
1823
  8
SAPA_PROFIL
 10
18.128572003506651
 20
64.828998003910641
 30
0.1
 42
0.2896900000000027
  0
VERTEX
  5
1824
  8
SAPA_PROFIL
 10
18.700000003506691
 20
65.732506003910657
 30
0.1
  0
VERTEX
  5
1825
  8
SAPA_PROFIL
 10
18.700000003506659
 20
66.000000003910657
 30
0.1
 42
0.4142140000000064
  0
VERTEX
  5
1826
  8
SAPA_PROFIL
 10
17.70000000350668
 20
67.000000003910657
 30
0.1
  0
VERTEX
  5
1827
  8
SAPA_PROFIL
 10
16.000000003506681
 20
67.0000000039106
 30
0.1
 42
0.4142139999999918
  0
VERTEX
  5
1828
  8
SAPA_PROFIL
 10
14.000000003506671
 20
65.000000003910657
 30
0.1
  0
VERTEX
  5
1829
  8
SAPA_PROFIL
 10
14.00000000350675
 20
-21.499999996089301
 30
0.1
 42
0.414213999999996
  0
VERTEX
  5
182A
  8
SAPA_PROFIL
 10
14.50000000350672
 20
-21.999999996089301
 30
0.1
  0
VERTEX
  5
182B
  8
SAPA_PROFIL
 10
18.200000003506709
 20
-21.999999996089208
 30
0.1
 42
0.4142139999999107
  0
VERTEX
  5
182C
  8
SAPA_PROFIL
 10
18.500000003506688
 20
-21.69999999608936
 30
0.1
  0
VERTEX
  5
182D
  8
SAPA_PROFIL
 10
18.500000003506699
 20
-20.932454996089309
 30
0.1
 42
0.2896899999999864
  0
VERTEX
  5
182E
  8
SAPA_PROFIL
 10
17.928572003506719
 20
-20.028946996089331
 30
0.1
 42
0.5507600000000558
  0
VERTEX
  5
182F
  8
SAPA_PROFIL
 10
17.500000003506688
 20
-20.299999996089308
 30
0.1
  0
VERTEX
  5
1830
  8
SAPA_PROFIL
 10
17.500000003506688
 20
-20.499999996089301
 30
0.1
 42
-0.414214000000073
  0
VERTEX
  5
1831
  8
SAPA_PROFIL
 10
17.200000003506709
 20
-20.799999996089308
 30
0.1
  0
VERTEX
  5
1832
  8
SAPA_PROFIL
 10
15.700000003506711
 20
-20.799999996089308
 30
0.1
 42
-0.414213999999996
  0
VERTEX
  5
1833
  8
SAPA_PROFIL
 10
15.200000003506711
 20
-20.299999996089308
 30
0.1
  0
VERTEX
  5
1834
  8
SAPA_PROFIL
 10
15.200000003506711
 20
-16.999999996089269
 30
0.1
 42
-0.4142140000000002
  0
VERTEX
  5
1835
  8
SAPA_PROFIL
 10
15.700000003506711
 20
-16.499999996089262
 30
0.1
  0
VERTEX
  5
1836
  8
SAPA_PROFIL
 10
17.200000003506709
 20
-16.499999996089262
 30
0.1
 42
-0.4142140000000209
  0
VERTEX
  5
1837
  8
SAPA_PROFIL
 10
17.500000003506688
 20
-16.799999996089351
 30
0.1
  0
VERTEX
  5
1838
  8
SAPA_PROFIL
 10
17.500000003506631
 20
-16.999999996089262
 30
0.1
 42
0.5507600000000054
  0
VERTEX
  5
1839
  8
SAPA_PROFIL
 10
17.92857200350673
 20
-17.27105199608933
 30
0.1
 42
0.2896899999999876
  0
VERTEX
  5
183A
  8
SAPA_PROFIL
 10
18.500000003506699
 20
-16.367543996089349
 30
0.1
  0
VERTEX
  5
183B
  8
SAPA_PROFIL
 10
18.500000003506681
 20
-15.37007299608935
 30
0.1
 42
0.0436609999999812
  0
VERTEX
  5
183C
  8
SAPA_PROFIL
 10
18.492404003506689
 20
-15.28324799608936
 30
0.1
  0
VERTEX
  5
183D
  8
SAPA_PROFIL
 10
18.215558003506679
 20
-13.71317599608936
 30
0.1
 42
0.839099999999979
  0
VERTEX
  5
183E
  8
SAPA_PROFIL
 10
17.230750003506689
 20
-13.71317599608936
 30
0.1
  0
VERTEX
  5
183F
  8
SAPA_PROFIL
 10
17.023805003506698
 20
-14.88682399608936
 30
0.1
 42
-0.363970000000042
  0
VERTEX
  5
1840
  8
SAPA_PROFIL
 10
16.53140100350668
 20
-15.299999996089349
 30
0.1
  0
VERTEX
  5
1841
  8
SAPA_PROFIL
 10
15.72000000350671
 20
-15.29999999608934
 30
0.1
 42
-0.4373279999999794
  0
VERTEX
  5
1842
  8
SAPA_PROFIL
 10
15.221531003506691
 20
-14.76090499608935
 30
0.1
  0
VERTEX
  5
1843
  8
SAPA_PROFIL
 10
15.78832948990255
 20
-0.287846722672981
 30
0.1
 42
-0.4023941355298093
  0
VERTEX
  5
1844
  8
SAPA_PROFIL
 10
16.088083218728869
 20
0.000000003910742
 30
0.1
  0
VERTEX
  5
1845
  8
SAPA_PROFIL
 10
16.888617003506699
 20
0.0000000039107135
 30
0.1
 42
0.2596810000001062
  0
VERTEX
  5
1846
  8
SAPA_PROFIL
 10
17.05864800350669
 20
0.0946930039107486
 30
0.1
  0
VERTEX
  5
1847
  8
SAPA_PROFIL
 10
17.955047003506781
 20
1.542040003910585
 30
0.1
 42
0.5877030000000574
  0
VERTEX
  5
1848
  8
SAPA_PROFIL
 10
17.700000003506641
 20
2.0000000039107411
 30
0.1
  0
VERTEX
  5
1849
  8
SAPA_PROFIL
 10
16.300000003506689
 20
2.0000000039107411
 30
0.1
 42
-0.4142139999999773
  0
VERTEX
  5
184A
  8
SAPA_PROFIL
 10
16.000000003506681
 20
2.3000000039106392
 30
0.1
  0
VERTEX
  5
184B
  8
SAPA_PROFIL
 10
16.000000003506681
 20
4.7000000039106453
 30
0.1
 42
-0.4142140000000855
  0
VERTEX
  5
184C
  8
SAPA_PROFIL
 10
16.300000003506689
 20
5.0000000039107411
 30
0.1
  0
VERTEX
  5
184D
  8
SAPA_PROFIL
 10
33.70000000350668
 20
5.0000000039107446
 30
0.1
 42
-0.4142140000001167
  0
VERTEX
  5
184E
  8
SAPA_PROFIL
 10
34.000000003506692
 20
4.700000003910648
 30
0.1
  0
VERTEX
  5
184F
  8
SAPA_PROFIL
 10
34.000000003506692
 20
2.3000000039106432
 30
0.1
 42
-0.4142140000000127
  0
VERTEX
  5
1850
  8
SAPA_PROFIL
 10
33.70000000350668
 20
2.0000000039107451
 30
0.1
  0
VERTEX
  5
1851
  8
SAPA_PROFIL
 10
32.300000003506703
 20
2.0000000039107451
 30
0.1
 42
0.5920054160710117
  0
VERTEX
  5
1852
  8
SAPA_PROFIL
 10
32.04699149074893
 20
1.5387966657958461
 30
0.1
  0
VERTEX
  5
1853
  8
SAPA_PROFIL
 10
32.841044520570577
 20
0.2925310095828912
 30
0.1
 42
0.2562769852931595
  0
VERTEX
  5
1854
  8
SAPA_PROFIL
 10
33.009717029469201
 20
0.2000000039107341
 30
0.1
  0
VERTEX
  5
1855
  8
SAPA_PROFIL
 10
36.004048344347737
 20
0.2000000039107341
 30
0.1
  0
VERTEX
  5
1856
  8
SAPA_PROFIL
 10
37.323281346109432
 20
0.7098944224743528
 30
0.1
 42
-0.4142135623730875
  0
VERTEX
  5
1857
  8
SAPA_PROFIL
 10
37.697466301585237
 20
0.5099303779669562
 30
0.1
  0
VERTEX
  5
1858
  8
SAPA_PROFIL
 10
37.71198471083234
 20
0.4620846279684692
 30
0.1
  0
VERTEX
  5
1859
  8
SAPA_PROFIL
 10
39.215085791594348
 20
0.4620010200848484
 30
0.1
 42
0.4769755326981641
  0
VERTEX
  5
185A
  8
SAPA_PROFIL
 10
39.517338616100822
 20
0.83365789503069
 30
0.1
  0
VERTEX
  5
185B
  8
SAPA_PROFIL
 10
39.13589201997312
 20
2.646888365688973
 30
0.1
 42
0.2216946626430149
  0
VERTEX
  5
185C
  8
SAPA_PROFIL
 10
38.730083114818292
 20
3.187768197165731
 30
0.1
  0
VERTEX
  5
185D
  8
SAPA_PROFIL
 10
38.44540083158666
 20
3.3399021082744929
 30
0.1
 42
0.5773502691897454
  0
VERTEX
  5
185E
  8
SAPA_PROFIL
 10
38.151244531331827
 20
3.156948368164314
 30
0.1
  0
VERTEX
  5
185F
  8
SAPA_PROFIL
 10
38.1618058975588
 20
2.8351906399460698
 30
0.1
  0
VERTEX
  5
1860
  8
SAPA_PROFIL
 10
36.27596220569778
 20
1.7506261929743261
 30
0.1
  0
VERTEX
  5
1861
  8
SAPA_PROFIL
 10
36.08457920570406
 20
1.692552555985233
 30
0.1
 42
-0.7625858545243333
  0
VERTEX
  5
1862
  8
SAPA_PROFIL
 10
35.90000000350657
 20
2.0228786370022389
 30
0.1
 42
0.2134217652834462
  0
VERTEX
  5
1863
  8
SAPA_PROFIL
 10
36.000000003506678
 20
2.2464854347523762
 30
0.1
  0
VERTEX
  5
1864
  8
SAPA_PROFIL
 10
36.000000003506678
 20
6.0992718392524843
 30
0.1
 42
-0.4142135623729119
  0
VERTEX
  5
1865
  8
SAPA_PROFIL
 10
36.300000003506753
 20
6.3992718392523811
 30
0.1
  0
VERTEX
  5
1866
  8
SAPA_PROFIL
 10
36.600000003506928
 20
6.3992718392523811
 30
0.1
  0
VERTEX
  5
1867
  8
SAPA_PROFIL
 10
38.200000003506553
 20
5.47551140854896
 30
0.1
 42
0.5773502691897497
  0
VERTEX
  5
1868
  8
SAPA_PROFIL
 10
38.500000003506678
 20
5.648716489305861
 30
0.1
  0
VERTEX
  5
1869
  8
SAPA_PROFIL
 10
38.500000003506848
 20
7.0343571353609837
 30
0.1
 42
0.2679491924311136
  0
VERTEX
  5
186A
  8
SAPA_PROFIL
 10
38.000000003506848
 20
7.9003825391454292
 30
0.1
  0
VERTEX
  5
186B
  8
SAPA_PROFIL
 10
36.250000003506649
 20
8.9107455102275175
 30
0.1
 42
-0.2679491924310958
  0
VERTEX
  5
186C
  8
SAPA_PROFIL
 10
36.000000003506678
 20
9.3437582121197273
 30
0.1
  0
VERTEX
  5
186D
  8
SAPA_PROFIL
 10
36.000000003506678
 20
9.6803847616400862
 30
0.1
  0
VERTEX
  5
186E
  8
SAPA_PROFIL
 10
35.700000003506688
 20
10.200000003910761
 30
0.1
  0
VERTEX
  5
186F
  8
SAPA_PROFIL
 10
36.000000003506678
 20
10.71961524618141
 30
0.1
  0
VERTEX
  5
1870
  8
SAPA_PROFIL
 10
36.000000003506671
 20
43.356241795701578
 30
0.1
 42
-0.2679491924311033
  0
VERTEX
  5
1871
  8
SAPA_PROFIL
 10
36.250000003506642
 20
43.789254497593788
 30
0.1
  0
SEQEND
  5
1872
  8
SAPA_PROFIL
  0
POLYLINE
  5
F59
  8
SAPA_PROFIL
 66
     1
 10
0.0
 20
0.0
 30
0.1
 70
     1
  0
VERTEX
  5
1873
  8
SAPA_PROFIL
 10
33.70000000350668
 20
8.9000000039106375
 30
0.1
  0
VERTEX
  5
1874
  8
SAPA_PROFIL
 10
33.70000000350668
 20
10.50000000391066
 30
0.1
 42
-0.4142135623730951
  0
VERTEX
  5
1875
  8
SAPA_PROFIL
 10
33.90000000350669
 20
10.700000003910651
 30
0.1
  0
VERTEX
  5
1876
  8
SAPA_PROFIL
 10
34.200000087380012
 20
10.700000003910651
 30
0.1
  0
VERTEX
  5
1877
  8
SAPA_PROFIL
 10
34.200000087379998
 20
46.800000003910668
 30
0.1
  0
VERTEX
  5
1878
  8
SAPA_PROFIL
 10
33.900000003506683
 20
46.800000003910668
 30
0.1
 42
-0.4142135623730951
  0
VERTEX
  5
1879
  8
SAPA_PROFIL
 10
33.700000003506673
 20
47.000000003910657
 30
0.1
  0
VERTEX
  5
187A
  8
SAPA_PROFIL
 10
33.700000003506673
 20
48.600000003910679
 30
0.1
 42
-0.4142135623730951
  0
VERTEX
  5
187B
  8
SAPA_PROFIL
 10
33.900000003506683
 20
48.800000003910668
 30
0.1
  0
VERTEX
  5
187C
  8
SAPA_PROFIL
 10
34.200000087379998
 20
48.800000003910668
 30
0.1
  0
VERTEX
  5
187D
  8
SAPA_PROFIL
 10
34.200000087380019
 20
50.500000003910657
 30
0.1
 42
0.4142135623730951
  0
VERTEX
  5
187E
  8
SAPA_PROFIL
 10
33.900000087380008
 20
50.800000003910668
 30
0.1
  0
VERTEX
  5
187F
  8
SAPA_PROFIL
 10
16.300000003506678
 20
50.800000003910668
 30
0.1
 42
0.4142135623730951
  0
VERTEX
  5
1880
  8
SAPA_PROFIL
 10
16.000000003506681
 20
50.500000003910657
 30
0.1
  0
VERTEX
  5
1881
  8
SAPA_PROFIL
 10
16.000000003506681
 20
48.800000003910668
 30
0.1
  0
VERTEX
  5
1882
  8
SAPA_PROFIL
 10
16.100000003506711
 20
48.800000003910668
 30
0.1
 42
-0.4142135623730951
  0
VERTEX
  5
1883
  8
SAPA_PROFIL
 10
16.300000003506678
 20
48.600000003910679
 30
0.1
  0
VERTEX
  5
1884
  8
SAPA_PROFIL
 10
16.300000003506678
 20
47.000000003910657
 30
0.1
 42
-0.4142135623730951
  0
VERTEX
  5
1885
  8
SAPA_PROFIL
 10
16.100000003506711
 20
46.800000003910668
 30
0.1
  0
VERTEX
  5
1886
  8
SAPA_PROFIL
 10
16.000000003506681
 20
46.800000003910668
 30
0.1
  0
VERTEX
  5
1887
  8
SAPA_PROFIL
 10
16.000000003506681
 20
10.70000000391064
 30
0.1
  0
VERTEX
  5
1888
  8
SAPA_PROFIL
 10
16.100000003506711
 20
10.70000000391064
 30
0.1
 42
-0.4142135623730951
  0
VERTEX
  5
1889
  8
SAPA_PROFIL
 10
16.300000003506689
 20
10.50000000391065
 30
0.1
  0
VERTEX
  5
188A
  8
SAPA_PROFIL
 10
16.300000003506689
 20
8.9000000039106322
 30
0.1
 42
-0.4142135623730951
  0
VERTEX
  5
188B
  8
SAPA_PROFIL
 10
16.100000003506711
 20
8.7000000039106453
 30
0.1
  0
VERTEX
  5
188C
  8
SAPA_PROFIL
 10
16.000000003506681
 20
8.7000000039106453
 30
0.1
  0
VERTEX
  5
188D
  8
SAPA_PROFIL
 10
16.000000003506699
 20
7.0000000039106283
 30
0.1
 42
0.4142135623730951
  0
VERTEX
  5
188E
  8
SAPA_PROFIL
 10
16.300000003506689
 20
6.7000000039106453
 30
0.1
  0
VERTEX
  5
188F
  8
SAPA_PROFIL
 10
33.900000087380022
 20
6.7000000039106196
 30
0.1
 42
0.4142135623730951
  0
VERTEX
  5
1890
  8
SAPA_PROFIL
 10
34.200000087380012
 20
7.0000000039106309
 30
0.1
  0
VERTEX
  5
1891
  8
SAPA_PROFIL
 10
34.200000087380012
 20
8.7000000039106489
 30
0.1
  0
VERTEX
  5
1892
  8
SAPA_PROFIL
 10
33.90000000350669
 20
8.7000000039106489
 30
0.1
 42
-0.4142135623730951
  0
SEQEND
  5
1893
  8
SAPA_PROFIL
  0
POLYLINE
  5
F5A
  8
SAPA_PROFIL
 62
     4
 66
     1
 10
0.0
 20
0.0
 30
0.0
 70
     1
  0
VERTEX
  5
1894
  8
SAPA_PROFIL
 62
     4
 10
39.03777847397636
 20
3.1688341399292388
 30
0.0
 42
-0.3137019356282051
  0
VERTEX
  5
1895
  8
SAPA_PROFIL
 62
     4
 10
39.318728257522672
 20
2.97120851439582
 30
0.0
  0
VERTEX
  5
1896
  8
SAPA_PROFIL
 62
     4
 10
40.204205970393851
 20
0.5383784928517992
 30
0.0
 42
0.3152987888779321
  0
VERTEX
  5
1897
  8
SAPA_PROFIL
 62
     4
 10
40.580083018710262
 20
0.2751865501820784
 30
0.0
  0
VERTEX
  5
1898
  8
SAPA_PROFIL
 62
     4
 10
51.000000003424368
 20
0.2751865501821091
 30
0.0
  0
VERTEX
  5
1899
  8
SAPA_PROFIL
 62
     4
 10
61.419916988142482
 20
0.2751865501821683
 30
0.0
 42
0.3152987888779395
  0
VERTEX
  5
189A
  8
SAPA_PROFIL
 62
     4
 10
61.795794036454829
 20
0.5383784928518894
 30
0.0
  0
VERTEX
  5
189B
  8
SAPA_PROFIL
 62
     4
 10
62.681271749323017
 20
2.9712085143875822
 30
0.0
 42
-0.3138982169096283
  0
VERTEX
  5
189C
  8
SAPA_PROFIL
 62
     4
 10
62.962221532837212
 20
3.1688341399279358
 30
0.0
 42
-0.0157923906855865
  0
VERTEX
  5
189D
  8
SAPA_PROFIL
 62
     4
 10
63.313680065176058
 20
3.1722372695675318
 30
0.0
  0
VERTEX
  5
189E
  8
SAPA_PROFIL
 62
     4
 10
63.553863129958337
 20
3.310907026674057
 30
0.0
 42
-0.5773502691889272
  0
VERTEX
  5
189F
  8
SAPA_PROFIL
 62
     4
 10
63.868863129958051
 20
3.1290416918792641
 30
0.0
  0
VERTEX
  5
18A0
  8
SAPA_PROFIL
 62
     4
 10
63.868863129958171
 20
2.8619271636663499
 30
0.0
  0
VERTEX
  5
18A1
  8
SAPA_PROFIL
 62
     4
 10
64.200000003424364
 20
2.6657050978820518
 30
0.0
  0
VERTEX
  5
18A2
  8
SAPA_PROFIL
 62
     4
 10
65.183320141404863
 20
2.0980609343846042
 30
0.0
 42
0.1316524975869703
  0
VERTEX
  5
18A3
  8
SAPA_PROFIL
 62
     4
 10
65.288320141403702
 20
2.0699262691800429
 30
0.0
  0
VERTEX
  5
18A4
  8
SAPA_PROFIL
 62
     4
 10
65.600000003426274
 20
2.0699262691799301
 30
0.0
 42
0.4142135623775584
  0
VERTEX
  5
18A5
  8
SAPA_PROFIL
 62
     4
 10
66.000000003424319
 20
2.4699262691802479
 30
0.0
  0
VERTEX
  5
18A6
  8
SAPA_PROFIL
 62
     4
 10
66.000000003424375
 20
5.8699262691799978
 30
0.0
 42
0.4142135623773978
  0
VERTEX
  5
18A7
  8
SAPA_PROFIL
 62
     4
 10
65.600000003424341
 20
6.2699262691799751
 30
0.0
  0
VERTEX
  5
18A8
  8
SAPA_PROFIL
 62
     4
 10
65.288320141400689
 20
6.2699262691799751
 30
0.0
 42
0.1316524975869708
  0
VERTEX
  5
18A9
  8
SAPA_PROFIL
 62
     4
 10
65.18332014140374
 20
6.2417916039747308
 30
0.0
  0
VERTEX
  5
18AA
  8
SAPA_PROFIL
 62
     4
 10
64.200000003424364
 20
5.6740714576126958
 30
0.0
  0
VERTEX
  5
18AB
  8
SAPA_PROFIL
 62
     4
 10
63.605255891753487
 20
5.3306957846405814
 30
0.0
 42
-0.1316524975869772
  0
VERTEX
  5
18AC
  8
SAPA_PROFIL
 62
     4
 10
63.00525589175011
 20
5.169926269180066
 30
0.0
  0
VERTEX
  5
18AD
  8
SAPA_PROFIL
 62
     4
 10
62.05339155886368
 20
5.1699262691802934
 30
0.0
 42
0.3152987888780149
  0
VERTEX
  5
18AE
  8
SAPA_PROFIL
 62
     4
 10
61.113698938092178
 20
4.511946412505905
 30
0.0
  0
VERTEX
  5
18AF
  8
SAPA_PROFIL
 62
     4
 10
60.322584913182318
 20
2.338378492852212
 30
0.0
 42
-0.3152987888779391
  0
VERTEX
  5
18B0
  8
SAPA_PROFIL
 62
     4
 10
59.946707864867797
 20
2.0751865501820941
 30
0.0
  0
VERTEX
  5
18B1
  8
SAPA_PROFIL
 62
     4
 10
51.000000003424368
 20
2.0751865501820919
 30
0.0
  0
VERTEX
  5
18B2
  8
SAPA_PROFIL
 62
     4
 10
42.05329214198089
 20
2.0751865501820328
 30
0.0
 42
-0.3152987888779318
  0
VERTEX
  5
18B3
  8
SAPA_PROFIL
 62
     4
 10
41.677415093667733
 20
2.3383784928484568
 30
0.0
  0
VERTEX
  5
18B4
  8
SAPA_PROFIL
 62
     4
 10
40.886301068756623
 20
4.5119464125056732
 30
0.0
 42
0.3152987888779361
  0
VERTEX
  5
18B5
  8
SAPA_PROFIL
 62
     4
 10
39.946608447956017
 20
5.169926269180003
 30
0.0
  0
VERTEX
  5
18B6
  8
SAPA_PROFIL
 62
     4
 10
38.994744115098527
 20
5.169926269180003
 30
0.0
 42
-0.1316524975869766
  0
VERTEX
  5
18B7
  8
SAPA_PROFIL
 62
     4
 10
38.394744115105333
 20
5.3306957846347212
 30
0.0
  0
VERTEX
  5
18B8
  8
SAPA_PROFIL
 62
     4
 10
37.807179680396828
 20
5.6699262691799461
 30
0.0
  0
VERTEX
  5
18B9
  8
SAPA_PROFIL
 62
     4
 10
36.816679865444897
 20
6.2417916039746677
 30
0.0
 42
0.1316524975869832
  0
VERTEX
  5
18BA
  8
SAPA_PROFIL
 62
     4
 10
36.711679865441809
 20
6.269926269179912
 30
0.0
  0
VERTEX
  5
18BB
  8
SAPA_PROFIL
 62
     4
 10
36.400000003424303
 20
6.269926269179968
 30
0.0
 42
0.414213562371655
  0
VERTEX
  5
18BC
  8
SAPA_PROFIL
 62
     4
 10
36.000000003424319
 20
5.8699262691760117
 30
0.0
  0
VERTEX
  5
18BD
  8
SAPA_PROFIL
 62
     4
 10
36.000000003424319
 20
2.4699262691799571
 30
0.0
 42
0.4142135623716633
  0
VERTEX
  5
18BE
  8
SAPA_PROFIL
 62
     4
 10
36.400000003426342
 20
2.0699262691799798
 30
0.0
  0
VERTEX
  5
18BF
  8
SAPA_PROFIL
 62
     4
 10
36.711679865444992
 20
2.0699262691799798
 30
0.0
 42
0.1316524975869709
  0
VERTEX
  5
18C0
  8
SAPA_PROFIL
 62
     4
 10
36.816679865445579
 20
2.0980609343855638
 30
0.0
  0
VERTEX
  5
18C1
  8
SAPA_PROFIL
 62
     4
 10
38.131136876890579
 20
2.8619271636663441
 30
0.0
  0
VERTEX
  5
18C2
  8
SAPA_PROFIL
 62
     4
 10
38.1311368768907
 20
3.1290416918792592
 30
0.0
 42
-0.5773502691889269
  0
VERTEX
  5
18C3
  8
SAPA_PROFIL
 62
     4
 10
38.446136876890407
 20
3.3109070266740521
 30
0.0
  0
VERTEX
  5
18C4
  8
SAPA_PROFIL
 62
     4
 10
38.6863199416727
 20
3.1722372695675278
 30
0.0
 42
-0.015792390685586
  0
SEQEND
  5
18C5
  8
SAPA_PROFIL
 62
     4
  0
POLYLINE
  5
F5B
  8
SAPA_PROFIL
 62
     4
 66
     1
 10
0.0
 20
0.0
 30
0.1
 70
     1
1001
RC_PROFILE
1002
{
1000
Contour
1002
}
  0
VERTEX
  5
18C6
  8
SAPA_PROFIL
 62
     4
 10
63.543863129958332
 20
49.38614061332482
 30
0.1
 42
0.5773502691895099
  0
VERTEX
  5
18C7
  8
SAPA_PROFIL
 62
     4
 10
63.858863129958038
 20
49.568005948119492
 30
0.1
  0
VERTEX
  5
18C8
  8
SAPA_PROFIL
 62
     4
 10
63.858863129958038
 20
49.83512047633252
 30
0.1
  0
VERTEX
  5
18C9
  8
SAPA_PROFIL
 62
     4
 10
65.240000003374604
 20
50.627121370800921
 30
0.1
  0
VERTEX
  5
18CA
  8
SAPA_PROFIL
 62
     4
 10
65.600000003374944
 20
50.627121370809562
 30
0.1
 42
-0.4142135623731464
  0
VERTEX
  5
18CB
  8
SAPA_PROFIL
 62
     4
 10
66.000000003384486
 20
50.227121370818907
 30
0.1
  0
VERTEX
  5
18CC
  8
SAPA_PROFIL
 62
     4
 10
66.000000003464237
 20
46.827121370818929
 30
0.1
 42
-0.4142135623728774
  0
VERTEX
  5
18CD
  8
SAPA_PROFIL
 62
     4
 10
65.60000000347398
 20
46.427121370809402
 30
0.1
  0
VERTEX
  5
18CE
  8
SAPA_PROFIL
 62
     4
 10
65.240000003473682
 20
46.427121370800883
 30
0.1
  0
VERTEX
  5
18CF
  8
SAPA_PROFIL
 62
     4
 10
63.599051707361028
 20
47.368109279714247
 30
0.1
 42
0.130905717258469
  0
VERTEX
  5
18D0
  8
SAPA_PROFIL
 62
     4
 10
63.002106003447771
 20
47.527121370748382
 30
0.1
  0
VERTEX
  5
18D1
  8
SAPA_PROFIL
 62
     4
 10
38.99793066516829
 20
47.527121370188361
 30
0.1
 42
0.1309134860018379
  0
VERTEX
  5
18D2
  8
SAPA_PROFIL
 62
     4
 10
38.40094829957004
 20
47.368109279714247
 30
0.1
  0
VERTEX
  5
18D3
  8
SAPA_PROFIL
 62
     4
 10
36.760000003457627
 20
46.427121370800883
 30
0.1
  0
VERTEX
  5
18D4
  8
SAPA_PROFIL
 62
     4
 10
36.400000003457222
 20
46.427121370809402
 30
0.1
 42
-0.4142135623729619
  0
VERTEX
  5
18D5
  8
SAPA_PROFIL
 62
     4
 10
36.000000003466837
 20
46.827121370818929
 30
0.1
  0
VERTEX
  5
18D6
  8
SAPA_PROFIL
 62
     4
 10
36.000000003546603
 20
50.227121370818921
 30
0.1
 42
-0.4142135623730782
  0
VERTEX
  5
18D7
  8
SAPA_PROFIL
 62
     4
 10
36.40000000355618
 20
50.627121370809462
 30
0.1
  0
VERTEX
  5
18D8
  8
SAPA_PROFIL
 62
     4
 10
36.760000003556421
 20
50.627121370800943
 30
0.1
  0
VERTEX
  5
18D9
  8
SAPA_PROFIL
 62
     4
 10
38.141136876973199
 20
49.835120476332527
 30
0.1
  0
VERTEX
  5
18DA
  8
SAPA_PROFIL
 62
     4
 10
38.141136876973093
 20
49.568005948119513
 30
0.1
 42
0.5773502691896441
  0
VERTEX
  5
18DB
  8
SAPA_PROFIL
 62
     4
 10
38.456136876972799
 20
49.38614061332494
 30
0.1
  0
VERTEX
  5
18DC
  8
SAPA_PROFIL
 62
     4
 10
38.700322711720702
 20
49.527121370748389
 30
0.1
  0
VERTEX
  5
18DD
  8
SAPA_PROFIL
 62
     4
 10
63.299677295210493
 20
49.527121370748368
 30
0.1
  0
SEQEND
  5
18DE
  8
SAPA_PROFIL
 62
     4
  0
POLYLINE
  5
F5C
  8
SAPA_PROFIL
  6
CONTINUOUS
 62
     4
 66
     1
 10
0.0
 20
0.0
 30
0.0
 70
     1
  0
VERTEX
  5
18DF
  8
SAPA_PROFIL
  6
CONTINUOUS
 62
     4
 10
63.858863129958053
 20
49.568005948119492
 30
0.0
  0
VERTEX
  5
18E0
  8
SAPA_PROFIL
  6
CONTINUOUS
 62
     4
 10
63.858863129958053
 20
49.83512047633252
 30
0.0
  0
VERTEX
  5
18E1
  8
SAPA_PROFIL
  6
CONTINUOUS
 62
     4
 10
65.240000003374604
 20
50.627121370800921
 30
0.0
  0
VERTEX
  5
18E2
  8
SAPA_PROFIL
  6
CONTINUOUS
 62
     4
 10
65.600000003374944
 20
50.627121370809562
 30
0.0
 42
-0.4142135623731473
  0
VERTEX
  5
18E3
  8
SAPA_PROFIL
  6
CONTINUOUS
 62
     4
 10
66.000000003384486
 20
50.227121370818907
 30
0.0
  0
VERTEX
  5
18E4
  8
SAPA_PROFIL
  6
CONTINUOUS
 62
     4
 10
66.000000003464237
 20
46.827121370818929
 30
0.0
 42
-0.4142135623728817
  0
VERTEX
  5
18E5
  8
SAPA_PROFIL
  6
CONTINUOUS
 62
     4
 10
65.60000000347398
 20
46.427121370809402
 30
0.0
  0
VERTEX
  5
18E6
  8
SAPA_PROFIL
  6
CONTINUOUS
 62
     4
 10
65.240000003473682
 20
46.427121370800883
 30
0.0
  0
VERTEX
  5
18E7
  8
SAPA_PROFIL
  6
CONTINUOUS
 62
     4
 10
63.599051707361042
 20
47.368109279714247
 30
0.0
 42
0.1309057172584687
  0
VERTEX
  5
18E8
  8
SAPA_PROFIL
  6
CONTINUOUS
 62
     4
 10
63.002106003447778
 20
47.527121370748382
 30
0.0
  0
VERTEX
  5
18E9
  8
SAPA_PROFIL
  6
CONTINUOUS
 62
     4
 10
38.997930665168298
 20
47.527121370188361
 30
0.0
 42
0.1309134860018382
  0
VERTEX
  5
18EA
  8
SAPA_PROFIL
  6
CONTINUOUS
 62
     4
 10
38.400948299570047
 20
47.368109279714247
 30
0.0
  0
VERTEX
  5
18EB
  8
SAPA_PROFIL
  6
CONTINUOUS
 62
     4
 10
36.760000003457627
 20
46.42712137080089
 30
0.0
  0
VERTEX
  5
18EC
  8
SAPA_PROFIL
  6
CONTINUOUS
 62
     4
 10
36.400000003457222
 20
46.427121370809409
 30
0.0
 42
-0.4142135623729598
  0
VERTEX
  5
18ED
  8
SAPA_PROFIL
  6
CONTINUOUS
 62
     4
 10
36.000000003466852
 20
46.827121370818944
 30
0.0
  0
VERTEX
  5
18EE
  8
SAPA_PROFIL
  6
CONTINUOUS
 62
     4
 10
36.000000003546603
 20
50.227121370818921
 30
0.0
 42
-0.4142135623730795
  0
VERTEX
  5
18EF
  8
SAPA_PROFIL
  6
CONTINUOUS
 62
     4
 10
36.400000003556187
 20
50.627121370809462
 30
0.0
  0
VERTEX
  5
18F0
  8
SAPA_PROFIL
  6
CONTINUOUS
 62
     4
 10
36.760000003556428
 20
50.627121370800943
 30
0.0
  0
VERTEX
  5
18F1
  8
SAPA_PROFIL
  6
CONTINUOUS
 62
     4
 10
38.141136876973214
 20
49.835120476332527
 30
0.0
  0
VERTEX
  5
18F2
  8
SAPA_PROFIL
  6
CONTINUOUS
 62
     4
 10
38.141136876973093
 20
49.568005948119513
 30
0.0
 42
0.5773502691896458
  0
VERTEX
  5
18F3
  8
SAPA_PROFIL
  6
CONTINUOUS
 62
     4
 10
38.456136876972799
 20
49.38614061332494
 30
0.0
  0
VERTEX
  5
18F4
  8
SAPA_PROFIL
  6
CONTINUOUS
 62
     4
 10
38.700322711720702
 20
49.527121370748389
 30
0.0
  0
VERTEX
  5
18F5
  8
SAPA_PROFIL
  6
CONTINUOUS
 62
     4
 10
63.2996772952105
 20
49.527121370748368
 30
0.0
  0
VERTEX
  5
18F6
  8
SAPA_PROFIL
  6
CONTINUOUS
 62
     4
 10
63.543863129958339
 20
49.38614061332482
 30
0.0
 42
0.5773502691895091
  0
SEQEND
  5
18F7
  8
SAPA_PROFIL
  6
CONTINUOUS
 62
     4
  0
POLYLINE
  5
F5D
  8
SAPA_PROFIL
 66
     1
 10
0.0
 20
0.0
 30
0.0
  0
VERTEX
  5
18F8
  8
SAPA_PROFIL
 10
80.457636517401568
 20
62.072346845034993
 30
0.0
  0
VERTEX
  5
18F9
  8
SAPA_PROFIL
 10
80.457636517401568
 20
62.072346845034993
 30
0.0
  0
SEQEND
  5
18FA
  8
SAPA_PROFIL
  0
POLYLINE
  5
F5E
  8
SAPA_PROFIL
 66
     1
 10
0.0
 20
0.0
 30
0.0
 70
     1
  0
VERTEX
  5
18FB
  8
SAPA_PROFIL
 10
86.291131297044103
 20
57.09994948753949
 30
0.0
  0
VERTEX
  5
18FC
  8
SAPA_PROFIL
 10
84.300000083088946
 20
57.09994948753949
 30
0.0
 42
0.4142135623730795
  0
VERTEX
  5
18FD
  8
SAPA_PROFIL
 10
83.300000083088946
 20
56.09994948753949
 30
0.0
  0
VERTEX
  5
18FE
  8
SAPA_PROFIL
 10
83.300000083088946
 20
55.832405019577251
 30
0.0
 42
0.2896898633034337
  0
VERTEX
  5
18FF
  8
SAPA_PROFIL
 10
83.871428654519775
 20
54.928897116671102
 30
0.0
 42
0.5507604245854725
  0
VERTEX
  5
1900
  8
SAPA_PROFIL
 10
84.300000083088946
 20
55.199949487539513
 30
0.0
  0
VERTEX
  5
1901
  8
SAPA_PROFIL
 10
84.300000083088889
 20
55.499949487539411
 30
0.0
 42
-0.4142135623730951
  0
VERTEX
  5
1902
  8
SAPA_PROFIL
 10
84.500000083088935
 20
55.699949487539513
 30
0.0
  0
VERTEX
  5
1903
  8
SAPA_PROFIL
 10
85.600000085905819
 20
55.699949487539513
 30
0.0
 42
-0.4142135623730863
  0
VERTEX
  5
1904
  8
SAPA_PROFIL
 10
86.60000008590589
 20
54.699949487539463
 30
0.0
  0
VERTEX
  5
1905
  8
SAPA_PROFIL
 10
86.600000085905833
 20
52.399999993878261
 30
0.0
 42
-0.4142135623730847
  0
VERTEX
  5
1906
  8
SAPA_PROFIL
 10
85.600000085905819
 20
51.399999993878268
 30
0.0
  0
VERTEX
  5
1907
  8
SAPA_PROFIL
 10
84.500000083088921
 20
51.399999993878268
 30
0.0
 42
-0.4142135623730925
  0
VERTEX
  5
1908
  8
SAPA_PROFIL
 10
84.300000083088918
 20
51.599999993878249
 30
0.0
  0
VERTEX
  5
1909
  8
SAPA_PROFIL
 10
84.300000083087227
 20
51.899949487539381
 30
0.0
 42
0.5507604245854657
  0
VERTEX
  5
190A
  8
SAPA_PROFIL
 10
83.871428654519704
 20
52.171001858407962
 30
0.0
 42
0.2896898633034307
  0
VERTEX
  5
190B
  8
SAPA_PROFIL
 10
83.300000083088932
 20
51.267493955501699
 30
0.0
  0
VERTEX
  5
190C
  8
SAPA_PROFIL
 10
83.300000083088875
 20
50.999999993878227
 30
0.0
 42
0.4142135623730951
  0
VERTEX
  5
190D
  8
SAPA_PROFIL
 10
84.300000083088918
 20
49.999999993878227
 30
0.0
  0
VERTEX
  5
190E
  8
SAPA_PROFIL
 10
86.000000085905853
 20
49.999999993878227
 30
0.0
 42
0.4142135623730871
  0
VERTEX
  5
190F
  8
SAPA_PROFIL
 10
88.000000085905924
 20
51.999999993878291
 30
0.0
  0
VERTEX
  5
1910
  8
SAPA_PROFIL
 10
88.000000087894833
 20
74.69999999385287
 30
0.0
 42
0.4142135623987623
  0
VERTEX
  5
1911
  8
SAPA_PROFIL
 10
87.700000087894821
 20
74.9999999938792
 30
0.0
  0
VERTEX
  5
1912
  8
SAPA_PROFIL
 10
87.207106869107648
 20
74.9999999938792
 30
0.0
 42
0.198912367379658
  0
VERTEX
  5
1913
  8
SAPA_PROFIL
 10
86.853553478514371
 20
74.853553384472463
 30
0.0
  0
VERTEX
  5
1914
  8
SAPA_PROFIL
 10
86.146446697327761
 20
74.146446603285867
 30
0.0
 42
-0.1989123673796528
  0
VERTEX
  5
1915
  8
SAPA_PROFIL
 10
85.792893306734484
 20
73.999999993879143
 30
0.0
  0
VERTEX
  5
1916
  8
SAPA_PROFIL
 10
84.500000087921038
 20
73.999999993879143
 30
0.0
 42
-0.4142135623730659
  0
VERTEX
  5
1917
  8
SAPA_PROFIL
 10
84.000000087921023
 20
74.499999993879143
 30
0.0
  0
VERTEX
  5
1918
  8
SAPA_PROFIL
 10
84.000000087920824
 20
76.884062037235637
 30
0.0
 42
-0.1989123673796822
  0
VERTEX
  5
1919
  8
SAPA_PROFIL
 10
84.146446697327534
 20
77.23761542782897
 30
0.0
  0
VERTEX
  5
191A
  8
SAPA_PROFIL
 10
84.913856516547256
 20
78.005025247048735
 30
0.0
 42
0.9999999999999998
  0
VERTEX
  5
191B
  8
SAPA_PROFIL
 10
83.923907022886084
 20
78.994974740709935
 30
0.0
  0
VERTEX
  5
191C
  8
SAPA_PROFIL
 10
82.146446697327406
 20
77.217514415151285
 30
0.0
 42
0.1989123673796822
  0
VERTEX
  5
191D
  8
SAPA_PROFIL
 10
82.000000087920697
 20
76.863961024557952
 30
0.0
  0
VERTEX
  5
191E
  8
SAPA_PROFIL
 10
82.000000087921137
 20
72.499999993879086
 30
0.0
 42
0.4142135623730639
  0
VERTEX
  5
191F
  8
SAPA_PROFIL
 10
82.500000087921151
 20
71.999999993879086
 30
0.0
  0
VERTEX
  5
1920
  8
SAPA_PROFIL
 10
84.500000087921322
 20
71.999999993879086
 30
0.0
 42
-0.414213562373064
  0
VERTEX
  5
1921
  8
SAPA_PROFIL
 10
85.000000087921336
 20
71.499999993879086
 30
0.0
  0
VERTEX
  5
1922
  8
SAPA_PROFIL
 10
85.000000087921649
 20
67.999999993878973
 30
0.0
 42
-0.4142135623731263
  0
VERTEX
  5
1923
  8
SAPA_PROFIL
 10
84.500000087921634
 20
67.499999993878916
 30
0.0
  0
VERTEX
  5
1924
  8
SAPA_PROFIL
 10
69.781552074411138
 20
67.49999999387893
 30
0.0
 42
-0.3639702342662015
  0
VERTEX
  5
1925
  8
SAPA_PROFIL
 10
68.796744321398947
 20
68.326351816212025
 30
0.0
  0
VERTEX
  5
1926
  8
SAPA_PROFIL
 10
67.76570820975526
 20
74.173648171546063
 30
0.0
 42
0.3639702342662066
  0
VERTEX
  5
1927
  8
SAPA_PROFIL
 10
66.780900456742984
 20
74.999999993879229
 30
0.0
  0
VERTEX
  5
1928
  8
SAPA_PROFIL
 10
62.920000087920137
 20
74.999999993879229
 30
0.0
 42
0.4142135623730951
  0
VERTEX
  5
1929
  8
SAPA_PROFIL
 10
62.420000087920151
 20
74.499999993879172
 30
0.0
  0
VERTEX
  5
192A
  8
SAPA_PROFIL
 10
62.420000087920151
 20
74.299999993879183
 30
0.0
 42
0.4142135623730951
  0
VERTEX
  5
192B
  8
SAPA_PROFIL
 10
62.920000087920137
 20
73.799999993879183
 30
0.0
  0
VERTEX
  5
192C
  8
SAPA_PROFIL
 10
63.000000087920299
 20
73.799999993879183
 30
0.0
 42
-0.4142135623730619
  0
VERTEX
  5
192D
  8
SAPA_PROFIL
 10
63.500000087920291
 20
73.299999993879183
 30
0.0
  0
VERTEX
  5
192E
  8
SAPA_PROFIL
 10
63.500000087920633
 20
69.999999993879115
 30
0.0
 42
0.5693809839207964
  0
VERTEX
  5
192F
  8
SAPA_PROFIL
 10
63.795816459623282
 20
69.824445948315557
 30
0.0
  0
VERTEX
  5
1930
  8
SAPA_PROFIL
 10
65.400000087920333
 20
70.799999993879297
 30
0.0
  0
VERTEX
  5
1931
  8
SAPA_PROFIL
 10
65.70000008792006
 20
70.799999993879524
 30
0.0
 42
-0.414213562372873
  0
VERTEX
  5
1932
  8
SAPA_PROFIL
 10
66.000000087920242
 20
70.499999993879399
 30
0.0
  0
VERTEX
  5
1933
  8
SAPA_PROFIL
 10
66.000000087920213
 20
66.499999994716703
 30
0.0
 42
0.2134217652834381
  0
VERTEX
  5
1934
  8
SAPA_PROFIL
 10
66.100000087920336
 20
66.276393196966595
 30
0.0
 42
-0.7625858545243276
  0
VERTEX
  5
1935
  8
SAPA_PROFIL
 10
65.915420885722867
 20
65.946067115949575
 30
0.0
  0
VERTEX
  5
1936
  8
SAPA_PROFIL
 10
65.724037885729146
 20
66.004140752938653
 30
0.0
  0
VERTEX
  5
1937
  8
SAPA_PROFIL
 10
63.838194193868098
 20
67.088705199910407
 30
0.0
  0
VERTEX
  5
1938
  8
SAPA_PROFIL
 10
63.848755560095093
 20
67.410462928128666
 30
0.0
 42
0.577350269189744
  0
VERTEX
  5
1939
  8
SAPA_PROFIL
 10
63.554599259840238
 20
67.593416668238831
 30
0.0
  0
VERTEX
  5
193A
  8
SAPA_PROFIL
 10
63.269916976608613
 20
67.441282757130082
 30
0.0
 42
0.2216946626430207
  0
VERTEX
  5
193B
  8
SAPA_PROFIL
 10
62.864108071453799
 20
66.900402925653282
 30
0.0
  0
VERTEX
  5
193C
  8
SAPA_PROFIL
 10
62.48266147532609
 20
65.087172454995041
 30
0.0
 42
0.4769755326981632
  0
VERTEX
  5
193D
  8
SAPA_PROFIL
 10
62.78491429983255
 20
64.715515580049157
 30
0.0
  0
VERTEX
  5
193E
  8
SAPA_PROFIL
 10
64.288015380594558
 20
64.71559918793281
 30
0.0
  0
VERTEX
  5
193F
  8
SAPA_PROFIL
 10
64.302533789841661
 20
64.763444937931297
 30
0.0
 42
-0.4142135623730951
  0
VERTEX
  5
1940
  8
SAPA_PROFIL
 10
64.676718745317473
 20
64.963408982438693
 30
0.0
  0
VERTEX
  5
1941
  8
SAPA_PROFIL
 10
65.875681528128482
 20
64.499999993879101
 30
0.0
  0
VERTEX
  5
1942
  8
SAPA_PROFIL
 10
73.330384844756225
 20
64.499999993878987
 30
0.0
  0
VERTEX
  5
1943
  8
SAPA_PROFIL
 10
73.850000087026842
 20
64.799999993878984
 30
0.0
  0
VERTEX
  5
1944
  8
SAPA_PROFIL
 10
74.369615329297517
 20
64.49999999387893
 30
0.0
  0
VERTEX
  5
1945
  8
SAPA_PROFIL
 10
85.718615118336785
 20
64.499999993878745
 30
0.0
 42
-0.3955859011959327
  0
VERTEX
  5
1946
  8
SAPA_PROFIL
 10
86.018000640604726
 20
64.219191373620035
 30
0.0
  0
VERTEX
  5
1947
  8
SAPA_PROFIL
 10
86.490721645222706
 20
57.312743740700441
 30
0.0
 42
-0.433089857303855
  0
SEQEND
  5
1948
  8
SAPA_PROFIL
  0
POLYLINE
  5
F5F
  8
SAPA_PROFIL
 62
     4
 66
     1
 10
0.0
 20
0.0
 30
0.1
 70
     1
1001
RC_PROFILE
1002
{
1000
Contour
1002
}
  0
VERTEX
  5
1949
  8
SAPA_PROFIL
 62
     4
 10
63.543863214454213
 20
67.640980751792114
 30
0.1
 42
-0.5773502691895099
  0
VERTEX
  5
194A
  8
SAPA_PROFIL
 62
     4
 10
63.858863214453933
 20
67.459115416997449
 30
0.1
  0
VERTEX
  5
194B
  8
SAPA_PROFIL
 62
     4
 10
63.858863214453933
 20
67.19200088878442
 30
0.1
  0
VERTEX
  5
194C
  8
SAPA_PROFIL
 62
     4
 10
65.24000008787047
 20
66.399999994316005
 30
0.1
  0
VERTEX
  5
194D
  8
SAPA_PROFIL
 62
     4
 10
65.600000087870825
 20
66.399999994307379
 30
0.1
 42
0.4142135623731464
  0
VERTEX
  5
194E
  8
SAPA_PROFIL
 62
     4
 10
66.000000087880352
 20
66.799999994298034
 30
0.1
  0
VERTEX
  5
194F
  8
SAPA_PROFIL
 62
     4
 10
66.000000087960103
 20
70.199999994298011
 30
0.1
 42
0.4142135623728774
  0
VERTEX
  5
1950
  8
SAPA_PROFIL
 62
     4
 10
65.600000087969846
 20
70.599999994307538
 30
0.1
  0
VERTEX
  5
1951
  8
SAPA_PROFIL
 62
     4
 10
65.240000087969548
 20
70.599999994316065
 30
0.1
  0
VERTEX
  5
1952
  8
SAPA_PROFIL
 62
     4
 10
63.599051791856908
 20
69.659012085402694
 30
0.1
 42
-0.130905717258469
  0
VERTEX
  5
1953
  8
SAPA_PROFIL
 62
     4
 10
63.002106087943652
 20
69.499999994368565
 30
0.1
  0
VERTEX
  5
1954
  8
SAPA_PROFIL
 62
     4
 10
38.997930749664178
 20
69.499999994928615
 30
0.1
 42
-0.1309134860018379
  0
VERTEX
  5
1955
  8
SAPA_PROFIL
 62
     4
 10
38.400948384065927
 20
69.659012085402722
 30
0.1
  0
VERTEX
  5
1956
  8
SAPA_PROFIL
 62
     4
 10
36.760000087953522
 20
70.599999994316093
 30
0.1
  0
VERTEX
  5
1957
  8
SAPA_PROFIL
 62
     4
 10
36.400000087953103
 20
70.599999994307566
 30
0.1
 42
0.4142135623729619
  0
VERTEX
  5
1958
  8
SAPA_PROFIL
 62
     4
 10
36.000000087962739
 20
70.199999994298039
 30
0.1
  0
VERTEX
  5
1959
  8
SAPA_PROFIL
 62
     4
 10
36.000000088042484
 20
66.799999994298062
 30
0.1
 42
0.4142135623730782
  0
VERTEX
  5
195A
  8
SAPA_PROFIL
 62
     4
 10
36.40000008805206
 20
66.399999994307521
 30
0.1
  0
VERTEX
  5
195B
  8
SAPA_PROFIL
 62
     4
 10
36.760000088052301
 20
66.399999994316047
 30
0.1
  0
VERTEX
  5
195C
  8
SAPA_PROFIL
 62
     4
 10
38.14113696146908
 20
67.192000888784435
 30
0.1
  0
VERTEX
  5
195D
  8
SAPA_PROFIL
 62
     4
 10
38.141136961468973
 20
67.459115416997463
 30
0.1
 42
-0.5773502691896441
  0
VERTEX
  5
195E
  8
SAPA_PROFIL
 62
     4
 10
38.45613696146868
 20
67.640980751792043
 30
0.1
  0
VERTEX
  5
195F
  8
SAPA_PROFIL
 62
     4
 10
38.700322796216568
 20
67.499999994368594
 30
0.1
  0
VERTEX
  5
1960
  8
SAPA_PROFIL
 62
     4
 10
63.299677379706367
 20
67.499999994368565
 30
0.1
  0
SEQEND
  5
1961
  8
SAPA_PROFIL
 62
     4
  0
POLYLINE
  5
F60
  8
SAPA_PROFIL
  6
CONTINUOUS
 62
     4
 66
     1
 10
0.0
 20
0.0
 30
0.0
 70
     1
  0
VERTEX
  5
1962
  8
SAPA_PROFIL
  6
CONTINUOUS
 62
     4
 10
63.85886321445394
 20
67.459115416997449
 30
0.0
  0
VERTEX
  5
1963
  8
SAPA_PROFIL
  6
CONTINUOUS
 62
     4
 10
63.85886321445394
 20
67.19200088878442
 30
0.0
  0
VERTEX
  5
1964
  8
SAPA_PROFIL
  6
CONTINUOUS
 62
     4
 10
65.240000087870484
 20
66.399999994316005
 30
0.0
  0
VERTEX
  5
1965
  8
SAPA_PROFIL
  6
CONTINUOUS
 62
     4
 10
65.600000087870839
 20
66.399999994307379
 30
0.0
 42
0.4142135623731473
  0
VERTEX
  5
1966
  8
SAPA_PROFIL
  6
CONTINUOUS
 62
     4
 10
66.000000087880366
 20
66.799999994298034
 30
0.0
  0
VERTEX
  5
1967
  8
SAPA_PROFIL
  6
CONTINUOUS
 62
     4
 10
66.000000087960117
 20
70.199999994298011
 30
0.0
 42
0.4142135623728817
  0
VERTEX
  5
1968
  8
SAPA_PROFIL
  6
CONTINUOUS
 62
     4
 10
65.600000087969846
 20
70.599999994307538
 30
0.0
  0
VERTEX
  5
1969
  8
SAPA_PROFIL
  6
CONTINUOUS
 62
     4
 10
65.240000087969548
 20
70.599999994316065
 30
0.0
  0
VERTEX
  5
196A
  8
SAPA_PROFIL
  6
CONTINUOUS
 62
     4
 10
63.599051791856922
 20
69.659012085402694
 30
0.0
 42
-0.1309057172584687
  0
VERTEX
  5
196B
  8
SAPA_PROFIL
  6
CONTINUOUS
 62
     4
 10
63.002106087943652
 20
69.499999994368565
 30
0.0
  0
VERTEX
  5
196C
  8
SAPA_PROFIL
  6
CONTINUOUS
 62
     4
 10
38.997930749664178
 20
69.499999994928615
 30
0.0
 42
-0.1309134860018382
  0
VERTEX
  5
196D
  8
SAPA_PROFIL
  6
CONTINUOUS
 62
     4
 10
38.400948384065927
 20
69.659012085402722
 30
0.0
  0
VERTEX
  5
196E
  8
SAPA_PROFIL
  6
CONTINUOUS
 62
     4
 10
36.760000087953522
 20
70.599999994316079
 30
0.0
  0
VERTEX
  5
196F
  8
SAPA_PROFIL
  6
CONTINUOUS
 62
     4
 10
36.400000087953103
 20
70.599999994307552
 30
0.0
 42
0.4142135623729598
  0
VERTEX
  5
1970
  8
SAPA_PROFIL
  6
CONTINUOUS
 62
     4
 10
36.000000087962739
 20
70.199999994298025
 30
0.0
  0
VERTEX
  5
1971
  8
SAPA_PROFIL
  6
CONTINUOUS
 62
     4
 10
36.000000088042484
 20
66.799999994298062
 30
0.0
 42
0.4142135623730795
  0
VERTEX
  5
1972
  8
SAPA_PROFIL
  6
CONTINUOUS
 62
     4
 10
36.400000088052067
 20
66.399999994307521
 30
0.0
  0
VERTEX
  5
1973
  8
SAPA_PROFIL
  6
CONTINUOUS
 62
     4
 10
36.760000088052308
 20
66.399999994316047
 30
0.0
  0
VERTEX
  5
1974
  8
SAPA_PROFIL
  6
CONTINUOUS
 62
     4
 10
38.141136961469087
 20
67.192000888784435
 30
0.0
  0
VERTEX
  5
1975
  8
SAPA_PROFIL
  6
CONTINUOUS
 62
     4
 10
38.141136961468973
 20
67.459115416997463
 30
0.0
 42
-0.5773502691896458
  0
VERTEX
  5
1976
  8
SAPA_PROFIL
  6
CONTINUOUS
 62
     4
 10
38.456136961468687
 20
67.640980751792043
 30
0.0
  0
VERTEX
  5
1977
  8
SAPA_PROFIL
  6
CONTINUOUS
 62
     4
 10
38.700322796216582
 20
67.499999994368594
 30
0.0
  0
VERTEX
  5
1978
  8
SAPA_PROFIL
  6
CONTINUOUS
 62
     4
 10
63.299677379706381
 20
67.499999994368565
 30
0.0
  0
VERTEX
  5
1979
  8
SAPA_PROFIL
  6
CONTINUOUS
 62
     4
 10
63.54386321445422
 20
67.640980751792114
 30
0.0
 42
-0.5773502691895091
  0
SEQEND
  5
197A
  8
SAPA_PROFIL
  6
CONTINUOUS
 62
     4
  0
POLYLINE
  5
F61
  8
SAPA_PROFIL
 66
     1
 10
0.0
 20
0.0
 30
0.0
  0
VERTEX
  5
197B
  8
SAPA_PROFIL
 10
36.00000008800248
 20
66.574116258478554
 30
0.0
 42
-0.2134217652834216
  0
VERTEX
  5
197C
  8
SAPA_PROFIL
 10
35.900000088002351
 20
66.35050946072846
 30
0.0
 42
0.7625858545242717
  0
VERTEX
  5
197D
  8
SAPA_PROFIL
 10
36.084579290199827
 20
66.020183379711455
 30
0.0
  0
VERTEX
  5
197E
  8
SAPA_PROFIL
 10
36.275962290193547
 20
66.078257016700547
 30
0.0
  0
VERTEX
  5
197F
  8
SAPA_PROFIL
 10
38.161805982054602
 20
67.162821463672287
 30
0.0
  0
VERTEX
  5
1980
  8
SAPA_PROFIL
 10
38.151244615827643
 20
67.484579191890532
 30
0.0
 42
-0.5773502691897205
  0
VERTEX
  5
1981
  8
SAPA_PROFIL
 10
38.445400916082463
 20
67.667532932000711
 30
0.0
  0
VERTEX
  5
1982
  8
SAPA_PROFIL
 10
38.730083199314102
 20
67.515399020891977
 30
0.0
 42
-0.2216946626430408
  0
VERTEX
  5
1983
  8
SAPA_PROFIL
 10
39.135892104468901
 20
66.974519189415133
 30
0.0
  0
VERTEX
  5
1984
  8
SAPA_PROFIL
 10
39.517338700596611
 20
65.161288718756893
 30
0.0
 42
-0.476975532698107
  0
VERTEX
  5
1985
  8
SAPA_PROFIL
 10
39.215085876090143
 20
64.789631843811023
 30
0.0
  0
VERTEX
  5
1986
  8
SAPA_PROFIL
 10
37.711984795328128
 20
64.78971545169469
 30
0.0
  0
VERTEX
  5
1987
  8
SAPA_PROFIL
 10
37.697466386081032
 20
64.837561201693163
 30
0.0
 42
0.4142135623731266
  0
VERTEX
  5
1988
  8
SAPA_PROFIL
 10
37.323281430605221
 20
65.037525246200573
 30
0.0
  0
VERTEX
  5
1989
  8
SAPA_PROFIL
 10
36.002165329665559
 20
64.526902994298041
 30
0.0
  0
VERTEX
  5
198A
  8
SAPA_PROFIL
 10
29.92059208800185
 20
64.526902994298041
 30
0.0
  0
VERTEX
  5
198B
  8
SAPA_PROFIL
 10
29.400000088001779
 20
64.827466994298049
 30
0.0
  0
VERTEX
  5
198C
  8
SAPA_PROFIL
 10
28.879407088001699
 20
64.526902994298041
 30
0.0
  0
VERTEX
  5
198D
  8
SAPA_PROFIL
 10
24.700000088001389
 20
64.526902994298041
 30
0.0
 42
0.4142140000000108
  0
VERTEX
  5
198E
  8
SAPA_PROFIL
 10
24.40000008800132
 20
64.226902994297973
 30
0.0
  0
VERTEX
  5
198F
  8
SAPA_PROFIL
 10
24.400000088001441
 20
62.726902994297859
 30
0.0
 42
-0.4142139999998548
  0
VERTEX
  5
1990
  8
SAPA_PROFIL
 10
24.200000088001389
 20
62.526902994297821
 30
0.0
  0
VERTEX
  5
1991
  8
SAPA_PROFIL
 10
23.700000088001389
 20
62.526902994297821
 30
0.0
 42
-0.4142140000000309
  0
VERTEX
  5
1992
  8
SAPA_PROFIL
 10
22.700000088001161
 20
63.526902994297927
 30
0.0
  0
VERTEX
  5
1993
  8
SAPA_PROFIL
 10
22.700000088001161
 20
70.0269029942977
 30
0.0
 42
0.4142135623731031
  0
VERTEX
  5
1994
  8
SAPA_PROFIL
 10
20.700000088001161
 20
72.026902994297814
 30
0.0
  0
VERTEX
  5
1995
  8
SAPA_PROFIL
 10
15.000000088000659
 20
72.026902994297814
 30
0.0
 42
-0.4142140000000262
  0
VERTEX
  5
1996
  8
SAPA_PROFIL
 10
14.00000008800043
 20
73.026902994297942
 30
0.0
  0
VERTEX
  5
1997
  8
SAPA_PROFIL
 10
14.000000088000659
 20
74.72690299429776
 30
0.0
 42
-0.4142139999999169
  0
VERTEX
  5
1998
  8
SAPA_PROFIL
 10
14.30000008800061
 20
75.026902994297828
 30
0.0
  0
VERTEX
  5
1999
  8
SAPA_PROFIL
 10
14.75613279419394
 20
75.026902994297828
 30
0.0
 42
-0.2308681911255748
  0
VERTEX
  5
199A
  8
SAPA_PROFIL
 10
15.15013817099725
 20
74.83473373196064
 30
0.0
  0
VERTEX
  5
199B
  8
SAPA_PROFIL
 10
15.634198115405979
 20
74.219072256635016
 30
0.0
 42
0.2308681911255704
  0
VERTEX
  5
199C
  8
SAPA_PROFIL
 10
16.028203492209279
 20
74.026902994297814
 30
0.0
  0
VERTEX
  5
199D
  8
SAPA_PROFIL
 10
18.000000088000888
 20
74.026902994297814
 30
0.0
 42
0.4142140000000419
  0
VERTEX
  5
199E
  8
SAPA_PROFIL
 10
18.500000088000888
 20
74.526902994297814
 30
0.0
  0
VERTEX
  5
199F
  8
SAPA_PROFIL
 10
18.500000088000888
 20
78.526902994297814
 30
0.0
 42
-0.9999999999999998
  0
VERTEX
  5
19A0
  8
SAPA_PROFIL
 10
19.900000088000979
 20
78.526902994297814
 30
0.0
  0
VERTEX
  5
19A1
  8
SAPA_PROFIL
 10
19.900000088000979
 20
75.526902994298155
 30
0.0
 42
0.4142135623731304
  0
VERTEX
  5
19A2
  8
SAPA_PROFIL
 10
20.400000088000979
 20
75.026902994298041
 30
0.0
  0
VERTEX
  5
19A3
  8
SAPA_PROFIL
 10
20.700000088001161
 20
75.026902994298041
 30
0.0
 42
-0.4142135623730951
  0
VERTEX
  5
19A4
  8
SAPA_PROFIL
 10
25.700000088001499
 20
70.0269029942977
 30
0.0
  0
VERTEX
  5
19A5
  8
SAPA_PROFIL
 10
25.700000088001499
 20
68.026902994298041
 30
0.0
 42
0.414214000000047
  0
VERTEX
  5
19A6
  8
SAPA_PROFIL
 10
26.200000088001499
 20
67.526902994298041
 30
0.0
  0
VERTEX
  5
19A7
  8
SAPA_PROFIL
 10
32.234775088002039
 20
67.526902994298041
 30
0.0
 42
0.363970000000007
  0
VERTEX
  5
19A8
  8
SAPA_PROFIL
 10
33.219582088002092
 20
68.353254994298084
 30
0.0
  0
VERTEX
  5
19A9
  8
SAPA_PROFIL
 10
34.250618088002057
 20
74.200550994298567
 30
0.0
 42
-0.3639700000000089
  0
VERTEX
  5
19AA
  8
SAPA_PROFIL
 10
35.235426088002221
 20
75.026902994298609
 30
0.0
  0
VERTEX
  5
19AB
  8
SAPA_PROFIL
 10
39.096327088002568
 20
75.026902994298609
 30
0.0
 42
-0.4142140000000481
  0
VERTEX
  5
19AC
  8
SAPA_PROFIL
 10
39.596327088002568
 20
74.526902994298595
 30
0.0
  0
VERTEX
  5
19AD
  8
SAPA_PROFIL
 10
39.596327088002568
 20
74.326902994298564
 30
0.0
 42
-0.4142139999999776
  0
VERTEX
  5
19AE
  8
SAPA_PROFIL
 10
39.096327088002568
 20
73.826902994298564
 30
0.0
  0
VERTEX
  5
19AF
  8
SAPA_PROFIL
 10
39.000000088002601
 20
73.826902994298564
 30
0.0
 42
0.4142140000000459
  0
VERTEX
  5
19B0
  8
SAPA_PROFIL
 10
38.50000008800248
 20
73.32690299429845
 30
0.0
  0
VERTEX
  5
19B1
  8
SAPA_PROFIL
 10
38.50000008800248
 20
69.975327994298183
 30
0.0
 42
-0.5773499999998256
  0
VERTEX
  5
19B2
  8
SAPA_PROFIL
 10
38.200000088002533
 20
69.802122994298145
 30
0.0
  0
VERTEX
  5
19B3
  8
SAPA_PROFIL
 10
36.600000088002389
 20
70.725883994298272
 30
0.0
  0
VERTEX
  5
19B4
  8
SAPA_PROFIL
 10
36.300000088002321
 20
70.725883994298272
 30
0.0
 42
0.4142139999999518
  0
VERTEX
  5
19B5
  8
SAPA_PROFIL
 10
36.000000088002373
 20
70.425883994298204
 30
0.0
  0
VERTEX
  5
19B6
  8
SAPA_PROFIL
 10
36.000000088002373
 20
66.574115994298211
 30
0.0
  0
SEQEND
  5
19B7
  8
SAPA_PROFIL
  0
POLYLINE
  5
F62
  8
SAPA_PROFIL
 66
     1
 10
0.0
 20
0.0
 30
0.0
 70
     1
  0
VERTEX
  5
19B8
  8
SAPA_PROFIL
 10
70.802767633449093
 20
-20.000000004193051
 30
0.0
  0
VERTEX
  5
19B9
  8
SAPA_PROFIL
 10
71.458555760925265
 20
4.3999999958070362
 30
0.0
 42
0.6681786379237078
  0
VERTEX
  5
19BA
  8
SAPA_PROFIL
 10
70.946423726566991
 20
4.612132030160125
 30
0.0
  0
VERTEX
  5
19BB
  8
SAPA_PROFIL
 10
68.946423726569265
 20
2.6121320301628539
 30
0.0
 42
0.733230336258869
  0
VERTEX
  5
19BC
  8
SAPA_PROFIL
 10
69.210650214226916
 20
2.1045576699036128
 30
0.0
  0
VERTEX
  5
19BD
  8
SAPA_PROFIL
 10
69.806461307625341
 20
2.2096152410751411
 30
0.0
 42
-0.4663076581593259
  0
VERTEX
  5
19BE
  8
SAPA_PROFIL
 10
70.158555760925537
 20
1.9141729151717179
 30
0.0
  0
VERTEX
  5
19BF
  8
SAPA_PROFIL
 10
69.502767633449366
 20
-20.000000004193051
 30
0.0
 42
-0.41421356237163
  0
VERTEX
  5
19C0
  8
SAPA_PROFIL
 10
69.00276763345164
 20
-20.500000004193058
 30
0.0
  0
VERTEX
  5
19C1
  8
SAPA_PROFIL
 10
59.800000014604393
 20
-20.500000004193058
 30
0.0
 42
-0.4142135623716965
  0
VERTEX
  5
19C2
  8
SAPA_PROFIL
 10
59.300000014604393
 20
-20.000000004198061
 30
0.0
  0
VERTEX
  5
19C3
  8
SAPA_PROFIL
 10
59.300000014604393
 20
-8.3000000041945992
 30
0.0
 42
0.4142135623729286
  0
VERTEX
  5
19C4
  8
SAPA_PROFIL
 10
59.000000014604659
 20
-8.000000004194419
 30
0.0
  0
VERTEX
  5
19C5
  8
SAPA_PROFIL
 10
58.300000014604393
 20
-8.000000004194419
 30
0.0
 42
0.414213562373206
  0
VERTEX
  5
19C6
  8
SAPA_PROFIL
 10
58.000000014604211
 20
-8.3000000041945992
 30
0.0
  0
VERTEX
  5
19C7
  8
SAPA_PROFIL
 10
58.000000014604211
 20
-19.700000004208789
 30
0.0
 42
-0.4142135623732283
  0
VERTEX
  5
19C8
  8
SAPA_PROFIL
 10
57.500000014604211
 20
-20.200000004208789
 30
0.0
  0
VERTEX
  5
19C9
  8
SAPA_PROFIL
 10
56.300000014604841
 20
-20.20000000420788
 30
0.0
 42
0.4142135623732616
  0
VERTEX
  5
19CA
  8
SAPA_PROFIL
 10
56.000000014604659
 20
-20.50000000420761
 30
0.0
  0
VERTEX
  5
19CB
  8
SAPA_PROFIL
 10
56.000000014604211
 20
-21.700000004193331
 30
0.0
 42
0.4142135623717076
  0
VERTEX
  5
19CC
  8
SAPA_PROFIL
 10
56.300000014605757
 20
-22.000000004193058
 30
0.0
  0
VERTEX
  5
19CD
  8
SAPA_PROFIL
 10
86.200000014604015
 20
-22.000000004206701
 30
0.0
 42
0.4142135623732531
  0
VERTEX
  5
19CE
  8
SAPA_PROFIL
 10
86.500000014604211
 20
-21.700000004206512
 30
0.0
  0
VERTEX
  5
19CF
  8
SAPA_PROFIL
 10
86.500000014604211
 20
-0.2045679027622214
 30
0.0
 42
0.4209196114694233
  0
VERTEX
  5
19D0
  8
SAPA_PROFIL
 10
86.300052185652021
 20
-0.0000000041930548
 30
0.0
  0
VERTEX
  5
19D1
  8
SAPA_PROFIL
 10
85.499998735371719
 20
-0.0000000041930548
 30
0.0
  0
VERTEX
  5
19D2
  8
SAPA_PROFIL
 10
85.499998735371719
 20
-0.3000000041927819
 30
0.0
 42
-0.4142135623730117
  0
VERTEX
  5
19D3
  8
SAPA_PROFIL
 10
85.299998735371915
 20
-0.5000000041930548
 30
0.0
  0
VERTEX
  5
19D4
  8
SAPA_PROFIL
 10
85.082820969902045
 20
-0.5000000041930548
 30
0.0
 42
-0.1988669396405999
  0
VERTEX
  5
19D5
  8
SAPA_PROFIL
 10
84.941424335785541
 20
-0.4414460782298307
 30
0.0
  0
VERTEX
  5
19D6
  8
SAPA_PROFIL
 10
84.499823908297003
 20
-0.0000000041930548
 30
0.0
  0
VERTEX
  5
19D7
  8
SAPA_PROFIL
 10
84.002767633449366
 20
0.4970562706545821
 30
0.0
  0
VERTEX
  5
19D8
  8
SAPA_PROFIL
 10
84.002767633452095
 20
2.000400652213727
 30
0.0
 42
0.4956073595117196
  0
VERTEX
  5
19D9
  8
SAPA_PROFIL
 10
84.21674336796741
 20
3.5774624729335178
 30
0.0
  0
VERTEX
  5
19DA
  8
SAPA_PROFIL
 10
83.154564675020069
 20
4.6396411658808461
 30
0.0
 42
0.6681786379165803
  0
VERTEX
  5
19DB
  8
SAPA_PROFIL
 10
82.802767633449093
 20
4.4939220600560361
 30
0.0
  0
VERTEX
  5
19DC
  8
SAPA_PROFIL
 10
82.802767633449093
 20
-0.0000000041930548
 30
0.0
  0
VERTEX
  5
19DD
  8
SAPA_PROFIL
 10
84.879939522589211
 20
-2.077171893332717
 30
0.0
 42
-0.2061234514950363
  0
VERTEX
  5
19DE
  8
SAPA_PROFIL
 10
85.026194213178769
 20
-2.4445774311937489
 30
0.0
  0
VERTEX
  5
19DF
  8
SAPA_PROFIL
 10
84.606630723787021
 20
-17.583112887801061
 30
0.0
 42
-0.4061212134723014
  0
VERTEX
  5
19E0
  8
SAPA_PROFIL
 10
81.607782236687399
 20
-20.500000004193058
 30
0.0
  0
VERTEX
  5
19E1
  8
SAPA_PROFIL
 10
71.302767633451822
 20
-20.500000004193058
 30
0.0
 42
-0.41421356237163
  0
SEQEND
  5
19E2
  8
SAPA_PROFIL
  0
LINE
  5
F7D
  8
SAPA_GLAS
 10
28.949999934933889
 20
-15.000000004193
 30
0.0
 11
40.949999934933878
 21
-15.000000004193
 31
0.0
  0
POLYLINE
  5
F7E
  8
SAPA_GLAS
 66
     1
 10
0.0
 20
0.0
 30
0.0
  0
VERTEX
  5
19E8
  8
SAPA_GLAS
 10
46.949999934933892
 20
-35.000000004192998
 30
0.0
  0
VERTEX
  5
19E9
  8
SAPA_GLAS
 10
46.949999934933892
 20
-5.0000000041929971
 30
0.0
  0
VERTEX
  5
19EA
  8
SAPA_GLAS
 10
22.949999934933889
 20
-5.0000000041929971
 30
0.0
  0
VERTEX
  5
19EB
  8
SAPA_GLAS
 10
22.949999934933889
 20
-35.000000004192998
 30
0.0
  0
SEQEND
  5
19EC
  8
SAPA_GLAS
  0
LINE
  5
F7F
  8
SAPA_GLAS
 10
40.949999934933878
 20
-35.000000004192998
 30
0.0
 11
40.949999934933878
 21
-5.0000000041929971
 31
0.0
  0
LINE
  5
F80
  8
SAPA_GLAS
 10
28.949999934933889
 20
-35.000000004192998
 30
0.0
 11
28.949999934933889
 21
-5.0000000041929971
 31
0.0
  0
INSERT
  5
F8A
  8
SAPA_FYLLNING
  6
CONTINUOUS
  2
*X99
 10
0.0
 20
0.0
 30
0.0
1001
ACAD
1000
HATCH
1002
{
1070
    19
1000
HEX
1040
0.25
1040
-3.1415926535897931
1000
R14_HATCH_DATA
1000
F8A
1011
1.0
1021
0.0
1031
0.0
1021
0.0
1031
0.0
1011
0.0
1021
0.0
1031
0.0
1021
1.0
1031
0.0
1011
0.0
1021
0.0
1031
0.0
1021
0.0
1031
1.0
1040
0.0
1010
0.0
1020
0.0
1030
1.0
1000
HEX
1070
     0
1070
     0
1071
        1
1071
        7
1070
     1
1070
     1
1071
        2
1040
223.80000009340199
1040
160.49999999607991
1040
1.0
1040
229.80000009340219
1040
160.49999999607991
1040
1.0
1071
        0
1070
     0
1070
     1
1040
-3.1415926535897931
1040
0.25
1070
     0
1070
     3
1040
6.2831853071795862
1040
99.999429648955413
1040
89.999999996103526
1040
0.0000000000000005
1040
1.374814999999999
1070
     2
1040
0.79375
1040
-1.587499999999999
1040
2.0943951023931939
1040
99.999429648955413
1040
89.999999996103526
1040
-1.1906247155039029
1040
-0.6874074999999992
1070
     2
1040
0.7937499999999998
1040
-1.587499999999999
1040
1.0471975511965961
1040
100.7931796489554
1040
89.999999996103526
1040
-1.190624715503902
1040
0.6874075000000005
1070
     2
1040
0.7937499999999998
1040
-1.587499999999999
1040
0.0216905703044498
1071
        1
1040
227.08657203602721
1040
160.56593617474169
1040
0.0
1002
}
  0
INSERT
  5
F8B
  8
SAPA_FYLLNING
  6
CONTINUOUS
  2
*X100
 10
0.0
 20
0.0
 30
0.0
1001
ACAD
1000
HATCH
1002
{
1070
    19
1000
ANSI37
1040
0.25
1040
-3.1415926535897931
1000
R14_HATCH_DATA
1000
F8B
1011
1.0
1021
0.0
1031
0.0
1021
0.0
1031
0.0
1011
0.0
1021
0.0
1031
0.0
1021
1.0
1031
0.0
1011
0.0
1021
0.0
1031
0.0
1021
0.0
1031
1.0
1040
0.0
1010
0.0
1020
0.0
1030
1.0
1000
ANSI37
1070
     0
1070
     0
1071
        1
1071
        7
1070
     1
1070
     1
1071
        9
1040
223.80000009340151
1040
167.02020179343111
1040
0.0
1040
223.80000009340151
1040
160.4999999960792
1040
-1.0
1040
229.80000009340171
1040
160.4999999960792
1040
0.0
1040
229.80000009340171
1040
162.0857864337024
1040
0.1989123673796868
1040
229.71213212775831
1040
162.29791846805821
1040
0.0
1040
229.44644670280891
1040
162.56360389300721
1040
-0.4142135623730951
1040
229.4464467028084
1040
163.27071067419379
1040
0.0
1040
231.08786805904501
1040
164.9121320304304
1040
-0.2679491924312271
1040
231.37764580693181
1040
164.98977774396141
1040
0.0
1071
        0
1070
     0
1070
     1
1040
-3.1415926535897931
1040
0.25
1070
     0
1070
     2
1040
0.7853981633974481
1040
99.999429648955413
1040
89.999999996103526
1040
-0.5612660075668218
1040
0.5612660075668224
1070
     0
1040
2.3561944901923439
1040
99.999429648955413
1040
89.999999996103526
1040
-0.5612660075668224
1040
-0.5612660075668218
1070
     0
1040
0.0212842410303403
1071
        1
1040
225.89878207328459
1040
165.04388522614209
1040
0.0
1002
}
  0
INSERT
  5
F8C
  8
SAPA_FYLLNING
  6
CONTINUOUS
  2
*X101
 10
0.0
 20
0.0
 30
0.0
1001
ACAD
1000
HATCH
1002
{
1070
    19
1000
ANSI37
1040
0.25
1040
0.0
1000
R14_HATCH_DATA
1000
F8C
1011
1.0
1021
0.0
1031
0.0
1021
0.0
1031
0.0
1011
0.0
1021
0.0
1031
0.0
1021
1.0
1031
0.0
1011
0.0
1021
0.0
1031
0.0
1021
0.0
1031
1.0
1040
0.0
1010
0.0
1020
0.0
1030
1.0
1000
ANSI37
1070
     0
1070
     0
1071
        1
1071
        7
1070
     1
1070
     1
1071
        7
1040
23.800000093401469
1040
187.05547054520289
1040
0.0
1040
23.660292777237931
1040
184.7502999397914
1040
0.0
1040
22.383272855305119
1040
184.11271691573469
1040
0.3394542588633754
1040
21.850152837667409
1040
183.01811883580351
1040
0.0
1040
23.164801976815419
1040
176.5747021275148
1040
0.0
1040
22.801831596945281
1040
170.5856911487889
1040
0.0
1040
23.800000093401461
1040
170.52519608547709
1040
0.0
1071
        0
1070
     0
1070
     1
1040
0.0
1040
0.25
1070
     0
1070
     2
1040
0.7853981633974483
1040
-0.0005703510445549
1040
89.999999996103526
1040
-0.5612660075668221
1040
0.5612660075668221
1070
     0
1040
2.3561944901923439
1040
-0.0005703510445549
1040
89.999999996103526
1040
-0.5612660075668221
1040
-0.5612660075668221
1070
     0
1040
0.0258300345760058
1071
        1
1040
22.990152516005629
1040
182.73309092612081
1040
0.0
1002
}
  0
INSERT
  5
F8D
  8
SAPA_FYLLNING
  6
CONTINUOUS
  2
*X102
 10
0.0
 20
0.0
 30
0.0
1001
ACAD
1000
HATCH
1002
{
1070
    19
1000
ANSI37
1040
0.25
1040
-3.1415926535897931
1000
R14_HATCH_DATA
1000
F8D
1011
1.0
1021
0.0
1031
0.0
1021
0.0
1031
0.0
1011
0.0
1021
0.0
1031
0.0
1021
1.0
1031
0.0
1011
0.0
1021
0.0
1031
0.0
1021
0.0
1031
1.0
1040
0.0
1010
0.0
1020
0.0
1030
1.0
1000
ANSI37
1070
     0
1070
     0
1071
        1
1071
        7
1070
     1
1070
     1
1071
        7
1040
23.800000093401561
1040
167.5572751206775
1040
0.0
1040
14.22178393561853
1040
164.99079983626879
1040
-0.2679491924311903
1040
14.511561683505461
1040
164.91315412273789
1040
0.0
1040
15.552983039737599
1040
163.8717327665056
1040
-0.198912367379658
1040
15.69942964914433
1040
163.51817937591241
1040
0.0
1040
15.69942964914426
1040
157.0237888960217
1040
-1.0
1040
23.800000093401561
1040
157.0237888960217
1040
0.0
1071
        0
1070
     0
1070
     1
1040
-3.1415926535897931
1040
0.25
1070
     0
1070
     2
1040
0.7853981633974481
1040
-0.000570351044578
1040
89.999999996103526
1040
-0.5612660075668218
1040
0.5612660075668224
1070
     0
1040
2.3561944901923439
1040
-0.000570351044578
1040
89.999999996103526
1040
-0.5612660075668224
1040
-0.5612660075668218
1070
     0
1040
0.0363322098761133
1071
        1
1040
20.705541344208239
1040
163.9258193842405
1040
0.0
1002
}
  0
INSERT
  5
F8E
  8
SAPA_FYLLNING
  6
CONTINUOUS
  2
*X103
 10
0.0
 20
0.0
 30
0.0
1001
ACAD
1000
HATCH
1002
{
1070
    19
1000
HEX
1040
0.25
1040
-3.1415926535897931
1000
R14_HATCH_DATA
1000
F8E
1011
1.0
1021
0.0
1031
0.0
1021
0.0
1031
0.0
1011
0.0
1021
0.0
1031
0.0
1021
1.0
1031
0.0
1011
0.0
1021
0.0
1031
0.0
1021
0.0
1031
1.0
1040
0.0
1010
0.0
1020
0.0
1030
1.0
1000
HEX
1070
     0
1070
     0
1071
        1
1071
        7
1070
     1
1070
     1
1071
        2
1040
15.699429649144159
1040
157.02378889602241
1040
1.0
1040
23.800000093401451
1040
157.02378889602241
1040
1.0
1071
        0
1070
     0
1070
     1
1040
-3.1415926535897931
1040
0.25
1070
     0
1070
     3
1040
6.2831853071795862
1040
-0.000570351044578
1040
89.999999996103526
1040
0.0000000000000005
1040
1.374814999999999
1070
     2
1040
0.79375
1040
-1.587499999999999
1040
2.0943951023931939
1040
-0.000570351044578
1040
89.999999996103526
1040
-1.1906247155039029
1040
-0.6874074999999992
1070
     2
1040
0.7937499999999998
1040
-1.587499999999999
1040
1.0471975511965961
1040
0.7931796489554248
1040
89.999999996103526
1040
-1.190624715503902
1040
0.6874075000000005
1070
     2
1040
0.7937499999999998
1040
-1.587499999999999
1040
0.0303180261480682
1071
        1
1040
19.925492530259682
1040
157.03537099361699
1040
0.0
1002
}
  0
INSERT
  5
F98
  8
SAPA_ISOLATOR
  6
CONTINUOUS
  2
*X109
 10
0.0
 20
0.0
 30
0.0
1001
ACAD
1000
HATCH
1002
{
1070
    19
1000
ANSI31
1040
0.35
1040
5.4977871437821371
1000
R14_HATCH_DATA
1000
F98
1011
1.0
1021
0.0
1031
0.0
1021
0.0
1031
0.0
1011
0.0
1021
0.0
1031
0.0
1021
1.0
1031
0.0
1011
0.0
1021
0.0
1031
0.0
1021
0.0
1031
1.0
1040
0.0
1010
0.0
1020
0.0
1030
1.0
1000
ANSI31
1070
     0
1070
     0
1071
        1
1071
        1
1071
       49
1070
     2
1040
39.036257595746072
1040
77.871836805520928
1040
0.3006817060114675
1040
-1.5657379063807291
1040
-0.3498199254894492
1070
     0
1070
     1
1040
39.318728347285891
1040
77.974889039142994
1040
40.204206060157077
1040
75.542059017598973
1070
     2
1040
40.580083108473218
1040
75.678867074931787
1040
0.400000000002539
1040
3.490658503993135
1040
4.7123889803853398
1070
     1
1070
     1
1040
40.580083108473467
1040
75.278867074929252
1040
51.000000093187602
1040
75.278867074929281
1070
     1
1040
51.000000093187602
1040
75.278867074929281
1040
61.419917077905701
1040
75.278867074929337
1070
     2
1040
61.419917077903953
1040
75.678867074928988
1040
0.3999999999996488
1040
4.7123889803890684
1040
5.9341194567812998
1070
     1
1070
     1
1040
61.795794126218063
1040
75.542059017599058
1040
62.681271839086243
1040
77.974889039134752
1070
     2
1040
62.96363441123367
1040
77.871990596191011
1040
0.3005273892841634
1040
3.4910552070390422
1040
4.7076879318700922
1070
     0
1070
     2
1040
63.191810386171952
1040
72.611871589666094
1040
5.5653807064749881
1040
4.6711242502471872
1040
4.7342885622872561
1070
     0
1070
     1
1040
63.313680154939277
1040
78.175917794314714
1040
63.553863219721563
1040
78.314587551421241
1070
     2
1040
63.658863219721283
1040
78.132722216626334
1040
0.2100000000000017
1040
4.188790204787975
1040
6.2831853071790738
1070
     0
1070
     1
1040
63.868863219721277
1040
78.132722216626433
1040
63.868863219721398
1040
77.865607688413519
1070
     1
1040
63.868863219721398
1040
77.865607688413519
1040
64.200000093187583
1040
77.669385622629221
1070
     1
1040
64.200000093187583
1040
77.669385622629221
1040
65.183320231168096
1040
77.101741459131773
1070
     2
1040
65.288320231166381
1040
77.28360679392533
1040
0.209999999998109
1040
4.1887902047907026
1040
4.7123889803873293
1070
     1
1070
     1
1040
65.288320231166921
1040
77.073606793927212
1040
65.600000093189493
1040
77.073606793927098
1070
     2
1040
65.600000093191412
1040
77.473606793923238
1040
0.3999999999961332
1040
4.7123889803799113
1040
6.2831853071900472
1070
     1
1070
     1
1040
66.000000093187538
1040
77.473606793927416
1040
66.000000093187595
1040
80.873606793927166
1070
     2
1040
65.60000009319053
1040
80.873606793930065
1040
0.3999999999970676
1040
6.2831853071723121
1040
7.8539816339818991
1070
     1
1070
     1
1040
65.60000009318756
1040
81.273606793927144
1040
65.288320231163894
1040
81.273606793927144
1070
     2
1040
65.288320231165571
1040
81.063606793932195
1040
0.2099999999949489
1040
1.57079632680278
1040
2.0943951023994072
1070
     1
1070
     1
1040
65.18332023116696
1040
81.2454721287219
1040
64.200000093187583
1040
80.677751982359865
1070
     1
1040
64.200000093187583
1040
80.677751982359865
1040
63.605255981516713
1040
80.334376309387764
1070
     2
1040
63.005255981510601
1040
81.373606793938151
1040
1.2000000000109059
1040
1.047197551195963
1040
1.5707963267926159
1070
     0
1070
     1
1040
63.005255981513343
1040
80.173606793927235
1040
62.053391648626899
1040
80.173606793927462
1070
     2
1040
62.053391648635909
1040
79.173606793935221
1040
0.9999999999922533
1040
1.570796326803906
1040
2.7925268031964121
1070
     1
1070
     1
1040
61.113699027855411
1040
79.515626937253074
1040
60.322585002945551
1040
77.342059017599382
1070
     2
1040
59.946707954630071
1040
77.478867074930662
1040
0.4000000000013905
1040
0.3490658504002764
1040
1.5707963267925069
1070
     0
1070
     1
1040
59.94670795463103
1040
77.078867074929263
1040
51.000000093187602
1040
77.078867074929263
1070
     1
1040
51.000000093187602
1040
77.078867074929263
1040
42.053292231744123
1040
77.078867074929207
1070
     2
1040
42.053292231743121
1040
77.478867074927791
1040
0.3999999999985775
1040
1.570796326792411
1040
2.7925268031846149
1070
     0
1070
     1
1040
41.677415183430952
1040
77.342059017595631
1040
40.886301158519849
1040
79.515626937252847
1070
     2
1040
39.946608537724693
1040
79.173606793913962
1040
1.000000000013211
1040
6.632251157587703
1040
7.853981633979922
1070
     1
1070
     1
1040
39.94660853771925
1040
80.173606793927178
1040
38.994744204861753
1040
80.173606793927178
1070
     2
1040
38.994744204858762
1040
81.37360679391621
1040
1.1999999999890261
1040
1.570796326792401
1040
2.094395102389051
1070
     0
1070
     1
1040
38.394744204868552
1040
80.334376309381895
1040
37.807179770160047
1040
80.673606793927107
1070
     1
1040
37.807179770160047
1040
80.673606793927107
1040
36.816679955208123
1040
81.245472128721843
1070
     2
1040
36.711679955206463
1040
81.063606793920698
1040
0.2100000000063851
1040
7.3303828583845627
1040
7.8539816339812401
1070
     1
1070
     1
1040
36.711679955205042
1040
81.273606793927087
1040
36.400000093187529
1040
81.273606793927144
1070
     2
1040
36.400000093190492
1040
80.873606793924196
1040
0.40000000000295
1040
1.5707963268023291
1040
3.141592653592308
1070
     1
1070
     1
1040
36.000000093187552
1040
80.873606793923173
1040
36.000000093187552
1040
77.473606793927132
1070
     2
1040
36.400000093189533
1040
77.473606793929136
1040
0.4000000000019782
1040
3.1415926535947949
1040
4.7123889803848034
1070
     1
1070
     1
1040
36.400000093189568
1040
77.073606793927155
1040
36.711679955208218
1040
77.073606793927155
1070
     2
1040
36.711679955207742
1040
77.283606793929053
1040
0.2100000000019078
1040
4.7123889803869421
1040
5.2359877559835688
1070
     1
1070
     1
1040
36.816679955208812
1040
77.101741459132739
1040
38.131136966653813
1040
77.865607688413519
1070
     1
1040
38.131136966653813
1040
77.865607688413519
1040
38.131136966653919
1040
78.132722216626433
1070
     2
1040
38.34113696665392
1040
78.132722216626334
1040
0.2100000000000017
1040
3.1415926535902998
1040
5.235987755981399
1070
     0
1070
     1
1040
38.446136966653633
1040
78.314587551421226
1040
38.686320031435933
1040
78.175917794314699
1070
     2
1040
38.808189800206328
1040
72.611871590223586
1040
5.5653807059176952
1040
4.6904893984793761
1040
4.7536537105194441
1070
     0
1071
        0
1070
     0
1070
     1
1040
5.4977871437821371
1040
0.35
1070
     0
1070
     1
1040
0.0
1040
0.0
1040
0.0
1040
0.0000000000000003
1040
1.111249999999999
1070
     0
1071
        1
1040
35.99999994237178
1040
75.278866881909067
1040
0.0
1002
}
  0
INSERT
  5
F99
  8
SAPA_ISOLATOR
  6
CONTINUOUS
  2
*X110
 10
0.0
 20
0.0
 30
0.0
1001
ACAD
1000
HATCH
1002
{
1070
    19
1000
ANSI31
1040
0.35
1040
3.926990816987241
1000
R14_HATCH_DATA
1000
F99
1011
1.0
1021
0.0
1031
0.0
1021
0.0
1031
0.0
1011
0.0
1021
0.0
1031
0.0
1021
1.0
1031
0.0
1011
0.0
1021
0.0
1031
0.0
1021
0.0
1031
1.0
1040
0.0
1010
0.0
1020
0.0
1030
1.0
1000
ANSI31
1070
     0
1070
     0
1071
        1
1071
        1
1071
       49
1070
     2
1040
39.036257595746093
1040
117.128163186823
1040
0.3006817060114675
1040
-1.5657379063807291
1040
-0.3498199254894492
1070
     1
1070
     1
1040
39.318728347285898
1040
117.02511095320089
1040
40.204206060157098
1040
119.4579409747449
1070
     2
1040
40.580083108473232
1040
119.3211329174121
1040
0.400000000002539
1040
3.490658503993135
1040
4.7123889803853398
1070
     0
1070
     1
1040
40.580083108473488
1040
119.72113291741471
1040
51.000000093187623
1040
119.72113291741459
1070
     1
1040
51.000000093187623
1040
119.72113291741459
1040
61.419917077905708
1040
119.72113291741459
1070
     2
1040
61.41991707790396
1040
119.3211329174149
1040
0.3999999999996488
1040
4.7123889803890684
1040
5.9341194567812998
1070
     0
1070
     1
1040
61.795794126218077
1040
119.4579409747448
1040
62.68127183908625
1040
117.02511095320909
1070
     2
1040
62.963634411233677
1040
117.1280093961529
1040
0.3005273892841634
1040
3.4910552070390422
1040
4.7076879318700922
1070
     1
1070
     2
1040
63.191810386171959
1040
122.38812840267779
1040
5.5653807064749881
1040
4.6711242502471872
1040
4.7342885622872561
1070
     1
1070
     1
1040
63.313680154939291
1040
116.8240821980292
1040
63.553863219721578
1040
116.6854124409227
1070
     2
1040
63.658863219721297
1040
116.8672777757176
1040
0.2100000000000017
1040
4.188790204787975
1040
6.2831853071790738
1070
     1
1070
     1
1040
63.868863219721298
1040
116.8672777757175
1040
63.868863219721412
1040
117.1343923039304
1070
     1
1040
63.868863219721412
1040
117.1343923039304
1040
64.200000093187612
1040
117.3306143697147
1070
     1
1040
64.200000093187612
1040
117.3306143697147
1040
65.183320231168125
1040
117.8982585332121
1070
     2
1040
65.288320231166381
1040
117.7163931984186
1040
0.209999999998109
1040
4.1887902047907026
1040
4.7123889803873293
1070
     0
1070
     1
1040
65.288320231166949
1040
117.9263931984167
1040
65.600000093189522
1040
117.9263931984168
1070
     2
1040
65.600000093191426
1040
117.52639319842071
1040
0.3999999999961332
1040
4.7123889803799113
1040
6.2831853071900472
1070
     0
1070
     1
1040
66.000000093187566
1040
117.5263931984165
1040
66.000000093187623
1040
114.12639319841669
1070
     2
1040
65.600000093190545
1040
114.12639319841379
1040
0.3999999999970676
1040
6.2831853071723121
1040
7.8539816339818991
1070
     0
1070
     1
1040
65.600000093187589
1040
113.7263931984168
1040
65.288320231163937
1040
113.7263931984168
1070
     2
1040
65.288320231165585
1040
113.93639319841169
1040
0.2099999999949489
1040
1.57079632680278
1040
2.0943951023994072
1070
     0
1070
     1
1040
65.183320231166974
1040
113.754527863622
1040
64.200000093187612
1040
114.32224800998399
1070
     1
1040
64.200000093187612
1040
114.32224800998399
1040
63.605255981516727
1040
114.66562368295619
1070
     2
1040
63.005255981510608
1040
113.62639319840569
1040
1.2000000000109059
1040
1.047197551195963
1040
1.5707963267926159
1070
     1
1070
     1
1040
63.005255981513351
1040
114.8263931984167
1040
62.053391648626921
1040
114.8263931984164
1070
     2
1040
62.05339164863593
1040
115.8263931984087
1040
0.9999999999922533
1040
1.570796326803906
1040
2.7925268031964121
1070
     0
1070
     1
1040
61.113699027855432
1040
115.4843730550908
1040
60.322585002945559
1040
117.65794097474451
1070
     2
1040
59.946707954630078
1040
117.5211329174132
1040
0.4000000000013905
1040
0.3490658504002764
1040
1.5707963267925069
1070
     1
1070
     1
1040
59.946707954631037
1040
117.9211329174146
1040
51.000000093187623
1040
117.9211329174146
1070
     1
1040
51.000000093187623
1040
117.9211329174146
1040
42.05329223174413
1040
117.9211329174147
1070
     2
1040
42.053292231743129
1040
117.5211329174161
1040
0.3999999999985775
1040
1.570796326792411
1040
2.7925268031846149
1070
     1
1070
     1
1040
41.677415183430973
1040
117.6579409747483
1040
40.886301158519863
1040
115.4843730550911
1070
     2
1040
39.946608537724707
1040
115.8263931984299
1040
1.000000000013211
1040
6.632251157587703
1040
7.853981633979922
1070
     0
1070
     1
1040
39.946608537719271
1040
114.8263931984167
1040
38.994744204861767
1040
114.8263931984167
1070
     2
1040
38.994744204858769
1040
113.62639319842771
1040
1.1999999999890261
1040
1.570796326792401
1040
2.094395102389051
1070
     1
1070
     1
1040
38.394744204868573
1040
114.66562368296201
1040
37.807179770160069
1040
114.3263931984168
1070
     1
1040
37.807179770160069
1040
114.3263931984168
1040
36.816679955208137
1040
113.7545278636221
1070
     2
1040
36.711679955206471
1040
113.9363931984232
1040
0.2100000000063851
1040
7.3303828583845627
1040
7.8539816339812401
1070
     0
1070
     1
1040
36.711679955205049
1040
113.7263931984168
1040
36.400000093187543
1040
113.7263931984168
1070
     2
1040
36.400000093190513
1040
114.12639319841971
1040
0.40000000000295
1040
1.5707963268023291
1040
3.141592653592308
1070
     0
1070
     1
1040
36.000000093187559
1040
114.1263931984207
1040
36.000000093187559
1040
117.5263931984168
1070
     2
1040
36.40000009318954
1040
117.52639319841479
1040
0.4000000000019782
1040
3.1415926535947949
1040
4.7123889803848034
1070
     0
1070
     1
1040
36.40000009318959
1040
117.9263931984168
1040
36.71167995520824
1040
117.9263931984168
1070
     2
1040
36.711679955207757
1040
117.71639319841481
1040
0.2100000000019078
1040
4.7123889803869421
1040
5.2359877559835688
1070
     0
1070
     1
1040
36.816679955208819
1040
117.89825853321121
1040
38.13113696665382
1040
117.1343923039304
1070
     1
1040
38.13113696665382
1040
117.1343923039304
1040
38.131136966653933
1040
116.8672777757175
1070
     2
1040
38.341136966653941
1040
116.8672777757176
1040
0.2100000000000017
1040
3.1415926535902998
1040
5.235987755981399
1070
     1
1070
     1
1040
38.446136966653647
1040
116.6854124409227
1040
38.68632003143594
1040
116.8240821980292
1070
     2
1040
38.808189800206343
1040
122.3881284021203
1040
5.5653807059176952
1040
4.6904893984793761
1040
4.7536537105194441
1070
     1
1071
        0
1070
     0
1070
     1
1040
3.926990816987241
1040
0.35
1070
     0
1070
     1
1040
4.7123889803846888
1040
35.999999942371801
1040
119.72113311043481
1040
1.111249999999999
1040
-0.0000000000000005
1070
     0
1071
        1
1040
35.999999942371801
1040
119.72113311043481
1040
0.0
1002
}
  0
INSERT
  5
F9A
  8
SAPA_ISOLATOR
  6
CONTINUOUS
  2
*X111
 10
0.0
 20
0.0
 30
0.0
1001
ACAD
1000
HATCH
1002
{
1070
    19
1000
ANSI31
1040
0.35
1040
5.4977871437821371
1000
R14_HATCH_DATA
1000
F9A
1011
1.0
1021
0.0
1031
0.0
1021
0.0
1031
0.0
1011
0.0
1021
0.0
1031
0.0
1021
1.0
1031
0.0
1011
0.0
1021
0.0
1031
0.0
1021
0.0
1031
1.0
1040
0.0
1010
0.0
1020
0.0
1030
1.0
1000
ANSI31
1070
     0
1070
     0
1071
        1
1071
        1
1071
       49
1070
     2
1040
39.036257505982853
1040
2.8681562807737468
1040
0.3006817060114675
1040
-1.5657379063807291
1040
-0.3498199254894492
1070
     0
1070
     1
1040
39.318728257522672
1040
2.97120851439582
1040
40.204205970393851
1040
0.5383784928517992
1070
     2
1040
40.580083018709992
1040
0.6751865501846172
1040
0.400000000002539
1040
3.490658503993135
1040
4.7123889803853398
1070
     1
1070
     1
1040
40.580083018710262
1040
0.2751865501820784
1040
51.000000003424368
1040
0.2751865501821091
1070
     1
1040
51.000000003424368
1040
0.2751865501821091
1040
61.419916988142482
1040
0.2751865501821692
1070
     2
1040
61.419916988140727
1040
0.6751865501818188
1040
0.3999999999996488
1040
4.7123889803890684
1040
5.9341194567812998
1070
     1
1070
     1
1040
61.795794036454829
1040
0.5383784928518894
1040
62.681271749323017
1040
2.971208514387583
1070
     2
1040
62.96363432147043
1040
2.8683100714438421
1040
0.3005273892841634
1040
3.4910552070390422
1040
4.7076879318700922
1070
     0
1070
     2
1040
63.191810296408732
1040
-2.3918089350810812
1040
5.5653807064749881
1040
4.6711242502471872
1040
4.7342885622872561
1070
     0
1070
     1
1040
63.313680065176058
1040
3.1722372695675318
1040
63.553863129958337
1040
3.3109070266740561
1070
     2
1040
63.65886312995805
1040
3.1290416918791562
1040
0.2100000000000017
1040
4.188790204787975
1040
6.2831853071790738
1070
     0
1070
     1
1040
63.868863129958051
1040
3.1290416918792641
1040
63.868863129958171
1040
2.8619271636663499
1070
     1
1040
63.868863129958171
1040
2.8619271636663499
1040
64.200000003424364
1040
2.6657050978820518
1070
     1
1040
64.200000003424364
1040
2.6657050978820518
1040
65.183320141404863
1040
2.0980609343846042
1070
     2
1040
65.288320141403148
1040
2.2799262691781501
1040
0.209999999998109
1040
4.1887902047907026
1040
4.7123889803873293
1070
     1
1070
     1
1040
65.288320141403702
1040
2.0699262691800429
1040
65.600000003426274
1040
2.0699262691799301
1070
     2
1040
65.600000003428192
1040
2.4699262691760628
1040
0.3999999999961332
1040
4.7123889803799113
1040
6.2831853071900472
1070
     1
1070
     1
1040
66.000000003424319
1040
2.4699262691802479
1040
66.000000003424375
1040
5.8699262691799978
1070
     2
1040
65.600000003427311
1040
5.8699262691829066
1040
0.3999999999970676
1040
6.2831853071723121
1040
7.8539816339818991
1070
     1
1070
     1
1040
65.600000003424341
1040
6.2699262691799751
1040
65.288320141400689
1040
6.2699262691799742
1070
     2
1040
65.288320141402352
1040
6.0599262691850262
1040
0.2099999999949489
1040
1.57079632680278
1040
2.0943951023994072
1070
     1
1070
     1
1040
65.18332014140374
1040
6.2417916039747308
1040
64.200000003424364
1040
5.6740714576126958
1070
     1
1040
64.200000003424364
1040
5.6740714576126958
1040
63.605255891753487
1040
5.3306957846405814
1070
     2
1040
63.005255891747368
1040
6.3699262691909722
1040
1.2000000000109059
1040
1.047197551195963
1040
1.5707963267926159
1070
     0
1070
     1
1040
63.00525589175011
1040
5.169926269180066
1040
62.05339155886368
1040
5.1699262691802943
1070
     2
1040
62.05339155887269
1040
4.1699262691880401
1040
0.9999999999922533
1040
1.570796326803906
1040
2.7925268031964121
1070
     1
1070
     1
1040
61.113698938092178
1040
4.511946412505905
1040
60.322584913182318
1040
2.3383784928522129
1070
     2
1040
59.946707864866852
1040
2.4751865501834849
1040
0.4000000000013905
1040
0.3490658504002764
1040
1.5707963267925069
1070
     0
1070
     1
1040
59.946707864867797
1040
2.0751865501820941
1040
51.000000003424368
1040
2.0751865501820901
1070
     1
1040
51.000000003424368
1040
2.0751865501820919
1040
42.05329214198089
1040
2.0751865501820328
1070
     2
1040
42.053292141979888
1040
2.4751865501806098
1040
0.3999999999985775
1040
1.570796326792411
1040
2.7925268031846149
1070
     0
1070
     1
1040
41.677415093667733
1040
2.3383784928484568
1040
40.886301068756623
1040
4.5119464125056741
1070
     2
1040
39.946608447961466
1040
4.1699262691667931
1040
1.000000000013211
1040
6.632251157587703
1040
7.853981633979922
1070
     1
1070
     1
1040
39.946608447956017
1040
5.169926269180003
1040
38.994744115098527
1040
5.169926269180003
1070
     2
1040
38.994744115095529
1040
6.3699262691690297
1040
1.1999999999890261
1040
1.570796326792401
1040
2.094395102389051
1070
     0
1070
     1
1040
38.394744115105333
1040
5.3306957846347212
1040
37.807179680396828
1040
5.669926269179947
1070
     1
1040
37.807179680396828
1040
5.6699262691799461
1040
36.816679865444897
1040
6.2417916039746677
1070
     2
1040
36.71167986544323
1040
6.0599262691735261
1040
0.2100000000063851
1040
7.3303828583845627
1040
7.8539816339812401
1070
     1
1070
     1
1040
36.711679865441809
1040
6.269926269179912
1040
36.400000003424303
1040
6.269926269179968
1070
     2
1040
36.400000003427273
1040
5.8699262691770171
1040
0.40000000000295
1040
1.5707963268023291
1040
3.141592653592308
1070
     1
1070
     1
1040
36.000000003424319
1040
5.8699262691760117
1040
36.000000003424319
1040
2.4699262691799571
1070
     2
1040
36.4000000034263
1040
2.4699262691819568
1040
0.4000000000019782
1040
3.1415926535947949
1040
4.7123889803848034
1070
     1
1070
     1
1040
36.400000003426342
1040
2.0699262691799798
1040
36.711679865444992
1040
2.0699262691799798
1070
     2
1040
36.711679865444523
1040
2.279926269181888
1040
0.2100000000019078
1040
4.7123889803869421
1040
5.2359877559835688
1070
     1
1070
     1
1040
36.816679865445579
1040
2.0980609343855638
1040
38.131136876890579
1040
2.8619271636663441
1070
     1
1040
38.131136876890579
1040
2.8619271636663441
1040
38.1311368768907
1040
3.1290416918792578
1070
     2
1040
38.341136876890701
1040
3.1290416918791522
1040
0.2100000000000017
1040
3.1415926535902998
1040
5.235987755981399
1070
     0
1070
     1
1040
38.446136876890407
1040
3.3109070266740521
1040
38.6863199416727
1040
3.1722372695675278
1070
     2
1040
38.808189710443102
1040
-2.3918089345235911
1040
5.5653807059176952
1040
4.6904893984793761
1040
4.7536537105194441
1070
     0
1071
        0
1070
     0
1070
     1
1040
5.4977871437821371
1040
0.35
1070
     0
1070
     1
1040
0.0
1040
0.0
1040
0.0
1040
0.0000000000000003
1040
1.111249999999999
1070
     0
1071
        1
1040
35.999999852608553
1040
0.2751863571618927
1040
0.0
1002
}
  0
INSERT
  5
F9B
  8
SAPA_ISOLATOR
  6
CONTINUOUS
  2
*X112
 10
0.0
 20
0.0
 30
0.0
1001
ACAD
1000
HATCH
1002
{
1070
    19
1000
ANSI31
1040
0.35
1040
3.926990816987241
1000
R14_HATCH_DATA
1000
F9B
1011
1.0
1021
0.0
1031
0.0
1021
0.0
1031
0.0
1011
0.0
1021
0.0
1031
0.0
1021
1.0
1031
0.0
1011
0.0
1021
0.0
1031
0.0
1021
0.0
1031
1.0
1040
0.0
1010
0.0
1020
0.0
1030
1.0
1000
ANSI31
1070
     0
1070
     0
1071
        1
1071
        7
1070
     1
1070
     1
1071
       24
1040
63.002106003447771
1040
47.527121370748382
1040
-0.1309057172584691
1040
63.599051707361028
1040
47.368109279714247
1040
0.0
1040
65.240000003473668
1040
46.427121370800883
1040
0.0
1040
65.60000000347398
1040
46.427121370809402
1040
0.4142135623728775
1040
66.000000003464237
1040
46.827121370818929
1040
0.0
1040
66.000000003384486
1040
50.227121370818907
1040
0.4142135623731472
1040
65.600000003374944
1040
50.627121370809562
1040
0.0
1040
65.240000003374604
1040
50.627121370800921
1040
0.0
1040
63.858863129958038
1040
49.83512047633252
1040
0.0
1040
63.858863129958038
1040
49.568005948119492
1040
-0.5773502691895098
1040
63.543863129958332
1040
49.38614061332482
1040
0.0
1040
63.299677295210493
1040
49.527121370748368
1040
0.0
1040
38.700322711720688
1040
49.527121370748389
1040
0.0
1040
38.456136876972799
1040
49.38614061332494
1040
-0.5773502691896486
1040
38.141136876973093
1040
49.568005948119513
1040
0.0
1040
38.141136876973199
1040
49.835120476332527
1040
0.0
1040
36.760000003556407
1040
50.627121370800943
1040
0.0
1040
36.40000000355618
1040
50.627121370809462
1040
0.4142135623730794
1040
36.000000003546603
1040
50.227121370818921
1040
0.0
1040
36.000000003466837
1040
46.827121370818929
1040
0.4142135623729623
1040
36.400000003457222
1040
46.427121370809402
1040
0.0
1040
36.76000000345762
1040
46.427121370800883
1040
0.0
1040
38.40094829957004
1040
47.368109279714247
1040
-0.1309134860018382
1040
38.99793066516829
1040
47.527121370188361
1040
0.0
1071
        0
1070
     0
1070
     1
1040
3.926990816987241
1040
0.35
1070
     0
1070
     1
1040
4.7123889803846888
1040
11.98400061711763
1040
81.455344241453204
1040
1.111249999999999
1040
-0.0000000000000005
1070
     0
1040
0.1003283970076292
1071
        1
1040
50.465565400591032
1040
48.312185152401398
1040
0.0
1002
}
  0
INSERT
  5
F9C
  8
SAPA_ISOLATOR
  6
CONTINUOUS
  2
*X113
 10
0.0
 20
0.0
 30
0.0
1001
ACAD
1000
HATCH
1002
{
1070
    19
1000
ANSI31
1040
0.35
1040
5.4977871437821371
1000
R14_HATCH_DATA
1000
F9C
1011
1.0
1021
0.0
1031
0.0
1021
0.0
1031
0.0
1011
0.0
1021
0.0
1031
0.0
1021
1.0
1031
0.0
1011
0.0
1021
0.0
1031
0.0
1021
0.0
1031
1.0
1040
0.0
1010
0.0
1020
0.0
1030
1.0
1000
ANSI31
1070
     0
1070
     0
1071
        1
1071
        7
1070
     1
1070
     1
1071
       24
1040
63.002106087943652
1040
69.499999994368565
1040
0.1309057172584691
1040
63.599051791856908
1040
69.659012085402694
1040
0.0
1040
65.240000087969548
1040
70.599999994316065
1040
0.0
1040
65.600000087969846
1040
70.599999994307538
1040
-0.4142135623728775
1040
66.000000087960103
1040
70.199999994298011
1040
0.0
1040
66.000000087880352
1040
66.799999994298034
1040
-0.4142135623731472
1040
65.600000087870825
1040
66.399999994307379
1040
0.0
1040
65.24000008787047
1040
66.399999994316005
1040
0.0
1040
63.858863214453933
1040
67.192000888784435
1040
0.0
1040
63.858863214453933
1040
67.459115416997449
1040
0.5773502691895098
1040
63.543863214454213
1040
67.640980751792114
1040
0.0
1040
63.299677379706367
1040
67.499999994368565
1040
0.0
1040
38.700322796216568
1040
67.499999994368594
1040
0.0
1040
38.45613696146868
1040
67.640980751792043
1040
0.5773502691896486
1040
38.141136961468973
1040
67.459115416997463
1040
0.0
1040
38.14113696146908
1040
67.192000888784435
1040
0.0
1040
36.760000088052301
1040
66.399999994316047
1040
0.0
1040
36.40000008805206
1040
66.399999994307521
1040
-0.4142135623730794
1040
36.000000088042484
1040
66.799999994298062
1040
0.0
1040
36.000000087962739
1040
70.199999994298039
1040
-0.4142135623729623
1040
36.400000087953103
1040
70.599999994307566
1040
0.0
1040
36.760000087953507
1040
70.599999994316093
1040
0.0
1040
38.400948384065927
1040
69.659012085402722
1040
0.1309134860018382
1040
38.997930749664178
1040
69.499999994928615
1040
0.0
1071
        0
1070
     0
1070
     1
1040
5.4977871437821371
1040
0.35
1070
     0
1070
     1
1040
0.0
1040
0.0
1040
0.0
1040
0.0000000000000003
1040
1.111249999999999
1070
     0
1040
0.1003283970076292
1071
        1
1040
50.465565485086913
1040
68.714936212715571
1040
0.0
1002
}
  0
POLYLINE
  5
FAF
  8
SAPA_FOGBAND
 66
     1
 10
0.0
 20
0.0
 30
0.0
 70
   129
  0
VERTEX
  5
1CE6
  8
SAPA_FOGBAND
 10
50.584819492010631
 20
-5.5617182904572919
 30
0.0
  0
VERTEX
  5
1CE7
  8
SAPA_FOGBAND
 10
50.821383547460982
 20
-5.612229117160723
 30
0.0
  0
VERTEX
  5
1CE8
  8
SAPA_FOGBAND
 10
51.04939756158592
 20
-5.7619360043884171
 30
0.0
  0
VERTEX
  5
1CE9
  8
SAPA_FOGBAND
 10
51.26062051383019
 20
-6.00542815517906
 30
0.0
  0
VERTEX
  5
1CEA
  8
SAPA_FOGBAND
 10
51.447418256363342
 20
-6.3339051287905468
 30
0.0
  0
VERTEX
  5
1CEB
  8
SAPA_FOGBAND
 10
51.603039432073501
 20
-6.7354949115572254
 30
0.0
  0
VERTEX
  5
1CEC
  8
SAPA_FOGBAND
 10
51.721859486203577
 20
-7.1956830023993907
 30
0.0
  0
VERTEX
  5
1CED
  8
SAPA_FOGBAND
 10
51.799583952414878
 20
-7.6978370047047511
 30
0.0
  0
VERTEX
  5
1CEE
  8
SAPA_FOGBAND
 10
51.833403665989181
 20
-8.2238077644799432
 30
0.0
  0
VERTEX
  5
1CEF
  8
SAPA_FOGBAND
 10
51.8220962943617
 20
-8.7545853280646497
 30
0.0
  0
VERTEX
  5
1CF0
  8
SAPA_FOGBAND
 10
51.766070515403719
 20
-9.2709860113820923
 30
0.0
  0
VERTEX
  5
1CF1
  8
SAPA_FOGBAND
 10
51.667351246741191
 20
-9.7543457482690883
 30
0.0
  0
VERTEX
  5
1CF2
  8
SAPA_FOGBAND
 10
51.529506459953382
 20
-10.18719465845356
 30
0.0
  0
VERTEX
  5
1CF3
  8
SAPA_FOGBAND
 10
51.35751822478619
 20
-10.55388845454331
 30
0.0
  0
VERTEX
  5
1CF4
  8
SAPA_FOGBAND
 10
51.157602644169621
 20
-10.84117386733692
 30
0.0
  0
VERTEX
  5
1CF5
  8
SAPA_FOGBAND
 10
50.936985188062181
 20
-11.038667653501079
 30
0.0
  0
VERTEX
  5
1CF6
  8
SAPA_FOGBAND
 10
50.703639546140721
 20
-11.139231873039311
 30
0.0
  0
VERTEX
  5
1CF7
  8
SAPA_FOGBAND
 10
50.465999437880328
 20
-11.139231873039311
 30
0.0
  0
VERTEX
  5
1CF8
  8
SAPA_FOGBAND
 10
50.23265379595864
 20
-11.038667653501079
 30
0.0
  0
VERTEX
  5
1CF9
  8
SAPA_FOGBAND
 10
50.012036339851193
 20
-10.84117386733692
 30
0.0
  0
VERTEX
  5
1CFA
  8
SAPA_FOGBAND
 10
49.812120759234631
 20
-10.55388845454331
 30
0.0
  0
VERTEX
  5
1CFB
  8
SAPA_FOGBAND
 10
49.640132524067667
 20
-10.18719465845356
 30
0.0
  0
VERTEX
  5
1CFC
  8
SAPA_FOGBAND
 10
49.502287737280078
 20
-9.7543457482690883
 30
0.0
  0
VERTEX
  5
1CFD
  8
SAPA_FOGBAND
 10
49.403568468617102
 20
-9.2709860113820923
 30
0.0
  0
VERTEX
  5
1CFE
  8
SAPA_FOGBAND
 10
49.347542689659349
 20
-8.7545853280646497
 30
0.0
  0
VERTEX
  5
1CFF
  8
SAPA_FOGBAND
 10
49.33623531803164
 20
-8.2238077644799432
 30
0.0
  0
VERTEX
  5
1D00
  8
SAPA_FOGBAND
 10
49.370055031605951
 20
-7.6978370047047511
 30
0.0
  0
VERTEX
  5
1D01
  8
SAPA_FOGBAND
 10
49.44777949781723
 20
-7.1956830023993907
 30
0.0
  0
VERTEX
  5
1D02
  8
SAPA_FOGBAND
 10
49.566599551947768
 20
-6.7354949115572254
 30
0.0
  0
VERTEX
  5
1D03
  8
SAPA_FOGBAND
 10
49.722220727657941
 20
-6.3339051287905468
 30
0.0
  0
VERTEX
  5
1D04
  8
SAPA_FOGBAND
 10
49.909018470191093
 20
-6.00542815517906
 30
0.0
  0
VERTEX
  5
1D05
  8
SAPA_FOGBAND
 10
50.120241422435129
 20
-5.7619360043884171
 30
0.0
  0
VERTEX
  5
1D06
  8
SAPA_FOGBAND
 10
50.348255436560059
 20
-5.612229117160723
 30
0.0
  0
SEQEND
  5
1D07
  8
SAPA_FOGBAND
  0
POLYLINE
  5
FB0
  8
SAPA_FOGBAND
 66
     1
 10
0.0
 20
0.0
 30
0.0
 70
     1
  0
VERTEX
  5
1D08
  8
SAPA_FOGBAND
 10
46.949999934933892
 20
-8.8195353548942421
 30
0.0
  0
VERTEX
  5
1D09
  8
SAPA_FOGBAND
 10
46.949999934933892
 20
-22.500000004193002
 30
0.0
 42
0.427966335106886
  0
VERTEX
  5
1D0A
  8
SAPA_FOGBAND
 10
47.264012506293277
 20
-22.799672571912879
 30
0.0
  0
VERTEX
  5
1D0B
  8
SAPA_FOGBAND
 10
55.66401250629292
 20
-22.31337266383321
 30
0.0
 42
0.4005932428724212
  0
VERTEX
  5
1D0C
  8
SAPA_FOGBAND
 10
55.949999934933878
 20
-22.013700096113318
 30
0.0
  0
VERTEX
  5
1D0D
  8
SAPA_FOGBAND
 10
55.949999934933878
 20
-20.200000004192809
 30
0.0
  0
VERTEX
  5
1D0E
  8
SAPA_FOGBAND
 10
57.649999934933703
 20
-20.200000004192809
 30
0.0
 42
0.4142135623730951
  0
VERTEX
  5
1D0F
  8
SAPA_FOGBAND
 10
57.949999934933878
 20
-19.900000004192631
 30
0.0
  0
VERTEX
  5
1D10
  8
SAPA_FOGBAND
 10
57.949999934933878
 20
-12.48121924056727
 30
0.0
 42
0.1379343940649207
  0
VERTEX
  5
1D11
  8
SAPA_FOGBAND
 10
57.803423320078991
 20
-11.96000093151838
 30
0.0
  0
VERTEX
  5
1D12
  8
SAPA_FOGBAND
 10
50.996205082170711
 20
-0.0393908496687345
 30
0.0
 42
0.2613472755167645
  0
VERTEX
  5
1D13
  8
SAPA_FOGBAND
 10
50.569493389598172
 20
0.1999999958068201
 30
0.0
  0
VERTEX
  5
1D14
  8
SAPA_FOGBAND
 10
48.774796772435131
 20
0.1999999958068201
 30
0.0
 42
0.3915187749346393
  0
VERTEX
  5
1D15
  8
SAPA_FOGBAND
 10
47.777845158429727
 20
-0.7219777039665587
 30
0.0
  0
VERTEX
  5
1D16
  8
SAPA_FOGBAND
 10
46.951524127931179
 20
-8.7805242047809315
 30
0.0
 42
0.0195279011117891
  0
SEQEND
  5
1D17
  8
SAPA_FOGBAND
  0
POLYLINE
  5
FB1
  8
SAPA_FOGBAND
 66
     1
 10
0.0
 20
0.0
 30
0.0
 70
   129
  0
VERTEX
  5
1D18
  8
SAPA_FOGBAND
 10
52.429565327640148
 20
-13.286377807229879
 30
0.0
  0
VERTEX
  5
1D19
  8
SAPA_FOGBAND
 10
52.666129383090492
 20
-13.336888633933309
 30
0.0
  0
VERTEX
  5
1D1A
  8
SAPA_FOGBAND
 10
52.89414339721543
 20
-13.486595521161011
 30
0.0
  0
VERTEX
  5
1D1B
  8
SAPA_FOGBAND
 10
53.1053663494597
 20
-13.730087671951649
 30
0.0
  0
VERTEX
  5
1D1C
  8
SAPA_FOGBAND
 10
53.292164091992838
 20
-14.058564645563139
 30
0.0
  0
VERTEX
  5
1D1D
  8
SAPA_FOGBAND
 10
53.447785267703011
 20
-14.46015442832981
 30
0.0
  0
VERTEX
  5
1D1E
  8
SAPA_FOGBAND
 10
53.566605321833087
 20
-14.92034251917198
 30
0.0
  0
VERTEX
  5
1D1F
  8
SAPA_FOGBAND
 10
53.644329788044388
 20
-15.42249652147734
 30
0.0
  0
VERTEX
  5
1D20
  8
SAPA_FOGBAND
 10
53.678149501618691
 20
-15.94846728125253
 30
0.0
  0
VERTEX
  5
1D21
  8
SAPA_FOGBAND
 10
53.66684212999121
 20
-16.47924484483724
 30
0.0
  0
VERTEX
  5
1D22
  8
SAPA_FOGBAND
 10
53.610816351033243
 20
-16.995645528154679
 30
0.0
  0
VERTEX
  5
1D23
  8
SAPA_FOGBAND
 10
53.512097082370701
 20
-17.479005265041678
 30
0.0
  0
VERTEX
  5
1D24
  8
SAPA_FOGBAND
 10
53.374252295582892
 20
-17.91185417522615
 30
0.0
  0
VERTEX
  5
1D25
  8
SAPA_FOGBAND
 10
53.2022640604157
 20
-18.278547971315898
 30
0.0
  0
VERTEX
  5
1D26
  8
SAPA_FOGBAND
 10
53.002348479799139
 20
-18.56583338410951
 30
0.0
  0
VERTEX
  5
1D27
  8
SAPA_FOGBAND
 10
52.781731023691691
 20
-18.763327170273669
 30
0.0
  0
VERTEX
  5
1D28
  8
SAPA_FOGBAND
 10
52.548385381770231
 20
-18.863891389811901
 30
0.0
  0
VERTEX
  5
1D29
  8
SAPA_FOGBAND
 10
52.310745273509831
 20
-18.863891389811901
 30
0.0
  0
VERTEX
  5
1D2A
  8
SAPA_FOGBAND
 10
52.07739963158815
 20
-18.763327170273669
 30
0.0
  0
VERTEX
  5
1D2B
  8
SAPA_FOGBAND
 10
51.856782175480703
 20
-18.56583338410951
 30
0.0
  0
VERTEX
  5
1D2C
  8
SAPA_FOGBAND
 10
51.656866594864141
 20
-18.278547971315898
 30
0.0
  0
VERTEX
  5
1D2D
  8
SAPA_FOGBAND
 10
51.48487835969717
 20
-17.91185417522615
 30
0.0
  0
VERTEX
  5
1D2E
  8
SAPA_FOGBAND
 10
51.347033572909588
 20
-17.479005265041678
 30
0.0
  0
VERTEX
  5
1D2F
  8
SAPA_FOGBAND
 10
51.248314304246598
 20
-16.995645528154679
 30
0.0
  0
VERTEX
  5
1D30
  8
SAPA_FOGBAND
 10
51.192288525288859
 20
-16.47924484483724
 30
0.0
  0
VERTEX
  5
1D31
  8
SAPA_FOGBAND
 10
51.180981153661151
 20
-15.94846728125253
 30
0.0
  0
VERTEX
  5
1D32
  8
SAPA_FOGBAND
 10
51.214800867235454
 20
-15.42249652147734
 30
0.0
  0
VERTEX
  5
1D33
  8
SAPA_FOGBAND
 10
51.292525333446747
 20
-14.92034251917198
 30
0.0
  0
VERTEX
  5
1D34
  8
SAPA_FOGBAND
 10
51.411345387577292
 20
-14.46015442832981
 30
0.0
  0
VERTEX
  5
1D35
  8
SAPA_FOGBAND
 10
51.566966563287451
 20
-14.058564645563139
 30
0.0
  0
VERTEX
  5
1D36
  8
SAPA_FOGBAND
 10
51.753764305820589
 20
-13.730087671951649
 30
0.0
  0
VERTEX
  5
1D37
  8
SAPA_FOGBAND
 10
51.964987258064632
 20
-13.486595521161011
 30
0.0
  0
VERTEX
  5
1D38
  8
SAPA_FOGBAND
 10
52.193001272189569
 20
-13.336888633933309
 30
0.0
  0
SEQEND
  5
1D39
  8
SAPA_FOGBAND
  0
POLYLINE
  5
FB2
  8
SAPA_FOGBAND
 66
     1
 10
0.0
 20
0.0
 30
0.0
  0
VERTEX
  5
1D3A
  8
SAPA_FOGBAND
 10
18.449999934933881
 20
-20.056372441085159
 30
0.0
 42
0.285714285714282
  0
VERTEX
  5
1D3B
  8
SAPA_FOGBAND
 10
18.449999934933881
 20
-17.25637244108497
 30
0.0
  0
VERTEX
  5
1D3C
  8
SAPA_FOGBAND
 10
18.44999993493434
 20
-15.182592271697329
 30
0.0
 42
-0.3882600129940275
  0
VERTEX
  5
1D3D
  8
SAPA_FOGBAND
 10
18.723210661213901
 20
-14.883790774355701
 30
0.0
  0
VERTEX
  5
1D3E
  8
SAPA_FOGBAND
 10
22.623210661213989
 20
-14.417580850429429
 30
0.0
 42
-0.4406523138893894
  0
VERTEX
  5
1D3F
  8
SAPA_FOGBAND
 10
22.949999934933889
 20
-14.716382347771511
 30
0.0
  0
VERTEX
  5
1D40
  8
SAPA_FOGBAND
 10
22.949999934933889
 20
-16.42617434469161
 30
0.0
 42
-0.3394542588634375
  0
VERTEX
  5
1D41
  8
SAPA_FOGBAND
 10
22.72764564846489
 20
-16.71595209257816
 30
0.0
  0
VERTEX
  5
1D42
  8
SAPA_FOGBAND
 10
22.510059866297301
 20
-16.91833182050982
 30
0.0
 42
0.3394542588633663
  0
VERTEX
  5
1D43
  8
SAPA_FOGBAND
 10
22.287705579828302
 20
-17.20810956839637
 30
0.0
  0
VERTEX
  5
1D44
  8
SAPA_FOGBAND
 10
22.287705579828302
 20
-20.104635313774232
 30
0.0
 42
0.3394542588634373
  0
VERTEX
  5
1D45
  8
SAPA_FOGBAND
 10
22.510059866297301
 20
-20.394413061660771
 30
0.0
  0
VERTEX
  5
1D46
  8
SAPA_FOGBAND
 10
22.72764564846489
 20
-20.59679278959198
 30
0.0
 42
-0.3394542588633662
  0
VERTEX
  5
1D47
  8
SAPA_FOGBAND
 10
22.949999934933889
 20
-20.886570537478981
 30
0.0
  0
VERTEX
  5
1D48
  8
SAPA_FOGBAND
 10
22.949999934933889
 20
-22.596362534399081
 30
0.0
 42
-0.4406523138893994
  0
VERTEX
  5
1D49
  8
SAPA_FOGBAND
 10
22.623210661213989
 20
-22.895164031740698
 30
0.0
  0
VERTEX
  5
1D4A
  8
SAPA_FOGBAND
 10
18.723210661213901
 20
-22.42895410781443
 30
0.0
 42
-0.3882600129940462
  0
VERTEX
  5
1D4B
  8
SAPA_FOGBAND
 10
18.449999934933881
 20
-22.130152610472809
 30
0.0
  0
VERTEX
  5
1D4C
  8
SAPA_FOGBAND
 10
18.449999934933881
 20
-20.06796481793549
 30
0.0
  0
SEQEND
  5
1D4D
  8
SAPA_FOGBAND
  0
POLYLINE
  5
FB3
  8
SAPA_FOGBAND
 66
     1
 10
0.0
 20
0.0
 30
0.0
  0
VERTEX
  5
1D4E
  8
SAPA_FOGBAND
 10
18.449999934933881
 20
-20.06796481793549
 30
0.0
  0
VERTEX
  5
1D4F
  8
SAPA_FOGBAND
 10
17.359081124781142
 20
-19.875606397942871
 30
0.0
  0
VERTEX
  5
1D50
  8
SAPA_FOGBAND
 10
17.243381585261201
 20
-20.307402957844939
 30
0.0
 42
-0.4430158954262519
  0
VERTEX
  5
1D51
  8
SAPA_FOGBAND
 10
16.979905157154231
 20
-20.442880005388592
 30
0.0
  0
VERTEX
  5
1D52
  8
SAPA_FOGBAND
 10
15.709417409236041
 20
-19.965931812169629
 30
0.0
 42
-0.3125358528825162
  0
VERTEX
  5
1D53
  8
SAPA_FOGBAND
 10
15.44999993493434
 20
-19.591450099040461
 30
0.0
  0
VERTEX
  5
1D54
  8
SAPA_FOGBAND
 10
15.44999993493388
 20
-17.72129478313013
 30
0.0
 42
-0.3125358528825104
  0
VERTEX
  5
1D55
  8
SAPA_FOGBAND
 10
15.709417409236041
 20
-17.346813070000511
 30
0.0
  0
VERTEX
  5
1D56
  8
SAPA_FOGBAND
 10
16.979905157154231
 20
-16.869864876781548
 30
0.0
 42
-0.4430158954262519
  0
VERTEX
  5
1D57
  8
SAPA_FOGBAND
 10
17.243381585261201
 20
-17.005341924325649
 30
0.0
  0
VERTEX
  5
1D58
  8
SAPA_FOGBAND
 10
17.359081124781142
 20
-17.437138484227258
 30
0.0
  0
VERTEX
  5
1D59
  8
SAPA_FOGBAND
 10
18.431769238548672
 20
-17.24799462788474
 30
0.0
  0
SEQEND
  5
1D5A
  8
SAPA_FOGBAND
  0
POLYLINE
  5
FB4
  8
SAPA_FOGBAND
 66
     1
 10
0.0
 20
0.0
 30
0.0000000195376815
 70
     1
  0
VERTEX
  5
1D5B
  8
SAPA_FOGBAND
 10
83.283987650902205
 20
50.827732517378081
 30
0.0000000195376815
  0
VERTEX
  5
1D5C
  8
SAPA_FOGBAND
 10
83.229455954477544
 20
52.221084344043902
 30
0.0000000195376815
  0
VERTEX
  5
1D5D
  8
SAPA_FOGBAND
 10
84.296722499861986
 20
52.221084344043902
 30
0.0000000195376815
  0
VERTEX
  5
1D5E
  8
SAPA_FOGBAND
 10
84.35773265795639
 20
51.582390836985269
 30
0.0000000195376815
 42
0.4995370695832079
  0
VERTEX
  5
1D5F
  8
SAPA_FOGBAND
 10
84.654449503390666
 20
51.46303716823013
 30
0.0000000195376815
  0
VERTEX
  5
1D60
  8
SAPA_FOGBAND
 10
85.707107397979613
 20
52.169073143465987
 30
0.0000000195376815
 42
0.250021237196914
  0
VERTEX
  5
1D61
  8
SAPA_FOGBAND
 10
86.15008036978135
 20
52.999567508200471
 30
0.0000000195376815
  0
VERTEX
  5
1D62
  8
SAPA_FOGBAND
 10
86.15008036978135
 20
54.06874178381031
 30
0.0000000195376815
 42
0.250021237196914
  0
VERTEX
  5
1D63
  8
SAPA_FOGBAND
 10
85.707107397979613
 20
54.899236148544787
 30
0.0000000195376815
  0
VERTEX
  5
1D64
  8
SAPA_FOGBAND
 10
84.654449503390666
 20
55.605272123778832
 30
0.0000000195376815
 42
0.4995370695831766
  0
VERTEX
  5
1D65
  8
SAPA_FOGBAND
 10
84.35773265795639
 20
55.485918455025512
 30
0.0000000195376815
  0
VERTEX
  5
1D66
  8
SAPA_FOGBAND
 10
84.292094967776279
 20
54.878423238263622
 30
0.0000000195376815
  0
VERTEX
  5
1D67
  8
SAPA_FOGBAND
 10
83.224828422391866
 20
54.878423238263622
 30
0.0000000195376815
  0
VERTEX
  5
1D68
  8
SAPA_FOGBAND
 10
83.242530860974753
 20
55.766723497455587
 30
0.0000000195376815
 42
0.4400105308918379
  0
VERTEX
  5
1D69
  8
SAPA_FOGBAND
 10
83.043291921356314
 20
55.984154646004299
 30
0.0000000195376815
  0
VERTEX
  5
1D6A
  8
SAPA_FOGBAND
 10
83.008296455946052
 20
55.984154646004299
 30
0.0000000195376815
 42
0.3888787318529988
  0
VERTEX
  5
1D6B
  8
SAPA_FOGBAND
 10
82.410579637090919
 20
55.436448091653347
 30
0.0000000195376815
  0
VERTEX
  5
1D6C
  8
SAPA_FOGBAND
 10
82.337587187623086
 20
54.60214057652729
 30
0.0000000195376815
 42
-0.2668174844056302
  0
VERTEX
  5
1D6D
  8
SAPA_FOGBAND
 10
82.223636934967558
 20
54.43866887856484
 30
0.0000000195376815
 42
0.6341045221175712
  0
VERTEX
  5
1D6E
  8
SAPA_FOGBAND
 10
82.223636934967558
 20
52.629640413444122
 30
0.0000000195376815
 42
-0.2668174844056113
  0
VERTEX
  5
1D6F
  8
SAPA_FOGBAND
 10
82.337587187623086
 20
52.466168715481672
 30
0.0000000195376815
  0
VERTEX
  5
1D70
  8
SAPA_FOGBAND
 10
82.410178336101595
 20
51.636448091654081
 30
0.0000000195376815
 42
-0.3932191662530252
  0
VERTEX
  5
1D71
  8
SAPA_FOGBAND
 10
81.766611228471461
 20
50.884154646005761
 30
0.0000000195376815
 42
-0.7365260079582157
  0
VERTEX
  5
1D72
  8
SAPA_FOGBAND
 10
80.793830828379797
 20
54.316957135262328
 30
0.0000000195376815
 42
1.00000000000107
  0
VERTEX
  5
1D73
  8
SAPA_FOGBAND
 10
80.439285373834423
 20
54.801000026607198
 30
0.0000000195376815
 42
0.7363451539893881
  0
VERTEX
  5
1D74
  8
SAPA_FOGBAND
 10
81.766611228471461
 20
50.284154646005391
 30
0.0000000195376815
  0
VERTEX
  5
1D75
  8
SAPA_FOGBAND
 10
82.785890301856398
 20
50.284154646005391
 30
0.0000000195376815
 42
0.4400105308918419
  0
SEQEND
  5
1D76
  8
SAPA_FOGBAND
  0
CIRCLE
  5
FB5
  8
SAPA_FOGBAND
 10
82.650080369781364
 20
53.534154646005391
 30
0.0000000195376815
 40
0.25
  0
POLYLINE
  5
FB6
  8
SAPA_FOGBAND
 66
     1
 10
0.0
 20
0.0
 30
0.0000000195376815
 70
     1
  0
VERTEX
  5
1D77
  8
SAPA_FOGBAND
 10
83.498608507205077
 20
54.334154646004663
 30
0.0000000195376815
 42
0.6341370759941026
  0
VERTEX
  5
1D78
  8
SAPA_FOGBAND
 10
83.421469585621267
 20
54.170518282369351
 30
0.0000000195376815
 42
-0.3592455179659193
  0
VERTEX
  5
1D79
  8
SAPA_FOGBAND
 10
83.421469585621267
 20
52.897791009641431
 30
0.0000000195376815
 42
0.6341370759941019
  0
VERTEX
  5
1D7A
  8
SAPA_FOGBAND
 10
83.498608507205077
 20
52.734154646004299
 30
0.0000000195376815
  0
VERTEX
  5
1D7B
  8
SAPA_FOGBAND
 10
84.850080369781168
 20
52.734154646004299
 30
0.0000000195376815
 42
0.4142135623730951
  0
VERTEX
  5
1D7C
  8
SAPA_FOGBAND
 10
85.350080369781168
 20
53.234154646004292
 30
0.0000000195376815
  0
VERTEX
  5
1D7D
  8
SAPA_FOGBAND
 10
85.350080369781168
 20
53.834154646004663
 30
0.0000000195376815
 42
0.4142135623730951
  0
VERTEX
  5
1D7E
  8
SAPA_FOGBAND
 10
84.850080369781168
 20
54.334154646004663
 30
0.0000000195376815
  0
SEQEND
  5
1D7F
  8
SAPA_FOGBAND
  0
LINE
  5
FB7
  8
SAPA_FOGBAND
 10
83.299999834577079
 20
51.199974499864311
 30
0.0
 11
83.299999834577079
 21
51.199974499864311
 31
0.0
  0
POLYLINE
  5
FB8
  8
SAPA_FOGBAND
 66
     1
 10
0.0
 20
0.0
 30
0.0000000195376815
 70
     1
  0
VERTEX
  5
1D80
  8
SAPA_FOGBAND
 10
18.501391330966499
 20
62.66436917399637
 30
0.0000000195376815
 42
0.6341370759941026
  0
VERTEX
  5
1D81
  8
SAPA_FOGBAND
 10
18.578530252550308
 20
62.828005537632592
 30
0.0000000195376815
 42
-0.3592455179659193
  0
VERTEX
  5
1D82
  8
SAPA_FOGBAND
 10
18.578530252550308
 20
64.100732810360071
 30
0.0000000195376815
 42
0.6341370759941019
  0
VERTEX
  5
1D83
  8
SAPA_FOGBAND
 10
18.501391330966499
 20
64.264369173996741
 30
0.0000000195376815
  0
VERTEX
  5
1D84
  8
SAPA_FOGBAND
 10
17.149919468390411
 20
64.264369173996741
 30
0.0000000195376815
 42
0.4142135623730951
  0
VERTEX
  5
1D85
  8
SAPA_FOGBAND
 10
16.649919468390411
 20
63.764369173996727
 30
0.0000000195376815
  0
VERTEX
  5
1D86
  8
SAPA_FOGBAND
 10
16.649919468390411
 20
63.16436917399637
 30
0.0000000195376815
 42
0.4142135623730951
  0
VERTEX
  5
1D87
  8
SAPA_FOGBAND
 10
17.149919468390411
 20
62.66436917399637
 30
0.0000000195376815
  0
SEQEND
  5
1D88
  8
SAPA_FOGBAND
  0
CIRCLE
  5
FB9
  8
SAPA_FOGBAND
 10
19.349919468390219
 20
63.464369173996552
 30
0.0000000195376815
 40
0.25
  0
POLYLINE
  5
FBA
  8
SAPA_FOGBAND
 66
     1
 10
0.0
 20
0.0
 30
0.0000000195376815
 70
     1
  0
VERTEX
  5
1D89
  8
SAPA_FOGBAND
 10
18.716012187269371
 20
66.170791302622959
 30
0.0000000195376815
  0
VERTEX
  5
1D8A
  8
SAPA_FOGBAND
 10
18.77054388369401
 20
64.777439475958033
 30
0.0000000195376815
  0
VERTEX
  5
1D8B
  8
SAPA_FOGBAND
 10
17.70327733830959
 20
64.777439475958033
 30
0.0000000195376815
  0
VERTEX
  5
1D8C
  8
SAPA_FOGBAND
 10
17.642267180215178
 20
65.416132983016681
 30
0.0000000195376815
 42
0.4995370695832079
  0
VERTEX
  5
1D8D
  8
SAPA_FOGBAND
 10
17.34555033478091
 20
65.53548665177091
 30
0.0000000195376815
  0
VERTEX
  5
1D8E
  8
SAPA_FOGBAND
 10
16.292892440191959
 20
64.82945067653641
 30
0.0000000195376815
 42
0.250021237196914
  0
VERTEX
  5
1D8F
  8
SAPA_FOGBAND
 10
15.849919468390221
 20
63.998956311801471
 30
0.0000000195376815
  0
VERTEX
  5
1D90
  8
SAPA_FOGBAND
 10
15.849919468390221
 20
62.929782036191632
 30
0.0000000195376815
 42
0.250021237196914
  0
VERTEX
  5
1D91
  8
SAPA_FOGBAND
 10
16.292892440191959
 20
62.099287671456239
 30
0.0000000195376815
  0
VERTEX
  5
1D92
  8
SAPA_FOGBAND
 10
17.34555033478091
 20
61.393251696222201
 30
0.0000000195376815
 42
0.4995370695831766
  0
VERTEX
  5
1D93
  8
SAPA_FOGBAND
 10
17.642267180215178
 20
61.512605364975983
 30
0.0000000195376815
  0
VERTEX
  5
1D94
  8
SAPA_FOGBAND
 10
17.707904870395279
 20
62.12010058173832
 30
0.0000000195376815
  0
VERTEX
  5
1D95
  8
SAPA_FOGBAND
 10
18.77517141577971
 20
62.12010058173832
 30
0.0000000195376815
  0
VERTEX
  5
1D96
  8
SAPA_FOGBAND
 10
18.757468977196819
 20
61.231800322546349
 30
0.0000000195376815
 42
0.4400105308918379
  0
VERTEX
  5
1D97
  8
SAPA_FOGBAND
 10
18.956707916815269
 20
61.014369173996741
 30
0.0000000195376815
  0
VERTEX
  5
1D98
  8
SAPA_FOGBAND
 10
18.99170338222552
 20
61.014369173996741
 30
0.0000000195376815
 42
0.3888787318529988
  0
VERTEX
  5
1D99
  8
SAPA_FOGBAND
 10
19.58942020108066
 20
61.562075728347693
 30
0.0000000195376815
  0
VERTEX
  5
1D9A
  8
SAPA_FOGBAND
 10
19.6624126505485
 20
62.396383243473743
 30
0.0000000195376815
 42
-0.2668174844056302
  0
VERTEX
  5
1D9B
  8
SAPA_FOGBAND
 10
19.776362903204021
 20
62.559854941436193
 30
0.0000000195376815
 42
0.6341045221175712
  0
VERTEX
  5
1D9C
  8
SAPA_FOGBAND
 10
19.776362903204021
 20
64.368883406556904
 30
0.0000000195376815
 42
-0.2668174844056113
  0
VERTEX
  5
1D9D
  8
SAPA_FOGBAND
 10
19.6624126505485
 20
64.532355104519354
 30
0.0000000195376815
  0
VERTEX
  5
1D9E
  8
SAPA_FOGBAND
 10
19.589821502069981
 20
65.362075728347875
 30
0.0000000195376815
 42
-0.3932191662530252
  0
VERTEX
  5
1D9F
  8
SAPA_FOGBAND
 10
20.233388609700121
 20
66.114369173996195
 30
0.0000000195376815
 42
-0.7365260079582157
  0
VERTEX
  5
1DA0
  8
SAPA_FOGBAND
 10
21.206169009791719
 20
62.681566684738712
 30
0.0000000195376815
 42
1.00000000000107
  0
VERTEX
  5
1DA1
  8
SAPA_FOGBAND
 10
21.560714464337082
 20
62.197523793394282
 30
0.0000000195376815
 42
0.7363451539893881
  0
VERTEX
  5
1DA2
  8
SAPA_FOGBAND
 10
20.233388609700121
 20
66.714369173996545
 30
0.0000000195376815
  0
VERTEX
  5
1DA3
  8
SAPA_FOGBAND
 10
19.21410953631516
 20
66.714369173996545
 30
0.0000000195376815
 42
0.4400105308918419
  0
SEQEND
  5
1DA4
  8
SAPA_FOGBAND
  0
LINE
  5
FBB
  8
SAPA_FOGBAND
 10
18.700000003594479
 20
65.798549320137639
 30
0.0
 11
18.700000003594479
 21
65.798549320136729
 31
0.0
  0
LINE
  5
FBC
  8
SAPA_FOGBAND
 10
18.700000045180872
 20
65.947811228181891
 30
0.0
 11
18.700000045180872
 21
65.947811228180981
 31
0.0
  0
DIMENSION
  5
FC6
  8
SAPA_MATT
  2
*D93
 10
223.80000009340151
 20
219.9999999961862
 30
0.0
 11
123.80000009340139
 21
222.7511903626596
 31
0.0
 70
     0
  1
197-202
 13
23.800000093401479
 23
199.99999999618629
 33
0.0
 14
223.80000009340151
 24
199.99999999618609
 34
0.0
1001
ACAD
1000
DSTYLE
1002
{
1070
    40
1040
1.0
1002
}
  0
DIMENSION
  5
FC7
  8
SAPA_MATT
  2
*D92
 10
-17.999999918811039
 20
-22.000000004087461
 30
0.0000000048844204
 11
-20.749999918811032
 21
71.499999996033182
 31
0.0000000048844204
 70
     0
 13
14.30000009361569
 23
164.9999999961538
 33
0.0
 14
14.49999988549024
 24
-22.000000004087472
 34
0.0
 50
270.0
1001
ACAD
1000
DSTYLE
1002
{
1070
    40
1040
1.0
1002
}
  0
DIMENSION
  5
FC8
  8
SAPA_MATT
  2
*D91
 10
-5.9999999188110378
 20
-22.000000004087472
 30
0.0000000048844204
 11
-8.7499999188110316
 21
22.49999999795611
 31
0.0000000048844204
 70
     0
 13
15.99999845920647
 23
66.999999999999687
 33
0.0
 14
14.49999988549024
 24
-22.000000004087472
 34
0.0
 50
270.0
1001
ACAD
1000
DSTYLE
1002
{
1070
    40
1040
1.0
1002
}
  0
DIMENSION
  5
FC9
  8
SAPA_MATT
  2
*D90
 10
-5.9999999188110236
 20
66.999999999999687
 30
0.0000000048844204
 11
-8.7499999188110351
 21
69.499999997903387
 31
0.0000000048844204
 70
     0
 13
15.00000008735082
 23
71.999999995807073
 33
0.0
 14
15.99999845920647
 24
66.999999999999687
 34
0.0
 50
270.0
1001
ACAD
1000
DSTYLE
1002
{
1070
    40
1040
1.0
1002
}
  0
DIMENSION
  5
FCA
  8
SAPA_MATT
  2
*D89
 10
-5.9999999188110218
 20
71.999999995807073
 30
0.0000000048844204
 11
-8.7499999188110316
 21
118.4999999959804
 31
0.0000000048844204
 70
     0
 13
14.30000009361569
 23
164.9999999961538
 33
0.0
 14
15.00000008735082
 24
71.999999995807073
 34
0.0
 50
270.0
1001
ACAD
1000
DSTYLE
1002
{
1070
    40
1040
1.0
1002
}
  0
ENDSEC
  0
EOF
