  0
SECTION
  2
HEADER
  9
$ACADVER
  1
AC1009
  9
$INSBASE
 10
45.006823448336007
 20
256.80342482082011
 30
0.0
  9
$EXTMIN
 10
-104.3292600761775
 20
-19.499999999999702
 30
-0.2
  9
$EXTMAX
 10
155.00000000000071
 20
252.7781694049734
 30
0.1
  9
$LIMMIN
 10
0.0
 20
0.0
  9
$LIMMAX
 10
790.0
 20
790.0
  9
$ORTHOMODE
 70
     0
  9
$REGENMODE
 70
     1
  9
$FILLMODE
 70
     1
  9
$QTEXTMODE
 70
     0
  9
$MIRRTEXT
 70
     1
  9
$DRAGMODE
 70
     2
  9
$LTSCALE
 40
2.5
  9
$OSMODE
 70
   167
  9
$ATTMODE
 70
     1
  9
$TEXTSIZE
 40
5.0
  9
$TRACEWID
 40
0.05
  9
$TEXTSTYLE
  7
ISO
  9
$CLAYER
  8
0
  9
$CELTYPE
  6
BYLAYER
  9
$CECOLOR
 62
   256
  9
$DIMSCALE
 40
0.0
  9
$DIMASZ
 40
3.0
  9
$DIMEXO
 40
1.5
  9
$DIMDLI
 40
10.0
  9
$DIMRND
 40
0.0
  9
$DIMDLE
 40
0.0
  9
$DIMEXE
 40
1.5
  9
$DIMTP
 40
0.0
  9
$DIMTM
 40
0.0
  9
$DIMTXT
 40
3.5
  9
$DIMCEN
 40
-5.0
  9
$DIMTSZ
 40
0.0
  9
$DIMTOL
 70
     0
  9
$DIMLIM
 70
     0
  9
$DIMTIH
 70
     0
  9
$DIMTOH
 70
     1
  9
$DIMSE1
 70
     0
  9
$DIMSE2
 70
     0
  9
$DIMTAD
 70
     1
  9
$DIMZIN
 70
     8
  9
$DIMBLK
  1

  9
$DIMASO
 70
     1
  9
$DIMSHO
 70
     1
  9
$DIMPOST
  1

  9
$DIMAPOST
  1

  9
$DIMALT
 70
     0
  9
$DIMALTD
 70
     0
  9
$DIMALTF
 40
25.399999999999999
  9
$DIMLFAC
 40
-1.0
  9
$DIMTOFL
 70
     1
  9
$DIMTVP
 40
0.0
  9
$DIMTIX
 70
     0
  9
$DIMSOXD
 70
     0
  9
$DIMSAH
 70
     0
  9
$DIMBLK1
  1

  9
$DIMBLK2
  1

  9
$DIMSTYLE
  2
MASKIN
  9
$DIMCLRD
 70
   256
  9
$DIMCLRE
 70
   256
  9
$DIMCLRT
 70
     2
  9
$DIMTFAC
 40
1.0
  9
$DIMGAP
 40
1.0
  9
$LUNITS
 70
     2
  9
$LUPREC
 70
     1
  9
$SKETCHINC
 40
0.1
  9
$FILLETRAD
 40
0.0
  9
$AUNITS
 70
     0
  9
$AUPREC
 70
     0
  9
$MENU
  1
ACAD
  9
$ELEVATION
 40
0.0
  9
$PELEVATION
 40
0.0
  9
$THICKNESS
 40
0.0
  9
$LIMCHECK
 70
     0
  9
$BLIPMODE
 70
     0
  9
$CHAMFERA
 40
0.0
  9
$CHAMFERB
 40
0.0
  9
$SKPOLY
 70
     0
  9
$TDCREATE
 40
2451169.4686749768
  9
$TDUPDATE
 40
2456044.5735980789
  9
$TDINDWG
 40
1.1959332292
  9
$TDUSRTIMER
 40
1.1959332292
  9
$USRTIMER
 70
     1
  9
$ANGBASE
 50
0.0
  9
$ANGDIR
 70
     0
  9
$PDMODE
 70
     0
  9
$PDSIZE
 40
0.0
  9
$PLINEWID
 40
0.0
  9
$COORDS
 70
     1
  9
$SPLFRAME
 70
     0
  9
$SPLINETYPE
 70
     6
  9
$SPLINESEGS
 70
     8
  9
$ATTDIA
 70
     0
  9
$ATTREQ
 70
     1
  9
$HANDLING
 70
     1
  9
$HANDSEED
  5
1CE2
  9
$SURFTAB1
 70
     6
  9
$SURFTAB2
 70
     6
  9
$SURFTYPE
 70
     6
  9
$SURFU
 70
     6
  9
$SURFV
 70
     6
  9
$UCSNAME
  2

  9
$UCSORG
 10
0.0
 20
0.0
 30
0.0
  9
$UCSXDIR
 10
1.0
 20
0.0
 30
0.0
  9
$UCSYDIR
 10
0.0
 20
1.0
 30
0.0
  9
$PUCSNAME
  2

  9
$PUCSORG
 10
0.0
 20
0.0
 30
0.0
  9
$PUCSXDIR
 10
1.0
 20
0.0
 30
0.0
  9
$PUCSYDIR
 10
0.0
 20
1.0
 30
0.0
  9
$USERI1
 70
     0
  9
$USERI2
 70
     0
  9
$USERI3
 70
     0
  9
$USERI4
 70
     0
  9
$USERI5
 70
     0
  9
$USERR1
 40
0.0
  9
$USERR2
 40
0.0
  9
$USERR3
 40
0.0
  9
$USERR4
 40
0.0
  9
$USERR5
 40
0.0
  9
$WORLDVIEW
 70
     1
  9
$SHADEDGE
 70
     3
  9
$SHADEDIF
 70
    70
  9
$TILEMODE
 70
     1
  9
$MAXACTVP
 70
    16
  9
$PLIMCHECK
 70
     0
  9
$PEXTMIN
 10
1.0000000000000000E+020
 20
1.0000000000000000E+020
 30
1.0000000000000000E+020
  9
$PEXTMAX
 10
-1.0000000000000000E+020
 20
-1.0000000000000000E+020
 30
-1.0000000000000000E+020
  9
$PLIMMIN
 10
-4.23333740234375
 20
-4.2333331108093262
  9
$PLIMMAX
 10
292.69265747070312
 20
205.7399945259094
  9
$UNITMODE
 70
     0
  9
$VISRETAIN
 70
     1
  9
$PLINEGEN
 70
     0
  9
$PSLTSCALE
 70
     1
  0
ENDSEC
  0
SECTION
  2
TABLES
  0
TABLE
  2
VPORT
 70
     1
  0
VPORT
  2
*ACTIVE
 70
     0
 10
0.0
 20
0.0
 11
1.0
 21
1.0
 12
31.04654246143156
 22
181.6752254722436
 13
0.0
 23
0.0
 14
1.0
 24
1.0
 15
0.0
 25
0.0
 16
0.0
 26
0.0
 36
1.0
 17
0.0
 27
0.0
 37
0.0
 40
263.0055389279251
 41
2.37391304347826
 42
50.0
 43
0.0
 44
0.0
 50
0.0
 51
0.0
 71
     0
 72
   100
 73
     1
 74
     0
 75
     0
 76
     0
 77
     0
 78
     0
  0
ENDTAB
  0
TABLE
  2
LTYPE
 70
    17
  0
LTYPE
  2
CONTINUOUS
 70
     0
  3
Solid line
 72
    65
 73
     0
 40
0.0
  0
LTYPE
  2
BYGG-014413$0$NEWDOT
 70
     0
  3
____ . ____ . ____ . ____ . ____ . ____ . ____
 72
    65
 73
     4
 40
2.0
 49
1.0
 49
-0.5
 49
0.0
 49
-0.5
  0
LTYPE
  2
BYGG-014413$0$ZIGZAG
 70
     0
  3
Zig zag /\/\/\/\/\/\/\/\/\/\/\/\/\/\/\/\/\/\/\/\/\/\/\/
 72
    65
 73
     4
 40
20.32254
 49
0.00254
 49
-5.0800000000000001
 49
-10.16
 49
-5.0800000000000001
  0
LTYPE
  2
BYGG-021556$0$DASHDOT
 70
     0
  3
__ . __ . __ . __ . __ . __ . __ . __ . __ . __
 72
    65
 73
     4
 40
1.0
 49
0.5
 49
-0.25
 49
0.0
 49
-0.25
  0
LTYPE
  2
BYGG-008943$0$DASHDOT
 70
     0
  3
__ . __ . __ . __ . __ . __ . __ . __ . __ . __
 72
    65
 73
     4
 40
1.0
 49
0.5
 49
-0.25
 49
0.0
 49
-0.25
  0
LTYPE
  2
BYGG-00894401$0$DASHDOT
 70
     0
  3
__ . __ . __ . __ . __ . __ . __ . __ . __ . __
 72
    65
 73
     4
 40
1.0
 49
0.5
 49
-0.25
 49
0.0
 49
-0.25
  0
LTYPE
  2
BYGG-021526$0$DASHDOT
 70
     0
  3
__ . __ . __ . __ . __ . __ . __ . __ . __ . __
 72
    65
 73
     4
 40
1.0
 49
0.5
 49
-0.25
 49
0.0
 49
-0.25
  0
LTYPE
  2
BYGG-024800$0$NEWDOT
 70
     0
  3
____ . ____ . ____ . ____ . ____ . ____ . ____
 72
    65
 73
     4
 40
2.0
 49
1.0
 49
-0.5
 49
0.0
 49
-0.5
  0
LTYPE
  2
BYGG-024807$0$NEWDOT
 70
     0
  3
____ . ____ . ____ . ____ . ____ . ____ . ____
 72
    65
 73
     4
 40
2.0
 49
1.0
 49
-0.5
 49
0.0
 49
-0.5
  0
LTYPE
  2
BYGG-025052$0$NEWDOT
 70
     0
  3
____ . ____ . ____ . ____ . ____ . ____ . ____
 72
    65
 73
     4
 40
2.0
 49
1.0
 49
-0.5
 49
0.0
 49
-0.5
  0
LTYPE
  2
BYGG-025052$0$DASHDOT
 70
     0
  3
__ . __ . __ . __ . __ . __ . __ . __ . __ . __
 72
    65
 73
     4
 40
1.0
 49
0.5
 49
-0.25
 49
0.0
 49
-0.25
  0
LTYPE
  2
BYGG-024817$0$NEWDOT
 70
     0
  3
____ . ____ . ____ . ____ . ____ . ____ . ____
 72
    65
 73
     4
 40
2.0
 49
1.0
 49
-0.5
 49
0.0
 49
-0.5
  0
LTYPE
  2
BYGG-01443602$0$NEWDOT
 70
     0
  3
____ . ____ . ____ . ____ . ____ . ____ . ____
 72
    65
 73
     4
 40
2.0
 49
1.0
 49
-0.5
 49
0.0
 49
-0.5
  0
LTYPE
  2
BYGG-01443602$0$ZIGZAG
 70
     0
  3
Zig zag /\/\/\/\/\/\/\/\/\/\/\/\/\/\/\/\/\/\/\/\/\/\/\/
 72
    65
 73
     4
 40
20.32254
 49
0.00254
 49
-5.0800000000000001
 49
-10.16
 49
-5.0800000000000001
  0
LTYPE
  2
BYGG-024807$0$DASHDOT
 70
     0
  3
__ . __ . __ . __ . __ . __ . __ . __ . __ . __
 72
    65
 73
     4
 40
1.0
 49
0.5
 49
-0.25
 49
0.0
 49
-0.25
  0
LTYPE
  2
BYGG-024800$0$DASHDOT
 70
     0
  3
__ . __ . __ . __ . __ . __ . __ . __ . __ . __
 72
    65
 73
     4
 40
1.0
 49
0.5
 49
-0.25
 49
0.0
 49
-0.25
  0
LTYPE
  2
BYGG-024817$0$DASHDOT
 70
     0
  3
__ . __ . __ . __ . __ . __ . __ . __ . __ . __
 72
    65
 73
     4
 40
1.0
 49
0.5
 49
-0.25
 49
0.0
 49
-0.25
  0
ENDTAB
  0
TABLE
  2
LAYER
 70
   114
  0
LAYER
  2
0
 70
     0
 62
     7
  6
CONTINUOUS
  0
LAYER
  2
DEFPOINTS
 70
     0
 62
     7
  6
CONTINUOUS
  0
LAYER
  2
SAPA_ARTIKELNR
 70
     0
 62
     4
  6
CONTINUOUS
  0
LAYER
  2
SAPA_LIGHT
 70
     1
 62
     1
  6
CONTINUOUS
  0
LAYER
  2
SAPA_ANSLUTNING
 70
     0
 62
     6
  6
CONTINUOUS
  0
LAYER
  2
SAPA_FYLLNING
 70
     0
 62
     4
  6
CONTINUOUS
  0
LAYER
  2
SAPA_ISOLATOR
 70
     0
 62
     4
  6
CONTINUOUS
  0
LAYER
  2
SAPA_MATT
 70
     0
 62
     1
  6
CONTINUOUS
  0
LAYER
  2
SAPA_GLAS
 70
     0
 62
     4
  6
CONTINUOUS
  0
LAYER
  2
SAPA_FOGBAND
 70
     0
 62
     2
  6
CONTINUOUS
  0
LAYER
  2
SAPA_PROFIL
 70
     0
 62
     7
  6
CONTINUOUS
  0
ENDTAB
  0
TABLE
  2
STYLE
 70
    44
  0
STYLE
  2
STANDARD
 70
     0
 40
0.0
 41
1.0
 50
0.0
 71
     0
 42
0.2
  3
txt
  4

  0
STYLE
  2
ISO
 70
     0
 40
0.0
 41
1.0
 50
0.0
 71
     0
 42
5.0
  3
isocp3.shx
  4

  0
STYLE
  2

 70
     1
 40
0.0
 41
1.0
 50
0.0
 71
     0
 42
0.2
  3
ltypeshp.shx
  4

  0
STYLE
  2
BYGG-021409$0$STANDARD
 70
     0
 40
0.0
 41
1.0
 50
0.0
 71
     0
 42
0.2
  3
txt
  4

  0
STYLE
  2
BYGG-021409$0$ISO
 70
     0
 40
0.0
 41
1.0
 50
0.0
 71
     0
 42
3.5
  3
txt
  4

  0
STYLE
  2
BYGG-014413$0$STANDARD
 70
     0
 40
0.0
 41
1.0
 50
0.0
 71
     0
 42
0.2
  3
txt
  4

  0
STYLE
  2
BYGG-014413$0$ISO
 70
     0
 40
0.0
 41
1.0
 50
0.0
 71
     0
 42
3.5
  3
isocp3.shx
  4

  0
STYLE
  2
BYGG-021556$0$STANDARD
 70
     0
 40
0.0
 41
1.0
 50
0.0
 71
     0
 42
0.2
  3
txt
  4

  0
STYLE
  2
BYGG-021556$0$ISO
 70
     0
 40
0.0
 41
1.0
 50
0.0
 71
     0
 42
7.0
  3
ISO
  4

  0
STYLE
  2
BYGG-008943$0$STANDARD
 70
     0
 40
0.0
 41
1.0
 50
0.0
 71
     0
 42
0.2
  3
txt
  4

  0
STYLE
  2
BYGG-008943$0$ISO
 70
     0
 40
0.0
 41
1.0
 50
0.0
 71
     0
 42
3.5
  3
txt
  4

  0
STYLE
  2
BYGG-008943$0$CONVERTER_2
 70
     0
 40
0.0
 41
0.72
 50
0.0
 71
     0
 42
0.2
  3
txt.shx
  4

  0
STYLE
  2
BYGG-008943$0$ANNOTATIVE
 70
     0
 40
0.0
 41
1.0
 50
0.0
 71
     0
 42
0.2
  3
txt
  4

  0
STYLE
  2
BYGG-021764$0$STANDARD
 70
     0
 40
0.0
 41
1.0
 50
0.0
 71
     0
 42
0.2
  3
txt
  4

  0
STYLE
  2
BYGG-021764$0$ISO
 70
     0
 40
0.0
 41
1.0
 50
0.0
 71
     0
 42
3.5
  3
txt
  4

  0
STYLE
  2
BYGG-00894401$0$STANDARD
 70
     0
 40
0.0
 41
1.0
 50
0.0
 71
     0
 42
0.2
  3
txt
  4

  0
STYLE
  2
BYGG-00894401$0$ISO
 70
     0
 40
0.0
 41
1.0
 50
0.0
 71
     0
 42
3.5
  3
txt
  4

  0
STYLE
  2
BYGG-00894401$0$CONVERTER_
 70
     0
 40
0.0
 41
0.72
 50
0.0
 71
     0
 42
0.2
  3
txt.shx
  4

  0
STYLE
  2
BYGG-00894401$0$ANNOTATIVE
 70
     0
 40
0.0
 41
1.0
 50
0.0
 71
     0
 42
0.2
  3
txt
  4

  0
STYLE
  2
BYGG-021526$0$STANDARD
 70
     0
 40
0.0
 41
1.0
 50
0.0
 71
     0
 42
0.2
  3
txt
  4

  0
STYLE
  2
BYGG-021526$0$ISO
 70
     0
 40
0.0
 41
1.0
 50
0.0
 71
     0
 42
3.5
  3
isocp3.shx
  4

  0
STYLE
  2
BYGG-021526$0$ANNOTATIVE
 70
     0
 40
0.0
 41
1.0
 50
0.0
 71
     0
 42
0.2
  3
txt
  4

  0
STYLE
  2
BYGG-024800$0$STANDARD
 70
     0
 40
0.0
 41
1.0
 50
0.0
 71
     0
 42
0.2
  3
txt
  4

  0
STYLE
  2
BYGG-024800$0$ISO
 70
     0
 40
0.0
 41
1.0
 50
0.0
 71
     0
 42
3.5
  3
txt
  4

  0
STYLE
  2
BYGG-024807$0$STANDARD
 70
     0
 40
0.0
 41
1.0
 50
0.0
 71
     0
 42
0.2
  3
txt
  4

  0
STYLE
  2
BYGG-024807$0$ISO
 70
     0
 40
0.0
 41
1.0
 50
0.0
 71
     0
 42
3.5
  3
txt
  4

  0
STYLE
  2
BYGG-024807$0$ANNOTATIVE
 70
     0
 40
0.0
 41
1.0
 50
0.0
 71
     0
 42
0.2
  3
txt
  4

  0
STYLE
  2
BYGG-024973$0$STANDARD
 70
     0
 40
0.0
 41
1.0
 50
0.0
 71
     0
 42
0.2
  3
txt
  4

  0
STYLE
  2
BYGG-024973$0$ISO
 70
     0
 40
0.0
 41
1.0
 50
0.0
 71
     0
 42
3.5
  3
txt
  4

  0
STYLE
  2
BYGG-025186$0$STANDARD
 70
     0
 40
0.0
 41
1.0
 50
0.0
 71
     0
 42
0.2
  3
txt
  4

  0
STYLE
  2
BYGG-025186$0$ISO
 70
     0
 40
0.0
 41
1.0
 50
0.0
 71
     0
 42
3.5
  3
txt
  4

  0
STYLE
  2
BYGG-025052$0$STANDARD
 70
     0
 40
0.0
 41
1.0
 50
0.0
 71
     0
 42
0.2
  3
txt
  4

  0
STYLE
  2
BYGG-025052$0$ISO
 70
     0
 40
0.0
 41
1.0
 50
0.0
 71
     0
 42
3.5
  3
txt
  4

  0
STYLE
  2
BYGG-024817$0$STANDARD
 70
     0
 40
0.0
 41
1.0
 50
0.0
 71
     0
 42
0.2
  3
txt
  4

  0
STYLE
  2
BYGG-024817$0$ISO
 70
     0
 40
0.0
 41
1.0
 50
0.0
 71
     0
 42
3.5
  3
txt
  4

  0
STYLE
  2
BYGG-014090$0$STANDARD
 70
     0
 40
0.0
 41
1.0
 50
0.0
 71
     0
 42
0.2
  3
txt
  4

  0
STYLE
  2
BYGG-015465$0$STANDARD
 70
     0
 40
0.0
 41
1.0
 50
0.0
 71
     0
 42
0.2
  3
txt
  4

  0
STYLE
  2
BYGG-015465$0$ISO
 70
     0
 40
0.0
 41
1.0
 50
0.0
 71
     0
 42
3.5
  3
txt
  4

  0
STYLE
  2
BYGG-01443301$0$STANDARD
 70
     0
 40
0.0
 41
1.0
 50
0.0
 71
     0
 42
0.2
  3
txt
  4

  0
STYLE
  2
BYGG-01443301$0$ISO
 70
     0
 40
0.0
 41
1.0
 50
0.0
 71
     0
 42
3.5
  3
isocp3.shx
  4

  0
STYLE
  2
BYGG-019373$0$STANDARD
 70
     0
 40
0.0
 41
1.0
 50
0.0
 71
     0
 42
0.2
  3
txt
  4

  0
STYLE
  2
BYGG-019373$0$ISO
 70
     0
 40
0.0
 41
1.0
 50
0.0
 71
     0
 42
3.5
  3
txt
  4

  0
STYLE
  2
BYGG-01443602$0$STANDARD
 70
     0
 40
0.0
 41
1.0
 50
0.0
 71
     0
 42
0.2
  3
txt
  4

  0
STYLE
  2
BYGG-01443602$0$ISO
 70
     0
 40
0.0
 41
1.0
 50
0.0
 71
     0
 42
3.5
  3
isocp3.shx
  4

  0
ENDTAB
  0
TABLE
  2
VIEW
 70
     0
  0
ENDTAB
  0
TABLE
  2
UCS
 70
     0
  0
ENDTAB
  0
TABLE
  2
APPID
 70
    25
  0
APPID
  2
ACAD
 70
     0
  0
APPID
  2
ACAD_PSEXT
 70
     0
  0
APPID
  2
ACAECLAYERSTANDARD
 70
     0
  0
APPID
  2
ACAD_MLEADERVER
 70
     0
  0
APPID
  2
ACAD_DSTYLE_DIMJAG
 70
     0
  0
APPID
  2
ACAD_DSTYLE_DIMTALN
 70
     0
  0
APPID
  2
ACDBDYNAMICBLOCKGUID
 70
     0
  0
APPID
  2
ACDBBLOCKREPETAG
 70
     0
  0
APPID
  2
ACAD_DSTYLE_DIMJOGGED_JOGA
 70
     0
  0
APPID
  2
ACAD_EXEMPT_FROM_CAD_STANDARDS
 70
     0
  0
APPID
  2
ACAD_DSTYLE_DIMTEXT_FILL
 70
     0
  0
APPID
  2
ACAD_DSTYLE_DIMEXT_LENGTH
 70
     0
  0
APPID
  2
ACAD_DSTYLE_DIMEXT_ENABLED
 70
     0
  0
APPID
  2
ACAD_DSTYLE_DIM_LINETYPE
 70
     0
  0
APPID
  2
ACAD_DSTYLE_DIM_EXT1_LINETYPE
 70
     0
  0
APPID
  2
ACAD_DSTYLE_DIM_EXT2_LINETYPE
 70
     0
  0
APPID
  2
ACAD_DSTYLE_DIMARC_LENGTH_
 70
     0
  0
APPID
  2
ACADANNOTATIVE
 70
     0
  0
APPID
  2
AMG_ARCHIVE11
 70
     0
  0
APPID
  2
RC_PROFILE
 70
     0
  0
APPID
  2
ACAD_DSTYLE_DIMRADIAL_EXTENSION
 70
     0
  0
APPID
  2
DCO15
 70
     0
  0
APPID
  2
ACAD_NAV_VCDISPLAY
 70
     0
  0
APPID
  2
AEC_XDATA_BOUND_SPACE
 70
     0
  0
APPID
  2
ACCMTRANSPARENCY
 70
     0
  0
ENDTAB
  0
TABLE
  2
DIMSTYLE
 70
    38
  0
DIMSTYLE
  2
MASKIN
 70
     0
  3

  4

  5

  6

  7

 40
0.0
 41
3.0
 42
1.5
 43
10.0
 44
1.5
 45
0.0
 46
0.0
 47
0.0
 48
0.0
140
3.5
141
-5.0
142
0.0
143
25.399999999999999
144
-1.0
145
0.0
146
1.0
147
1.0
 71
     0
 72
     0
 73
     0
 74
     1
 75
     0
 76
     0
 77
     1
 78
     8
170
     0
171
     0
172
     1
173
     0
174
     0
175
     0
176
   256
177
   256
178
     2
  0
DIMSTYLE
  2
BYGG-021409$0$STANDARD
 70
     0
  3

  4

  5

  6

  7

 40
1.0
 41
0.18
 42
0.0625
 43
0.38
 44
0.18
 45
0.0
 46
0.0
 47
0.0
 48
0.0
140
0.18
141
0.09
142
0.0
143
25.399999999999999
144
1.0
145
0.0
146
1.0
147
0.09
 71
     0
 72
     0
 73
     1
 74
     1
 75
     0
 76
     0
 77
     0
 78
     0
170
     0
171
     2
172
     0
173
     0
174
     0
175
     0
176
     0
177
     0
178
     0
  0
DIMSTYLE
  2
BYGG-021409$0$MASKIN
 70
     0
  3

  4

  5

  6

  7

 40
0.0
 41
3.0
 42
1.5
 43
10.0
 44
1.5
 45
0.0
 46
0.0
 47
0.0
 48
0.0
140
3.0
141
-5.0
142
0.0
143
25.399999999999999
144
-1.0
145
0.0
146
1.0
147
1.0
 71
     0
 72
     0
 73
     0
 74
     0
 75
     0
 76
     0
 77
     1
 78
     8
170
     0
171
     0
172
     1
173
     0
174
     0
175
     0
176
   256
177
   256
178
     2
  0
DIMSTYLE
  2
BYGG-021409$0$MASKINX
 70
     0
  3

  4

  5

  6

  7

 40
0.0
 41
3.0
 42
1.5
 43
10.0
 44
1.5
 45
0.0
 46
0.0
 47
0.0
 48
0.0
140
3.0
141
-5.0
142
0.0
143
25.399999999999999
144
-1.0
145
0.0
146
1.0
147
1.0
 71
     0
 72
     0
 73
     0
 74
     0
 75
     0
 76
     0
 77
     1
 78
     8
170
     0
171
     0
172
     1
173
     0
174
     0
175
     0
176
   256
177
   256
178
   256
  0
DIMSTYLE
  2
BYGG-014413$0$MASKIN
 70
     0
  3

  4

  5

  6

  7

 40
0.0
 41
3.0
 42
1.5
 43
10.0
 44
1.5
 45
0.0
 46
0.0
 47
0.0
 48
0.0
140
3.0
141
-5.0
142
0.0
143
25.399999999999999
144
-1.0
145
0.0
146
1.0
147
1.0
 71
     0
 72
     0
 73
     0
 74
     0
 75
     0
 76
     0
 77
     1
 78
     8
170
     0
171
     0
172
     1
173
     0
174
     0
175
     0
176
   256
177
   256
178
   256
  0
DIMSTYLE
  2
BYGG-014413$0$STANDARD
 70
     0
  3

  4

  5

  6

  7

 40
1.0
 41
0.18
 42
0.0625
 43
0.38
 44
0.18
 45
0.0
 46
0.0
 47
0.0
 48
0.0
140
0.18
141
0.09
142
0.0
143
25.399999999999999
144
1.0
145
0.0
146
1.0
147
0.09
 71
     0
 72
     0
 73
     1
 74
     1
 75
     0
 76
     0
 77
     0
 78
     0
170
     0
171
     2
172
     0
173
     0
174
     0
175
     0
176
     0
177
     0
178
     0
  0
DIMSTYLE
  2
BYGG-021556$0$MASKIN
 70
     0
  3

  4

  5

  6

  7

 40
1.0
 41
3.0
 42
1.5
 43
10.0
 44
1.5
 45
0.0
 46
0.0
 47
0.0
 48
0.0
140
3.0
141
-5.0
142
0.0
143
25.399999999999999
144
1.0
145
0.0
146
1.0
147
0.09
 71
     0
 72
     0
 73
     0
 74
     0
 75
     0
 76
     0
 77
     1
 78
     8
170
     0
171
     0
172
     0
173
     0
174
     0
175
     0
176
   256
177
   256
178
   256
  0
DIMSTYLE
  2
BYGG-008943$0$MASKIN
 70
     0
  3

  4

  5

  6

  7

 40
0.0
 41
3.0
 42
1.5
 43
10.0
 44
1.5
 45
0.0
 46
0.0
 47
0.0
 48
0.0
140
3.0
141
-5.0
142
0.0
143
25.399999999999999
144
-1.0
145
0.0
146
1.0
147
1.0
 71
     0
 72
     0
 73
     0
 74
     0
 75
     0
 76
     0
 77
     1
 78
     8
170
     0
171
     0
172
     1
173
     0
174
     0
175
     0
176
   256
177
   256
178
     2
  0
DIMSTYLE
  2
BYGG-008943$0$STANDARD
 70
     0
  3

  4

  5

  6

  7

 40
1.0
 41
0.18
 42
0.0625
 43
0.38
 44
0.18
 45
0.0
 46
0.0
 47
0.0
 48
0.0
140
0.18
141
0.09
142
0.0
143
25.399999999999999
144
1.0
145
0.0
146
1.0
147
0.09
 71
     0
 72
     0
 73
     1
 74
     1
 75
     0
 76
     0
 77
     0
 78
     0
170
     0
171
     2
172
     0
173
     0
174
     0
175
     0
176
     0
177
     0
178
     0
  0
DIMSTYLE
  2
BYGG-008943$0$ANNOTATIVE
 70
     0
  3

  4

  5

  6

  7

 40
1.0
 41
0.18
 42
0.0625
 43
0.38
 44
0.18
 45
0.0
 46
0.0
 47
0.0
 48
0.0
140
0.18
141
0.09
142
0.0
143
25.399999999999999
144
1.0
145
0.0
146
1.0
147
0.09
 71
     0
 72
     0
 73
     1
 74
     1
 75
     0
 76
     0
 77
     0
 78
     0
170
     0
171
     2
172
     0
173
     0
174
     0
175
     0
176
     0
177
     0
178
     0
  0
DIMSTYLE
  2
BYGG-021764$0$STANDARD
 70
     0
  3

  4

  5

  6

  7

 40
1.0
 41
0.18
 42
0.0625
 43
0.38
 44
0.18
 45
0.0
 46
0.0
 47
0.0
 48
0.0
140
0.18
141
0.09
142
0.0
143
25.399999999999999
144
1.0
145
0.0
146
1.0
147
0.09
 71
     0
 72
     0
 73
     1
 74
     1
 75
     0
 76
     0
 77
     0
 78
     0
170
     0
171
     2
172
     0
173
     0
174
     0
175
     0
176
     0
177
     0
178
     0
  0
DIMSTYLE
  2
BYGG-021764$0$MASKIN
 70
     0
  3

  4

  5

  6

  7

 40
0.0
 41
3.0
 42
1.5
 43
10.0
 44
1.5
 45
0.0
 46
0.0
 47
0.0
 48
0.0
140
3.0
141
-5.0
142
0.0
143
25.399999999999999
144
-1.0
145
0.0
146
1.0
147
1.0
 71
     0
 72
     0
 73
     0
 74
     0
 75
     0
 76
     0
 77
     1
 78
     8
170
     0
171
     0
172
     1
173
     0
174
     0
175
     0
176
   256
177
   256
178
     2
  0
DIMSTYLE
  2
BYGG-00894401$0$MASKIN
 70
     0
  3

  4

  5

  6

  7

 40
0.0
 41
3.0
 42
1.5
 43
10.0
 44
1.5
 45
0.0
 46
0.0
 47
0.0
 48
0.0
140
3.0
141
-5.0
142
0.0
143
25.399999999999999
144
-1.0
145
0.0
146
1.0
147
1.0
 71
     0
 72
     0
 73
     0
 74
     0
 75
     0
 76
     0
 77
     1
 78
     8
170
     0
171
     0
172
     1
173
     0
174
     0
175
     0
176
   256
177
   256
178
     2
  0
DIMSTYLE
  2
BYGG-00894401$0$STANDARD
 70
     0
  3

  4

  5

  6

  7

 40
1.0
 41
0.18
 42
0.0625
 43
0.38
 44
0.18
 45
0.0
 46
0.0
 47
0.0
 48
0.0
140
0.18
141
0.09
142
0.0
143
25.399999999999999
144
1.0
145
0.0
146
1.0
147
0.09
 71
     0
 72
     0
 73
     1
 74
     1
 75
     0
 76
     0
 77
     0
 78
     0
170
     0
171
     2
172
     0
173
     0
174
     0
175
     0
176
     0
177
     0
178
     0
  0
DIMSTYLE
  2
BYGG-00894401$0$ANNOTATIVE
 70
     0
  3

  4

  5

  6

  7

 40
1.0
 41
0.18
 42
0.0625
 43
0.38
 44
0.18
 45
0.0
 46
0.0
 47
0.0
 48
0.0
140
0.18
141
0.09
142
0.0
143
25.399999999999999
144
1.0
145
0.0
146
1.0
147
0.09
 71
     0
 72
     0
 73
     1
 74
     1
 75
     0
 76
     0
 77
     0
 78
     0
170
     0
171
     2
172
     0
173
     0
174
     0
175
     0
176
     0
177
     0
178
     0
  0
DIMSTYLE
  2
BYGG-021526$0$MASKIN1
 70
     0
  3

  4

  5

  6

  7

 40
0.0
 41
3.0
 42
1.5
 43
10.0
 44
1.5
 45
0.0
 46
0.0
 47
0.0
 48
0.0
140
3.0
141
-5.0
142
0.0
143
25.399999999999999
144
-1.0
145
0.0
146
1.0
147
1.0
 71
     0
 72
     0
 73
     0
 74
     0
 75
     0
 76
     0
 77
     1
 78
     8
170
     0
171
     0
172
     1
173
     0
174
     0
175
     0
176
   256
177
   256
178
   256
  0
DIMSTYLE
  2
BYGG-021526$0$STANDARD
 70
     0
  3

  4

  5

  6

  7

 40
1.0
 41
0.18
 42
0.0625
 43
0.38
 44
0.18
 45
0.0
 46
0.0
 47
0.0
 48
0.0
140
0.18
141
0.09
142
0.0
143
25.399999999999999
144
1.0
145
0.0
146
1.0
147
0.09
 71
     0
 72
     0
 73
     1
 74
     1
 75
     0
 76
     0
 77
     0
 78
     0
170
     0
171
     2
172
     0
173
     0
174
     0
175
     0
176
     0
177
     0
178
     0
  0
DIMSTYLE
  2
BYGG-021526$0$ANNOTATIVE
 70
     0
  3

  4

  5

  6

  7

 40
1.0
 41
0.18
 42
0.0625
 43
0.38
 44
0.18
 45
0.0
 46
0.0
 47
0.0
 48
0.0
140
0.18
141
0.09
142
0.0
143
25.399999999999999
144
1.0
145
0.0
146
1.0
147
0.09
 71
     0
 72
     0
 73
     1
 74
     1
 75
     0
 76
     0
 77
     0
 78
     0
170
     0
171
     2
172
     0
173
     0
174
     0
175
     0
176
     0
177
     0
178
     0
  0
DIMSTYLE
  2
BYGG-021526$0$MASKIN
 70
     0
  3

  4

  5

  6

  7

 40
0.0
 41
3.0
 42
1.5
 43
10.0
 44
1.5
 45
0.0
 46
0.0
 47
0.0
 48
0.0
140
3.0
141
-5.0
142
0.0
143
25.399999999999999
144
-1.0
145
0.0
146
1.0
147
1.0
 71
     0
 72
     0
 73
     0
 74
     1
 75
     0
 76
     0
 77
     1
 78
     8
170
     0
171
     0
172
     1
173
     0
174
     0
175
     0
176
   256
177
   256
178
     2
  0
DIMSTYLE
  2
BYGG-024800$0$MASKIN
 70
     0
  3

  4

  5

  6

  7

 40
0.0
 41
3.0
 42
1.5
 43
10.0
 44
1.5
 45
0.0
 46
0.0
 47
0.0
 48
0.0
140
3.0
141
-5.0
142
0.0
143
25.399999999999999
144
-1.0
145
0.0
146
1.0
147
1.0
 71
     0
 72
     0
 73
     0
 74
     0
 75
     0
 76
     0
 77
     1
 78
     8
170
     0
171
     0
172
     1
173
     0
174
     0
175
     0
176
   256
177
   256
178
     2
  0
DIMSTYLE
  2
BYGG-024800$0$STANDARD
 70
     0
  3

  4

  5

  6

  7

 40
1.0
 41
0.18
 42
0.0625
 43
0.38
 44
0.18
 45
0.0
 46
0.0
 47
0.0
 48
0.0
140
0.18
141
0.09
142
0.0
143
25.399999999999999
144
1.0
145
0.0
146
1.0
147
0.09
 71
     0
 72
     0
 73
     1
 74
     1
 75
     0
 76
     0
 77
     0
 78
     0
170
     0
171
     2
172
     0
173
     0
174
     0
175
     0
176
     0
177
     0
178
     0
  0
DIMSTYLE
  2
BYGG-024807$0$MASKIN
 70
     0
  3

  4

  5

  6

  7

 40
0.0
 41
3.0
 42
1.5
 43
10.0
 44
1.5
 45
0.0
 46
0.0
 47
0.0
 48
0.0
140
3.0
141
-5.0
142
0.0
143
25.399999999999999
144
-1.0
145
0.0
146
1.0
147
1.0
 71
     0
 72
     0
 73
     0
 74
     0
 75
     0
 76
     0
 77
     1
 78
     8
170
     0
171
     0
172
     1
173
     0
174
     0
175
     0
176
   256
177
   256
178
     2
  0
DIMSTYLE
  2
BYGG-024807$0$STANDARD
 70
     0
  3

  4

  5

  6

  7

 40
1.0
 41
0.18
 42
0.0625
 43
0.38
 44
0.18
 45
0.0
 46
0.0
 47
0.0
 48
0.0
140
0.18
141
0.09
142
0.0
143
25.399999999999999
144
1.0
145
0.0
146
1.0
147
0.09
 71
     0
 72
     0
 73
     1
 74
     1
 75
     0
 76
     0
 77
     0
 78
     0
170
     0
171
     2
172
     0
173
     0
174
     0
175
     0
176
     0
177
     0
178
     0
  0
DIMSTYLE
  2
BYGG-024807$0$ANNOTATIVE
 70
     0
  3

  4

  5

  6

  7

 40
1.0
 41
0.18
 42
0.0625
 43
0.38
 44
0.18
 45
0.0
 46
0.0
 47
0.0
 48
0.0
140
0.18
141
0.09
142
0.0
143
25.399999999999999
144
1.0
145
0.0
146
1.0
147
0.09
 71
     0
 72
     0
 73
     1
 74
     1
 75
     0
 76
     0
 77
     0
 78
     0
170
     0
171
     2
172
     0
173
     0
174
     0
175
     0
176
     0
177
     0
178
     0
  0
DIMSTYLE
  2
BYGG-024973$0$STANDARD
 70
     0
  3

  4

  5

  6

  7

 40
1.0
 41
0.18
 42
0.0625
 43
0.38
 44
0.18
 45
0.0
 46
0.0
 47
0.0
 48
0.0
140
0.18
141
0.09
142
0.0
143
25.399999999999999
144
1.0
145
0.0
146
1.0
147
0.09
 71
     0
 72
     0
 73
     1
 74
     1
 75
     0
 76
     0
 77
     0
 78
     0
170
     0
171
     2
172
     0
173
     0
174
     0
175
     0
176
     0
177
     0
178
     0
  0
DIMSTYLE
  2
BYGG-024973$0$MASKIN
 70
     0
  3

  4

  5

  6

  7

 40
0.0
 41
3.0
 42
1.5
 43
10.0
 44
1.5
 45
0.0
 46
0.0
 47
0.0
 48
0.0
140
3.0
141
-5.0
142
0.0
143
25.399999999999999
144
-1.0
145
0.0
146
1.0
147
1.0
 71
     0
 72
     0
 73
     0
 74
     0
 75
     0
 76
     0
 77
     1
 78
     8
170
     0
171
     0
172
     1
173
     0
174
     0
175
     0
176
   256
177
   256
178
     2
  0
DIMSTYLE
  2
BYGG-025186$0$MASKIN
 70
     0
  3

  4

  5

  6

  7

 40
0.0
 41
3.0
 42
1.5
 43
10.0
 44
1.5
 45
0.0
 46
0.0
 47
0.0
 48
0.0
140
3.0
141
-5.0
142
0.0
143
25.399999999999999
144
-1.0
145
0.0
146
1.0
147
1.0
 71
     0
 72
     0
 73
     0
 74
     0
 75
     0
 76
     0
 77
     1
 78
     8
170
     0
171
     0
172
     1
173
     0
174
     0
175
     0
176
   256
177
   256
178
     2
  0
DIMSTYLE
  2
BYGG-025052$0$MASKIN
 70
     0
  3

  4

  5

  6

  7

 40
0.0
 41
3.0
 42
1.5
 43
10.0
 44
1.5
 45
0.0
 46
0.0
 47
0.0
 48
0.0
140
3.0
141
-5.0
142
0.0
143
25.399999999999999
144
-1.0
145
0.0
146
1.0
147
1.0
 71
     0
 72
     0
 73
     0
 74
     0
 75
     0
 76
     0
 77
     1
 78
     8
170
     0
171
     0
172
     1
173
     0
174
     0
175
     0
176
   256
177
   256
178
     2
  0
DIMSTYLE
  2
BYGG-025052$0$STANDARD
 70
     0
  3

  4

  5

  6

  7

 40
1.0
 41
0.18
 42
0.0625
 43
0.38
 44
0.18
 45
0.0
 46
0.0
 47
0.0
 48
0.0
140
0.18
141
0.09
142
0.0
143
25.399999999999999
144
1.0
145
0.0
146
1.0
147
0.09
 71
     0
 72
     0
 73
     1
 74
     1
 75
     0
 76
     0
 77
     0
 78
     0
170
     0
171
     2
172
     0
173
     0
174
     0
175
     0
176
     0
177
     0
178
     0
  0
DIMSTYLE
  2
BYGG-024817$0$MASKIN
 70
     0
  3

  4

  5

  6

  7

 40
0.0
 41
3.0
 42
1.5
 43
10.0
 44
1.5
 45
0.0
 46
0.0
 47
0.0
 48
0.0
140
3.0
141
-5.0
142
0.0
143
25.399999999999999
144
-1.0
145
0.0
146
1.0
147
1.0
 71
     0
 72
     0
 73
     0
 74
     0
 75
     0
 76
     0
 77
     1
 78
     8
170
     0
171
     0
172
     1
173
     0
174
     0
175
     0
176
   256
177
   256
178
     2
  0
DIMSTYLE
  2
BYGG-024817$0$STANDARD
 70
     0
  3

  4

  5

  6

  7

 40
1.0
 41
0.18
 42
0.0625
 43
0.38
 44
0.18
 45
0.0
 46
0.0
 47
0.0
 48
0.0
140
0.18
141
0.09
142
0.0
143
25.399999999999999
144
1.0
145
0.0
146
1.0
147
0.09
 71
     0
 72
     0
 73
     1
 74
     1
 75
     0
 76
     0
 77
     0
 78
     0
170
     0
171
     2
172
     0
173
     0
174
     0
175
     0
176
     0
177
     0
178
     0
  0
DIMSTYLE
  2
BYGG-014090$0$STANDARD
 70
     0
  3

  4

  5

  6

  7

 40
1.0
 41
0.18
 42
0.0625
 43
0.38
 44
0.18
 45
0.0
 46
0.0
 47
0.0
 48
0.0
140
0.18
141
0.09
142
0.0
143
25.399999999999999
144
1.0
145
0.0
146
1.0
147
0.09
 71
     0
 72
     0
 73
     1
 74
     1
 75
     0
 76
     0
 77
     0
 78
     0
170
     0
171
     2
172
     0
173
     0
174
     0
175
     0
176
     0
177
     0
178
     0
  0
DIMSTYLE
  2
BYGG-015465$0$STANDARD
 70
     0
  3

  4

  5

  6

  7

 40
1.0
 41
0.18
 42
0.0625
 43
0.38
 44
0.18
 45
0.0
 46
0.0
 47
0.0
 48
0.0
140
0.18
141
0.09
142
0.0
143
25.399999999999999
144
1.0
145
0.0
146
1.0
147
0.09
 71
     0
 72
     0
 73
     1
 74
     1
 75
     0
 76
     0
 77
     0
 78
     0
170
     0
171
     2
172
     0
173
     0
174
     0
175
     0
176
     0
177
     0
178
     0
  0
DIMSTYLE
  2
BYGG-015465$0$MASKIN
 70
     0
  3

  4

  5

  6

  7

 40
0.0
 41
3.0
 42
1.5
 43
10.0
 44
1.5
 45
0.0
 46
0.0
 47
0.0
 48
0.0
140
3.0
141
-5.0
142
0.0
143
25.399999999999999
144
-1.0
145
0.0
146
1.0
147
1.0
 71
     0
 72
     0
 73
     0
 74
     0
 75
     0
 76
     0
 77
     1
 78
     8
170
     0
171
     0
172
     1
173
     0
174
     0
175
     0
176
   256
177
   256
178
     2
  0
DIMSTYLE
  2
BYGG-01443301$0$MASKIN
 70
     0
  3

  4

  5

  6

  7

 40
0.0
 41
3.0
 42
1.5
 43
10.0
 44
1.5
 45
0.0
 46
0.0
 47
0.0
 48
0.0
140
3.0
141
-5.0
142
0.0
143
25.399999999999999
144
-1.0
145
0.0
146
1.0
147
1.0
 71
     0
 72
     0
 73
     0
 74
     0
 75
     0
 76
     0
 77
     1
 78
     8
170
     0
171
     0
172
     1
173
     0
174
     0
175
     0
176
   256
177
   256
178
   256
  0
DIMSTYLE
  2
BYGG-019373$0$MASKIN
 70
     0
  3

  4

  5

  6

  7

 40
0.0
 41
3.0
 42
1.5
 43
10.0
 44
1.5
 45
0.0
 46
0.0
 47
0.0
 48
0.0
140
3.0
141
-5.0
142
0.0
143
25.399999999999999
144
-1.0
145
0.0
146
1.0
147
1.0
 71
     0
 72
     0
 73
     0
 74
     0
 75
     0
 76
     0
 77
     1
 78
     8
170
     0
171
     0
172
     1
173
     0
174
     0
175
     0
176
   256
177
   256
178
     2
  0
DIMSTYLE
  2
BYGG-01443602$0$MASKIN
 70
     0
  3

  4

  5

  6

  7

 40
0.0
 41
3.0
 42
1.5
 43
10.0
 44
1.5
 45
0.0
 46
0.0
 47
0.0
 48
0.0
140
3.0
141
-5.0
142
0.0
143
25.399999999999999
144
-1.0
145
0.0
146
1.0
147
1.0
 71
     0
 72
     0
 73
     0
 74
     0
 75
     0
 76
     0
 77
     1
 78
     8
170
     0
171
     0
172
     1
173
     0
174
     0
175
     0
176
   256
177
   256
178
   256
  0
DIMSTYLE
  2
BYGG-01443602$0$STANDARD
 70
     0
  3

  4

  5

  6

  7

 40
1.0
 41
0.18
 42
0.0625
 43
0.38
 44
0.18
 45
0.0
 46
0.0
 47
0.0
 48
0.0
140
0.18
141
0.09
142
0.0
143
25.399999999999999
144
1.0
145
0.0
146
1.0
147
0.09
 71
     0
 72
     0
 73
     1
 74
     1
 75
     0
 76
     0
 77
     0
 78
     0
170
     0
171
     2
172
     0
173
     0
174
     0
175
     0
176
     0
177
     0
178
     0
  0
ENDTAB
  0
ENDSEC
  0
SECTION
  2
BLOCKS
  0
BLOCK
  8
0
  2
$MODEL_SPACE
 70
     0
 10
0.0
 20
0.0
 30
0.0
  3
$MODEL_SPACE
  1

  0
ENDBLK
  5
D
  8
0
  0
BLOCK
 67
     1
  8
0
  2
$PAPER_SPACE
 70
     0
 10
0.0
 20
0.0
 30
0.0
  3
$PAPER_SPACE
  1

  0
ENDBLK
  5
12
 67
     1
  8
0
  0
BLOCK
  8
0
  2
*D85
 70
     1
 10
0.0
 20
0.0
 30
0.0
  3
*D85
  1

  0
LINE
  5
F77
  8
SAPA_MATT
 10
-45.000000000346759
 20
12.80000001242699
 30
0.0000000048844204
 11
-45.000000000346759
 21
-7.4999999999997033
 31
0.0000000048844204
  0
LINE
  5
F78
  8
SAPA_MATT
 10
48.0
 20
13.500000006162139
 30
0.0000000048844204
 11
48.0
 21
-7.4999999999997007
 31
0.0000000048844204
  0
LINE
  5
F79
  8
SAPA_MATT
 10
-42.000000000346759
 20
-5.9999999999997007
 30
0.0000000048844204
 11
45.0
 21
-5.9999999999997007
 31
0.0000000048844204
  0
SOLID
  5
F7A
  8
SAPA_MATT
 10
-42.000000000346759
 20
-5.4999999999997007
 30
0.0000000048844204
 11
-42.000000000346759
 21
-6.4999999999997007
 31
0.0000000048844204
 12
-45.000000000346759
 22
-5.9999999999997007
 32
0.0000000048844204
 13
-45.000000000346759
 23
-5.9999999999997007
 33
0.0000000048844204
  0
SOLID
  5
F7B
  8
SAPA_MATT
 10
45.0
 20
-5.4999999999997007
 30
0.0000000048844204
 11
45.0
 21
-6.4999999999997007
 31
0.0000000048844204
 12
48.0
 22
-5.9999999999997007
 32
0.0000000048844204
 13
48.0
 23
-5.9999999999997007
 33
0.0000000048844204
  0
INSERT
  5
F7C
  8
0
  2
*U112
 10
0.0
 20
0.0
 30
0.0
  0
POINT
  5
F7D
  8
DEFPOINTS
 62
     0
 10
-45.000000000346759
 20
14.30000001242699
 30
0.0
  0
POINT
  5
F7E
  8
DEFPOINTS
 62
     0
 10
48.0
 20
15.000000006162139
 30
0.0
  0
POINT
  5
F7F
  8
DEFPOINTS
 62
     0
 10
48.0
 20
-5.9999999999997007
 30
0.0000000048844204
  0
ENDBLK
  5
F15
  8
0
  0
BLOCK
  8
0
  2
*D86
 70
     1
 10
0.0
 20
0.0
 30
0.0
  3
*D86
  1

  0
LINE
  5
F6C
  8
SAPA_MATT
 10
48.0
 20
13.500000006162139
 30
0.0000000048844204
 11
48.0
 21
-7.4999999999997007
 31
0.0000000048844204
  0
LINE
  5
F6D
  8
SAPA_MATT
 10
52.999999995807407
 20
14.499998378017789
 30
0.0000000048844204
 11
52.999999995807407
 21
-7.4999999999996989
 31
0.0000000048844204
  0
LINE
  5
F6E
  8
SAPA_MATT
 10
45.0
 20
-5.9999999999997007
 30
0.0000000048844204
 11
42.0
 21
-5.9999999999997007
 31
0.0000000048844204
  0
LINE
  5
F6F
  8
SAPA_MATT
 10
55.999999995807407
 20
-5.9999999999997007
 30
0.0000000048844204
 11
58.999999995807407
 21
-5.9999999999997007
 31
0.0000000048844204
  0
LINE
  5
F70
  8
SAPA_MATT
 10
48.0
 20
-5.9999999999997007
 30
0.0000000048844204
 11
52.999999995807407
 21
-5.9999999999997007
 31
0.0000000048844204
  0
SOLID
  5
F71
  8
SAPA_MATT
 10
45.0
 20
-5.4999999999997007
 30
0.0000000048844204
 11
45.0
 21
-6.4999999999997007
 31
0.0000000048844204
 12
48.0
 22
-5.9999999999997007
 32
0.0000000048844204
 13
48.0
 23
-5.9999999999997007
 33
0.0000000048844204
  0
SOLID
  5
F72
  8
SAPA_MATT
 10
55.999999995807407
 20
-5.4999999999997007
 30
0.0000000048844204
 11
55.999999995807407
 21
-6.4999999999997007
 31
0.0000000048844204
 12
52.999999995807407
 22
-5.9999999999997007
 32
0.0000000048844204
 13
52.999999995807407
 23
-5.9999999999997007
 33
0.0000000048844204
  0
INSERT
  5
F73
  8
0
  2
*U111
 10
0.0
 20
0.0
 30
0.0
  0
POINT
  5
F74
  8
DEFPOINTS
 62
     0
 10
48.0
 20
15.000000006162139
 30
0.0
  0
POINT
  5
F75
  8
DEFPOINTS
 62
     0
 10
52.999999995807407
 20
15.999998378017789
 30
0.0
  0
POINT
  5
F76
  8
DEFPOINTS
 62
     0
 10
52.999999995807407
 20
-5.9999999999997007
 30
0.0000000048844204
  0
ENDBLK
  5
F21
  8
0
  0
BLOCK
  8
0
  2
*D87
 70
     1
 10
0.0
 20
0.0
 30
0.0
  3
*D87
  1

  0
LINE
  5
F63
  8
SAPA_MATT
 10
52.999999995807407
 20
14.499998378017789
 30
0.0000000048844204
 11
52.999999995807407
 21
-7.4999999999996989
 31
0.0000000048844204
  0
LINE
  5
F64
  8
SAPA_MATT
 10
141.9999999998945
 20
12.999999804301581
 30
0.0000000048844204
 11
141.9999999998945
 21
-7.4999999999997007
 31
0.0000000048844204
  0
LINE
  5
F65
  8
SAPA_MATT
 10
55.999999995807407
 20
-5.9999999999997007
 30
0.0000000048844204
 11
138.9999999998945
 21
-5.9999999999997007
 31
0.0000000048844204
  0
SOLID
  5
F66
  8
SAPA_MATT
 10
55.999999995807407
 20
-5.4999999999997007
 30
0.0000000048844204
 11
55.999999995807407
 21
-6.4999999999997007
 31
0.0000000048844204
 12
52.999999995807407
 22
-5.9999999999997007
 32
0.0000000048844204
 13
52.999999995807407
 23
-5.9999999999997007
 33
0.0000000048844204
  0
SOLID
  5
F67
  8
SAPA_MATT
 10
138.9999999998945
 20
-5.4999999999997007
 30
0.0000000048844204
 11
138.9999999998945
 21
-6.4999999999997007
 31
0.0000000048844204
 12
141.9999999998945
 22
-5.9999999999997007
 32
0.0000000048844204
 13
141.9999999998945
 23
-5.9999999999997007
 33
0.0000000048844204
  0
INSERT
  5
F68
  8
0
  2
*U110
 10
0.0
 20
0.0
 30
0.0
  0
POINT
  5
F69
  8
DEFPOINTS
 62
     0
 10
52.999999995807407
 20
15.999998378017789
 30
0.0
  0
POINT
  5
F6A
  8
DEFPOINTS
 62
     0
 10
141.9999999998945
 20
14.499999804301581
 30
0.0
  0
POINT
  5
F6B
  8
DEFPOINTS
 62
     0
 10
141.9999999998945
 20
-5.9999999999997007
 30
0.0000000048844204
  0
ENDBLK
  5
F2F
  8
0
  0
BLOCK
  8
0
  2
*D88
 70
     1
 10
0.0
 20
0.0
 30
0.0
  3
*D88
  1

  0
LINE
  5
F5A
  8
SAPA_MATT
 10
-45.000000000346759
 20
12.80000001242699
 30
0.0000000048844204
 11
-45.000000000346759
 21
-19.499999999999702
 31
0.0000000048844204
  0
LINE
  5
F5B
  8
SAPA_MATT
 10
141.9999999998945
 20
12.999999804301581
 30
0.0000000048844204
 11
141.9999999998945
 21
-19.499999999999702
 31
0.0000000048844204
  0
LINE
  5
F5C
  8
SAPA_MATT
 10
-42.000000000346759
 20
-17.999999999999702
 30
0.0000000048844204
 11
138.9999999998945
 21
-17.999999999999702
 31
0.0000000048844204
  0
SOLID
  5
F5D
  8
SAPA_MATT
 10
-42.000000000346759
 20
-17.499999999999702
 30
0.0000000048844204
 11
-42.000000000346759
 21
-18.499999999999702
 31
0.0000000048844204
 12
-45.000000000346759
 22
-17.999999999999702
 32
0.0000000048844204
 13
-45.000000000346759
 23
-17.999999999999702
 33
0.0000000048844204
  0
SOLID
  5
F5E
  8
SAPA_MATT
 10
138.9999999998945
 20
-17.499999999999702
 30
0.0000000048844204
 11
138.9999999998945
 21
-18.499999999999702
 31
0.0000000048844204
 12
141.9999999998945
 22
-17.999999999999702
 32
0.0000000048844204
 13
141.9999999998945
 23
-17.999999999999702
 33
0.0000000048844204
  0
INSERT
  5
F5F
  8
0
  2
*U109
 10
0.0
 20
0.0
 30
0.0
  0
POINT
  5
F60
  8
DEFPOINTS
 62
     0
 10
-45.000000000346759
 20
14.30000001242699
 30
0.0
  0
POINT
  5
F61
  8
DEFPOINTS
 62
     0
 10
141.9999999998945
 20
14.499999804301581
 30
0.0
  0
POINT
  5
F62
  8
DEFPOINTS
 62
     0
 10
141.9999999998945
 20
-17.999999999999702
 30
0.0000000048844204
  0
ENDBLK
  5
F3B
  8
0
  0
BLOCK
  8
0
  2
*D89
 70
     1
 10
0.0
 20
0.0
 30
0.0
  3
*D89
  1

  0
LINE
  5
F51
  8
SAPA_MATT
 10
-81.500000000379174
 20
23.800000012212781
 30
0.0
 11
-101.5000000003792
 21
23.800000012212781
 31
0.0
  0
LINE
  5
F52
  8
SAPA_MATT
 10
-81.500000000379103
 20
223.80000001221279
 30
0.0
 11
-101.5000000003791
 21
223.80000001221279
 31
0.0
  0
LINE
  5
F53
  8
SAPA_MATT
 10
-100.0000000003792
 20
26.800000012212781
 30
0.0
 11
-100.0000000003792
 21
220.80000001221279
 31
0.0
  0
SOLID
  5
F54
  8
SAPA_MATT
 10
-100.5000000003792
 20
26.800000012212781
 30
0.0
 11
-99.500000000379217
 21
26.800000012212781
 31
0.0
 12
-100.0000000003792
 22
23.800000012212781
 32
0.0
 13
-100.0000000003792
 23
23.800000012212781
 33
0.0
  0
SOLID
  5
F55
  8
SAPA_MATT
 10
-100.5000000003791
 20
220.80000001221279
 30
0.0
 11
-99.500000000379174
 21
220.80000001221279
 31
0.0
 12
-100.0000000003792
 22
223.80000001221279
 32
0.0
 13
-100.0000000003792
 23
223.80000001221279
 33
0.0
  0
INSERT
  5
F56
  8
0
  2
*U108
 10
0.0
 20
0.0
 30
0.0
  0
POINT
  5
F57
  8
DEFPOINTS
 62
     0
 10
-80.000000000379174
 20
23.800000012212781
 30
0.0
  0
POINT
  5
F58
  8
DEFPOINTS
 62
     0
 10
-80.000000000379117
 20
223.80000001221279
 30
0.0
  0
POINT
  5
F59
  8
DEFPOINTS
 62
     0
 10
-100.0000000003792
 20
223.80000001221279
 30
0.0
  0
ENDBLK
  5
F47
  8
0
  0
BLOCK
  8
0
  2
*X90
 70
     1
 10
0.0
 20
0.0
 30
0.0
  3
*X90
  1

  0
LINE
  5
18F5
  8
0
 62
     0
 10
-41.490406116666101
 20
229.38066392048151
 30
0.0
 11
-41.746751163581862
 21
229.5286648023237
 31
0.0
  0
LINE
  5
18F6
  8
0
 62
     0
 10
-39.428183123904418
 20
228.1900389204815
 30
0.0
 11
-40.115590788158308
 21
228.58691392048149
 31
0.0
  0
LINE
  5
18F7
  8
0
 62
     0
 10
-37.513531391970602
 20
227.0846142276452
 30
0.0
 11
-38.053367795396632
 21
227.39628892048151
 31
0.0
  0
LINE
  5
18F8
  8
0
 62
     0
 10
-42.17781361666615
 20
228.19003920497761
 30
0.0
 11
-42.865221280920053
 21
228.5869142049776
 31
0.0
  0
LINE
  5
18F9
  8
0
 62
     0
 10
-40.115590623904453
 20
226.9994142049776
 30
0.0
 11
-40.802998288158349
 21
227.39628920497759
 31
0.0
  0
LINE
  5
18FA
  8
0
 62
     0
 10
-38.05336763114277
 20
225.80878920497759
 30
0.0
 11
-38.740775295396674
 21
226.20566420497761
 31
0.0
  0
LINE
  5
18FB
  8
0
 62
     0
 10
-42.86522111666612
 20
226.99941448947371
 30
0.0
 11
-43.45139398870004
 21
227.3378415549341
 31
0.0
  0
LINE
  5
18FC
  8
0
 62
     0
 10
-40.80299812390443
 20
225.8087894894737
 30
0.0
 11
-41.490405788158327
 21
226.20566448947369
 31
0.0
  0
LINE
  5
18FD
  8
0
 62
     0
 10
-38.740775131142748
 20
224.61816448947371
 30
0.0
 11
-39.428182795396651
 21
225.01503948947371
 31
0.0
  0
LINE
  5
18FE
  8
0
 62
     0
 10
-41.490405623904429
 20
224.6181647739698
 30
0.0
 11
-42.177813288158333
 21
225.01503977396979
 31
0.0
  0
LINE
  5
18FF
  8
0
 62
     0
 10
-41.490379507534669
 20
228.58689912668439
 30
0.0
 11
-42.177787171788573
 21
228.19002412668439
 31
0.0
  0
LINE
  5
1900
  8
0
 62
     0
 10
-39.618566962288398
 20
229.6675906035548
 30
0.0
 11
-40.115564179026883
 21
229.3806491266844
 31
0.0
  0
LINE
  5
1901
  8
0
 62
     0
 10
-42.86519500029636
 20
226.2056494111805
 30
0.0
 11
-43.366812724719459
 21
225.91604028295461
 31
0.0
  0
LINE
  5
1902
  8
0
 62
     0
 10
-40.80297200753467
 20
227.39627441118051
 30
0.0
 11
-41.490379671788567
 21
226.99939941118049
 31
0.0
  0
LINE
  5
1903
  8
0
 62
     0
 10
-38.740749014772987
 20
228.5868994111805
 30
0.0
 11
-39.428156679026891
 21
228.1900244111805
 31
0.0
  0
LINE
  5
1904
  8
0
 62
     0
 10
-42.177787500296347
 20
225.0150246956766
 30
0.0
 11
-42.671441105889087
 21
224.73001365360119
 31
0.0
  0
LINE
  5
1905
  8
0
 62
     0
 10
-40.115564507534657
 20
226.20564969567661
 30
0.0
 11
-40.802972171788561
 21
225.8087746956765
 31
0.0
  0
LINE
  5
1906
  8
0
 62
     0
 10
-38.053341514772981
 20
227.39627469567651
 30
0.0
 11
-38.740749179026871
 21
226.99939969567649
 31
0.0
  0
LINE
  5
1907
  8
0
 62
     0
 10
-39.428157007534679
 20
225.01502498017271
 30
0.0
 11
-40.115564671788569
 21
224.61814998017269
 31
0.0
  0
LINE
  5
1908
  8
0
 62
     0
 10
-37.588368156291978
 20
226.07722756868969
 30
0.0
 11
-38.053341679026893
 21
225.8087749801727
 31
0.0
  0
LINE
  5
1909
  8
0
 62
     0
 10
-38.74075000029643
 20
228.5869295677667
 30
0.0
 11
-38.74075000029643
 21
229.2300287029048
 31
0.0
  0
LINE
  5
190A
  8
0
 62
     0
 10
-38.74075000029643
 20
226.20567956776679
 30
0.0
 11
-38.74075000029643
 21
226.9994295677667
 31
0.0
  0
LINE
  5
190B
  8
0
 62
     0
 10
-38.74075000029643
 20
224.369971321522
 30
0.0
 11
-38.74075000029643
 21
224.6181795677667
 31
0.0
  0
LINE
  5
190C
  8
0
 62
     0
 10
-40.115565000296428
 20
228.5869295677667
 30
0.0
 11
-40.115565000296428
 21
229.38067956776669
 31
0.0
  0
LINE
  5
190D
  8
0
 62
     0
 10
-40.115565000296428
 20
226.20567956776679
 30
0.0
 11
-40.115565000296428
 21
226.9994295677667
 31
0.0
  0
LINE
  5
190E
  8
0
 62
     0
 10
-40.115565000296428
 20
223.82473368282481
 30
0.0
 11
-40.115565000296428
 21
224.6181795677667
 31
0.0
  0
LINE
  5
190F
  8
0
 62
     0
 10
-41.490380000296419
 20
228.5869295677667
 30
0.0
 11
-41.490380000296419
 21
229.38067956776669
 31
0.0
  0
LINE
  5
1910
  8
0
 62
     0
 10
-41.490380000296419
 20
226.20567956776679
 30
0.0
 11
-41.490380000296419
 21
226.9994295677667
 31
0.0
  0
LINE
  5
1911
  8
0
 62
     0
 10
-41.490380000296419
 20
223.96819008646739
 30
0.0
 11
-41.490380000296419
 21
224.6181795677667
 31
0.0
  0
LINE
  5
1912
  8
0
 62
     0
 10
-42.865195000296431
 20
228.5869295677667
 30
0.0
 11
-42.865195000296431
 21
228.6454952335196
 31
0.0
  0
LINE
  5
1913
  8
0
 62
     0
 10
-42.865195000296431
 20
226.20567956776679
 30
0.0
 11
-42.865195000296431
 21
226.9994295677667
 31
0.0
  0
ENDBLK
  5
1915
  8
0
  0
BLOCK
  8
0
  2
*X91
 70
     1
 10
0.0
 20
0.0
 30
0.0
  3
*X91
  1

  0
LINE
  5
1917
  8
0
 62
     0
 10
-44.623526197143541
 20
230.7992621403765
 30
0.0
 11
-45.335538205375997
 21
230.08725013214411
 31
0.0
  0
LINE
  5
1918
  8
0
 62
     0
 10
-44.062260189576762
 20
230.2379961328096
 30
0.0
 11
-45.74641343947625
 21
228.55384288291009
 31
0.0
  0
LINE
  5
1919
  8
0
 62
     0
 10
-43.500994182009933
 20
229.67673012524281
 30
0.0
 11
-46.157288673576502
 21
227.0204356336763
 31
0.0
  0
LINE
  5
191A
  8
0
 62
     0
 10
-42.710475154255697
 20
229.3447171378634
 30
0.0
 11
-46.56816390767672
 21
225.4870283844424
 31
0.0
  0
LINE
  5
191B
  8
0
 62
     0
 10
-43.412206426033812
 20
227.52045385095161
 30
0.0
 11
-46.97903914177698
 21
223.95362113520849
 31
0.0
  0
LINE
  5
191C
  8
0
 62
     0
 10
-41.132660264772412
 20
229.8000000122131
 30
0.0
 11
-41.220453839010879
 21
229.7122064379746
 31
0.0
  0
LINE
  5
191D
  8
0
 62
     0
 10
-43.465272896694579
 20
226.34485536515729
 30
0.0
 11
-46.01012824963901
 21
223.80000001221279
 31
0.0
  0
LINE
  5
191E
  8
0
 62
     0
 10
-43.198453741850408
 20
225.4891425048678
 30
0.0
 11
-44.887596234505381
 21
223.80000001221279
 31
0.0
  0
LINE
  5
191F
  8
0
 62
     0
 10
-42.74970835188077
 20
224.81535587970379
 30
0.0
 11
-43.765064219371709
 21
223.80000001221279
 31
0.0
  0
LINE
  5
1920
  8
0
 62
     0
 10
-42.148809662494273
 20
224.2937225539566
 30
0.0
 11
-42.642532204238073
 21
223.80000001221279
 31
0.0
  0
LINE
  5
1921
  8
0
 62
     0
 10
-41.386139798160279
 20
223.93386040315701
 30
0.0
 11
-41.520000189104429
 21
223.80000001221279
 31
0.0
  0
LINE
  5
1922
  8
0
 62
     0
 10
-41.315842052329067
 20
229.68693640674891
 30
0.0
 11
-41.428905657793251
 21
229.80000001221299
 31
0.0
  0
LINE
  5
1923
  8
0
 62
     0
 10
-42.093340024773362
 20
229.34190236405951
 30
0.0
 11
-42.380744089767219
 21
229.6293064290534
 31
0.0
  0
LINE
  5
1924
  8
0
 62
     0
 10
-42.706521028555017
 20
228.8325513527075
 30
0.0
 11
-45.045110555024863
 21
231.17114087917739
 31
0.0
  0
LINE
  5
1925
  8
0
 62
     0
 10
-43.168095111467132
 20
228.171593420486
 30
0.0
 11
-45.282329482035969
 21
230.2858277910548
 31
0.0
  0
LINE
  5
1926
  8
0
 62
     0
 10
-43.452235702868222
 20
227.3332019967535
 30
0.0
 11
-45.519548409047118
 21
229.40051470293241
 31
0.0
  0
LINE
  5
1927
  8
0
 62
     0
 10
-43.438827403421492
 20
226.19726168217309
 30
0.0
 11
-45.756767336058218
 21
228.5152016148098
 31
0.0
  0
LINE
  5
1928
  8
0
 62
     0
 10
-41.041565733461233
 20
223.80000001221279
 30
0.0
 11
-41.102738330312008
 21
223.8611726090636
 31
0.0
  0
LINE
  5
1929
  8
0
 62
     0
 10
-42.16409774859487
 20
223.80000001221279
 30
0.0
 11
-45.993986263069367
 21
227.6298885266873
 31
0.0
  0
LINE
  5
192A
  8
0
 62
     0
 10
-43.28662976372852
 20
223.80000001221279
 30
0.0
 11
-46.23120519008048
 21
226.74457543856479
 31
0.0
  0
LINE
  5
192B
  8
0
 62
     0
 10
-44.409161778862149
 20
223.80000001221279
 30
0.0
 11
-46.468424117091629
 21
225.85926235044229
 31
0.0
  0
LINE
  5
192C
  8
0
 62
     0
 10
-45.531693793995792
 20
223.80000001221279
 30
0.0
 11
-46.705643044102743
 21
224.97394926231979
 31
0.0
  0
LINE
  5
192D
  8
0
 62
     0
 10
-46.654225809129429
 20
223.80000001221279
 30
0.0
 11
-46.942861971113878
 21
224.08863617419721
 31
0.0
  0
ENDBLK
  5
192F
  8
0
  0
BLOCK
  8
0
  2
*X92
 70
     1
 10
0.0
 20
0.0
 30
0.0
  3
*X92
  1

  0
LINE
  5
1931
  8
0
 62
     0
 10
-47.227310917878313
 20
23.800000012212859
 30
0.0
 11
-47.487545483239252
 21
23.539765446851909
 31
0.0
  0
LINE
  5
1932
  8
0
 62
     0
 10
-46.104778902744663
 20
23.80000001221287
 30
0.0
 11
-47.250326556228131
 21
22.654452358729401
 31
0.0
  0
LINE
  5
1933
  8
0
 62
     0
 10
-44.982246887611012
 20
23.800000012212859
 30
0.0
 11
-47.013107629216989
 21
21.769139270606878
 31
0.0
  0
LINE
  5
1934
  8
0
 62
     0
 10
-43.859714872477362
 20
23.800000012212859
 30
0.0
 11
-46.775888702205869
 21
20.88382618248437
 31
0.0
  0
LINE
  5
1935
  8
0
 62
     0
 10
-42.73718285734374
 20
23.800000012212859
 30
0.0
 11
-46.538669775194727
 21
19.998513094361861
 31
0.0
  0
LINE
  5
1936
  8
0
 62
     0
 10
-41.614650842210082
 20
23.80000001221287
 30
0.0
 11
-46.301450848183599
 21
19.113200006239349
 31
0.0
  0
LINE
  5
1937
  8
0
 62
     0
 10
-40.492118827076439
 20
23.80000001221287
 30
0.0
 11
-46.064231921172471
 21
18.22788691811683
 31
0.0
  0
LINE
  5
1938
  8
0
 62
     0
 10
-39.369586811942789
 20
23.80000001221287
 30
0.0
 11
-45.827012994161343
 21
17.342573829994311
 31
0.0
  0
LINE
  5
1939
  8
0
 62
     0
 10
-40.778517875354503
 20
21.268536933667509
 30
0.0
 11
-45.589794067150208
 21
16.457260741871799
 31
0.0
  0
LINE
  5
193A
  8
0
 62
     0
 10
-38.247054796809152
 20
23.800000012212859
 30
0.0
 11
-38.542611043797947
 21
23.504443765224071
 31
0.0
  0
LINE
  5
193B
  8
0
 62
     0
 10
-41.07278908809198
 20
19.851733705796391
 30
0.0
 11
-45.352575140139088
 21
15.57194765374928
 31
0.0
  0
LINE
  5
193C
  8
0
 62
     0
 10
-37.124522781675509
 20
23.800000012212859
 30
0.0
 11
-37.125807815926827
 21
23.798714977961549
 31
0.0
  0
LINE
  5
193D
  8
0
 62
     0
 10
-40.968972937145132
 20
18.8330178416096
 30
0.0
 11
-45.11535621312796
 21
14.68663456562677
 31
0.0
  0
LINE
  5
193E
  8
0
 62
     0
 10
-40.677551323703319
 20
18.001907439917758
 30
0.0
 11
-42.980029195665452
 21
15.699429567955629
 31
0.0
  0
LINE
  5
193F
  8
0
 62
     0
 10
-40.252570620240327
 20
17.304356128247111
 30
0.0
 11
-41.857497180531823
 21
15.699429567955621
 31
0.0
  0
LINE
  5
1940
  8
0
 62
     0
 10
-39.713195154093427
 20
16.721199579260372
 30
0.0
 11
-40.734965165398179
 21
15.69942956795561
 31
0.0
  0
LINE
  5
1941
  8
0
 62
     0
 10
-39.06213915782439
 20
16.249723560395768
 30
0.0
 11
-39.612433150264557
 21
15.699429567955599
 31
0.0
  0
LINE
  5
1942
  8
0
 62
     0
 10
-38.287659699549287
 20
15.901671003537221
 30
0.0
 11
-38.489901135130928
 21
15.69942956795558
 31
0.0
  0
LINE
  5
1943
  8
0
 62
     0
 10
-37.353894595731617
 20
15.71290409222124
 30
0.0
 11
-37.367369119997299
 21
15.699429567955571
 31
0.0
  0
LINE
  5
1944
  8
0
 62
     0
 10
-37.545569109980804
 20
23.76625008723898
 30
0.0
 11
-37.579319034954672
 21
23.800000012212848
 31
0.0
  0
LINE
  5
1945
  8
0
 62
     0
 10
-38.444503904952931
 20
23.542652867077461
 30
0.0
 11
-38.701851050088322
 21
23.800000012212859
 31
0.0
  0
LINE
  5
1946
  8
0
 62
     0
 10
-39.193934115061651
 20
23.169551062052552
 30
0.0
 11
-39.824383065221973
 21
23.800000012212859
 31
0.0
  0
LINE
  5
1947
  8
0
 62
     0
 10
-39.823487716163797
 20
22.67657264802104
 30
0.0
 11
-40.946915080355623
 21
23.80000001221287
 31
0.0
  0
LINE
  5
1948
  8
0
 62
     0
 10
-40.341885525646767
 20
22.072438442370391
 30
0.0
 11
-42.069447095489252
 21
23.800000012212859
 31
0.0
  0
LINE
  5
1949
  8
0
 62
     0
 10
-40.74376089925326
 20
21.351781800843231
 30
0.0
 11
-43.191979110622903
 21
23.800000012212859
 31
0.0
  0
LINE
  5
194A
  8
0
 62
     0
 10
-41.005637600962679
 20
20.491126487418999
 30
0.0
 11
-44.314511125756539
 21
23.800000012212859
 31
0.0
  0
LINE
  5
194B
  8
0
 62
     0
 10
-41.060948630559068
 20
19.423905501881752
 30
0.0
 11
-45.437043140890182
 21
23.800000012212859
 31
0.0
  0
LINE
  5
194C
  8
0
 62
     0
 10
-37.336472696632889
 20
15.69942956795556
 30
0.0
 11
-37.349598188417112
 21
15.712555059739779
 31
0.0
  0
LINE
  5
194D
  8
0
 62
     0
 10
-40.590993656336437
 20
17.831418512525481
 30
0.0
 11
-46.559575156023833
 21
23.80000001221287
 31
0.0
  0
LINE
  5
194E
  8
0
 62
     0
 10
-38.459004711766553
 20
15.699429567955571
 30
0.0
 11
-38.942085177773379
 21
16.182510033962409
 31
0.0
  0
LINE
  5
194F
  8
0
 62
     0
 10
-39.581536726900197
 20
15.69942956795559
 30
0.0
 11
-47.5115834247229
 21
23.62947626577829
 31
0.0
  0
LINE
  5
1950
  8
0
 62
     0
 10
-40.704068742033861
 20
15.699429567955599
 30
0.0
 11
-47.100708190622647
 21
22.096069016544401
 31
0.0
  0
LINE
  5
1951
  8
0
 62
     0
 10
-41.826600757167519
 20
15.69942956795561
 30
0.0
 11
-46.689832956522409
 21
20.562661767310509
 31
0.0
  0
LINE
  5
1952
  8
0
 62
     0
 10
-42.949132772301184
 20
15.699429567955629
 30
0.0
 11
-46.278957722422149
 21
19.029254518076609
 31
0.0
  0
LINE
  5
1953
  8
0
 62
     0
 10
-43.898475474363323
 20
15.526240254884129
 30
0.0
 11
-45.868082488321903
 21
17.49584726884272
 31
0.0
  0
LINE
  5
1954
  8
0
 62
     0
 10
-44.45974148193018
 20
14.96497424731734
 30
0.0
 11
-45.457207254221657
 21
15.96244001960882
 31
0.0
  0
LINE
  5
1955
  8
0
 62
     0
 10
-44.991543602838412
 20
14.37424435309193
 30
0.0
 11
-45.046332020121412
 21
14.429032770374929
 31
0.0
  0
ENDBLK
  5
1957
  8
0
  0
BLOCK
  8
0
  2
*X93
 70
     1
 10
0.0
 20
0.0
 30
0.0
  3
*X93
  1

  0
LINE
  5
1959
  8
0
 62
     0
 10
-36.678541790385538
 20
23.415057412727791
 30
0.0
 11
-37.325757699950387
 21
23.78872769233887
 31
0.0
  0
LINE
  5
195A
  8
0
 62
     0
 10
-34.616318797623848
 20
22.224432412727779
 30
0.0
 11
-35.303726461877751
 21
22.621307412727791
 31
0.0
  0
LINE
  5
195B
  8
0
 62
     0
 10
-37.365949290385537
 20
22.224432697223889
 30
0.0
 11
-38.05335695463944
 21
22.621307697223891
 31
0.0
  0
LINE
  5
195C
  8
0
 62
     0
 10
-35.303726297623847
 20
21.033807697223882
 30
0.0
 11
-35.99113396187775
 21
21.43068269722388
 31
0.0
  0
LINE
  5
195D
  8
0
 62
     0
 10
-33.241503304862157
 20
19.843182697223881
 30
0.0
 11
-33.928910969116053
 21
20.240057697223879
 31
0.0
  0
LINE
  5
195E
  8
0
 62
     0
 10
-40.115579783147219
 20
22.224432981719989
 30
0.0
 11
-40.194454181638392
 21
22.26997113692104
 31
0.0
  0
LINE
  5
195F
  8
0
 62
     0
 10
-38.053356790385543
 20
21.033807981719988
 30
0.0
 11
-38.740764454639432
 21
21.43068298171999
 31
0.0
  0
LINE
  5
1960
  8
0
 62
     0
 10
-35.991133797623853
 20
19.843182981719981
 30
0.0
 11
-36.678541461877742
 21
20.240057981719978
 31
0.0
  0
LINE
  5
1961
  8
0
 62
     0
 10
-33.928910804862163
 20
18.65255798171998
 30
0.0
 11
-34.616318469116052
 21
19.049432981719981
 31
0.0
  0
LINE
  5
1962
  8
0
 62
     0
 10
-40.802987283147218
 20
21.033808266216091
 30
0.0
 11
-40.85496868620988
 21
21.063819743267171
 31
0.0
  0
LINE
  5
1963
  8
0
 62
     0
 10
-38.740764290385542
 20
19.843183266216091
 30
0.0
 11
-39.428171954639431
 21
20.240058266216089
 31
0.0
  0
LINE
  5
1964
  8
0
 62
     0
 10
-36.678541297623852
 20
18.652558266216079
 30
0.0
 11
-37.365948961877741
 21
19.049433266216081
 31
0.0
  0
LINE
  5
1965
  8
0
 62
     0
 10
-34.616318304862148
 20
17.461933266216079
 30
0.0
 11
-35.303725969116051
 21
17.85880826621608
 31
0.0
  0
LINE
  5
1966
  8
0
 62
     0
 10
-39.428171790385541
 20
18.652558550712179
 30
0.0
 11
-40.115579454639438
 21
19.04943355071218
 31
0.0
  0
LINE
  5
1967
  8
0
 62
     0
 10
-37.365948797623851
 20
17.461933550712178
 30
0.0
 11
-38.053356461877748
 21
17.85880855071218
 31
0.0
  0
LINE
  5
1968
  8
0
 62
     0
 10
-35.303725804862161
 20
16.27130855071217
 30
0.0
 11
-35.991133469116058
 21
16.668183550712168
 31
0.0
  0
LINE
  5
1969
  8
0
 62
     0
 10
-40.115579290385533
 20
17.46193383520826
 30
0.0
 11
-40.511585560624489
 21
17.690568161931509
 31
0.0
  0
LINE
  5
196A
  8
0
 62
     0
 10
-38.053356297623843
 20
16.271308835208259
 30
0.0
 11
-38.74076396187774
 21
16.668183835208261
 31
0.0
  0
LINE
  5
196B
  8
0
 62
     0
 10
-40.115575348292012
 20
21.430668472419001
 30
0.0
 11
-40.802983012545909
 21
21.033793472418999
 31
0.0
  0
LINE
  5
196C
  8
0
 62
     0
 10
-38.053352355530322
 20
22.621293472419001
 30
0.0
 11
-38.740760019784219
 21
22.224418472419
 31
0.0
  0
LINE
  5
196D
  8
0
 62
     0
 10
-36.169568917905721
 20
23.708896347226521
 30
0.0
 11
-36.678537027022529
 21
23.415043472419001
 31
0.0
  0
LINE
  5
196E
  8
0
 62
     0
 10
-39.428167848292013
 20
20.240043756915099
 30
0.0
 11
-40.115575512545909
 21
19.843168756915102
 31
0.0
  0
LINE
  5
196F
  8
0
 62
     0
 10
-37.36594485553033
 20
21.43066875691509
 30
0.0
 11
-38.05335251978422
 21
21.033793756915099
 31
0.0
  0
LINE
  5
1970
  8
0
 62
     0
 10
-35.303721862768633
 20
22.62129375691509
 30
0.0
 11
-35.99112952702253
 21
22.224418756915089
 31
0.0
  0
LINE
  5
1971
  8
0
 62
     0
 10
-38.740760348292007
 20
19.049419041411191
 30
0.0
 11
-39.42816801254591
 21
18.6525440414112
 31
0.0
  0
LINE
  5
1972
  8
0
 62
     0
 10
-36.678537355530331
 20
20.240044041411188
 30
0.0
 11
-37.36594501978422
 21
19.843169041411191
 31
0.0
  0
LINE
  5
1973
  8
0
 62
     0
 10
-34.616314362768641
 20
21.430669041411189
 30
0.0
 11
-35.30372202702253
 21
21.033794041411191
 31
0.0
  0
LINE
  5
1974
  8
0
 62
     0
 10
-38.053352848292008
 20
17.85879432590729
 30
0.0
 11
-38.740760512545897
 21
17.461919325907289
 31
0.0
  0
LINE
  5
1975
  8
0
 62
     0
 10
-35.991129855530318
 20
19.049419325907291
 30
0.0
 11
-36.678537519784221
 21
18.652544325907289
 31
0.0
  0
LINE
  5
1976
  8
0
 62
     0
 10
-33.928906862768628
 20
20.240044325907292
 30
0.0
 11
-34.616314527022531
 21
19.84316932590729
 31
0.0
  0
LINE
  5
1977
  8
0
 62
     0
 10
-37.365945348292009
 20
16.668169610403389
 30
0.0
 11
-38.053353012545898
 21
16.271294610403391
 31
0.0
  0
LINE
  5
1978
  8
0
 62
     0
 10
-35.303722355530319
 20
17.858794610403379
 30
0.0
 11
-35.991130019784222
 21
17.461919610403388
 31
0.0
  0
LINE
  5
1979
  8
0
 62
     0
 10
-33.241499362768629
 20
19.04941961040338
 30
0.0
 11
-33.928907027022532
 21
18.652544610403378
 31
0.0
  0
LINE
  5
197A
  8
0
 62
     0
 10
-34.61631485553032
 20
16.668169894899481
 30
0.0
 11
-35.303722519784223
 21
16.271294894899491
 31
0.0
  0
LINE
  5
197B
  8
0
 62
     0
 10
-33.241490000296437
 20
19.049429567766751
 30
0.0
 11
-33.241490000296437
 21
19.84317956776675
 31
0.0
  0
LINE
  5
197C
  8
0
 62
     0
 10
-34.616305000296443
 20
21.430679567766749
 30
0.0
 11
-34.616305000296443
 21
22.224429567766752
 31
0.0
  0
LINE
  5
197D
  8
0
 62
     0
 10
-34.616305000296443
 20
19.049429567766751
 30
0.0
 11
-34.616305000296443
 21
19.84317956776675
 31
0.0
  0
LINE
  5
197E
  8
0
 62
     0
 10
-34.616305000296443
 20
16.668179567766749
 30
0.0
 11
-34.616305000296443
 21
17.461929567766749
 31
0.0
  0
LINE
  5
197F
  8
0
 62
     0
 10
-35.991120000296441
 20
21.430679567766749
 30
0.0
 11
-35.991120000296441
 21
22.224429567766741
 31
0.0
  0
LINE
  5
1980
  8
0
 62
     0
 10
-35.991120000296441
 20
19.049429567766751
 30
0.0
 11
-35.991120000296441
 21
19.84317956776674
 31
0.0
  0
LINE
  5
1981
  8
0
 62
     0
 10
-35.991120000296441
 20
16.668179567766749
 30
0.0
 11
-35.991120000296441
 21
17.461929567766749
 31
0.0
  0
LINE
  5
1982
  8
0
 62
     0
 10
-37.365935000296439
 20
21.430679567766749
 30
0.0
 11
-37.365935000296439
 21
22.224429567766741
 31
0.0
  0
LINE
  5
1983
  8
0
 62
     0
 10
-37.365935000296439
 20
19.049429567766751
 30
0.0
 11
-37.365935000296439
 21
19.84317956776674
 31
0.0
  0
LINE
  5
1984
  8
0
 62
     0
 10
-37.365935000296439
 20
16.668179567766749
 30
0.0
 11
-37.365935000296439
 21
17.461929567766749
 31
0.0
  0
LINE
  5
1985
  8
0
 62
     0
 10
-38.740750000296437
 20
21.430679567766749
 30
0.0
 11
-38.740750000296437
 21
22.224429567766752
 31
0.0
  0
LINE
  5
1986
  8
0
 62
     0
 10
-38.740750000296437
 20
19.049429567766751
 30
0.0
 11
-38.740750000296437
 21
19.84317956776675
 31
0.0
  0
LINE
  5
1987
  8
0
 62
     0
 10
-38.740750000296437
 20
16.668179567766749
 30
0.0
 11
-38.740750000296437
 21
17.461929567766749
 31
0.0
  0
LINE
  5
1988
  8
0
 62
     0
 10
-40.115565000296442
 20
21.430679567766749
 30
0.0
 11
-40.115565000296442
 21
22.224429567766741
 31
0.0
  0
LINE
  5
1989
  8
0
 62
     0
 10
-40.115565000296442
 20
19.049429567766751
 30
0.0
 11
-40.115565000296442
 21
19.84317956776674
 31
0.0
  0
LINE
  5
198A
  8
0
 62
     0
 10
-40.115565000296442
 20
17.133280015899832
 30
0.0
 11
-40.115565000296442
 21
17.461929567766749
 31
0.0
  0
ENDBLK
  5
198C
  8
0
  0
BLOCK
  8
0
  2
*X94
 70
     1
 10
0.0
 20
0.0
 30
0.0
  3
*X94
  1

  0
LINE
  5
198E
  8
0
 62
     0
 10
-41.490406116666101
 20
229.38066392048151
 30
0.0
 11
-41.746751163581862
 21
229.5286648023237
 31
0.0
  0
LINE
  5
198F
  8
0
 62
     0
 10
-39.428183123904418
 20
228.1900389204815
 30
0.0
 11
-40.115590788158308
 21
228.58691392048149
 31
0.0
  0
LINE
  5
1990
  8
0
 62
     0
 10
-37.513531391970602
 20
227.0846142276452
 30
0.0
 11
-38.053367795396632
 21
227.39628892048151
 31
0.0
  0
LINE
  5
1991
  8
0
 62
     0
 10
-42.17781361666615
 20
228.19003920497761
 30
0.0
 11
-42.865221280920053
 21
228.5869142049776
 31
0.0
  0
LINE
  5
1992
  8
0
 62
     0
 10
-40.115590623904453
 20
226.9994142049776
 30
0.0
 11
-40.802998288158349
 21
227.39628920497759
 31
0.0
  0
LINE
  5
1993
  8
0
 62
     0
 10
-38.05336763114277
 20
225.80878920497759
 30
0.0
 11
-38.740775295396674
 21
226.20566420497761
 31
0.0
  0
LINE
  5
1994
  8
0
 62
     0
 10
-42.86522111666612
 20
226.99941448947371
 30
0.0
 11
-43.45139398870004
 21
227.3378415549341
 31
0.0
  0
LINE
  5
1995
  8
0
 62
     0
 10
-40.80299812390443
 20
225.8087894894737
 30
0.0
 11
-41.490405788158327
 21
226.20566448947369
 31
0.0
  0
LINE
  5
1996
  8
0
 62
     0
 10
-38.740775131142748
 20
224.61816448947371
 30
0.0
 11
-39.428182795396651
 21
225.01503948947371
 31
0.0
  0
LINE
  5
1997
  8
0
 62
     0
 10
-41.490405623904429
 20
224.6181647739698
 30
0.0
 11
-42.177813288158333
 21
225.01503977396979
 31
0.0
  0
LINE
  5
1998
  8
0
 62
     0
 10
-41.490379507534669
 20
228.58689912668439
 30
0.0
 11
-42.177787171788573
 21
228.19002412668439
 31
0.0
  0
LINE
  5
1999
  8
0
 62
     0
 10
-39.618566962288398
 20
229.6675906035548
 30
0.0
 11
-40.115564179026883
 21
229.3806491266844
 31
0.0
  0
LINE
  5
199A
  8
0
 62
     0
 10
-42.86519500029636
 20
226.2056494111805
 30
0.0
 11
-43.366812724719459
 21
225.91604028295461
 31
0.0
  0
LINE
  5
199B
  8
0
 62
     0
 10
-40.80297200753467
 20
227.39627441118051
 30
0.0
 11
-41.490379671788567
 21
226.99939941118049
 31
0.0
  0
LINE
  5
199C
  8
0
 62
     0
 10
-38.740749014772987
 20
228.5868994111805
 30
0.0
 11
-39.428156679026891
 21
228.1900244111805
 31
0.0
  0
LINE
  5
199D
  8
0
 62
     0
 10
-42.177787500296347
 20
225.0150246956766
 30
0.0
 11
-42.671441105889087
 21
224.73001365360119
 31
0.0
  0
LINE
  5
199E
  8
0
 62
     0
 10
-40.115564507534657
 20
226.20564969567661
 30
0.0
 11
-40.802972171788561
 21
225.8087746956765
 31
0.0
  0
LINE
  5
199F
  8
0
 62
     0
 10
-38.053341514772981
 20
227.39627469567651
 30
0.0
 11
-38.740749179026871
 21
226.99939969567649
 31
0.0
  0
LINE
  5
19A0
  8
0
 62
     0
 10
-39.428157007534679
 20
225.01502498017271
 30
0.0
 11
-40.115564671788569
 21
224.61814998017269
 31
0.0
  0
LINE
  5
19A1
  8
0
 62
     0
 10
-37.588368156291978
 20
226.07722756868969
 30
0.0
 11
-38.053341679026893
 21
225.8087749801727
 31
0.0
  0
LINE
  5
19A2
  8
0
 62
     0
 10
-38.74075000029643
 20
228.5869295677667
 30
0.0
 11
-38.74075000029643
 21
229.2300287029048
 31
0.0
  0
LINE
  5
19A3
  8
0
 62
     0
 10
-38.74075000029643
 20
226.20567956776679
 30
0.0
 11
-38.74075000029643
 21
226.9994295677667
 31
0.0
  0
LINE
  5
19A4
  8
0
 62
     0
 10
-38.74075000029643
 20
224.369971321522
 30
0.0
 11
-38.74075000029643
 21
224.6181795677667
 31
0.0
  0
LINE
  5
19A5
  8
0
 62
     0
 10
-40.115565000296428
 20
228.5869295677667
 30
0.0
 11
-40.115565000296428
 21
229.38067956776669
 31
0.0
  0
LINE
  5
19A6
  8
0
 62
     0
 10
-40.115565000296428
 20
226.20567956776679
 30
0.0
 11
-40.115565000296428
 21
226.9994295677667
 31
0.0
  0
LINE
  5
19A7
  8
0
 62
     0
 10
-40.115565000296428
 20
223.82473368282481
 30
0.0
 11
-40.115565000296428
 21
224.6181795677667
 31
0.0
  0
LINE
  5
19A8
  8
0
 62
     0
 10
-41.490380000296419
 20
228.5869295677667
 30
0.0
 11
-41.490380000296419
 21
229.38067956776669
 31
0.0
  0
LINE
  5
19A9
  8
0
 62
     0
 10
-41.490380000296419
 20
226.20567956776679
 30
0.0
 11
-41.490380000296419
 21
226.9994295677667
 31
0.0
  0
LINE
  5
19AA
  8
0
 62
     0
 10
-41.490380000296419
 20
223.96819008646739
 30
0.0
 11
-41.490380000296419
 21
224.6181795677667
 31
0.0
  0
LINE
  5
19AB
  8
0
 62
     0
 10
-42.865195000296431
 20
228.5869295677667
 30
0.0
 11
-42.865195000296431
 21
228.6454952335196
 31
0.0
  0
LINE
  5
19AC
  8
0
 62
     0
 10
-42.865195000296431
 20
226.20567956776679
 30
0.0
 11
-42.865195000296431
 21
226.9994295677667
 31
0.0
  0
ENDBLK
  5
19AE
  8
0
  0
BLOCK
  8
0
  2
*X95
 70
     1
 10
0.0
 20
0.0
 30
0.0
  3
*X95
  1

  0
LINE
  5
19B0
  8
0
 62
     0
 10
-44.623526197143541
 20
230.7992621403765
 30
0.0
 11
-45.335538205375997
 21
230.08725013214411
 31
0.0
  0
LINE
  5
19B1
  8
0
 62
     0
 10
-44.062260189576762
 20
230.2379961328096
 30
0.0
 11
-45.74641343947625
 21
228.55384288291009
 31
0.0
  0
LINE
  5
19B2
  8
0
 62
     0
 10
-43.500994182009933
 20
229.67673012524281
 30
0.0
 11
-46.157288673576502
 21
227.0204356336763
 31
0.0
  0
LINE
  5
19B3
  8
0
 62
     0
 10
-42.710475154255697
 20
229.3447171378634
 30
0.0
 11
-46.56816390767672
 21
225.4870283844424
 31
0.0
  0
LINE
  5
19B4
  8
0
 62
     0
 10
-43.412206426033812
 20
227.52045385095161
 30
0.0
 11
-46.97903914177698
 21
223.95362113520849
 31
0.0
  0
LINE
  5
19B5
  8
0
 62
     0
 10
-41.132660264772412
 20
229.8000000122131
 30
0.0
 11
-41.220453839010879
 21
229.7122064379746
 31
0.0
  0
LINE
  5
19B6
  8
0
 62
     0
 10
-43.465272896694579
 20
226.34485536515729
 30
0.0
 11
-46.01012824963901
 21
223.80000001221279
 31
0.0
  0
LINE
  5
19B7
  8
0
 62
     0
 10
-43.198453741850408
 20
225.4891425048678
 30
0.0
 11
-44.887596234505381
 21
223.80000001221279
 31
0.0
  0
LINE
  5
19B8
  8
0
 62
     0
 10
-42.74970835188077
 20
224.81535587970379
 30
0.0
 11
-43.765064219371709
 21
223.80000001221279
 31
0.0
  0
LINE
  5
19B9
  8
0
 62
     0
 10
-42.148809662494273
 20
224.2937225539566
 30
0.0
 11
-42.642532204238073
 21
223.80000001221279
 31
0.0
  0
LINE
  5
19BA
  8
0
 62
     0
 10
-41.386139798160279
 20
223.93386040315701
 30
0.0
 11
-41.520000189104429
 21
223.80000001221279
 31
0.0
  0
LINE
  5
19BB
  8
0
 62
     0
 10
-41.315842052329067
 20
229.68693640674891
 30
0.0
 11
-41.428905657793251
 21
229.80000001221299
 31
0.0
  0
LINE
  5
19BC
  8
0
 62
     0
 10
-42.093340024773362
 20
229.34190236405951
 30
0.0
 11
-42.380744089767219
 21
229.6293064290534
 31
0.0
  0
LINE
  5
19BD
  8
0
 62
     0
 10
-42.706521028555017
 20
228.8325513527075
 30
0.0
 11
-45.045110555024863
 21
231.17114087917739
 31
0.0
  0
LINE
  5
19BE
  8
0
 62
     0
 10
-43.168095111467132
 20
228.171593420486
 30
0.0
 11
-45.282329482035969
 21
230.2858277910548
 31
0.0
  0
LINE
  5
19BF
  8
0
 62
     0
 10
-43.452235702868222
 20
227.3332019967535
 30
0.0
 11
-45.519548409047118
 21
229.40051470293241
 31
0.0
  0
LINE
  5
19C0
  8
0
 62
     0
 10
-43.438827403421492
 20
226.19726168217309
 30
0.0
 11
-45.756767336058218
 21
228.5152016148098
 31
0.0
  0
LINE
  5
19C1
  8
0
 62
     0
 10
-41.041565733461233
 20
223.80000001221279
 30
0.0
 11
-41.102738330312008
 21
223.8611726090636
 31
0.0
  0
LINE
  5
19C2
  8
0
 62
     0
 10
-42.16409774859487
 20
223.80000001221279
 30
0.0
 11
-45.993986263069367
 21
227.6298885266873
 31
0.0
  0
LINE
  5
19C3
  8
0
 62
     0
 10
-43.28662976372852
 20
223.80000001221279
 30
0.0
 11
-46.23120519008048
 21
226.74457543856479
 31
0.0
  0
LINE
  5
19C4
  8
0
 62
     0
 10
-44.409161778862149
 20
223.80000001221279
 30
0.0
 11
-46.468424117091629
 21
225.85926235044229
 31
0.0
  0
LINE
  5
19C5
  8
0
 62
     0
 10
-45.531693793995792
 20
223.80000001221279
 30
0.0
 11
-46.705643044102743
 21
224.97394926231979
 31
0.0
  0
LINE
  5
19C6
  8
0
 62
     0
 10
-46.654225809129429
 20
223.80000001221279
 30
0.0
 11
-46.942861971113878
 21
224.08863617419721
 31
0.0
  0
ENDBLK
  5
19C8
  8
0
  0
BLOCK
  8
0
  2
*X96
 70
     1
 10
0.0
 20
0.0
 30
0.0
  3
*X96
  1

  0
LINE
  5
19CA
  8
0
 62
     0
 10
-47.227310917878313
 20
23.800000012212859
 30
0.0
 11
-47.487545483239252
 21
23.539765446851909
 31
0.0
  0
LINE
  5
19CB
  8
0
 62
     0
 10
-46.104778902744663
 20
23.80000001221287
 30
0.0
 11
-47.250326556228131
 21
22.654452358729401
 31
0.0
  0
LINE
  5
19CC
  8
0
 62
     0
 10
-44.982246887611012
 20
23.800000012212859
 30
0.0
 11
-47.013107629216989
 21
21.769139270606878
 31
0.0
  0
LINE
  5
19CD
  8
0
 62
     0
 10
-43.859714872477362
 20
23.800000012212859
 30
0.0
 11
-46.775888702205869
 21
20.88382618248437
 31
0.0
  0
LINE
  5
19CE
  8
0
 62
     0
 10
-42.73718285734374
 20
23.800000012212859
 30
0.0
 11
-46.538669775194727
 21
19.998513094361861
 31
0.0
  0
LINE
  5
19CF
  8
0
 62
     0
 10
-41.614650842210082
 20
23.80000001221287
 30
0.0
 11
-46.301450848183599
 21
19.113200006239349
 31
0.0
  0
LINE
  5
19D0
  8
0
 62
     0
 10
-40.492118827076439
 20
23.80000001221287
 30
0.0
 11
-46.064231921172471
 21
18.22788691811683
 31
0.0
  0
LINE
  5
19D1
  8
0
 62
     0
 10
-39.369586811942789
 20
23.80000001221287
 30
0.0
 11
-45.827012994161343
 21
17.342573829994311
 31
0.0
  0
LINE
  5
19D2
  8
0
 62
     0
 10
-40.778517875354503
 20
21.268536933667509
 30
0.0
 11
-45.589794067150208
 21
16.457260741871799
 31
0.0
  0
LINE
  5
19D3
  8
0
 62
     0
 10
-38.247054796809152
 20
23.800000012212859
 30
0.0
 11
-38.542611043797947
 21
23.504443765224071
 31
0.0
  0
LINE
  5
19D4
  8
0
 62
     0
 10
-41.07278908809198
 20
19.851733705796391
 30
0.0
 11
-45.352575140139088
 21
15.57194765374928
 31
0.0
  0
LINE
  5
19D5
  8
0
 62
     0
 10
-37.124522781675509
 20
23.800000012212859
 30
0.0
 11
-37.125807815926827
 21
23.798714977961549
 31
0.0
  0
LINE
  5
19D6
  8
0
 62
     0
 10
-40.968972937145132
 20
18.8330178416096
 30
0.0
 11
-45.11535621312796
 21
14.68663456562677
 31
0.0
  0
LINE
  5
19D7
  8
0
 62
     0
 10
-40.677551323703319
 20
18.001907439917758
 30
0.0
 11
-42.980029195665452
 21
15.699429567955629
 31
0.0
  0
LINE
  5
19D8
  8
0
 62
     0
 10
-40.252570620240327
 20
17.304356128247111
 30
0.0
 11
-41.857497180531823
 21
15.699429567955621
 31
0.0
  0
LINE
  5
19D9
  8
0
 62
     0
 10
-39.713195154093427
 20
16.721199579260372
 30
0.0
 11
-40.734965165398179
 21
15.69942956795561
 31
0.0
  0
LINE
  5
19DA
  8
0
 62
     0
 10
-39.06213915782439
 20
16.249723560395768
 30
0.0
 11
-39.612433150264557
 21
15.699429567955599
 31
0.0
  0
LINE
  5
19DB
  8
0
 62
     0
 10
-38.287659699549287
 20
15.901671003537221
 30
0.0
 11
-38.489901135130928
 21
15.69942956795558
 31
0.0
  0
LINE
  5
19DC
  8
0
 62
     0
 10
-37.353894595731617
 20
15.71290409222124
 30
0.0
 11
-37.367369119997299
 21
15.699429567955571
 31
0.0
  0
LINE
  5
19DD
  8
0
 62
     0
 10
-37.545569109980804
 20
23.76625008723898
 30
0.0
 11
-37.579319034954672
 21
23.800000012212848
 31
0.0
  0
LINE
  5
19DE
  8
0
 62
     0
 10
-38.444503904952931
 20
23.542652867077461
 30
0.0
 11
-38.701851050088322
 21
23.800000012212859
 31
0.0
  0
LINE
  5
19DF
  8
0
 62
     0
 10
-39.193934115061651
 20
23.169551062052552
 30
0.0
 11
-39.824383065221973
 21
23.800000012212859
 31
0.0
  0
LINE
  5
19E0
  8
0
 62
     0
 10
-39.823487716163797
 20
22.67657264802104
 30
0.0
 11
-40.946915080355623
 21
23.80000001221287
 31
0.0
  0
LINE
  5
19E1
  8
0
 62
     0
 10
-40.341885525646767
 20
22.072438442370391
 30
0.0
 11
-42.069447095489252
 21
23.800000012212859
 31
0.0
  0
LINE
  5
19E2
  8
0
 62
     0
 10
-40.74376089925326
 20
21.351781800843231
 30
0.0
 11
-43.191979110622903
 21
23.800000012212859
 31
0.0
  0
LINE
  5
19E3
  8
0
 62
     0
 10
-41.005637600962679
 20
20.491126487418999
 30
0.0
 11
-44.314511125756539
 21
23.800000012212859
 31
0.0
  0
LINE
  5
19E4
  8
0
 62
     0
 10
-41.060948630559068
 20
19.423905501881752
 30
0.0
 11
-45.437043140890182
 21
23.800000012212859
 31
0.0
  0
LINE
  5
19E5
  8
0
 62
     0
 10
-37.336472696632889
 20
15.69942956795556
 30
0.0
 11
-37.349598188417112
 21
15.712555059739779
 31
0.0
  0
LINE
  5
19E6
  8
0
 62
     0
 10
-40.590993656336437
 20
17.831418512525481
 30
0.0
 11
-46.559575156023833
 21
23.80000001221287
 31
0.0
  0
LINE
  5
19E7
  8
0
 62
     0
 10
-38.459004711766553
 20
15.699429567955571
 30
0.0
 11
-38.942085177773379
 21
16.182510033962409
 31
0.0
  0
LINE
  5
19E8
  8
0
 62
     0
 10
-39.581536726900197
 20
15.69942956795559
 30
0.0
 11
-47.5115834247229
 21
23.62947626577829
 31
0.0
  0
LINE
  5
19E9
  8
0
 62
     0
 10
-40.704068742033861
 20
15.699429567955599
 30
0.0
 11
-47.100708190622647
 21
22.096069016544401
 31
0.0
  0
LINE
  5
19EA
  8
0
 62
     0
 10
-41.826600757167519
 20
15.69942956795561
 30
0.0
 11
-46.689832956522409
 21
20.562661767310509
 31
0.0
  0
LINE
  5
19EB
  8
0
 62
     0
 10
-42.949132772301184
 20
15.699429567955629
 30
0.0
 11
-46.278957722422149
 21
19.029254518076609
 31
0.0
  0
LINE
  5
19EC
  8
0
 62
     0
 10
-43.898475474363323
 20
15.526240254884129
 30
0.0
 11
-45.868082488321903
 21
17.49584726884272
 31
0.0
  0
LINE
  5
19ED
  8
0
 62
     0
 10
-44.45974148193018
 20
14.96497424731734
 30
0.0
 11
-45.457207254221657
 21
15.96244001960882
 31
0.0
  0
LINE
  5
19EE
  8
0
 62
     0
 10
-44.991543602838412
 20
14.37424435309193
 30
0.0
 11
-45.046332020121412
 21
14.429032770374929
 31
0.0
  0
ENDBLK
  5
19F0
  8
0
  0
BLOCK
  8
0
  2
*X97
 70
     1
 10
0.0
 20
0.0
 30
0.0
  3
*X97
  1

  0
LINE
  5
19F2
  8
0
 62
     0
 10
-36.678541790385538
 20
23.415057412727791
 30
0.0
 11
-37.325757699950387
 21
23.78872769233887
 31
0.0
  0
LINE
  5
19F3
  8
0
 62
     0
 10
-34.616318797623848
 20
22.224432412727779
 30
0.0
 11
-35.303726461877751
 21
22.621307412727791
 31
0.0
  0
LINE
  5
19F4
  8
0
 62
     0
 10
-37.365949290385537
 20
22.224432697223889
 30
0.0
 11
-38.05335695463944
 21
22.621307697223891
 31
0.0
  0
LINE
  5
19F5
  8
0
 62
     0
 10
-35.303726297623847
 20
21.033807697223882
 30
0.0
 11
-35.99113396187775
 21
21.43068269722388
 31
0.0
  0
LINE
  5
19F6
  8
0
 62
     0
 10
-33.241503304862157
 20
19.843182697223881
 30
0.0
 11
-33.928910969116053
 21
20.240057697223879
 31
0.0
  0
LINE
  5
19F7
  8
0
 62
     0
 10
-40.115579783147219
 20
22.224432981719989
 30
0.0
 11
-40.194454181638392
 21
22.26997113692104
 31
0.0
  0
LINE
  5
19F8
  8
0
 62
     0
 10
-38.053356790385543
 20
21.033807981719988
 30
0.0
 11
-38.740764454639432
 21
21.43068298171999
 31
0.0
  0
LINE
  5
19F9
  8
0
 62
     0
 10
-35.991133797623853
 20
19.843182981719981
 30
0.0
 11
-36.678541461877742
 21
20.240057981719978
 31
0.0
  0
LINE
  5
19FA
  8
0
 62
     0
 10
-33.928910804862163
 20
18.65255798171998
 30
0.0
 11
-34.616318469116052
 21
19.049432981719981
 31
0.0
  0
LINE
  5
19FB
  8
0
 62
     0
 10
-40.802987283147218
 20
21.033808266216091
 30
0.0
 11
-40.85496868620988
 21
21.063819743267171
 31
0.0
  0
LINE
  5
19FC
  8
0
 62
     0
 10
-38.740764290385542
 20
19.843183266216091
 30
0.0
 11
-39.428171954639431
 21
20.240058266216089
 31
0.0
  0
LINE
  5
19FD
  8
0
 62
     0
 10
-36.678541297623852
 20
18.652558266216079
 30
0.0
 11
-37.365948961877741
 21
19.049433266216081
 31
0.0
  0
LINE
  5
19FE
  8
0
 62
     0
 10
-34.616318304862148
 20
17.461933266216079
 30
0.0
 11
-35.303725969116051
 21
17.85880826621608
 31
0.0
  0
LINE
  5
19FF
  8
0
 62
     0
 10
-39.428171790385541
 20
18.652558550712179
 30
0.0
 11
-40.115579454639438
 21
19.04943355071218
 31
0.0
  0
LINE
  5
1A00
  8
0
 62
     0
 10
-37.365948797623851
 20
17.461933550712178
 30
0.0
 11
-38.053356461877748
 21
17.85880855071218
 31
0.0
  0
LINE
  5
1A01
  8
0
 62
     0
 10
-35.303725804862161
 20
16.27130855071217
 30
0.0
 11
-35.991133469116058
 21
16.668183550712168
 31
0.0
  0
LINE
  5
1A02
  8
0
 62
     0
 10
-40.115579290385533
 20
17.46193383520826
 30
0.0
 11
-40.511585560624489
 21
17.690568161931509
 31
0.0
  0
LINE
  5
1A03
  8
0
 62
     0
 10
-38.053356297623843
 20
16.271308835208259
 30
0.0
 11
-38.74076396187774
 21
16.668183835208261
 31
0.0
  0
LINE
  5
1A04
  8
0
 62
     0
 10
-40.115575348292012
 20
21.430668472419001
 30
0.0
 11
-40.802983012545909
 21
21.033793472418999
 31
0.0
  0
LINE
  5
1A05
  8
0
 62
     0
 10
-38.053352355530322
 20
22.621293472419001
 30
0.0
 11
-38.740760019784219
 21
22.224418472419
 31
0.0
  0
LINE
  5
1A06
  8
0
 62
     0
 10
-36.169568917905721
 20
23.708896347226521
 30
0.0
 11
-36.678537027022529
 21
23.415043472419001
 31
0.0
  0
LINE
  5
1A07
  8
0
 62
     0
 10
-39.428167848292013
 20
20.240043756915099
 30
0.0
 11
-40.115575512545909
 21
19.843168756915102
 31
0.0
  0
LINE
  5
1A08
  8
0
 62
     0
 10
-37.36594485553033
 20
21.43066875691509
 30
0.0
 11
-38.05335251978422
 21
21.033793756915099
 31
0.0
  0
LINE
  5
1A09
  8
0
 62
     0
 10
-35.303721862768633
 20
22.62129375691509
 30
0.0
 11
-35.99112952702253
 21
22.224418756915089
 31
0.0
  0
LINE
  5
1A0A
  8
0
 62
     0
 10
-38.740760348292007
 20
19.049419041411191
 30
0.0
 11
-39.42816801254591
 21
18.6525440414112
 31
0.0
  0
LINE
  5
1A0B
  8
0
 62
     0
 10
-36.678537355530331
 20
20.240044041411188
 30
0.0
 11
-37.36594501978422
 21
19.843169041411191
 31
0.0
  0
LINE
  5
1A0C
  8
0
 62
     0
 10
-34.616314362768641
 20
21.430669041411189
 30
0.0
 11
-35.30372202702253
 21
21.033794041411191
 31
0.0
  0
LINE
  5
1A0D
  8
0
 62
     0
 10
-38.053352848292008
 20
17.85879432590729
 30
0.0
 11
-38.740760512545897
 21
17.461919325907289
 31
0.0
  0
LINE
  5
1A0E
  8
0
 62
     0
 10
-35.991129855530318
 20
19.049419325907291
 30
0.0
 11
-36.678537519784221
 21
18.652544325907289
 31
0.0
  0
LINE
  5
1A0F
  8
0
 62
     0
 10
-33.928906862768628
 20
20.240044325907292
 30
0.0
 11
-34.616314527022531
 21
19.84316932590729
 31
0.0
  0
LINE
  5
1A10
  8
0
 62
     0
 10
-37.365945348292009
 20
16.668169610403389
 30
0.0
 11
-38.053353012545898
 21
16.271294610403391
 31
0.0
  0
LINE
  5
1A11
  8
0
 62
     0
 10
-35.303722355530319
 20
17.858794610403379
 30
0.0
 11
-35.991130019784222
 21
17.461919610403388
 31
0.0
  0
LINE
  5
1A12
  8
0
 62
     0
 10
-33.241499362768629
 20
19.04941961040338
 30
0.0
 11
-33.928907027022532
 21
18.652544610403378
 31
0.0
  0
LINE
  5
1A13
  8
0
 62
     0
 10
-34.61631485553032
 20
16.668169894899481
 30
0.0
 11
-35.303722519784223
 21
16.271294894899491
 31
0.0
  0
LINE
  5
1A14
  8
0
 62
     0
 10
-33.241490000296437
 20
19.049429567766751
 30
0.0
 11
-33.241490000296437
 21
19.84317956776675
 31
0.0
  0
LINE
  5
1A15
  8
0
 62
     0
 10
-34.616305000296443
 20
21.430679567766749
 30
0.0
 11
-34.616305000296443
 21
22.224429567766752
 31
0.0
  0
LINE
  5
1A16
  8
0
 62
     0
 10
-34.616305000296443
 20
19.049429567766751
 30
0.0
 11
-34.616305000296443
 21
19.84317956776675
 31
0.0
  0
LINE
  5
1A17
  8
0
 62
     0
 10
-34.616305000296443
 20
16.668179567766749
 30
0.0
 11
-34.616305000296443
 21
17.461929567766749
 31
0.0
  0
LINE
  5
1A18
  8
0
 62
     0
 10
-35.991120000296441
 20
21.430679567766749
 30
0.0
 11
-35.991120000296441
 21
22.224429567766741
 31
0.0
  0
LINE
  5
1A19
  8
0
 62
     0
 10
-35.991120000296441
 20
19.049429567766751
 30
0.0
 11
-35.991120000296441
 21
19.84317956776674
 31
0.0
  0
LINE
  5
1A1A
  8
0
 62
     0
 10
-35.991120000296441
 20
16.668179567766749
 30
0.0
 11
-35.991120000296441
 21
17.461929567766749
 31
0.0
  0
LINE
  5
1A1B
  8
0
 62
     0
 10
-37.365935000296439
 20
21.430679567766749
 30
0.0
 11
-37.365935000296439
 21
22.224429567766741
 31
0.0
  0
LINE
  5
1A1C
  8
0
 62
     0
 10
-37.365935000296439
 20
19.049429567766751
 30
0.0
 11
-37.365935000296439
 21
19.84317956776674
 31
0.0
  0
LINE
  5
1A1D
  8
0
 62
     0
 10
-37.365935000296439
 20
16.668179567766749
 30
0.0
 11
-37.365935000296439
 21
17.461929567766749
 31
0.0
  0
LINE
  5
1A1E
  8
0
 62
     0
 10
-38.740750000296437
 20
21.430679567766749
 30
0.0
 11
-38.740750000296437
 21
22.224429567766752
 31
0.0
  0
LINE
  5
1A1F
  8
0
 62
     0
 10
-38.740750000296437
 20
19.049429567766751
 30
0.0
 11
-38.740750000296437
 21
19.84317956776675
 31
0.0
  0
LINE
  5
1A20
  8
0
 62
     0
 10
-38.740750000296437
 20
16.668179567766749
 30
0.0
 11
-38.740750000296437
 21
17.461929567766749
 31
0.0
  0
LINE
  5
1A21
  8
0
 62
     0
 10
-40.115565000296442
 20
21.430679567766749
 30
0.0
 11
-40.115565000296442
 21
22.224429567766741
 31
0.0
  0
LINE
  5
1A22
  8
0
 62
     0
 10
-40.115565000296442
 20
19.049429567766751
 30
0.0
 11
-40.115565000296442
 21
19.84317956776674
 31
0.0
  0
LINE
  5
1A23
  8
0
 62
     0
 10
-40.115565000296442
 20
17.133280015899832
 30
0.0
 11
-40.115565000296442
 21
17.461929567766749
 31
0.0
  0
ENDBLK
  5
1A25
  8
0
  0
BLOCK
  8
0
  2
*X98
 70
     1
 10
0.0
 20
0.0
 30
0.0
  3
*X98
  1

  0
LINE
  5
1A27
  8
0
 62
     0
 10
38.726393201879979
 20
36.671249999999993
 30
0.0
 11
42.926393201879911
 21
36.671249999999993
 31
0.0
  0
LINE
  5
1A28
  8
0
 62
     0
 10
39.31214437680881
 20
37.782499999999992
 30
0.0
 11
42.33699455362121
 21
37.782499999999992
 31
0.0
  0
LINE
  5
1A29
  8
0
 62
     0
 10
39.822135727252324
 20
38.893749999999997
 30
0.0
 11
41.823405425944763
 21
38.893749999999997
 31
0.0
  0
LINE
  5
1A2A
  8
0
 62
     0
 10
39.828099443684472
 20
40.004999999999988
 30
0.0
 11
43.910627049171993
 21
40.004999999999988
 31
0.0
  0
LINE
  5
1A2B
  8
0
 62
     0
 10
41.116152531214738
 20
41.116249999999987
 30
0.0
 11
44.721132920877821
 21
41.116249999999987
 31
0.0
  0
LINE
  5
1A2C
  8
0
 62
     0
 10
42.921132920877859
 20
42.227499999999992
 30
0.0
 11
44.721132920877807
 21
42.227499999999992
 31
0.0
  0
LINE
  5
1A2D
  8
0
 62
     0
 10
42.921132920877859
 20
43.33874999999999
 30
0.0
 11
44.721132920877807
 21
43.33874999999999
 31
0.0
  0
LINE
  5
1A2E
  8
0
 62
     0
 10
42.921132920877852
 20
44.449999999999989
 30
0.0
 11
44.721132920877807
 21
44.449999999999989
 31
0.0
  0
LINE
  5
1A2F
  8
0
 62
     0
 10
42.921132920877838
 20
45.561249999999987
 30
0.0
 11
44.7211329208778
 21
45.561249999999987
 31
0.0
  0
LINE
  5
1A30
  8
0
 62
     0
 10
42.921132920877831
 20
46.672499999999992
 30
0.0
 11
44.7211329208778
 21
46.672499999999992
 31
0.0
  0
LINE
  5
1A31
  8
0
 62
     0
 10
42.921132920877817
 20
47.783749999999991
 30
0.0
 11
44.721132920877793
 21
47.783749999999991
 31
0.0
  0
LINE
  5
1A32
  8
0
 62
     0
 10
42.921132920877817
 20
48.894999999999989
 30
0.0
 11
44.721132920877793
 21
48.894999999999989
 31
0.0
  0
LINE
  5
1A33
  8
0
 62
     0
 10
42.921132920877817
 20
50.006249999999987
 30
0.0
 11
44.721132920877793
 21
50.006249999999987
 31
0.0
  0
LINE
  5
1A34
  8
0
 62
     0
 10
42.92113292087781
 20
51.117499999999993
 30
0.0
 11
44.721132920877793
 21
51.117499999999993
 31
0.0
  0
LINE
  5
1A35
  8
0
 62
     0
 10
42.92113292087781
 20
52.228749999999991
 30
0.0
 11
44.721132920877793
 21
52.228749999999991
 31
0.0
  0
LINE
  5
1A36
  8
0
 62
     0
 10
42.92113292087781
 20
53.339999999999989
 30
0.0
 11
44.721132920877778
 21
53.339999999999989
 31
0.0
  0
LINE
  5
1A37
  8
0
 62
     0
 10
42.92113292087781
 20
54.451249999999987
 30
0.0
 11
44.721132920877771
 21
54.451249999999987
 31
0.0
  0
LINE
  5
1A38
  8
0
 62
     0
 10
42.92113292087781
 20
55.562499999999993
 30
0.0
 11
44.721132920877757
 21
55.562499999999993
 31
0.0
  0
LINE
  5
1A39
  8
0
 62
     0
 10
42.92113292087781
 20
56.673749999999991
 30
0.0
 11
44.721132920877757
 21
56.673749999999991
 31
0.0
  0
LINE
  5
1A3A
  8
0
 62
     0
 10
42.92113292087781
 20
57.784999999999989
 30
0.0
 11
44.72113292087775
 21
57.784999999999989
 31
0.0
  0
LINE
  5
1A3B
  8
0
 62
     0
 10
42.92113292087781
 20
58.896249999999988
 30
0.0
 11
44.72113292087775
 21
58.896249999999988
 31
0.0
  0
LINE
  5
1A3C
  8
0
 62
     0
 10
42.916486329043842
 20
60.0075
 30
0.0
 11
44.721132920877743
 21
60.0075
 31
0.0
  0
LINE
  5
1A3D
  8
0
 62
     0
 10
40.470801947220899
 20
61.118749999999991
 30
0.0
 11
44.721132920877729
 21
61.118749999999991
 31
0.0
  0
LINE
  5
1A3E
  8
0
 62
     0
 10
39.826393201879661
 20
62.229999999999983
 30
0.0
 11
43.26496992153352
 21
62.229999999999983
 31
0.0
  0
LINE
  5
1A3F
  8
0
 62
     0
 10
39.778394922791144
 20
63.341249999999988
 30
0.0
 11
41.808164697150779
 21
63.341249999999988
 31
0.0
  0
LINE
  5
1A40
  8
0
 62
     0
 10
39.176467077404403
 20
64.452499999999986
 30
0.0
 11
42.476375798105387
 21
64.452499999999986
 31
0.0
  0
LINE
  5
1A41
  8
0
 62
     0
 10
38.72639320187993
 20
65.563749999999985
 30
0.0
 11
42.926393201879961
 21
65.563749999999985
 31
0.0
  0
ENDBLK
  5
1A43
  8
0
  0
BLOCK
  8
0
  2
*X99
 70
     1
 10
0.0
 20
0.0
 30
0.0
  3
*X99
  1

  0
LINE
  5
1A45
  8
0
 62
     0
 10
2.272923983891205
 20
37.111249861183097
 30
0.0
 11
6.0754020708008776
 21
37.111249861183097
 31
0.0
  0
LINE
  5
1A46
  8
0
 62
     0
 10
3.3060001946548461
 20
38.222499861183103
 30
0.0
 11
5.4338215841639244
 21
38.222499861183103
 31
0.0
  0
LINE
  5
1A47
  8
0
 62
     0
 10
2.93361754930346
 20
39.333749861183108
 30
0.0
 11
5.1736067973903204
 21
39.333749861183108
 31
0.0
  0
LINE
  5
1A48
  8
0
 62
     0
 10
0.3023666956088836
 20
40.444999861183099
 30
0.0
 11
5.0405589343491153
 21
40.444999861183099
 31
0.0
  0
LINE
  5
1A49
  8
0
 62
     0
 10
0.2788670783923974
 20
41.556249861183097
 30
0.0
 11
2.674957784891653
 21
41.556249861183097
 31
0.0
  0
LINE
  5
1A4A
  8
0
 62
     0
 10
0.2788670783924005
 20
42.667499861183103
 30
0.0
 11
2.0788670783923529
 21
42.667499861183103
 31
0.0
  0
LINE
  5
1A4B
  8
0
 62
     0
 10
0.2788670783924035
 20
43.778749861183087
 30
0.0
 11
2.07886707839236
 21
43.778749861183087
 31
0.0
  0
LINE
  5
1A4C
  8
0
 62
     0
 10
0.2788670783924065
 20
44.889999861183107
 30
0.0
 11
2.0788670783923671
 21
44.889999861183107
 31
0.0
  0
LINE
  5
1A4D
  8
0
 62
     0
 10
0.2788670783924095
 20
46.001249861183098
 30
0.0
 11
2.0788670783923742
 21
46.001249861183098
 31
0.0
  0
LINE
  5
1A4E
  8
0
 62
     0
 10
0.2788670783924126
 20
47.112499861183103
 30
0.0
 11
2.0788670783923808
 21
47.112499861183103
 31
0.0
  0
LINE
  5
1A4F
  8
0
 62
     0
 10
0.2788670783924156
 20
48.223749861183109
 30
0.0
 11
2.0788670783923879
 21
48.223749861183109
 31
0.0
  0
LINE
  5
1A50
  8
0
 62
     0
 10
0.2788670783924187
 20
49.3349998611831
 30
0.0
 11
2.078867078392395
 21
49.3349998611831
 31
0.0
  0
LINE
  5
1A51
  8
0
 62
     0
 10
0.2788670783924217
 20
50.446249861183112
 30
0.0
 11
2.0788670783924021
 21
50.446249861183112
 31
0.0
  0
LINE
  5
1A52
  8
0
 62
     0
 10
0.2788670783924263
 20
51.557499861183103
 30
0.0
 11
2.0788670783924039
 21
51.557499861183103
 31
0.0
  0
LINE
  5
1A53
  8
0
 62
     0
 10
0.2788670783924325
 20
52.668749861183102
 30
0.0
 11
2.0788670783924039
 21
52.668749861183102
 31
0.0
  0
LINE
  5
1A54
  8
0
 62
     0
 10
0.2788670783924386
 20
53.7799998611831
 30
0.0
 11
2.0788670783924039
 21
53.7799998611831
 31
0.0
  0
LINE
  5
1A55
  8
0
 62
     0
 10
0.2788670783924447
 20
54.891249861183098
 30
0.0
 11
2.0788670783924048
 21
54.891249861183098
 31
0.0
  0
LINE
  5
1A56
  8
0
 62
     0
 10
0.2788670783924509
 20
56.002499861183097
 30
0.0
 11
2.0788670783924048
 21
56.002499861183097
 31
0.0
  0
LINE
  5
1A57
  8
0
 62
     0
 10
0.278867078392457
 20
57.113749861183102
 30
0.0
 11
2.0788670783924048
 21
57.113749861183102
 31
0.0
  0
LINE
  5
1A58
  8
0
 62
     0
 10
0.2788670783924632
 20
58.224999861183107
 30
0.0
 11
2.0788670783924048
 21
58.224999861183107
 31
0.0
  0
LINE
  5
1A59
  8
0
 62
     0
 10
0.2788670783924694
 20
59.336249861183099
 30
0.0
 11
2.0788670783924061
 21
59.336249861183099
 31
0.0
  0
LINE
  5
1A5A
  8
0
 62
     0
 10
0.2788670783924755
 20
60.447499861183097
 30
0.0
 11
2.685259996488627
 21
60.447499861183097
 31
0.0
  0
LINE
  5
1A5B
  8
0
 62
     0
 10
0.3037331879698218
 20
61.558749861183102
 30
0.0
 11
5.0427037899191012
 21
61.558749861183102
 31
0.0
  0
LINE
  5
1A5C
  8
0
 62
     0
 10
2.943919760900477
 20
62.669999861183101
 30
0.0
 11
5.173606797390458
 21
62.669999861183101
 31
0.0
  0
LINE
  5
1A5D
  8
0
 62
     0
 10
3.3033724182108641
 20
63.781249861183099
 30
0.0
 11
5.435986473526305
 21
63.781249861183099
 31
0.0
  0
LINE
  5
1A5E
  8
0
 62
     0
 10
2.269624162425429
 20
64.892499861183083
 30
0.0
 11
6.0775669601633124
 21
64.892499861183083
 31
0.0
  0
ENDBLK
  5
1A60
  8
0
  0
BLOCK
  8
0
  2
*X100
 70
     1
 10
0.0
 20
0.0
 30
0.0
  3
*X100
  1

  0
LINE
  5
1A62
  8
0
 62
     0
 10
113.7300737266271
 20
36.671249999999993
 30
0.0
 11
117.9300737266271
 21
36.671249999999993
 31
0.0
  0
LINE
  5
1A63
  8
0
 62
     0
 10
114.3158249533808
 20
37.782499999999992
 30
0.0
 11
117.34067502620449
 21
37.782499999999992
 31
0.0
  0
LINE
  5
1A64
  8
0
 62
     0
 10
114.825816259581
 20
38.893749999999997
 30
0.0
 11
116.8270859520721
 21
38.893749999999997
 31
0.0
  0
LINE
  5
1A65
  8
0
 62
     0
 10
114.831779973682
 20
40.004999999999988
 30
0.0
 11
118.9143078205415
 21
40.004999999999988
 31
0.0
  0
LINE
  5
1A66
  8
0
 62
     0
 10
116.1198333025843
 20
41.116249999999987
 30
0.0
 11
119.724813445625
 21
41.116249999999987
 31
0.0
  0
LINE
  5
1A67
  8
0
 62
     0
 10
117.92481344562501
 20
42.227499999999992
 30
0.0
 11
119.724813445625
 21
42.227499999999992
 31
0.0
  0
LINE
  5
1A68
  8
0
 62
     0
 10
117.92481344562501
 20
43.33874999999999
 30
0.0
 11
119.7248134456249
 21
43.33874999999999
 31
0.0
  0
LINE
  5
1A69
  8
0
 62
     0
 10
117.92481344562501
 20
44.449999999999989
 30
0.0
 11
119.7248134456249
 21
44.449999999999989
 31
0.0
  0
LINE
  5
1A6A
  8
0
 62
     0
 10
117.92481344562501
 20
45.561249999999987
 30
0.0
 11
119.7248134456249
 21
45.561249999999987
 31
0.0
  0
LINE
  5
1A6B
  8
0
 62
     0
 10
117.92481344562501
 20
46.672499999999992
 30
0.0
 11
119.7248134456249
 21
46.672499999999992
 31
0.0
  0
LINE
  5
1A6C
  8
0
 62
     0
 10
117.92481344562501
 20
47.783749999999991
 30
0.0
 11
119.7248134456249
 21
47.783749999999991
 31
0.0
  0
LINE
  5
1A6D
  8
0
 62
     0
 10
117.92481344562501
 20
48.894999999999989
 30
0.0
 11
119.7248134456249
 21
48.894999999999989
 31
0.0
  0
LINE
  5
1A6E
  8
0
 62
     0
 10
117.92481344562491
 20
50.006249999999987
 30
0.0
 11
119.7248134456249
 21
50.006249999999987
 31
0.0
  0
LINE
  5
1A6F
  8
0
 62
     0
 10
117.92481344562491
 20
51.117499999999993
 30
0.0
 11
119.7248134456249
 21
51.117499999999993
 31
0.0
  0
LINE
  5
1A70
  8
0
 62
     0
 10
117.92481344562491
 20
52.228749999999991
 30
0.0
 11
119.7248134456249
 21
52.228749999999991
 31
0.0
  0
LINE
  5
1A71
  8
0
 62
     0
 10
117.92481344562491
 20
53.339999999999989
 30
0.0
 11
119.7248134456249
 21
53.339999999999989
 31
0.0
  0
LINE
  5
1A72
  8
0
 62
     0
 10
117.92481344562491
 20
54.451249999999987
 30
0.0
 11
119.7248134456249
 21
54.451249999999987
 31
0.0
  0
LINE
  5
1A73
  8
0
 62
     0
 10
117.92481344562491
 20
55.562499999999993
 30
0.0
 11
119.7248134456249
 21
55.562499999999993
 31
0.0
  0
LINE
  5
1A74
  8
0
 62
     0
 10
117.92481344562491
 20
56.673749999999991
 30
0.0
 11
119.7248134456249
 21
56.673749999999991
 31
0.0
  0
LINE
  5
1A75
  8
0
 62
     0
 10
117.92481344562491
 20
57.784999999999989
 30
0.0
 11
119.7248134456249
 21
57.784999999999989
 31
0.0
  0
LINE
  5
1A76
  8
0
 62
     0
 10
117.92481344562491
 20
58.896249999999988
 30
0.0
 11
119.7248134456249
 21
58.896249999999988
 31
0.0
  0
LINE
  5
1A77
  8
0
 62
     0
 10
117.9201668399884
 20
60.0075
 30
0.0
 11
119.7248134456249
 21
60.0075
 31
0.0
  0
LINE
  5
1A78
  8
0
 62
     0
 10
115.4744822360331
 20
61.118749999999991
 30
0.0
 11
119.7248134456249
 21
61.118749999999991
 31
0.0
  0
LINE
  5
1A79
  8
0
 62
     0
 10
114.83007372662679
 20
62.229999999999983
 30
0.0
 11
118.2686501996583
 21
62.229999999999983
 31
0.0
  0
LINE
  5
1A7A
  8
0
 62
     0
 10
114.7820754213578
 20
63.341249999999988
 30
0.0
 11
116.8118451700731
 21
63.341249999999988
 31
0.0
  0
LINE
  5
1A7B
  8
0
 62
     0
 10
114.18014755032669
 20
64.452499999999986
 30
0.0
 11
117.4800563746704
 21
64.452499999999986
 31
0.0
  0
LINE
  5
1A7C
  8
0
 62
     0
 10
113.7300737266271
 20
65.563749999999985
 30
0.0
 11
117.9300737266271
 21
65.563749999999985
 31
0.0
  0
ENDBLK
  5
1A7E
  8
0
  0
BLOCK
  8
0
  2
*X101
 70
     1
 10
0.0
 20
0.0
 30
0.0
  3
*X101
  1

  0
LINE
  5
1A80
  8
0
 62
     0
 10
69.372878624998378
 20
36.431500535928961
 30
0.0
 11
73.572878624998424
 21
36.431500535928961
 31
0.0
  0
LINE
  5
1A81
  8
0
 62
     0
 10
69.821740137589259
 20
37.542750535928953
 30
0.0
 11
73.124016911999419
 21
37.542750535928953
 31
0.0
  0
LINE
  5
1A82
  8
0
 62
     0
 10
70.499622698847105
 20
38.654000535928951
 30
0.0
 11
72.523210264689794
 21
38.654000535928951
 31
0.0
  0
LINE
  5
1A83
  8
0
 62
     0
 10
70.472878625058698
 20
39.765250535928963
 30
0.0
 11
72.472878625600814
 21
39.765250535928963
 31
0.0
  0
LINE
  5
1A84
  8
0
 62
     0
 10
70.472878625058698
 20
40.876500535928947
 30
0.0
 11
72.472878625574893
 21
40.876500535928947
 31
0.0
  0
LINE
  5
1A85
  8
0
 62
     0
 10
70.472878625058698
 20
41.987750535928953
 30
0.0
 11
72.472878625548972
 21
41.987750535928953
 31
0.0
  0
LINE
  5
1A86
  8
0
 62
     0
 10
70.472878625058698
 20
43.099000535928951
 30
0.0
 11
72.472878625523037
 21
43.099000535928951
 31
0.0
  0
LINE
  5
1A87
  8
0
 62
     0
 10
70.472878625058698
 20
44.210250535928942
 30
0.0
 11
72.472878625497117
 21
44.210250535928942
 31
0.0
  0
LINE
  5
1A88
  8
0
 62
     0
 10
70.472878625058698
 20
45.321500535928962
 30
0.0
 11
72.472878625471196
 21
45.321500535928962
 31
0.0
  0
LINE
  5
1A89
  8
0
 62
     0
 10
70.472878625058698
 20
46.432750535928953
 30
0.0
 11
72.472878625445261
 21
46.432750535928953
 31
0.0
  0
LINE
  5
1A8A
  8
0
 62
     0
 10
70.472878625058698
 20
47.544000535928937
 30
0.0
 11
72.472878625419341
 21
47.544000535928937
 31
0.0
  0
LINE
  5
1A8B
  8
0
 62
     0
 10
70.472878625058698
 20
48.65525053592895
 30
0.0
 11
72.472878625393406
 21
48.65525053592895
 31
0.0
  0
LINE
  5
1A8C
  8
0
 62
     0
 10
70.472878625058698
 20
49.766500535928941
 30
0.0
 11
72.472878625367485
 21
49.766500535928941
 31
0.0
  0
LINE
  5
1A8D
  8
0
 62
     0
 10
70.472878625058698
 20
50.877750535928961
 30
0.0
 11
72.472878625341565
 21
50.877750535928961
 31
0.0
  0
LINE
  5
1A8E
  8
0
 62
     0
 10
70.472878625058698
 20
51.989000535928952
 30
0.0
 11
72.47287862531563
 21
51.989000535928952
 31
0.0
  0
LINE
  5
1A8F
  8
0
 62
     0
 10
70.472878625058698
 20
53.10025053592895
 30
0.0
 11
72.472878625289695
 21
53.10025053592895
 31
0.0
  0
LINE
  5
1A90
  8
0
 62
     0
 10
70.472878625058698
 20
54.211500535928948
 30
0.0
 11
72.472878625263789
 21
54.211500535928948
 31
0.0
  0
LINE
  5
1A91
  8
0
 62
     0
 10
70.472878625058698
 20
55.322750535928947
 30
0.0
 11
72.472878625237854
 21
55.322750535928947
 31
0.0
  0
LINE
  5
1A92
  8
0
 62
     0
 10
70.472878625058698
 20
56.434000535928952
 30
0.0
 11
72.472878625211933
 21
56.434000535928952
 31
0.0
  0
LINE
  5
1A93
  8
0
 62
     0
 10
70.472878625058698
 20
57.54525053592895
 30
0.0
 11
72.472878625186013
 21
57.54525053592895
 31
0.0
  0
LINE
  5
1A94
  8
0
 62
     0
 10
70.472878625058698
 20
58.656500535928949
 30
0.0
 11
72.472878625160064
 21
58.656500535928949
 31
0.0
  0
LINE
  5
1A95
  8
0
 62
     0
 10
70.472878625058698
 20
59.767750535928947
 30
0.0
 11
72.472878625134157
 21
59.767750535928947
 31
0.0
  0
LINE
  5
1A96
  8
0
 62
     0
 10
70.472878625058698
 20
60.879000535928952
 30
0.0
 11
72.472878625108237
 21
60.879000535928952
 31
0.0
  0
LINE
  5
1A97
  8
0
 62
     0
 10
70.472878625058698
 20
61.990250535928951
 30
0.0
 11
72.472878625082302
 21
61.990250535928951
 31
0.0
  0
LINE
  5
1A98
  8
0
 62
     0
 10
70.472878625058698
 20
63.101500535928949
 30
0.0
 11
72.477002080101386
 21
63.101500535928949
 31
0.0
  0
LINE
  5
1A99
  8
0
 62
     0
 10
69.961945826394441
 20
64.212750535928947
 30
0.0
 11
72.983811160607914
 21
64.212750535928947
 31
0.0
  0
LINE
  5
1A9A
  8
0
 62
     0
 10
69.372878625004134
 20
65.324000535928946
 30
0.0
 11
73.572878625004194
 21
65.324000535928946
 31
0.0
  0
ENDBLK
  5
1A9C
  8
0
  0
BLOCK
  8
0
  2
*X102
 70
     1
 10
0.0
 20
0.0
 30
0.0
  3
*X102
  1

  0
LINE
  5
1A9E
  8
0
 62
     0
 10
49.400000001493083
 20
36.671249999999993
 30
0.0
 11
53.600000001493122
 21
36.671249999999993
 31
0.0
  0
LINE
  5
1A9F
  8
0
 62
     0
 10
49.986343966610278
 20
37.782499999999992
 30
0.0
 11
53.013656298165991
 21
37.782499999999992
 31
0.0
  0
LINE
  5
1AA0
  8
0
 62
     0
 10
50.495472303859373
 20
38.893749999999997
 30
0.0
 11
52.50000000143848
 21
38.893749999999997
 31
0.0
  0
LINE
  5
1AA1
  8
0
 62
     0
 10
50.500000000901963
 20
40.004999999999988
 30
0.0
 11
52.50000000143848
 21
40.004999999999988
 31
0.0
  0
LINE
  5
1AA2
  8
0
 62
     0
 10
50.500000000927869
 20
41.116249999999987
 30
0.0
 11
52.50000000143848
 21
41.116249999999987
 31
0.0
  0
LINE
  5
1AA3
  8
0
 62
     0
 10
50.500000000953797
 20
42.227499999999992
 30
0.0
 11
52.50000000143848
 21
42.227499999999992
 31
0.0
  0
LINE
  5
1AA4
  8
0
 62
     0
 10
50.500000000979732
 20
43.33874999999999
 30
0.0
 11
52.50000000143848
 21
43.33874999999999
 31
0.0
  0
LINE
  5
1AA5
  8
0
 62
     0
 10
50.500000001005652
 20
44.449999999999989
 30
0.0
 11
52.50000000143848
 21
44.449999999999989
 31
0.0
  0
LINE
  5
1AA6
  8
0
 62
     0
 10
50.50000000103158
 20
45.561249999999987
 30
0.0
 11
52.50000000143848
 21
45.561249999999987
 31
0.0
  0
LINE
  5
1AA7
  8
0
 62
     0
 10
50.500000001057501
 20
46.672499999999992
 30
0.0
 11
52.50000000143848
 21
46.672499999999992
 31
0.0
  0
LINE
  5
1AA8
  8
0
 62
     0
 10
50.500000001083443
 20
47.783749999999991
 30
0.0
 11
52.50000000143848
 21
47.783749999999991
 31
0.0
  0
LINE
  5
1AA9
  8
0
 62
     0
 10
50.500000001109349
 20
48.894999999999989
 30
0.0
 11
52.50000000143848
 21
48.894999999999989
 31
0.0
  0
LINE
  5
1AAA
  8
0
 62
     0
 10
50.500000001135277
 20
50.006249999999987
 30
0.0
 11
52.50000000143848
 21
50.006249999999987
 31
0.0
  0
LINE
  5
1AAB
  8
0
 62
     0
 10
50.500000001161212
 20
51.117499999999993
 30
0.0
 11
52.50000000143848
 21
51.117499999999993
 31
0.0
  0
LINE
  5
1AAC
  8
0
 62
     0
 10
50.500000001187132
 20
52.228749999999991
 30
0.0
 11
52.50000000143848
 21
52.228749999999991
 31
0.0
  0
LINE
  5
1AAD
  8
0
 62
     0
 10
50.50000000121306
 20
53.339999999999989
 30
0.0
 11
52.50000000143848
 21
53.339999999999989
 31
0.0
  0
LINE
  5
1AAE
  8
0
 62
     0
 10
50.50000000123898
 20
54.451249999999987
 30
0.0
 11
52.50000000143848
 21
54.451249999999987
 31
0.0
  0
LINE
  5
1AAF
  8
0
 62
     0
 10
50.500000001264908
 20
55.562499999999993
 30
0.0
 11
52.50000000143848
 21
55.562499999999993
 31
0.0
  0
LINE
  5
1AB0
  8
0
 62
     0
 10
50.500000001290843
 20
56.673749999999991
 30
0.0
 11
52.50000000143848
 21
56.673749999999991
 31
0.0
  0
LINE
  5
1AB1
  8
0
 62
     0
 10
50.500000001316756
 20
57.784999999999989
 30
0.0
 11
52.50000000143848
 21
57.784999999999989
 31
0.0
  0
LINE
  5
1AB2
  8
0
 62
     0
 10
50.500000001342691
 20
58.896249999999988
 30
0.0
 11
52.50000000143848
 21
58.896249999999988
 31
0.0
  0
LINE
  5
1AB3
  8
0
 62
     0
 10
50.500000001368612
 20
60.0075
 30
0.0
 11
52.50000000143848
 21
60.0075
 31
0.0
  0
LINE
  5
1AB4
  8
0
 62
     0
 10
50.50000000139454
 20
61.118749999999991
 30
0.0
 11
52.50000000143848
 21
61.118749999999991
 31
0.0
  0
LINE
  5
1AB5
  8
0
 62
     0
 10
50.500000001420467
 20
62.229999999999983
 30
0.0
 11
52.50000000143848
 21
62.229999999999983
 31
0.0
  0
LINE
  5
1AB6
  8
0
 62
     0
 10
50.451078344499862
 20
63.341249999999988
 30
0.0
 11
52.475997991046803
 21
63.341249999999988
 31
0.0
  0
LINE
  5
1AB7
  8
0
 62
     0
 10
49.851585213776751
 20
64.452499999999986
 30
0.0
 11
53.148414990844692
 21
64.452499999999986
 31
0.0
  0
LINE
  5
1AB8
  8
0
 62
     0
 10
49.400000001498647
 20
65.563749999999985
 30
0.0
 11
53.600000001498799
 21
65.563749999999985
 31
0.0
  0
ENDBLK
  5
1ABA
  8
0
  0
BLOCK
  8
0
  2
*X103
 70
     1
 10
0.0
 20
0.0
 30
0.0
  3
*X103
  1

  0
LINE
  5
1ABC
  8
0
 62
     0
 10
38.726393201879979
 20
36.671249999999993
 30
0.0
 11
42.926393201879911
 21
36.671249999999993
 31
0.0
  0
LINE
  5
1ABD
  8
0
 62
     0
 10
39.31214437680881
 20
37.782499999999992
 30
0.0
 11
42.33699455362121
 21
37.782499999999992
 31
0.0
  0
LINE
  5
1ABE
  8
0
 62
     0
 10
39.822135727252324
 20
38.893749999999997
 30
0.0
 11
41.823405425944763
 21
38.893749999999997
 31
0.0
  0
LINE
  5
1ABF
  8
0
 62
     0
 10
39.828099443684472
 20
40.004999999999988
 30
0.0
 11
43.910627049171993
 21
40.004999999999988
 31
0.0
  0
LINE
  5
1AC0
  8
0
 62
     0
 10
41.116152531214738
 20
41.116249999999987
 30
0.0
 11
44.721132920877821
 21
41.116249999999987
 31
0.0
  0
LINE
  5
1AC1
  8
0
 62
     0
 10
42.921132920877859
 20
42.227499999999992
 30
0.0
 11
44.721132920877807
 21
42.227499999999992
 31
0.0
  0
LINE
  5
1AC2
  8
0
 62
     0
 10
42.921132920877859
 20
43.33874999999999
 30
0.0
 11
44.721132920877807
 21
43.33874999999999
 31
0.0
  0
LINE
  5
1AC3
  8
0
 62
     0
 10
42.921132920877852
 20
44.449999999999989
 30
0.0
 11
44.721132920877807
 21
44.449999999999989
 31
0.0
  0
LINE
  5
1AC4
  8
0
 62
     0
 10
42.921132920877838
 20
45.561249999999987
 30
0.0
 11
44.7211329208778
 21
45.561249999999987
 31
0.0
  0
LINE
  5
1AC5
  8
0
 62
     0
 10
42.921132920877831
 20
46.672499999999992
 30
0.0
 11
44.7211329208778
 21
46.672499999999992
 31
0.0
  0
LINE
  5
1AC6
  8
0
 62
     0
 10
42.921132920877817
 20
47.783749999999991
 30
0.0
 11
44.721132920877793
 21
47.783749999999991
 31
0.0
  0
LINE
  5
1AC7
  8
0
 62
     0
 10
42.921132920877817
 20
48.894999999999989
 30
0.0
 11
44.721132920877793
 21
48.894999999999989
 31
0.0
  0
LINE
  5
1AC8
  8
0
 62
     0
 10
42.921132920877817
 20
50.006249999999987
 30
0.0
 11
44.721132920877793
 21
50.006249999999987
 31
0.0
  0
LINE
  5
1AC9
  8
0
 62
     0
 10
42.92113292087781
 20
51.117499999999993
 30
0.0
 11
44.721132920877793
 21
51.117499999999993
 31
0.0
  0
LINE
  5
1ACA
  8
0
 62
     0
 10
42.92113292087781
 20
52.228749999999991
 30
0.0
 11
44.721132920877793
 21
52.228749999999991
 31
0.0
  0
LINE
  5
1ACB
  8
0
 62
     0
 10
42.92113292087781
 20
53.339999999999989
 30
0.0
 11
44.721132920877778
 21
53.339999999999989
 31
0.0
  0
LINE
  5
1ACC
  8
0
 62
     0
 10
42.92113292087781
 20
54.451249999999987
 30
0.0
 11
44.721132920877771
 21
54.451249999999987
 31
0.0
  0
LINE
  5
1ACD
  8
0
 62
     0
 10
42.92113292087781
 20
55.562499999999993
 30
0.0
 11
44.721132920877757
 21
55.562499999999993
 31
0.0
  0
LINE
  5
1ACE
  8
0
 62
     0
 10
42.92113292087781
 20
56.673749999999991
 30
0.0
 11
44.721132920877757
 21
56.673749999999991
 31
0.0
  0
LINE
  5
1ACF
  8
0
 62
     0
 10
42.92113292087781
 20
57.784999999999989
 30
0.0
 11
44.72113292087775
 21
57.784999999999989
 31
0.0
  0
LINE
  5
1AD0
  8
0
 62
     0
 10
42.92113292087781
 20
58.896249999999988
 30
0.0
 11
44.72113292087775
 21
58.896249999999988
 31
0.0
  0
LINE
  5
1AD1
  8
0
 62
     0
 10
42.916486329043842
 20
60.0075
 30
0.0
 11
44.721132920877743
 21
60.0075
 31
0.0
  0
LINE
  5
1AD2
  8
0
 62
     0
 10
40.470801947220899
 20
61.118749999999991
 30
0.0
 11
44.721132920877729
 21
61.118749999999991
 31
0.0
  0
LINE
  5
1AD3
  8
0
 62
     0
 10
39.826393201879661
 20
62.229999999999983
 30
0.0
 11
43.26496992153352
 21
62.229999999999983
 31
0.0
  0
LINE
  5
1AD4
  8
0
 62
     0
 10
39.778394922791144
 20
63.341249999999988
 30
0.0
 11
41.808164697150779
 21
63.341249999999988
 31
0.0
  0
LINE
  5
1AD5
  8
0
 62
     0
 10
39.176467077404403
 20
64.452499999999986
 30
0.0
 11
42.476375798105387
 21
64.452499999999986
 31
0.0
  0
LINE
  5
1AD6
  8
0
 62
     0
 10
38.72639320187993
 20
65.563749999999985
 30
0.0
 11
42.926393201879961
 21
65.563749999999985
 31
0.0
  0
ENDBLK
  5
1AD8
  8
0
  0
BLOCK
  8
0
  2
*X104
 70
     1
 10
0.0
 20
0.0
 30
0.0
  3
*X104
  1

  0
LINE
  5
1ADA
  8
0
 62
     0
 10
2.272923983891205
 20
37.111249861183097
 30
0.0
 11
6.0754020708008776
 21
37.111249861183097
 31
0.0
  0
LINE
  5
1ADB
  8
0
 62
     0
 10
3.3060001946548461
 20
38.222499861183103
 30
0.0
 11
5.4338215841639244
 21
38.222499861183103
 31
0.0
  0
LINE
  5
1ADC
  8
0
 62
     0
 10
2.93361754930346
 20
39.333749861183108
 30
0.0
 11
5.1736067973903204
 21
39.333749861183108
 31
0.0
  0
LINE
  5
1ADD
  8
0
 62
     0
 10
0.3023666956088835
 20
40.444999861183099
 30
0.0
 11
5.0405589343491153
 21
40.444999861183099
 31
0.0
  0
LINE
  5
1ADE
  8
0
 62
     0
 10
0.2788670783923973
 20
41.556249861183097
 30
0.0
 11
2.674957784891653
 21
41.556249861183097
 31
0.0
  0
LINE
  5
1ADF
  8
0
 62
     0
 10
0.2788670783924004
 20
42.667499861183103
 30
0.0
 11
2.0788670783923529
 21
42.667499861183103
 31
0.0
  0
LINE
  5
1AE0
  8
0
 62
     0
 10
0.2788670783924034
 20
43.778749861183087
 30
0.0
 11
2.07886707839236
 21
43.778749861183087
 31
0.0
  0
LINE
  5
1AE1
  8
0
 62
     0
 10
0.2788670783924064
 20
44.889999861183107
 30
0.0
 11
2.0788670783923671
 21
44.889999861183107
 31
0.0
  0
LINE
  5
1AE2
  8
0
 62
     0
 10
0.2788670783924094
 20
46.001249861183098
 30
0.0
 11
2.0788670783923742
 21
46.001249861183098
 31
0.0
  0
LINE
  5
1AE3
  8
0
 62
     0
 10
0.2788670783924125
 20
47.112499861183103
 30
0.0
 11
2.0788670783923808
 21
47.112499861183103
 31
0.0
  0
LINE
  5
1AE4
  8
0
 62
     0
 10
0.2788670783924156
 20
48.223749861183109
 30
0.0
 11
2.0788670783923879
 21
48.223749861183109
 31
0.0
  0
LINE
  5
1AE5
  8
0
 62
     0
 10
0.2788670783924185
 20
49.3349998611831
 30
0.0
 11
2.078867078392395
 21
49.3349998611831
 31
0.0
  0
LINE
  5
1AE6
  8
0
 62
     0
 10
0.2788670783924216
 20
50.446249861183112
 30
0.0
 11
2.0788670783924021
 21
50.446249861183112
 31
0.0
  0
LINE
  5
1AE7
  8
0
 62
     0
 10
0.2788670783924262
 20
51.557499861183103
 30
0.0
 11
2.0788670783924039
 21
51.557499861183103
 31
0.0
  0
LINE
  5
1AE8
  8
0
 62
     0
 10
0.2788670783924323
 20
52.668749861183102
 30
0.0
 11
2.0788670783924039
 21
52.668749861183102
 31
0.0
  0
LINE
  5
1AE9
  8
0
 62
     0
 10
0.2788670783924385
 20
53.7799998611831
 30
0.0
 11
2.0788670783924039
 21
53.7799998611831
 31
0.0
  0
LINE
  5
1AEA
  8
0
 62
     0
 10
0.2788670783924446
 20
54.891249861183098
 30
0.0
 11
2.0788670783924048
 21
54.891249861183098
 31
0.0
  0
LINE
  5
1AEB
  8
0
 62
     0
 10
0.2788670783924508
 20
56.002499861183097
 30
0.0
 11
2.0788670783924048
 21
56.002499861183097
 31
0.0
  0
LINE
  5
1AEC
  8
0
 62
     0
 10
0.2788670783924569
 20
57.113749861183102
 30
0.0
 11
2.0788670783924048
 21
57.113749861183102
 31
0.0
  0
LINE
  5
1AED
  8
0
 62
     0
 10
0.2788670783924631
 20
58.224999861183107
 30
0.0
 11
2.0788670783924048
 21
58.224999861183107
 31
0.0
  0
LINE
  5
1AEE
  8
0
 62
     0
 10
0.2788670783924693
 20
59.336249861183099
 30
0.0
 11
2.0788670783924061
 21
59.336249861183099
 31
0.0
  0
LINE
  5
1AEF
  8
0
 62
     0
 10
0.2788670783924754
 20
60.447499861183097
 30
0.0
 11
2.685259996488627
 21
60.447499861183097
 31
0.0
  0
LINE
  5
1AF0
  8
0
 62
     0
 10
0.3037331879698217
 20
61.558749861183102
 30
0.0
 11
5.0427037899191012
 21
61.558749861183102
 31
0.0
  0
LINE
  5
1AF1
  8
0
 62
     0
 10
2.943919760900477
 20
62.669999861183101
 30
0.0
 11
5.173606797390458
 21
62.669999861183101
 31
0.0
  0
LINE
  5
1AF2
  8
0
 62
     0
 10
3.3033724182108641
 20
63.781249861183099
 30
0.0
 11
5.435986473526305
 21
63.781249861183099
 31
0.0
  0
LINE
  5
1AF3
  8
0
 62
     0
 10
2.269624162425429
 20
64.892499861183083
 30
0.0
 11
6.0775669601633124
 21
64.892499861183083
 31
0.0
  0
ENDBLK
  5
1AF5
  8
0
  0
BLOCK
  8
0
  2
*X105
 70
     1
 10
0.0
 20
0.0
 30
0.0
  3
*X105
  1

  0
LINE
  5
1AF7
  8
0
 62
     0
 10
113.7300737266271
 20
36.671249999999993
 30
0.0
 11
117.9300737266271
 21
36.671249999999993
 31
0.0
  0
LINE
  5
1AF8
  8
0
 62
     0
 10
114.3158249533808
 20
37.782499999999992
 30
0.0
 11
117.34067502620449
 21
37.782499999999992
 31
0.0
  0
LINE
  5
1AF9
  8
0
 62
     0
 10
114.825816259581
 20
38.893749999999997
 30
0.0
 11
116.8270859520721
 21
38.893749999999997
 31
0.0
  0
LINE
  5
1AFA
  8
0
 62
     0
 10
114.831779973682
 20
40.004999999999988
 30
0.0
 11
118.9143078205415
 21
40.004999999999988
 31
0.0
  0
LINE
  5
1AFB
  8
0
 62
     0
 10
116.1198333025843
 20
41.116249999999987
 30
0.0
 11
119.724813445625
 21
41.116249999999987
 31
0.0
  0
LINE
  5
1AFC
  8
0
 62
     0
 10
117.92481344562501
 20
42.227499999999992
 30
0.0
 11
119.724813445625
 21
42.227499999999992
 31
0.0
  0
LINE
  5
1AFD
  8
0
 62
     0
 10
117.92481344562501
 20
43.33874999999999
 30
0.0
 11
119.7248134456249
 21
43.33874999999999
 31
0.0
  0
LINE
  5
1AFE
  8
0
 62
     0
 10
117.92481344562501
 20
44.449999999999989
 30
0.0
 11
119.7248134456249
 21
44.449999999999989
 31
0.0
  0
LINE
  5
1AFF
  8
0
 62
     0
 10
117.92481344562501
 20
45.561249999999987
 30
0.0
 11
119.7248134456249
 21
45.561249999999987
 31
0.0
  0
LINE
  5
1B00
  8
0
 62
     0
 10
117.92481344562501
 20
46.672499999999992
 30
0.0
 11
119.7248134456249
 21
46.672499999999992
 31
0.0
  0
LINE
  5
1B01
  8
0
 62
     0
 10
117.92481344562501
 20
47.783749999999991
 30
0.0
 11
119.7248134456249
 21
47.783749999999991
 31
0.0
  0
LINE
  5
1B02
  8
0
 62
     0
 10
117.92481344562501
 20
48.894999999999989
 30
0.0
 11
119.7248134456249
 21
48.894999999999989
 31
0.0
  0
LINE
  5
1B03
  8
0
 62
     0
 10
117.92481344562491
 20
50.006249999999987
 30
0.0
 11
119.7248134456249
 21
50.006249999999987
 31
0.0
  0
LINE
  5
1B04
  8
0
 62
     0
 10
117.92481344562491
 20
51.117499999999993
 30
0.0
 11
119.7248134456249
 21
51.117499999999993
 31
0.0
  0
LINE
  5
1B05
  8
0
 62
     0
 10
117.92481344562491
 20
52.228749999999991
 30
0.0
 11
119.7248134456249
 21
52.228749999999991
 31
0.0
  0
LINE
  5
1B06
  8
0
 62
     0
 10
117.92481344562491
 20
53.339999999999989
 30
0.0
 11
119.7248134456249
 21
53.339999999999989
 31
0.0
  0
LINE
  5
1B07
  8
0
 62
     0
 10
117.92481344562491
 20
54.451249999999987
 30
0.0
 11
119.7248134456249
 21
54.451249999999987
 31
0.0
  0
LINE
  5
1B08
  8
0
 62
     0
 10
117.92481344562491
 20
55.562499999999993
 30
0.0
 11
119.7248134456249
 21
55.562499999999993
 31
0.0
  0
LINE
  5
1B09
  8
0
 62
     0
 10
117.92481344562491
 20
56.673749999999991
 30
0.0
 11
119.7248134456249
 21
56.673749999999991
 31
0.0
  0
LINE
  5
1B0A
  8
0
 62
     0
 10
117.92481344562491
 20
57.784999999999989
 30
0.0
 11
119.7248134456249
 21
57.784999999999989
 31
0.0
  0
LINE
  5
1B0B
  8
0
 62
     0
 10
117.92481344562491
 20
58.896249999999988
 30
0.0
 11
119.7248134456249
 21
58.896249999999988
 31
0.0
  0
LINE
  5
1B0C
  8
0
 62
     0
 10
117.9201668399884
 20
60.0075
 30
0.0
 11
119.7248134456249
 21
60.0075
 31
0.0
  0
LINE
  5
1B0D
  8
0
 62
     0
 10
115.4744822360331
 20
61.118749999999991
 30
0.0
 11
119.7248134456249
 21
61.118749999999991
 31
0.0
  0
LINE
  5
1B0E
  8
0
 62
     0
 10
114.83007372662679
 20
62.229999999999983
 30
0.0
 11
118.2686501996583
 21
62.229999999999983
 31
0.0
  0
LINE
  5
1B0F
  8
0
 62
     0
 10
114.7820754213578
 20
63.341249999999988
 30
0.0
 11
116.8118451700731
 21
63.341249999999988
 31
0.0
  0
LINE
  5
1B10
  8
0
 62
     0
 10
114.18014755032669
 20
64.452499999999986
 30
0.0
 11
117.4800563746704
 21
64.452499999999986
 31
0.0
  0
LINE
  5
1B11
  8
0
 62
     0
 10
113.7300737266271
 20
65.563749999999985
 30
0.0
 11
117.9300737266271
 21
65.563749999999985
 31
0.0
  0
ENDBLK
  5
1B13
  8
0
  0
BLOCK
  8
0
  2
*X106
 70
     1
 10
0.0
 20
0.0
 30
0.0
  3
*X106
  1

  0
LINE
  5
1B15
  8
0
 62
     0
 10
69.372878624998378
 20
36.431500535928961
 30
0.0
 11
73.572878624998424
 21
36.431500535928961
 31
0.0
  0
LINE
  5
1B16
  8
0
 62
     0
 10
69.821740137589259
 20
37.542750535928953
 30
0.0
 11
73.124016911999419
 21
37.542750535928953
 31
0.0
  0
LINE
  5
1B17
  8
0
 62
     0
 10
70.499622698847105
 20
38.654000535928951
 30
0.0
 11
72.523210264689794
 21
38.654000535928951
 31
0.0
  0
LINE
  5
1B18
  8
0
 62
     0
 10
70.472878625058698
 20
39.765250535928963
 30
0.0
 11
72.472878625600814
 21
39.765250535928963
 31
0.0
  0
LINE
  5
1B19
  8
0
 62
     0
 10
70.472878625058698
 20
40.876500535928947
 30
0.0
 11
72.472878625574893
 21
40.876500535928947
 31
0.0
  0
LINE
  5
1B1A
  8
0
 62
     0
 10
70.472878625058698
 20
41.987750535928953
 30
0.0
 11
72.472878625548972
 21
41.987750535928953
 31
0.0
  0
LINE
  5
1B1B
  8
0
 62
     0
 10
70.472878625058698
 20
43.099000535928951
 30
0.0
 11
72.472878625523037
 21
43.099000535928951
 31
0.0
  0
LINE
  5
1B1C
  8
0
 62
     0
 10
70.472878625058698
 20
44.210250535928942
 30
0.0
 11
72.472878625497117
 21
44.210250535928942
 31
0.0
  0
LINE
  5
1B1D
  8
0
 62
     0
 10
70.472878625058698
 20
45.321500535928962
 30
0.0
 11
72.472878625471196
 21
45.321500535928962
 31
0.0
  0
LINE
  5
1B1E
  8
0
 62
     0
 10
70.472878625058698
 20
46.432750535928953
 30
0.0
 11
72.472878625445261
 21
46.432750535928953
 31
0.0
  0
LINE
  5
1B1F
  8
0
 62
     0
 10
70.472878625058698
 20
47.544000535928937
 30
0.0
 11
72.472878625419341
 21
47.544000535928937
 31
0.0
  0
LINE
  5
1B20
  8
0
 62
     0
 10
70.472878625058698
 20
48.65525053592895
 30
0.0
 11
72.472878625393406
 21
48.65525053592895
 31
0.0
  0
LINE
  5
1B21
  8
0
 62
     0
 10
70.472878625058698
 20
49.766500535928941
 30
0.0
 11
72.472878625367485
 21
49.766500535928941
 31
0.0
  0
LINE
  5
1B22
  8
0
 62
     0
 10
70.472878625058698
 20
50.877750535928961
 30
0.0
 11
72.472878625341565
 21
50.877750535928961
 31
0.0
  0
LINE
  5
1B23
  8
0
 62
     0
 10
70.472878625058698
 20
51.989000535928952
 30
0.0
 11
72.47287862531563
 21
51.989000535928952
 31
0.0
  0
LINE
  5
1B24
  8
0
 62
     0
 10
70.472878625058698
 20
53.10025053592895
 30
0.0
 11
72.472878625289695
 21
53.10025053592895
 31
0.0
  0
LINE
  5
1B25
  8
0
 62
     0
 10
70.472878625058698
 20
54.211500535928948
 30
0.0
 11
72.472878625263789
 21
54.211500535928948
 31
0.0
  0
LINE
  5
1B26
  8
0
 62
     0
 10
70.472878625058698
 20
55.322750535928947
 30
0.0
 11
72.472878625237854
 21
55.322750535928947
 31
0.0
  0
LINE
  5
1B27
  8
0
 62
     0
 10
70.472878625058698
 20
56.434000535928952
 30
0.0
 11
72.472878625211933
 21
56.434000535928952
 31
0.0
  0
LINE
  5
1B28
  8
0
 62
     0
 10
70.472878625058698
 20
57.54525053592895
 30
0.0
 11
72.472878625186013
 21
57.54525053592895
 31
0.0
  0
LINE
  5
1B29
  8
0
 62
     0
 10
70.472878625058698
 20
58.656500535928949
 30
0.0
 11
72.472878625160064
 21
58.656500535928949
 31
0.0
  0
LINE
  5
1B2A
  8
0
 62
     0
 10
70.472878625058698
 20
59.767750535928947
 30
0.0
 11
72.472878625134157
 21
59.767750535928947
 31
0.0
  0
LINE
  5
1B2B
  8
0
 62
     0
 10
70.472878625058698
 20
60.879000535928952
 30
0.0
 11
72.472878625108237
 21
60.879000535928952
 31
0.0
  0
LINE
  5
1B2C
  8
0
 62
     0
 10
70.472878625058698
 20
61.990250535928951
 30
0.0
 11
72.472878625082302
 21
61.990250535928951
 31
0.0
  0
LINE
  5
1B2D
  8
0
 62
     0
 10
70.472878625058698
 20
63.101500535928949
 30
0.0
 11
72.477002080101386
 21
63.101500535928949
 31
0.0
  0
LINE
  5
1B2E
  8
0
 62
     0
 10
69.961945826394441
 20
64.212750535928947
 30
0.0
 11
72.983811160607914
 21
64.212750535928947
 31
0.0
  0
LINE
  5
1B2F
  8
0
 62
     0
 10
69.372878625004134
 20
65.324000535928946
 30
0.0
 11
73.572878625004194
 21
65.324000535928946
 31
0.0
  0
ENDBLK
  5
1B31
  8
0
  0
BLOCK
  8
0
  2
*X107
 70
     1
 10
0.0
 20
0.0
 30
0.0
  3
*X107
  1

  0
LINE
  5
1B33
  8
0
 62
     0
 10
49.400000001493083
 20
36.671249999999993
 30
0.0
 11
53.600000001493122
 21
36.671249999999993
 31
0.0
  0
LINE
  5
1B34
  8
0
 62
     0
 10
49.986343966610278
 20
37.782499999999992
 30
0.0
 11
53.013656298165991
 21
37.782499999999992
 31
0.0
  0
LINE
  5
1B35
  8
0
 62
     0
 10
50.495472303859373
 20
38.893749999999997
 30
0.0
 11
52.50000000143848
 21
38.893749999999997
 31
0.0
  0
LINE
  5
1B36
  8
0
 62
     0
 10
50.500000000901963
 20
40.004999999999988
 30
0.0
 11
52.50000000143848
 21
40.004999999999988
 31
0.0
  0
LINE
  5
1B37
  8
0
 62
     0
 10
50.500000000927869
 20
41.116249999999987
 30
0.0
 11
52.50000000143848
 21
41.116249999999987
 31
0.0
  0
LINE
  5
1B38
  8
0
 62
     0
 10
50.500000000953797
 20
42.227499999999992
 30
0.0
 11
52.50000000143848
 21
42.227499999999992
 31
0.0
  0
LINE
  5
1B39
  8
0
 62
     0
 10
50.500000000979732
 20
43.33874999999999
 30
0.0
 11
52.50000000143848
 21
43.33874999999999
 31
0.0
  0
LINE
  5
1B3A
  8
0
 62
     0
 10
50.500000001005652
 20
44.449999999999989
 30
0.0
 11
52.50000000143848
 21
44.449999999999989
 31
0.0
  0
LINE
  5
1B3B
  8
0
 62
     0
 10
50.50000000103158
 20
45.561249999999987
 30
0.0
 11
52.50000000143848
 21
45.561249999999987
 31
0.0
  0
LINE
  5
1B3C
  8
0
 62
     0
 10
50.500000001057501
 20
46.672499999999992
 30
0.0
 11
52.50000000143848
 21
46.672499999999992
 31
0.0
  0
LINE
  5
1B3D
  8
0
 62
     0
 10
50.500000001083443
 20
47.783749999999991
 30
0.0
 11
52.50000000143848
 21
47.783749999999991
 31
0.0
  0
LINE
  5
1B3E
  8
0
 62
     0
 10
50.500000001109349
 20
48.894999999999989
 30
0.0
 11
52.50000000143848
 21
48.894999999999989
 31
0.0
  0
LINE
  5
1B3F
  8
0
 62
     0
 10
50.500000001135277
 20
50.006249999999987
 30
0.0
 11
52.50000000143848
 21
50.006249999999987
 31
0.0
  0
LINE
  5
1B40
  8
0
 62
     0
 10
50.500000001161212
 20
51.117499999999993
 30
0.0
 11
52.50000000143848
 21
51.117499999999993
 31
0.0
  0
LINE
  5
1B41
  8
0
 62
     0
 10
50.500000001187132
 20
52.228749999999991
 30
0.0
 11
52.50000000143848
 21
52.228749999999991
 31
0.0
  0
LINE
  5
1B42
  8
0
 62
     0
 10
50.50000000121306
 20
53.339999999999989
 30
0.0
 11
52.50000000143848
 21
53.339999999999989
 31
0.0
  0
LINE
  5
1B43
  8
0
 62
     0
 10
50.50000000123898
 20
54.451249999999987
 30
0.0
 11
52.50000000143848
 21
54.451249999999987
 31
0.0
  0
LINE
  5
1B44
  8
0
 62
     0
 10
50.500000001264908
 20
55.562499999999993
 30
0.0
 11
52.50000000143848
 21
55.562499999999993
 31
0.0
  0
LINE
  5
1B45
  8
0
 62
     0
 10
50.500000001290843
 20
56.673749999999991
 30
0.0
 11
52.50000000143848
 21
56.673749999999991
 31
0.0
  0
LINE
  5
1B46
  8
0
 62
     0
 10
50.500000001316756
 20
57.784999999999989
 30
0.0
 11
52.50000000143848
 21
57.784999999999989
 31
0.0
  0
LINE
  5
1B47
  8
0
 62
     0
 10
50.500000001342691
 20
58.896249999999988
 30
0.0
 11
52.50000000143848
 21
58.896249999999988
 31
0.0
  0
LINE
  5
1B48
  8
0
 62
     0
 10
50.500000001368612
 20
60.0075
 30
0.0
 11
52.50000000143848
 21
60.0075
 31
0.0
  0
LINE
  5
1B49
  8
0
 62
     0
 10
50.50000000139454
 20
61.118749999999991
 30
0.0
 11
52.50000000143848
 21
61.118749999999991
 31
0.0
  0
LINE
  5
1B4A
  8
0
 62
     0
 10
50.500000001420467
 20
62.229999999999983
 30
0.0
 11
52.50000000143848
 21
62.229999999999983
 31
0.0
  0
LINE
  5
1B4B
  8
0
 62
     0
 10
50.451078344499862
 20
63.341249999999988
 30
0.0
 11
52.475997991046803
 21
63.341249999999988
 31
0.0
  0
LINE
  5
1B4C
  8
0
 62
     0
 10
49.851585213776751
 20
64.452499999999986
 30
0.0
 11
53.148414990844692
 21
64.452499999999986
 31
0.0
  0
LINE
  5
1B4D
  8
0
 62
     0
 10
49.400000001498647
 20
65.563749999999985
 30
0.0
 11
53.600000001498799
 21
65.563749999999985
 31
0.0
  0
ENDBLK
  5
1B4F
  8
0
  0
BLOCK
  8
0
  2
*U108
 70
     1
 10
0.0
 20
0.0
 30
0.0
  3
*U108
  1

  0
TEXT
  5
1CCF
  8
SAPA_MATT
 62
     2
 10
-101.0011903668526
 20
115.4637815873911
 30
0.0
 40
3.5
  1
197-202
 50
90.0
  7
ISO
  0
ENDBLK
  5
1CD1
  8
0
  0
BLOCK
  8
0
  2
*U109
 70
     1
 10
0.0
 20
0.0
 30
0.0
  3
*U109
  1

  0
TEXT
  5
1CD3
  8
SAPA_MATT
 62
     2
 10
45.174999999773902
 20
-16.999999999999702
 30
0.0000000048844204
 40
3.5
  1
187
  7
ISO
  0
ENDBLK
  5
1CD5
  8
0
  0
BLOCK
  8
0
  2
*U110
 70
     1
 10
0.0
 20
0.0
 30
0.0
  3
*U110
  1

  0
TEXT
  5
1CD7
  8
SAPA_MATT
 62
     2
 10
94.92471140959789
 20
-4.9999999999997007
 30
0.0000000048844204
 40
3.5
  1
89
  7
ISO
  0
ENDBLK
  5
1CD9
  8
0
  0
BLOCK
  8
0
  2
*U111
 70
     1
 10
0.0
 20
0.0
 30
0.0
  3
*U111
  1

  0
TEXT
  5
1CDB
  8
SAPA_MATT
 62
     2
 10
49.202512624488399
 20
-4.9999999999997007
 30
0.0000000048844204
 40
3.5
  1
5
  7
ISO
  0
ENDBLK
  5
1CDD
  8
0
  0
BLOCK
  8
0
  2
*U112
 70
     1
 10
0.0
 20
0.0
 30
0.0
  3
*U112
  1

  0
TEXT
  5
1CDF
  8
SAPA_MATT
 62
     2
 10
-0.9622301569033419
 20
-4.9999999999997007
 30
0.0000000048844204
 40
3.5
  1
93
  7
ISO
  0
ENDBLK
  5
1CE1
  8
0
  0
ENDSEC
  0
SECTION
  2
ENTITIES
  0
POLYLINE
  5
26E
  8
SAPA_LIGHT
 66
     1
 10
0.0
 20
0.0
 30
0.0
 70
     1
  0
VERTEX
  5
FC8
  8
SAPA_LIGHT
 10
48.000457183912033
 20
22.700000008452559
 30
0.0
  0
VERTEX
  5
FC9
  8
SAPA_LIGHT
 10
52.500000016371793
 20
22.700000008452498
 30
0.0
  0
VERTEX
  5
FCA
  8
SAPA_LIGHT
 10
52.500000016371793
 20
79.300000008112718
 30
0.0
  0
VERTEX
  5
FCB
  8
SAPA_LIGHT
 10
70.000000000000981
 20
79.299999997157286
 30
0.0
  0
VERTEX
  5
FCC
  8
SAPA_LIGHT
 10
70.000000000000981
 20
87.999999999999901
 30
0.0
  0
VERTEX
  5
FCD
  8
SAPA_LIGHT
 10
0.0000000000002061
 20
87.999999999999901
 30
0.0
  0
VERTEX
  5
FCE
  8
SAPA_LIGHT
 10
0.0000000000002061
 20
14.0000000000003
 30
0.0
  0
VERTEX
  5
FCF
  8
SAPA_LIGHT
 10
48.000457183912033
 20
14.0000000000003
 30
0.0
  0
SEQEND
  5
FD0
  8
SAPA_LIGHT
  0
POLYLINE
  5
26F
  8
SAPA_LIGHT
 66
     1
 10
0.0
 20
0.0
 30
0.0
  0
VERTEX
  5
FD1
  8
SAPA_LIGHT
 10
141.9999999955667
 20
22.949999925982102
 30
0.0
  0
VERTEX
  5
FD2
  8
SAPA_LIGHT
 10
141.9999999955667
 20
14.00000002613522
 30
0.0
  0
VERTEX
  5
FD3
  8
SAPA_LIGHT
 10
52.99852380795646
 20
14.00000002596113
 30
0.0
  0
VERTEX
  5
FD4
  8
SAPA_LIGHT
 10
52.99852380795646
 20
22.700000000953931
 30
0.0
  0
VERTEX
  5
FD5
  8
SAPA_LIGHT
 10
67.498523811896405
 20
22.700000000954049
 30
0.0
  0
VERTEX
  5
FD6
  8
SAPA_LIGHT
 10
67.498523854660363
 20
79.299999991547679
 30
0.0
  0
VERTEX
  5
FD7
  8
SAPA_LIGHT
 10
74.9999999958073
 20
79.299999991547679
 30
0.0
  0
VERTEX
  5
FD8
  8
SAPA_LIGHT
 10
74.9999999958073
 20
87.999999987219496
 30
0.0
  0
VERTEX
  5
FD9
  8
SAPA_LIGHT
 10
141.9999999955667
 20
87.999999987393565
 30
0.0
  0
VERTEX
  5
FDA
  8
SAPA_LIGHT
 10
141.9999999955667
 20
46.949999853919259
 30
0.0
  0
SEQEND
  5
FDB
  8
SAPA_LIGHT
  0
POLYLINE
  5
270
  8
SAPA_LIGHT
 66
     1
 10
0.0
 20
0.0
 30
0.0
 70
     1
  0
VERTEX
  5
FDC
  8
SAPA_LIGHT
 10
125.0000000000007
 20
22.949999925808019
 30
0.0
  0
VERTEX
  5
FDD
  8
SAPA_LIGHT
 10
155.00000000000071
 20
22.949999925808019
 30
0.0
  0
VERTEX
  5
FDE
  8
SAPA_LIGHT
 10
154.99999999999989
 20
46.949999853745169
 30
0.0
  0
VERTEX
  5
FDF
  8
SAPA_LIGHT
 10
124.9999999999999
 20
46.949999853745169
 30
0.0
  0
SEQEND
  5
FE0
  8
SAPA_LIGHT
  0
TEXT
  5
275
  8
SAPA_ARTIKELNR
 10
15.599054429360899
 20
90.073098903798424
 30
-0.0000000048844204
 40
3.5
  1
74422
  7
ISO
  0
TEXT
  5
276
  8
SAPA_ARTIKELNR
 10
89.906018714650173
 20
90.073098906411644
 30
-0.0000000048844204
 40
3.5
  1
74424
  7
ISO
  0
TEXT
  5
277
  8
SAPA_ARTIKELNR
 10
49.001870796541454
 20
90.073098903798424
 30
-0.0000000048844204
 40
3.5
  1
74517
  7
ISO
  0
LINE
  5
679
  8
SAPA_ANSLUTNING
 10
-80.000000000379174
 20
23.800000012212781
 30
0.0
 11
-20.000000000396209
 21
23.80000001221276
 31
0.0
  0
LINE
  5
67A
  8
SAPA_ANSLUTNING
 10
-20.000000000395339
 20
24.400000012117928
 30
0.0
 11
-80.000000000379174
 21
24.400000012212772
 31
0.0
  0
CIRCLE
  5
67E
  8
SAPA_ANSLUTNING
 10
-37.023788900215301
 20
19.749714790084109
 30
0.0
 40
4.0502852221286458
1001
ACAD
1000
ASC_BOUNDS
1002
{
1070
    19
1005
ED1
1002
}
  0
LINE
  5
67F
  8
SAPA_ANSLUTNING
 10
-44.990799840462351
 20
14.22178385442969
 30
0.0
 11
-47.55727512487104
 21
23.80000001221276
 31
0.0
  0
POLYLINE
  5
684
  8
SAPA_ANSLUTNING
 66
     1
 10
0.0
 20
0.0
 30
0.0
  0
VERTEX
  5
FE1
  8
SAPA_ANSLUTNING
 10
-20.00000000028292
 20
102.3035153269725
 30
0.0
  0
VERTEX
  5
FE2
  8
SAPA_ANSLUTNING
 10
-7.3026003948322042
 20
102.30351532696631
 30
0.0
 42
-0.9999999999999998
  0
VERTEX
  5
FE3
  8
SAPA_ANSLUTNING
 10
-7.3026003948322042
 20
93.891514736791365
 30
0.0
  0
VERTEX
  5
FE4
  8
SAPA_ANSLUTNING
 10
-15.79399970531175
 20
93.891514736791422
 30
0.0
 42
0.9999999999999998
  0
VERTEX
  5
FE5
  8
SAPA_ANSLUTNING
 10
-15.79399970531175
 20
85.479514146627324
 30
0.0
  0
VERTEX
  5
FE6
  8
SAPA_ANSLUTNING
 10
-8.8869643698104621
 20
85.479514146627324
 30
0.0
 42
-0.9999999999999998
  0
VERTEX
  5
FE7
  8
SAPA_ANSLUTNING
 10
-8.8869643698104621
 20
77.067513556452312
 30
0.0
  0
VERTEX
  5
FE8
  8
SAPA_ANSLUTNING
 10
-15.79399970531175
 20
77.067513556452312
 30
0.0
 42
0.9999999999999998
  0
VERTEX
  5
FE9
  8
SAPA_ANSLUTNING
 10
-15.79399970531175
 20
68.655512966288214
 30
0.0
  0
VERTEX
  5
FEA
  8
SAPA_ANSLUTNING
 10
-3.9008779284904369
 20
68.6555129662882
 30
0.0
 42
-0.9999999999999998
  0
VERTEX
  5
FEB
  8
SAPA_ANSLUTNING
 10
-3.9008779284904369
 20
60.243512376113202
 30
0.0
  0
VERTEX
  5
FEC
  8
SAPA_ANSLUTNING
 10
-15.79399970531175
 20
60.243512376113202
 30
0.0
 42
0.9999999999999998
  0
VERTEX
  5
FED
  8
SAPA_ANSLUTNING
 10
-15.79399970531175
 20
51.831511785949097
 30
0.0
  0
VERTEX
  5
FEE
  8
SAPA_ANSLUTNING
 10
-3.9008779284904369
 20
51.831511785949097
 30
0.0
 42
-0.9999999999999998
  0
VERTEX
  5
FEF
  8
SAPA_ANSLUTNING
 10
-3.9008779284904369
 20
43.419511195774092
 30
0.0
  0
VERTEX
  5
FF0
  8
SAPA_ANSLUTNING
 10
-15.79399970531175
 20
43.419511195774092
 30
0.0
 42
0.9999999999999998
  0
VERTEX
  5
FF1
  8
SAPA_ANSLUTNING
 10
-15.79399970531175
 20
35.007510605609987
 30
0.0
  0
VERTEX
  5
FF2
  8
SAPA_ANSLUTNING
 10
0.1989779073961344
 20
35.007510605612438
 30
0.0
  0
SEQEND
  5
FF3
  8
SAPA_ANSLUTNING
  0
TEXT
  5
687
  8
SAPA_ARTIKELNR
 10
-6.3041763844992307
 20
72.432504092324692
 30
0.0
 40
3.5
  1
42793
 50
270.0
 51
180.0
  7
ISO
 71
     6
 72
     4
 11
-8.0570152342080732
 21
78.811106544104959
 31
0.0
  0
LINE
  5
88E
  8
SAPA_ANSLUTNING
 10
-80.000000000379117
 20
223.80000001221279
 30
0.0
 11
-20.000000000251909
 21
223.80000001221279
 31
0.0
  0
LINE
  5
88F
  8
SAPA_ANSLUTNING
 10
-20.000000000252761
 20
223.20000001211329
 30
0.0
 11
-80.000000000379117
 21
223.20000001221271
 31
0.0
  0
CIRCLE
  5
891
  8
SAPA_ANSLUTNING
 10
-40.500000000272841
 20
226.80000001221339
 30
0.0
 40
3.0000000000000848
1001
ACAD
1000
ASC_BOUNDS
1002
{
1070
    19
1005
ECE
1002
}
  0
LINE
  5
892
  8
SAPA_ANSLUTNING
 10
-44.989777748155149
 20
231.37764572574289
 30
0.0
 11
-47.020201797624708
 21
223.80000001221279
 31
0.0
  0
LINE
  5
893
  8
SAPA_ANSLUTNING
 10
-20.000000000251909
 20
223.80000001221279
 30
0.0
 11
-20.000000000396209
 21
23.80000001221276
 31
0.0
  0
TEXT
  5
894
  8
SAPA_ARTIKELNR
 10
-27.40831393816995
 20
233.60249466261479
 30
0.0
 40
3.5
  1
42796
 50
180.0
 51
180.0
  7
ISO
 71
     6
 72
     4
 11
-21.015387836182921
 21
235.3553335123236
 31
0.0
  0
POLYLINE
  5
E96
  8
SAPA_PROFIL
 66
     1
 10
0.0
 20
0.0
 30
0.0
 70
     1
  0
VERTEX
  5
1482
  8
SAPA_PROFIL
 10
-2.300000000273712
 20
98.300000012212877
 30
0.0
  0
VERTEX
  5
1483
  8
SAPA_PROFIL
 10
-2.7000000004088629
 20
98.300000012212635
 30
0.0
 42
0.6370702608048074
  0
VERTEX
  5
1484
  8
SAPA_PROFIL
 10
-2.9298133333456908
 20
97.807163729308058
 30
0.0
  0
VERTEX
  5
1485
  8
SAPA_PROFIL
 10
-2.2465114836677449
 20
96.992836295117058
 30
0.0
 42
-0.6370702608055112
  0
VERTEX
  5
1486
  8
SAPA_PROFIL
 10
-2.4763248166048011
 20
96.500000012212695
 30
0.0
  0
VERTEX
  5
1487
  8
SAPA_PROFIL
 10
-2.7000000004088629
 20
96.500000012212695
 30
0.0
 42
0.6370702608048074
  0
VERTEX
  5
1488
  8
SAPA_PROFIL
 10
-2.9298133333456908
 20
96.007163729308104
 30
0.0
  0
VERTEX
  5
1489
  8
SAPA_PROFIL
 10
-2.2465114836677449
 20
95.192836295117104
 30
0.0
 42
-0.6370702608054489
  0
VERTEX
  5
148A
  8
SAPA_PROFIL
 10
-2.4763248166045742
 20
94.700000012212513
 30
0.0
  0
VERTEX
  5
148B
  8
SAPA_PROFIL
 10
-2.7000000004088629
 20
94.700000012212513
 30
0.0
 42
0.6370702608046363
  0
VERTEX
  5
148C
  8
SAPA_PROFIL
 10
-2.9298133333459191
 20
94.207163729308149
 30
0.0
  0
VERTEX
  5
148D
  8
SAPA_PROFIL
 10
-2.2465114836677449
 20
93.392836295116922
 30
0.0
 42
-0.6370702608052448
  0
VERTEX
  5
148E
  8
SAPA_PROFIL
 10
-2.4763248166045742
 20
92.900000012212558
 30
0.0
  0
VERTEX
  5
148F
  8
SAPA_PROFIL
 10
-2.7000000004088629
 20
92.900000012212558
 30
0.0
 42
0.6370702608044321
  0
VERTEX
  5
1490
  8
SAPA_PROFIL
 10
-2.9298133333459191
 20
92.407163729308195
 30
0.0
  0
VERTEX
  5
1491
  8
SAPA_PROFIL
 10
-2.2465114836677449
 20
91.592836295116953
 30
0.0
 42
-0.6370702608054489
  0
VERTEX
  5
1492
  8
SAPA_PROFIL
 10
-2.4763248166045742
 20
91.100000012212604
 30
0.0
  0
VERTEX
  5
1493
  8
SAPA_PROFIL
 10
-2.7000000004088629
 20
91.100000012212604
 30
0.0
 42
0.6370702608048074
  0
VERTEX
  5
1494
  8
SAPA_PROFIL
 10
-2.9298133333456908
 20
90.607163729308013
 30
0.0
  0
VERTEX
  5
1495
  8
SAPA_PROFIL
 10
-2.2465114836677449
 20
89.792836295117013
 30
0.0
 42
-0.6370702608050736
  0
VERTEX
  5
1496
  8
SAPA_PROFIL
 10
-2.4763248166048011
 20
89.300000012212436
 30
0.0
  0
VERTEX
  5
1497
  8
SAPA_PROFIL
 10
-2.7000000004088629
 20
89.300000012212635
 30
0.0
 42
0.6370702608053711
  0
VERTEX
  5
1498
  8
SAPA_PROFIL
 10
-2.929813333344554
 20
88.807163729306922
 30
0.0
  0
VERTEX
  5
1499
  8
SAPA_PROFIL
 10
-2.2465114836677449
 20
87.992836295117044
 30
0.0
 42
-0.6370702608055112
  0
VERTEX
  5
149A
  8
SAPA_PROFIL
 10
-2.4763248166048011
 20
87.500000012212695
 30
0.0
  0
VERTEX
  5
149B
  8
SAPA_PROFIL
 10
-2.7000000004088629
 20
87.500000012212695
 30
0.0
 42
0.6370702608058085
  0
VERTEX
  5
149C
  8
SAPA_PROFIL
 10
-2.929813333344554
 20
87.00716372930674
 30
0.0
  0
VERTEX
  5
149D
  8
SAPA_PROFIL
 10
-2.2465114836677449
 20
86.192836295117104
 30
0.0
 42
-0.6370702608054489
  0
VERTEX
  5
149E
  8
SAPA_PROFIL
 10
-2.4763248166045742
 20
85.700000012212499
 30
0.0
  0
VERTEX
  5
149F
  8
SAPA_PROFIL
 10
-2.7000000004088629
 20
85.700000012212499
 30
0.0
 42
0.6370702608051669
  0
VERTEX
  5
14A0
  8
SAPA_PROFIL
 10
-2.929813333344554
 20
85.207163729306785
 30
0.0
  0
VERTEX
  5
14A1
  8
SAPA_PROFIL
 10
-2.2465114836677449
 20
84.392836295116922
 30
0.0
 42
-0.6370702608054489
  0
VERTEX
  5
14A2
  8
SAPA_PROFIL
 10
-2.4763248166045742
 20
83.900000012212331
 30
0.0
  0
VERTEX
  5
14A3
  8
SAPA_PROFIL
 10
-2.7000000004088629
 20
83.900000012212331
 30
0.0
 42
0.6064417173625494
  0
VERTEX
  5
14A4
  8
SAPA_PROFIL
 10
-2.9459332278695451
 20
83.428195333491189
 30
0.0
  0
VERTEX
  5
14A5
  8
SAPA_PROFIL
 10
-0.9098887128304795
 20
80.513658881010542
 30
0.0
 42
0.7336498725448613
  0
VERTEX
  5
14A6
  8
SAPA_PROFIL
 10
-0.0000000003947207
 20
80.80000001222561
 30
0.0
  0
VERTEX
  5
14A7
  8
SAPA_PROFIL
 10
0.000000000082764
 20
231.10000001223739
 30
0.0
 42
0.4142135623754925
  0
VERTEX
  5
14A8
  8
SAPA_PROFIL
 10
-0.4999999999176908
 20
231.600000012241
 30
0.0
  0
VERTEX
  5
14A9
  8
SAPA_PROFIL
 10
-44.700000000235597
 20
231.6000000122124
 30
0.0
 42
0.6681786379188313
  0
VERTEX
  5
14AA
  8
SAPA_PROFIL
 10
-44.912132034591423
 20
231.0878679778568
 30
0.0
  0
VERTEX
  5
14AB
  8
SAPA_PROFIL
 10
-43.270710678354817
 20
229.4464466216198
 30
0.0
 42
0.4142135623730951
  0
VERTEX
  5
14AC
  8
SAPA_PROFIL
 10
-42.56360389716815
 20
229.4464466216198
 30
0.0
  0
VERTEX
  5
14AD
  8
SAPA_PROFIL
 10
-42.29791847221918
 20
229.7121320465692
 30
0.0
 42
-0.1989123673797157
  0
VERTEX
  5
14AE
  8
SAPA_PROFIL
 10
-42.085786437862907
 20
229.8000000122131
 30
0.0
  0
VERTEX
  5
14AF
  8
SAPA_PROFIL
 10
-38.000000000236469
 20
229.8000000122131
 30
0.0
 42
-0.4142135623736278
  0
VERTEX
  5
14B0
  8
SAPA_PROFIL
 10
-37.500000000236469
 20
229.30000001221259
 30
0.0
  0
VERTEX
  5
14B1
  8
SAPA_PROFIL
 10
-37.500000000243752
 20
224.10000001221371
 30
0.0
 42
0.4142135623733168
  0
VERTEX
  5
14B2
  8
SAPA_PROFIL
 10
-37.20000000024379
 20
223.8000000122131
 30
0.0
  0
VERTEX
  5
14B3
  8
SAPA_PROFIL
 10
-35.800000000244609
 20
223.8000000122131
 30
0.0
 42
0.414213562372873
  0
VERTEX
  5
14B4
  8
SAPA_PROFIL
 10
-35.500000000244661
 20
224.10000001221329
 30
0.0
  0
VERTEX
  5
14B5
  8
SAPA_PROFIL
 10
-35.500000000244427
 20
229.10000001221869
 30
0.0
 42
-0.4142135623728287
  0
VERTEX
  5
14B6
  8
SAPA_PROFIL
 10
-35.000000000244881
 20
229.60000001221869
 30
0.0
  0
VERTEX
  5
14B7
  8
SAPA_PROFIL
 10
-2.4999999999311049
 20
229.60000001223969
 30
0.0
 42
-0.4142135623753593
  0
VERTEX
  5
14B8
  8
SAPA_PROFIL
 10
-1.999999999930651
 20
229.10000001223599
 30
0.0
  0
VERTEX
  5
14B9
  8
SAPA_PROFIL
 10
-1.9999999999783991
 20
222.10000001222031
 30
0.0
 42
-0.4142135623730951
  0
VERTEX
  5
14BA
  8
SAPA_PROFIL
 10
-2.9999999999529332
 20
221.10000001223759
 30
0.0
  0
VERTEX
  5
14BB
  8
SAPA_PROFIL
 10
-7.599999999871442
 20
221.10000001223759
 30
0.0
 42
0.4142135623730964
  0
VERTEX
  5
14BC
  8
SAPA_PROFIL
 10
-7.8999999998707153
 20
220.8000000122374
 30
0.0
  0
VERTEX
  5
14BD
  8
SAPA_PROFIL
 10
-7.8999999998707153
 20
218.50000001223771
 30
0.0
 42
0.4142135623730951
  0
VERTEX
  5
14BE
  8
SAPA_PROFIL
 10
-7.5999999998705334
 20
218.2000000122375
 30
0.0
  0
VERTEX
  5
14BF
  8
SAPA_PROFIL
 10
-7.099999999871442
 20
218.2000000122375
 30
0.0
 42
0.4142135623730951
  0
VERTEX
  5
14C0
  8
SAPA_PROFIL
 10
-6.799999999871261
 20
218.50000001223771
 30
0.0
  0
VERTEX
  5
14C1
  8
SAPA_PROFIL
 10
-6.799999999871261
 20
218.83662693687799
 30
0.0
 42
-0.5535245743365466
  0
VERTEX
  5
14C2
  8
SAPA_PROFIL
 10
-2.4894457883221999
 20
217.06410761426241
 30
0.0
  0
VERTEX
  5
14C3
  8
SAPA_PROFIL
 10
-2.7767766950048549
 20
216.7767767075797
 30
0.0
 42
0.4142135623730973
  0
VERTEX
  5
14C4
  8
SAPA_PROFIL
 10
-2.7767766950048549
 20
216.42322331698639
 30
0.0
  0
VERTEX
  5
14C5
  8
SAPA_PROFIL
 10
-2.489445788312195
 20
216.13589241029419
 30
0.0
 42
-0.5535245743470389
  0
VERTEX
  5
14C6
  8
SAPA_PROFIL
 10
-6.799999999871261
 20
214.3633730876077
 30
0.0
  0
VERTEX
  5
14C7
  8
SAPA_PROFIL
 10
-6.799999999871261
 20
214.7000000122375
 30
0.0
 42
0.4142135623730951
  0
VERTEX
  5
14C8
  8
SAPA_PROFIL
 10
-7.099999999871442
 20
215.00000001223771
 30
0.0
  0
VERTEX
  5
14C9
  8
SAPA_PROFIL
 10
-7.5999999998705334
 20
215.00000001223771
 30
0.0
 42
0.4142135623730951
  0
VERTEX
  5
14CA
  8
SAPA_PROFIL
 10
-7.8999999998707153
 20
214.7000000122375
 30
0.0
  0
VERTEX
  5
14CB
  8
SAPA_PROFIL
 10
-7.8999999998707153
 20
212.4000000122378
 30
0.0
 42
0.4142135623728732
  0
VERTEX
  5
14CC
  8
SAPA_PROFIL
 10
-7.599999999871442
 20
212.1000000122381
 30
0.0
  0
VERTEX
  5
14CD
  8
SAPA_PROFIL
 10
-2.999999999996589
 20
212.1000000122371
 30
0.0
 42
-0.4142135623728287
  0
VERTEX
  5
14CE
  8
SAPA_PROFIL
 10
-1.9999999999779441
 20
211.100000012224
 30
0.0
  0
VERTEX
  5
14CF
  8
SAPA_PROFIL
 10
-2.0000000002739848
 20
98.600000012210785
 30
0.0
 42
-0.4142135623708751
  0
SEQEND
  5
14D0
  8
SAPA_PROFIL
  0
POLYLINE
  5
E97
  8
SAPA_PROFIL
 66
     1
 10
0.0
 20
0.0
 30
0.0
 70
     1
  0
VERTEX
  5
14D1
  8
SAPA_PROFIL
 10
3.587713241739209
 20
81.999429564748084
 30
0.0
 42
-0.2679491924315167
  0
VERTEX
  5
14D2
  8
SAPA_PROFIL
 10
3.8475208628748869
 20
82.149429564748047
 30
0.0
  0
VERTEX
  5
14D3
  8
SAPA_PROFIL
 10
4.1999999996266411
 20
82.149429564747606
 30
0.0
 42
0.4142135623730951
  0
VERTEX
  5
14D4
  8
SAPA_PROFIL
 10
4.4999999996277316
 20
82.449429564748584
 30
0.0
  0
VERTEX
  5
14D5
  8
SAPA_PROFIL
 10
4.4999999996311431
 20
85.249429561548084
 30
0.0
 42
0.4142135623728859
  0
VERTEX
  5
14D6
  8
SAPA_PROFIL
 10
3.9999999996321089
 20
85.749429561548695
 30
0.0
  0
VERTEX
  5
14D7
  8
SAPA_PROFIL
 10
2.999999999623526
 20
85.749429561550642
 30
0.0
 42
0.4142135623733615
  0
VERTEX
  5
14D8
  8
SAPA_PROFIL
 10
1.9999999996215929
 20
84.749429561551665
 30
0.0
  0
VERTEX
  5
14D9
  8
SAPA_PROFIL
 10
1.9999999996202289
 20
83.383404157763763
 30
0.0
 42
-0.1316524975871477
  0
VERTEX
  5
14DA
  8
SAPA_PROFIL
 10
1.9330127015124381
 20
83.133404157764275
 30
0.0
  0
VERTEX
  5
14DB
  8
SAPA_PROFIL
 10
0.3669872977210957
 20
80.42096859245413
 30
0.0
 42
0.1316524975872168
  0
VERTEX
  5
14DC
  8
SAPA_PROFIL
 10
0.2999999996133056
 20
80.170968592454457
 30
0.0
  0
VERTEX
  5
14DD
  8
SAPA_PROFIL
 10
0.2999999996076781
 20
72.249429561554166
 30
0.0
 42
-0.4142135623729286
  0
VERTEX
  5
14DE
  8
SAPA_PROFIL
 10
-0.0000000003922764
 20
71.949429561554325
 30
0.0
  0
VERTEX
  5
14DF
  8
SAPA_PROFIL
 10
-3.4765584234634721
 20
71.9494295615537
 30
0.0
 42
-0.4244748162096643
  0
VERTEX
  5
14E0
  8
SAPA_PROFIL
 10
-3.7763756715692689
 20
72.259899410564458
 30
0.0
  0
VERTEX
  5
14E1
  8
SAPA_PROFIL
 10
-3.2203914426094111
 20
88.181204612370266
 30
0.0
 42
-0.4142135623730951
  0
VERTEX
  5
14E2
  8
SAPA_PROFIL
 10
-2.910104345492925
 20
88.470552011465259
 30
0.0
  0
VERTEX
  5
14E3
  8
SAPA_PROFIL
 10
-2.3104698492815601
 20
88.449612313443694
 30
0.0
 42
0.6370702608075453
  0
VERTEX
  5
14E4
  8
SAPA_PROFIL
 10
-2.063596774188738
 20
88.934128004147169
 30
0.0
  0
VERTEX
  5
14E5
  8
SAPA_PROFIL
 10
-3.4493321814911151
 20
90.707788443157483
 30
0.0
 42
0.7002075382097091
  0
VERTEX
  5
14E6
  8
SAPA_PROFIL
 10
-4.343032971804007
 20
90.417407453845897
 30
0.0
  0
VERTEX
  5
14E7
  8
SAPA_PROFIL
 10
-5.071393202355579
 20
69.559899410567994
 30
0.0
 42
0.4244748162048541
  0
VERTEX
  5
14E8
  8
SAPA_PROFIL
 10
-4.7715759542546721
 20
69.249429561557236
 30
0.0
  0
VERTEX
  5
14E9
  8
SAPA_PROFIL
 10
-4.0500000003964942
 20
69.249429561545526
 30
0.0
 42
0.4142135623740385
  0
VERTEX
  5
14EA
  8
SAPA_PROFIL
 10
-3.7500000003953451
 20
69.549429561545821
 30
0.0
  0
VERTEX
  5
14EB
  8
SAPA_PROFIL
 10
-3.7500000003954019
 20
70.449429561542843
 30
0.0
 42
-0.4142135623724291
  0
VERTEX
  5
14EC
  8
SAPA_PROFIL
 10
-3.45000000039613
 20
70.749429561542797
 30
0.0
  0
VERTEX
  5
14ED
  8
SAPA_PROFIL
 10
1.4999999996099971
 20
70.749429561554166
 30
0.0
 42
-0.4142135623740522
  0
VERTEX
  5
14EE
  8
SAPA_PROFIL
 10
1.9999999996111339
 20
70.249429561553654
 30
0.0
  0
VERTEX
  5
14EF
  8
SAPA_PROFIL
 10
1.9999999996097131
 20
68.749429561553029
 30
0.0
 42
0.4142135623729374
  0
VERTEX
  5
14F0
  8
SAPA_PROFIL
 10
2.4999999996089741
 20
68.249429561552574
 30
0.0
  0
VERTEX
  5
14F1
  8
SAPA_PROFIL
 10
3.9999999996090301
 20
68.249429561550414
 30
0.0
 42
0.4142135623731454
  0
VERTEX
  5
14F2
  8
SAPA_PROFIL
 10
4.499999999609769
 20
68.749429561549789
 30
0.0
  0
VERTEX
  5
14F3
  8
SAPA_PROFIL
 10
4.4999999996128386
 20
71.149429564748743
 30
0.0
 42
0.414213562373503
  0
VERTEX
  5
14F4
  8
SAPA_PROFIL
 10
3.9999999996127822
 20
71.649429564749425
 30
0.0
  0
VERTEX
  5
14F5
  8
SAPA_PROFIL
 10
3.4999999996069842
 20
71.649429564749369
 30
0.0
 42
-0.414213562373547
  0
VERTEX
  5
14F6
  8
SAPA_PROFIL
 10
2.4999999996069269
 20
72.649429564750847
 30
0.0
  0
VERTEX
  5
14F7
  8
SAPA_PROFIL
 10
2.4999999996176139
 20
79.981480369113854
 30
0.0
 42
-0.1316524975870585
  0
VERTEX
  5
14F8
  8
SAPA_PROFIL
 10
2.566987297725404
 20
80.231480369113171
 30
0.0
  0
SEQEND
  5
14F9
  8
SAPA_PROFIL
  0
POLYLINE
  5
E98
  8
SAPA_PROFIL
 66
     1
 10
0.0
 20
0.0
 30
0.0
 70
     1
  0
VERTEX
  5
14FA
  8
SAPA_PROFIL
 10
44.16561394385716
 20
39.517338624558221
 30
0.0
 42
-0.4769755326981641
  0
VERTEX
  5
14FB
  8
SAPA_PROFIL
 10
44.537270818803037
 20
39.21508580005176
 30
0.0
  0
VERTEX
  5
14FC
  8
SAPA_PROFIL
 10
44.537187210919377
 20
37.711984719289752
 30
0.0
  0
VERTEX
  5
14FD
  8
SAPA_PROFIL
 10
44.48934146092089
 20
37.697466310042643
 30
0.0
 42
0.4142135623730958
  0
VERTEX
  5
14FE
  8
SAPA_PROFIL
 10
44.289377416413501
 20
37.323281354566831
 30
0.0
  0
VERTEX
  5
14FF
  8
SAPA_PROFIL
 10
44.799999999635169
 20
36.002164396416127
 30
0.0
  0
VERTEX
  5
1500
  8
SAPA_PROFIL
 10
44.799999999635169
 20
33.043207544981428
 30
0.0
 42
-0.2596812337299856
  0
VERTEX
  5
1501
  8
SAPA_PROFIL
 10
44.657960206762922
 20
32.788161327671403
 30
0.0
  0
VERTEX
  5
1502
  8
SAPA_PROFIL
 10
43.458135912796173
 20
32.045062700330149
 30
0.0
 42
-0.587935048733185
  0
VERTEX
  5
1503
  8
SAPA_PROFIL
 10
42.999999999636067
 20
32.300000012170123
 30
0.0
  0
VERTEX
  5
1504
  8
SAPA_PROFIL
 10
42.999999999636017
 20
33.700000012170143
 30
0.0
 42
0.4142135623731227
  0
VERTEX
  5
1505
  8
SAPA_PROFIL
 10
42.699999999636113
 20
34.000000012170112
 30
0.0
  0
VERTEX
  5
1506
  8
SAPA_PROFIL
 10
40.299999999635119
 20
34.000000012170119
 30
0.0
 42
0.414213562373109
  0
VERTEX
  5
1507
  8
SAPA_PROFIL
 10
39.999999999635172
 20
33.700000012170143
 30
0.0
  0
VERTEX
  5
1508
  8
SAPA_PROFIL
 10
39.999999999635108
 20
16.300000095947109
 30
0.0
 42
0.4142135623730882
  0
VERTEX
  5
1509
  8
SAPA_PROFIL
 10
40.299999999635119
 20
16.000000095946088
 30
0.0
  0
VERTEX
  5
150A
  8
SAPA_PROFIL
 10
42.69999999963504
 20
16.000000095946099
 30
0.0
 42
0.4142135623720964
  0
VERTEX
  5
150B
  8
SAPA_PROFIL
 10
42.999999999635172
 20
16.3000000959461
 30
0.0
  0
VERTEX
  5
150C
  8
SAPA_PROFIL
 10
42.999999999634248
 20
17.70000009594612
 30
0.0
 42
-0.5877032589246419
  0
VERTEX
  5
150D
  8
SAPA_PROFIL
 10
43.457960206763047
 20
17.95504631325711
 30
0.0
  0
VERTEX
  5
150E
  8
SAPA_PROFIL
 10
44.857960206762961
 20
17.087970956048139
 30
0.0
 42
-0.2596812337300243
  0
VERTEX
  5
150F
  8
SAPA_PROFIL
 10
44.999999999635158
 20
16.832924738738129
 30
0.0
  0
VERTEX
  5
1510
  8
SAPA_PROFIL
 10
44.999999999635158
 20
14.300000012102119
 30
0.0
 42
-0.4142135623731088
  0
VERTEX
  5
1511
  8
SAPA_PROFIL
 10
44.699999999635153
 20
14.000000012102131
 30
0.0
  0
VERTEX
  5
1512
  8
SAPA_PROFIL
 10
-44.700000000021909
 20
14.000000012102131
 30
0.0
 42
-0.6681786379192997
  0
VERTEX
  5
1513
  8
SAPA_PROFIL
 10
-44.912132034607559
 20
14.51213204701267
 30
0.0
  0
VERTEX
  5
1514
  8
SAPA_PROFIL
 10
-43.870710678470367
 20
15.553553403149751
 30
0.0
 42
-0.1989123673796784
  0
VERTEX
  5
1515
  8
SAPA_PROFIL
 10
-43.517157287877147
 20
15.70000001255646
 30
0.0
  0
VERTEX
  5
1516
  8
SAPA_PROFIL
 10
-33.00000000023433
 20
15.700000012556339
 30
0.0
 42
0.4142135623731617
  0
VERTEX
  5
1517
  8
SAPA_PROFIL
 10
-32.500000000234323
 20
16.200000012556458
 30
0.0
  0
VERTEX
  5
1518
  8
SAPA_PROFIL
 10
-32.500000000235019
 20
18.300570456810529
 30
0.0
 42
-0.4241420668413202
  0
VERTEX
  5
1519
  8
SAPA_PROFIL
 10
-31.46622776635623
 20
19.300000012219641
 30
0.0
 42
-0.2988658713671491
  0
VERTEX
  5
151A
  8
SAPA_PROFIL
 10
-30.528947629398111
 20
18.72914188544166
 30
0.0
 42
-0.5507604245839972
  0
VERTEX
  5
151B
  8
SAPA_PROFIL
 10
-30.80000000024522
 20
18.300570456855318
 30
0.0
  0
VERTEX
  5
151C
  8
SAPA_PROFIL
 10
-31.100000000235308
 20
18.300570456837601
 30
0.0
 42
0.4142135623717422
  0
VERTEX
  5
151D
  8
SAPA_PROFIL
 10
-31.300000000222258
 20
18.100570456825611
 30
0.0
  0
VERTEX
  5
151E
  8
SAPA_PROFIL
 10
-31.300000000206222
 20
17.800570456707629
 30
0.0
 42
0.4142135623558401
  0
VERTEX
  5
151F
  8
SAPA_PROFIL
 10
-29.5000000002082
 20
16.000570456810479
 30
0.0
  0
VERTEX
  5
1520
  8
SAPA_PROFIL
 10
-28.79999999999221
 20
16.000570456808529
 30
0.0
 42
0.4142135623563557
  0
VERTEX
  5
1521
  8
SAPA_PROFIL
 10
-26.99999999998936
 20
17.800570456702712
 30
0.0
  0
VERTEX
  5
1522
  8
SAPA_PROFIL
 10
-26.999999999971109
 20
18.100570456819469
 30
0.0
 42
0.4142135623703688
  0
VERTEX
  5
1523
  8
SAPA_PROFIL
 10
-27.199999999959122
 20
18.300570456831618
 30
0.0
  0
VERTEX
  5
1524
  8
SAPA_PROFIL
 10
-27.49999999995131
 20
18.300570456850721
 30
0.0
 42
-0.5507604245876419
  0
VERTEX
  5
1525
  8
SAPA_PROFIL
 10
-27.7710523707965
 20
18.729141885445191
 30
0.0
 42
-0.2988658713647653
  0
VERTEX
  5
1526
  8
SAPA_PROFIL
 10
-26.83377223383722
 20
19.30000001221276
 30
0.0
 42
-0.4241420668424131
  0
VERTEX
  5
1527
  8
SAPA_PROFIL
 10
-25.799999999959208
 20
18.300570456801552
 30
0.0
  0
VERTEX
  5
1528
  8
SAPA_PROFIL
 10
-25.799999999965209
 20
16.30000001250346
 30
0.0
 42
0.4142135623741493
  0
VERTEX
  5
1529
  8
SAPA_PROFIL
 10
-25.499999999965208
 20
16.00000001250158
 30
0.0
  0
VERTEX
  5
152A
  8
SAPA_PROFIL
 10
-0.5000000003471286
 20
16.00000001250158
 30
0.0
 42
0.4142135623730909
  0
VERTEX
  5
152B
  8
SAPA_PROFIL
 10
-0.000000000347157
 20
16.500000012501541
 30
0.0
  0
VERTEX
  5
152C
  8
SAPA_PROFIL
 10
-0.000000000364949
 20
16.8329247387382
 30
0.0
 42
-0.2596812337300516
  0
VERTEX
  5
152D
  8
SAPA_PROFIL
 10
0.1420397925072763
 20
17.087970956048188
 30
0.0
  0
VERTEX
  5
152E
  8
SAPA_PROFIL
 10
1.5420397925070539
 20
17.95504631325711
 30
0.0
 42
-0.5877032589248035
  0
VERTEX
  5
152F
  8
SAPA_PROFIL
 10
1.999999999635079
 20
17.70000009594612
 30
0.0
  0
VERTEX
  5
1530
  8
SAPA_PROFIL
 10
1.999999999635051
 20
16.3000000959461
 30
0.0
 42
0.4142135623721171
  0
VERTEX
  5
1531
  8
SAPA_PROFIL
 10
2.299999999635062
 20
16.000000095947101
 30
0.0
  0
VERTEX
  5
1532
  8
SAPA_PROFIL
 10
4.699999999635124
 20
16.000000095946088
 30
0.0
 42
0.4142135623730951
  0
VERTEX
  5
1533
  8
SAPA_PROFIL
 10
4.9999999996361311
 20
16.300000095947109
 30
0.0
  0
VERTEX
  5
1534
  8
SAPA_PROFIL
 10
4.999999999635051
 20
33.700000012170143
 30
0.0
 42
0.414213562373081
  0
VERTEX
  5
1535
  8
SAPA_PROFIL
 10
4.699999999635124
 20
34.000000012170091
 30
0.0
  0
VERTEX
  5
1536
  8
SAPA_PROFIL
 10
2.299999999635062
 20
34.000000012170112
 30
0.0
 42
0.4142135623740523
  0
VERTEX
  5
1537
  8
SAPA_PROFIL
 10
1.9999999996341411
 20
33.700000012170143
 30
0.0
  0
VERTEX
  5
1538
  8
SAPA_PROFIL
 10
1.999999999634084
 20
32.300000012170123
 30
0.0
 42
-0.5874715141143722
  0
VERTEX
  5
1539
  8
SAPA_PROFIL
 10
1.5422155750083411
 20
32.044845009584272
 30
0.0
  0
VERTEX
  5
153A
  8
SAPA_PROFIL
 10
0.342039792511585
 20
32.788161327671403
 30
0.0
 42
-0.2596812337299913
  0
VERTEX
  5
153B
  8
SAPA_PROFIL
 10
0.1999999996350965
 20
33.043207544981357
 30
0.0
  0
VERTEX
  5
153C
  8
SAPA_PROFIL
 10
0.1999999996350681
 20
36.002164396415921
 30
0.0
  0
VERTEX
  5
153D
  8
SAPA_PROFIL
 10
0.7106225828567716
 20
37.323281354566817
 30
0.0
 42
0.4142135623730951
  0
VERTEX
  5
153E
  8
SAPA_PROFIL
 10
0.5106585383493753
 20
37.697466310042628
 30
0.0
  0
VERTEX
  5
153F
  8
SAPA_PROFIL
 10
0.4628127883508882
 20
37.711984719289731
 30
0.0
  0
VERTEX
  5
1540
  8
SAPA_PROFIL
 10
0.4627291804672354
 20
39.215085800051739
 30
0.0
 42
-0.4769755326981643
  0
VERTEX
  5
1541
  8
SAPA_PROFIL
 10
0.8343860554131055
 20
39.517338624558207
 30
0.0
  0
VERTEX
  5
1542
  8
SAPA_PROFIL
 10
2.6476165260713591
 20
39.13589202843049
 30
0.0
 42
-0.2216946626430191
  0
VERTEX
  5
1543
  8
SAPA_PROFIL
 10
3.188496357548146
 20
38.730083123275691
 30
0.0
  0
VERTEX
  5
1544
  8
SAPA_PROFIL
 10
3.3406302686569092
 20
38.445400840044051
 30
0.0
 42
-0.5773502691897461
  0
VERTEX
  5
1545
  8
SAPA_PROFIL
 10
3.1576765285467299
 20
38.151244539789232
 30
0.0
  0
VERTEX
  5
1546
  8
SAPA_PROFIL
 10
2.8359188003284852
 20
38.161805906016198
 30
0.0
  0
VERTEX
  5
1547
  8
SAPA_PROFIL
 10
1.7513543533567451
 20
36.275962214155143
 30
0.0
  0
VERTEX
  5
1548
  8
SAPA_PROFIL
 10
1.693280716367624
 20
36.084579214161423
 30
0.0
 42
0.7625858545243258
  0
VERTEX
  5
1549
  8
SAPA_PROFIL
 10
2.0236067973846579
 20
35.90000001196394
 30
0.0
 42
-0.2134217652834387
  0
VERTEX
  5
154A
  8
SAPA_PROFIL
 10
2.2472135951347658
 20
36.000000011964083
 30
0.0
  0
VERTEX
  5
154B
  8
SAPA_PROFIL
 10
6.0999999996417813
 20
36.000000012033652
 30
0.0
 42
0.4142135623650482
  0
VERTEX
  5
154C
  8
SAPA_PROFIL
 10
6.399999999636278
 20
36.300000012031113
 30
0.0
  0
VERTEX
  5
154D
  8
SAPA_PROFIL
 10
6.3999999996390073
 20
36.591626519826733
 30
0.0
  0
VERTEX
  5
154E
  8
SAPA_PROFIL
 10
5.4714051309572218
 20
38.20000001203347
 30
0.0
 42
-0.5773502691894928
  0
VERTEX
  5
154F
  8
SAPA_PROFIL
 10
5.6446102117140384
 20
38.500000012033198
 30
0.0
  0
VERTEX
  5
1550
  8
SAPA_PROFIL
 10
7.0302508577678822
 20
38.500000012033198
 30
0.0
 42
-0.2679491924314051
  0
VERTEX
  5
1551
  8
SAPA_PROFIL
 10
7.8962762615526421
 20
38.000000012032743
 30
0.0
  0
VERTEX
  5
1552
  8
SAPA_PROFIL
 10
8.9066392326314912
 20
36.250000012034477
 30
0.0
 42
0.2679491924313525
  0
VERTEX
  5
1553
  8
SAPA_PROFIL
 10
9.3396519345239284
 20
36.000000012034107
 30
0.0
  0
VERTEX
  5
1554
  8
SAPA_PROFIL
 10
35.660348064746323
 20
36.000000012034107
 30
0.0
 42
0.2679491924313525
  0
VERTEX
  5
1555
  8
SAPA_PROFIL
 10
36.09336076663876
 20
36.250000012034477
 30
0.0
  0
VERTEX
  5
1556
  8
SAPA_PROFIL
 10
37.10372373771763
 20
38.000000012032757
 30
0.0
 42
-0.2679491924314051
  0
VERTEX
  5
1557
  8
SAPA_PROFIL
 10
37.96974914150239
 20
38.500000012033233
 30
0.0
  0
VERTEX
  5
1558
  8
SAPA_PROFIL
 10
39.355389787556227
 20
38.500000012033212
 30
0.0
 42
-0.577350269189493
  0
VERTEX
  5
1559
  8
SAPA_PROFIL
 10
39.52859486831305
 20
38.200000012033492
 30
0.0
  0
VERTEX
  5
155A
  8
SAPA_PROFIL
 10
38.599999999631272
 20
36.591626519826747
 30
0.0
  0
VERTEX
  5
155B
  8
SAPA_PROFIL
 10
38.599999999633987
 20
36.30000001203112
 30
0.0
 42
0.414213562365048
  0
VERTEX
  5
155C
  8
SAPA_PROFIL
 10
38.899999999628491
 20
36.000000012033667
 30
0.0
  0
VERTEX
  5
155D
  8
SAPA_PROFIL
 10
42.752786404135499
 20
36.00000001196409
 30
0.0
 42
-0.2134217652834387
  0
VERTEX
  5
155E
  8
SAPA_PROFIL
 10
42.976393201885607
 20
35.900000011963961
 30
0.0
 42
0.7625858545243238
  0
VERTEX
  5
155F
  8
SAPA_PROFIL
 10
43.306719282902641
 20
36.084579214161437
 30
0.0
  0
VERTEX
  5
1560
  8
SAPA_PROFIL
 10
43.248645645913527
 20
36.275962214155157
 30
0.0
  0
VERTEX
  5
1561
  8
SAPA_PROFIL
 10
42.16408119894178
 20
38.161805906016212
 30
0.0
  0
VERTEX
  5
1562
  8
SAPA_PROFIL
 10
41.842323470723542
 20
38.151244539789239
 30
0.0
 42
-0.5773502691897471
  0
VERTEX
  5
1563
  8
SAPA_PROFIL
 10
41.659369730613363
 20
38.445400840044059
 30
0.0
  0
VERTEX
  5
1564
  8
SAPA_PROFIL
 10
41.811503641722119
 20
38.730083123275698
 30
0.0
 42
-0.2216946626430199
  0
VERTEX
  5
1565
  8
SAPA_PROFIL
 10
42.352383473198913
 20
39.135892028430511
 30
0.0
  0
SEQEND
  5
1566
  8
SAPA_PROFIL
  0
POLYLINE
  5
E99
  8
SAPA_PROFIL
 66
     1
 10
0.0
 20
0.0
 30
0.0
 70
     1
  0
VERTEX
  5
1567
  8
SAPA_PROFIL
 10
38.299999999635183
 20
34.000000012034093
 30
0.0
 42
0.4142135623730951
  0
VERTEX
  5
1568
  8
SAPA_PROFIL
 10
37.999999999635172
 20
34.300000012034097
 30
0.0
  0
VERTEX
  5
1569
  8
SAPA_PROFIL
 10
36.499999999610381
 20
34.300000012034097
 30
0.0
 42
0.4142135623398939
  0
VERTEX
  5
156A
  8
SAPA_PROFIL
 10
36.199999999609922
 20
34.000000012068107
 30
0.0
 42
-0.4142135623398802
  0
VERTEX
  5
156B
  8
SAPA_PROFIL
 10
35.899999999609911
 20
33.700000012102102
 30
0.0
  0
VERTEX
  5
156C
  8
SAPA_PROFIL
 10
34.499999999609869
 20
33.700000012101533
 30
0.0
 42
-0.4142135623398524
  0
VERTEX
  5
156D
  8
SAPA_PROFIL
 10
34.199999999609858
 20
34.00000001783711
 30
0.0
  0
VERTEX
  5
156E
  8
SAPA_PROFIL
 10
34.19999999960929
 20
34.000000012068099
 30
0.0
 42
0.4142135623398941
  0
VERTEX
  5
156F
  8
SAPA_PROFIL
 10
33.89999999960979
 20
34.300000012034097
 30
0.0
  0
VERTEX
  5
1570
  8
SAPA_PROFIL
 10
11.099999999664741
 20
34.300000012034097
 30
0.0
 42
0.4142135623398939
  0
VERTEX
  5
1571
  8
SAPA_PROFIL
 10
10.799999999664619
 20
34.000000012068107
 30
0.0
 42
-0.4142135623398317
  0
VERTEX
  5
1572
  8
SAPA_PROFIL
 10
10.499999999664659
 20
33.700000012102102
 30
0.0
  0
VERTEX
  5
1573
  8
SAPA_PROFIL
 10
9.0999999996646608
 20
33.700000012101903
 30
0.0
 42
-0.4142135623398802
  0
VERTEX
  5
1574
  8
SAPA_PROFIL
 10
8.7999999996646494
 20
34.00000001783711
 30
0.0
  0
VERTEX
  5
1575
  8
SAPA_PROFIL
 10
8.799999999664422
 20
34.000000012068099
 30
0.0
 42
0.4142135623398941
  0
VERTEX
  5
1576
  8
SAPA_PROFIL
 10
8.4999999996641833
 20
34.300000012034097
 30
0.0
  0
VERTEX
  5
1577
  8
SAPA_PROFIL
 10
6.9999999996351638
 20
34.300000012034097
 30
0.0
 42
0.4142135623731159
  0
VERTEX
  5
1578
  8
SAPA_PROFIL
 10
6.699999999635124
 20
34.000000012034093
 30
0.0
  0
VERTEX
  5
1579
  8
SAPA_PROFIL
 10
6.699999999635124
 20
16.00000000542714
 30
0.0
 42
0.4142264962912997
  0
VERTEX
  5
157A
  8
SAPA_PROFIL
 10
7.0000132473222294
 20
15.70000000571963
 30
0.0
  0
VERTEX
  5
157B
  8
SAPA_PROFIL
 10
8.4999999996634141
 20
15.70000000571963
 30
0.0
 42
0.4142135654887987
  0
VERTEX
  5
157C
  8
SAPA_PROFIL
 10
8.7999999996633989
 20
16.00000000891092
 30
0.0
 42
-0.4142135654887846
  0
VERTEX
  5
157D
  8
SAPA_PROFIL
 10
9.0999999996646608
 20
16.3000000121021
 30
0.0
  0
VERTEX
  5
157E
  8
SAPA_PROFIL
 10
10.499999999664659
 20
16.300000012102089
 30
0.0
 42
-0.4142135623731367
  0
VERTEX
  5
157F
  8
SAPA_PROFIL
 10
10.79999999966468
 20
16.000000012102159
 30
0.0
 42
0.4142135623731372
  0
VERTEX
  5
1580
  8
SAPA_PROFIL
 10
11.099999999664769
 20
15.70000001210202
 30
0.0
  0
VERTEX
  5
1581
  8
SAPA_PROFIL
 10
33.89999999960979
 20
15.70000001210213
 30
0.0
 42
0.4142135623731367
  0
VERTEX
  5
1582
  8
SAPA_PROFIL
 10
34.199999999609801
 20
16.000000012102181
 30
0.0
 42
-0.4142135623731372
  0
VERTEX
  5
1583
  8
SAPA_PROFIL
 10
34.499999999609869
 20
16.3000000121021
 30
0.0
  0
VERTEX
  5
1584
  8
SAPA_PROFIL
 10
35.899999999609911
 20
16.300000012102089
 30
0.0
 42
-0.4142135654887848
  0
VERTEX
  5
1585
  8
SAPA_PROFIL
 10
36.199999999610313
 20
16.00000000891092
 30
0.0
 42
0.41427398757146
  0
VERTEX
  5
1586
  8
SAPA_PROFIL
 10
36.500061886456642
 20
15.70000001210213
 30
0.0
  0
VERTEX
  5
1587
  8
SAPA_PROFIL
 10
37.999999999635172
 20
15.70000001210213
 30
0.0
 42
0.4142135623730812
  0
VERTEX
  5
1588
  8
SAPA_PROFIL
 10
38.299999999635119
 20
16.00000001210212
 30
0.0
  0
SEQEND
  5
1589
  8
SAPA_PROFIL
  0
POLYLINE
  5
E9A
  8
SAPA_PROFIL
 62
     4
 66
     1
 10
0.0
 20
0.0
 30
0.0
 70
     1
  0
VERTEX
  5
158A
  8
SAPA_PROFIL
 62
     4
 10
41.827485331130653
 20
39.037778482550912
 30
0.0
 42
-0.3137019356282051
  0
VERTEX
  5
158B
  8
SAPA_PROFIL
 62
     4
 10
42.025110956664079
 20
39.318728266097217
 30
0.0
  0
VERTEX
  5
158C
  8
SAPA_PROFIL
 62
     4
 10
44.4579409782081
 20
40.20420597896841
 30
0.0
 42
0.3152987888779321
  0
VERTEX
  5
158D
  8
SAPA_PROFIL
 62
     4
 10
44.721132920877821
 20
40.5800830272848
 30
0.0
  0
VERTEX
  5
158E
  8
SAPA_PROFIL
 62
     4
 10
44.721132920877793
 20
51.000000011998928
 30
0.0
  0
VERTEX
  5
158F
  8
SAPA_PROFIL
 62
     4
 10
44.721132920877729
 20
61.419916996717021
 30
0.0
 42
0.3152987888779395
  0
VERTEX
  5
1590
  8
SAPA_PROFIL
 62
     4
 10
44.457940978208008
 20
61.795794045029389
 30
0.0
  0
VERTEX
  5
1591
  8
SAPA_PROFIL
 62
     4
 10
42.025110956672322
 20
62.681271757897569
 30
0.0
 42
-0.3138982169096283
  0
VERTEX
  5
1592
  8
SAPA_PROFIL
 62
     4
 10
41.827485331131967
 20
62.962221541411751
 30
0.0
 42
-0.0157923906855865
  0
VERTEX
  5
1593
  8
SAPA_PROFIL
 62
     4
 10
41.824082201492367
 20
63.313680073750596
 30
0.0
  0
VERTEX
  5
1594
  8
SAPA_PROFIL
 62
     4
 10
41.685412444385847
 20
63.553863138532897
 30
0.0
 42
-0.5773502691889272
  0
VERTEX
  5
1595
  8
SAPA_PROFIL
 62
     4
 10
41.86727777918064
 20
63.86886313853261
 30
0.0
  0
VERTEX
  5
1596
  8
SAPA_PROFIL
 62
     4
 10
42.134392307393547
 20
63.868863138532717
 30
0.0
  0
VERTEX
  5
1597
  8
SAPA_PROFIL
 62
     4
 10
42.330614373177852
 20
64.200000011998924
 30
0.0
  0
VERTEX
  5
1598
  8
SAPA_PROFIL
 62
     4
 10
42.898258536675293
 20
65.183320149979437
 30
0.0
 42
0.1316524975869703
  0
VERTEX
  5
1599
  8
SAPA_PROFIL
 62
     4
 10
42.926393201879861
 20
65.288320149978261
 30
0.0
  0
VERTEX
  5
159A
  8
SAPA_PROFIL
 62
     4
 10
42.926393201879968
 20
65.600000012000834
 30
0.0
 42
0.4142135623775584
  0
VERTEX
  5
159B
  8
SAPA_PROFIL
 62
     4
 10
42.526393201879657
 20
66.000000011998864
 30
0.0
  0
VERTEX
  5
159C
  8
SAPA_PROFIL
 62
     4
 10
39.126393201879907
 20
66.000000011998935
 30
0.0
 42
0.4142135623773978
  0
VERTEX
  5
159D
  8
SAPA_PROFIL
 62
     4
 10
38.72639320187993
 20
65.600000011998901
 30
0.0
  0
VERTEX
  5
159E
  8
SAPA_PROFIL
 62
     4
 10
38.72639320187993
 20
65.288320149975249
 30
0.0
 42
0.1316524975869708
  0
VERTEX
  5
159F
  8
SAPA_PROFIL
 62
     4
 10
38.75452786708518
 20
65.1833201499783
 30
0.0
  0
VERTEX
  5
15A0
  8
SAPA_PROFIL
 62
     4
 10
39.322248013447208
 20
64.200000011998924
 30
0.0
  0
VERTEX
  5
15A1
  8
SAPA_PROFIL
 62
     4
 10
39.66562368641933
 20
63.605255900328032
 30
0.0
 42
-0.1316524975869772
  0
VERTEX
  5
15A2
  8
SAPA_PROFIL
 62
     4
 10
39.826393201879839
 20
63.005255900324663
 30
0.0
  0
VERTEX
  5
15A3
  8
SAPA_PROFIL
 62
     4
 10
39.826393201879611
 20
62.053391567438233
 30
0.0
 42
0.3152987888780149
  0
VERTEX
  5
15A4
  8
SAPA_PROFIL
 62
     4
 10
40.484373058553999
 20
61.11369894666673
 30
0.0
  0
VERTEX
  5
15A5
  8
SAPA_PROFIL
 62
     4
 10
42.657940978207677
 20
60.322584921756878
 30
0.0
 42
-0.3152987888779391
  0
VERTEX
  5
15A6
  8
SAPA_PROFIL
 62
     4
 10
42.92113292087781
 20
59.946707873442357
 30
0.0
  0
VERTEX
  5
15A7
  8
SAPA_PROFIL
 62
     4
 10
42.92113292087781
 20
51.000000011998928
 30
0.0
  0
VERTEX
  5
15A8
  8
SAPA_PROFIL
 62
     4
 10
42.921132920877859
 20
42.053292150555443
 30
0.0
 42
-0.3152987888779318
  0
VERTEX
  5
15A9
  8
SAPA_PROFIL
 62
     4
 10
42.657940978211442
 20
41.677415102242279
 30
0.0
  0
VERTEX
  5
15AA
  8
SAPA_PROFIL
 62
     4
 10
40.484373058554219
 20
40.886301077331169
 30
0.0
 42
0.3152987888779361
  0
VERTEX
  5
15AB
  8
SAPA_PROFIL
 62
     4
 10
39.826393201879903
 20
39.946608456530583
 30
0.0
  0
VERTEX
  5
15AC
  8
SAPA_PROFIL
 62
     4
 10
39.826393201879903
 20
38.99474412367308
 30
0.0
 42
-0.1316524975869766
  0
VERTEX
  5
15AD
  8
SAPA_PROFIL
 62
     4
 10
39.665623686425178
 20
38.394744123679878
 30
0.0
  0
VERTEX
  5
15AE
  8
SAPA_PROFIL
 62
     4
 10
39.326393201879952
 20
37.807179688971381
 30
0.0
  0
VERTEX
  5
15AF
  8
SAPA_PROFIL
 62
     4
 10
38.75452786708523
 20
36.816679874019449
 30
0.0
 42
0.1316524975869832
  0
VERTEX
  5
15B0
  8
SAPA_PROFIL
 62
     4
 10
38.726393201879993
 20
36.711679874016362
 30
0.0
  0
VERTEX
  5
15B1
  8
SAPA_PROFIL
 62
     4
 10
38.72639320187993
 20
36.400000011998848
 30
0.0
 42
0.414213562371655
  0
VERTEX
  5
15B2
  8
SAPA_PROFIL
 62
     4
 10
39.126393201883893
 20
36.000000011998871
 30
0.0
  0
VERTEX
  5
15B3
  8
SAPA_PROFIL
 62
     4
 10
42.526393201879941
 20
36.000000011998871
 30
0.0
 42
0.4142135623716633
  0
VERTEX
  5
15B4
  8
SAPA_PROFIL
 62
     4
 10
42.926393201879911
 20
36.400000012000888
 30
0.0
  0
VERTEX
  5
15B5
  8
SAPA_PROFIL
 62
     4
 10
42.926393201879911
 20
36.711679874019538
 30
0.0
 42
0.1316524975869709
  0
VERTEX
  5
15B6
  8
SAPA_PROFIL
 62
     4
 10
42.898258536674327
 20
36.816679874020132
 30
0.0
  0
VERTEX
  5
15B7
  8
SAPA_PROFIL
 62
     4
 10
42.134392307393547
 20
38.131136885465132
 30
0.0
  0
VERTEX
  5
15B8
  8
SAPA_PROFIL
 62
     4
 10
41.86727777918064
 20
38.131136885465253
 30
0.0
 42
-0.5773502691889269
  0
VERTEX
  5
15B9
  8
SAPA_PROFIL
 62
     4
 10
41.685412444385847
 20
38.446136885464959
 30
0.0
  0
VERTEX
  5
15BA
  8
SAPA_PROFIL
 62
     4
 10
41.824082201492367
 20
38.686319950247253
 30
0.0
 42
-0.015792390685586
  0
SEQEND
  5
15BB
  8
SAPA_PROFIL
 62
     4
  0
POLYLINE
  5
E9B
  8
SAPA_PROFIL
 62
     4
 66
     1
 10
0.0
 20
0.0
 30
0.0
 70
     1
  0
VERTEX
  5
15BC
  8
SAPA_PROFIL
 62
     4
 10
3.1725146681395548
 20
39.037778482550912
 30
0.0
 42
0.3137019356282051
  0
VERTEX
  5
15BD
  8
SAPA_PROFIL
 62
     4
 10
2.9748890426061361
 20
39.318728266097217
 30
0.0
  0
VERTEX
  5
15BE
  8
SAPA_PROFIL
 62
     4
 10
0.5420590210621157
 20
40.20420597896841
 30
0.0
 42
-0.3152987888779321
  0
VERTEX
  5
15BF
  8
SAPA_PROFIL
 62
     4
 10
0.2788670783923948
 20
40.5800830272848
 30
0.0
  0
VERTEX
  5
15C0
  8
SAPA_PROFIL
 62
     4
 10
0.2788670783924232
 20
51.000000011998928
 30
0.0
  0
VERTEX
  5
15C1
  8
SAPA_PROFIL
 62
     4
 10
0.27886707839248
 20
61.419916996717021
 30
0.0
 42
-0.3152987888779395
  0
VERTEX
  5
15C2
  8
SAPA_PROFIL
 62
     4
 10
0.5420590210622011
 20
61.795794045029389
 30
0.0
  0
VERTEX
  5
15C3
  8
SAPA_PROFIL
 62
     4
 10
2.9748890425978942
 20
62.681271757897569
 30
0.0
 42
0.3138982169096283
  0
VERTEX
  5
15C4
  8
SAPA_PROFIL
 62
     4
 10
3.1725146681382479
 20
62.962221541411751
 30
0.0
 42
0.0157923906855865
  0
VERTEX
  5
15C5
  8
SAPA_PROFIL
 62
     4
 10
3.175917797777843
 20
63.313680073750596
 30
0.0
  0
VERTEX
  5
15C6
  8
SAPA_PROFIL
 62
     4
 10
3.3145875548843691
 20
63.553863138532897
 30
0.0
 42
0.5773502691889272
  0
VERTEX
  5
15C7
  8
SAPA_PROFIL
 62
     4
 10
3.1327222200895761
 20
63.86886313853261
 30
0.0
  0
VERTEX
  5
15C8
  8
SAPA_PROFIL
 62
     4
 10
2.8656076918766611
 20
63.868863138532717
 30
0.0
  0
VERTEX
  5
15C9
  8
SAPA_PROFIL
 62
     4
 10
2.669385626092363
 20
64.200000011998924
 30
0.0
  0
VERTEX
  5
15CA
  8
SAPA_PROFIL
 62
     4
 10
2.1017414625949149
 20
65.183320149979437
 30
0.0
 42
-0.1316524975869703
  0
VERTEX
  5
15CB
  8
SAPA_PROFIL
 62
     4
 10
2.073606797390354
 20
65.288320149978261
 30
0.0
  0
VERTEX
  5
15CC
  8
SAPA_PROFIL
 62
     4
 10
2.0736067973902399
 20
65.600000012000834
 30
0.0
 42
-0.4142135623775584
  0
VERTEX
  5
15CD
  8
SAPA_PROFIL
 62
     4
 10
2.4736067973905591
 20
66.000000011998864
 30
0.0
  0
VERTEX
  5
15CE
  8
SAPA_PROFIL
 62
     4
 10
5.8736067973903081
 20
66.000000011998935
 30
0.0
 42
-0.4142135623773978
  0
VERTEX
  5
15CF
  8
SAPA_PROFIL
 62
     4
 10
6.2736067973902863
 20
65.600000011998901
 30
0.0
  0
VERTEX
  5
15D0
  8
SAPA_PROFIL
 62
     4
 10
6.2736067973902863
 20
65.288320149975249
 30
0.0
 42
-0.1316524975869708
  0
VERTEX
  5
15D1
  8
SAPA_PROFIL
 62
     4
 10
6.2454721321850419
 20
65.1833201499783
 30
0.0
  0
VERTEX
  5
15D2
  8
SAPA_PROFIL
 62
     4
 10
5.677751985823007
 20
64.200000011998924
 30
0.0
  0
VERTEX
  5
15D3
  8
SAPA_PROFIL
 62
     4
 10
5.3343763128508916
 20
63.605255900328032
 30
0.0
 42
0.1316524975869772
  0
VERTEX
  5
15D4
  8
SAPA_PROFIL
 62
     4
 10
5.1736067973903772
 20
63.005255900324663
 30
0.0
  0
VERTEX
  5
15D5
  8
SAPA_PROFIL
 62
     4
 10
5.1736067973906037
 20
62.053391567438233
 30
0.0
 42
-0.3152987888780149
  0
VERTEX
  5
15D6
  8
SAPA_PROFIL
 62
     4
 10
4.5156269407162171
 20
61.11369894666673
 30
0.0
  0
VERTEX
  5
15D7
  8
SAPA_PROFIL
 62
     4
 10
2.3420590210625241
 20
60.322584921756878
 30
0.0
 42
0.3152987888779391
  0
VERTEX
  5
15D8
  8
SAPA_PROFIL
 62
     4
 10
2.0788670783924061
 20
59.946707873442357
 30
0.0
  0
VERTEX
  5
15D9
  8
SAPA_PROFIL
 62
     4
 10
2.0788670783924061
 20
51.000000011998928
 30
0.0
  0
VERTEX
  5
15DA
  8
SAPA_PROFIL
 62
     4
 10
2.0788670783923489
 20
42.053292150555443
 30
0.0
 42
0.3152987888779318
  0
VERTEX
  5
15DB
  8
SAPA_PROFIL
 62
     4
 10
2.3420590210587728
 20
41.677415102242279
 30
0.0
  0
VERTEX
  5
15DC
  8
SAPA_PROFIL
 62
     4
 10
4.5156269407159888
 20
40.886301077331169
 30
0.0
 42
-0.3152987888779361
  0
VERTEX
  5
15DD
  8
SAPA_PROFIL
 62
     4
 10
5.1736067973903204
 20
39.946608456530583
 30
0.0
  0
VERTEX
  5
15DE
  8
SAPA_PROFIL
 62
     4
 10
5.1736067973903204
 20
38.99474412367308
 30
0.0
 42
0.1316524975869766
  0
VERTEX
  5
15DF
  8
SAPA_PROFIL
 62
     4
 10
5.3343763128450368
 20
38.394744123679878
 30
0.0
  0
VERTEX
  5
15E0
  8
SAPA_PROFIL
 62
     4
 10
5.6736067973902626
 20
37.807179688971381
 30
0.0
  0
VERTEX
  5
15E1
  8
SAPA_PROFIL
 62
     4
 10
6.2454721321849851
 20
36.816679874019449
 30
0.0
 42
-0.1316524975869832
  0
VERTEX
  5
15E2
  8
SAPA_PROFIL
 62
     4
 10
6.2736067973902294
 20
36.711679874016362
 30
0.0
  0
VERTEX
  5
15E3
  8
SAPA_PROFIL
 62
     4
 10
6.2736067973902863
 20
36.400000011998848
 30
0.0
 42
-0.414213562371655
  0
VERTEX
  5
15E4
  8
SAPA_PROFIL
 62
     4
 10
5.8736067973863291
 20
36.000000011998871
 30
0.0
  0
VERTEX
  5
15E5
  8
SAPA_PROFIL
 62
     4
 10
2.473606797390274
 20
36.000000011998871
 30
0.0
 42
-0.4142135623716633
  0
VERTEX
  5
15E6
  8
SAPA_PROFIL
 62
     4
 10
2.0736067973902972
 20
36.400000012000888
 30
0.0
  0
VERTEX
  5
15E7
  8
SAPA_PROFIL
 62
     4
 10
2.0736067973902972
 20
36.711679874019538
 30
0.0
 42
-0.1316524975869709
  0
VERTEX
  5
15E8
  8
SAPA_PROFIL
 62
     4
 10
2.1017414625958821
 20
36.816679874020132
 30
0.0
  0
VERTEX
  5
15E9
  8
SAPA_PROFIL
 62
     4
 10
2.8656076918766611
 20
38.131136885465132
 30
0.0
  0
VERTEX
  5
15EA
  8
SAPA_PROFIL
 62
     4
 10
3.1327222200895761
 20
38.131136885465253
 30
0.0
 42
0.5773502691889269
  0
VERTEX
  5
15EB
  8
SAPA_PROFIL
 62
     4
 10
3.3145875548843691
 20
38.446136885464959
 30
0.0
  0
VERTEX
  5
15EC
  8
SAPA_PROFIL
 62
     4
 10
3.1759177977778452
 20
38.686319950247253
 30
0.0
 42
0.015792390685586
  0
SEQEND
  5
15ED
  8
SAPA_PROFIL
 62
     4
  0
POLYLINE
  5
E9C
  8
SAPA_PROFIL
 66
     1
 10
0.0
 20
0.0
 30
0.0
 70
     1
  0
VERTEX
  5
15EE
  8
SAPA_PROFIL
 10
42.754262588046167
 20
66.000000011998921
 30
0.0
 42
0.2134217652834387
  0
VERTEX
  5
15EF
  8
SAPA_PROFIL
 10
42.977869385796282
 20
66.100000011999043
 30
0.0
 42
-0.7625858545243283
  0
VERTEX
  5
15F0
  8
SAPA_PROFIL
 10
43.308195466813302
 20
65.915420809801574
 30
0.0
  0
VERTEX
  5
15F1
  8
SAPA_PROFIL
 10
43.250121829824209
 20
65.724037809807854
 30
0.0
  0
VERTEX
  5
15F2
  8
SAPA_PROFIL
 10
42.165557382852462
 20
63.838194117946799
 30
0.0
  0
VERTEX
  5
15F3
  8
SAPA_PROFIL
 10
41.843799654634211
 20
63.848755484173779
 30
0.0
 42
0.5773502691897439
  0
VERTEX
  5
15F4
  8
SAPA_PROFIL
 10
41.660845914524039
 20
63.554599183918931
 30
0.0
  0
VERTEX
  5
15F5
  8
SAPA_PROFIL
 10
41.812979825632787
 20
63.269916900687292
 30
0.0
 42
0.2216946626430187
  0
VERTEX
  5
15F6
  8
SAPA_PROFIL
 10
42.353859657109602
 20
62.864107995532507
 30
0.0
  0
VERTEX
  5
15F7
  8
SAPA_PROFIL
 10
44.167090127767842
 20
62.48266139940479
 30
0.0
 42
0.4769755326981641
  0
VERTEX
  5
15F8
  8
SAPA_PROFIL
 10
44.53874700271372
 20
62.784914223911258
 30
0.0
  0
VERTEX
  5
15F9
  8
SAPA_PROFIL
 10
44.53866339483006
 20
64.288015304673266
 30
0.0
  0
VERTEX
  5
15FA
  8
SAPA_PROFIL
 10
44.49081764483158
 20
64.302533713920369
 30
0.0
 42
-0.4142135623730948
  0
VERTEX
  5
15FB
  8
SAPA_PROFIL
 10
44.290853600324184
 20
64.67671866939618
 30
0.0
  0
VERTEX
  5
15FC
  8
SAPA_PROFIL
 10
44.799999999635133
 20
65.994016345631394
 30
0.0
  0
VERTEX
  5
15FD
  8
SAPA_PROFIL
 10
44.799999999635133
 20
68.99028326007857
 30
0.0
 42
0.2562769736732679
  0
VERTEX
  5
15FE
  8
SAPA_PROFIL
 10
44.707469001319652
 20
69.158955764289928
 30
0.0
  0
VERTEX
  5
15FF
  8
SAPA_PROFIL
 10
43.461203502161922
 20
69.953008770466369
 30
0.0
 42
0.5920056181179401
  0
VERTEX
  5
1600
  8
SAPA_PROFIL
 10
42.999999999635257
 20
69.700000014149438
 30
0.0
  0
VERTEX
  5
1601
  8
SAPA_PROFIL
 10
42.999999999635257
 20
68.300000014149447
 30
0.0
 42
-0.4142135623729876
  0
VERTEX
  5
1602
  8
SAPA_PROFIL
 10
42.699999999635281
 20
68.00000001414935
 30
0.0
  0
VERTEX
  5
1603
  8
SAPA_PROFIL
 10
40.299999999635283
 20
68.000000014149435
 30
0.0
 42
-0.4142135623730951
  0
VERTEX
  5
1604
  8
SAPA_PROFIL
 10
39.999999999635257
 20
68.300000014149447
 30
0.0
  0
VERTEX
  5
1605
  8
SAPA_PROFIL
 10
39.999999999635257
 20
85.700000014149438
 30
0.0
 42
-0.414213562373088
  0
VERTEX
  5
1606
  8
SAPA_PROFIL
 10
40.299999999635268
 20
86.000000014149464
 30
0.0
  0
VERTEX
  5
1607
  8
SAPA_PROFIL
 10
42.699999999635267
 20
86.000000014149464
 30
0.0
 42
-0.4142135623730882
  0
VERTEX
  5
1608
  8
SAPA_PROFIL
 10
42.99999999963525
 20
85.700000014149438
 30
0.0
  0
VERTEX
  5
1609
  8
SAPA_PROFIL
 10
42.999999999635243
 20
84.300000014149447
 30
0.0
 42
0.5877032589249568
  0
VERTEX
  5
160A
  8
SAPA_PROFIL
 10
43.457960206762969
 20
84.044953796839337
 30
0.0
  0
VERTEX
  5
160B
  8
SAPA_PROFIL
 10
44.905306804387031
 20
84.941352774081636
 30
0.0
 42
0.2596812337300067
  0
VERTEX
  5
160C
  8
SAPA_PROFIL
 10
44.999999999635158
 20
85.111383585621653
 30
0.0
  0
VERTEX
  5
160D
  8
SAPA_PROFIL
 10
44.999999999635172
 20
87.700000018981058
 30
0.0
 42
0.414213562373081
  0
VERTEX
  5
160E
  8
SAPA_PROFIL
 10
44.699999999635168
 20
88.000000018981055
 30
0.0
  0
VERTEX
  5
160F
  8
SAPA_PROFIL
 10
0.2999999996352542
 20
88.000000018981027
 30
0.0
 42
0.4142135623730811
  0
VERTEX
  5
1610
  8
SAPA_PROFIL
 10
-0.0000000003647429
 20
87.700000018981044
 30
0.0
  0
VERTEX
  5
1611
  8
SAPA_PROFIL
 10
-0.0000000003647429
 20
85.111383580790033
 30
0.0
 42
0.2596812337301466
  0
VERTEX
  5
1612
  8
SAPA_PROFIL
 10
0.0946931948833694
 20
84.941352769249931
 30
0.0
  0
VERTEX
  5
1613
  8
SAPA_PROFIL
 10
1.5420397925075591
 20
84.044953792007718
 30
0.0
 42
0.5877032589248845
  0
VERTEX
  5
1614
  8
SAPA_PROFIL
 10
1.999999999635157
 20
84.300000009317841
 30
0.0
  0
VERTEX
  5
1615
  8
SAPA_PROFIL
 10
1.9999999996352571
 20
85.700000009317819
 30
0.0
 42
-0.4142135623732062
  0
VERTEX
  5
1616
  8
SAPA_PROFIL
 10
2.299999999635268
 20
86.000000009317745
 30
0.0
  0
VERTEX
  5
1617
  8
SAPA_PROFIL
 10
4.6999999996352591
 20
86.000000009317915
 30
0.0
 42
-0.4142135623730948
  0
VERTEX
  5
1618
  8
SAPA_PROFIL
 10
4.9999999996351567
 20
85.700000009317819
 30
0.0
  0
VERTEX
  5
1619
  8
SAPA_PROFIL
 10
4.9999999996352642
 20
68.300000009317813
 30
0.0
 42
-0.4142135623730118
  0
VERTEX
  5
161A
  8
SAPA_PROFIL
 10
4.699999999635267
 20
68.000000009317915
 30
0.0
  0
VERTEX
  5
161B
  8
SAPA_PROFIL
 10
2.2999999996352751
 20
68.00000000931783
 30
0.0
 42
-0.4142135623730951
  0
VERTEX
  5
161C
  8
SAPA_PROFIL
 10
1.999999999635264
 20
68.300000009317813
 30
0.0
  0
VERTEX
  5
161D
  8
SAPA_PROFIL
 10
1.9999999996351641
 20
69.700000009317819
 30
0.0
 42
0.5920056172513317
  0
VERTEX
  5
161E
  8
SAPA_PROFIL
 10
1.5387964977577859
 20
69.953008766048626
 30
0.0
  0
VERTEX
  5
161F
  8
SAPA_PROFIL
 10
0.2925309983836683
 20
69.158955764231663
 30
0.0
 42
0.2562769743570819
  0
VERTEX
  5
1620
  8
SAPA_PROFIL
 10
0.199999999635267
 20
68.990283259744459
 30
0.0
  0
VERTEX
  5
1621
  8
SAPA_PROFIL
 10
0.1999999996352528
 20
65.994016345631678
 30
0.0
  0
VERTEX
  5
1622
  8
SAPA_PROFIL
 10
0.7091463989463592
 20
64.676718669396095
 30
0.0
 42
-0.414213562373094
  0
VERTEX
  5
1623
  8
SAPA_PROFIL
 10
0.5091823544389627
 20
64.302533713920297
 30
0.0
  0
VERTEX
  5
1624
  8
SAPA_PROFIL
 10
0.4613366044404757
 20
64.288015304673195
 30
0.0
  0
VERTEX
  5
1625
  8
SAPA_PROFIL
 10
0.4612529965568371
 20
62.784914223911187
 30
0.0
 42
0.4769755326981644
  0
VERTEX
  5
1626
  8
SAPA_PROFIL
 10
0.832909871502693
 20
62.482661399404719
 30
0.0
  0
VERTEX
  5
1627
  8
SAPA_PROFIL
 10
2.6461403421609542
 20
62.864107995532443
 30
0.0
 42
0.2216946626430193
  0
VERTEX
  5
1628
  8
SAPA_PROFIL
 10
3.187020173637733
 20
63.269916900687228
 30
0.0
  0
VERTEX
  5
1629
  8
SAPA_PROFIL
 10
3.3391540847465029
 20
63.554599183918882
 30
0.0
 42
0.577350269189744
  0
VERTEX
  5
162A
  8
SAPA_PROFIL
 10
3.1562003446363169
 20
63.848755484173687
 30
0.0
  0
VERTEX
  5
162B
  8
SAPA_PROFIL
 10
2.8344426164180732
 20
63.83819411794672
 30
0.0
  0
VERTEX
  5
162C
  8
SAPA_PROFIL
 10
1.749878169446333
 20
65.724037809807783
 30
0.0
  0
VERTEX
  5
162D
  8
SAPA_PROFIL
 10
1.6918045324572539
 20
65.915420809801503
 30
0.0
 42
-0.7625858545243295
  0
VERTEX
  5
162E
  8
SAPA_PROFIL
 10
2.0221306134742458
 20
66.100000011998986
 30
0.0
 42
0.2134217652834391
  0
VERTEX
  5
162F
  8
SAPA_PROFIL
 10
2.245737411224368
 20
66.00000001199885
 30
0.0
  0
VERTEX
  5
1630
  8
SAPA_PROFIL
 10
6.0985238157243771
 20
66.00000001199885
 30
0.0
 42
-0.4142135623730049
  0
VERTEX
  5
1631
  8
SAPA_PROFIL
 10
6.3985238157242961
 20
65.700000011998824
 30
0.0
  0
VERTEX
  5
1632
  8
SAPA_PROFIL
 10
6.3985238157243742
 20
65.400000011998728
 30
0.0
  0
VERTEX
  5
1633
  8
SAPA_PROFIL
 10
5.474763385020978
 20
63.800000011998812
 30
0.0
 42
0.577350269189614
  0
VERTEX
  5
1634
  8
SAPA_PROFIL
 10
5.647968465777879
 20
63.500000011998843
 30
0.0
  0
VERTEX
  5
1635
  8
SAPA_PROFIL
 10
7.0336091118329733
 20
63.50000001199885
 30
0.0
 42
0.2679491924311176
  0
VERTEX
  5
1636
  8
SAPA_PROFIL
 10
7.8996345156173708
 20
64.000000011998836
 30
0.0
  0
VERTEX
  5
1637
  8
SAPA_PROFIL
 10
8.9099974851907717
 20
65.750000009385928
 30
0.0
 42
-0.2679491924311136
  0
VERTEX
  5
1638
  8
SAPA_PROFIL
 10
9.3430101870829816
 20
66.000000009385914
 30
0.0
  0
VERTEX
  5
1639
  8
SAPA_PROFIL
 10
35.656989812187632
 20
66.000000009385914
 30
0.0
 42
-0.2679491924311212
  0
VERTEX
  5
163A
  8
SAPA_PROFIL
 10
36.090002514079849
 20
65.750000009385928
 30
0.0
  0
VERTEX
  5
163B
  8
SAPA_PROFIL
 10
37.100365483653071
 20
64.000000011998836
 30
0.0
 42
0.2679491924311269
  0
VERTEX
  5
163C
  8
SAPA_PROFIL
 10
37.966390887437541
 20
63.50000001199885
 30
0.0
  0
VERTEX
  5
163D
  8
SAPA_PROFIL
 10
39.352031533492557
 20
63.500000011998857
 30
0.0
 42
0.5773502691898932
  0
VERTEX
  5
163E
  8
SAPA_PROFIL
 10
39.525236614249451
 20
63.800000011998833
 30
0.0
  0
VERTEX
  5
163F
  8
SAPA_PROFIL
 10
38.601476183546147
 20
65.400000011998742
 30
0.0
  0
VERTEX
  5
1640
  8
SAPA_PROFIL
 10
38.601476183546147
 20
65.700000011998839
 30
0.0
 42
-0.4142135623730916
  0
VERTEX
  5
1641
  8
SAPA_PROFIL
 10
38.901476183546151
 20
66.00000001199885
 30
0.0
  0
SEQEND
  5
1642
  8
SAPA_PROFIL
  0
POLYLINE
  5
E9D
  8
SAPA_PROFIL
 66
     1
 10
0.0
 20
0.0
 30
0.0
 70
     1
  0
VERTEX
  5
1643
  8
SAPA_PROFIL
 10
8.9999999996352571
 20
85.700000018980916
 30
0.0
  0
VERTEX
  5
1644
  8
SAPA_PROFIL
 10
10.399999999635259
 20
85.700000018980944
 30
0.0
 42
0.4142135623731021
  0
VERTEX
  5
1645
  8
SAPA_PROFIL
 10
10.69999999963526
 20
86.000000018980927
 30
0.0
  0
VERTEX
  5
1646
  8
SAPA_PROFIL
 10
10.69999999963526
 20
86.100000018980907
 30
0.0
 42
-0.4142135623730847
  0
VERTEX
  5
1647
  8
SAPA_PROFIL
 10
10.899999999635259
 20
86.300000018980938
 30
0.0
  0
VERTEX
  5
1648
  8
SAPA_PROFIL
 10
34.099999999635173
 20
86.300000018980938
 30
0.0
 42
-0.41421356237309
  0
VERTEX
  5
1649
  8
SAPA_PROFIL
 10
34.299999999635183
 20
86.100000018980936
 30
0.0
  0
VERTEX
  5
164A
  8
SAPA_PROFIL
 10
34.29999999963529
 20
86.000000018980927
 30
0.0
 42
0.4142135623731055
  0
VERTEX
  5
164B
  8
SAPA_PROFIL
 10
34.599999999635287
 20
85.700000018980944
 30
0.0
  0
VERTEX
  5
164C
  8
SAPA_PROFIL
 10
35.999999999635172
 20
85.700000018980944
 30
0.0
 42
0.4142135623731991
  0
VERTEX
  5
164D
  8
SAPA_PROFIL
 10
36.29999999963529
 20
86.000000018980927
 30
0.0
  0
VERTEX
  5
164E
  8
SAPA_PROFIL
 10
36.29999999963529
 20
86.100000018980936
 30
0.0
 42
-0.4142135623730898
  0
VERTEX
  5
164F
  8
SAPA_PROFIL
 10
36.499999999635193
 20
86.300000018980839
 30
0.0
  0
VERTEX
  5
1650
  8
SAPA_PROFIL
 10
37.999999999635151
 20
86.300000018981024
 30
0.0
 42
-0.4142135623731019
  0
VERTEX
  5
1651
  8
SAPA_PROFIL
 10
38.299999999635162
 20
86.000000018981055
 30
0.0
  0
VERTEX
  5
1652
  8
SAPA_PROFIL
 10
38.299999999635162
 20
68.000000015214241
 30
0.0
 42
-0.4142135623730951
  0
VERTEX
  5
1653
  8
SAPA_PROFIL
 10
37.999999999635172
 20
67.700000015214243
 30
0.0
  0
VERTEX
  5
1654
  8
SAPA_PROFIL
 10
36.499999999635271
 20
67.700000015214243
 30
0.0
 42
-0.4142135623730795
  0
VERTEX
  5
1655
  8
SAPA_PROFIL
 10
36.299999999635212
 20
67.900000015214147
 30
0.0
  0
VERTEX
  5
1656
  8
SAPA_PROFIL
 10
36.299999999635297
 20
68.000000014260578
 30
0.0
 42
0.4142135624945151
  0
VERTEX
  5
1657
  8
SAPA_PROFIL
 10
35.999999999510912
 20
68.300000014260576
 30
0.0
  0
VERTEX
  5
1658
  8
SAPA_PROFIL
 10
34.599999999510914
 20
68.30000001368019
 30
0.0
 42
0.414213562251668
  0
VERTEX
  5
1659
  8
SAPA_PROFIL
 10
34.299999999635297
 20
68.000000013680193
 30
0.0
  0
VERTEX
  5
165A
  8
SAPA_PROFIL
 10
34.299999999635297
 20
67.900000015052228
 30
0.0
 42
-0.4142135621360074
  0
VERTEX
  5
165B
  8
SAPA_PROFIL
 10
34.09999999979707
 20
67.700000015052083
 30
0.0
  0
VERTEX
  5
165C
  8
SAPA_PROFIL
 10
10.89999999979716
 20
67.700000008576737
 30
0.0
 42
-0.4142135626101672
  0
VERTEX
  5
165D
  8
SAPA_PROFIL
 10
10.699999999635271
 20
67.900000008576725
 30
0.0
  0
VERTEX
  5
165E
  8
SAPA_PROFIL
 10
10.699999999635271
 20
68.000000009948835
 30
0.0
 42
0.4142135624945428
  0
VERTEX
  5
165F
  8
SAPA_PROFIL
 10
10.39999999951088
 20
68.30000000994886
 30
0.0
  0
VERTEX
  5
1660
  8
SAPA_PROFIL
 10
8.9999999995108766
 20
68.300000009368389
 30
0.0
 42
0.4142135622516402
  0
VERTEX
  5
1661
  8
SAPA_PROFIL
 10
8.699999999635267
 20
68.000000009368364
 30
0.0
  0
VERTEX
  5
1662
  8
SAPA_PROFIL
 10
8.699999999635267
 20
67.900000009165723
 30
0.0
 42
-0.414213562258404
  0
VERTEX
  5
1663
  8
SAPA_PROFIL
 10
8.4999999997135802
 20
67.70000000916572
 30
0.0
  0
VERTEX
  5
1664
  8
SAPA_PROFIL
 10
6.999999999760063
 20
67.700000008541707
 30
0.0
 42
-0.4142135624949383
  0
VERTEX
  5
1665
  8
SAPA_PROFIL
 10
6.699999999635267
 20
68.000000008541718
 30
0.0
  0
VERTEX
  5
1666
  8
SAPA_PROFIL
 10
6.6999999996352591
 20
86.000000018980955
 30
0.0
 42
-0.4142135623730882
  0
VERTEX
  5
1667
  8
SAPA_PROFIL
 10
6.999999999635242
 20
86.300000018980938
 30
0.0
  0
VERTEX
  5
1668
  8
SAPA_PROFIL
 10
8.4999999996352713
 20
86.300000018981024
 30
0.0
 42
-0.4142135623730847
  0
VERTEX
  5
1669
  8
SAPA_PROFIL
 10
8.6999999996352582
 20
86.100000018981035
 30
0.0
  0
VERTEX
  5
166A
  8
SAPA_PROFIL
 10
8.6999999996352582
 20
86.000000018980927
 30
0.0
 42
0.4142135623730881
  0
SEQEND
  5
166B
  8
SAPA_PROFIL
  0
POLYLINE
  5
E9E
  8
SAPA_PROFIL
 62
     2
 66
     1
 10
0.0
 20
0.0
 30
0.0
  0
VERTEX
  5
166C
  8
SAPA_PROFIL
 62
     2
 10
-27.738407623250058
 20
19.300000012212699
 30
0.0
  0
VERTEX
  5
166D
  8
SAPA_PROFIL
 62
     2
 10
-27.930766043242439
 20
18.209081202059959
 30
0.0
  0
VERTEX
  5
166E
  8
SAPA_PROFIL
 62
     2
 10
-27.498969483340829
 20
18.093381662540018
 30
0.0
 42
-0.4430158954262519
  0
VERTEX
  5
166F
  8
SAPA_PROFIL
 62
     2
 10
-27.363492435796729
 20
17.829905234433049
 30
0.0
  0
VERTEX
  5
1670
  8
SAPA_PROFIL
 62
     2
 10
-27.840440629015689
 20
16.55941748651486
 30
0.0
 42
-0.3125358528825162
  0
VERTEX
  5
1671
  8
SAPA_PROFIL
 62
     2
 10
-28.214922342145091
 20
16.300000012213161
 30
0.0
  0
VERTEX
  5
1672
  8
SAPA_PROFIL
 62
     2
 10
-30.085077658055411
 20
16.300000012212699
 30
0.0
 42
-0.3125358528825104
  0
VERTEX
  5
1673
  8
SAPA_PROFIL
 62
     2
 10
-30.45955937118481
 20
16.55941748651486
 30
0.0
  0
VERTEX
  5
1674
  8
SAPA_PROFIL
 62
     2
 10
-30.936507564404
 20
17.829905234433049
 30
0.0
 42
-0.4430158954262519
  0
VERTEX
  5
1675
  8
SAPA_PROFIL
 62
     2
 10
-30.8010305168599
 20
18.093381662539912
 30
0.0
  0
VERTEX
  5
1676
  8
SAPA_PROFIL
 62
     2
 10
-30.369233956958059
 20
18.209081202059959
 30
0.0
  0
VERTEX
  5
1677
  8
SAPA_PROFIL
 62
     2
 10
-30.561500000100299
 20
19.300000012212699
 30
0.0
  0
SEQEND
  5
1678
  8
SAPA_PROFIL
 62
     2
  0
POLYLINE
  5
E9F
  8
SAPA_PROFIL
 62
     2
 66
     1
 10
0.0
 20
0.0
 30
0.0
 70
     1
  0
VERTEX
  5
1679
  8
SAPA_PROFIL
 62
     2
 10
-27.750000000100378
 20
19.300000012212699
 30
0.0
 42
0.285714285714282
  0
VERTEX
  5
167A
  8
SAPA_PROFIL
 62
     2
 10
-30.55000000010034
 20
19.300000012212699
 30
0.0
  0
VERTEX
  5
167B
  8
SAPA_PROFIL
 62
     2
 10
-32.623780169488207
 20
19.300000012213161
 30
0.0
 42
-0.3882600129940275
  0
VERTEX
  5
167C
  8
SAPA_PROFIL
 62
     2
 10
-32.922581666829622
 20
19.573210738492719
 30
0.0
  0
VERTEX
  5
167D
  8
SAPA_PROFIL
 62
     2
 10
-33.388791590756121
 20
23.47321073849281
 30
0.0
 42
-0.4406523138893894
  0
VERTEX
  5
167E
  8
SAPA_PROFIL
 62
     2
 10
-33.089990093414258
 20
23.800000012212699
 30
0.0
  0
VERTEX
  5
167F
  8
SAPA_PROFIL
 62
     2
 10
-31.380198096493931
 20
23.800000012212699
 30
0.0
 42
-0.3394542588634375
  0
VERTEX
  5
1680
  8
SAPA_PROFIL
 62
     2
 10
-31.090420348607381
 20
23.577645725743711
 30
0.0
  0
VERTEX
  5
1681
  8
SAPA_PROFIL
 62
     2
 10
-30.888040620675952
 20
23.360059943576118
 30
0.0
 42
0.3394542588633663
  0
VERTEX
  5
1682
  8
SAPA_PROFIL
 62
     2
 10
-30.598262872789181
 20
23.137705657107119
 30
0.0
  0
VERTEX
  5
1683
  8
SAPA_PROFIL
 62
     2
 10
-27.70173712741132
 20
23.137705657107119
 30
0.0
 42
0.3394542588634373
  0
VERTEX
  5
1684
  8
SAPA_PROFIL
 62
     2
 10
-27.411959379524781
 20
23.360059943576118
 30
0.0
  0
VERTEX
  5
1685
  8
SAPA_PROFIL
 62
     2
 10
-27.209579651593341
 20
23.577645725743711
 30
0.0
 42
-0.3394542588633662
  0
VERTEX
  5
1686
  8
SAPA_PROFIL
 62
     2
 10
-26.919801903706571
 20
23.800000012212699
 30
0.0
  0
VERTEX
  5
1687
  8
SAPA_PROFIL
 62
     2
 10
-25.210009906786471
 20
23.800000012212699
 30
0.0
 42
-0.4406523138893994
  0
VERTEX
  5
1688
  8
SAPA_PROFIL
 62
     2
 10
-24.911208409444839
 20
23.47321073849281
 30
0.0
  0
VERTEX
  5
1689
  8
SAPA_PROFIL
 62
     2
 10
-25.377418333371111
 20
19.573210738492719
 30
0.0
 42
-0.3882600129940462
  0
VERTEX
  5
168A
  8
SAPA_PROFIL
 62
     2
 10
-25.676219830712508
 20
19.300000012212699
 30
0.0
  0
VERTEX
  5
168B
  8
SAPA_PROFIL
 62
     2
 10
-27.738407623250058
 20
19.300000012212699
 30
0.0
  0
SEQEND
  5
168C
  8
SAPA_PROFIL
 62
     2
  0
POLYLINE
  5
EA0
  8
SAPA_PROFIL
 66
     1
 10
0.0
 20
0.0
 30
0.0
 70
     1
  0
VERTEX
  5
168D
  8
SAPA_PROFIL
 10
69.545009242738004
 20
65.999999922235702
 30
0.0
  0
VERTEX
  5
168E
  8
SAPA_PROFIL
 10
73.397795647238226
 20
65.999999922235702
 30
0.0
 42
-0.4142135623731784
  0
VERTEX
  5
168F
  8
SAPA_PROFIL
 10
73.69779564723838
 20
65.699999922235634
 30
0.0
  0
VERTEX
  5
1690
  8
SAPA_PROFIL
 10
73.697795647238195
 20
65.399999922235281
 30
0.0
  0
VERTEX
  5
1691
  8
SAPA_PROFIL
 10
72.774035216534813
 20
63.799999922235664
 30
0.0
 42
0.5773502691887984
  0
VERTEX
  5
1692
  8
SAPA_PROFIL
 10
72.947240297291827
 20
63.499999922235702
 30
0.0
  0
VERTEX
  5
1693
  8
SAPA_PROFIL
 10
74.332880943346808
 20
63.499999922235702
 30
0.0
 42
0.2679491924311038
  0
VERTEX
  5
1694
  8
SAPA_PROFIL
 10
75.198906347131228
 20
63.999999922235531
 30
0.0
  0
VERTEX
  5
1695
  8
SAPA_PROFIL
 10
76.209269316704408
 20
65.749999919622496
 30
0.0
 42
-0.2679491932396976
  0
VERTEX
  5
1696
  8
SAPA_PROFIL
 10
76.642282020105611
 20
65.999999919622525
 30
0.0
  0
VERTEX
  5
1697
  8
SAPA_PROFIL
 10
109.28038475353659
 20
65.999999919622553
 30
0.0
  0
VERTEX
  5
1698
  8
SAPA_PROFIL
 10
109.7999999958073
 20
66.299999919622564
 30
0.0
  0
VERTEX
  5
1699
  8
SAPA_PROFIL
 10
110.319615238078
 20
65.999999919622553
 30
0.0
  0
VERTEX
  5
169A
  8
SAPA_PROFIL
 10
110.6577179715093
 20
65.999999919622553
 30
0.0
 42
-0.2679491916226445
  0
VERTEX
  5
169B
  8
SAPA_PROFIL
 10
111.09073067340159
 20
65.749999922235645
 30
0.0
  0
VERTEX
  5
169C
  8
SAPA_PROFIL
 10
112.1010936444835
 20
63.999999922235652
 30
0.0
 42
0.2679491924311319
  0
VERTEX
  5
169D
  8
SAPA_PROFIL
 10
112.9671190482679
 20
63.499999922235709
 30
0.0
  0
VERTEX
  5
169E
  8
SAPA_PROFIL
 10
114.352759694323
 20
63.499999922235709
 30
0.0
 42
0.5773502691893683
  0
VERTEX
  5
169F
  8
SAPA_PROFIL
 10
114.52596477508
 20
63.799999922235671
 30
0.0
  0
VERTEX
  5
16A0
  8
SAPA_PROFIL
 10
113.6022043443765
 20
65.399999922235693
 30
0.0
  0
VERTEX
  5
16A1
  8
SAPA_PROFIL
 10
113.6022043443765
 20
65.699999922235634
 30
0.0
 42
-0.4142135623732059
  0
VERTEX
  5
16A2
  8
SAPA_PROFIL
 10
113.9022043443767
 20
65.999999922235702
 30
0.0
  0
VERTEX
  5
16A3
  8
SAPA_PROFIL
 10
117.75499074887681
 20
65.999999922235702
 30
0.0
 42
0.2134217652834387
  0
VERTEX
  5
16A4
  8
SAPA_PROFIL
 10
117.9785975466269
 20
66.099999922235838
 30
0.0
 42
-0.7625858545243238
  0
VERTEX
  5
16A5
  8
SAPA_PROFIL
 10
118.30892362764391
 20
65.915420720038355
 30
0.0
  0
VERTEX
  5
16A6
  8
SAPA_PROFIL
 10
118.2508499906548
 20
65.724037720044635
 30
0.0
  0
VERTEX
  5
16A7
  8
SAPA_PROFIL
 10
117.1662855436831
 20
63.838194028183572
 30
0.0
  0
VERTEX
  5
16A8
  8
SAPA_PROFIL
 10
116.8445278154649
 20
63.848755394410553
 30
0.0
 42
0.5773502691897466
  0
VERTEX
  5
16A9
  8
SAPA_PROFIL
 10
116.66157407535469
 20
63.554599094155712
 30
0.0
  0
VERTEX
  5
16AA
  8
SAPA_PROFIL
 10
116.8137079864634
 20
63.269916810924059
 30
0.0
 42
0.221694662643019
  0
VERTEX
  5
16AB
  8
SAPA_PROFIL
 10
117.3545878179402
 20
62.864107905769281
 30
0.0
  0
VERTEX
  5
16AC
  8
SAPA_PROFIL
 10
119.1678182885985
 20
62.482661309641557
 30
0.0
 42
0.476975532698164
  0
VERTEX
  5
16AD
  8
SAPA_PROFIL
 10
119.5394751635443
 20
62.784914134148032
 30
0.0
  0
VERTEX
  5
16AE
  8
SAPA_PROFIL
 10
119.5393915556607
 20
64.288015214910047
 30
0.0
  0
VERTEX
  5
16AF
  8
SAPA_PROFIL
 10
119.4915458056622
 20
64.302533624157149
 30
0.0
 42
-0.4142135623730951
  0
VERTEX
  5
16B0
  8
SAPA_PROFIL
 10
119.2915817611548
 20
64.676718579632961
 30
0.0
  0
VERTEX
  5
16B1
  8
SAPA_PROFIL
 10
119.7999999958074
 20
65.992132299478314
 30
0.0
  0
VERTEX
  5
16B2
  8
SAPA_PROFIL
 10
119.7999999958073
 20
68.99028316065187
 30
0.0
 42
0.2562769736732418
  0
VERTEX
  5
16B3
  8
SAPA_PROFIL
 10
119.7074689974918
 20
69.158955664863214
 30
0.0
  0
VERTEX
  5
16B4
  8
SAPA_PROFIL
 10
118.4612034983341
 20
69.953008671039839
 30
0.0
 42
0.5920056181180006
  0
VERTEX
  5
16B5
  8
SAPA_PROFIL
 10
117.9999999958074
 20
69.699999914722753
 30
0.0
  0
VERTEX
  5
16B6
  8
SAPA_PROFIL
 10
117.9999999958074
 20
68.299999914722775
 30
0.0
 42
-0.4142135623731505
  0
VERTEX
  5
16B7
  8
SAPA_PROFIL
 10
117.6999999958074
 20
67.999999914722736
 30
0.0
  0
VERTEX
  5
16B8
  8
SAPA_PROFIL
 10
115.2999999958075
 20
67.999999914722864
 30
0.0
 42
-0.4142135623729841
  0
VERTEX
  5
16B9
  8
SAPA_PROFIL
 10
114.9999999958075
 20
68.299999914722775
 30
0.0
  0
VERTEX
  5
16BA
  8
SAPA_PROFIL
 10
114.9999999958075
 20
85.699999914722838
 30
0.0
 42
-0.4142135623730882
  0
VERTEX
  5
16BB
  8
SAPA_PROFIL
 10
115.2999999958075
 20
85.999999914722849
 30
0.0
  0
VERTEX
  5
16BC
  8
SAPA_PROFIL
 10
117.6999999958076
 20
85.999999914722835
 30
0.0
 42
-0.4142135623730118
  0
VERTEX
  5
16BD
  8
SAPA_PROFIL
 10
117.9999999958074
 20
85.699999914722767
 30
0.0
  0
VERTEX
  5
16BE
  8
SAPA_PROFIL
 10
117.9999999958074
 20
84.299999914722747
 30
0.0
 42
0.5877032589249656
  0
VERTEX
  5
16BF
  8
SAPA_PROFIL
 10
118.457960202935
 20
84.044953697412637
 30
0.0
  0
VERTEX
  5
16C0
  8
SAPA_PROFIL
 10
119.9053068005593
 20
84.941352674654837
 30
0.0
 42
0.2596812337301635
  0
VERTEX
  5
16C1
  8
SAPA_PROFIL
 10
119.9999999958075
 20
85.111383486194939
 30
0.0
  0
VERTEX
  5
16C2
  8
SAPA_PROFIL
 10
119.9999999958075
 20
87.799999919554367
 30
0.0
 42
0.4142135623732095
  0
VERTEX
  5
16C3
  8
SAPA_PROFIL
 10
119.7999999958075
 20
87.999999919554355
 30
0.0
  0
VERTEX
  5
16C4
  8
SAPA_PROFIL
 10
76.999998501657316
 20
87.999999919554355
 30
0.0
 42
0.4142135623730067
  0
VERTEX
  5
16C5
  8
SAPA_PROFIL
 10
74.999999995807329
 20
86.000001413704837
 30
0.0
  0
VERTEX
  5
16C6
  8
SAPA_PROFIL
 10
74.999999995807329
 20
80.299999172479431
 30
0.0
 42
-0.4142135623729993
  0
VERTEX
  5
16C7
  8
SAPA_PROFIL
 10
74.000000742882307
 20
79.299999919554324
 30
0.0
  0
VERTEX
  5
16C8
  8
SAPA_PROFIL
 10
66.49898099580723
 20
79.299999919554438
 30
0.0
 42
0.4142135623730951
  0
VERTEX
  5
16C9
  8
SAPA_PROFIL
 10
65.498980995807315
 20
78.299999919554423
 30
0.0
  0
VERTEX
  5
16CA
  8
SAPA_PROFIL
 10
65.498980995807315
 20
77.802224770139446
 30
0.0
 42
0.4142135623729598
  0
VERTEX
  5
16CB
  8
SAPA_PROFIL
 10
65.698980846392331
 20
77.602224919554345
 30
0.0
  0
VERTEX
  5
16CC
  8
SAPA_PROFIL
 10
67.296831558985986
 20
77.60222491955443
 30
0.0
 42
-0.414645992438811
  0
VERTEX
  5
16CD
  8
SAPA_PROFIL
 10
67.496831341074454
 20
77.401929683093897
 30
0.0
  0
VERTEX
  5
16CE
  8
SAPA_PROFIL
 10
67.498387848016321
 20
65.996303356253563
 30
0.0
  0
VERTEX
  5
16CF
  8
SAPA_PROFIL
 10
68.008418230459625
 20
64.676718579632961
 30
0.0
 42
-0.4142135623730951
  0
VERTEX
  5
16D0
  8
SAPA_PROFIL
 10
67.808454185952229
 20
64.302533624157149
 30
0.0
  0
VERTEX
  5
16D1
  8
SAPA_PROFIL
 10
67.760608435953742
 20
64.288015214910047
 30
0.0
  0
VERTEX
  5
16D2
  8
SAPA_PROFIL
 10
67.760524828070103
 20
62.784914134148039
 30
0.0
 42
0.4769755326981641
  0
VERTEX
  5
16D3
  8
SAPA_PROFIL
 10
68.132181703015945
 20
62.482661309641571
 30
0.0
  0
VERTEX
  5
16D4
  8
SAPA_PROFIL
 10
69.945412173674214
 20
62.864107905769288
 30
0.0
 42
0.2216946626430191
  0
VERTEX
  5
16D5
  8
SAPA_PROFIL
 10
70.486292005151
 20
63.26991681092408
 30
0.0
  0
VERTEX
  5
16D6
  8
SAPA_PROFIL
 10
70.638425916259763
 20
63.554599094155733
 30
0.0
 42
0.5773502691897466
  0
VERTEX
  5
16D7
  8
SAPA_PROFIL
 10
70.455472176149584
 20
63.848755394410539
 30
0.0
  0
VERTEX
  5
16D8
  8
SAPA_PROFIL
 10
70.133714447931339
 20
63.83819402818358
 30
0.0
  0
VERTEX
  5
16D9
  8
SAPA_PROFIL
 10
69.0491500009596
 20
65.724037720044635
 30
0.0
  0
VERTEX
  5
16DA
  8
SAPA_PROFIL
 10
68.991076363970521
 20
65.915420720038355
 30
0.0
 42
-0.7625858545243257
  0
VERTEX
  5
16DB
  8
SAPA_PROFIL
 10
69.321402444987513
 20
66.099999922235838
 30
0.0
 42
0.2134217652834391
  0
SEQEND
  5
16DC
  8
SAPA_PROFIL
  0
POLYLINE
  5
EA1
  8
SAPA_PROFIL
 66
     1
 10
0.0
 20
0.0
 30
0.0
 70
     1
  0
VERTEX
  5
16DD
  8
SAPA_PROFIL
 10
76.999999995807315
 20
85.999999922772545
 30
0.0
  0
VERTEX
  5
16DE
  8
SAPA_PROFIL
 10
78.999999995807329
 20
85.999999922772545
 30
0.0
  0
VERTEX
  5
16DF
  8
SAPA_PROFIL
 10
78.999999995807244
 20
85.899999922772636
 30
0.0
 42
0.4142135623732199
  0
VERTEX
  5
16E0
  8
SAPA_PROFIL
 10
79.199999995807232
 20
85.699999922772548
 30
0.0
  0
VERTEX
  5
16E1
  8
SAPA_PROFIL
 10
80.799999995807227
 20
85.699999922772435
 30
0.0
 42
0.4142135623727933
  0
VERTEX
  5
16E2
  8
SAPA_PROFIL
 10
80.999999995807329
 20
85.899999922772324
 30
0.0
  0
VERTEX
  5
16E3
  8
SAPA_PROFIL
 10
80.999999995807329
 20
85.999999922772545
 30
0.0
  0
VERTEX
  5
16E4
  8
SAPA_PROFIL
 10
109.2999999958073
 20
85.999999922772545
 30
0.0
  0
VERTEX
  5
16E5
  8
SAPA_PROFIL
 10
109.2999999958075
 20
85.899999922772537
 30
0.0
 42
0.4142135623730847
  0
VERTEX
  5
16E6
  8
SAPA_PROFIL
 10
109.4999999958075
 20
85.699999922772548
 30
0.0
  0
VERTEX
  5
16E7
  8
SAPA_PROFIL
 10
111.09999999580749
 20
85.699999922772648
 30
0.0
 42
0.4142135623730847
  0
VERTEX
  5
16E8
  8
SAPA_PROFIL
 10
111.2999999958074
 20
85.899999922772537
 30
0.0
  0
VERTEX
  5
16E9
  8
SAPA_PROFIL
 10
111.2999999958074
 20
85.999999922772545
 30
0.0
  0
VERTEX
  5
16EA
  8
SAPA_PROFIL
 10
112.9999999958075
 20
85.999999922772545
 30
0.0
 42
-0.4142135623730675
  0
VERTEX
  5
16EB
  8
SAPA_PROFIL
 10
113.2999999958073
 20
85.699999922772548
 30
0.0
  0
VERTEX
  5
16EC
  8
SAPA_PROFIL
 10
113.2999999958073
 20
68.099999922772554
 30
0.0
 42
-0.4142135623730673
  0
VERTEX
  5
16ED
  8
SAPA_PROFIL
 10
112.9999999958075
 20
67.799999922772599
 30
0.0
  0
VERTEX
  5
16EE
  8
SAPA_PROFIL
 10
111.2999999958072
 20
67.799999922772599
 30
0.0
  0
VERTEX
  5
16EF
  8
SAPA_PROFIL
 10
111.2999999958074
 20
68.099999922772611
 30
0.0
 42
0.4142135623731367
  0
VERTEX
  5
16F0
  8
SAPA_PROFIL
 10
111.09999999580729
 20
68.299999922772599
 30
0.0
  0
VERTEX
  5
16F1
  8
SAPA_PROFIL
 10
109.4999999958075
 20
68.299999922772656
 30
0.0
 42
0.4142135623732407
  0
VERTEX
  5
16F2
  8
SAPA_PROFIL
 10
109.2999999958074
 20
68.09999992277244
 30
0.0
  0
VERTEX
  5
16F3
  8
SAPA_PROFIL
 10
109.2999999958075
 20
67.799999922772543
 30
0.0
  0
VERTEX
  5
16F4
  8
SAPA_PROFIL
 10
80.99999999580713
 20
67.799999922772543
 30
0.0
  0
VERTEX
  5
16F5
  8
SAPA_PROFIL
 10
80.999999995807286
 20
68.099999922772611
 30
0.0
 42
0.4142135623732199
  0
VERTEX
  5
16F6
  8
SAPA_PROFIL
 10
80.799999995807227
 20
68.299999922772599
 30
0.0
  0
VERTEX
  5
16F7
  8
SAPA_PROFIL
 10
79.199999995807232
 20
68.299999922772514
 30
0.0
 42
0.4142135623733448
  0
VERTEX
  5
16F8
  8
SAPA_PROFIL
 10
78.999999995807329
 20
68.09999992277244
 30
0.0
  0
VERTEX
  5
16F9
  8
SAPA_PROFIL
 10
78.999999995807329
 20
67.799999922772599
 30
0.0
  0
VERTEX
  5
16FA
  8
SAPA_PROFIL
 10
69.499999995807528
 20
67.799999922772599
 30
0.0
 42
-0.4142135623732061
  0
VERTEX
  5
16FB
  8
SAPA_PROFIL
 10
69.199999995807431
 20
68.099999922772611
 30
0.0
  0
VERTEX
  5
16FC
  8
SAPA_PROFIL
 10
69.199999995807431
 20
77.299999919554438
 30
0.0
 42
-0.4142135623732059
  0
VERTEX
  5
16FD
  8
SAPA_PROFIL
 10
69.499999995807528
 20
77.599999919554421
 30
0.0
  0
VERTEX
  5
16FE
  8
SAPA_PROFIL
 10
74.000000742882222
 20
77.599999919554421
 30
0.0
 42
0.414213562373052
  0
VERTEX
  5
16FF
  8
SAPA_PROFIL
 10
76.699999995807232
 20
80.299999172479247
 30
0.0
  0
VERTEX
  5
1700
  8
SAPA_PROFIL
 10
76.699999995807232
 20
85.699999922772548
 30
0.0
 42
-0.4142135623732891
  0
SEQEND
  5
1701
  8
SAPA_PROFIL
  0
POLYLINE
  5
EA2
  8
SAPA_PROFIL
 66
     1
 10
0.0
 20
0.0
 30
0.1
 70
     1
  0
VERTEX
  5
1702
  8
SAPA_PROFIL
 10
75.20038252713104
 20
37.999999922318132
 30
0.1
 42
0.2679491924311119
  0
VERTEX
  5
1703
  8
SAPA_PROFIL
 10
74.334357123346734
 20
38.499999922318032
 30
0.1
  0
VERTEX
  5
1704
  8
SAPA_PROFIL
 10
72.948716477291612
 20
38.499999922317912
 30
0.1
 42
0.5773502691897603
  0
VERTEX
  5
1705
  8
SAPA_PROFIL
 10
72.775511396534824
 20
38.199999922317957
 30
0.1
  0
VERTEX
  5
1706
  8
SAPA_PROFIL
 10
73.699271827238135
 20
36.599999922318283
 30
0.1
  0
VERTEX
  5
1707
  8
SAPA_PROFIL
 10
73.699271827238135
 20
36.299999922318086
 30
0.1
 42
-0.4142135623728995
  0
VERTEX
  5
1708
  8
SAPA_PROFIL
 10
73.399271827238209
 20
35.999999922318032
 30
0.1
  0
VERTEX
  5
1709
  8
SAPA_PROFIL
 10
69.54648542273813
 20
35.999999922318082
 30
0.1
 42
0.2134217652834313
  0
VERTEX
  5
170A
  8
SAPA_PROFIL
 10
69.32287862498805
 20
35.89999992231796
 30
0.1
 42
-0.7625858545243313
  0
VERTEX
  5
170B
  8
SAPA_PROFIL
 10
68.992552543971016
 20
36.084579124515429
 30
0.1
  0
VERTEX
  5
170C
  8
SAPA_PROFIL
 10
69.050626180960094
 20
36.275962124509149
 30
0.1
  0
VERTEX
  5
170D
  8
SAPA_PROFIL
 10
70.135190627931848
 20
38.161805816370197
 30
0.1
  0
VERTEX
  5
170E
  8
SAPA_PROFIL
 10
70.456948356150122
 20
38.15124445014321
 30
0.1
 42
0.5773502691897454
  0
VERTEX
  5
170F
  8
SAPA_PROFIL
 10
70.639902096260272
 20
38.445400750398072
 30
0.1
  0
VERTEX
  5
1710
  8
SAPA_PROFIL
 10
70.487768185151538
 20
38.730083033629711
 30
0.1
 42
0.2216946626430149
  0
VERTEX
  5
1711
  8
SAPA_PROFIL
 10
69.946888353674723
 20
39.135891938784503
 30
0.1
  0
VERTEX
  5
1712
  8
SAPA_PROFIL
 10
68.133657883016497
 20
39.517338534912213
 30
0.1
 42
0.476975532698164
  0
VERTEX
  5
1713
  8
SAPA_PROFIL
 10
67.762001008070584
 20
39.215085710405752
 30
0.1
  0
VERTEX
  5
1714
  8
SAPA_PROFIL
 10
67.762084615954251
 20
37.711984629643737
 30
0.1
  0
VERTEX
  5
1715
  8
SAPA_PROFIL
 10
67.809930365952724
 20
37.697466220396642
 30
0.1
 42
-0.4142135623730875
  0
VERTEX
  5
1716
  8
SAPA_PROFIL
 10
68.009894410460134
 20
37.323281264920823
 30
0.1
  0
VERTEX
  5
1717
  8
SAPA_PROFIL
 10
67.499999991896402
 20
36.004048263158793
 30
0.1
  0
VERTEX
  5
1718
  8
SAPA_PROFIL
 10
67.499999991896402
 20
16.268521525661949
 30
0.1
 42
-0.3821712090170728
  0
VERTEX
  5
1719
  8
SAPA_PROFIL
 10
67.233119775990644
 20
15.970355330560031
 30
0.1
  0
VERTEX
  5
171A
  8
SAPA_PROFIL
 10
60.655148991896432
 20
15.444515795595031
 30
0.1
 42
-0.4469990000000183
  0
VERTEX
  5
171B
  8
SAPA_PROFIL
 10
60.09994899189644
 20
15.941459795595041
 30
0.1
  0
VERTEX
  5
171C
  8
SAPA_PROFIL
 10
60.099948991896412
 20
17.699999922318039
 30
0.1
 42
0.414213999999998
  0
VERTEX
  5
171D
  8
SAPA_PROFIL
 10
59.09994899189644
 20
18.69999992231805
 30
0.1
  0
VERTEX
  5
171E
  8
SAPA_PROFIL
 10
58.832404991896432
 20
18.699999922318032
 30
0.1
 42
0.2896899999999924
  0
VERTEX
  5
171F
  8
SAPA_PROFIL
 10
57.92889699189638
 20
18.128571922318031
 30
0.1
 42
0.5507599999999715
  0
VERTEX
  5
1720
  8
SAPA_PROFIL
 10
58.199948991896413
 20
17.699999922318039
 30
0.1
  0
VERTEX
  5
1721
  8
SAPA_PROFIL
 10
58.499948991896382
 20
17.69999992231805
 30
0.1
 42
-0.4142140000001125
  0
VERTEX
  5
1722
  8
SAPA_PROFIL
 10
58.699948991896413
 20
17.499999922318029
 30
0.1
  0
VERTEX
  5
1723
  8
SAPA_PROFIL
 10
58.699948991896413
 20
16.39999992231801
 30
0.1
 42
-0.4142139999999939
  0
VERTEX
  5
1724
  8
SAPA_PROFIL
 10
57.699948991896399
 20
15.39999992231801
 30
0.1
  0
VERTEX
  5
1725
  8
SAPA_PROFIL
 10
55.399999991896429
 20
15.39999992231801
 30
0.1
 42
-0.4142139999999918
  0
VERTEX
  5
1726
  8
SAPA_PROFIL
 10
54.399999991896443
 20
16.39999992231801
 30
0.1
  0
VERTEX
  5
1727
  8
SAPA_PROFIL
 10
54.399999991896408
 20
17.499999922318029
 30
0.1
 42
-0.4142139999999378
  0
VERTEX
  5
1728
  8
SAPA_PROFIL
 10
54.599999991896418
 20
17.699999922318039
 30
0.1
  0
VERTEX
  5
1729
  8
SAPA_PROFIL
 10
54.899948991896387
 20
17.699999922318071
 30
0.1
 42
0.5507599999999796
  0
VERTEX
  5
172A
  8
SAPA_PROFIL
 10
55.171001991896411
 20
18.12857192231802
 30
0.1
 42
0.2896900000000027
  0
VERTEX
  5
172B
  8
SAPA_PROFIL
 10
54.267493991896401
 20
18.69999992231805
 30
0.1
  0
VERTEX
  5
172C
  8
SAPA_PROFIL
 10
53.999999991896402
 20
18.699999922318021
 30
0.1
 42
0.4142140000000064
  0
VERTEX
  5
172D
  8
SAPA_PROFIL
 10
52.999999991896402
 20
17.699999922318039
 30
0.1
  0
VERTEX
  5
172E
  8
SAPA_PROFIL
 10
52.999999991896459
 20
15.99999992231804
 30
0.1
 42
0.4142139999999918
  0
VERTEX
  5
172F
  8
SAPA_PROFIL
 10
54.999999991896402
 20
13.999999922318031
 30
0.1
  0
VERTEX
  5
1730
  8
SAPA_PROFIL
 10
141.49999999189629
 20
13.999999922318089
 30
0.1
 42
0.414213999999996
  0
VERTEX
  5
1731
  8
SAPA_PROFIL
 10
141.9999999918964
 20
14.499999922318059
 30
0.1
  0
VERTEX
  5
1732
  8
SAPA_PROFIL
 10
141.99999999189629
 20
18.19999992231805
 30
0.1
 42
0.4142139999999107
  0
VERTEX
  5
1733
  8
SAPA_PROFIL
 10
141.69999999189639
 20
18.499999922318029
 30
0.1
  0
VERTEX
  5
1734
  8
SAPA_PROFIL
 10
140.93245499189629
 20
18.49999992231804
 30
0.1
 42
0.2896899999999864
  0
VERTEX
  5
1735
  8
SAPA_PROFIL
 10
140.02894699189639
 20
17.92857192231806
 30
0.1
 42
0.5507600000000558
  0
VERTEX
  5
1736
  8
SAPA_PROFIL
 10
140.29999999189641
 20
17.499999922318029
 30
0.1
  0
VERTEX
  5
1737
  8
SAPA_PROFIL
 10
140.49999999189629
 20
17.499999922318029
 30
0.1
 42
-0.414214000000073
  0
VERTEX
  5
1738
  8
SAPA_PROFIL
 10
140.79999999189641
 20
17.19999992231805
 30
0.1
  0
VERTEX
  5
1739
  8
SAPA_PROFIL
 10
140.79999999189641
 20
15.69999992231805
 30
0.1
 42
-0.414213999999996
  0
VERTEX
  5
173A
  8
SAPA_PROFIL
 10
140.29999999189641
 20
15.19999992231805
 30
0.1
  0
VERTEX
  5
173B
  8
SAPA_PROFIL
 10
136.99999999189629
 20
15.19999992231805
 30
0.1
 42
-0.4142140000000002
  0
VERTEX
  5
173C
  8
SAPA_PROFIL
 10
136.49999999189629
 20
15.69999992231805
 30
0.1
  0
VERTEX
  5
173D
  8
SAPA_PROFIL
 10
136.49999999189629
 20
17.19999992231805
 30
0.1
 42
-0.4142140000000209
  0
VERTEX
  5
173E
  8
SAPA_PROFIL
 10
136.79999999189641
 20
17.499999922318029
 30
0.1
  0
VERTEX
  5
173F
  8
SAPA_PROFIL
 10
136.99999999189629
 20
17.499999922317969
 30
0.1
 42
0.5507600000000054
  0
VERTEX
  5
1740
  8
SAPA_PROFIL
 10
137.2710519918964
 20
17.928571922318071
 30
0.1
 42
0.2896899999999876
  0
VERTEX
  5
1741
  8
SAPA_PROFIL
 10
136.36754399189641
 20
18.49999992231804
 30
0.1
  0
VERTEX
  5
1742
  8
SAPA_PROFIL
 10
135.37007299189639
 20
18.499999922318018
 30
0.1
 42
0.0436609999999812
  0
VERTEX
  5
1743
  8
SAPA_PROFIL
 10
135.28324799189639
 20
18.492403922318029
 30
0.1
  0
VERTEX
  5
1744
  8
SAPA_PROFIL
 10
133.71317599189641
 20
18.21555792231802
 30
0.1
 42
0.839099999999979
  0
VERTEX
  5
1745
  8
SAPA_PROFIL
 10
133.71317599189641
 20
17.230749922318029
 30
0.1
  0
VERTEX
  5
1746
  8
SAPA_PROFIL
 10
134.88682399189639
 20
17.023804922318039
 30
0.1
 42
-0.363970000000042
  0
VERTEX
  5
1747
  8
SAPA_PROFIL
 10
135.29999999189641
 20
16.531400922318021
 30
0.1
  0
VERTEX
  5
1748
  8
SAPA_PROFIL
 10
135.29999999189641
 20
15.71999992231806
 30
0.1
 42
-0.4373279999999794
  0
VERTEX
  5
1749
  8
SAPA_PROFIL
 10
134.76090499189641
 20
15.22153092231803
 30
0.1
  0
VERTEX
  5
174A
  8
SAPA_PROFIL
 10
120.28784671848
 20
15.788329408713899
 30
0.1
 42
-0.4023941355298093
  0
VERTEX
  5
174B
  8
SAPA_PROFIL
 10
119.9999999918963
 20
16.08808313754021
 30
0.1
  0
VERTEX
  5
174C
  8
SAPA_PROFIL
 10
119.9999999918963
 20
16.88861692231804
 30
0.1
 42
0.2596810000001062
  0
VERTEX
  5
174D
  8
SAPA_PROFIL
 10
119.9053069918963
 20
17.058647922318031
 30
0.1
  0
VERTEX
  5
174E
  8
SAPA_PROFIL
 10
118.4579599918964
 20
17.955046922318122
 30
0.1
 42
0.5877030000000574
  0
VERTEX
  5
174F
  8
SAPA_PROFIL
 10
117.9999999918963
 20
17.699999922317989
 30
0.1
  0
VERTEX
  5
1750
  8
SAPA_PROFIL
 10
117.9999999918963
 20
16.29999992231804
 30
0.1
 42
-0.4142139999999773
  0
VERTEX
  5
1751
  8
SAPA_PROFIL
 10
117.69999999189641
 20
15.999999922318031
 30
0.1
  0
VERTEX
  5
1752
  8
SAPA_PROFIL
 10
115.2999999918964
 20
15.999999922318031
 30
0.1
 42
-0.4142140000000855
  0
VERTEX
  5
1753
  8
SAPA_PROFIL
 10
114.9999999918963
 20
16.29999992231804
 30
0.1
  0
VERTEX
  5
1754
  8
SAPA_PROFIL
 10
114.9999999918963
 20
33.699999922318021
 30
0.1
 42
-0.4142140000001167
  0
VERTEX
  5
1755
  8
SAPA_PROFIL
 10
115.2999999918964
 20
33.99999992231804
 30
0.1
  0
VERTEX
  5
1756
  8
SAPA_PROFIL
 10
117.69999999189641
 20
33.99999992231804
 30
0.1
 42
-0.4142140000000127
  0
VERTEX
  5
1757
  8
SAPA_PROFIL
 10
117.9999999918963
 20
33.699999922318021
 30
0.1
  0
VERTEX
  5
1758
  8
SAPA_PROFIL
 10
117.9999999918963
 20
32.299999922318037
 30
0.1
 42
0.5920054160710117
  0
VERTEX
  5
1759
  8
SAPA_PROFIL
 10
118.4612033300112
 20
32.04699140956027
 30
0.1
  0
VERTEX
  5
175A
  8
SAPA_PROFIL
 10
119.7074689862241
 20
32.841044439381932
 30
0.1
 42
0.2562769852931595
  0
VERTEX
  5
175B
  8
SAPA_PROFIL
 10
119.7999999918963
 20
33.009716948280548
 30
0.1
  0
VERTEX
  5
175C
  8
SAPA_PROFIL
 10
119.7999999918963
 20
36.004048263159078
 30
0.1
  0
VERTEX
  5
175D
  8
SAPA_PROFIL
 10
119.2901055733327
 20
37.323281264920773
 30
0.1
 42
-0.4142135623730875
  0
VERTEX
  5
175E
  8
SAPA_PROFIL
 10
119.49006961784011
 20
37.697466220396578
 30
0.1
  0
VERTEX
  5
175F
  8
SAPA_PROFIL
 10
119.53791536783859
 20
37.71198462964368
 30
0.1
  0
VERTEX
  5
1760
  8
SAPA_PROFIL
 10
119.5379989757222
 20
39.215085710405688
 30
0.1
 42
0.4769755326981641
  0
VERTEX
  5
1761
  8
SAPA_PROFIL
 10
119.1663421007763
 20
39.517338534912163
 30
0.1
  0
VERTEX
  5
1762
  8
SAPA_PROFIL
 10
117.35311163011809
 20
39.135891938784468
 30
0.1
 42
0.2216946626430149
  0
VERTEX
  5
1763
  8
SAPA_PROFIL
 10
116.81223179864131
 20
38.73008303362964
 30
0.1
  0
VERTEX
  5
1764
  8
SAPA_PROFIL
 10
116.6600978875325
 20
38.445400750398008
 30
0.1
 42
0.5773502691897454
  0
VERTEX
  5
1765
  8
SAPA_PROFIL
 10
116.84305162764269
 20
38.151244450143182
 30
0.1
  0
VERTEX
  5
1766
  8
SAPA_PROFIL
 10
117.164809355861
 20
38.161805816370148
 30
0.1
  0
VERTEX
  5
1767
  8
SAPA_PROFIL
 10
118.24937380283269
 20
36.275962124509121
 30
0.1
  0
VERTEX
  5
1768
  8
SAPA_PROFIL
 10
118.3074474398218
 20
36.0845791245154
 30
0.1
 42
-0.7625858545243333
  0
VERTEX
  5
1769
  8
SAPA_PROFIL
 10
117.97712135880479
 20
35.899999922317917
 30
0.1
 42
0.2134217652834462
  0
VERTEX
  5
176A
  8
SAPA_PROFIL
 10
117.7535145610547
 20
35.999999922318032
 30
0.1
  0
VERTEX
  5
176B
  8
SAPA_PROFIL
 10
113.90072815655461
 20
35.999999922318032
 30
0.1
 42
-0.4142135623729119
  0
VERTEX
  5
176C
  8
SAPA_PROFIL
 10
113.60072815655469
 20
36.299999922318086
 30
0.1
  0
VERTEX
  5
176D
  8
SAPA_PROFIL
 10
113.60072815655469
 20
36.599999922318283
 30
0.1
  0
VERTEX
  5
176E
  8
SAPA_PROFIL
 10
114.52448858725811
 20
38.1999999223179
 30
0.1
 42
0.5773502691897497
  0
VERTEX
  5
176F
  8
SAPA_PROFIL
 10
114.3512835065012
 20
38.499999922318032
 30
0.1
  0
VERTEX
  5
1770
  8
SAPA_PROFIL
 10
112.9656428604461
 20
38.499999922318203
 30
0.1
 42
0.2679491924311136
  0
VERTEX
  5
1771
  8
SAPA_PROFIL
 10
112.0996174566616
 20
37.999999922318203
 30
0.1
  0
VERTEX
  5
1772
  8
SAPA_PROFIL
 10
111.0892544855795
 20
36.249999922317997
 30
0.1
 42
-0.2679491924310958
  0
VERTEX
  5
1773
  8
SAPA_PROFIL
 10
110.65624178368731
 20
35.999999922318032
 30
0.1
  0
VERTEX
  5
1774
  8
SAPA_PROFIL
 10
110.319615234167
 20
35.999999922318032
 30
0.1
  0
VERTEX
  5
1775
  8
SAPA_PROFIL
 10
109.7999999918963
 20
35.699999922318042
 30
0.1
  0
VERTEX
  5
1776
  8
SAPA_PROFIL
 10
109.2803847496256
 20
35.999999922318032
 30
0.1
  0
VERTEX
  5
1777
  8
SAPA_PROFIL
 10
76.643758200105481
 20
35.999999922318032
 30
0.1
 42
-0.2679491924311033
  0
VERTEX
  5
1778
  8
SAPA_PROFIL
 10
76.210745498213271
 20
36.249999922317997
 30
0.1
  0
SEQEND
  5
1779
  8
SAPA_PROFIL
  0
POLYLINE
  5
EA3
  8
SAPA_PROFIL
 66
     1
 10
0.0
 20
0.0
 30
0.1
 70
     1
  0
VERTEX
  5
177A
  8
SAPA_PROFIL
 10
111.0999999918964
 20
33.699999922318021
 30
0.1
  0
VERTEX
  5
177B
  8
SAPA_PROFIL
 10
109.4999999918964
 20
33.699999922318021
 30
0.1
 42
-0.4142135623730951
  0
VERTEX
  5
177C
  8
SAPA_PROFIL
 10
109.2999999918964
 20
33.899999922318038
 30
0.1
  0
VERTEX
  5
177D
  8
SAPA_PROFIL
 10
109.2999999918964
 20
34.20000000619136
 30
0.1
  0
VERTEX
  5
177E
  8
SAPA_PROFIL
 10
73.199999991896391
 20
34.20000000619136
 30
0.1
  0
VERTEX
  5
177F
  8
SAPA_PROFIL
 10
73.199999991896391
 20
33.899999922318038
 30
0.1
 42
-0.4142135623730951
  0
VERTEX
  5
1780
  8
SAPA_PROFIL
 10
72.999999991896402
 20
33.699999922318021
 30
0.1
  0
VERTEX
  5
1781
  8
SAPA_PROFIL
 10
71.399999991896379
 20
33.699999922318021
 30
0.1
 42
-0.4142135623730951
  0
VERTEX
  5
1782
  8
SAPA_PROFIL
 10
71.199999991896391
 20
33.899999922318038
 30
0.1
  0
VERTEX
  5
1783
  8
SAPA_PROFIL
 10
71.199999991896391
 20
34.20000000619136
 30
0.1
  0
VERTEX
  5
1784
  8
SAPA_PROFIL
 10
69.499999991896402
 20
34.200000006191381
 30
0.1
 42
0.4142135623730951
  0
VERTEX
  5
1785
  8
SAPA_PROFIL
 10
69.199999991896391
 20
33.900000006191362
 30
0.1
  0
VERTEX
  5
1786
  8
SAPA_PROFIL
 10
69.199999991896391
 20
16.29999992231804
 30
0.1
 42
0.4142135623730951
  0
VERTEX
  5
1787
  8
SAPA_PROFIL
 10
69.499999991896402
 20
15.999999922318031
 30
0.1
  0
VERTEX
  5
1788
  8
SAPA_PROFIL
 10
71.199999991896391
 20
15.999999922318031
 30
0.1
  0
VERTEX
  5
1789
  8
SAPA_PROFIL
 10
71.199999991896391
 20
16.099999922318059
 30
0.1
 42
-0.4142135623730951
  0
VERTEX
  5
178A
  8
SAPA_PROFIL
 10
71.399999991896379
 20
16.29999992231804
 30
0.1
  0
VERTEX
  5
178B
  8
SAPA_PROFIL
 10
72.999999991896402
 20
16.29999992231804
 30
0.1
 42
-0.4142135623730951
  0
VERTEX
  5
178C
  8
SAPA_PROFIL
 10
73.199999991896391
 20
16.099999922318059
 30
0.1
  0
VERTEX
  5
178D
  8
SAPA_PROFIL
 10
73.199999991896391
 20
15.999999922318031
 30
0.1
  0
VERTEX
  5
178E
  8
SAPA_PROFIL
 10
109.2999999918964
 20
15.999999922318031
 30
0.1
  0
VERTEX
  5
178F
  8
SAPA_PROFIL
 10
109.2999999918964
 20
16.099999922318059
 30
0.1
 42
-0.4142135623730951
  0
VERTEX
  5
1790
  8
SAPA_PROFIL
 10
109.4999999918964
 20
16.29999992231804
 30
0.1
  0
VERTEX
  5
1791
  8
SAPA_PROFIL
 10
111.0999999918964
 20
16.29999992231804
 30
0.1
 42
-0.4142135623730951
  0
VERTEX
  5
1792
  8
SAPA_PROFIL
 10
111.2999999918964
 20
16.099999922318059
 30
0.1
  0
VERTEX
  5
1793
  8
SAPA_PROFIL
 10
111.2999999918964
 20
15.999999922318031
 30
0.1
  0
VERTEX
  5
1794
  8
SAPA_PROFIL
 10
112.9999999918964
 20
15.99999992231804
 30
0.1
 42
0.4142135623730951
  0
VERTEX
  5
1795
  8
SAPA_PROFIL
 10
113.2999999918964
 20
16.29999992231804
 30
0.1
  0
VERTEX
  5
1796
  8
SAPA_PROFIL
 10
113.2999999918964
 20
33.900000006191362
 30
0.1
 42
0.4142135623730951
  0
VERTEX
  5
1797
  8
SAPA_PROFIL
 10
112.9999999918964
 20
34.20000000619136
 30
0.1
  0
VERTEX
  5
1798
  8
SAPA_PROFIL
 10
111.2999999918964
 20
34.20000000619136
 30
0.1
  0
VERTEX
  5
1799
  8
SAPA_PROFIL
 10
111.2999999918964
 20
33.899999922318038
 30
0.1
 42
-0.4142135623730951
  0
SEQEND
  5
179A
  8
SAPA_PROFIL
  0
POLYLINE
  5
EA4
  8
SAPA_PROFIL
 62
     4
 66
     1
 10
0.0
 20
0.0
 30
0.0
 70
     1
  0
VERTEX
  5
179B
  8
SAPA_PROFIL
 62
     4
 10
116.8311658558778
 20
39.0377783927877
 30
0.0
 42
-0.3137019356282051
  0
VERTEX
  5
179C
  8
SAPA_PROFIL
 62
     4
 10
117.0287914814112
 20
39.318728176334012
 30
0.0
  0
VERTEX
  5
179D
  8
SAPA_PROFIL
 62
     4
 10
119.4616215029552
 20
40.204205889205198
 30
0.0
 42
0.3152987888779321
  0
VERTEX
  5
179E
  8
SAPA_PROFIL
 62
     4
 10
119.724813445625
 20
40.580082937521588
 30
0.0
  0
VERTEX
  5
179F
  8
SAPA_PROFIL
 62
     4
 10
119.7248134456249
 20
50.999999922235723
 30
0.0
  0
VERTEX
  5
17A0
  8
SAPA_PROFIL
 62
     4
 10
119.7248134456249
 20
61.419916906953809
 30
0.0
 42
0.3152987888779395
  0
VERTEX
  5
17A1
  8
SAPA_PROFIL
 62
     4
 10
119.4616215029552
 20
61.795793955266177
 30
0.0
  0
VERTEX
  5
17A2
  8
SAPA_PROFIL
 62
     4
 10
117.0287914814195
 20
62.68127166813435
 30
0.0
 42
-0.3138982169096283
  0
VERTEX
  5
17A3
  8
SAPA_PROFIL
 62
     4
 10
116.83116585587911
 20
62.962221451648539
 30
0.0
 42
-0.0157923906855865
  0
VERTEX
  5
17A4
  8
SAPA_PROFIL
 62
     4
 10
116.8277627262395
 20
63.313679983987392
 30
0.0
  0
VERTEX
  5
17A5
  8
SAPA_PROFIL
 62
     4
 10
116.689092969133
 20
63.553863048769692
 30
0.0
 42
-0.5773502691889272
  0
VERTEX
  5
17A6
  8
SAPA_PROFIL
 62
     4
 10
116.87095830392779
 20
63.868863048769398
 30
0.0
  0
VERTEX
  5
17A7
  8
SAPA_PROFIL
 62
     4
 10
117.13807283214069
 20
63.868863048769512
 30
0.0
  0
VERTEX
  5
17A8
  8
SAPA_PROFIL
 62
     4
 10
117.33429489792501
 20
64.199999922235705
 30
0.0
  0
VERTEX
  5
17A9
  8
SAPA_PROFIL
 62
     4
 10
117.9019390614225
 20
65.183320060216218
 30
0.0
 42
0.1316524975869703
  0
VERTEX
  5
17AA
  8
SAPA_PROFIL
 62
     4
 10
117.930073726627
 20
65.288320060215042
 30
0.0
  0
VERTEX
  5
17AB
  8
SAPA_PROFIL
 62
     4
 10
117.9300737266271
 20
65.599999922237615
 30
0.0
 42
0.4142135623775584
  0
VERTEX
  5
17AC
  8
SAPA_PROFIL
 62
     4
 10
117.5300737266268
 20
65.999999922235645
 30
0.0
  0
VERTEX
  5
17AD
  8
SAPA_PROFIL
 62
     4
 10
114.130073726627
 20
65.999999922235716
 30
0.0
 42
0.4142135623773978
  0
VERTEX
  5
17AE
  8
SAPA_PROFIL
 62
     4
 10
113.7300737266271
 20
65.599999922235682
 30
0.0
  0
VERTEX
  5
17AF
  8
SAPA_PROFIL
 62
     4
 10
113.7300737266271
 20
65.28832006021203
 30
0.0
 42
0.1316524975869708
  0
VERTEX
  5
17B0
  8
SAPA_PROFIL
 62
     4
 10
113.7582083918323
 20
65.183320060215081
 30
0.0
  0
VERTEX
  5
17B1
  8
SAPA_PROFIL
 62
     4
 10
114.3259285381944
 20
64.199999922235705
 30
0.0
  0
VERTEX
  5
17B2
  8
SAPA_PROFIL
 62
     4
 10
114.66930421116651
 20
63.60525581056482
 30
0.0
 42
-0.1316524975869772
  0
VERTEX
  5
17B3
  8
SAPA_PROFIL
 62
     4
 10
114.83007372662701
 20
63.005255810561451
 30
0.0
  0
VERTEX
  5
17B4
  8
SAPA_PROFIL
 62
     4
 10
114.83007372662679
 20
62.053391477675021
 30
0.0
 42
0.3152987888780149
  0
VERTEX
  5
17B5
  8
SAPA_PROFIL
 62
     4
 10
115.4880535833011
 20
61.113698856903518
 30
0.0
  0
VERTEX
  5
17B6
  8
SAPA_PROFIL
 62
     4
 10
117.6616215029548
 20
60.322584831993673
 30
0.0
 42
-0.3152987888779391
  0
VERTEX
  5
17B7
  8
SAPA_PROFIL
 62
     4
 10
117.92481344562491
 20
59.946707783679152
 30
0.0
  0
VERTEX
  5
17B8
  8
SAPA_PROFIL
 62
     4
 10
117.92481344562491
 20
50.999999922235723
 30
0.0
  0
VERTEX
  5
17B9
  8
SAPA_PROFIL
 62
     4
 10
117.92481344562501
 20
42.053292060792216
 30
0.0
 42
-0.3152987888779318
  0
VERTEX
  5
17BA
  8
SAPA_PROFIL
 62
     4
 10
117.6616215029586
 20
41.677415012479067
 30
0.0
  0
VERTEX
  5
17BB
  8
SAPA_PROFIL
 62
     4
 10
115.48805358330139
 20
40.886300987567957
 30
0.0
 42
0.3152987888779361
  0
VERTEX
  5
17BC
  8
SAPA_PROFIL
 62
     4
 10
114.83007372662701
 20
39.946608366767357
 30
0.0
  0
VERTEX
  5
17BD
  8
SAPA_PROFIL
 62
     4
 10
114.83007372662701
 20
38.994744033909868
 30
0.0
 42
-0.1316524975869766
  0
VERTEX
  5
17BE
  8
SAPA_PROFIL
 62
     4
 10
114.6693042111723
 20
38.394744033916673
 30
0.0
  0
VERTEX
  5
17BF
  8
SAPA_PROFIL
 62
     4
 10
114.33007372662711
 20
37.807179599208169
 30
0.0
  0
VERTEX
  5
17C0
  8
SAPA_PROFIL
 62
     4
 10
113.7582083918324
 20
36.816679784256237
 30
0.0
 42
0.1316524975869832
  0
VERTEX
  5
17C1
  8
SAPA_PROFIL
 62
     4
 10
113.7300737266271
 20
36.71167978425315
 30
0.0
  0
VERTEX
  5
17C2
  8
SAPA_PROFIL
 62
     4
 10
113.7300737266271
 20
36.399999922235637
 30
0.0
 42
0.414213562371655
  0
VERTEX
  5
17C3
  8
SAPA_PROFIL
 62
     4
 10
114.130073726631
 20
35.999999922235659
 30
0.0
  0
VERTEX
  5
17C4
  8
SAPA_PROFIL
 62
     4
 10
117.53007372662709
 20
35.999999922235659
 30
0.0
 42
0.4142135623716633
  0
VERTEX
  5
17C5
  8
SAPA_PROFIL
 62
     4
 10
117.9300737266271
 20
36.399999922237683
 30
0.0
  0
VERTEX
  5
17C6
  8
SAPA_PROFIL
 62
     4
 10
117.9300737266271
 20
36.711679784256333
 30
0.0
 42
0.1316524975869709
  0
VERTEX
  5
17C7
  8
SAPA_PROFIL
 62
     4
 10
117.9019390614215
 20
36.81667978425692
 30
0.0
  0
VERTEX
  5
17C8
  8
SAPA_PROFIL
 62
     4
 10
117.13807283214069
 20
38.13113679570192
 30
0.0
  0
VERTEX
  5
17C9
  8
SAPA_PROFIL
 62
     4
 10
116.87095830392779
 20
38.131136795702041
 30
0.0
 42
-0.5773502691889269
  0
VERTEX
  5
17CA
  8
SAPA_PROFIL
 62
     4
 10
116.689092969133
 20
38.446136795701747
 30
0.0
  0
VERTEX
  5
17CB
  8
SAPA_PROFIL
 62
     4
 10
116.8277627262395
 20
38.686319860484041
 30
0.0
 42
-0.015792390685586
  0
SEQEND
  5
17CC
  8
SAPA_PROFIL
 62
     4
  0
POLYLINE
  5
EA5
  8
SAPA_PROFIL
 62
     4
 66
     1
 10
0.0
 20
0.0
 30
0.1
 70
     1
1001
RC_PROFILE
1002
{
1000
Contour
1002
}
  0
VERTEX
  5
17CD
  8
SAPA_PROFIL
 62
     4
 10
70.613859382482261
 20
63.543863048769673
 30
0.1
 42
0.5773502691895099
  0
VERTEX
  5
17CE
  8
SAPA_PROFIL
 62
     4
 10
70.431994047687581
 20
63.858863048769379
 30
0.1
  0
VERTEX
  5
17CF
  8
SAPA_PROFIL
 62
     4
 10
70.164879519474553
 20
63.858863048769379
 30
0.1
  0
VERTEX
  5
17D0
  8
SAPA_PROFIL
 62
     4
 10
69.372878625006152
 20
65.23999992218593
 30
0.1
  0
VERTEX
  5
17D1
  8
SAPA_PROFIL
 62
     4
 10
69.372878624997512
 20
65.599999922186285
 30
0.1
 42
-0.4142135623731464
  0
VERTEX
  5
17D2
  8
SAPA_PROFIL
 62
     4
 10
69.772878624988167
 20
65.999999922195812
 30
0.1
  0
VERTEX
  5
17D3
  8
SAPA_PROFIL
 62
     4
 10
73.172878624988144
 20
65.999999922275563
 30
0.1
 42
-0.4142135623728774
  0
VERTEX
  5
17D4
  8
SAPA_PROFIL
 62
     4
 10
73.572878624997671
 20
65.599999922285306
 30
0.1
  0
VERTEX
  5
17D5
  8
SAPA_PROFIL
 62
     4
 10
73.572878625006183
 20
65.239999922285008
 30
0.1
  0
VERTEX
  5
17D6
  8
SAPA_PROFIL
 62
     4
 10
72.631890716092826
 20
63.599051626172368
 30
0.1
 42
0.130905717258469
  0
VERTEX
  5
17D7
  8
SAPA_PROFIL
 62
     4
 10
72.472878625058698
 20
63.002105922259098
 30
0.1
  0
VERTEX
  5
17D8
  8
SAPA_PROFIL
 62
     4
 10
72.472878625618719
 20
38.997930583979631
 30
0.1
 42
0.1309134860018379
  0
VERTEX
  5
17D9
  8
SAPA_PROFIL
 62
     4
 10
72.631890716092826
 20
38.40094821838138
 30
0.1
  0
VERTEX
  5
17DA
  8
SAPA_PROFIL
 62
     4
 10
73.572878625006183
 20
36.75999992226896
 30
0.1
  0
VERTEX
  5
17DB
  8
SAPA_PROFIL
 62
     4
 10
73.572878624997671
 20
36.399999922268549
 30
0.1
 42
-0.4142135623729619
  0
VERTEX
  5
17DC
  8
SAPA_PROFIL
 62
     4
 10
73.172878624988144
 20
35.999999922278178
 30
0.1
  0
VERTEX
  5
17DD
  8
SAPA_PROFIL
 62
     4
 10
69.772878624988167
 20
35.999999922357929
 30
0.1
 42
-0.4142135623730782
  0
VERTEX
  5
17DE
  8
SAPA_PROFIL
 62
     4
 10
69.372878624997625
 20
36.399999922367513
 30
0.1
  0
VERTEX
  5
17DF
  8
SAPA_PROFIL
 62
     4
 10
69.372878625006152
 20
36.759999922367747
 30
0.1
  0
VERTEX
  5
17E0
  8
SAPA_PROFIL
 62
     4
 10
70.164879519474553
 20
38.141136795784533
 30
0.1
  0
VERTEX
  5
17E1
  8
SAPA_PROFIL
 62
     4
 10
70.431994047687581
 20
38.141136795784419
 30
0.1
 42
0.5773502691896441
  0
VERTEX
  5
17E2
  8
SAPA_PROFIL
 62
     4
 10
70.613859382482147
 20
38.456136795784133
 30
0.1
  0
VERTEX
  5
17E3
  8
SAPA_PROFIL
 62
     4
 10
70.472878625058698
 20
38.700322630532028
 30
0.1
  0
VERTEX
  5
17E4
  8
SAPA_PROFIL
 62
     4
 10
70.472878625058698
 20
63.299677214021827
 30
0.1
  0
SEQEND
  5
17E5
  8
SAPA_PROFIL
 62
     4
  0
POLYLINE
  5
EA6
  8
SAPA_PROFIL
  6
CONTINUOUS
 62
     4
 66
     1
 10
0.0
 20
0.0
 30
0.0
 70
     1
  0
VERTEX
  5
17E6
  8
SAPA_PROFIL
  6
CONTINUOUS
 62
     4
 10
70.431994047687581
 20
63.858863048769379
 30
0.0
  0
VERTEX
  5
17E7
  8
SAPA_PROFIL
  6
CONTINUOUS
 62
     4
 10
70.164879519474553
 20
63.858863048769379
 30
0.0
  0
VERTEX
  5
17E8
  8
SAPA_PROFIL
  6
CONTINUOUS
 62
     4
 10
69.372878625006152
 20
65.239999922185945
 30
0.0
  0
VERTEX
  5
17E9
  8
SAPA_PROFIL
  6
CONTINUOUS
 62
     4
 10
69.372878624997512
 20
65.599999922186299
 30
0.0
 42
-0.4142135623731473
  0
VERTEX
  5
17EA
  8
SAPA_PROFIL
  6
CONTINUOUS
 62
     4
 10
69.772878624988167
 20
65.999999922195826
 30
0.0
  0
VERTEX
  5
17EB
  8
SAPA_PROFIL
  6
CONTINUOUS
 62
     4
 10
73.172878624988144
 20
65.999999922275578
 30
0.0
 42
-0.4142135623728817
  0
VERTEX
  5
17EC
  8
SAPA_PROFIL
  6
CONTINUOUS
 62
     4
 10
73.572878624997671
 20
65.599999922285306
 30
0.0
  0
VERTEX
  5
17ED
  8
SAPA_PROFIL
  6
CONTINUOUS
 62
     4
 10
73.572878625006183
 20
65.239999922285008
 30
0.0
  0
VERTEX
  5
17EE
  8
SAPA_PROFIL
  6
CONTINUOUS
 62
     4
 10
72.631890716092826
 20
63.599051626172383
 30
0.0
 42
0.1309057172584687
  0
VERTEX
  5
17EF
  8
SAPA_PROFIL
  6
CONTINUOUS
 62
     4
 10
72.472878625058698
 20
63.002105922259112
 30
0.0
  0
VERTEX
  5
17F0
  8
SAPA_PROFIL
  6
CONTINUOUS
 62
     4
 10
72.472878625618719
 20
38.997930583979631
 30
0.0
 42
0.1309134860018382
  0
VERTEX
  5
17F1
  8
SAPA_PROFIL
  6
CONTINUOUS
 62
     4
 10
72.631890716092826
 20
38.40094821838138
 30
0.0
  0
VERTEX
  5
17F2
  8
SAPA_PROFIL
  6
CONTINUOUS
 62
     4
 10
73.572878625006183
 20
36.75999992226896
 30
0.0
  0
VERTEX
  5
17F3
  8
SAPA_PROFIL
  6
CONTINUOUS
 62
     4
 10
73.572878624997657
 20
36.399999922268549
 30
0.0
 42
-0.4142135623729598
  0
VERTEX
  5
17F4
  8
SAPA_PROFIL
  6
CONTINUOUS
 62
     4
 10
73.17287862498813
 20
35.999999922278178
 30
0.0
  0
VERTEX
  5
17F5
  8
SAPA_PROFIL
  6
CONTINUOUS
 62
     4
 10
69.772878624988167
 20
35.999999922357929
 30
0.0
 42
-0.4142135623730795
  0
VERTEX
  5
17F6
  8
SAPA_PROFIL
  6
CONTINUOUS
 62
     4
 10
69.372878624997625
 20
36.399999922367513
 30
0.0
  0
VERTEX
  5
17F7
  8
SAPA_PROFIL
  6
CONTINUOUS
 62
     4
 10
69.372878625006152
 20
36.759999922367747
 30
0.0
  0
VERTEX
  5
17F8
  8
SAPA_PROFIL
  6
CONTINUOUS
 62
     4
 10
70.164879519474553
 20
38.141136795784533
 30
0.0
  0
VERTEX
  5
17F9
  8
SAPA_PROFIL
  6
CONTINUOUS
 62
     4
 10
70.431994047687581
 20
38.141136795784419
 30
0.0
 42
0.5773502691896458
  0
VERTEX
  5
17FA
  8
SAPA_PROFIL
  6
CONTINUOUS
 62
     4
 10
70.613859382482147
 20
38.456136795784133
 30
0.0
  0
VERTEX
  5
17FB
  8
SAPA_PROFIL
  6
CONTINUOUS
 62
     4
 10
70.472878625058698
 20
38.700322630532028
 30
0.0
  0
VERTEX
  5
17FC
  8
SAPA_PROFIL
  6
CONTINUOUS
 62
     4
 10
70.472878625058698
 20
63.299677214021841
 30
0.0
  0
VERTEX
  5
17FD
  8
SAPA_PROFIL
  6
CONTINUOUS
 62
     4
 10
70.613859382482261
 20
63.543863048769673
 30
0.0
 42
0.5773502691895091
  0
SEQEND
  5
17FE
  8
SAPA_PROFIL
  6
CONTINUOUS
 62
     4
  0
POLYLINE
  5
EA7
  8
SAPA_PROFIL
 66
     1
 10
0.0
 20
0.0
 30
0.0
  0
VERTEX
  5
17FF
  8
SAPA_PROFIL
 10
57.927653150772059
 20
80.457636436212894
 30
0.0
  0
VERTEX
  5
1800
  8
SAPA_PROFIL
 10
57.927653150772059
 20
80.457636436212894
 30
0.0
  0
SEQEND
  5
1801
  8
SAPA_PROFIL
  0
POLYLINE
  5
EA8
  8
SAPA_PROFIL
 66
     1
 10
0.0
 20
0.0
 30
0.0
 70
     1
  0
VERTEX
  5
1802
  8
SAPA_PROFIL
 10
62.900050508267547
 20
86.291131215855444
 30
0.0
  0
VERTEX
  5
1803
  8
SAPA_PROFIL
 10
62.900050508267547
 20
84.300000001900287
 30
0.0
 42
0.4142135623730795
  0
VERTEX
  5
1804
  8
SAPA_PROFIL
 10
63.900050508267547
 20
83.300000001900287
 30
0.0
  0
VERTEX
  5
1805
  8
SAPA_PROFIL
 10
64.167594976229793
 20
83.300000001900287
 30
0.0
 42
0.2896898633034337
  0
VERTEX
  5
1806
  8
SAPA_PROFIL
 10
65.071102879135935
 20
83.871428573331116
 30
0.0
 42
0.5507604245854725
  0
VERTEX
  5
1807
  8
SAPA_PROFIL
 10
64.800050508267532
 20
84.300000001900287
 30
0.0
  0
VERTEX
  5
1808
  8
SAPA_PROFIL
 10
64.500050508267634
 20
84.30000000190023
 30
0.0
 42
-0.4142135623730951
  0
VERTEX
  5
1809
  8
SAPA_PROFIL
 10
64.300050508267532
 20
84.500000001900275
 30
0.0
  0
VERTEX
  5
180A
  8
SAPA_PROFIL
 10
64.300050508267532
 20
85.600000004717174
 30
0.0
 42
-0.4142135623730863
  0
VERTEX
  5
180B
  8
SAPA_PROFIL
 10
65.300050508267574
 20
86.600000004717245
 30
0.0
  0
VERTEX
  5
180C
  8
SAPA_PROFIL
 10
67.600000001928777
 20
86.600000004717174
 30
0.0
 42
-0.4142135623730847
  0
VERTEX
  5
180D
  8
SAPA_PROFIL
 10
68.600000001928777
 20
85.600000004717174
 30
0.0
  0
VERTEX
  5
180E
  8
SAPA_PROFIL
 10
68.600000001928777
 20
84.500000001900275
 30
0.0
 42
-0.4142135623730925
  0
VERTEX
  5
180F
  8
SAPA_PROFIL
 10
68.400000001928788
 20
84.300000001900287
 30
0.0
  0
VERTEX
  5
1810
  8
SAPA_PROFIL
 10
68.100050508267657
 20
84.300000001898582
 30
0.0
 42
0.5507604245854657
  0
VERTEX
  5
1811
  8
SAPA_PROFIL
 10
67.828998137399083
 20
83.871428573331059
 30
0.0
 42
0.2896898633034307
  0
VERTEX
  5
1812
  8
SAPA_PROFIL
 10
68.732506040305339
 20
83.300000001900287
 30
0.0
  0
VERTEX
  5
1813
  8
SAPA_PROFIL
 10
69.000000001928811
 20
83.300000001900244
 30
0.0
 42
0.4142135623730951
  0
VERTEX
  5
1814
  8
SAPA_PROFIL
 10
70.000000001928811
 20
84.300000001900287
 30
0.0
  0
VERTEX
  5
1815
  8
SAPA_PROFIL
 10
70.000000001928811
 20
86.000000004717208
 30
0.0
 42
0.4142135623730871
  0
VERTEX
  5
1816
  8
SAPA_PROFIL
 10
68.000000001928754
 20
88.000000004717265
 30
0.0
  0
VERTEX
  5
1817
  8
SAPA_PROFIL
 10
45.300000001954167
 20
88.000000006706159
 30
0.0
 42
0.4142135623987623
  0
VERTEX
  5
1818
  8
SAPA_PROFIL
 10
45.000000001927837
 20
87.700000006706148
 30
0.0
  0
VERTEX
  5
1819
  8
SAPA_PROFIL
 10
45.000000001927837
 20
87.207106787918974
 30
0.0
 42
0.198912367379658
  0
VERTEX
  5
181A
  8
SAPA_PROFIL
 10
45.146446611334568
 20
86.853553397325697
 30
0.0
  0
VERTEX
  5
181B
  8
SAPA_PROFIL
 10
45.853553392521171
 20
86.146446616139073
 30
0.0
 42
-0.1989123673796528
  0
VERTEX
  5
181C
  8
SAPA_PROFIL
 10
46.000000001927901
 20
85.792893225545811
 30
0.0
  0
VERTEX
  5
181D
  8
SAPA_PROFIL
 10
46.000000001927901
 20
84.500000006732364
 30
0.0
 42
-0.4142135623730659
  0
VERTEX
  5
181E
  8
SAPA_PROFIL
 10
45.500000001927901
 20
84.000000006732364
 30
0.0
  0
VERTEX
  5
181F
  8
SAPA_PROFIL
 10
43.115937958571408
 20
84.000000006732137
 30
0.0
 42
-0.1989123673796822
  0
VERTEX
  5
1820
  8
SAPA_PROFIL
 10
42.762384567978067
 20
84.14644661613886
 30
0.0
  0
VERTEX
  5
1821
  8
SAPA_PROFIL
 10
41.994974748758288
 20
84.913856435358582
 30
0.0
 42
0.9999999999999998
  0
VERTEX
  5
1822
  8
SAPA_PROFIL
 10
41.005025255097102
 20
83.923906941697396
 30
0.0
  0
VERTEX
  5
1823
  8
SAPA_PROFIL
 10
42.782485580655759
 20
82.146446616138746
 30
0.0
 42
0.1989123673796822
  0
VERTEX
  5
1824
  8
SAPA_PROFIL
 10
43.136038971249093
 20
82.000000006732023
 30
0.0
  0
VERTEX
  5
1825
  8
SAPA_PROFIL
 10
47.500000001927958
 20
82.000000006732463
 30
0.0
 42
0.4142135623730639
  0
VERTEX
  5
1826
  8
SAPA_PROFIL
 10
48.000000001927951
 20
82.500000006732478
 30
0.0
  0
VERTEX
  5
1827
  8
SAPA_PROFIL
 10
48.000000001927951
 20
84.500000006732648
 30
0.0
 42
-0.414213562373064
  0
VERTEX
  5
1828
  8
SAPA_PROFIL
 10
48.500000001927958
 20
85.000000006732648
 30
0.0
  0
VERTEX
  5
1829
  8
SAPA_PROFIL
 10
52.000000001928072
 20
85.000000006732989
 30
0.0
 42
-0.4142135623731263
  0
VERTEX
  5
182A
  8
SAPA_PROFIL
 10
52.500000001928122
 20
84.500000006732975
 30
0.0
  0
VERTEX
  5
182B
  8
SAPA_PROFIL
 10
52.500000001928122
 20
69.781551993222479
 30
0.0
 42
-0.3639702342662015
  0
VERTEX
  5
182C
  8
SAPA_PROFIL
 10
51.673648179595027
 20
68.796744240210273
 30
0.0
  0
VERTEX
  5
182D
  8
SAPA_PROFIL
 10
45.826351824260989
 20
67.765708128566587
 30
0.0
 42
0.3639702342662066
  0
VERTEX
  5
182E
  8
SAPA_PROFIL
 10
45.000000001927837
 20
66.780900375554324
 30
0.0
  0
VERTEX
  5
182F
  8
SAPA_PROFIL
 10
45.000000001927837
 20
62.920000006731463
 30
0.0
 42
0.4142135623730951
  0
VERTEX
  5
1830
  8
SAPA_PROFIL
 10
45.500000001927901
 20
62.420000006731463
 30
0.0
  0
VERTEX
  5
1831
  8
SAPA_PROFIL
 10
45.70000000192789
 20
62.420000006731463
 30
0.0
 42
0.4142135623730951
  0
VERTEX
  5
1832
  8
SAPA_PROFIL
 10
46.20000000192789
 20
62.920000006731463
 30
0.0
  0
VERTEX
  5
1833
  8
SAPA_PROFIL
 10
46.20000000192789
 20
63.000000006731611
 30
0.0
 42
-0.4142135623730619
  0
VERTEX
  5
1834
  8
SAPA_PROFIL
 10
46.700000001927883
 20
63.500000006731618
 30
0.0
  0
VERTEX
  5
1835
  8
SAPA_PROFIL
 10
50.000000001927958
 20
63.500000006731959
 30
0.0
 42
0.5693809839207964
  0
VERTEX
  5
1836
  8
SAPA_PROFIL
 10
50.175554047491516
 20
63.795816378434601
 30
0.0
  0
VERTEX
  5
1837
  8
SAPA_PROFIL
 10
49.200000001927783
 20
65.400000006731659
 30
0.0
  0
VERTEX
  5
1838
  8
SAPA_PROFIL
 10
49.200000001927549
 20
65.700000006731386
 30
0.0
 42
-0.414213562372873
  0
VERTEX
  5
1839
  8
SAPA_PROFIL
 10
49.500000001927667
 20
66.000000006731568
 30
0.0
  0
VERTEX
  5
183A
  8
SAPA_PROFIL
 10
53.50000000109037
 20
66.000000006731568
 30
0.0
 42
0.2134217652834381
  0
VERTEX
  5
183B
  8
SAPA_PROFIL
 10
53.723606798840478
 20
66.100000006731676
 30
0.0
 42
-0.7625858545243276
  0
VERTEX
  5
183C
  8
SAPA_PROFIL
 10
54.053932879857499
 20
65.915420804534193
 30
0.0
  0
VERTEX
  5
183D
  8
SAPA_PROFIL
 10
53.995859242868399
 20
65.724037804540473
 30
0.0
  0
VERTEX
  5
183E
  8
SAPA_PROFIL
 10
52.911294795896673
 20
63.838194112679432
 30
0.0
  0
VERTEX
  5
183F
  8
SAPA_PROFIL
 10
52.5895370676784
 20
63.848755478906419
 30
0.0
 42
0.577350269189744
  0
VERTEX
  5
1840
  8
SAPA_PROFIL
 10
52.406583327568242
 20
63.554599178651557
 30
0.0
  0
VERTEX
  5
1841
  8
SAPA_PROFIL
 10
52.558717238676991
 20
63.269916895419932
 30
0.0
 42
0.2216946626430207
  0
VERTEX
  5
1842
  8
SAPA_PROFIL
 10
53.099597070153791
 20
62.864107990265133
 30
0.0
  0
VERTEX
  5
1843
  8
SAPA_PROFIL
 10
54.912827540812032
 20
62.482661394137409
 30
0.0
 42
0.4769755326981632
  0
VERTEX
  5
1844
  8
SAPA_PROFIL
 10
55.284484415757909
 20
62.784914218643877
 30
0.0
  0
VERTEX
  5
1845
  8
SAPA_PROFIL
 10
55.284400807874263
 20
64.288015299405885
 30
0.0
  0
VERTEX
  5
1846
  8
SAPA_PROFIL
 10
55.236555057875769
 20
64.302533708652973
 30
0.0
 42
-0.4142135623730951
  0
VERTEX
  5
1847
  8
SAPA_PROFIL
 10
55.03659101336838
 20
64.676718664128799
 30
0.0
  0
VERTEX
  5
1848
  8
SAPA_PROFIL
 10
55.500000001927972
 20
65.875681446939808
 30
0.0
  0
VERTEX
  5
1849
  8
SAPA_PROFIL
 10
55.500000001928072
 20
73.330384763567565
 30
0.0
  0
VERTEX
  5
184A
  8
SAPA_PROFIL
 10
55.200000001928061
 20
73.850000005838183
 30
0.0
  0
VERTEX
  5
184B
  8
SAPA_PROFIL
 10
55.500000001928129
 20
74.369615248108857
 30
0.0
  0
VERTEX
  5
184C
  8
SAPA_PROFIL
 10
55.500000001928299
 20
85.71861503714814
 30
0.0
 42
-0.3955859011959327
  0
VERTEX
  5
184D
  8
SAPA_PROFIL
 10
55.78080862218701
 20
86.018000559416066
 30
0.0
  0
VERTEX
  5
184E
  8
SAPA_PROFIL
 10
62.687256255106597
 20
86.490721564034061
 30
0.0
 42
-0.433089857303855
  0
SEQEND
  5
184F
  8
SAPA_PROFIL
  0
POLYLINE
  5
EA9
  8
SAPA_PROFIL
 62
     4
 66
     1
 10
0.0
 20
0.0
 30
0.1
 70
     1
1001
RC_PROFILE
1002
{
1000
Contour
1002
}
  0
VERTEX
  5
1850
  8
SAPA_PROFIL
 62
     4
 10
52.359019244014917
 20
63.543863133265518
 30
0.1
 42
-0.5773502691895099
  0
VERTEX
  5
1851
  8
SAPA_PROFIL
 62
     4
 10
52.540884578809603
 20
63.858863133265231
 30
0.1
  0
VERTEX
  5
1852
  8
SAPA_PROFIL
 62
     4
 10
52.807999107022617
 20
63.858863133265231
 30
0.1
  0
VERTEX
  5
1853
  8
SAPA_PROFIL
 62
     4
 10
53.600000001491033
 20
65.240000006681782
 30
0.1
  0
VERTEX
  5
1854
  8
SAPA_PROFIL
 62
     4
 10
53.600000001499659
 20
65.600000006682137
 30
0.1
 42
0.4142135623731464
  0
VERTEX
  5
1855
  8
SAPA_PROFIL
 62
     4
 10
53.200000001509011
 20
66.000000006691664
 30
0.1
  0
VERTEX
  5
1856
  8
SAPA_PROFIL
 62
     4
 10
49.800000001509027
 20
66.000000006771415
 30
0.1
 42
0.4142135623728774
  0
VERTEX
  5
1857
  8
SAPA_PROFIL
 62
     4
 10
49.4000000014995
 20
65.600000006781144
 30
0.1
  0
VERTEX
  5
1858
  8
SAPA_PROFIL
 62
     4
 10
49.40000000149098
 20
65.240000006780861
 30
0.1
  0
VERTEX
  5
1859
  8
SAPA_PROFIL
 62
     4
 10
50.340987910404351
 20
63.59905171066822
 30
0.1
 42
-0.130905717258469
  0
VERTEX
  5
185A
  8
SAPA_PROFIL
 62
     4
 10
50.50000000143848
 20
63.00210600675495
 30
0.1
  0
VERTEX
  5
185B
  8
SAPA_PROFIL
 62
     4
 10
50.500000000878451
 20
38.997930668475483
 30
0.1
 42
-0.1309134860018379
  0
VERTEX
  5
185C
  8
SAPA_PROFIL
 62
     4
 10
50.340987910404351
 20
38.400948302877232
 30
0.1
  0
VERTEX
  5
185D
  8
SAPA_PROFIL
 62
     4
 10
49.40000000149098
 20
36.760000006764812
 30
0.1
  0
VERTEX
  5
185E
  8
SAPA_PROFIL
 62
     4
 10
49.4000000014995
 20
36.400000006764401
 30
0.1
 42
0.4142135623729619
  0
VERTEX
  5
185F
  8
SAPA_PROFIL
 62
     4
 10
49.800000001509027
 20
36.00000000677403
 30
0.1
  0
VERTEX
  5
1860
  8
SAPA_PROFIL
 62
     4
 10
53.200000001509011
 20
36.000000006853782
 30
0.1
 42
0.4142135623730782
  0
VERTEX
  5
1861
  8
SAPA_PROFIL
 62
     4
 10
53.600000001499552
 20
36.400000006863372
 30
0.1
  0
VERTEX
  5
1862
  8
SAPA_PROFIL
 62
     4
 10
53.600000001491033
 20
36.760000006863613
 30
0.1
  0
VERTEX
  5
1863
  8
SAPA_PROFIL
 62
     4
 10
52.807999107022617
 20
38.141136880280392
 30
0.1
  0
VERTEX
  5
1864
  8
SAPA_PROFIL
 62
     4
 10
52.540884578809603
 20
38.141136880280271
 30
0.1
 42
-0.5773502691896441
  0
VERTEX
  5
1865
  8
SAPA_PROFIL
 62
     4
 10
52.35901924401503
 20
38.456136880279992
 30
0.1
  0
VERTEX
  5
1866
  8
SAPA_PROFIL
 62
     4
 10
52.50000000143848
 20
38.70032271502788
 30
0.1
  0
VERTEX
  5
1867
  8
SAPA_PROFIL
 62
     4
 10
52.50000000143848
 20
63.299677298517679
 30
0.1
  0
SEQEND
  5
1868
  8
SAPA_PROFIL
 62
     4
  0
POLYLINE
  5
EAA
  8
SAPA_PROFIL
  6
CONTINUOUS
 62
     4
 66
     1
 10
0.0
 20
0.0
 30
0.0
 70
     1
  0
VERTEX
  5
1869
  8
SAPA_PROFIL
  6
CONTINUOUS
 62
     4
 10
52.540884578809603
 20
63.858863133265238
 30
0.0
  0
VERTEX
  5
186A
  8
SAPA_PROFIL
  6
CONTINUOUS
 62
     4
 10
52.807999107022617
 20
63.858863133265238
 30
0.0
  0
VERTEX
  5
186B
  8
SAPA_PROFIL
  6
CONTINUOUS
 62
     4
 10
53.600000001491033
 20
65.240000006681782
 30
0.0
  0
VERTEX
  5
186C
  8
SAPA_PROFIL
  6
CONTINUOUS
 62
     4
 10
53.600000001499659
 20
65.600000006682137
 30
0.0
 42
0.4142135623731473
  0
VERTEX
  5
186D
  8
SAPA_PROFIL
  6
CONTINUOUS
 62
     4
 10
53.200000001509011
 20
66.000000006691664
 30
0.0
  0
VERTEX
  5
186E
  8
SAPA_PROFIL
  6
CONTINUOUS
 62
     4
 10
49.800000001509027
 20
66.000000006771415
 30
0.0
 42
0.4142135623728817
  0
VERTEX
  5
186F
  8
SAPA_PROFIL
  6
CONTINUOUS
 62
     4
 10
49.4000000014995
 20
65.600000006781144
 30
0.0
  0
VERTEX
  5
1870
  8
SAPA_PROFIL
  6
CONTINUOUS
 62
     4
 10
49.40000000149098
 20
65.240000006780861
 30
0.0
  0
VERTEX
  5
1871
  8
SAPA_PROFIL
  6
CONTINUOUS
 62
     4
 10
50.340987910404351
 20
63.599051710668228
 30
0.0
 42
-0.1309057172584687
  0
VERTEX
  5
1872
  8
SAPA_PROFIL
  6
CONTINUOUS
 62
     4
 10
50.50000000143848
 20
63.002106006754957
 30
0.0
  0
VERTEX
  5
1873
  8
SAPA_PROFIL
  6
CONTINUOUS
 62
     4
 10
50.500000000878451
 20
38.997930668475483
 30
0.0
 42
-0.1309134860018382
  0
VERTEX
  5
1874
  8
SAPA_PROFIL
  6
CONTINUOUS
 62
     4
 10
50.340987910404351
 20
38.400948302877232
 30
0.0
  0
VERTEX
  5
1875
  8
SAPA_PROFIL
  6
CONTINUOUS
 62
     4
 10
49.40000000149098
 20
36.760000006764812
 30
0.0
  0
VERTEX
  5
1876
  8
SAPA_PROFIL
  6
CONTINUOUS
 62
     4
 10
49.400000001499507
 20
36.400000006764401
 30
0.0
 42
0.4142135623729598
  0
VERTEX
  5
1877
  8
SAPA_PROFIL
  6
CONTINUOUS
 62
     4
 10
49.800000001509041
 20
36.00000000677403
 30
0.0
  0
VERTEX
  5
1878
  8
SAPA_PROFIL
  6
CONTINUOUS
 62
     4
 10
53.200000001509011
 20
36.000000006853782
 30
0.0
 42
0.4142135623730795
  0
VERTEX
  5
1879
  8
SAPA_PROFIL
  6
CONTINUOUS
 62
     4
 10
53.600000001499552
 20
36.400000006863372
 30
0.0
  0
VERTEX
  5
187A
  8
SAPA_PROFIL
  6
CONTINUOUS
 62
     4
 10
53.600000001491033
 20
36.760000006863613
 30
0.0
  0
VERTEX
  5
187B
  8
SAPA_PROFIL
  6
CONTINUOUS
 62
     4
 10
52.807999107022617
 20
38.141136880280392
 30
0.0
  0
VERTEX
  5
187C
  8
SAPA_PROFIL
  6
CONTINUOUS
 62
     4
 10
52.540884578809603
 20
38.141136880280271
 30
0.0
 42
-0.5773502691896458
  0
VERTEX
  5
187D
  8
SAPA_PROFIL
  6
CONTINUOUS
 62
     4
 10
52.35901924401503
 20
38.456136880279992
 30
0.0
  0
VERTEX
  5
187E
  8
SAPA_PROFIL
  6
CONTINUOUS
 62
     4
 10
52.50000000143848
 20
38.70032271502788
 30
0.0
  0
VERTEX
  5
187F
  8
SAPA_PROFIL
  6
CONTINUOUS
 62
     4
 10
52.50000000143848
 20
63.299677298517693
 30
0.0
  0
VERTEX
  5
1880
  8
SAPA_PROFIL
  6
CONTINUOUS
 62
     4
 10
52.359019244014917
 20
63.543863133265532
 30
0.0
 42
-0.5773502691895091
  0
SEQEND
  5
1881
  8
SAPA_PROFIL
  6
CONTINUOUS
 62
     4
  0
POLYLINE
  5
EAB
  8
SAPA_PROFIL
 66
     1
 10
0.0
 20
0.0
 30
0.0
  0
VERTEX
  5
1882
  8
SAPA_PROFIL
 10
53.425883737328512
 20
36.000000006813707
 30
0.0
 42
-0.2134217652834216
  0
VERTEX
  5
1883
  8
SAPA_PROFIL
 10
53.649490535078613
 20
35.900000006813571
 30
0.0
 42
0.7625858545242717
  0
VERTEX
  5
1884
  8
SAPA_PROFIL
 10
53.979816616095633
 20
36.084579209011061
 30
0.0
  0
VERTEX
  5
1885
  8
SAPA_PROFIL
 10
53.92174297910654
 20
36.275962209004767
 30
0.0
  0
VERTEX
  5
1886
  8
SAPA_PROFIL
 10
52.8371785321348
 20
38.161805900865829
 30
0.0
  0
VERTEX
  5
1887
  8
SAPA_PROFIL
 10
52.515420803916541
 20
38.151244534638863
 30
0.0
 42
-0.5773502691897205
  0
VERTEX
  5
1888
  8
SAPA_PROFIL
 10
52.332467063806369
 20
38.44540083489369
 30
0.0
  0
VERTEX
  5
1889
  8
SAPA_PROFIL
 10
52.484600974915089
 20
38.730083118125322
 30
0.0
 42
-0.2216946626430408
  0
VERTEX
  5
188A
  8
SAPA_PROFIL
 10
53.025480806391919
 20
39.135892023280121
 30
0.0
  0
VERTEX
  5
188B
  8
SAPA_PROFIL
 10
54.838711277050159
 20
39.517338619407838
 30
0.0
 42
-0.476975532698107
  0
VERTEX
  5
188C
  8
SAPA_PROFIL
 10
55.21036815199605
 20
39.21508579490137
 30
0.0
  0
VERTEX
  5
188D
  8
SAPA_PROFIL
 10
55.210284544112397
 20
37.711984714139362
 30
0.0
  0
VERTEX
  5
188E
  8
SAPA_PROFIL
 10
55.16243879411391
 20
37.697466304892259
 30
0.0
 42
0.4142135623731266
  0
VERTEX
  5
188F
  8
SAPA_PROFIL
 10
54.962474749606507
 20
37.323281349416447
 30
0.0
  0
VERTEX
  5
1890
  8
SAPA_PROFIL
 10
55.473097001509039
 20
36.002165248476793
 30
0.0
  0
VERTEX
  5
1891
  8
SAPA_PROFIL
 10
55.473097001509039
 20
29.920592006813081
 30
0.0
  0
VERTEX
  5
1892
  8
SAPA_PROFIL
 10
55.172533001509031
 20
29.400000006812999
 30
0.0
  0
VERTEX
  5
1893
  8
SAPA_PROFIL
 10
55.473097001509039
 20
28.879407006812929
 30
0.0
  0
VERTEX
  5
1894
  8
SAPA_PROFIL
 10
55.473097001509039
 20
24.700000006812619
 30
0.0
 42
0.4142140000000108
  0
VERTEX
  5
1895
  8
SAPA_PROFIL
 10
55.773097001509107
 20
24.400000006812551
 30
0.0
  0
VERTEX
  5
1896
  8
SAPA_PROFIL
 10
57.273097001509221
 20
24.400000006812661
 30
0.0
 42
-0.4142139999998548
  0
VERTEX
  5
1897
  8
SAPA_PROFIL
 10
57.473097001509267
 20
24.200000006812619
 30
0.0
  0
VERTEX
  5
1898
  8
SAPA_PROFIL
 10
57.473097001509267
 20
23.700000006812619
 30
0.0
 42
-0.4142140000000309
  0
VERTEX
  5
1899
  8
SAPA_PROFIL
 10
56.473097001509139
 20
22.700000006812392
 30
0.0
  0
VERTEX
  5
189A
  8
SAPA_PROFIL
 10
49.973097001509373
 20
22.700000006812392
 30
0.0
 42
0.4142135623731031
  0
VERTEX
  5
189B
  8
SAPA_PROFIL
 10
47.973097001509252
 20
20.700000006812392
 30
0.0
  0
VERTEX
  5
189C
  8
SAPA_PROFIL
 10
47.973097001509252
 20
15.00000000681189
 30
0.0
 42
-0.4142140000000262
  0
VERTEX
  5
189D
  8
SAPA_PROFIL
 10
46.973097001509132
 20
14.000000006811661
 30
0.0
  0
VERTEX
  5
189E
  8
SAPA_PROFIL
 10
45.273097001509321
 20
14.000000006811881
 30
0.0
 42
-0.4142139999999169
  0
VERTEX
  5
189F
  8
SAPA_PROFIL
 10
44.973097001509252
 20
14.300000006811841
 30
0.0
  0
VERTEX
  5
18A0
  8
SAPA_PROFIL
 10
44.973097001509252
 20
14.75613271300517
 30
0.0
 42
-0.2308681911255748
  0
VERTEX
  5
18A1
  8
SAPA_PROFIL
 10
45.165266263846441
 20
15.150138089808481
 30
0.0
  0
VERTEX
  5
18A2
  8
SAPA_PROFIL
 10
45.780927739172057
 20
15.634198034217199
 30
0.0
 42
0.2308681911255704
  0
VERTEX
  5
18A3
  8
SAPA_PROFIL
 10
45.973097001509252
 20
16.02820341102051
 30
0.0
  0
VERTEX
  5
18A4
  8
SAPA_PROFIL
 10
45.973097001509252
 20
18.000000006812112
 30
0.0
 42
0.4142140000000419
  0
VERTEX
  5
18A5
  8
SAPA_PROFIL
 10
45.473097001509252
 20
18.500000006812112
 30
0.0
  0
VERTEX
  5
18A6
  8
SAPA_PROFIL
 10
41.473097001509259
 20
18.500000006812112
 30
0.0
 42
-0.9999999999999998
  0
VERTEX
  5
18A7
  8
SAPA_PROFIL
 10
41.473097001509259
 20
19.900000006812199
 30
0.0
  0
VERTEX
  5
18A8
  8
SAPA_PROFIL
 10
44.473097001508911
 20
19.900000006812199
 30
0.0
 42
0.4142135623731304
  0
VERTEX
  5
18A9
  8
SAPA_PROFIL
 10
44.973097001509032
 20
20.40000000681221
 30
0.0
  0
VERTEX
  5
18AA
  8
SAPA_PROFIL
 10
44.973097001509032
 20
20.700000006812392
 30
0.0
 42
-0.4142135623730951
  0
VERTEX
  5
18AB
  8
SAPA_PROFIL
 10
49.97309700150938
 20
25.700000006812729
 30
0.0
  0
VERTEX
  5
18AC
  8
SAPA_PROFIL
 10
51.973097001509039
 20
25.700000006812729
 30
0.0
 42
0.414214000000047
  0
VERTEX
  5
18AD
  8
SAPA_PROFIL
 10
52.473097001509032
 20
26.200000006812729
 30
0.0
  0
VERTEX
  5
18AE
  8
SAPA_PROFIL
 10
52.473097001509032
 20
32.234775006813258
 30
0.0
 42
0.363970000000007
  0
VERTEX
  5
18AF
  8
SAPA_PROFIL
 10
51.646745001508997
 20
33.219582006813312
 30
0.0
  0
VERTEX
  5
18B0
  8
SAPA_PROFIL
 10
45.799449001508513
 20
34.250618006813291
 30
0.0
 42
-0.3639700000000089
  0
VERTEX
  5
18B1
  8
SAPA_PROFIL
 10
44.973097001508471
 20
35.235426006813441
 30
0.0
  0
VERTEX
  5
18B2
  8
SAPA_PROFIL
 10
44.973097001508471
 20
39.096327006813802
 30
0.0
 42
-0.4142140000000481
  0
VERTEX
  5
18B3
  8
SAPA_PROFIL
 10
45.473097001508457
 20
39.596327006813802
 30
0.0
  0
VERTEX
  5
18B4
  8
SAPA_PROFIL
 10
45.673097001508509
 20
39.596327006813802
 30
0.0
 42
-0.4142139999999776
  0
VERTEX
  5
18B5
  8
SAPA_PROFIL
 10
46.173097001508509
 20
39.096327006813802
 30
0.0
  0
VERTEX
  5
18B6
  8
SAPA_PROFIL
 10
46.173097001508509
 20
39.000000006813821
 30
0.0
 42
0.4142140000000459
  0
VERTEX
  5
18B7
  8
SAPA_PROFIL
 10
46.673097001508623
 20
38.500000006813707
 30
0.0
  0
VERTEX
  5
18B8
  8
SAPA_PROFIL
 10
50.024672001508883
 20
38.500000006813707
 30
0.0
 42
-0.5773499999998256
  0
VERTEX
  5
18B9
  8
SAPA_PROFIL
 10
50.197877001508928
 20
38.200000006813752
 30
0.0
  0
VERTEX
  5
18BA
  8
SAPA_PROFIL
 10
49.274116001508808
 20
36.600000006813623
 30
0.0
  0
VERTEX
  5
18BB
  8
SAPA_PROFIL
 10
49.274116001508808
 20
36.300000006813548
 30
0.0
 42
0.4142139999999518
  0
VERTEX
  5
18BC
  8
SAPA_PROFIL
 10
49.57411600150887
 20
36.000000006813593
 30
0.0
  0
VERTEX
  5
18BD
  8
SAPA_PROFIL
 10
53.425884001508869
 20
36.000000006813593
 30
0.0
  0
SEQEND
  5
18BE
  8
SAPA_PROFIL
  0
POLYLINE
  5
EAC
  8
SAPA_PROFIL
 66
     1
 10
0.0
 20
0.0
 30
0.0
 70
     1
  0
VERTEX
  5
18BF
  8
SAPA_PROFIL
 10
140.00000000000011
 20
70.80276755226032
 30
0.0
  0
VERTEX
  5
18C0
  8
SAPA_PROFIL
 10
115.59999999999999
 20
71.458555679736492
 30
0.0
 42
0.6681786379237078
  0
VERTEX
  5
18C1
  8
SAPA_PROFIL
 10
115.3878679656469
 20
70.946423645378218
 30
0.0
  0
VERTEX
  5
18C2
  8
SAPA_PROFIL
 10
117.3878679656442
 20
68.946423645380492
 30
0.0
 42
0.733230336258869
  0
VERTEX
  5
18C3
  8
SAPA_PROFIL
 10
117.8954423259034
 20
69.210650133038143
 30
0.0
  0
VERTEX
  5
18C4
  8
SAPA_PROFIL
 10
117.7903847547319
 20
69.806461226436568
 30
0.0
 42
-0.4663076581593259
  0
VERTEX
  5
18C5
  8
SAPA_PROFIL
 10
118.0858270806353
 20
70.158555679736764
 30
0.0
  0
VERTEX
  5
18C6
  8
SAPA_PROFIL
 10
140.00000000000011
 20
69.502767552260593
 30
0.0
 42
-0.41421356237163
  0
VERTEX
  5
18C7
  8
SAPA_PROFIL
 10
140.50000000000011
 20
69.002767552262867
 30
0.0
  0
VERTEX
  5
18C8
  8
SAPA_PROFIL
 10
140.50000000000011
 20
59.79999993341562
 30
0.0
 42
-0.4142135623716965
  0
VERTEX
  5
18C9
  8
SAPA_PROFIL
 10
140.00000000000509
 20
59.29999993341562
 30
0.0
  0
VERTEX
  5
18CA
  8
SAPA_PROFIL
 10
128.3000000000016
 20
59.29999993341562
 30
0.0
 42
0.4142135623729286
  0
VERTEX
  5
18CB
  8
SAPA_PROFIL
 10
128.00000000000151
 20
58.999999933415893
 30
0.0
  0
VERTEX
  5
18CC
  8
SAPA_PROFIL
 10
128.00000000000151
 20
58.29999993341562
 30
0.0
 42
0.414213562373206
  0
VERTEX
  5
18CD
  8
SAPA_PROFIL
 10
128.3000000000016
 20
57.999999933415431
 30
0.0
  0
VERTEX
  5
18CE
  8
SAPA_PROFIL
 10
139.70000000001579
 20
57.999999933415431
 30
0.0
 42
-0.4142135623732283
  0
VERTEX
  5
18CF
  8
SAPA_PROFIL
 10
140.20000000001579
 20
57.499999933415431
 30
0.0
  0
VERTEX
  5
18D0
  8
SAPA_PROFIL
 10
140.20000000001491
 20
56.299999933416068
 30
0.0
 42
0.4142135623732616
  0
VERTEX
  5
18D1
  8
SAPA_PROFIL
 10
140.50000000001461
 20
55.999999933415893
 30
0.0
  0
VERTEX
  5
18D2
  8
SAPA_PROFIL
 10
141.70000000000039
 20
55.999999933415438
 30
0.0
 42
0.4142135623717076
  0
VERTEX
  5
18D3
  8
SAPA_PROFIL
 10
142.00000000000011
 20
56.299999933416977
 30
0.0
  0
VERTEX
  5
18D4
  8
SAPA_PROFIL
 10
142.0000000000137
 20
86.199999933415256
 30
0.0
 42
0.4142135623732531
  0
VERTEX
  5
18D5
  8
SAPA_PROFIL
 10
141.70000000001349
 20
86.499999933415424
 30
0.0
  0
VERTEX
  5
18D6
  8
SAPA_PROFIL
 10
120.20456789856919
 20
86.499999933415424
 30
0.0
 42
0.4209196114694233
  0
VERTEX
  5
18D7
  8
SAPA_PROFIL
 10
120.0000000000001
 20
86.300052104463248
 30
0.0
  0
VERTEX
  5
18D8
  8
SAPA_PROFIL
 10
120.0000000000001
 20
85.499998654182946
 30
0.0
  0
VERTEX
  5
18D9
  8
SAPA_PROFIL
 10
120.2999999999998
 20
85.499998654182946
 30
0.0
 42
-0.4142135623730117
  0
VERTEX
  5
18DA
  8
SAPA_PROFIL
 10
120.5000000000001
 20
85.299998654183128
 30
0.0
  0
VERTEX
  5
18DB
  8
SAPA_PROFIL
 10
120.5000000000001
 20
85.082820888713286
 30
0.0
 42
-0.1988669396405999
  0
VERTEX
  5
18DC
  8
SAPA_PROFIL
 10
120.4414460740368
 20
84.941424254596754
 30
0.0
  0
VERTEX
  5
18DD
  8
SAPA_PROFIL
 10
120.0000000000001
 20
84.49982382710823
 30
0.0
  0
VERTEX
  5
18DE
  8
SAPA_PROFIL
 10
119.50294372515241
 20
84.002767552260593
 30
0.0
  0
VERTEX
  5
18DF
  8
SAPA_PROFIL
 10
117.9995993435933
 20
84.002767552263322
 30
0.0
 42
0.4956073595117196
  0
VERTEX
  5
18E0
  8
SAPA_PROFIL
 10
116.4225375228735
 20
84.216743286778637
 30
0.0
  0
VERTEX
  5
18E1
  8
SAPA_PROFIL
 10
115.3603588299262
 20
83.15456459383131
 30
0.0
 42
0.6681786379165803
  0
VERTEX
  5
18E2
  8
SAPA_PROFIL
 10
115.50607793575099
 20
82.802767552260306
 30
0.0
  0
VERTEX
  5
18E3
  8
SAPA_PROFIL
 10
120.0000000000001
 20
82.802767552260306
 30
0.0
  0
VERTEX
  5
18E4
  8
SAPA_PROFIL
 10
122.07717188913971
 20
84.879939441400424
 30
0.0
 42
-0.2061234514950363
  0
VERTEX
  5
18E5
  8
SAPA_PROFIL
 10
122.44457742700079
 20
85.026194131989996
 30
0.0
  0
VERTEX
  5
18E6
  8
SAPA_PROFIL
 10
137.58311288360809
 20
84.606630642598233
 30
0.0
 42
-0.4061212134723014
  0
VERTEX
  5
18E7
  8
SAPA_PROFIL
 10
140.50000000000011
 20
81.607782155498626
 30
0.0
  0
VERTEX
  5
18E8
  8
SAPA_PROFIL
 10
140.50000000000011
 20
71.302767552263035
 30
0.0
 42
-0.41421356237163
  0
SEQEND
  5
18E9
  8
SAPA_PROFIL
  0
LINE
  5
EC7
  8
SAPA_GLAS
 10
135.0
 20
28.949999853745169
 30
0.0
 11
135.0
 21
40.949999853745162
 31
0.0
  0
POLYLINE
  5
EC8
  8
SAPA_GLAS
 66
     1
 10
0.0
 20
0.0
 30
0.0
  0
VERTEX
  5
18EF
  8
SAPA_GLAS
 10
155.0
 20
46.949999853745169
 30
0.0
  0
VERTEX
  5
18F0
  8
SAPA_GLAS
 10
125.0
 20
46.949999853745169
 30
0.0
  0
VERTEX
  5
18F1
  8
SAPA_GLAS
 10
125.0
 20
22.949999853745169
 30
0.0
  0
VERTEX
  5
18F2
  8
SAPA_GLAS
 10
155.0
 20
22.949999853745169
 30
0.0
  0
SEQEND
  5
18F3
  8
SAPA_GLAS
  0
LINE
  5
EC9
  8
SAPA_GLAS
 10
155.0
 20
40.949999853745162
 30
0.0
 11
125.0
 21
40.949999853745162
 31
0.0
  0
LINE
  5
ECA
  8
SAPA_GLAS
 10
155.0
 20
28.949999853745169
 30
0.0
 11
125.0
 21
28.949999853745169
 31
0.0
  0
INSERT
  5
ED3
  8
SAPA_FYLLNING
  6
CONTINUOUS
  2
*X94
 10
0.0
 20
0.0
 30
0.0
1001
ACAD
1000
HATCH
1002
{
1070
    19
1000
HEX
1040
0.25
1040
-1.5707963267948959
1000
R14_HATCH_DATA
1000
ED3
1011
1.0
1021
0.0
1031
0.0
1021
0.0
1031
0.0
1011
0.0
1021
0.0
1031
0.0
1021
1.0
1031
0.0
1011
0.0
1021
0.0
1031
0.0
1021
0.0
1031
1.0
1040
0.0
1010
0.0
1020
0.0
1030
1.0
1000
HEX
1070
     0
1070
     0
1071
        1
1071
        7
1070
     1
1070
     1
1071
        2
1040
-43.500000000272919
1040
226.80000001221339
1040
1.0
1040
-37.500000000272763
1040
226.80000001221339
1040
1.0
1071
        0
1070
     0
1070
     1
1040
-1.5707963267948959
1040
0.25
1070
     0
1070
     3
1040
1.5707963267948959
1040
29.999999999703562
1040
99.99942956776674
1040
-1.374814999999999
1040
0.0000000000000003
1070
     2
1040
0.79375
1040
-1.587499999999999
1040
3.6651914291880909
1040
29.999999999703562
1040
99.99942956776674
1040
0.6874074999999995
1040
-1.1906247155039029
1070
     2
1040
0.7937499999999998
1040
-1.587499999999999
1040
2.6179938779914931
1040
29.999999999703562
1040
100.7931795677667
1040
-0.6874075000000003
1040
-1.190624715503902
1070
     2
1040
0.7937499999999998
1040
-1.587499999999999
1040
0.0216905703044498
1071
        1
1040
-40.56593617893467
1040
227.08657195483849
1040
0.0
1002
}
  0
INSERT
  5
ED4
  8
SAPA_FYLLNING
  6
CONTINUOUS
  2
*X95
 10
0.0
 20
0.0
 30
0.0
1001
ACAD
1000
HATCH
1002
{
1070
    19
1000
ANSI37
1040
0.25
1040
-1.5707963267948959
1000
R14_HATCH_DATA
1000
ED4
1011
1.0
1021
0.0
1031
0.0
1021
0.0
1031
0.0
1011
0.0
1021
0.0
1031
0.0
1021
1.0
1031
0.0
1011
0.0
1021
0.0
1031
0.0
1021
0.0
1031
1.0
1040
0.0
1010
0.0
1020
0.0
1030
1.0
1000
ANSI37
1070
     0
1070
     0
1071
        1
1071
        7
1070
     1
1070
     1
1071
        9
1040
-47.020201797624033
1040
223.80000001221279
1040
0.0
1040
-40.500000000272173
1040
223.80000001221279
1040
-1.0
1040
-40.500000000272173
1040
229.80000001221299
1040
0.0
1040
-42.085786437895337
1040
229.80000001221299
1040
0.1989123673796868
1040
-42.297918472251162
1040
229.71213204656959
1040
0.0
1040
-42.563603897200132
1040
229.4464466216202
1040
-0.4142135623730951
1040
-43.270710678386791
1040
229.44644662161971
1040
0.0
1040
-44.912132034623397
1040
231.08786797785629
1040
-0.2679491924312271
1040
-44.989777748154438
1040
231.37764572574309
1040
0.0
1071
        0
1070
     0
1070
     1
1040
-1.5707963267948959
1040
0.25
1070
     0
1070
     2
1040
2.3561944901923439
1040
29.999999999703562
1040
99.99942956776674
1040
-0.5612660075668222
1040
-0.5612660075668219
1070
     0
1040
3.926990816987241
1040
29.999999999703562
1040
99.99942956776674
1040
0.5612660075668219
1040
-0.5612660075668222
1070
     0
1040
0.0212842410303403
1071
        1
1040
-45.043885230335071
1040
225.89878199209599
1040
0.0
1002
}
  0
INSERT
  5
ED5
  8
SAPA_FYLLNING
  6
CONTINUOUS
  2
*X96
 10
0.0
 20
0.0
 30
0.0
1001
ACAD
1000
HATCH
1002
{
1070
    19
1000
ANSI37
1040
0.25
1040
-1.5707963267948959
1000
R14_HATCH_DATA
1000
ED5
1011
1.0
1021
0.0
1031
0.0
1021
0.0
1031
0.0
1011
0.0
1021
0.0
1031
0.0
1021
1.0
1031
0.0
1011
0.0
1021
0.0
1031
0.0
1021
0.0
1031
1.0
1040
0.0
1010
0.0
1020
0.0
1030
1.0
1000
ANSI37
1070
     0
1070
     0
1071
        1
1071
        7
1070
     1
1070
     1
1071
        7
1040
-47.557275124870372
1040
23.800000012212859
1040
0.0
1040
-44.99079984046169
1040
14.22178385442983
1040
-0.2679491924311903
1040
-44.913154126930813
1040
14.51156160231676
1040
0.0
1040
-43.871732770698543
1040
15.55298295854891
1040
-0.198912367379658
1040
-43.518179380105323
1040
15.699429567955629
1040
0.0
1040
-37.023788900214683
1040
15.69942956795556
1040
-1.0
1040
-37.02378890021464
1040
23.800000012212859
1040
0.0
1071
        0
1070
     0
1070
     1
1040
-1.5707963267948959
1040
0.25
1070
     0
1070
     2
1040
2.3561944901923439
1040
29.999999999703562
1040
-0.0005704322332605
1040
-0.5612660075668222
1040
-0.5612660075668219
1070
     0
1040
3.926990816987241
1040
29.999999999703562
1040
-0.0005704322332605
1040
0.5612660075668219
1040
-0.5612660075668222
1070
     0
1040
0.0363322098761133
1071
        1
1040
-43.925819388433403
1040
20.705541263019541
1040
0.0
1002
}
  0
INSERT
  5
ED6
  8
SAPA_FYLLNING
  6
CONTINUOUS
  2
*X97
 10
0.0
 20
0.0
 30
0.0
1001
ACAD
1000
HATCH
1002
{
1070
    19
1000
HEX
1040
0.25
1040
-1.5707963267948959
1000
R14_HATCH_DATA
1000
ED6
1011
1.0
1021
0.0
1031
0.0
1021
0.0
1031
0.0
1011
0.0
1021
0.0
1031
0.0
1021
1.0
1031
0.0
1011
0.0
1021
0.0
1031
0.0
1021
0.0
1031
1.0
1040
0.0
1010
0.0
1020
0.0
1030
1.0
1000
HEX
1070
     0
1070
     0
1071
        1
1071
        7
1070
     1
1070
     1
1071
        2
1040
-41.074074122343937
1040
19.749714790084109
1040
1.0
1040
-32.973503678086651
1040
19.749714790084109
1040
1.0
1071
        0
1070
     0
1070
     1
1040
-1.5707963267948959
1040
0.25
1070
     0
1070
     3
1040
1.5707963267948959
1040
29.999999999703562
1040
-0.0005704322332605
1040
-1.374814999999999
1040
0.0000000000000003
1070
     2
1040
0.79375
1040
-1.587499999999999
1040
3.6651914291880909
1040
29.999999999703562
1040
-0.0005704322332605
1040
0.6874074999999995
1040
-1.1906247155039029
1070
     2
1040
0.7937499999999998
1040
-1.587499999999999
1040
2.6179938779914931
1040
29.999999999703562
1040
0.7931795677667424
1040
-0.6874075000000003
1040
-1.190624715503902
1070
     2
1040
0.7937499999999998
1040
-1.587499999999999
1040
0.0303180261480682
1071
        1
1040
-37.035370997809942
1040
19.92549244907099
1040
0.0
1002
}
  0
INSERT
  5
EE0
  8
SAPA_ISOLATOR
  6
CONTINUOUS
  2
*X103
 10
0.0
 20
0.0
 30
0.0
1001
ACAD
1000
HATCH
1002
{
1070
    19
1000
ANSI31
1040
0.35
1040
5.4977871437821371
1000
R14_HATCH_DATA
1000
EE0
1011
1.0
1021
0.0
1031
0.0
1021
0.0
1031
0.0
1011
0.0
1021
0.0
1031
0.0
1021
1.0
1031
0.0
1011
0.0
1021
0.0
1031
0.0
1021
0.0
1031
1.0
1040
0.0
1010
0.0
1020
0.0
1030
1.0
1000
ANSI31
1070
     0
1070
     0
1071
        1
1071
        1
1071
       49
1070
     2
1040
42.128163190286152
1040
39.036257514557398
1040
0.3006817060114675
1040
-3.1365342331756252
1040
-1.9206162522843451
1070
     0
1070
     1
1040
42.025110956664079
1040
39.318728266097217
1040
44.4579409782081
1040
40.20420597896841
1070
     2
1040
44.321132920875279
1040
40.580083027284537
1040
0.400000000002539
1040
5.0614548307880307
1040
6.2831853071802364
1070
     1
1070
     1
1040
44.721132920877821
1040
40.5800830272848
1040
44.721132920877793
1040
51.000000011998928
1070
     1
1040
44.721132920877793
1040
51.000000011998928
1040
44.721132920877729
1040
61.419916996717021
1070
     2
1040
44.321132920878078
1040
61.419916996715273
1040
0.3999999999996488
1040
6.2831853071839641
1040
7.5049157835761973
1070
     1
1070
     1
1040
44.457940978208008
1040
61.795794045029389
1040
42.025110956672322
1040
62.681271757897569
1070
     2
1040
42.128009399616047
1040
62.963634330044997
1040
0.3005273892841634
1040
1.9202588802441449
1040
3.1368916050751952
1070
     0
1070
     2
1040
47.388128406140979
1040
63.191810304983271
1040
5.5653807064749881
1040
3.1003279234522898
1040
3.1634922354923591
1070
     0
1070
     1
1040
41.824082201492367
1040
63.313680073750596
1040
41.685412444385847
1040
63.55386313853289
1070
     2
1040
41.867277779180753
1040
63.65886313853261
1040
0.2100000000000017
1040
2.6179938779930789
1040
4.7123889803841781
1070
     0
1070
     1
1040
41.86727777918064
1040
63.86886313853261
1040
42.134392307393547
1040
63.868863138532717
1070
     1
1040
42.134392307393547
1040
63.868863138532717
1040
42.330614373177852
1040
64.200000011998924
1070
     1
1040
42.330614373177852
1040
64.200000011998924
1040
42.898258536675293
1040
65.183320149979437
1070
     2
1040
42.71639320188175
1040
65.288320149977693
1040
0.209999999998109
1040
5.7595865315855992
1040
6.283185307182225
1070
     1
1070
     1
1040
42.926393201879861
1040
65.288320149978261
1040
42.926393201879968
1040
65.600000012000834
1070
     2
1040
42.526393201883842
1040
65.600000012002738
1040
0.3999999999961332
1040
6.2831853071748069
1040
7.8539816339849429
1070
     1
1070
     1
1040
42.526393201879657
1040
66.000000011998864
1040
39.126393201879907
1040
66.000000011998935
1070
     2
1040
39.126393201876994
1040
65.600000012001857
1040
0.3999999999970676
1040
7.8539816339672077
1040
9.4247779607767956
1070
     1
1070
     1
1040
38.72639320187993
1040
65.600000011998901
1040
38.72639320187993
1040
65.288320149975249
1070
     2
1040
38.936393201874878
1040
65.288320149976883
1040
0.2099999999949489
1040
3.1415926535976761
1040
3.6651914291943042
1070
     1
1070
     1
1040
38.75452786708518
1040
65.1833201499783
1040
39.322248013447208
1040
64.200000011998924
1070
     1
1040
39.322248013447208
1040
64.200000011998924
1040
39.66562368641933
1040
63.605255900328039
1070
     2
1040
38.626393201868929
1040
63.005255900321927
1040
1.2000000000109059
1040
-0.5235987755989325
1040
-0.0000000000022795
1070
     0
1070
     1
1040
39.826393201879839
1040
63.005255900324663
1040
39.826393201879611
1040
62.053391567438233
1070
     2
1040
40.826393201871859
1040
62.053391567447242
1040
0.9999999999922533
1040
3.1415926535988019
1040
4.3633231299913087
1070
     1
1070
     1
1040
40.484373058553999
1040
61.11369894666673
1040
42.657940978207677
1040
60.322584921756878
1070
     2
1040
42.521132920876411
1040
59.946707873441397
1040
0.4000000000013905
1040
-1.2217304763946191
1040
-0.0000000000023892
1070
     0
1070
     1
1040
42.92113292087781
1040
59.946707873442357
1040
42.92113292087781
1040
51.000000011998928
1070
     1
1040
42.92113292087781
1040
51.000000011998928
1040
42.921132920877859
1040
42.053292150555443
1070
     2
1040
42.521132920879289
1040
42.053292150554448
1040
0.3999999999985775
1040
-0.0000000000024847
1040
1.2217304763897181
1070
     0
1070
     1
1040
42.657940978211442
1040
41.677415102242279
1040
40.484373058554219
1040
40.886301077331169
1070
     2
1040
40.826393201893097
1040
39.946608456536019
1040
1.000000000013211
1040
8.2030474843825996
1040
9.4247779607748186
1070
     1
1070
     1
1040
39.826393201879903
1040
39.946608456530583
1040
39.826393201879903
1040
38.99474412367308
1070
     2
1040
38.62639320189087
1040
38.994744123670088
1040
1.1999999999890261
1040
-0.0000000000024949
1040
0.5235987755941554
1070
     0
1070
     1
1040
39.665623686425178
1040
38.394744123679878
1040
39.326393201879952
1040
37.807179688971381
1070
     1
1040
39.326393201879952
1040
37.807179688971381
1040
38.75452786708523
1040
36.816679874019449
1070
     2
1040
38.936393201886382
1040
36.71167987401779
1040
0.2100000000063851
1040
8.9011791851794602
1040
9.4247779607761366
1070
     1
1070
     1
1040
38.726393201879993
1040
36.711679874016362
1040
38.72639320187993
1040
36.400000011998848
1070
     2
1040
39.126393201882877
1040
36.400000012001819
1040
0.40000000000295
1040
3.1415926535972249
1040
4.7123889803872041
1070
     1
1070
     1
1040
39.126393201883893
1040
36.000000011998871
1040
42.526393201879941
1040
36.000000011998871
1070
     2
1040
42.52639320187793
1040
36.400000012000852
1040
0.4000000000019782
1040
4.712388980389691
1040
6.283185307179699
1070
     1
1070
     1
1040
42.926393201879911
1040
36.400000012000888
1040
42.926393201879911
1040
36.711679874019538
1070
     2
1040
42.716393201878013
1040
36.711679874019069
1040
0.2100000000019078
1040
6.2831853071818378
1040
6.8067840827784662
1070
     1
1070
     1
1040
42.898258536674327
1040
36.816679874020132
1040
42.134392307393547
1040
38.131136885465132
1070
     1
1040
42.134392307393547
1040
38.131136885465132
1040
41.86727777918064
1040
38.131136885465253
1070
     2
1040
41.867277779180753
1040
38.341136885465247
1040
0.2100000000000017
1040
1.570796326795403
1040
3.6651914291865029
1070
     0
1070
     1
1040
41.685412444385847
1040
38.446136885464959
1040
41.824082201492367
1040
38.686319950247253
1070
     2
1040
47.38812840558348
1040
38.808189719017662
1040
5.5653807059176952
1040
3.11969307168448
1040
3.1828573837245471
1070
     0
1071
        0
1070
     0
1070
     1
1040
5.4977871437821371
1040
0.35
1070
     0
1070
     1
1040
0.0
1040
0.0
1040
0.0
1040
0.0000000000000003
1040
1.111249999999999
1070
     0
1071
        1
1040
44.721133113897999
1040
35.999999861183113
1040
0.0
1002
}
  0
INSERT
  5
EE1
  8
SAPA_ISOLATOR
  6
CONTINUOUS
  2
*X104
 10
0.0
 20
0.0
 30
0.0
1001
ACAD
1000
HATCH
1002
{
1070
    19
1000
ANSI31
1040
0.35
1040
5.4977871437821371
1000
R14_HATCH_DATA
1000
EE1
1011
1.0
1021
0.0
1031
0.0
1021
0.0
1031
0.0
1011
0.0
1021
0.0
1031
0.0
1021
1.0
1031
0.0
1011
0.0
1021
0.0
1031
0.0
1021
0.0
1031
1.0
1040
0.0
1010
0.0
1020
0.0
1030
1.0
1000
ANSI31
1070
     0
1070
     0
1071
        1
1071
        1
1071
       49
1070
     2
1040
2.8718368089840629
1040
39.036257514557398
1040
0.3006817060114675
1040
0.0050584204141675
1040
1.2209764013054469
1070
     1
1070
     1
1040
2.9748890426061361
1040
39.318728266097217
1040
0.5420590210621157
1040
40.20420597896841
1070
     2
1040
0.6788670783949337
1040
40.580083027284537
1040
0.400000000002539
1040
1.919862177198238
1040
3.1415926535904428
1070
     0
1070
     1
1040
0.2788670783923948
1040
40.5800830272848
1040
0.2788670783924232
1040
51.000000011998928
1070
     1
1040
0.2788670783924232
1040
51.000000011998928
1040
0.2788670783924809
1040
61.419916996717021
1070
     2
1040
0.6788670783921305
1040
61.419916996715273
1040
0.3999999999996488
1040
3.1415926535941709
1040
4.3633231299864041
1070
     0
1070
     1
1040
0.5420590210622011
1040
61.795794045029389
1040
2.9748890425978942
1040
62.681271757897569
1070
     2
1040
2.8719905996541542
1040
62.963634330044997
1040
0.3005273892841634
1040
5.0618515338339378
1040
6.2784842586649878
1070
     1
1070
     2
1040
-2.3881284068707691
1040
63.191810304983271
1040
5.5653807064749881
1040
6.2419205770420829
1040
6.3050848890821518
1070
     1
1070
     1
1040
3.175917797777843
1040
63.313680073750596
1040
3.3145875548843668
1040
63.55386313853289
1070
     2
1040
3.1327222200894669
1040
63.65886313853261
1040
0.2100000000000017
1040
5.7595865315828716
1040
7.8539816339739712
1070
     1
1070
     1
1040
3.1327222200895761
1040
63.86886313853261
1040
2.8656076918766611
1040
63.868863138532717
1070
     1
1040
2.8656076918766611
1040
63.868863138532717
1040
2.669385626092363
1040
64.200000011998924
1070
     1
1040
2.669385626092363
1040
64.200000011998924
1040
2.1017414625949149
1040
65.183320149979437
1070
     2
1040
2.2836067973884608
1040
65.288320149977693
1040
0.209999999998109
1040
2.6179938779958061
1040
3.1415926535924319
1070
     0
1070
     1
1040
2.073606797390354
1040
65.288320149978261
1040
2.0736067973902421
1040
65.600000012000834
1070
     2
1040
2.473606797386374
1040
65.600000012002738
1040
0.3999999999961332
1040
3.1415926535850138
1040
4.7123889803951498
1070
     0
1070
     1
1040
2.4736067973905591
1040
66.000000011998864
1040
5.8736067973903081
1040
66.000000011998935
1070
     2
1040
5.8736067973932178
1040
65.600000012001857
1040
0.3999999999970676
1040
4.7123889803774146
1040
6.2831853071870016
1070
     0
1070
     1
1040
6.2736067973902863
1040
65.600000011998901
1040
6.2736067973902854
1040
65.288320149975249
1070
     2
1040
6.0636067973953374
1040
65.288320149976883
1040
0.2099999999949489
1040
0.0000000000078835
1040
0.5235987756045111
1070
     0
1070
     1
1040
6.2454721321850419
1040
65.1833201499783
1040
5.677751985823007
1040
64.200000011998924
1070
     1
1040
5.677751985823007
1040
64.200000011998924
1040
5.3343763128508916
1040
63.605255900328039
1070
     2
1040
6.3736067974012833
1040
63.005255900321927
1040
1.2000000000109059
1040
2.6179938779908598
1040
3.1415926535875132
1070
     1
1070
     1
1040
5.1736067973903772
1040
63.005255900324663
1040
5.1736067973906046
1040
62.053391567438233
1070
     2
1040
4.1736067973983531
1040
62.053391567447242
1040
0.9999999999922533
1040
0.0000000000090097
1040
1.221730476401516
1070
     0
1070
     1
1040
4.5156269407162171
1040
61.11369894666673
1040
2.3420590210625249
1040
60.322584921756878
1070
     2
1040
2.4788670783937969
1040
59.946707873441397
1040
0.4000000000013905
1040
1.9198621771951729
1040
3.141592653587403
1070
     1
1070
     1
1040
2.0788670783924061
1040
59.946707873442357
1040
2.0788670783924039
1040
51.000000011998928
1070
     1
1040
2.0788670783924061
1040
51.000000011998928
1040
2.0788670783923489
1040
42.053292150555443
1070
     2
1040
2.4788670783909259
1040
42.053292150554448
1040
0.3999999999985775
1040
3.141592653587308
1040
4.363323129979511
1070
     1
1070
     1
1040
2.3420590210587728
1040
41.677415102242279
1040
4.5156269407159888
1040
40.886301077331169
1070
     2
1040
4.1736067973771087
1040
39.946608456536019
1040
1.000000000013211
1040
5.0614548307928056
1040
6.2831853071850263
1070
     0
1070
     1
1040
5.1736067973903204
1040
39.946608456530583
1040
5.1736067973903204
1040
38.99474412367308
1070
     2
1040
6.3736067973793471
1040
38.994744123670088
1040
1.1999999999890261
1040
3.1415926535872978
1040
3.665191429183948
1070
     1
1070
     1
1040
5.3343763128450368
1040
38.394744123679878
1040
5.6736067973902626
1040
37.807179688971381
1070
     1
1040
5.6736067973902626
1040
37.807179688971381
1040
6.2454721321849851
1040
36.816679874019449
1070
     2
1040
6.0636067973838443
1040
36.71167987401779
1040
0.2100000000063851
1040
5.759586531589667
1040
6.2831853071863426
1070
     0
1070
     1
1040
6.2736067973902294
1040
36.711679874016362
1040
6.2736067973902863
1040
36.400000011998848
1070
     2
1040
5.8736067973873354
1040
36.400000012001819
1040
0.40000000000295
1040
0.0000000000074323
1040
1.570796326797411
1070
     0
1070
     1
1040
5.8736067973863291
1040
36.000000011998871
1040
2.473606797390274
1040
36.000000011998871
1070
     2
1040
2.4736067973922751
1040
36.400000012000852
1040
0.4000000000019782
1040
1.5707963267998979
1040
3.1415926535899059
1070
     0
1070
     1
1040
2.0736067973902972
1040
36.400000012000888
1040
2.0736067973902972
1040
36.711679874019538
1070
     2
1040
2.2836067973922058
1040
36.711679874019069
1040
0.2100000000019078
1040
3.1415926535920451
1040
3.6651914291886731
1070
     0
1070
     1
1040
2.1017414625958821
1040
36.816679874020132
1040
2.8656076918766611
1040
38.131136885465132
1070
     1
1040
2.8656076918766611
1040
38.131136885465132
1040
3.1327222200895748
1040
38.131136885465253
1070
     2
1040
3.1327222200894691
1040
38.341136885465247
1040
0.2100000000000017
1040
4.7123889803851959
1040
6.8067840827762964
1070
     1
1070
     1
1040
3.3145875548843691
1040
38.446136885464959
1040
3.1759177977778452
1040
38.686319950247253
1070
     2
1040
-2.3881284063132742
1040
38.808189719017662
1040
5.5653807059176952
1040
6.2612857252742726
1040
6.3244500373143397
1070
     1
1071
        0
1070
     0
1070
     1
1040
5.4977871437821371
1040
0.35
1070
     0
1070
     1
1040
0.0
1040
0.27886688537221
1040
35.999999861183113
1040
0.0000000000000003
1040
1.111249999999999
1070
     0
1071
        1
1040
0.27886688537221
1040
35.999999861183113
1040
0.0
1002
}
  0
INSERT
  5
EE2
  8
SAPA_ISOLATOR
  6
CONTINUOUS
  2
*X105
 10
0.0
 20
0.0
 30
0.0
1001
ACAD
1000
HATCH
1002
{
1070
    19
1000
ANSI31
1040
0.35
1040
5.4977871437821371
1000
R14_HATCH_DATA
1000
EE2
1011
1.0
1021
0.0
1031
0.0
1021
0.0
1031
0.0
1011
0.0
1021
0.0
1031
0.0
1021
1.0
1031
0.0
1011
0.0
1021
0.0
1031
0.0
1021
0.0
1031
1.0
1040
0.0
1010
0.0
1020
0.0
1030
1.0
1000
ANSI31
1070
     0
1070
     0
1071
        1
1071
        1
1071
       49
1070
     2
1040
117.1318437150333
1040
39.036257424794186
1040
0.3006817060114675
1040
-3.1365342331756252
1040
-1.9206162522843451
1070
     0
1070
     1
1040
117.0287914814112
1040
39.318728176334012
1040
119.4616215029552
1040
40.204205889205198
1070
     2
1040
119.3248134456224
1040
40.580082937521333
1040
0.400000000002539
1040
5.0614548307880307
1040
6.2831853071802364
1070
     1
1070
     1
1040
119.724813445625
1040
40.580082937521588
1040
119.7248134456249
1040
50.999999922235723
1070
     1
1040
119.7248134456249
1040
50.999999922235723
1040
119.7248134456249
1040
61.419916906953809
1070
     2
1040
119.3248134456252
1040
61.419916906952061
1040
0.3999999999996488
1040
6.2831853071839641
1040
7.5049157835761973
1070
     1
1070
     1
1040
119.4616215029552
1040
61.795793955266177
1040
117.0287914814195
1040
62.68127166813435
1070
     2
1040
117.1316899243632
1040
62.963634240281777
1040
0.3005273892841634
1040
1.9202588802441449
1040
3.1368916050751952
1070
     0
1070
     2
1040
122.3918089308881
1040
63.191810215220059
1040
5.5653807064749881
1040
3.1003279234522898
1040
3.1634922354923591
1070
     0
1070
     1
1040
116.8277627262395
1040
63.313679983987392
1040
116.689092969133
1040
63.553863048769692
1070
     2
1040
116.87095830392791
1040
63.658863048769398
1040
0.2100000000000017
1040
2.6179938779930789
1040
4.7123889803841781
1070
     0
1070
     1
1040
116.87095830392779
1040
63.868863048769398
1040
117.13807283214069
1040
63.868863048769512
1070
     1
1040
117.13807283214069
1040
63.868863048769512
1040
117.33429489792501
1040
64.199999922235705
1070
     1
1040
117.33429489792501
1040
64.199999922235705
1040
117.9019390614225
1040
65.183320060216218
1070
     2
1040
117.7200737266289
1040
65.288320060214488
1040
0.209999999998109
1040
5.7595865315855992
1040
6.283185307182225
1070
     1
1070
     1
1040
117.930073726627
1040
65.288320060215042
1040
117.9300737266271
1040
65.599999922237615
1070
     2
1040
117.530073726631
1040
65.599999922239533
1040
0.3999999999961332
1040
6.2831853071748069
1040
7.8539816339849429
1070
     1
1070
     1
1040
117.5300737266268
1040
65.999999922235645
1040
114.130073726627
1040
65.999999922235716
1070
     2
1040
114.1300737266241
1040
65.599999922238652
1040
0.3999999999970676
1040
7.8539816339672077
1040
9.4247779607767956
1070
     1
1070
     1
1040
113.7300737266271
1040
65.599999922235682
1040
113.7300737266271
1040
65.28832006021203
1070
     2
1040
113.940073726622
1040
65.288320060213692
1040
0.2099999999949489
1040
3.1415926535976761
1040
3.6651914291943042
1070
     1
1070
     1
1040
113.7582083918323
1040
65.183320060215081
1040
114.3259285381944
1040
64.199999922235705
1070
     1
1040
114.3259285381944
1040
64.199999922235705
1040
114.66930421116651
1040
63.60525581056482
1070
     2
1040
113.6300737266161
1040
63.005255810558722
1040
1.2000000000109059
1040
-0.5235987755989325
1040
-0.0000000000022795
1070
     0
1070
     1
1040
114.83007372662701
1040
63.005255810561451
1040
114.83007372662679
1040
62.053391477675021
1070
     2
1040
115.83007372661901
1040
62.053391477684031
1040
0.9999999999922533
1040
3.1415926535988019
1040
4.3633231299913087
1070
     1
1070
     1
1040
115.4880535833011
1040
61.113698856903518
1040
117.6616215029548
1040
60.322584831993673
1070
     2
1040
117.52481344562349
1040
59.946707783678193
1040
0.4000000000013905
1040
-1.2217304763946191
1040
-0.0000000000023892
1070
     0
1070
     1
1040
117.92481344562491
1040
59.946707783679152
1040
117.92481344562491
1040
50.999999922235723
1070
     1
1040
117.92481344562491
1040
50.999999922235723
1040
117.92481344562501
1040
42.053292060792216
1070
     2
1040
117.52481344562641
1040
42.053292060791229
1040
0.3999999999985775
1040
-0.0000000000024847
1040
1.2217304763897181
1070
     0
1070
     1
1040
117.6616215029586
1040
41.677415012479067
1040
115.48805358330139
1040
40.886300987567957
1070
     2
1040
115.83007372664029
1040
39.946608366772807
1040
1.000000000013211
1040
8.2030474843825996
1040
9.4247779607748186
1070
     1
1070
     1
1040
114.83007372662701
1040
39.946608366767357
1040
114.83007372662701
1040
38.994744033909868
1070
     2
1040
113.630073726638
1040
38.994744033906869
1040
1.1999999999890261
1040
-0.0000000000024949
1040
0.5235987755941554
1070
     0
1070
     1
1040
114.6693042111723
1040
38.394744033916673
1040
114.33007372662711
1040
37.807179599208169
1070
     1
1040
114.33007372662711
1040
37.807179599208169
1040
113.7582083918324
1040
36.816679784256237
1070
     2
1040
113.9400737266335
1040
36.711679784254571
1040
0.2100000000063851
1040
8.9011791851794602
1040
9.4247779607761366
1070
     1
1070
     1
1040
113.7300737266271
1040
36.71167978425315
1040
113.7300737266271
1040
36.399999922235637
1070
     2
1040
114.13007372663
1040
36.399999922238607
1040
0.40000000000295
1040
3.1415926535972249
1040
4.7123889803872041
1070
     1
1070
     1
1040
114.130073726631
1040
35.999999922235659
1040
117.53007372662709
1040
35.999999922235659
1070
     2
1040
117.5300737266251
1040
36.39999992223764
1040
0.4000000000019782
1040
4.712388980389691
1040
6.283185307179699
1070
     1
1070
     1
1040
117.9300737266271
1040
36.399999922237683
1040
117.9300737266271
1040
36.711679784256333
1070
     2
1040
117.7200737266252
1040
36.711679784255857
1040
0.2100000000019078
1040
6.2831853071818378
1040
6.8067840827784662
1070
     1
1070
     1
1040
117.9019390614215
1040
36.81667978425692
1040
117.13807283214069
1040
38.13113679570192
1070
     1
1040
117.13807283214069
1040
38.13113679570192
1040
116.87095830392779
1040
38.131136795702041
1070
     2
1040
116.87095830392791
1040
38.341136795702027
1040
0.2100000000000017
1040
1.570796326795403
1040
3.6651914291865029
1070
     0
1070
     1
1040
116.689092969133
1040
38.446136795701747
1040
116.8277627262395
1040
38.686319860484041
1070
     2
1040
122.3918089303306
1040
38.808189629254443
1040
5.5653807059176952
1040
3.11969307168448
1040
3.1828573837245471
1070
     0
1071
        0
1070
     0
1070
     1
1040
5.4977871437821371
1040
0.35
1070
     0
1070
     1
1040
0.0
1040
0.0
1040
0.0
1040
0.0000000000000003
1040
1.111249999999999
1070
     0
1071
        1
1040
119.7248136386451
1040
35.999999771419887
1040
0.0
1002
}
  0
INSERT
  5
EE3
  8
SAPA_ISOLATOR
  6
CONTINUOUS
  2
*X106
 10
0.0
 20
0.0
 30
0.0
1001
ACAD
1000
HATCH
1002
{
1070
    19
1000
ANSI31
1040
0.35
1040
5.4977871437821371
1000
R14_HATCH_DATA
1000
EE3
1011
1.0
1021
0.0
1031
0.0
1021
0.0
1031
0.0
1011
0.0
1021
0.0
1031
0.0
1021
1.0
1031
0.0
1011
0.0
1021
0.0
1031
0.0
1021
0.0
1031
1.0
1040
0.0
1010
0.0
1020
0.0
1030
1.0
1000
ANSI31
1070
     0
1070
     0
1071
        1
1071
        7
1070
     1
1070
     1
1071
       24
1040
72.472878625058698
1040
63.002105922259098
1040
-0.1309057172584691
1040
72.631890716092826
1040
63.599051626172368
1040
0.0
1040
73.572878625006183
1040
65.239999922284994
1040
0.0
1040
73.572878624997671
1040
65.599999922285306
1040
0.4142135623728775
1040
73.172878624988144
1040
65.999999922275563
1040
0.0
1040
69.772878624988167
1040
65.999999922195812
1040
0.4142135623731472
1040
69.372878624997512
1040
65.599999922186285
1040
0.0
1040
69.372878625006152
1040
65.23999992218593
1040
0.0
1040
70.164879519474567
1040
63.858863048769379
1040
0.0
1040
70.431994047687581
1040
63.858863048769379
1040
-0.5773502691895098
1040
70.613859382482261
1040
63.543863048769673
1040
0.0
1040
70.472878625058698
1040
63.299677214021827
1040
0.0
1040
70.472878625058698
1040
38.700322630532028
1040
0.0
1040
70.613859382482147
1040
38.456136795784133
1040
-0.5773502691896486
1040
70.431994047687581
1040
38.141136795784419
1040
0.0
1040
70.164879519474553
1040
38.141136795784533
1040
0.0
1040
69.372878625006152
1040
36.759999922367747
1040
0.0
1040
69.372878624997625
1040
36.399999922367513
1040
0.4142135623730794
1040
69.772878624988167
1040
35.999999922357929
1040
0.0
1040
73.172878624988144
1040
35.999999922278178
1040
0.4142135623729623
1040
73.572878624997671
1040
36.399999922268549
1040
0.0
1040
73.572878625006183
1040
36.75999992226896
1040
0.0
1040
72.631890716092826
1040
38.40094821838138
1040
-0.1309134860018382
1040
72.472878625618719
1040
38.997930583979631
1040
0.0
1071
        0
1070
     0
1070
     1
1040
5.4977871437821371
1040
0.35
1070
     0
1070
     1
1040
0.0
1040
38.54465575435389
1040
11.984000535928949
1040
0.0000000000000003
1040
1.111249999999999
1070
     0
1040
0.1003283970076292
1071
        1
1040
71.687814843405675
1040
50.465565319402359
1040
0.0
1002
}
  0
INSERT
  5
EE4
  8
SAPA_ISOLATOR
  6
CONTINUOUS
  2
*X107
 10
0.0
 20
0.0
 30
0.0
1001
ACAD
1000
HATCH
1002
{
1070
    19
1000
ANSI31
1040
0.35
1040
5.4977871437821371
1000
R14_HATCH_DATA
1000
EE4
1011
1.0
1021
0.0
1031
0.0
1021
0.0
1031
0.0
1011
0.0
1021
0.0
1031
0.0
1021
1.0
1031
0.0
1011
0.0
1021
0.0
1031
0.0
1021
0.0
1031
1.0
1040
0.0
1010
0.0
1020
0.0
1030
1.0
1000
ANSI31
1070
     0
1070
     0
1071
        1
1071
        7
1070
     1
1070
     1
1071
       24
1040
50.50000000143848
1040
63.00210600675495
1040
0.1309057172584691
1040
50.340987910404351
1040
63.59905171066822
1040
0.0
1040
49.40000000149098
1040
65.240000006780861
1040
0.0
1040
49.4000000014995
1040
65.600000006781144
1040
-0.4142135623728775
1040
49.800000001509027
1040
66.000000006771415
1040
0.0
1040
53.200000001509011
1040
66.000000006691664
1040
-0.4142135623731472
1040
53.600000001499659
1040
65.600000006682137
1040
0.0
1040
53.600000001491033
1040
65.240000006681782
1040
0.0
1040
52.807999107022617
1040
63.858863133265231
1040
0.0
1040
52.540884578809603
1040
63.858863133265231
1040
0.5773502691895098
1040
52.359019244014917
1040
63.543863133265518
1040
0.0
1040
52.50000000143848
1040
63.299677298517679
1040
0.0
1040
52.50000000143848
1040
38.70032271502788
1040
0.0
1040
52.35901924401503
1040
38.456136880279992
1040
0.5773502691896486
1040
52.540884578809603
1040
38.141136880280271
1040
0.0
1040
52.807999107022617
1040
38.141136880280392
1040
0.0
1040
53.600000001491033
1040
36.760000006863613
1040
0.0
1040
53.600000001499552
1040
36.400000006863372
1040
-0.4142135623730794
1040
53.200000001509011
1040
36.000000006853782
1040
0.0
1040
49.800000001509027
1040
36.00000000677403
1040
-0.4142135623729623
1040
49.4000000014995
1040
36.400000006764401
1040
0.0
1040
49.40000000149098
1040
36.760000006764812
1040
0.0
1040
50.340987910404351
1040
38.400948302877232
1040
0.1309134860018382
1040
50.500000000878451
1040
38.997930668475483
1040
0.0
1071
        0
1070
     0
1070
     1
1040
5.4977871437821371
1040
0.35
1070
     0
1070
     1
1040
0.0
1040
0.0
1040
0.0
1040
0.0000000000000003
1040
1.111249999999999
1070
     0
1040
0.1003283970076292
1071
        1
1040
51.285063783091502
1040
50.465565403898218
1040
0.0
1002
}
  0
POLYLINE
  5
EF7
  8
SAPA_FOGBAND
 66
     1
 10
0.0
 20
0.0
 30
0.0
 70
   129
  0
VERTEX
  5
1C0F
  8
SAPA_FOGBAND
 10
125.56171828626429
 20
50.584819410821922
 30
0.0
  0
VERTEX
  5
1C10
  8
SAPA_FOGBAND
 10
125.6122291129678
 20
50.821383466272259
 30
0.0
  0
VERTEX
  5
1C11
  8
SAPA_FOGBAND
 10
125.7619360001954
 20
51.049397480397197
 30
0.0
  0
VERTEX
  5
1C12
  8
SAPA_FOGBAND
 10
126.00542815098611
 20
51.260620432641467
 30
0.0
  0
VERTEX
  5
1C13
  8
SAPA_FOGBAND
 10
126.33390512459761
 20
51.447418175174619
 30
0.0
  0
VERTEX
  5
1C14
  8
SAPA_FOGBAND
 10
126.7354949073643
 20
51.603039350884778
 30
0.0
  0
VERTEX
  5
1C15
  8
SAPA_FOGBAND
 10
127.19568299820639
 20
51.721859405014868
 30
0.0
  0
VERTEX
  5
1C16
  8
SAPA_FOGBAND
 10
127.6978370005118
 20
51.799583871226162
 30
0.0
  0
VERTEX
  5
1C17
  8
SAPA_FOGBAND
 10
128.223807760287
 20
51.833403584800458
 30
0.0
  0
VERTEX
  5
1C18
  8
SAPA_FOGBAND
 10
128.75458532387171
 20
51.822096213172983
 30
0.0
  0
VERTEX
  5
1C19
  8
SAPA_FOGBAND
 10
129.27098600718909
 20
51.76607043421501
 30
0.0
  0
VERTEX
  5
1C1A
  8
SAPA_FOGBAND
 10
129.75434574407609
 20
51.667351165552482
 30
0.0
  0
VERTEX
  5
1C1B
  8
SAPA_FOGBAND
 10
130.18719465426059
 20
51.529506378764658
 30
0.0
  0
VERTEX
  5
1C1C
  8
SAPA_FOGBAND
 10
130.55388845035031
 20
51.357518143597467
 30
0.0
  0
VERTEX
  5
1C1D
  8
SAPA_FOGBAND
 10
130.84117386314401
 20
51.157602562980912
 30
0.0
  0
VERTEX
  5
1C1E
  8
SAPA_FOGBAND
 10
131.03866764930811
 20
50.936985106873458
 30
0.0
  0
VERTEX
  5
1C1F
  8
SAPA_FOGBAND
 10
131.13923186884631
 20
50.703639464951998
 30
0.0
  0
VERTEX
  5
1C20
  8
SAPA_FOGBAND
 10
131.13923186884631
 20
50.465999356691611
 30
0.0
  0
VERTEX
  5
1C21
  8
SAPA_FOGBAND
 10
131.03866764930811
 20
50.232653714769917
 30
0.0
  0
VERTEX
  5
1C22
  8
SAPA_FOGBAND
 10
130.84117386314401
 20
50.012036258662476
 30
0.0
  0
VERTEX
  5
1C23
  8
SAPA_FOGBAND
 10
130.55388845035031
 20
49.812120678045908
 30
0.0
  0
VERTEX
  5
1C24
  8
SAPA_FOGBAND
 10
130.18719465426059
 20
49.640132442878951
 30
0.0
  0
VERTEX
  5
1C25
  8
SAPA_FOGBAND
 10
129.75434574407609
 20
49.502287656091369
 30
0.0
  0
VERTEX
  5
1C26
  8
SAPA_FOGBAND
 10
129.27098600718909
 20
49.403568387428379
 30
0.0
  0
VERTEX
  5
1C27
  8
SAPA_FOGBAND
 10
128.75458532387171
 20
49.347542608470633
 30
0.0
  0
VERTEX
  5
1C28
  8
SAPA_FOGBAND
 10
128.223807760287
 20
49.336235236842931
 30
0.0
  0
VERTEX
  5
1C29
  8
SAPA_FOGBAND
 10
127.6978370005118
 20
49.370054950417227
 30
0.0
  0
VERTEX
  5
1C2A
  8
SAPA_FOGBAND
 10
127.19568299820639
 20
49.447779416628521
 30
0.0
  0
VERTEX
  5
1C2B
  8
SAPA_FOGBAND
 10
126.7354949073643
 20
49.566599470759051
 30
0.0
  0
VERTEX
  5
1C2C
  8
SAPA_FOGBAND
 10
126.33390512459761
 20
49.722220646469218
 30
0.0
  0
VERTEX
  5
1C2D
  8
SAPA_FOGBAND
 10
126.00542815098611
 20
49.90901838900237
 30
0.0
  0
VERTEX
  5
1C2E
  8
SAPA_FOGBAND
 10
125.7619360001954
 20
50.120241341246413
 30
0.0
  0
VERTEX
  5
1C2F
  8
SAPA_FOGBAND
 10
125.6122291129678
 20
50.34825535537135
 30
0.0
  0
SEQEND
  5
1C30
  8
SAPA_FOGBAND
  0
POLYLINE
  5
EF8
  8
SAPA_FOGBAND
 66
     1
 10
0.0
 20
0.0
 30
0.0
 70
     1
  0
VERTEX
  5
1C31
  8
SAPA_FOGBAND
 10
128.8195353507013
 20
46.949999853745169
 30
0.0
  0
VERTEX
  5
1C32
  8
SAPA_FOGBAND
 10
142.5
 20
46.949999853745169
 30
0.0
 42
0.427966335106886
  0
VERTEX
  5
1C33
  8
SAPA_FOGBAND
 10
142.79967256771991
 20
47.264012425104568
 30
0.0
  0
VERTEX
  5
1C34
  8
SAPA_FOGBAND
 10
142.31337265964021
 20
55.664012425104197
 30
0.0
 42
0.4005932428724212
  0
VERTEX
  5
1C35
  8
SAPA_FOGBAND
 10
142.0137000919203
 20
55.949999853745169
 30
0.0
  0
VERTEX
  5
1C36
  8
SAPA_FOGBAND
 10
140.1999999999999
 20
55.949999853745169
 30
0.0
  0
VERTEX
  5
1C37
  8
SAPA_FOGBAND
 10
140.1999999999999
 20
57.64999985374498
 30
0.0
 42
0.4142135623730951
  0
VERTEX
  5
1C38
  8
SAPA_FOGBAND
 10
139.89999999999969
 20
57.949999853745162
 30
0.0
  0
VERTEX
  5
1C39
  8
SAPA_FOGBAND
 10
132.4812192363743
 20
57.949999853745162
 30
0.0
 42
0.1379343940649207
  0
VERTEX
  5
1C3A
  8
SAPA_FOGBAND
 10
131.96000092732541
 20
57.803423238890268
 30
0.0
  0
VERTEX
  5
1C3B
  8
SAPA_FOGBAND
 10
120.03939084547579
 20
50.996205000982002
 30
0.0
 42
0.2613472755167645
  0
VERTEX
  5
1C3C
  8
SAPA_FOGBAND
 10
119.8000000000002
 20
50.569493308409449
 30
0.0
  0
VERTEX
  5
1C3D
  8
SAPA_FOGBAND
 10
119.8000000000002
 20
48.774796691246422
 30
0.0
 42
0.3915187749346393
  0
VERTEX
  5
1C3E
  8
SAPA_FOGBAND
 10
120.7219776997736
 20
47.777845077241011
 30
0.0
  0
VERTEX
  5
1C3F
  8
SAPA_FOGBAND
 10
128.78052420058799
 20
46.951524046742463
 30
0.0
 42
0.0195279011117891
  0
SEQEND
  5
1C40
  8
SAPA_FOGBAND
  0
POLYLINE
  5
EF9
  8
SAPA_FOGBAND
 66
     1
 10
0.0
 20
0.0
 30
0.0
 70
   129
  0
VERTEX
  5
1C41
  8
SAPA_FOGBAND
 10
133.28637780303691
 20
52.429565246451432
 30
0.0
  0
VERTEX
  5
1C42
  8
SAPA_FOGBAND
 10
133.3368886297404
 20
52.666129301901769
 30
0.0
  0
VERTEX
  5
1C43
  8
SAPA_FOGBAND
 10
133.48659551696801
 20
52.894143316026707
 30
0.0
  0
VERTEX
  5
1C44
  8
SAPA_FOGBAND
 10
133.73008766775871
 20
53.105366268270977
 30
0.0
  0
VERTEX
  5
1C45
  8
SAPA_FOGBAND
 10
134.0585646413702
 20
53.292164010804129
 30
0.0
  0
VERTEX
  5
1C46
  8
SAPA_FOGBAND
 10
134.4601544241369
 20
53.447785186514302
 30
0.0
  0
VERTEX
  5
1C47
  8
SAPA_FOGBAND
 10
134.92034251497901
 20
53.566605240644371
 30
0.0
  0
VERTEX
  5
1C48
  8
SAPA_FOGBAND
 10
135.4224965172844
 20
53.644329706855672
 30
0.0
  0
VERTEX
  5
1C49
  8
SAPA_FOGBAND
 10
135.94846727705959
 20
53.678149420429968
 30
0.0
  0
VERTEX
  5
1C4A
  8
SAPA_FOGBAND
 10
136.4792448406443
 20
53.666842048802494
 30
0.0
  0
VERTEX
  5
1C4B
  8
SAPA_FOGBAND
 10
136.99564552396171
 20
53.61081626984452
 30
0.0
  0
VERTEX
  5
1C4C
  8
SAPA_FOGBAND
 10
137.47900526084871
 20
53.512097001181978
 30
0.0
  0
VERTEX
  5
1C4D
  8
SAPA_FOGBAND
 10
137.91185417103321
 20
53.374252214394168
 30
0.0
  0
VERTEX
  5
1C4E
  8
SAPA_FOGBAND
 10
138.2785479671229
 20
53.202263979226991
 30
0.0
  0
VERTEX
  5
1C4F
  8
SAPA_FOGBAND
 10
138.56583337991651
 20
53.002348398610422
 30
0.0
  0
VERTEX
  5
1C50
  8
SAPA_FOGBAND
 10
138.7633271660807
 20
52.781730942502982
 30
0.0
  0
VERTEX
  5
1C51
  8
SAPA_FOGBAND
 10
138.8638913856189
 20
52.548385300581508
 30
0.0
  0
VERTEX
  5
1C52
  8
SAPA_FOGBAND
 10
138.8638913856189
 20
52.310745192321122
 30
0.0
  0
VERTEX
  5
1C53
  8
SAPA_FOGBAND
 10
138.7633271660807
 20
52.077399550399441
 30
0.0
  0
VERTEX
  5
1C54
  8
SAPA_FOGBAND
 10
138.56583337991651
 20
51.856782094291979
 30
0.0
  0
VERTEX
  5
1C55
  8
SAPA_FOGBAND
 10
138.2785479671229
 20
51.656866513675432
 30
0.0
  0
VERTEX
  5
1C56
  8
SAPA_FOGBAND
 10
137.91185417103321
 20
51.484878278508461
 30
0.0
  0
VERTEX
  5
1C57
  8
SAPA_FOGBAND
 10
137.47900526084871
 20
51.347033491720879
 30
0.0
  0
VERTEX
  5
1C58
  8
SAPA_FOGBAND
 10
136.99564552396171
 20
51.248314223057882
 30
0.0
  0
VERTEX
  5
1C59
  8
SAPA_FOGBAND
 10
136.4792448406443
 20
51.192288444100143
 30
0.0
  0
VERTEX
  5
1C5A
  8
SAPA_FOGBAND
 10
135.94846727705959
 20
51.180981072472427
 30
0.0
  0
VERTEX
  5
1C5B
  8
SAPA_FOGBAND
 10
135.4224965172844
 20
51.21480078604673
 30
0.0
  0
VERTEX
  5
1C5C
  8
SAPA_FOGBAND
 10
134.92034251497901
 20
51.292525252258031
 30
0.0
  0
VERTEX
  5
1C5D
  8
SAPA_FOGBAND
 10
134.4601544241369
 20
51.411345306388569
 30
0.0
  0
VERTEX
  5
1C5E
  8
SAPA_FOGBAND
 10
134.0585646413702
 20
51.566966482098728
 30
0.0
  0
VERTEX
  5
1C5F
  8
SAPA_FOGBAND
 10
133.73008766775871
 20
51.753764224631873
 30
0.0
  0
VERTEX
  5
1C60
  8
SAPA_FOGBAND
 10
133.48659551696801
 20
51.964987176875923
 30
0.0
  0
VERTEX
  5
1C61
  8
SAPA_FOGBAND
 10
133.3368886297404
 20
52.19300119100086
 30
0.0
  0
SEQEND
  5
1C62
  8
SAPA_FOGBAND
  0
POLYLINE
  5
EFA
  8
SAPA_FOGBAND
 66
     1
 10
0.0
 20
0.0
 30
0.0
  0
VERTEX
  5
1C63
  8
SAPA_FOGBAND
 10
140.05637243689219
 20
18.449999853745169
 30
0.0
 42
0.285714285714282
  0
VERTEX
  5
1C64
  8
SAPA_FOGBAND
 10
137.25637243689201
 20
18.449999853745169
 30
0.0
  0
VERTEX
  5
1C65
  8
SAPA_FOGBAND
 10
135.18259226750439
 20
18.44999985374562
 30
0.0
 42
-0.3882600129940275
  0
VERTEX
  5
1C66
  8
SAPA_FOGBAND
 10
134.8837907701627
 20
18.723210580025182
 30
0.0
  0
VERTEX
  5
1C67
  8
SAPA_FOGBAND
 10
134.41758084623649
 20
22.623210580025269
 30
0.0
 42
-0.4406523138893894
  0
VERTEX
  5
1C68
  8
SAPA_FOGBAND
 10
134.71638234357849
 20
22.949999853745169
 30
0.0
  0
VERTEX
  5
1C69
  8
SAPA_FOGBAND
 10
136.4261743404987
 20
22.949999853745169
 30
0.0
 42
-0.3394542588634375
  0
VERTEX
  5
1C6A
  8
SAPA_FOGBAND
 10
136.71595208838519
 20
22.72764556727617
 30
0.0
  0
VERTEX
  5
1C6B
  8
SAPA_FOGBAND
 10
136.91833181631679
 20
22.510059785108581
 30
0.0
 42
0.3394542588633663
  0
VERTEX
  5
1C6C
  8
SAPA_FOGBAND
 10
137.2081095642034
 20
22.287705498639578
 30
0.0
  0
VERTEX
  5
1C6D
  8
SAPA_FOGBAND
 10
140.10463530958131
 20
22.287705498639578
 30
0.0
 42
0.3394542588634373
  0
VERTEX
  5
1C6E
  8
SAPA_FOGBAND
 10
140.3944130574678
 20
22.510059785108581
 30
0.0
  0
VERTEX
  5
1C6F
  8
SAPA_FOGBAND
 10
140.596792785399
 20
22.72764556727617
 30
0.0
 42
-0.3394542588633662
  0
VERTEX
  5
1C70
  8
SAPA_FOGBAND
 10
140.886570533286
 20
22.949999853745169
 30
0.0
  0
VERTEX
  5
1C71
  8
SAPA_FOGBAND
 10
142.59636253020611
 20
22.949999853745169
 30
0.0
 42
-0.4406523138893994
  0
VERTEX
  5
1C72
  8
SAPA_FOGBAND
 10
142.89516402754771
 20
22.623210580025269
 30
0.0
  0
VERTEX
  5
1C73
  8
SAPA_FOGBAND
 10
142.42895410362149
 20
18.723210580025182
 30
0.0
 42
-0.3882600129940462
  0
VERTEX
  5
1C74
  8
SAPA_FOGBAND
 10
142.13015260627981
 20
18.449999853745169
 30
0.0
  0
VERTEX
  5
1C75
  8
SAPA_FOGBAND
 10
140.06796481374249
 20
18.449999853745169
 30
0.0
  0
SEQEND
  5
1C76
  8
SAPA_FOGBAND
  0
POLYLINE
  5
EFB
  8
SAPA_FOGBAND
 66
     1
 10
0.0
 20
0.0
 30
0.0
  0
VERTEX
  5
1C77
  8
SAPA_FOGBAND
 10
140.06796481374249
 20
18.449999853745169
 30
0.0
  0
VERTEX
  5
1C78
  8
SAPA_FOGBAND
 10
139.87560639374991
 20
17.359081043592418
 30
0.0
  0
VERTEX
  5
1C79
  8
SAPA_FOGBAND
 10
140.307402953652
 20
17.243381504072481
 30
0.0
 42
-0.4430158954262519
  0
VERTEX
  5
1C7A
  8
SAPA_FOGBAND
 10
140.44288000119559
 20
16.979905075965519
 30
0.0
  0
VERTEX
  5
1C7B
  8
SAPA_FOGBAND
 10
139.96593180797669
 20
15.709417328047319
 30
0.0
 42
-0.3125358528825162
  0
VERTEX
  5
1C7C
  8
SAPA_FOGBAND
 10
139.59145009484749
 20
15.44999985374562
 30
0.0
  0
VERTEX
  5
1C7D
  8
SAPA_FOGBAND
 10
137.72129477893719
 20
15.449999853745171
 30
0.0
 42
-0.3125358528825104
  0
VERTEX
  5
1C7E
  8
SAPA_FOGBAND
 10
137.34681306580751
 20
15.709417328047319
 30
0.0
  0
VERTEX
  5
1C7F
  8
SAPA_FOGBAND
 10
136.86986487258861
 20
16.979905075965519
 30
0.0
 42
-0.4430158954262519
  0
VERTEX
  5
1C80
  8
SAPA_FOGBAND
 10
137.00534192013271
 20
17.243381504072481
 30
0.0
  0
VERTEX
  5
1C81
  8
SAPA_FOGBAND
 10
137.43713848003429
 20
17.359081043592418
 30
0.0
  0
VERTEX
  5
1C82
  8
SAPA_FOGBAND
 10
137.2479946236918
 20
18.431769157359948
 30
0.0
  0
SEQEND
  5
1C83
  8
SAPA_FOGBAND
  0
POLYLINE
  5
EFC
  8
SAPA_FOGBAND
 66
     1
 10
0.0
 20
0.0
 30
0.0000000195376815
 70
     1
  0
VERTEX
  5
1C84
  8
SAPA_FOGBAND
 10
69.172267478428978
 20
83.283987569713531
 30
0.0000000195376815
  0
VERTEX
  5
1C85
  8
SAPA_FOGBAND
 10
67.778915651763157
 20
83.229455873288885
 30
0.0000000195376815
  0
VERTEX
  5
1C86
  8
SAPA_FOGBAND
 10
67.778915651763157
 20
84.296722418673312
 30
0.0000000195376815
  0
VERTEX
  5
1C87
  8
SAPA_FOGBAND
 10
68.41760915882179
 20
84.357732576767717
 30
0.0000000195376815
 42
0.4995370695832079
  0
VERTEX
  5
1C88
  8
SAPA_FOGBAND
 10
68.536962827576929
 20
84.654449422202006
 30
0.0000000195376815
  0
VERTEX
  5
1C89
  8
SAPA_FOGBAND
 10
67.830926852341065
 20
85.707107316790939
 30
0.0000000195376815
 42
0.250021237196914
  0
VERTEX
  5
1C8A
  8
SAPA_FOGBAND
 10
67.000432487606588
 20
86.150080288592676
 30
0.0000000195376815
  0
VERTEX
  5
1C8B
  8
SAPA_FOGBAND
 10
65.931258211996749
 20
86.150080288592676
 30
0.0000000195376815
 42
0.250021237196914
  0
VERTEX
  5
1C8C
  8
SAPA_FOGBAND
 10
65.100763847262272
 20
85.707107316790939
 30
0.0000000195376815
  0
VERTEX
  5
1C8D
  8
SAPA_FOGBAND
 10
64.394727872028227
 20
84.654449422202006
 30
0.0000000195376815
 42
0.4995370695831766
  0
VERTEX
  5
1C8E
  8
SAPA_FOGBAND
 10
64.514081540781547
 20
84.357732576767717
 30
0.0000000195376815
  0
VERTEX
  5
1C8F
  8
SAPA_FOGBAND
 10
65.121576757543437
 20
84.292094886587606
 30
0.0000000195376815
  0
VERTEX
  5
1C90
  8
SAPA_FOGBAND
 10
65.121576757543437
 20
83.224828341203207
 30
0.0000000195376815
  0
VERTEX
  5
1C91
  8
SAPA_FOGBAND
 10
64.233276498351472
 20
83.242530779786094
 30
0.0000000195376815
 42
0.4400105308918379
  0
VERTEX
  5
1C92
  8
SAPA_FOGBAND
 10
64.01584534980276
 20
83.043291840167626
 30
0.0000000195376815
  0
VERTEX
  5
1C93
  8
SAPA_FOGBAND
 10
64.01584534980276
 20
83.008296374757379
 30
0.0000000195376815
 42
0.3888787318529988
  0
VERTEX
  5
1C94
  8
SAPA_FOGBAND
 10
64.563551904153712
 20
82.410579555902245
 30
0.0000000195376815
  0
VERTEX
  5
1C95
  8
SAPA_FOGBAND
 10
65.397859419279769
 20
82.337587106434398
 30
0.0000000195376815
 42
-0.2668174844056302
  0
VERTEX
  5
1C96
  8
SAPA_FOGBAND
 10
65.561331117242204
 20
82.223636853778885
 30
0.0000000195376815
 42
0.6341045221175712
  0
VERTEX
  5
1C97
  8
SAPA_FOGBAND
 10
67.370359582362937
 20
82.223636853778885
 30
0.0000000195376815
 42
-0.2668174844056113
  0
VERTEX
  5
1C98
  8
SAPA_FOGBAND
 10
67.533831280325387
 20
82.337587106434398
 30
0.0000000195376815
  0
VERTEX
  5
1C99
  8
SAPA_FOGBAND
 10
68.363551904152985
 20
82.410178254912921
 30
0.0000000195376815
 42
-0.3932191662530252
  0
VERTEX
  5
1C9A
  8
SAPA_FOGBAND
 10
69.115845349801305
 20
81.766611147282788
 30
0.0000000195376815
 42
-0.7365260079582157
  0
VERTEX
  5
1C9B
  8
SAPA_FOGBAND
 10
65.683042860544731
 20
80.793830747191123
 30
0.0000000195376815
 42
1.00000000000107
  0
VERTEX
  5
1C9C
  8
SAPA_FOGBAND
 10
65.198999969199861
 20
80.439285292645764
 30
0.0000000195376815
 42
0.7363451539893881
  0
VERTEX
  5
1C9D
  8
SAPA_FOGBAND
 10
69.715845349801654
 20
81.766611147282788
 30
0.0000000195376815
  0
VERTEX
  5
1C9E
  8
SAPA_FOGBAND
 10
69.715845349801654
 20
82.785890220667724
 30
0.0000000195376815
 42
0.4400105308918419
  0
SEQEND
  5
1C9F
  8
SAPA_FOGBAND
  0
CIRCLE
  5
EFD
  8
SAPA_FOGBAND
 10
66.465845349801668
 20
82.650080288592676
 30
0.0000000195376815
 40
0.25
  0
POLYLINE
  5
EFE
  8
SAPA_FOGBAND
 66
     1
 10
0.0
 20
0.0
 30
0.0000000195376815
 70
     1
  0
VERTEX
  5
1CA0
  8
SAPA_FOGBAND
 10
65.665845349802396
 20
83.498608426016403
 30
0.0000000195376815
 42
0.6341370759941026
  0
VERTEX
  5
1CA1
  8
SAPA_FOGBAND
 10
65.829481713437701
 20
83.421469504432594
 30
0.0000000195376815
 42
-0.3592455179659193
  0
VERTEX
  5
1CA2
  8
SAPA_FOGBAND
 10
67.102208986165635
 20
83.421469504432594
 30
0.0000000195376815
 42
0.6341370759941019
  0
VERTEX
  5
1CA3
  8
SAPA_FOGBAND
 10
67.265845349802746
 20
83.498608426016403
 30
0.0000000195376815
  0
VERTEX
  5
1CA4
  8
SAPA_FOGBAND
 10
67.265845349802746
 20
84.850080288592494
 30
0.0000000195376815
 42
0.4142135623730951
  0
VERTEX
  5
1CA5
  8
SAPA_FOGBAND
 10
66.76584534980276
 20
85.350080288592494
 30
0.0000000195376815
  0
VERTEX
  5
1CA6
  8
SAPA_FOGBAND
 10
66.165845349802396
 20
85.350080288592494
 30
0.0000000195376815
 42
0.4142135623730951
  0
VERTEX
  5
1CA7
  8
SAPA_FOGBAND
 10
65.665845349802396
 20
84.850080288592494
 30
0.0000000195376815
  0
SEQEND
  5
1CA8
  8
SAPA_FOGBAND
  0
LINE
  5
EFF
  8
SAPA_FOGBAND
 10
68.800025495942748
 20
83.299999753388406
 30
0.0
 11
68.800025495942748
 21
83.299999753388406
 31
0.0
  0
POLYLINE
  5
F00
  8
SAPA_FOGBAND
 66
     1
 10
0.0
 20
0.0
 30
0.0000000195376815
 70
     1
  0
VERTEX
  5
1CA9
  8
SAPA_FOGBAND
 10
57.33563082181071
 20
18.501391249777821
 30
0.0000000195376815
 42
0.6341370759941026
  0
VERTEX
  5
1CAA
  8
SAPA_FOGBAND
 10
57.171994458174488
 20
18.578530171361631
 30
0.0000000195376815
 42
-0.3592455179659193
  0
VERTEX
  5
1CAB
  8
SAPA_FOGBAND
 10
55.899267185447009
 20
18.578530171361631
 30
0.0000000195376815
 42
0.6341370759941019
  0
VERTEX
  5
1CAC
  8
SAPA_FOGBAND
 10
55.735630821810339
 20
18.501391249777821
 30
0.0000000195376815
  0
VERTEX
  5
1CAD
  8
SAPA_FOGBAND
 10
55.735630821810339
 20
17.149919387201731
 30
0.0000000195376815
 42
0.4142135623730951
  0
VERTEX
  5
1CAE
  8
SAPA_FOGBAND
 10
56.235630821810339
 20
16.649919387201731
 30
0.0000000195376815
  0
VERTEX
  5
1CAF
  8
SAPA_FOGBAND
 10
56.835630821810703
 20
16.649919387201731
 30
0.0000000195376815
 42
0.4142135623730951
  0
VERTEX
  5
1CB0
  8
SAPA_FOGBAND
 10
57.33563082181071
 20
17.149919387201731
 30
0.0000000195376815
  0
SEQEND
  5
1CB1
  8
SAPA_FOGBAND
  0
CIRCLE
  5
F01
  8
SAPA_FOGBAND
 10
56.535630821810521
 20
19.349919387201549
 30
0.0000000195376815
 40
0.25
  0
POLYLINE
  5
F02
  8
SAPA_FOGBAND
 66
     1
 10
0.0
 20
0.0
 30
0.0000000195376815
 70
     1
  0
VERTEX
  5
1CB2
  8
SAPA_FOGBAND
 10
53.829208693184121
 20
18.71601210608069
 30
0.0000000195376815
  0
VERTEX
  5
1CB3
  8
SAPA_FOGBAND
 10
55.222560519849033
 20
18.77054380250534
 30
0.0000000195376815
  0
VERTEX
  5
1CB4
  8
SAPA_FOGBAND
 10
55.222560519849033
 20
17.70327725712092
 30
0.0000000195376815
  0
VERTEX
  5
1CB5
  8
SAPA_FOGBAND
 10
54.5838670127904
 20
17.642267099026508
 30
0.0000000195376815
 42
0.4995370695832079
  0
VERTEX
  5
1CB6
  8
SAPA_FOGBAND
 10
54.46451334403617
 20
17.345550253592229
 30
0.0000000195376815
  0
VERTEX
  5
1CB7
  8
SAPA_FOGBAND
 10
55.170549319270663
 20
16.292892359003289
 30
0.0000000195376815
 42
0.250021237196914
  0
VERTEX
  5
1CB8
  8
SAPA_FOGBAND
 10
56.001043684005602
 20
15.849919387201551
 30
0.0000000195376815
  0
VERTEX
  5
1CB9
  8
SAPA_FOGBAND
 10
57.070217959615441
 20
15.849919387201551
 30
0.0000000195376815
 42
0.250021237196914
  0
VERTEX
  5
1CBA
  8
SAPA_FOGBAND
 10
57.90071232435082
 20
16.292892359003289
 30
0.0000000195376815
  0
VERTEX
  5
1CBB
  8
SAPA_FOGBAND
 10
58.606748299584872
 20
17.345550253592229
 30
0.0000000195376815
 42
0.4995370695831766
  0
VERTEX
  5
1CBC
  8
SAPA_FOGBAND
 10
58.487394630831091
 20
17.642267099026508
 30
0.0000000195376815
  0
VERTEX
  5
1CBD
  8
SAPA_FOGBAND
 10
57.879899414068753
 20
17.707904789206609
 30
0.0000000195376815
  0
VERTEX
  5
1CBE
  8
SAPA_FOGBAND
 10
57.879899414068753
 20
18.775171334591029
 30
0.0000000195376815
  0
VERTEX
  5
1CBF
  8
SAPA_FOGBAND
 10
58.76819967326071
 20
18.757468896008149
 30
0.0000000195376815
 42
0.4400105308918379
  0
VERTEX
  5
1CC0
  8
SAPA_FOGBAND
 10
58.985630821810339
 20
18.956707835626599
 30
0.0000000195376815
  0
VERTEX
  5
1CC1
  8
SAPA_FOGBAND
 10
58.985630821810339
 20
18.99170330103685
 30
0.0000000195376815
 42
0.3888787318529988
  0
VERTEX
  5
1CC2
  8
SAPA_FOGBAND
 10
58.43792426745938
 20
19.58942011989198
 30
0.0000000195376815
  0
VERTEX
  5
1CC3
  8
SAPA_FOGBAND
 10
57.60361675233333
 20
19.66241256935983
 30
0.0000000195376815
 42
-0.2668174844056302
  0
VERTEX
  5
1CC4
  8
SAPA_FOGBAND
 10
57.44014505437088
 20
19.77636282201534
 30
0.0000000195376815
 42
0.6341045221175712
  0
VERTEX
  5
1CC5
  8
SAPA_FOGBAND
 10
55.631116589250162
 20
19.77636282201534
 30
0.0000000195376815
 42
-0.2668174844056113
  0
VERTEX
  5
1CC6
  8
SAPA_FOGBAND
 10
55.467644891287712
 20
19.66241256935983
 30
0.0000000195376815
  0
VERTEX
  5
1CC7
  8
SAPA_FOGBAND
 10
54.637924267459212
 20
19.589821420881311
 30
0.0000000195376815
 42
-0.3932191662530252
  0
VERTEX
  5
1CC8
  8
SAPA_FOGBAND
 10
53.885630821810892
 20
20.233388528511441
 30
0.0000000195376815
 42
-0.7365260079582157
  0
VERTEX
  5
1CC9
  8
SAPA_FOGBAND
 10
57.318433311068368
 20
21.206168928603049
 30
0.0000000195376815
 42
1.00000000000107
  0
VERTEX
  5
1CCA
  8
SAPA_FOGBAND
 10
57.802476202412777
 20
21.560714383148412
 30
0.0000000195376815
 42
0.7363451539893881
  0
VERTEX
  5
1CCB
  8
SAPA_FOGBAND
 10
53.285630821810528
 20
20.233388528511441
 30
0.0000000195376815
  0
VERTEX
  5
1CCC
  8
SAPA_FOGBAND
 10
53.285630821810528
 20
19.21410945512649
 30
0.0000000195376815
 42
0.4400105308918419
  0
SEQEND
  5
1CCD
  8
SAPA_FOGBAND
  0
LINE
  5
F03
  8
SAPA_FOGBAND
 10
54.201450675669442
 20
18.699999922405809
 30
0.0
 11
54.201450675670351
 21
18.699999922405809
 31
0.0
  0
LINE
  5
F04
  8
SAPA_FOGBAND
 10
54.052188767625189
 20
18.699999963992202
 30
0.0
 11
54.052188767626099
 21
18.699999963992202
 31
0.0
  0
DIMENSION
  5
F0E
  8
SAPA_MATT
  2
*D89
 10
-100.0000000003792
 20
223.80000001221279
 30
0.0
 11
-102.7511903668526
 21
123.80000001221271
 31
0.0
 70
     0
  1
197-202
 13
-80.000000000379174
 23
23.800000012212781
 33
0.0
 14
-80.000000000379117
 24
223.80000001221279
 34
0.0
 50
90.0
1001
ACAD
1000
DSTYLE
1002
{
1070
    40
1040
1.0
1002
}
  0
DIMENSION
  5
F0F
  8
SAPA_MATT
  2
*D88
 10
141.9999999998945
 20
-17.999999999999702
 30
0.0000000048844204
 11
48.499999999773898
 21
-15.2499999999997
 31
0.0000000048844204
 70
     0
 13
-45.000000000346759
 23
14.30000001242699
 33
0.0
 14
141.9999999998945
 24
14.499999804301581
 34
0.0
1001
ACAD
1000
DSTYLE
1002
{
1070
    40
1040
1.0
1002
}
  0
DIMENSION
  5
F10
  8
SAPA_MATT
  2
*D87
 10
141.9999999998945
 20
-5.9999999999997007
 30
0.0000000048844204
 11
97.499999997850978
 21
-3.2499999999997011
 31
0.0000000048844204
 70
     0
 13
52.999999995807407
 23
15.999998378017789
 33
0.0
 14
141.9999999998945
 24
14.499999804301581
 34
0.0
1001
ACAD
1000
DSTYLE
1002
{
1070
    40
1040
1.0
1002
}
  0
DIMENSION
  5
F11
  8
SAPA_MATT
  2
*D86
 10
52.999999995807407
 20
-5.9999999999997007
 30
0.0000000048844204
 11
50.4999999979037
 21
-3.2499999999997011
 31
0.0000000048844204
 70
     0
 13
48.0
 23
15.000000006162139
 33
0.0
 14
52.999999995807407
 24
15.999998378017789
 34
0.0
1001
ACAD
1000
DSTYLE
1002
{
1070
    40
1040
1.0
1002
}
  0
DIMENSION
  5
F12
  8
SAPA_MATT
  2
*D85
 10
48.0
 20
-5.9999999999997007
 30
0.0000000048844204
 11
1.49999999982662
 21
-3.2499999999997011
 31
0.0000000048844204
 70
     0
 13
-45.000000000346759
 23
14.30000001242699
 33
0.0
 14
48.0
 24
15.000000006162139
 34
0.0
1001
ACAD
1000
DSTYLE
1002
{
1070
    40
1040
1.0
1002
}
  0
ENDSEC
  0
EOF
