  0
SECTION
  2
HEADER
  9
$ACADVER
  1
AC1009
  9
$INSBASE
 10
36.687335505244853
 20
73.782506979555464
 30
0.0
  9
$EXTMIN
 10
-16.199999999999871
 20
0.0
 30
0.0
  9
$EXTMAX
 10
286.19999999999811
 20
116.93867054357121
 30
0.0
  9
$LIMMIN
 10
0.0
 20
0.0
  9
$LIMMAX
 10
998.0
 20
710.0
  9
$ORTHOMODE
 70
     0
  9
$REGENMODE
 70
     1
  9
$FILLMODE
 70
     1
  9
$QTEXTMODE
 70
     0
  9
$MIRRTEXT
 70
     1
  9
$DRAGMODE
 70
     2
  9
$LTSCALE
 40
7.0
  9
$OSMODE
 70
   167
  9
$ATTMODE
 70
     1
  9
$TEXTSIZE
 40
6.0
  9
$TRACEWID
 40
0.05
  9
$TEXTSTYLE
  7
ISO
  9
$CLAYER
  8
0
  9
$CELTYPE
  6
BYLAYER
  9
$CECOLOR
 62
   256
  9
$DIMSCALE
 40
0.0
  9
$DIMASZ
 40
3.0
  9
$DIMEXO
 40
1.5
  9
$DIMDLI
 40
10.0
  9
$DIMRND
 40
0.0
  9
$DIMDLE
 40
0.0
  9
$DIMEXE
 40
1.5
  9
$DIMTP
 40
0.0
  9
$DIMTM
 40
0.0
  9
$DIMTXT
 40
3.0
  9
$DIMCEN
 40
-5.0
  9
$DIMTSZ
 40
0.0
  9
$DIMTOL
 70
     0
  9
$DIMLIM
 70
     0
  9
$DIMTIH
 70
     0
  9
$DIMTOH
 70
     1
  9
$DIMSE1
 70
     0
  9
$DIMSE2
 70
     0
  9
$DIMTAD
 70
     1
  9
$DIMZIN
 70
     8
  9
$DIMBLK
  1

  9
$DIMASO
 70
     1
  9
$DIMSHO
 70
     1
  9
$DIMPOST
  1

  9
$DIMAPOST
  1

  9
$DIMALT
 70
     0
  9
$DIMALTD
 70
     0
  9
$DIMALTF
 40
25.399999999999999
  9
$DIMLFAC
 40
-1.0
  9
$DIMTOFL
 70
     1
  9
$DIMTVP
 40
0.0
  9
$DIMTIX
 70
     0
  9
$DIMSOXD
 70
     0
  9
$DIMSAH
 70
     0
  9
$DIMBLK1
  1

  9
$DIMBLK2
  1

  9
$DIMSTYLE
  2
MASKIN
  9
$DIMCLRD
 70
   256
  9
$DIMCLRE
 70
   256
  9
$DIMCLRT
 70
     2
  9
$DIMTFAC
 40
1.0
  9
$DIMGAP
 40
1.0
  9
$LUNITS
 70
     2
  9
$LUPREC
 70
     2
  9
$SKETCHINC
 40
0.1
  9
$FILLETRAD
 40
0.0
  9
$AUNITS
 70
     0
  9
$AUPREC
 70
     2
  9
$MENU
  1
ACAD
  9
$ELEVATION
 40
0.0
  9
$PELEVATION
 40
0.0
  9
$THICKNESS
 40
0.0
  9
$LIMCHECK
 70
     0
  9
$BLIPMODE
 70
     0
  9
$CHAMFERA
 40
0.0
  9
$CHAMFERB
 40
0.0
  9
$SKPOLY
 70
     0
  9
$TDCREATE
 40
2449499.4236100698
  9
$TDUPDATE
 40
2456363.5684632058
  9
$TDINDWG
 40
0.1948799421
  9
$TDUSRTIMER
 40
0.1948799421
  9
$USRTIMER
 70
     1
  9
$ANGBASE
 50
0.0
  9
$ANGDIR
 70
     0
  9
$PDMODE
 70
     3
  9
$PDSIZE
 40
-5.0
  9
$PLINEWID
 40
0.0
  9
$COORDS
 70
     1
  9
$SPLFRAME
 70
     0
  9
$SPLINETYPE
 70
     6
  9
$SPLINESEGS
 70
     8
  9
$ATTDIA
 70
     0
  9
$ATTREQ
 70
     1
  9
$HANDLING
 70
     1
  9
$HANDSEED
  5
F57
  9
$SURFTAB1
 70
     6
  9
$SURFTAB2
 70
     6
  9
$SURFTYPE
 70
     6
  9
$SURFU
 70
     6
  9
$SURFV
 70
     6
  9
$UCSNAME
  2

  9
$UCSORG
 10
0.0
 20
0.0
 30
0.0
  9
$UCSXDIR
 10
1.0
 20
0.0
 30
0.0
  9
$UCSYDIR
 10
0.0
 20
1.0
 30
0.0
  9
$PUCSNAME
  2

  9
$PUCSORG
 10
0.0
 20
0.0
 30
0.0
  9
$PUCSXDIR
 10
1.0
 20
0.0
 30
0.0
  9
$PUCSYDIR
 10
0.0
 20
1.0
 30
0.0
  9
$USERI1
 70
     0
  9
$USERI2
 70
     0
  9
$USERI3
 70
     0
  9
$USERI4
 70
     0
  9
$USERI5
 70
     0
  9
$USERR1
 40
0.0
  9
$USERR2
 40
0.0
  9
$USERR3
 40
0.0
  9
$USERR4
 40
0.0
  9
$USERR5
 40
0.0
  9
$WORLDVIEW
 70
     1
  9
$SHADEDGE
 70
     1
  9
$SHADEDIF
 70
    70
  9
$TILEMODE
 70
     1
  9
$MAXACTVP
 70
    16
  9
$PLIMCHECK
 70
     0
  9
$PEXTMIN
 10
1.0000000000000000E+020
 20
1.0000000000000000E+020
 30
1.0000000000000000E+020
  9
$PEXTMAX
 10
-1.0000000000000000E+020
 20
-1.0000000000000000E+020
 30
-1.0000000000000000E+020
  9
$PLIMMIN
 10
-14.12592836160286
 20
-5.4102505909481797
  9
$PLIMMAX
 10
195.84739927511589
 20
291.55807216295813
  9
$UNITMODE
 70
     0
  9
$VISRETAIN
 70
     1
  9
$PLINEGEN
 70
     0
  9
$PSLTSCALE
 70
     1
  0
ENDSEC
  0
SECTION
  2
TABLES
  0
TABLE
  2
VPORT
 70
     1
  0
VPORT
  2
*ACTIVE
 70
     0
 10
0.0
 20
0.0
 11
1.0
 21
1.0
 12
219.46813445647319
 22
119.86641504163239
 13
0.0
 23
0.0
 14
5.0
 24
5.0
 15
10.0
 25
10.0
 16
0.0
 26
0.0
 36
1.0
 17
0.0
 27
0.0
 37
0.0
 40
159.50949410039621
 41
2.8418491484184911
 42
50.0
 43
0.0
 44
0.0
 50
0.0
 51
0.0
 71
     0
 72
   100
 73
     1
 74
     0
 75
     0
 76
     0
 77
     0
 78
     0
  0
ENDTAB
  0
TABLE
  2
LTYPE
 70
    15
  0
LTYPE
  2
CONTINUOUS
 70
     0
  3
Solid line
 72
    65
 73
     0
 40
0.0
  0
LTYPE
  2
BYGG-014565$0$NEWDOT
 70
     0
  3
____ . ____ . ____ . ____ . ____ . ____ . ____
 72
    65
 73
     4
 40
2.0
 49
1.0
 49
-0.5
 49
0.0
 49
-0.5
  0
LTYPE
  2
BYGG-021997$0$NEWDOT
 70
     0
  3
____ . ____ . ____ . ____ . ____ . ____ . ____
 72
    65
 73
     4
 40
2.0
 49
1.0
 49
-0.5
 49
0.0
 49
-0.5
  0
LTYPE
  2
BYGG-021997$0$DASHDOT
 70
     0
  3
__ . __ . __ . __ . __ . __ . __ . __ . __ . __
 72
    65
 73
     4
 40
1.0
 49
0.5
 49
-0.25
 49
0.0
 49
-0.25
  0
LTYPE
  2
BYGG-021997$0$DASHED
 70
     0
  3
__ __ __ __ __ __ __ __ __ __ __ __ __ __ __
 72
    65
 73
     2
 40
0.75
 49
0.5
 49
-0.25
  0
LTYPE
  2
BYGG-021997$0$PHANTOM
 70
     0
  3
Phantom ______  __  __  ______  __  __  ______
 72
    65
 73
     6
 40
63.5
 49
31.75
 49
-6.3499999999999988
 49
6.3499999999999988
 49
-6.3499999999999988
 49
6.3499999999999988
 49
-6.3499999999999988
  0
LTYPE
  2
BYGG-014247$0$DASHDOT
 70
     0
  3
__ . __ . __ . __ . __ . __ . __ . __ . __ . __
 72
    65
 73
     4
 40
1.0
 49
0.5
 49
-0.25
 49
0.0
 49
-0.25
  0
LTYPE
  2
BYGG-014565$0$ZIGZAG
 70
     0
  3
Zig zag /\/\/\/\/\/\/\/\/\/\/\/\/\/\/\/\/\/\/\/\/\/\/\/
 72
    65
 73
     4
 40
20.32254
 49
0.00254
 49
-5.0800000000000001
 49
-10.16
 49
-5.0800000000000001
  0
LTYPE
  2
BYGG-014203$0$ZIGZAG
 70
     0
  3
Zig zag /\/\/\/\/\/\/\/\/\/\/\/\/\/\/\/\/\/\/\/\/\/\/\/
 72
    65
 73
     4
 40
20.32254
 49
0.00254
 49
-5.0800000000000001
 49
-10.16
 49
-5.0800000000000001
  0
LTYPE
  2
BYGG-014203$0$NEWDOT
 70
     0
  3
____ . ____ . ____ . ____ . ____ . ____ . ____
 72
    65
 73
     4
 40
2.0
 49
1.0
 49
-0.5
 49
0.0
 49
-0.5
  0
LTYPE
  2
PHANTOM2
 70
     0
  3
Phantom (.5x) ___ _ _ ___ _ _ ___ _ _ ___ _ _
 72
    65
 73
     6
 40
1.25
 49
0.625
 49
-0.125
 49
0.125
 49
-0.125
 49
0.125
 49
-0.125
  0
LTYPE
  2
BYGG-028766$0$NEWDOT
 70
     0
  3
____ . ____ . ____ . ____ . ____ . ____ . ____
 72
    65
 73
     4
 40
2.0
 49
1.0
 49
-0.5
 49
0.0
 49
-0.5
  0
LTYPE
  2
BYGG-028766$0$DASHDOT
 70
     0
  3
__ . __ . __ . __ . __ . __ . __ . __ . __ . __
 72
    65
 73
     4
 40
1.0
 49
0.5
 49
-0.25
 49
0.0
 49
-0.25
  0
LTYPE
  2
BYGG-028766$0$DASHED
 70
     0
  3
__ __ __ __ __ __ __ __ __ __ __ __ __ __ __
 72
    65
 73
     2
 40
0.75
 49
0.5
 49
-0.25
  0
LTYPE
  2
BYGG-028766$0$PHANTOM
 70
     0
  3
Phantom ______  __  __  ______  __  __  ______
 72
    65
 73
     6
 40
63.5
 49
31.75
 49
-6.3499999999999988
 49
6.3499999999999988
 49
-6.3499999999999988
 49
6.3499999999999988
 49
-6.3499999999999988
  0
ENDTAB
  0
TABLE
  2
LAYER
 70
    91
  0
LAYER
  2
0
 70
     0
 62
     7
  6
CONTINUOUS
  0
LAYER
  2
DEFPOINTS
 70
     0
 62
     7
  6
CONTINUOUS
  0
LAYER
  2
SAPA_ARTIKELNR
 70
     0
 62
     4
  6
CONTINUOUS
  0
LAYER
  2
SAPA_LIGHT
 70
     1
 62
     1
  6
CONTINUOUS
  0
LAYER
  2
SAPA_MATT
 70
     0
 62
     1
  6
CONTINUOUS
  0
LAYER
  2
SAPA_GLAS
 70
     0
 62
     4
  6
CONTINUOUS
  0
LAYER
  2
SAPA_FOGBAND
 70
     0
 62
     2
  6
CONTINUOUS
  0
LAYER
  2
SAPA_PROFIL
 70
     0
 62
     7
  6
CONTINUOUS
  0
ENDTAB
  0
TABLE
  2
STYLE
 70
    16
  0
STYLE
  2
STANDARD
 70
     0
 40
0.0
 41
1.0
 50
0.0
 71
     0
 42
0.2
  3
txt
  4

  0
STYLE
  2
ISO
 70
     0
 40
0.0
 41
1.0
 50
0.0
 71
     0
 42
6.0
  3
isocp3.shx
  4

  0
STYLE
  2

 70
     1
 40
0.0
 41
1.0
 50
0.0
 71
     0
 42
0.2
  3
ltypeshp.shx
  4

  0
STYLE
  2
BYGG-022466$0$STANDARD
 70
     0
 40
0.0
 41
1.0
 50
0.0
 71
     0
 42
0.2
  3
txt
  4

  0
STYLE
  2
BYGG-022466$0$ISO
 70
     0
 40
0.0
 41
1.0
 50
0.0
 71
     0
 42
3.5
  3
txt
  4

  0
STYLE
  2
BYGG-014565$0$STANDARD
 70
     0
 40
0.0
 41
1.0
 50
0.0
 71
     0
 42
0.2
  3
isocp3.shx
  4

  0
STYLE
  2
BYGG-014565$0$ISO
 70
     0
 40
0.0
 41
1.0
 50
0.0
 71
     0
 42
3.5
  3
isocp3.shx
  4

  0
STYLE
  2
BYGG-021997$0$STANDARD
 70
     0
 40
0.0
 41
1.0
 50
0.0
 71
     0
 42
0.2
  3
txt
  4

  0
STYLE
  2
BYGG-021997$0$ISO
 70
     0
 40
0.0
 41
1.0
 50
0.0
 71
     0
 42
3.5
  3
txt
  4

  0
STYLE
  2
BYGG-014203$0$STANDARD
 70
     0
 40
0.0
 41
1.0
 50
0.0
 71
     0
 42
0.2
  3
txt
  4

  0
STYLE
  2
BYGG-014203$0$ISO
 70
     0
 40
0.0
 41
1.0
 50
0.0
 71
     0
 42
3.5
  3
isocp3.shx
  4

  0
STYLE
  2
BYGG-021741$0$STANDARD
 70
     0
 40
0.0
 41
1.0
 50
0.0
 71
     0
 42
0.2
  3
txt
  4

  0
STYLE
  2
BYGG-014247$0$STANDARD
 70
     0
 40
0.0
 41
1.0
 50
0.0
 71
     0
 42
0.2
  3
txt
  4

  0
STYLE
  2
BYGG-014247$0$ISO
 70
     0
 40
0.0
 41
1.0
 50
0.0
 71
     0
 42
3.5
  3
isocp3.shx
  4

  0
STYLE
  2
BYGG-028766$0$STANDARD
 70
     0
 40
0.0
 41
1.0
 50
0.0
 71
     0
 42
0.2
  3
txt
  4

  0
STYLE
  2
BYGG-028766$0$ISO
 70
     0
 40
0.0
 41
1.0
 50
0.0
 71
     0
 42
3.5
  3
txt
  4

  0
ENDTAB
  0
TABLE
  2
VIEW
 70
     0
  0
ENDTAB
  0
TABLE
  2
UCS
 70
     0
  0
ENDTAB
  0
TABLE
  2
APPID
 70
    18
  0
APPID
  2
ACAD
 70
     0
  0
APPID
  2
ACAECLAYERSTANDARD
 70
     0
  0
APPID
  2
ACAD_MLEADERVER
 70
     0
  0
APPID
  2
ACAD_DSTYLE_DIMTEXT_FILL
 70
     0
  0
APPID
  2
ACAD_DSTYLE_DIMEXT_LENGTH
 70
     0
  0
APPID
  2
ACAD_DSTYLE_DIMEXT_ENABLED
 70
     0
  0
APPID
  2
ACAD_DSTYLE_DIM_LINETYPE
 70
     0
  0
APPID
  2
ACAD_DSTYLE_DIM_EXT1_LINETYPE
 70
     0
  0
APPID
  2
ACAD_DSTYLE_DIM_EXT2_LINETYPE
 70
     0
  0
APPID
  2
ACAD_DSTYLE_DIMJOGGED_JOGA
 70
     0
  0
APPID
  2
ACAD_DSTYLE_DIMARC_LENGTH_
 70
     0
  0
APPID
  2
ACAD_PSEXT
 70
     0
  0
APPID
  2
AMG_ARCHIVE11
 70
     0
  0
APPID
  2
ACAD_EXEMPT_FROM_CAD_STANDARDS
 70
     0
  0
APPID
  2
ACADANNOTATIVE
 70
     0
  0
APPID
  2
ACAD_NAV_VCDISPLAY
 70
     0
  0
APPID
  2
AEC_XDATA_BOUND_SPACE
 70
     0
  0
APPID
  2
ACCMTRANSPARENCY
 70
     0
  0
ENDTAB
  0
TABLE
  2
DIMSTYLE
 70
    13
  0
DIMSTYLE
  2
MASKIN
 70
     0
  3

  4

  5

  6

  7

 40
0.0
 41
3.0
 42
1.5
 43
10.0
 44
1.5
 45
0.0
 46
0.0
 47
0.0
 48
0.0
140
3.0
141
-5.0
142
0.0
143
25.399999999999999
144
-1.0
145
0.0
146
1.0
147
1.0
 71
     0
 72
     0
 73
     0
 74
     1
 75
     0
 76
     0
 77
     1
 78
     8
170
     0
171
     0
172
     1
173
     0
174
     0
175
     0
176
   256
177
   256
178
     2
  0
DIMSTYLE
  2
BYGG-022466$0$MASKIN
 70
     0
  3

  4

  5

  6

  7

 40
0.0
 41
3.0
 42
1.5
 43
10.0
 44
1.5
 45
0.0
 46
0.0
 47
0.0
 48
0.0
140
3.0
141
-5.0
142
0.0
143
25.399999999999999
144
-1.0
145
0.0
146
1.0
147
1.0
 71
     0
 72
     0
 73
     0
 74
     0
 75
     0
 76
     0
 77
     1
 78
     8
170
     0
171
     0
172
     1
173
     0
174
     0
175
     0
176
   256
177
   256
178
     2
  0
DIMSTYLE
  2
BYGG-022466$0$STANDARD
 70
     0
  3

  4

  5

  6

  7

 40
1.0
 41
0.18
 42
0.0625
 43
0.38
 44
0.18
 45
0.0
 46
0.0
 47
0.0
 48
0.0
140
0.18
141
0.09
142
0.0
143
25.399999999999999
144
1.0
145
0.0
146
1.0
147
0.09
 71
     0
 72
     0
 73
     1
 74
     1
 75
     0
 76
     0
 77
     0
 78
     0
170
     0
171
     2
172
     0
173
     0
174
     0
175
     0
176
     0
177
     0
178
     0
  0
DIMSTYLE
  2
BYGG-014565$0$STANDARD
 70
     0
  3

  4

  5

  6

  7

 40
1.0
 41
0.18
 42
0.0625
 43
0.38
 44
0.18
 45
0.0
 46
0.0
 47
0.0
 48
0.0
140
0.18
141
0.09
142
0.0
143
25.399999999999999
144
1.0
145
0.0
146
1.0
147
0.09
 71
     0
 72
     0
 73
     1
 74
     1
 75
     0
 76
     0
 77
     0
 78
     0
170
     0
171
     2
172
     0
173
     0
174
     0
175
     0
176
     0
177
     0
178
     0
  0
DIMSTYLE
  2
BYGG-014565$0$MASKIN
 70
     0
  3

  4

  5

  6

  7

 40
0.0
 41
3.0
 42
1.5
 43
10.0
 44
1.5
 45
0.0
 46
0.0
 47
0.0
 48
0.0
140
3.0
141
-5.0
142
0.0
143
25.399999999999999
144
-1.0
145
0.0
146
1.0
147
1.0
 71
     0
 72
     0
 73
     0
 74
     0
 75
     0
 76
     0
 77
     1
 78
     8
170
     0
171
     0
172
     1
173
     0
174
     0
175
     0
176
   256
177
   256
178
     2
  0
DIMSTYLE
  2
BYGG-021997$0$STANDARD
 70
     0
  3

  4

  5

  6

  7

 40
1.0
 41
0.18
 42
0.0625
 43
0.38
 44
0.18
 45
0.0
 46
0.0
 47
0.0
 48
0.0
140
0.18
141
0.09
142
0.0
143
25.399999999999999
144
1.0
145
0.0
146
1.0
147
0.09
 71
     0
 72
     0
 73
     1
 74
     1
 75
     0
 76
     0
 77
     0
 78
     0
170
     0
171
     2
172
     0
173
     0
174
     0
175
     0
176
     0
177
     0
178
     0
  0
DIMSTYLE
  2
BYGG-021997$0$MASKIN
 70
     0
  3

  4

  5

  6

  7

 40
0.0
 41
3.0
 42
1.5
 43
10.0
 44
1.5
 45
0.0
 46
0.0
 47
0.0
 48
0.0
140
3.0
141
-5.0
142
0.0
143
25.399999999999999
144
-1.0
145
0.0
146
1.0
147
1.0
 71
     0
 72
     0
 73
     0
 74
     0
 75
     0
 76
     0
 77
     1
 78
     8
170
     0
171
     0
172
     1
173
     0
174
     0
175
     0
176
   256
177
   256
178
     2
  0
DIMSTYLE
  2
BYGG-014203$0$STANDARD
 70
     0
  3

  4

  5

  6

  7

 40
1.0
 41
0.18
 42
0.0625
 43
0.38
 44
0.18
 45
0.0
 46
0.0
 47
0.0
 48
0.0
140
0.18
141
0.09
142
0.0
143
25.399999999999999
144
1.0
145
0.0
146
1.0
147
0.09
 71
     0
 72
     0
 73
     1
 74
     1
 75
     0
 76
     0
 77
     0
 78
     0
170
     0
171
     2
172
     0
173
     0
174
     0
175
     0
176
     0
177
     0
178
     0
  0
DIMSTYLE
  2
BYGG-014203$0$MASKIN
 70
     0
  3

  4

  5

  6

  7

 40
0.0
 41
3.0
 42
1.5
 43
10.0
 44
1.5
 45
0.0
 46
0.0
 47
0.0
 48
0.0
140
3.0
141
-5.0
142
0.0
143
25.399999999999999
144
-1.0
145
0.0
146
1.0
147
1.0
 71
     0
 72
     0
 73
     0
 74
     0
 75
     0
 76
     0
 77
     1
 78
     8
170
     0
171
     0
172
     1
173
     0
174
     0
175
     0
176
   256
177
   256
178
   256
  0
DIMSTYLE
  2
BYGG-021741$0$STANDARD
 70
     0
  3

  4

  5

  6

  7

 40
1.0
 41
0.18
 42
0.0625
 43
0.38
 44
0.18
 45
0.0
 46
0.0
 47
0.0
 48
0.0
140
0.18
141
0.09
142
0.0
143
25.399999999999999
144
1.0
145
0.0
146
1.0
147
0.09
 71
     0
 72
     0
 73
     1
 74
     1
 75
     0
 76
     0
 77
     0
 78
     0
170
     0
171
     2
172
     0
173
     0
174
     0
175
     0
176
     0
177
     0
178
     0
  0
DIMSTYLE
  2
BYGG-014247$0$MASKIN
 70
     0
  3

  4

  5

  6

  7

 40
0.0
 41
3.0
 42
1.5
 43
10.0
 44
1.5
 45
0.0
 46
0.0
 47
0.0
 48
0.0
140
3.0
141
-5.0
142
0.0
143
25.399999999999999
144
-1.0
145
0.0
146
1.0
147
1.0
 71
     0
 72
     0
 73
     0
 74
     0
 75
     0
 76
     0
 77
     1
 78
     8
170
     0
171
     0
172
     1
173
     0
174
     0
175
     0
176
   256
177
   256
178
   256
  0
DIMSTYLE
  2
BYGG-028766$0$STANDARD
 70
     0
  3

  4

  5

  6

  7

 40
1.0
 41
0.18
 42
0.0625
 43
0.38
 44
0.18
 45
0.0
 46
0.0
 47
0.0
 48
0.0
140
0.18
141
0.09
142
0.0
143
25.399999999999999
144
1.0
145
0.0
146
1.0
147
0.09
 71
     0
 72
     0
 73
     1
 74
     1
 75
     0
 76
     0
 77
     0
 78
     0
170
     0
171
     2
172
     0
173
     0
174
     0
175
     0
176
     0
177
     0
178
     0
  0
DIMSTYLE
  2
BYGG-028766$0$MASKIN
 70
     0
  3

  4

  5

  6

  7

 40
0.0
 41
3.0
 42
1.5
 43
10.0
 44
1.5
 45
0.0
 46
0.0
 47
0.0
 48
0.0
140
3.0
141
-5.0
142
0.0
143
25.399999999999999
144
-1.0
145
0.0
146
1.0
147
1.0
 71
     0
 72
     0
 73
     0
 74
     0
 75
     0
 76
     0
 77
     1
 78
     8
170
     0
171
     0
172
     1
173
     0
174
     0
175
     0
176
   256
177
   256
178
     2
  0
ENDTAB
  0
ENDSEC
  0
SECTION
  2
BLOCKS
  0
BLOCK
  8
0
  2
$MODEL_SPACE
 70
     0
 10
0.0
 20
0.0
 30
0.0
  3
$MODEL_SPACE
  1

  0
ENDBLK
  5
B
  8
0
  0
BLOCK
 67
     1
  8
0
  2
$PAPER_SPACE
 70
     0
 10
0.0
 20
0.0
 30
0.0
  3
$PAPER_SPACE
  1

  0
ENDBLK
  5
10
 67
     1
  8
0
  0
BLOCK
  8
0
  2
*D50
 70
     1
 10
0.0
 20
0.0
 30
0.0
  3
*D50
  1

  0
LINE
  5
7D5
  8
SAPA_MATT
 10
270.0000000000004
 20
37.5
 30
0.0
 11
270.0000000000004
 21
12.0
 31
0.0
  0
LINE
  5
7D6
  8
SAPA_MATT
 10
150.0000000000004
 20
36.414213562372993
 30
0.0
 11
150.0000000000004
 21
12.0
 31
0.0
  0
LINE
  5
7D7
  8
SAPA_MATT
 10
267.0000000000004
 20
13.5
 30
0.0
 11
153.0000000000004
 21
13.5
 31
0.0
  0
SOLID
  5
7D8
  8
SAPA_MATT
 10
267.0000000000004
 20
14.0
 30
0.0
 11
267.0000000000004
 21
13.0
 31
0.0
 12
270.0000000000004
 22
13.5
 32
0.0
 13
270.0000000000004
 23
13.5
 33
0.0
  0
SOLID
  5
7D9
  8
SAPA_MATT
 10
153.0000000000004
 20
14.0
 30
0.0
 11
153.0000000000004
 21
13.0
 31
0.0
 12
150.0000000000004
 22
13.5
 32
0.0
 13
150.0000000000004
 23
13.5
 33
0.0
  0
INSERT
  5
7DA
  8
0
  2
*U60
 10
0.0
 20
0.0
 30
0.0
  0
POINT
  5
7DB
  8
DEFPOINTS
 62
     0
 10
270.0000000000004
 20
39.0
 30
0.0
  0
POINT
  5
7DC
  8
DEFPOINTS
 62
     0
 10
150.0000000000004
 20
37.914213562372993
 30
0.0
  0
POINT
  5
7DD
  8
DEFPOINTS
 62
     0
 10
150.0000000000004
 20
13.5
 30
0.0
  0
ENDBLK
  5
795
  8
0
  0
BLOCK
  8
0
  2
*D51
 70
     1
 10
0.0
 20
0.0
 30
0.0
  3
*D51
  1

  0
LINE
  5
7CC
  8
SAPA_MATT
 10
150.0000000000004
 20
36.414213562372993
 30
0.0
 11
150.0000000000004
 21
12.0
 31
0.0
  0
LINE
  5
7CD
  8
SAPA_MATT
 10
119.9999999999999
 20
36.414213562372993
 30
0.0
 11
119.9999999999999
 21
12.0
 31
0.0
  0
LINE
  5
7CE
  8
SAPA_MATT
 10
147.0000000000004
 20
13.5
 30
0.0
 11
122.9999999999999
 21
13.5
 31
0.0
  0
SOLID
  5
7CF
  8
SAPA_MATT
 10
147.0000000000004
 20
14.0
 30
0.0
 11
147.0000000000004
 21
13.0
 31
0.0
 12
150.0000000000004
 22
13.5
 32
0.0
 13
150.0000000000004
 23
13.5
 33
0.0
  0
SOLID
  5
7D0
  8
SAPA_MATT
 10
122.9999999999999
 20
14.0
 30
0.0
 11
122.9999999999999
 21
13.0
 31
0.0
 12
119.9999999999999
 22
13.5
 32
0.0
 13
119.9999999999999
 23
13.5
 33
0.0
  0
INSERT
  5
7D1
  8
0
  2
*U59
 10
0.0
 20
0.0
 30
0.0
  0
POINT
  5
7D2
  8
DEFPOINTS
 62
     0
 10
150.0000000000004
 20
37.914213562372993
 30
0.0
  0
POINT
  5
7D3
  8
DEFPOINTS
 62
     0
 10
119.9999999999999
 20
37.914213562372993
 30
0.0
  0
POINT
  5
7D4
  8
DEFPOINTS
 62
     0
 10
119.9999999999999
 20
13.5
 30
0.0
  0
ENDBLK
  5
7A1
  8
0
  0
BLOCK
  8
0
  2
*D52
 70
     1
 10
0.0
 20
0.0
 30
0.0
  3
*D52
  1

  0
LINE
  5
7C3
  8
SAPA_MATT
 10
119.9999999999999
 20
36.414213562372993
 30
0.0
 11
119.9999999999999
 21
12.0
 31
0.0
  0
LINE
  5
7C4
  8
SAPA_MATT
 10
-0.0000000000000001
 20
37.5
 30
0.0
 11
-0.0000000000000017
 21
12.0
 31
0.0
  0
LINE
  5
7C5
  8
SAPA_MATT
 10
116.9999999999999
 20
13.5
 30
0.0
 11
2.9999999999999978
 21
13.5
 31
0.0
  0
SOLID
  5
7C6
  8
SAPA_MATT
 10
116.9999999999999
 20
14.0
 30
0.0
 11
116.9999999999999
 21
13.0
 31
0.0
 12
119.9999999999999
 22
13.5
 32
0.0
 13
119.9999999999999
 23
13.5
 33
0.0
  0
SOLID
  5
7C7
  8
SAPA_MATT
 10
2.9999999999999978
 20
14.0
 30
0.0
 11
2.9999999999999978
 21
13.0
 31
0.0
 12
-0.0000000000000016
 22
13.5
 32
0.0
 13
-0.0000000000000016
 23
13.5
 33
0.0
  0
INSERT
  5
7C8
  8
0
  2
*U58
 10
0.0
 20
0.0
 30
0.0
  0
POINT
  5
7C9
  8
DEFPOINTS
 62
     0
 10
119.9999999999999
 20
37.914213562372993
 30
0.0
  0
POINT
  5
7CA
  8
DEFPOINTS
 62
     0
 10
0.0
 20
39.0
 30
0.0
  0
POINT
  5
7CB
  8
DEFPOINTS
 62
     0
 10
-0.0000000000000016
 20
13.5
 30
0.0
  0
ENDBLK
  5
7AD
  8
0
  0
BLOCK
  8
0
  2
*D53
 70
     1
 10
0.0
 20
0.0
 30
0.0
  3
*D53
  1

  0
LINE
  5
7DE
  8
SAPA_MATT
 10
270.0000000000004
 20
37.5
 30
0.0
 11
270.0000000000004
 21
0.0
 31
0.0
  0
LINE
  5
7DF
  8
SAPA_MATT
 10
-0.0000000000000001
 20
37.5
 30
0.0
 11
-0.0000000000000024
 21
0.0
 31
0.0
  0
LINE
  5
7E0
  8
SAPA_MATT
 10
267.0000000000004
 20
1.5
 30
0.0
 11
2.9999999999999969
 21
1.5
 31
0.0
  0
SOLID
  5
7E1
  8
SAPA_MATT
 10
267.0000000000004
 20
2.0
 30
0.0
 11
267.0000000000004
 21
1.0
 31
0.0
 12
270.0000000000004
 22
1.5
 32
0.0
 13
270.0000000000004
 23
1.5
 33
0.0
  0
SOLID
  5
7E2
  8
SAPA_MATT
 10
2.9999999999999969
 20
2.0
 30
0.0
 11
2.9999999999999969
 21
1.0
 31
0.0
 12
-0.0000000000000023
 22
1.5
 32
0.0
 13
-0.0000000000000023
 23
1.5
 33
0.0
  0
INSERT
  5
7E3
  8
0
  2
*U61
 10
0.0
 20
0.0
 30
0.0
  0
POINT
  5
7E4
  8
DEFPOINTS
 62
     0
 10
270.0000000000004
 20
39.0
 30
0.0
  0
POINT
  5
7E5
  8
DEFPOINTS
 62
     0
 10
0.0
 20
39.0
 30
0.0
  0
POINT
  5
7E6
  8
DEFPOINTS
 62
     0
 10
-0.0000000000000023
 20
1.5
 30
0.0
  0
ENDBLK
  5
7B9
  8
0
  0
BLOCK
  8
0
  2
*U54
 70
     1
 10
0.0
 20
0.0
 30
0.0
  3
*U54
  1

  0
SOLID
  5
D18
  8
SAPA_FOGBAND
  6
CONTINUOUS
 62
     2
 10
134.735354152669
 20
86.865895961497657
 30
0.0
 11
134.55507658889579
 21
86.791222549591225
 31
0.0
 12
134.91563171644219
 22
86.791222549591225
 32
0.0
 13
134.91563171644219
 23
86.791222549591225
 33
0.0
210
0.0
220
0.0
230
1.0
  0
SOLID
  5
D19
  8
SAPA_FOGBAND
  6
CONTINUOUS
 62
     2
 10
134.55507658889579
 20
86.791222549591225
 30
0.0
 11
134.48040317698931
 21
86.610944985818008
 31
0.0
 12
134.99030512834861
 22
86.610944985818008
 32
0.0
 13
134.99030512834861
 23
86.610944985818008
 33
0.0
210
0.0
220
0.0
230
1.0
  0
SOLID
  5
D1A
  8
SAPA_FOGBAND
  6
CONTINUOUS
 62
     2
 10
-134.55507658889579
 20
86.791222549591225
 30
0.0
 11
-134.91563171644219
 21
86.791222549591225
 31
0.0
 12
-134.99030512834861
 22
86.610944985818008
 32
0.0
 13
-134.99030512834861
 23
86.610944985818008
 33
0.0
210
0.0
220
0.0
230
-1.0
  0
SOLID
  5
D1B
  8
SAPA_FOGBAND
  6
CONTINUOUS
 62
     2
 10
-134.55507658889579
 20
86.43066742204482
 30
0.0
 11
-134.91563171644219
 21
86.43066742204482
 31
0.0
 12
-134.735354152669
 22
86.355994010138389
 32
0.0
 13
-134.735354152669
 23
86.355994010138389
 33
0.0
210
0.0
220
0.0
230
-1.0
  0
SOLID
  5
D1C
  8
SAPA_FOGBAND
  6
CONTINUOUS
 62
     2
 10
134.48040317698931
 20
86.610944985818008
 30
0.0
 11
134.55507658889579
 21
86.43066742204482
 31
0.0
 12
134.91563171644219
 22
86.43066742204482
 32
0.0
 13
134.91563171644219
 23
86.43066742204482
 33
0.0
210
0.0
220
0.0
230
1.0
  0
SOLID
  5
D1D
  8
SAPA_FOGBAND
  6
CONTINUOUS
 62
     2
 10
-134.48040317698931
 20
86.610944985818008
 30
0.0
 11
-134.99030512834861
 21
86.610944985818008
 31
0.0
 12
-134.91563171644219
 22
86.43066742204482
 32
0.0
 13
-134.91563171644219
 23
86.43066742204482
 33
0.0
210
0.0
220
0.0
230
-1.0
  0
LINE
  5
D1E
  8
SAPA_FOGBAND
  6
CONTINUOUS
 62
     2
 10
134.735354152669
 20
86.865895961497657
 30
0.0
 11
134.55507658889579
 21
86.791222549591225
 31
0.0
  0
LINE
  5
D1F
  8
SAPA_FOGBAND
  6
CONTINUOUS
 62
     2
 10
134.91563171644219
 20
86.791222549591225
 30
0.0
 11
134.735354152669
 21
86.865895961497657
 31
0.0
  0
LINE
  5
D20
  8
SAPA_FOGBAND
  6
CONTINUOUS
 62
     2
 10
134.55507658889579
 20
86.791222549591225
 30
0.0
 11
134.48040317698931
 21
86.610944985818008
 31
0.0
  0
LINE
  5
D21
  8
SAPA_FOGBAND
  6
CONTINUOUS
 62
     2
 10
134.91563171644219
 20
86.791222549591225
 30
0.0
 11
134.99030512834861
 21
86.610944985818008
 31
0.0
  0
LINE
  5
D22
  8
SAPA_FOGBAND
  6
CONTINUOUS
 62
     2
 10
134.91563171644219
 20
86.43066742204482
 30
0.0
 11
134.735354152669
 21
86.355994010138389
 31
0.0
  0
LINE
  5
D23
  8
SAPA_FOGBAND
  6
CONTINUOUS
 62
     2
 10
134.735354152669
 20
86.355994010138389
 30
0.0
 11
134.55507658889579
 21
86.43066742204482
 31
0.0
  0
LINE
  5
D24
  8
SAPA_FOGBAND
  6
CONTINUOUS
 62
     2
 10
134.48040317698931
 20
86.610944985818008
 30
0.0
 11
134.55507658889579
 21
86.43066742204482
 31
0.0
  0
LINE
  5
D25
  8
SAPA_FOGBAND
  6
CONTINUOUS
 62
     2
 10
134.99030512834861
 20
86.610944985818008
 30
0.0
 11
134.91563171644219
 21
86.43066742204482
 31
0.0
  0
ENDBLK
  5
D27
  8
0
  0
BLOCK
  8
0
  2
*U55
 70
     1
 10
0.0
 20
0.0
 30
0.0
  3
*U55
  1

  0
SOLID
  5
D52
  8
SAPA_FOGBAND
  6
CONTINUOUS
 62
     2
 10
135.31330550362361
 20
40.642914788711572
 30
0.0
 11
135.13302793985051
 21
40.568241376805133
 31
0.0
 12
135.4935830673968
 22
40.568241376805133
 32
0.0
 13
135.4935830673968
 23
40.568241376805133
 33
0.0
210
0.0
220
0.0
230
1.0
  0
SOLID
  5
D53
  8
SAPA_FOGBAND
  6
CONTINUOUS
 62
     2
 10
135.13302793985051
 20
40.568241376805133
 30
0.0
 11
135.058354527944
 21
40.387963813031931
 31
0.0
 12
135.5682564793033
 22
40.387963813031931
 32
0.0
 13
135.5682564793033
 23
40.387963813031931
 33
0.0
210
0.0
220
0.0
230
1.0
  0
SOLID
  5
D54
  8
SAPA_FOGBAND
  6
CONTINUOUS
 62
     2
 10
-135.13302793985051
 20
40.568241376805133
 30
0.0
 11
-135.4935830673968
 21
40.568241376805133
 31
0.0
 12
-135.5682564793033
 22
40.387963813031931
 32
0.0
 13
-135.5682564793033
 23
40.387963813031931
 33
0.0
210
0.0
220
0.0
230
-1.0
  0
SOLID
  5
D55
  8
SAPA_FOGBAND
  6
CONTINUOUS
 62
     2
 10
-135.13302793985051
 20
40.207686249258742
 30
0.0
 11
-135.4935830673968
 21
40.207686249258742
 31
0.0
 12
-135.31330550362361
 22
40.133012837352297
 32
0.0
 13
-135.31330550362361
 23
40.133012837352297
 33
0.0
210
0.0
220
0.0
230
-1.0
  0
SOLID
  5
D56
  8
SAPA_FOGBAND
  6
CONTINUOUS
 62
     2
 10
135.058354527944
 20
40.387963813031931
 30
0.0
 11
135.13302793985051
 21
40.207686249258742
 31
0.0
 12
135.4935830673968
 22
40.207686249258742
 32
0.0
 13
135.4935830673968
 23
40.207686249258742
 33
0.0
210
0.0
220
0.0
230
1.0
  0
SOLID
  5
D57
  8
SAPA_FOGBAND
  6
CONTINUOUS
 62
     2
 10
-135.058354527944
 20
40.387963813031931
 30
0.0
 11
-135.5682564793033
 21
40.387963813031931
 31
0.0
 12
-135.4935830673968
 22
40.207686249258742
 32
0.0
 13
-135.4935830673968
 23
40.207686249258742
 33
0.0
210
0.0
220
0.0
230
-1.0
  0
LINE
  5
D58
  8
SAPA_FOGBAND
  6
CONTINUOUS
 62
     2
 10
135.31330550362361
 20
40.642914788711572
 30
0.0
 11
135.13302793985051
 21
40.568241376805133
 31
0.0
  0
LINE
  5
D59
  8
SAPA_FOGBAND
  6
CONTINUOUS
 62
     2
 10
135.4935830673968
 20
40.568241376805133
 30
0.0
 11
135.31330550362361
 21
40.642914788711572
 31
0.0
  0
LINE
  5
D5A
  8
SAPA_FOGBAND
  6
CONTINUOUS
 62
     2
 10
135.13302793985051
 20
40.568241376805133
 30
0.0
 11
135.058354527944
 21
40.387963813031931
 31
0.0
  0
LINE
  5
D5B
  8
SAPA_FOGBAND
  6
CONTINUOUS
 62
     2
 10
135.4935830673968
 20
40.568241376805133
 30
0.0
 11
135.5682564793033
 21
40.387963813031931
 31
0.0
  0
LINE
  5
D5C
  8
SAPA_FOGBAND
  6
CONTINUOUS
 62
     2
 10
135.4935830673968
 20
40.207686249258742
 30
0.0
 11
135.31330550362361
 21
40.133012837352297
 31
0.0
  0
LINE
  5
D5D
  8
SAPA_FOGBAND
  6
CONTINUOUS
 62
     2
 10
135.31330550362361
 20
40.133012837352297
 30
0.0
 11
135.13302793985051
 21
40.207686249258742
 31
0.0
  0
LINE
  5
D5E
  8
SAPA_FOGBAND
  6
CONTINUOUS
 62
     2
 10
135.058354527944
 20
40.387963813031931
 30
0.0
 11
135.13302793985051
 21
40.207686249258742
 31
0.0
  0
LINE
  5
D5F
  8
SAPA_FOGBAND
  6
CONTINUOUS
 62
     2
 10
135.5682564793033
 20
40.387963813031931
 30
0.0
 11
135.4935830673968
 21
40.207686249258742
 31
0.0
  0
ENDBLK
  5
D61
  8
0
  0
BLOCK
  8
0
  2
*U56
 70
     1
 10
0.0
 20
0.0
 30
0.0
  3
*U56
  1

  0
SOLID
  5
E42
  8
SAPA_FOGBAND
  6
CONTINUOUS
 62
     2
 10
134.735354152669
 20
86.865895961497657
 30
0.0
 11
134.55507658889579
 21
86.791222549591225
 31
0.0
 12
134.91563171644219
 22
86.791222549591225
 32
0.0
 13
134.91563171644219
 23
86.791222549591225
 33
0.0
210
0.0
220
0.0
230
1.0
  0
SOLID
  5
E43
  8
SAPA_FOGBAND
  6
CONTINUOUS
 62
     2
 10
134.55507658889579
 20
86.791222549591225
 30
0.0
 11
134.48040317698931
 21
86.610944985818008
 31
0.0
 12
134.99030512834861
 22
86.610944985818008
 32
0.0
 13
134.99030512834861
 23
86.610944985818008
 33
0.0
210
0.0
220
0.0
230
1.0
  0
SOLID
  5
E44
  8
SAPA_FOGBAND
  6
CONTINUOUS
 62
     2
 10
-134.55507658889579
 20
86.791222549591225
 30
0.0
 11
-134.91563171644219
 21
86.791222549591225
 31
0.0
 12
-134.99030512834861
 22
86.610944985818008
 32
0.0
 13
-134.99030512834861
 23
86.610944985818008
 33
0.0
210
0.0
220
0.0
230
-1.0
  0
SOLID
  5
E45
  8
SAPA_FOGBAND
  6
CONTINUOUS
 62
     2
 10
-134.55507658889579
 20
86.43066742204482
 30
0.0
 11
-134.91563171644219
 21
86.43066742204482
 31
0.0
 12
-134.735354152669
 22
86.355994010138389
 32
0.0
 13
-134.735354152669
 23
86.355994010138389
 33
0.0
210
0.0
220
0.0
230
-1.0
  0
SOLID
  5
E46
  8
SAPA_FOGBAND
  6
CONTINUOUS
 62
     2
 10
134.48040317698931
 20
86.610944985818008
 30
0.0
 11
134.55507658889579
 21
86.43066742204482
 31
0.0
 12
134.91563171644219
 22
86.43066742204482
 32
0.0
 13
134.91563171644219
 23
86.43066742204482
 33
0.0
210
0.0
220
0.0
230
1.0
  0
SOLID
  5
E47
  8
SAPA_FOGBAND
  6
CONTINUOUS
 62
     2
 10
-134.48040317698931
 20
86.610944985818008
 30
0.0
 11
-134.99030512834861
 21
86.610944985818008
 31
0.0
 12
-134.91563171644219
 22
86.43066742204482
 32
0.0
 13
-134.91563171644219
 23
86.43066742204482
 33
0.0
210
0.0
220
0.0
230
-1.0
  0
LINE
  5
E48
  8
SAPA_FOGBAND
  6
CONTINUOUS
 62
     2
 10
134.735354152669
 20
86.865895961497657
 30
0.0
 11
134.55507658889579
 21
86.791222549591225
 31
0.0
  0
LINE
  5
E49
  8
SAPA_FOGBAND
  6
CONTINUOUS
 62
     2
 10
134.91563171644219
 20
86.791222549591225
 30
0.0
 11
134.735354152669
 21
86.865895961497657
 31
0.0
  0
LINE
  5
E4A
  8
SAPA_FOGBAND
  6
CONTINUOUS
 62
     2
 10
134.55507658889579
 20
86.791222549591225
 30
0.0
 11
134.48040317698931
 21
86.610944985818008
 31
0.0
  0
LINE
  5
E4B
  8
SAPA_FOGBAND
  6
CONTINUOUS
 62
     2
 10
134.91563171644219
 20
86.791222549591225
 30
0.0
 11
134.99030512834861
 21
86.610944985818008
 31
0.0
  0
LINE
  5
E4C
  8
SAPA_FOGBAND
  6
CONTINUOUS
 62
     2
 10
134.91563171644219
 20
86.43066742204482
 30
0.0
 11
134.735354152669
 21
86.355994010138389
 31
0.0
  0
LINE
  5
E4D
  8
SAPA_FOGBAND
  6
CONTINUOUS
 62
     2
 10
134.735354152669
 20
86.355994010138389
 30
0.0
 11
134.55507658889579
 21
86.43066742204482
 31
0.0
  0
LINE
  5
E4E
  8
SAPA_FOGBAND
  6
CONTINUOUS
 62
     2
 10
134.48040317698931
 20
86.610944985818008
 30
0.0
 11
134.55507658889579
 21
86.43066742204482
 31
0.0
  0
LINE
  5
E4F
  8
SAPA_FOGBAND
  6
CONTINUOUS
 62
     2
 10
134.99030512834861
 20
86.610944985818008
 30
0.0
 11
134.91563171644219
 21
86.43066742204482
 31
0.0
  0
ENDBLK
  5
E51
  8
0
  0
BLOCK
  8
0
  2
*U57
 70
     1
 10
0.0
 20
0.0
 30
0.0
  3
*U57
  1

  0
SOLID
  5
E7C
  8
SAPA_FOGBAND
  6
CONTINUOUS
 62
     2
 10
135.31330550362361
 20
40.642914788711572
 30
0.0
 11
135.13302793985051
 21
40.568241376805133
 31
0.0
 12
135.4935830673968
 22
40.568241376805133
 32
0.0
 13
135.4935830673968
 23
40.568241376805133
 33
0.0
210
0.0
220
0.0
230
1.0
  0
SOLID
  5
E7D
  8
SAPA_FOGBAND
  6
CONTINUOUS
 62
     2
 10
135.13302793985051
 20
40.568241376805133
 30
0.0
 11
135.058354527944
 21
40.387963813031931
 31
0.0
 12
135.5682564793033
 22
40.387963813031931
 32
0.0
 13
135.5682564793033
 23
40.387963813031931
 33
0.0
210
0.0
220
0.0
230
1.0
  0
SOLID
  5
E7E
  8
SAPA_FOGBAND
  6
CONTINUOUS
 62
     2
 10
-135.13302793985051
 20
40.568241376805133
 30
0.0
 11
-135.4935830673968
 21
40.568241376805133
 31
0.0
 12
-135.5682564793033
 22
40.387963813031931
 32
0.0
 13
-135.5682564793033
 23
40.387963813031931
 33
0.0
210
0.0
220
0.0
230
-1.0
  0
SOLID
  5
E7F
  8
SAPA_FOGBAND
  6
CONTINUOUS
 62
     2
 10
-135.13302793985051
 20
40.207686249258742
 30
0.0
 11
-135.4935830673968
 21
40.207686249258742
 31
0.0
 12
-135.31330550362361
 22
40.133012837352297
 32
0.0
 13
-135.31330550362361
 23
40.133012837352297
 33
0.0
210
0.0
220
0.0
230
-1.0
  0
SOLID
  5
E80
  8
SAPA_FOGBAND
  6
CONTINUOUS
 62
     2
 10
135.058354527944
 20
40.387963813031931
 30
0.0
 11
135.13302793985051
 21
40.207686249258742
 31
0.0
 12
135.4935830673968
 22
40.207686249258742
 32
0.0
 13
135.4935830673968
 23
40.207686249258742
 33
0.0
210
0.0
220
0.0
230
1.0
  0
SOLID
  5
E81
  8
SAPA_FOGBAND
  6
CONTINUOUS
 62
     2
 10
-135.058354527944
 20
40.387963813031931
 30
0.0
 11
-135.5682564793033
 21
40.387963813031931
 31
0.0
 12
-135.4935830673968
 22
40.207686249258742
 32
0.0
 13
-135.4935830673968
 23
40.207686249258742
 33
0.0
210
0.0
220
0.0
230
-1.0
  0
LINE
  5
E82
  8
SAPA_FOGBAND
  6
CONTINUOUS
 62
     2
 10
135.31330550362361
 20
40.642914788711572
 30
0.0
 11
135.13302793985051
 21
40.568241376805133
 31
0.0
  0
LINE
  5
E83
  8
SAPA_FOGBAND
  6
CONTINUOUS
 62
     2
 10
135.4935830673968
 20
40.568241376805133
 30
0.0
 11
135.31330550362361
 21
40.642914788711572
 31
0.0
  0
LINE
  5
E84
  8
SAPA_FOGBAND
  6
CONTINUOUS
 62
     2
 10
135.13302793985051
 20
40.568241376805133
 30
0.0
 11
135.058354527944
 21
40.387963813031931
 31
0.0
  0
LINE
  5
E85
  8
SAPA_FOGBAND
  6
CONTINUOUS
 62
     2
 10
135.4935830673968
 20
40.568241376805133
 30
0.0
 11
135.5682564793033
 21
40.387963813031931
 31
0.0
  0
LINE
  5
E86
  8
SAPA_FOGBAND
  6
CONTINUOUS
 62
     2
 10
135.4935830673968
 20
40.207686249258742
 30
0.0
 11
135.31330550362361
 21
40.133012837352297
 31
0.0
  0
LINE
  5
E87
  8
SAPA_FOGBAND
  6
CONTINUOUS
 62
     2
 10
135.31330550362361
 20
40.133012837352297
 30
0.0
 11
135.13302793985051
 21
40.207686249258742
 31
0.0
  0
LINE
  5
E88
  8
SAPA_FOGBAND
  6
CONTINUOUS
 62
     2
 10
135.058354527944
 20
40.387963813031931
 30
0.0
 11
135.13302793985051
 21
40.207686249258742
 31
0.0
  0
LINE
  5
E89
  8
SAPA_FOGBAND
  6
CONTINUOUS
 62
     2
 10
135.5682564793033
 20
40.387963813031931
 30
0.0
 11
135.4935830673968
 21
40.207686249258742
 31
0.0
  0
ENDBLK
  5
E8B
  8
0
  0
BLOCK
  8
0
  2
*U58
 70
     1
 10
0.0
 20
0.0
 30
0.0
  3
*U58
  1

  0
TEXT
  5
F48
  8
SAPA_MATT
 62
     2
 10
57.148818897637781
 20
14.500295275590551
 30
0.0
 40
3.0
  1
120
  7
ISO
  0
ENDBLK
  5
F4A
  8
0
  0
BLOCK
  8
0
  2
*U59
 70
     1
 10
0.0
 20
0.0
 30
0.0
  3
*U59
  1

  0
TEXT
  5
F4C
  8
SAPA_MATT
 62
     2
 10
132.89881889763791
 20
14.5
 30
0.0
 40
3.0
  1
30
  7
ISO
  0
ENDBLK
  5
F4E
  8
0
  0
BLOCK
  8
0
  2
*U60
 70
     1
 10
0.0
 20
0.0
 30
0.0
  3
*U60
  1

  0
TEXT
  5
F50
  8
SAPA_MATT
 62
     2
 10
207.14881889763819
 20
14.500295275590551
 30
0.0
 40
3.0
  1
120
  7
ISO
  0
ENDBLK
  5
F52
  8
0
  0
BLOCK
  8
0
  2
*U61
 70
     1
 10
0.0
 20
0.0
 30
0.0
  3
*U61
  1

  0
TEXT
  5
F54
  8
SAPA_MATT
 62
     2
 10
131.8869094488191
 20
2.5002952755905499
 30
0.0
 40
3.0
  1
270
  7
ISO
  0
ENDBLK
  5
F56
  8
0
  0
ENDSEC
  0
SECTION
  2
ENTITIES
  0
TEXT
  5
4C
  8
SAPA_ARTIKELNR
 10
130.3789305022481
 20
95.844116962401245
 30
0.0
 40
3.5
  1
42138
  7
ISO
  0
TEXT
  5
4D
  8
SAPA_ARTIKELNR
 10
190.64111309322089
 20
95.865907565382827
 30
0.0
 40
3.5
  1
68057
  7
ISO
  0
TEXT
  5
4E
  8
SAPA_ARTIKELNR
 10
129.44176093573381
 20
27.726692042065
 30
0.0
 40
3.5
  1
42138
  7
ISO
  0
TEXT
  5
4F
  8
SAPA_ARTIKELNR
 10
61.18094506776756
 20
95.865907565382827
 30
0.0
 40
3.5
  1
68057
  7
ISO
  0
POLYLINE
  5
60
  8
SAPA_LIGHT
 66
     1
 10
0.0
 20
0.0
 30
0.0
  0
VERTEX
  5
7FB
  8
SAPA_LIGHT
 10
270.0000000000025
 20
47.40000000000029
 30
0.0
  0
VERTEX
  5
7FC
  8
SAPA_LIGHT
 10
270.0000000000025
 20
33.499999999999922
 30
0.0
  0
VERTEX
  5
7FD
  8
SAPA_LIGHT
 10
140.80335224791759
 20
33.499999999999922
 30
0.0
  0
VERTEX
  5
7FE
  8
SAPA_LIGHT
 10
140.80335224791759
 20
93.499999999999915
 30
0.0
  0
VERTEX
  5
7FF
  8
SAPA_LIGHT
 10
270.0000000000025
 20
93.499999999999915
 30
0.0
  0
VERTEX
  5
800
  8
SAPA_LIGHT
 10
270.0000000000025
 20
53.400000000000283
 30
0.0
  0
SEQEND
  5
801
  8
SAPA_LIGHT
  0
POLYLINE
  5
63
  8
SAPA_LIGHT
 66
     1
 10
0.0
 20
0.0
 30
0.0
  0
VERTEX
  5
802
  8
SAPA_LIGHT
 10
252.99999999999821
 20
47.40000000000029
 30
0.0
  0
VERTEX
  5
803
  8
SAPA_LIGHT
 10
286.19999999999811
 20
47.40000000000029
 30
0.0
  0
VERTEX
  5
804
  8
SAPA_LIGHT
 10
286.19999999999811
 20
53.40000000000029
 30
0.0
  0
VERTEX
  5
805
  8
SAPA_LIGHT
 10
252.99999999999821
 20
53.40000000000029
 30
0.0
  0
VERTEX
  5
806
  8
SAPA_LIGHT
 10
252.99999999999821
 20
47.40000000000029
 30
0.0
  0
SEQEND
  5
807
  8
SAPA_LIGHT
  0
POLYLINE
  5
64
  8
SAPA_LIGHT
 66
     1
 10
0.0
 20
0.0
 30
0.0
  0
VERTEX
  5
808
  8
SAPA_LIGHT
 10
-0.0000000000021032
 20
47.40000000000029
 30
0.0
  0
VERTEX
  5
809
  8
SAPA_LIGHT
 10
-0.0000000000021032
 20
33.499999999999922
 30
0.0
  0
VERTEX
  5
80A
  8
SAPA_LIGHT
 10
129.19664775208281
 20
33.499999999999922
 30
0.0
  0
VERTEX
  5
80B
  8
SAPA_LIGHT
 10
129.19664775208281
 20
93.499999999999915
 30
0.0
  0
VERTEX
  5
80C
  8
SAPA_LIGHT
 10
-0.0000000000022169
 20
93.499999999999972
 30
0.0
  0
VERTEX
  5
80D
  8
SAPA_LIGHT
 10
-0.0000000000021032
 20
53.400000000000283
 30
0.0
  0
SEQEND
  5
80E
  8
SAPA_LIGHT
  0
POLYLINE
  5
65
  8
SAPA_LIGHT
 66
     1
 10
0.0
 20
0.0
 30
0.0
  0
VERTEX
  5
80F
  8
SAPA_LIGHT
 10
17.00000000000005
 20
47.40000000000029
 30
0.0
  0
VERTEX
  5
810
  8
SAPA_LIGHT
 10
-16.199999999999871
 20
47.40000000000029
 30
0.0
  0
VERTEX
  5
811
  8
SAPA_LIGHT
 10
-16.199999999999871
 20
53.40000000000029
 30
0.0
  0
VERTEX
  5
812
  8
SAPA_LIGHT
 10
17.00000000000005
 20
53.40000000000029
 30
0.0
  0
VERTEX
  5
813
  8
SAPA_LIGHT
 10
17.00000000000005
 20
47.40000000000029
 30
0.0
  0
SEQEND
  5
814
  8
SAPA_LIGHT
  0
POLYLINE
  5
755
  8
SAPA_PROFIL
 66
     1
 10
0.0
 20
0.0
 30
0.0
  0
VERTEX
  5
A89
  8
SAPA_PROFIL
 10
19.12126307844807
 20
72.678444819366661
 30
0.0
  0
VERTEX
  5
A8A
  8
SAPA_PROFIL
 10
1.999999999997726
 20
71.997404885508359
 30
0.0
 42
-0.4142135623730951
  0
VERTEX
  5
A8B
  8
SAPA_PROFIL
 10
1.499999999997726
 20
72.497404885508359
 30
0.0
  0
VERTEX
  5
A8C
  8
SAPA_PROFIL
 10
1.4999999999977831
 20
84.297018368517087
 30
0.0
 42
-0.4076767287637263
  0
VERTEX
  5
A8D
  8
SAPA_PROFIL
 10
4.4328963508147012
 20
87.29626820090661
 30
0.0
  0
VERTEX
  5
A8E
  8
SAPA_PROFIL
 10
19.12126307844807
 20
87.450707423017406
 30
0.0
 42
-0.4182129759575463
  0
VERTEX
  5
A8F
  8
SAPA_PROFIL
 10
19.632424190503571
 20
86.955195702160239
 30
0.0
  0
VERTEX
  5
A90
  8
SAPA_PROFIL
 10
19.645251792029281
 20
84.4805479460409
 30
0.0
  0
VERTEX
  5
A91
  8
SAPA_PROFIL
 10
21.299940389653099
 20
82.854489989847323
 30
0.0
  0
VERTEX
  5
A92
  8
SAPA_PROFIL
 10
25.84901642394129
 20
82.854489989847323
 30
0.0
 42
0.4293387945586749
  0
VERTEX
  5
A93
  8
SAPA_PROFIL
 10
26.145742945025798
 20
83.172601125836664
 30
0.0
  0
VERTEX
  5
A94
  8
SAPA_PROFIL
 10
26.07310326889808
 20
84.254056851107165
 30
0.0
 42
0.4883397947196161
  0
VERTEX
  5
A95
  8
SAPA_PROFIL
 10
24.511381442889729
 20
84.033433916908933
 30
0.0
  0
VERTEX
  5
A96
  8
SAPA_PROFIL
 10
21.812300166855319
 20
84.033433916908933
 30
0.0
  0
VERTEX
  5
A97
  8
SAPA_PROFIL
 10
20.840868520479209
 20
84.988057137106779
 30
0.0
  0
VERTEX
  5
A98
  8
SAPA_PROFIL
 10
20.840868520479209
 20
87.487183279991854
 30
0.0
  0
VERTEX
  5
A99
  8
SAPA_PROFIL
 10
21.314644186994091
 20
87.487183279991854
 30
0.0
  0
VERTEX
  5
A9A
  8
SAPA_PROFIL
 10
21.314644186994091
 20
89.000000000000085
 30
0.0
  0
VERTEX
  5
A9B
  8
SAPA_PROFIL
 10
0.2973592933056466
 20
89.000000000000185
 30
0.0
 42
0.4116378201539302
  0
VERTEX
  5
A9C
  8
SAPA_PROFIL
 10
-0.0000000000022169
 20
88.700011522329845
 30
0.0
  0
VERTEX
  5
A9D
  8
SAPA_PROFIL
 10
-0.0000000000022737
 20
60.297404885508371
 30
0.0
 42
0.414213562373095
  0
VERTEX
  5
A9E
  8
SAPA_PROFIL
 10
0.2999999999977376
 20
59.997404885508303
 30
0.0
  0
VERTEX
  5
A9F
  8
SAPA_PROFIL
 10
1.5099999999977169
 20
59.997404885508359
 30
0.0
 42
0.4142135623731037
  0
VERTEX
  5
AA0
  8
SAPA_PROFIL
 10
2.4999999999977258
 20
60.987404885508312
 30
0.0
  0
VERTEX
  5
AA1
  8
SAPA_PROFIL
 10
2.4999999999977258
 20
60.997404885508352
 30
0.0
  0
VERTEX
  5
AA2
  8
SAPA_PROFIL
 10
1.249999999997726
 20
60.997404885508352
 30
0.0
  0
VERTEX
  5
AA3
  8
SAPA_PROFIL
 10
1.249999999997726
 20
62.497404885508359
 30
0.0
 42
-0.4142135623730951
  0
VERTEX
  5
AA4
  8
SAPA_PROFIL
 10
1.749999999997726
 20
62.997404885508359
 30
0.0
  0
VERTEX
  5
AA5
  8
SAPA_PROFIL
 10
9.7499999999977263
 20
62.997404885508359
 30
0.0
 42
-0.4142135623730951
  0
VERTEX
  5
AA6
  8
SAPA_PROFIL
 10
10.249999999997719
 20
62.497404885508359
 30
0.0
  0
VERTEX
  5
AA7
  8
SAPA_PROFIL
 10
10.249999999997719
 20
60.997404885508352
 30
0.0
  0
VERTEX
  5
AA8
  8
SAPA_PROFIL
 10
8.9999999999977263
 20
60.997404885508352
 30
0.0
  0
VERTEX
  5
AA9
  8
SAPA_PROFIL
 10
8.9999999999977263
 20
60.987404885508312
 30
0.0
 42
0.414213562373095
  0
VERTEX
  5
AAA
  8
SAPA_PROFIL
 10
9.9899999999977354
 20
59.997404885508303
 30
0.0
  0
VERTEX
  5
AAB
  8
SAPA_PROFIL
 10
10.499999999997719
 20
59.997404885508359
 30
0.0
 42
0.4142135623730953
  0
VERTEX
  5
AAC
  8
SAPA_PROFIL
 10
11.499999999997719
 20
60.997404885508352
 30
0.0
  0
VERTEX
  5
AAD
  8
SAPA_PROFIL
 10
11.499999999997719
 20
62.497404885508359
 30
0.0
 42
0.4142135623730951
  0
VERTEX
  5
AAE
  8
SAPA_PROFIL
 10
9.7999999999977376
 20
64.197404885508348
 30
0.0
  0
VERTEX
  5
AAF
  8
SAPA_PROFIL
 10
1.999999999997726
 20
64.197404885508405
 30
0.0
 42
-0.414213562373095
  0
VERTEX
  5
AB0
  8
SAPA_PROFIL
 10
1.499999999997726
 20
64.697404885508405
 30
0.0
  0
VERTEX
  5
AB1
  8
SAPA_PROFIL
 10
1.499999999997726
 20
70.197404885508405
 30
0.0
 42
-0.4142135623730951
  0
VERTEX
  5
AB2
  8
SAPA_PROFIL
 10
1.999999999997726
 20
70.697404885508405
 30
0.0
  0
VERTEX
  5
AB3
  8
SAPA_PROFIL
 10
19.12126307844807
 20
71.368614531974714
 30
0.0
  0
VERTEX
  5
AB4
  8
SAPA_PROFIL
 10
24.524209842197759
 20
72.025552982704056
 30
0.0
 42
-0.4666505291506209
  0
VERTEX
  5
AB5
  8
SAPA_PROFIL
 10
24.804011408116541
 20
71.763721451659507
 30
0.0
  0
VERTEX
  5
AB6
  8
SAPA_PROFIL
 10
24.7644685141982
 20
71.041065358100553
 30
0.0
 42
0.7332303362618522
  0
VERTEX
  5
AB7
  8
SAPA_PROFIL
 10
25.300544536850509
 20
70.840890769530375
 30
0.0
  0
VERTEX
  5
AB8
  8
SAPA_PROFIL
 10
26.071454654354909
 20
72.950998109068081
 30
0.0
 42
0.668178637919333
  0
VERTEX
  5
AB9
  8
SAPA_PROFIL
 10
25.798288459160631
 20
73.433345961158892
 30
0.0
  0
VERTEX
  5
ABA
  8
SAPA_PROFIL
 10
19.12126307844807
 20
72.678444819366661
 30
0.0
  0
VERTEX
  5
ABB
  8
SAPA_PROFIL
 10
19.12126307844807
 20
72.687978271529772
 30
0.0
  0
SEQEND
  5
ABC
  8
SAPA_PROFIL
  0
LINE
  5
756
  8
SAPA_PROFIL
 10
9.2999999999960323
 20
42.500000000005002
 30
0.0
 11
9.2999999999960323
 21
42.500000000005002
 31
0.0
  0
POLYLINE
  5
757
  8
SAPA_PROFIL
 66
     1
 10
0.0
 20
0.0
 30
0.0
 70
     1
  0
VERTEX
  5
ABD
  8
SAPA_PROFIL
 10
25.300000000000011
 20
61.5
 30
0.0
 42
-0.4142135623730951
  0
VERTEX
  5
ABE
  8
SAPA_PROFIL
 10
24.99999999999995
 20
61.799999999999962
 30
0.0
  0
VERTEX
  5
ABF
  8
SAPA_PROFIL
 10
24.99999999999995
 20
62.633974596215012
 30
0.0
  0
VERTEX
  5
AC0
  8
SAPA_PROFIL
 10
24.49999999999994
 20
63.5
 30
0.0
  0
VERTEX
  5
AC1
  8
SAPA_PROFIL
 10
24.99999999999995
 20
64.366025403783965
 30
0.0
  0
VERTEX
  5
AC2
  8
SAPA_PROFIL
 10
24.99999999999995
 20
65.200000000000045
 30
0.0
 42
-0.4142135623730951
  0
VERTEX
  5
AC3
  8
SAPA_PROFIL
 10
25.300000000000011
 20
65.5
 30
0.0
  0
VERTEX
  5
AC4
  8
SAPA_PROFIL
 10
28.99999999999995
 20
65.5
 30
0.0
  0
VERTEX
  5
AC5
  8
SAPA_PROFIL
 10
29.99999999999995
 20
66.5
 30
0.0
  0
VERTEX
  5
AC6
  8
SAPA_PROFIL
 10
29.99999999999995
 20
80.599999999999909
 30
0.0
 42
-0.4142135623730951
  0
VERTEX
  5
AC7
  8
SAPA_PROFIL
 10
30.300000000000011
 20
80.899999999999977
 30
0.0
  0
VERTEX
  5
AC8
  8
SAPA_PROFIL
 10
33.699999999999989
 20
80.899999999999977
 30
0.0
 42
0.4142135623730951
  0
VERTEX
  5
AC9
  8
SAPA_PROFIL
 10
33.99999999999995
 20
81.200000000000045
 30
0.0
  0
VERTEX
  5
ACA
  8
SAPA_PROFIL
 10
33.99999999999995
 20
82.799999999999955
 30
0.0
 42
0.4142135623730951
  0
VERTEX
  5
ACB
  8
SAPA_PROFIL
 10
33.699999999999989
 20
83.099999999999909
 30
0.0
  0
VERTEX
  5
ACC
  8
SAPA_PROFIL
 10
30.300000000000011
 20
83.099999999999909
 30
0.0
 42
-0.4142135623730951
  0
VERTEX
  5
ACD
  8
SAPA_PROFIL
 10
29.99999999999995
 20
83.399999999999977
 30
0.0
  0
VERTEX
  5
ACE
  8
SAPA_PROFIL
 10
29.99999999999995
 20
90.200000000000045
 30
0.0
 42
-0.4142135623730951
  0
VERTEX
  5
ACF
  8
SAPA_PROFIL
 10
30.300000000000011
 20
90.5
 30
0.0
  0
VERTEX
  5
AD0
  8
SAPA_PROFIL
 10
106.4999999999999
 20
90.5
 30
0.0
 42
-0.4142135623730951
  0
VERTEX
  5
AD1
  8
SAPA_PROFIL
 10
106.8
 20
90.200000000000045
 30
0.0
  0
VERTEX
  5
AD2
  8
SAPA_PROFIL
 10
106.8
 20
83.399999999999977
 30
0.0
 42
-0.4142135623730951
  0
VERTEX
  5
AD3
  8
SAPA_PROFIL
 10
106.4999999999999
 20
83.099999999999909
 30
0.0
  0
VERTEX
  5
AD4
  8
SAPA_PROFIL
 10
103.09999999999989
 20
83.099999999999909
 30
0.0
 42
0.4142135623730951
  0
VERTEX
  5
AD5
  8
SAPA_PROFIL
 10
102.8
 20
82.799999999999955
 30
0.0
  0
VERTEX
  5
AD6
  8
SAPA_PROFIL
 10
102.7999999999999
 20
81.200000000000045
 30
0.0
 42
0.4142135623730951
  0
VERTEX
  5
AD7
  8
SAPA_PROFIL
 10
103.09999999999989
 20
80.899999999999977
 30
0.0
  0
VERTEX
  5
AD8
  8
SAPA_PROFIL
 10
107.7
 20
80.899999999999977
 30
0.0
 42
-0.4142135623730951
  0
VERTEX
  5
AD9
  8
SAPA_PROFIL
 10
107.9999999999999
 20
80.599999999999909
 30
0.0
  0
VERTEX
  5
ADA
  8
SAPA_PROFIL
 10
107.9999999999999
 20
46.39999999999997
 30
0.0
 42
-0.4142135623730951
  0
VERTEX
  5
ADB
  8
SAPA_PROFIL
 10
107.7
 20
46.099999999999909
 30
0.0
  0
VERTEX
  5
ADC
  8
SAPA_PROFIL
 10
103.09999999999989
 20
46.099999999999909
 30
0.0
 42
0.4142135623730951
  0
VERTEX
  5
ADD
  8
SAPA_PROFIL
 10
102.7999999999999
 20
45.799999999999947
 30
0.0
  0
VERTEX
  5
ADE
  8
SAPA_PROFIL
 10
102.8
 20
44.200000000000038
 30
0.0
 42
0.4142135623730951
  0
VERTEX
  5
ADF
  8
SAPA_PROFIL
 10
103.09999999999989
 20
43.89999999999997
 30
0.0
  0
VERTEX
  5
AE0
  8
SAPA_PROFIL
 10
106.4999999999999
 20
43.89999999999997
 30
0.0
 42
-0.4142135623730951
  0
VERTEX
  5
AE1
  8
SAPA_PROFIL
 10
106.8
 20
43.599999999999909
 30
0.0
  0
VERTEX
  5
AE2
  8
SAPA_PROFIL
 10
106.8
 20
36.799999999999962
 30
0.0
 42
-0.4142135623730951
  0
VERTEX
  5
AE3
  8
SAPA_PROFIL
 10
106.4999999999999
 20
36.5
 30
0.0
  0
VERTEX
  5
AE4
  8
SAPA_PROFIL
 10
29.49999999999994
 20
36.5
 30
0.0
  0
VERTEX
  5
AE5
  8
SAPA_PROFIL
 10
26.087867965643969
 20
39.912132034355977
 30
0.0
 42
-0.1989123673797207
  0
VERTEX
  5
AE6
  8
SAPA_PROFIL
 10
25.99999999999994
 20
40.124264068711909
 30
0.0
  0
VERTEX
  5
AE7
  8
SAPA_PROFIL
 10
25.99999999999994
 20
43.599999999999909
 30
0.0
 42
-0.4142135623730951
  0
VERTEX
  5
AE8
  8
SAPA_PROFIL
 10
26.300000000000011
 20
43.89999999999997
 30
0.0
  0
VERTEX
  5
AE9
  8
SAPA_PROFIL
 10
33.699999999999989
 20
43.89999999999997
 30
0.0
 42
0.4142135623730951
  0
VERTEX
  5
AEA
  8
SAPA_PROFIL
 10
33.99999999999995
 20
44.200000000000038
 30
0.0
  0
VERTEX
  5
AEB
  8
SAPA_PROFIL
 10
33.99999999999995
 20
45.799999999999947
 30
0.0
 42
0.4142135623730951
  0
VERTEX
  5
AEC
  8
SAPA_PROFIL
 10
33.699999999999989
 20
46.099999999999909
 30
0.0
  0
VERTEX
  5
AED
  8
SAPA_PROFIL
 10
25.300000000000011
 20
46.099999999999909
 30
0.0
 42
-0.4142135623730951
  0
VERTEX
  5
AEE
  8
SAPA_PROFIL
 10
24.99999999999995
 20
46.39999999999997
 30
0.0
  0
VERTEX
  5
AEF
  8
SAPA_PROFIL
 10
24.99999999999995
 20
59.200000000000053
 30
0.0
 42
-0.4142135623730951
  0
VERTEX
  5
AF0
  8
SAPA_PROFIL
 10
25.300000000000011
 20
59.5
 30
0.0
  0
VERTEX
  5
AF1
  8
SAPA_PROFIL
 10
29.300000000000011
 20
59.5
 30
0.0
 42
0.6681786379192989
  0
VERTEX
  5
AF2
  8
SAPA_PROFIL
 10
29.653553390593231
 20
60.353553390593333
 30
0.0
  0
VERTEX
  5
AF3
  8
SAPA_PROFIL
 10
28.507106781187019
 20
61.5
 30
0.0
  0
SEQEND
  5
AF4
  8
SAPA_PROFIL
  0
POLYLINE
  5
758
  8
SAPA_PROFIL
 66
     1
 10
0.0
 20
0.0
 30
0.0
 70
     1
  0
VERTEX
  5
AF5
  8
SAPA_PROFIL
 10
114.75735931288089
 20
33.5
 30
0.0
 42
0.1989123673796595
  0
VERTEX
  5
AF6
  8
SAPA_PROFIL
 10
116.8786796564406
 20
34.37867965644034
 30
0.0
  0
VERTEX
  5
AF7
  8
SAPA_PROFIL
 10
119.70710678118709
 20
37.207106781185992
 30
0.0
 42
0.1989123673796811
  0
VERTEX
  5
AF8
  8
SAPA_PROFIL
 10
119.9999999999999
 20
37.914213562372993
 30
0.0
  0
VERTEX
  5
AF9
  8
SAPA_PROFIL
 10
120.0000000000004
 20
40.299999999999841
 30
0.0
 42
0.2504916501726618
  0
VERTEX
  5
AFA
  8
SAPA_PROFIL
 10
118.9999999999999
 20
41.300000000000061
 30
0.0
  0
VERTEX
  5
AFB
  8
SAPA_PROFIL
 10
118.3
 20
41.300000000000182
 30
0.0
 42
0.4142135623730951
  0
VERTEX
  5
AFC
  8
SAPA_PROFIL
 10
117.9999999999999
 20
41.000000000000107
 30
0.0
  0
VERTEX
  5
AFD
  8
SAPA_PROFIL
 10
117.9999999999999
 20
40.550000000000061
 30
0.0
 42
-0.4142135623730951
  0
VERTEX
  5
AFE
  8
SAPA_PROFIL
 10
117.7
 20
40.250000000000107
 30
0.0
  0
VERTEX
  5
AFF
  8
SAPA_PROFIL
 10
117.0
 20
40.250000000000107
 30
0.0
 42
-0.4142135623731506
  0
VERTEX
  5
B00
  8
SAPA_PROFIL
 10
116.7
 20
40.550000000000061
 30
0.0
  0
VERTEX
  5
B01
  8
SAPA_PROFIL
 10
116.7
 20
41.000000000000107
 30
0.0
 42
0.4142135623731506
  0
VERTEX
  5
B02
  8
SAPA_PROFIL
 10
116.40000000000001
 20
41.300000000000061
 30
0.0
  0
VERTEX
  5
B03
  8
SAPA_PROFIL
 10
115.90000000000001
 20
41.300000000000182
 30
0.0
 42
0.4142135623730951
  0
VERTEX
  5
B04
  8
SAPA_PROFIL
 10
115.40000000000001
 20
40.800000000000182
 30
0.0
  0
VERTEX
  5
B05
  8
SAPA_PROFIL
 10
115.40000000000001
 20
39.400000000000212
 30
0.0
 42
-0.4142135623730951
  0
VERTEX
  5
B06
  8
SAPA_PROFIL
 10
114.40000000000001
 20
38.400000000000212
 30
0.0
  0
VERTEX
  5
B07
  8
SAPA_PROFIL
 10
113.9999999999999
 20
38.400000000000091
 30
0.0
 42
-0.9999999999999998
  0
VERTEX
  5
B08
  8
SAPA_PROFIL
 10
113.9999999999999
 20
45.600000000000129
 30
0.0
  0
VERTEX
  5
B09
  8
SAPA_PROFIL
 10
115.10000000000009
 20
45.600000000000357
 30
0.0
 42
-0.4142135623732059
  0
VERTEX
  5
B0A
  8
SAPA_PROFIL
 10
115.40000000000011
 20
45.300000000000182
 30
0.0
  0
VERTEX
  5
B0B
  8
SAPA_PROFIL
 10
115.39999999999991
 20
45.000000000000227
 30
0.0
 42
0.4142135623733948
  0
VERTEX
  5
B0C
  8
SAPA_PROFIL
 10
115.90000000000001
 20
44.5
 30
0.0
  0
VERTEX
  5
B0D
  8
SAPA_PROFIL
 10
116.40000000000001
 20
44.5
 30
0.0
 42
0.4142135623730397
  0
VERTEX
  5
B0E
  8
SAPA_PROFIL
 10
116.7
 20
44.799999999999947
 30
0.0
  0
VERTEX
  5
B0F
  8
SAPA_PROFIL
 10
116.7
 20
45.250000000000107
 30
0.0
 42
-0.4142135623731505
  0
VERTEX
  5
B10
  8
SAPA_PROFIL
 10
117.0
 20
45.550000000000061
 30
0.0
  0
VERTEX
  5
B11
  8
SAPA_PROFIL
 10
117.7
 20
45.550000000000182
 30
0.0
 42
-0.4142135623730951
  0
VERTEX
  5
B12
  8
SAPA_PROFIL
 10
117.9999999999999
 20
45.250000000000107
 30
0.0
  0
VERTEX
  5
B13
  8
SAPA_PROFIL
 10
117.9999999999999
 20
44.799999999999947
 30
0.0
 42
0.4142135623730951
  0
VERTEX
  5
B14
  8
SAPA_PROFIL
 10
118.3
 20
44.5
 30
0.0
  0
VERTEX
  5
B15
  8
SAPA_PROFIL
 10
119.0000000000004
 20
44.500000000000448
 30
0.0
 42
0.2504916501726643
  0
VERTEX
  5
B16
  8
SAPA_PROFIL
 10
120.0000000000004
 20
45.499999999999417
 30
0.0
  0
VERTEX
  5
B17
  8
SAPA_PROFIL
 10
119.9999999999999
 20
47.799999999999947
 30
0.0
 42
0.4142135623730951
  0
VERTEX
  5
B18
  8
SAPA_PROFIL
 10
118.9999999999999
 20
48.799999999999947
 30
0.0
  0
VERTEX
  5
B19
  8
SAPA_PROFIL
 10
111.3
 20
48.799999999999947
 30
0.0
 42
-0.4142135623730951
  0
VERTEX
  5
B1A
  8
SAPA_PROFIL
 10
110.9999999999999
 20
49.099999999999909
 30
0.0
  0
VERTEX
  5
B1B
  8
SAPA_PROFIL
 10
110.9999999999999
 20
62.633974596215012
 30
0.0
  0
VERTEX
  5
B1C
  8
SAPA_PROFIL
 10
110.4999999999999
 20
63.5
 30
0.0
  0
VERTEX
  5
B1D
  8
SAPA_PROFIL
 10
110.9999999999999
 20
64.366025403783965
 30
0.0
  0
VERTEX
  5
B1E
  8
SAPA_PROFIL
 10
110.9999999999999
 20
77.899999999999977
 30
0.0
 42
-0.4142135623730951
  0
VERTEX
  5
B1F
  8
SAPA_PROFIL
 10
111.3
 20
78.200000000000045
 30
0.0
  0
VERTEX
  5
B20
  8
SAPA_PROFIL
 10
118.9999999999999
 20
78.200000000000045
 30
0.0
 42
0.4142135623730951
  0
VERTEX
  5
B21
  8
SAPA_PROFIL
 10
119.9999999999999
 20
79.200000000000045
 30
0.0
  0
VERTEX
  5
B22
  8
SAPA_PROFIL
 10
119.9999999999999
 20
81.5
 30
0.0
 42
0.2504916501726643
  0
VERTEX
  5
B23
  8
SAPA_PROFIL
 10
119.0000000000004
 20
82.499999999999545
 30
0.0
  0
VERTEX
  5
B24
  8
SAPA_PROFIL
 10
118.3
 20
82.5
 30
0.0
 42
0.4142135623730951
  0
VERTEX
  5
B25
  8
SAPA_PROFIL
 10
117.9999999999999
 20
82.200000000000045
 30
0.0
  0
VERTEX
  5
B26
  8
SAPA_PROFIL
 10
117.9999999999999
 20
81.749999999999886
 30
0.0
 42
-0.4142135623730951
  0
VERTEX
  5
B27
  8
SAPA_PROFIL
 10
117.7
 20
81.449999999999804
 30
0.0
  0
VERTEX
  5
B28
  8
SAPA_PROFIL
 10
117.0
 20
81.449999999999946
 30
0.0
 42
-0.4142135623731506
  0
VERTEX
  5
B29
  8
SAPA_PROFIL
 10
116.7
 20
81.749999999999886
 30
0.0
  0
VERTEX
  5
B2A
  8
SAPA_PROFIL
 10
116.7
 20
82.200000000000045
 30
0.0
 42
0.4142135623730397
  0
VERTEX
  5
B2B
  8
SAPA_PROFIL
 10
116.40000000000001
 20
82.5
 30
0.0
  0
VERTEX
  5
B2C
  8
SAPA_PROFIL
 10
115.90000000000001
 20
82.5
 30
0.0
 42
0.4142135623733948
  0
VERTEX
  5
B2D
  8
SAPA_PROFIL
 10
115.39999999999991
 20
81.999999999999773
 30
0.0
  0
VERTEX
  5
B2E
  8
SAPA_PROFIL
 10
115.40000000000011
 20
81.699999999999818
 30
0.0
 42
-0.4142135623732059
  0
VERTEX
  5
B2F
  8
SAPA_PROFIL
 10
115.10000000000009
 20
81.399999999999636
 30
0.0
  0
VERTEX
  5
B30
  8
SAPA_PROFIL
 10
113.9999999999999
 20
81.399999999999864
 30
0.0
 42
-0.9999999999999998
  0
VERTEX
  5
B31
  8
SAPA_PROFIL
 10
113.9999999999999
 20
88.599999999999895
 30
0.0
  0
VERTEX
  5
B32
  8
SAPA_PROFIL
 10
114.40000000000001
 20
88.599999999999795
 30
0.0
 42
-0.4142135623730951
  0
VERTEX
  5
B33
  8
SAPA_PROFIL
 10
115.40000000000001
 20
87.599999999999795
 30
0.0
  0
VERTEX
  5
B34
  8
SAPA_PROFIL
 10
115.40000000000001
 20
86.199999999999804
 30
0.0
 42
0.4142135623730951
  0
VERTEX
  5
B35
  8
SAPA_PROFIL
 10
115.90000000000001
 20
85.699999999999818
 30
0.0
  0
VERTEX
  5
B36
  8
SAPA_PROFIL
 10
116.40000000000001
 20
85.699999999999932
 30
0.0
 42
0.4142135623731506
  0
VERTEX
  5
B37
  8
SAPA_PROFIL
 10
116.7
 20
85.999999999999886
 30
0.0
  0
VERTEX
  5
B38
  8
SAPA_PROFIL
 10
116.7
 20
86.449999999999946
 30
0.0
 42
-0.4142135623731505
  0
VERTEX
  5
B39
  8
SAPA_PROFIL
 10
117.0
 20
86.749999999999886
 30
0.0
  0
VERTEX
  5
B3A
  8
SAPA_PROFIL
 10
117.7
 20
86.749999999999886
 30
0.0
 42
-0.4142135623730951
  0
VERTEX
  5
B3B
  8
SAPA_PROFIL
 10
117.9999999999999
 20
86.449999999999946
 30
0.0
  0
VERTEX
  5
B3C
  8
SAPA_PROFIL
 10
117.9999999999999
 20
85.999999999999886
 30
0.0
 42
0.4142135623730951
  0
VERTEX
  5
B3D
  8
SAPA_PROFIL
 10
118.3
 20
85.699999999999818
 30
0.0
  0
VERTEX
  5
B3E
  8
SAPA_PROFIL
 10
118.9999999999999
 20
85.699999999999932
 30
0.0
 42
0.2504916501726621
  0
VERTEX
  5
B3F
  8
SAPA_PROFIL
 10
120.0000000000004
 20
86.700000000000145
 30
0.0
  0
VERTEX
  5
B40
  8
SAPA_PROFIL
 10
119.9999999999999
 20
89.085786437626894
 30
0.0
 42
0.1989123673796728
  0
VERTEX
  5
B41
  8
SAPA_PROFIL
 10
119.7071067811866
 20
89.792893218813447
 30
0.0
  0
VERTEX
  5
B42
  8
SAPA_PROFIL
 10
116.8786796564399
 20
92.621320343558978
 30
0.0
 42
0.1989123673796584
  0
VERTEX
  5
B43
  8
SAPA_PROFIL
 10
114.75735931288089
 20
93.499999999999986
 30
0.0
  0
VERTEX
  5
B44
  8
SAPA_PROFIL
 10
108.0053328888191
 20
93.499999999999986
 30
0.0
  0
VERTEX
  5
B45
  8
SAPA_PROFIL
 10
27.242640687119948
 20
93.499999999999986
 30
0.0
 42
0.1989123673796596
  0
VERTEX
  5
B46
  8
SAPA_PROFIL
 10
25.121320343559951
 20
92.621320343558978
 30
0.0
  0
VERTEX
  5
B47
  8
SAPA_PROFIL
 10
22.29289321881339
 20
89.79289321881356
 30
0.0
 42
0.1989123673796371
  0
VERTEX
  5
B48
  8
SAPA_PROFIL
 10
21.99999999999994
 20
89.085786437626993
 30
0.0
  0
VERTEX
  5
B49
  8
SAPA_PROFIL
 10
21.99999999999994
 20
86.0
 30
0.0
  0
VERTEX
  5
B4A
  8
SAPA_PROFIL
 10
22.99999999999994
 20
85.0
 30
0.0
  0
VERTEX
  5
B4B
  8
SAPA_PROFIL
 10
23.699999999999989
 20
85.0
 30
0.0
 42
0.4142135623730951
  0
VERTEX
  5
B4C
  8
SAPA_PROFIL
 10
23.99999999999995
 20
85.299999999999955
 30
0.0
  0
VERTEX
  5
B4D
  8
SAPA_PROFIL
 10
23.99999999999995
 20
87.049999999999955
 30
0.0
 42
-0.4142135623730951
  0
VERTEX
  5
B4E
  8
SAPA_PROFIL
 10
24.300000000000011
 20
87.349999999999895
 30
0.0
  0
VERTEX
  5
B4F
  8
SAPA_PROFIL
 10
26.74999999999994
 20
87.349999999999895
 30
0.0
 42
-0.4142135623730951
  0
VERTEX
  5
B50
  8
SAPA_PROFIL
 10
27.050000000000011
 20
87.049999999999955
 30
0.0
  0
VERTEX
  5
B51
  8
SAPA_PROFIL
 10
27.050000000000011
 20
68.950000000000045
 30
0.0
 42
-0.4142135623730951
  0
VERTEX
  5
B52
  8
SAPA_PROFIL
 10
26.74999999999994
 20
68.649999999999977
 30
0.0
  0
VERTEX
  5
B53
  8
SAPA_PROFIL
 10
24.300000000000011
 20
68.649999999999977
 30
0.0
 42
-0.4142135623730951
  0
VERTEX
  5
B54
  8
SAPA_PROFIL
 10
23.99999999999995
 20
68.950000000000045
 30
0.0
  0
VERTEX
  5
B55
  8
SAPA_PROFIL
 10
23.99999999999995
 20
70.700000000000045
 30
0.0
 42
0.4142135623730951
  0
VERTEX
  5
B56
  8
SAPA_PROFIL
 10
23.699999999999989
 20
71.0
 30
0.0
  0
VERTEX
  5
B57
  8
SAPA_PROFIL
 10
22.99999999999994
 20
71.0
 30
0.0
  0
VERTEX
  5
B58
  8
SAPA_PROFIL
 10
21.99999999999994
 20
70.0
 30
0.0
  0
VERTEX
  5
B59
  8
SAPA_PROFIL
 10
21.99999999999994
 20
64.366025403783965
 30
0.0
  0
VERTEX
  5
B5A
  8
SAPA_PROFIL
 10
22.49999999999994
 20
63.5
 30
0.0
  0
VERTEX
  5
B5B
  8
SAPA_PROFIL
 10
21.99999999999994
 20
62.633974596215012
 30
0.0
  0
VERTEX
  5
B5C
  8
SAPA_PROFIL
 10
21.99999999999994
 20
43.5
 30
0.0
 42
-0.4142135623730951
  0
VERTEX
  5
B5D
  8
SAPA_PROFIL
 10
20.99999999999994
 20
42.5
 30
0.0
  0
VERTEX
  5
B5E
  8
SAPA_PROFIL
 10
11.76491106406791
 20
42.5
 30
0.0
 42
-0.3475404855922902
  0
VERTEX
  5
B5F
  8
SAPA_PROFIL
 10
11.47300851082167
 20
42.730769230769162
 30
0.0
 42
0.347540485592353
  0
VERTEX
  5
B60
  8
SAPA_PROFIL
 10
10.49999999999994
 20
43.5
 30
0.0
  0
VERTEX
  5
B61
  8
SAPA_PROFIL
 10
9.9324555320379773
 20
43.5
 30
0.0
 42
0.2896898633048417
  0
VERTEX
  5
B62
  8
SAPA_PROFIL
 10
9.0289476291295045
 20
42.928571428564503
 30
0.0
 42
0.5507604245820768
  0
VERTEX
  5
B63
  8
SAPA_PROFIL
 10
9.2999999999960323
 20
42.500000000005002
 30
0.0
  0
VERTEX
  5
B64
  8
SAPA_PROFIL
 10
9.9500000000020332
 20
42.500000000000909
 30
0.0
 42
-0.4142135623714856
  0
VERTEX
  5
B65
  8
SAPA_PROFIL
 10
10.24999999999994
 20
42.200000000000948
 30
0.0
  0
VERTEX
  5
B66
  8
SAPA_PROFIL
 10
10.24999999999994
 20
40.799999999999947
 30
0.0
 42
-0.4142135623730951
  0
VERTEX
  5
B67
  8
SAPA_PROFIL
 10
9.9499999999999886
 20
40.499999999999993
 30
0.0
  0
VERTEX
  5
B68
  8
SAPA_PROFIL
 10
1.5500000000000109
 20
40.499999999999993
 30
0.0
 42
-0.4142135623730951
  0
VERTEX
  5
B69
  8
SAPA_PROFIL
 10
1.250000000000056
 20
40.799999999999947
 30
0.0
  0
VERTEX
  5
B6A
  8
SAPA_PROFIL
 10
1.2499999999999429
 20
42.200000000000053
 30
0.0
 42
-0.4142135623730951
  0
VERTEX
  5
B6B
  8
SAPA_PROFIL
 10
1.5500000000000109
 20
42.5
 30
0.0
  0
VERTEX
  5
B6C
  8
SAPA_PROFIL
 10
2.1999999999999882
 20
42.500000000000909
 30
0.0
  0
VERTEX
  5
B6D
  8
SAPA_PROFIL
 10
2.2000000000039668
 20
42.5
 30
0.0
 42
0.5507604245871307
  0
VERTEX
  5
B6E
  8
SAPA_PROFIL
 10
2.4710523708712908
 20
42.92857142857315
 30
0.0
 42
0.2896898633034174
  0
VERTEX
  5
B6F
  8
SAPA_PROFIL
 10
1.5675444679620221
 20
43.5
 30
0.0
  0
VERTEX
  5
B70
  8
SAPA_PROFIL
 10
0.3000000000000114
 20
43.5
 30
0.0
 42
0.4142135623730951
  0
VERTEX
  5
B71
  8
SAPA_PROFIL
 10
-0.0000000000000568
 20
43.200000000000038
 30
0.0
  0
VERTEX
  5
B72
  8
SAPA_PROFIL
 10
-0.0000000000000568
 20
39.0
 30
0.0
 42
0.4142135623730951
  0
VERTEX
  5
B73
  8
SAPA_PROFIL
 10
0.9999999999999431
 20
38.0
 30
0.0
  0
VERTEX
  5
B74
  8
SAPA_PROFIL
 10
20.257359312880961
 20
38.0
 30
0.0
 42
-0.1989123673796595
  0
VERTEX
  5
B75
  8
SAPA_PROFIL
 10
22.378679656440621
 20
37.12132034355966
 30
0.0
  0
VERTEX
  5
B76
  8
SAPA_PROFIL
 10
25.121320343559951
 20
34.378679656439999
 30
0.0
 42
0.1989123673796601
  0
VERTEX
  5
B77
  8
SAPA_PROFIL
 10
27.242640687119948
 20
33.5
 30
0.0
  0
SEQEND
  5
B78
  8
SAPA_PROFIL
  0
POLYLINE
  5
759
  8
SAPA_PROFIL
 66
     1
 10
0.0
 20
0.0
 30
0.0
 70
     1
  0
VERTEX
  5
B79
  8
SAPA_PROFIL
 10
138.00126452503559
 20
76.669039463641354
 30
0.0
 42
0.4557262555325856
  0
VERTEX
  5
B7A
  8
SAPA_PROFIL
 10
138.49639810769119
 20
76.099453432800289
 30
0.0
  0
VERTEX
  5
B7B
  8
SAPA_PROFIL
 10
140.0031420000002
 20
76.099453432800289
 30
0.0
  0
VERTEX
  5
B7C
  8
SAPA_PROFIL
 10
140.0031420000002
 20
74.599453432800289
 30
0.0
  0
VERTEX
  5
B7D
  8
SAPA_PROFIL
 10
141.0031420000002
 20
74.599453432800289
 30
0.0
  0
VERTEX
  5
B7E
  8
SAPA_PROFIL
 10
141.0031420000002
 20
64.366984836584606
 30
0.0
  0
VERTEX
  5
B7F
  8
SAPA_PROFIL
 10
141.5031420000002
 20
63.500959432800187
 30
0.0
  0
VERTEX
  5
B80
  8
SAPA_PROFIL
 10
141.0031420000002
 20
62.634934029015817
 30
0.0
  0
VERTEX
  5
B81
  8
SAPA_PROFIL
 10
141.0031420000002
 20
52.40246543280012
 30
0.0
  0
VERTEX
  5
B82
  8
SAPA_PROFIL
 10
140.0031420000002
 20
52.40246543280012
 30
0.0
  0
VERTEX
  5
B83
  8
SAPA_PROFIL
 10
140.0031420000002
 20
50.902465432800092
 30
0.0
  0
VERTEX
  5
B84
  8
SAPA_PROFIL
 10
138.0031420000002
 20
50.902465432800092
 30
0.0
  0
VERTEX
  5
B85
  8
SAPA_PROFIL
 10
136.97445957310219
 20
45.0685174869731
 30
0.0
 42
0.4142135623730531
  0
VERTEX
  5
B86
  8
SAPA_PROFIL
 10
137.38003936077479
 20
44.489289521633623
 30
0.0
  0
VERTEX
  5
B87
  8
SAPA_PROFIL
 10
137.87244323728089
 20
44.402465432800099
 30
0.0
  0
VERTEX
  5
B88
  8
SAPA_PROFIL
 10
137.99399696164761
 20
45.09183085990874
 30
0.0
 42
-0.6705660098148247
  0
VERTEX
  5
B89
  8
SAPA_PROFIL
 10
138.53631431490109
 20
45.210184993787038
 30
0.0
  0
VERTEX
  5
B8A
  8
SAPA_PROFIL
 10
140.1842531261222
 20
42.823336584976147
 30
0.0
 42
-0.4103557430781616
  0
VERTEX
  5
B8B
  8
SAPA_PROFIL
 10
140.06398327234669
 20
42.141252349810713
 30
0.0
  0
VERTEX
  5
B8C
  8
SAPA_PROFIL
 10
137.6990770970572
 20
40.461976781522388
 30
0.0
 42
-0.6705660098148535
  0
VERTEX
  5
B8D
  8
SAPA_PROFIL
 10
137.22994497991331
 20
40.758676746655041
 30
0.0
  0
VERTEX
  5
B8E
  8
SAPA_PROFIL
 10
137.35149870428009
 20
41.448042173763533
 30
0.0
  0
VERTEX
  5
B8F
  8
SAPA_PROFIL
 10
136.85909482777399
 20
41.534866262596999
 30
0.0
 42
0.4142135623731039
  0
VERTEX
  5
B90
  8
SAPA_PROFIL
 10
136.27986686243449
 20
41.129286474924349
 30
0.0
  0
VERTEX
  5
B91
  8
SAPA_PROFIL
 10
136.203042773601
 20
40.693595416614407
 30
0.0
  0
VERTEX
  5
B92
  8
SAPA_PROFIL
 10
136.2057133613167
 20
39.107111437655277
 30
0.0
 42
-0.4147066859862996
  0
VERTEX
  5
B93
  8
SAPA_PROFIL
 10
133.2057176117446
 20
36.102061432800213
 30
0.0
  0
VERTEX
  5
B94
  8
SAPA_PROFIL
 10
125.4990890000002
 20
36.102061432800213
 30
0.0
 42
0.6638253569871671
  0
VERTEX
  5
B95
  8
SAPA_PROFIL
 10
125.14111519301311
 20
35.22287523986563
 30
0.0
  0
VERTEX
  5
B96
  8
SAPA_PROFIL
 10
127.1201533906717
 20
33.243837042206913
 30
0.0
 42
0.1989123673796449
  0
VERTEX
  5
B97
  8
SAPA_PROFIL
 10
127.47370678126489
 20
33.097390432800239
 30
0.0
  0
VERTEX
  5
B98
  8
SAPA_PROFIL
 10
139.29198175566509
 20
33.097390432800239
 30
0.0
 42
0.1989123673796422
  0
VERTEX
  5
B99
  8
SAPA_PROFIL
 10
139.6455351462584
 20
33.243837042206927
 30
0.0
  0
VERTEX
  5
B9A
  8
SAPA_PROFIL
 10
145.006281927445
 20
38.604583823393511
 30
0.0
 42
-0.1989123673796659
  0
VERTEX
  5
B9B
  8
SAPA_PROFIL
 10
145.35983531803831
 20
38.751030432800242
 30
0.0
  0
VERTEX
  5
B9C
  8
SAPA_PROFIL
 10
150.00000000000011
 20
38.751030432800242
 30
0.0
  0
VERTEX
  5
B9D
  8
SAPA_PROFIL
 10
150.00000000000011
 20
42.001030432800228
 30
0.0
  0
VERTEX
  5
B9E
  8
SAPA_PROFIL
 10
151.50000000000011
 20
43.501030432800228
 30
0.0
  0
VERTEX
  5
B9F
  8
SAPA_PROFIL
 10
150.00000000000011
 20
45.001030432800228
 30
0.0
  0
VERTEX
  5
BA0
  8
SAPA_PROFIL
 10
150.00000000000011
 20
48.599999432800232
 30
0.0
 42
-0.4142140000000165
  0
VERTEX
  5
BA1
  8
SAPA_PROFIL
 10
150.50000000000011
 20
49.099999432800232
 30
0.0
  0
VERTEX
  5
BA2
  8
SAPA_PROFIL
 10
152.0031420000002
 20
49.099999432800232
 30
0.0
 42
0.4142140000000145
  0
VERTEX
  5
BA3
  8
SAPA_PROFIL
 10
153.0031420000002
 20
50.099999432800232
 30
0.0
  0
VERTEX
  5
BA4
  8
SAPA_PROFIL
 10
153.0031420000002
 20
51.09999943280026
 30
0.0
  0
VERTEX
  5
BA5
  8
SAPA_PROFIL
 10
145.7443228680776
 20
53.044994856488628
 30
0.0
 42
-0.3394542338034085
  0
VERTEX
  5
BA6
  8
SAPA_PROFIL
 10
145.0031420000002
 20
54.010920659514341
 30
0.0
  0
VERTEX
  5
BA7
  8
SAPA_PROFIL
 10
145.0031420000002
 20
72.989079340485915
 30
0.0
 42
-0.3394542744563553
  0
VERTEX
  5
BA8
  8
SAPA_PROFIL
 10
145.74432300891939
 20
73.955005181250129
 30
0.0
  0
VERTEX
  5
BA9
  8
SAPA_PROFIL
 10
153.0031420000002
 20
75.899999432800286
 30
0.0
  0
VERTEX
  5
BAA
  8
SAPA_PROFIL
 10
153.0031420000002
 20
76.899999432800286
 30
0.0
 42
0.4142139999999982
  0
VERTEX
  5
BAB
  8
SAPA_PROFIL
 10
152.0031420000002
 20
77.899999432800172
 30
0.0
  0
VERTEX
  5
BAC
  8
SAPA_PROFIL
 10
150.51273600000019
 20
77.899999432800286
 30
0.0
 42
-0.4142140000000124
  0
VERTEX
  5
BAD
  8
SAPA_PROFIL
 10
150.01273600000019
 20
78.399999432800257
 30
0.0
  0
VERTEX
  5
BAE
  8
SAPA_PROFIL
 10
150.01273600000019
 20
81.999999432800195
 30
0.0
  0
VERTEX
  5
BAF
  8
SAPA_PROFIL
 10
151.51273600000019
 20
83.499999432800195
 30
0.0
  0
VERTEX
  5
BB0
  8
SAPA_PROFIL
 10
150.01273600000019
 20
84.999999432800195
 30
0.0
  0
VERTEX
  5
BB1
  8
SAPA_PROFIL
 10
150.01273600000019
 20
88.249999432800237
 30
0.0
  0
VERTEX
  5
BB2
  8
SAPA_PROFIL
 10
142.00018194300179
 20
88.249999432800237
 30
0.0
 42
0.3780475071674513
  0
VERTEX
  5
BB3
  8
SAPA_PROFIL
 10
139.02360286440481
 20
85.624134420283582
 30
0.0
  0
VERTEX
  5
BB4
  8
SAPA_PROFIL
 10
138.66023945207851
 20
82.733252874205036
 30
0.0
 42
0.4247728136669583
  0
VERTEX
  5
BB5
  8
SAPA_PROFIL
 10
139.54698300000021
 20
81.599453432800232
 30
0.0
  0
VERTEX
  5
BB6
  8
SAPA_PROFIL
 10
139.54698300000021
 20
82.849453432800274
 30
0.0
  0
VERTEX
  5
BB7
  8
SAPA_PROFIL
 10
140.6469830000002
 20
82.849453432800274
 30
0.0
  0
VERTEX
  5
BB8
  8
SAPA_PROFIL
 10
140.6469830000002
 20
77.649453432800215
 30
0.0
  0
VERTEX
  5
BB9
  8
SAPA_PROFIL
 10
139.54698300000021
 20
77.649453432800215
 30
0.0
  0
VERTEX
  5
BBA
  8
SAPA_PROFIL
 10
139.54698300000021
 20
78.899453432800215
 30
0.0
  0
VERTEX
  5
BBB
  8
SAPA_PROFIL
 10
139.17346085664741
 20
78.899453432800215
 30
0.0
 42
0.3760477967976817
  0
VERTEX
  5
BBC
  8
SAPA_PROFIL
 10
138.18216553844081
 20
78.031110533260858
 30
0.0
  0
SEQEND
  5
BBD
  8
SAPA_PROFIL
  0
POLYLINE
  5
75A
  8
SAPA_PROFIL
 66
     1
 10
0.0
 20
0.0
 30
0.0
 70
     1
  0
VERTEX
  5
BBE
  8
SAPA_PROFIL
 10
131.99873547496469
 20
50.331374368583788
 30
0.0
 42
0.4557262555325856
  0
VERTEX
  5
BBF
  8
SAPA_PROFIL
 10
131.50360189230909
 20
50.900960399424861
 30
0.0
  0
VERTEX
  5
BC0
  8
SAPA_PROFIL
 10
129.99685800000009
 20
50.900960399424861
 30
0.0
  0
VERTEX
  5
BC1
  8
SAPA_PROFIL
 10
129.99685800000009
 20
52.400960399424861
 30
0.0
  0
VERTEX
  5
BC2
  8
SAPA_PROFIL
 10
128.99685800000009
 20
52.400960399424861
 30
0.0
  0
VERTEX
  5
BC3
  8
SAPA_PROFIL
 10
128.99685800000009
 20
62.633428995640543
 30
0.0
  0
VERTEX
  5
BC4
  8
SAPA_PROFIL
 10
128.49685800000009
 20
63.499454399424963
 30
0.0
  0
VERTEX
  5
BC5
  8
SAPA_PROFIL
 10
128.99685800000009
 20
64.365479803209325
 30
0.0
  0
VERTEX
  5
BC6
  8
SAPA_PROFIL
 10
128.99685800000009
 20
74.597948399425036
 30
0.0
  0
VERTEX
  5
BC7
  8
SAPA_PROFIL
 10
129.99685800000009
 20
74.597948399425036
 30
0.0
  0
VERTEX
  5
BC8
  8
SAPA_PROFIL
 10
129.99685800000009
 20
76.09794839942505
 30
0.0
  0
VERTEX
  5
BC9
  8
SAPA_PROFIL
 10
131.99685800000009
 20
76.097948399425036
 30
0.0
  0
VERTEX
  5
BCA
  8
SAPA_PROFIL
 10
133.02554042689809
 20
81.931896345252014
 30
0.0
 42
0.4142135623730531
  0
VERTEX
  5
BCB
  8
SAPA_PROFIL
 10
132.6199606392255
 20
82.511124310591512
 30
0.0
  0
VERTEX
  5
BCC
  8
SAPA_PROFIL
 10
132.12755676271939
 20
82.597948399425036
 30
0.0
  0
VERTEX
  5
BCD
  8
SAPA_PROFIL
 10
132.0060030383527
 20
81.908582972316395
 30
0.0
 42
-0.6705660098148247
  0
VERTEX
  5
BCE
  8
SAPA_PROFIL
 10
131.46368568509919
 20
81.790228838438097
 30
0.0
  0
VERTEX
  5
BCF
  8
SAPA_PROFIL
 10
129.81574687387811
 20
84.177077247248974
 30
0.0
 42
-0.4103557430781616
  0
VERTEX
  5
BD0
  8
SAPA_PROFIL
 10
129.93601672765359
 20
84.859161482414436
 30
0.0
  0
VERTEX
  5
BD1
  8
SAPA_PROFIL
 10
132.30092290294311
 20
86.53843705070274
 30
0.0
 42
-0.6705660098148535
  0
VERTEX
  5
BD2
  8
SAPA_PROFIL
 10
132.770055020087
 20
86.241737085570094
 30
0.0
  0
VERTEX
  5
BD3
  8
SAPA_PROFIL
 10
132.64850129572019
 20
85.552371658461595
 30
0.0
  0
VERTEX
  5
BD4
  8
SAPA_PROFIL
 10
133.1409051722263
 20
85.465547569628114
 30
0.0
 42
0.4142135623731039
  0
VERTEX
  5
BD5
  8
SAPA_PROFIL
 10
133.7201331375658
 20
85.871127357300779
 30
0.0
  0
VERTEX
  5
BD6
  8
SAPA_PROFIL
 10
133.79695722639929
 20
86.306818415610721
 30
0.0
  0
VERTEX
  5
BD7
  8
SAPA_PROFIL
 10
133.79428663868359
 20
87.893302394569844
 30
0.0
 42
-0.4147066859862996
  0
VERTEX
  5
BD8
  8
SAPA_PROFIL
 10
136.79428238825571
 20
90.898352399424937
 30
0.0
  0
VERTEX
  5
BD9
  8
SAPA_PROFIL
 10
144.50091100000009
 20
90.898352399424937
 30
0.0
 42
0.6638253569871671
  0
VERTEX
  5
BDA
  8
SAPA_PROFIL
 10
144.85888480698719
 20
91.777538592359505
 30
0.0
  0
VERTEX
  5
BDB
  8
SAPA_PROFIL
 10
142.87984660932861
 20
93.756576790018244
 30
0.0
 42
0.1989123673796449
  0
VERTEX
  5
BDC
  8
SAPA_PROFIL
 10
142.5262932187353
 20
93.903023399424896
 30
0.0
  0
VERTEX
  5
BDD
  8
SAPA_PROFIL
 10
130.70801824433519
 20
93.903023399424896
 30
0.0
 42
0.1989123673796422
  0
VERTEX
  5
BDE
  8
SAPA_PROFIL
 10
130.35446485374189
 20
93.756576790018201
 30
0.0
  0
VERTEX
  5
BDF
  8
SAPA_PROFIL
 10
124.9937180725553
 20
88.395830008831638
 30
0.0
 42
-0.1989123673796659
  0
VERTEX
  5
BE0
  8
SAPA_PROFIL
 10
124.64016468196201
 20
88.249383399424914
 30
0.0
  0
VERTEX
  5
BE1
  8
SAPA_PROFIL
 10
120.0000000000001
 20
88.249383399424914
 30
0.0
  0
VERTEX
  5
BE2
  8
SAPA_PROFIL
 10
120.0000000000001
 20
84.999383399424914
 30
0.0
  0
VERTEX
  5
BE3
  8
SAPA_PROFIL
 10
118.5000000000002
 20
83.499383399424914
 30
0.0
  0
VERTEX
  5
BE4
  8
SAPA_PROFIL
 10
120.0000000000001
 20
81.999383399424914
 30
0.0
  0
VERTEX
  5
BE5
  8
SAPA_PROFIL
 10
120.0000000000001
 20
78.400414399424918
 30
0.0
 42
-0.4142140000000165
  0
VERTEX
  5
BE6
  8
SAPA_PROFIL
 10
119.5000000000002
 20
77.900414399424903
 30
0.0
  0
VERTEX
  5
BE7
  8
SAPA_PROFIL
 10
117.9968580000001
 20
77.900414399424903
 30
0.0
 42
0.4142140000000145
  0
VERTEX
  5
BE8
  8
SAPA_PROFIL
 10
116.9968580000001
 20
76.900414399424918
 30
0.0
  0
VERTEX
  5
BE9
  8
SAPA_PROFIL
 10
116.9968580000001
 20
75.900414399424875
 30
0.0
  0
VERTEX
  5
BEA
  8
SAPA_PROFIL
 10
124.2556771319227
 20
73.955418975736521
 30
0.0
 42
-0.3394542338034085
  0
VERTEX
  5
BEB
  8
SAPA_PROFIL
 10
124.9968580000001
 20
72.989493172710795
 30
0.0
  0
VERTEX
  5
BEC
  8
SAPA_PROFIL
 10
124.9968580000001
 20
54.011334491739227
 30
0.0
 42
-0.3394542744563553
  0
VERTEX
  5
BED
  8
SAPA_PROFIL
 10
124.2556769910809
 20
53.04540865097502
 30
0.0
  0
VERTEX
  5
BEE
  8
SAPA_PROFIL
 10
116.9968580000001
 20
51.100414399424857
 30
0.0
  0
VERTEX
  5
BEF
  8
SAPA_PROFIL
 10
116.9968580000001
 20
50.100414399424871
 30
0.0
 42
0.4142139999999982
  0
VERTEX
  5
BF0
  8
SAPA_PROFIL
 10
117.9968580000001
 20
49.100414399424977
 30
0.0
  0
VERTEX
  5
BF1
  8
SAPA_PROFIL
 10
119.4872640000001
 20
49.100414399424857
 30
0.0
 42
-0.4142140000000124
  0
VERTEX
  5
BF2
  8
SAPA_PROFIL
 10
119.9872640000001
 20
48.600414399424892
 30
0.0
  0
VERTEX
  5
BF3
  8
SAPA_PROFIL
 10
119.9872640000001
 20
45.000414399424947
 30
0.0
  0
VERTEX
  5
BF4
  8
SAPA_PROFIL
 10
118.4872640000001
 20
43.500414399424947
 30
0.0
  0
VERTEX
  5
BF5
  8
SAPA_PROFIL
 10
119.9872640000001
 20
42.000414399424947
 30
0.0
  0
VERTEX
  5
BF6
  8
SAPA_PROFIL
 10
119.9872640000001
 20
38.750414399424898
 30
0.0
  0
VERTEX
  5
BF7
  8
SAPA_PROFIL
 10
127.99981805699851
 20
38.750414399424898
 30
0.0
 42
0.3780475071674513
  0
VERTEX
  5
BF8
  8
SAPA_PROFIL
 10
130.97639713559539
 20
41.37627941194156
 30
0.0
  0
VERTEX
  5
BF9
  8
SAPA_PROFIL
 10
131.3397605479218
 20
44.267160958020092
 30
0.0
 42
0.4247728136669583
  0
VERTEX
  5
BFA
  8
SAPA_PROFIL
 10
130.4530170000001
 20
45.400960399424918
 30
0.0
  0
VERTEX
  5
BFB
  8
SAPA_PROFIL
 10
130.4530170000001
 20
44.150960399424847
 30
0.0
  0
VERTEX
  5
BFC
  8
SAPA_PROFIL
 10
129.35301700000011
 20
44.150960399424847
 30
0.0
  0
VERTEX
  5
BFD
  8
SAPA_PROFIL
 10
129.35301700000011
 20
49.350960399424928
 30
0.0
  0
VERTEX
  5
BFE
  8
SAPA_PROFIL
 10
130.4530170000001
 20
49.350960399424928
 30
0.0
  0
VERTEX
  5
BFF
  8
SAPA_PROFIL
 10
130.4530170000001
 20
48.100960399424928
 30
0.0
  0
VERTEX
  5
C00
  8
SAPA_PROFIL
 10
130.8265391433529
 20
48.100960399424928
 30
0.0
 42
0.3760477967976817
  0
VERTEX
  5
C01
  8
SAPA_PROFIL
 10
131.8178344615595
 20
48.969303298964292
 30
0.0
  0
SEQEND
  5
C02
  8
SAPA_PROFIL
  0
POLYLINE
  5
75B
  8
SAPA_PROFIL
 66
     1
 10
0.0
 20
0.0
 30
0.0
  0
VERTEX
  5
C03
  8
SAPA_PROFIL
 10
250.8787369215502
 20
72.678444819366604
 30
0.0
  0
VERTEX
  5
C04
  8
SAPA_PROFIL
 10
268.00000000000051
 20
71.997404885508303
 30
0.0
 42
0.4142135623730951
  0
VERTEX
  5
C05
  8
SAPA_PROFIL
 10
268.50000000000051
 20
72.497404885508303
 30
0.0
  0
VERTEX
  5
C06
  8
SAPA_PROFIL
 10
268.5000000000004
 20
84.297018368517044
 30
0.0
 42
0.4076767287637263
  0
VERTEX
  5
C07
  8
SAPA_PROFIL
 10
265.56710364918348
 20
87.29626820090661
 30
0.0
  0
VERTEX
  5
C08
  8
SAPA_PROFIL
 10
250.8787369215502
 20
87.450707423017334
 30
0.0
 42
0.4182129759575463
  0
VERTEX
  5
C09
  8
SAPA_PROFIL
 10
250.3675758094947
 20
86.955195702160196
 30
0.0
  0
VERTEX
  5
C0A
  8
SAPA_PROFIL
 10
250.35474820796901
 20
84.480547946040843
 30
0.0
  0
VERTEX
  5
C0B
  8
SAPA_PROFIL
 10
248.70005961034519
 20
82.854489989847281
 30
0.0
  0
VERTEX
  5
C0C
  8
SAPA_PROFIL
 10
244.150983576057
 20
82.854489989847281
 30
0.0
 42
-0.4293387945586749
  0
VERTEX
  5
C0D
  8
SAPA_PROFIL
 10
243.85425705497241
 20
83.172601125836621
 30
0.0
  0
VERTEX
  5
C0E
  8
SAPA_PROFIL
 10
243.92689673110019
 20
84.254056851107094
 30
0.0
 42
-0.4883397947196161
  0
VERTEX
  5
C0F
  8
SAPA_PROFIL
 10
245.48861855710851
 20
84.033433916908876
 30
0.0
  0
VERTEX
  5
C10
  8
SAPA_PROFIL
 10
248.18769983314289
 20
84.033433916908876
 30
0.0
  0
VERTEX
  5
C11
  8
SAPA_PROFIL
 10
249.159131479519
 20
84.988057137106708
 30
0.0
  0
VERTEX
  5
C12
  8
SAPA_PROFIL
 10
249.159131479519
 20
87.487183279991797
 30
0.0
  0
VERTEX
  5
C13
  8
SAPA_PROFIL
 10
248.68535581300421
 20
87.487183279991797
 30
0.0
  0
VERTEX
  5
C14
  8
SAPA_PROFIL
 10
248.68535581300421
 20
89.000000000000028
 30
0.0
  0
VERTEX
  5
C15
  8
SAPA_PROFIL
 10
269.70264070669259
 20
89.000000000000185
 30
0.0
 42
-0.4116378201539302
  0
VERTEX
  5
C16
  8
SAPA_PROFIL
 10
270.00000000000051
 20
88.700011522329845
 30
0.0
  0
VERTEX
  5
C17
  8
SAPA_PROFIL
 10
270.00000000000051
 20
60.297404885508321
 30
0.0
 42
-0.414213562373095
  0
VERTEX
  5
C18
  8
SAPA_PROFIL
 10
269.7000000000005
 20
59.997404885508239
 30
0.0
  0
VERTEX
  5
C19
  8
SAPA_PROFIL
 10
268.49000000000052
 20
59.997404885508303
 30
0.0
 42
-0.4142135623731037
  0
VERTEX
  5
C1A
  8
SAPA_PROFIL
 10
267.50000000000051
 20
60.987404885508248
 30
0.0
  0
VERTEX
  5
C1B
  8
SAPA_PROFIL
 10
267.50000000000051
 20
60.997404885508303
 30
0.0
  0
VERTEX
  5
C1C
  8
SAPA_PROFIL
 10
268.75000000000051
 20
60.997404885508303
 30
0.0
  0
VERTEX
  5
C1D
  8
SAPA_PROFIL
 10
268.75000000000051
 20
62.497404885508303
 30
0.0
 42
0.4142135623730951
  0
VERTEX
  5
C1E
  8
SAPA_PROFIL
 10
268.25000000000051
 20
62.997404885508303
 30
0.0
  0
VERTEX
  5
C1F
  8
SAPA_PROFIL
 10
260.25000000000051
 20
62.997404885508303
 30
0.0
 42
0.4142135623730951
  0
VERTEX
  5
C20
  8
SAPA_PROFIL
 10
259.75000000000051
 20
62.497404885508303
 30
0.0
  0
VERTEX
  5
C21
  8
SAPA_PROFIL
 10
259.75000000000051
 20
60.997404885508303
 30
0.0
  0
VERTEX
  5
C22
  8
SAPA_PROFIL
 10
261.00000000000051
 20
60.997404885508303
 30
0.0
  0
VERTEX
  5
C23
  8
SAPA_PROFIL
 10
261.00000000000051
 20
60.987404885508248
 30
0.0
 42
-0.414213562373095
  0
VERTEX
  5
C24
  8
SAPA_PROFIL
 10
260.0100000000005
 20
59.997404885508239
 30
0.0
  0
VERTEX
  5
C25
  8
SAPA_PROFIL
 10
259.50000000000051
 20
59.997404885508303
 30
0.0
 42
-0.4142135623730953
  0
VERTEX
  5
C26
  8
SAPA_PROFIL
 10
258.50000000000051
 20
60.997404885508303
 30
0.0
  0
VERTEX
  5
C27
  8
SAPA_PROFIL
 10
258.50000000000051
 20
62.497404885508303
 30
0.0
 42
-0.4142135623730951
  0
VERTEX
  5
C28
  8
SAPA_PROFIL
 10
260.2000000000005
 20
64.197404885508291
 30
0.0
  0
VERTEX
  5
C29
  8
SAPA_PROFIL
 10
268.00000000000051
 20
64.197404885508348
 30
0.0
 42
0.414213562373095
  0
VERTEX
  5
C2A
  8
SAPA_PROFIL
 10
268.50000000000051
 20
64.697404885508348
 30
0.0
  0
VERTEX
  5
C2B
  8
SAPA_PROFIL
 10
268.50000000000051
 20
70.197404885508334
 30
0.0
 42
0.4142135623730951
  0
VERTEX
  5
C2C
  8
SAPA_PROFIL
 10
268.00000000000051
 20
70.697404885508334
 30
0.0
  0
VERTEX
  5
C2D
  8
SAPA_PROFIL
 10
250.8787369215502
 20
71.368614531974643
 30
0.0
  0
VERTEX
  5
C2E
  8
SAPA_PROFIL
 10
245.4757901578005
 20
72.025552982703999
 30
0.0
 42
0.4666505291506209
  0
VERTEX
  5
C2F
  8
SAPA_PROFIL
 10
245.1959885918817
 20
71.76372145165945
 30
0.0
  0
VERTEX
  5
C30
  8
SAPA_PROFIL
 10
245.23553148580001
 20
71.041065358100496
 30
0.0
 42
-0.7332303362618522
  0
VERTEX
  5
C31
  8
SAPA_PROFIL
 10
244.6994554631477
 20
70.840890769530318
 30
0.0
  0
VERTEX
  5
C32
  8
SAPA_PROFIL
 10
243.9285453456433
 20
72.950998109068024
 30
0.0
 42
-0.668178637919333
  0
VERTEX
  5
C33
  8
SAPA_PROFIL
 10
244.20171154083761
 20
73.433345961158835
 30
0.0
  0
VERTEX
  5
C34
  8
SAPA_PROFIL
 10
250.8787369215502
 20
72.678444819366604
 30
0.0
  0
VERTEX
  5
C35
  8
SAPA_PROFIL
 10
250.8787369215502
 20
72.687978271529715
 30
0.0
  0
SEQEND
  5
C36
  8
SAPA_PROFIL
  0
LINE
  5
75C
  8
SAPA_PROFIL
 10
260.7000000000042
 20
42.500000000005002
 30
0.0
 11
260.7000000000042
 21
42.500000000005002
 31
0.0
  0
POLYLINE
  5
75D
  8
SAPA_PROFIL
 66
     1
 10
0.0
 20
0.0
 30
0.0
 70
     1
  0
VERTEX
  5
C37
  8
SAPA_PROFIL
 10
244.7000000000003
 20
61.5
 30
0.0
 42
0.4142135623730951
  0
VERTEX
  5
C38
  8
SAPA_PROFIL
 10
245.0000000000004
 20
61.799999999999962
 30
0.0
  0
VERTEX
  5
C39
  8
SAPA_PROFIL
 10
245.0000000000004
 20
62.633974596215012
 30
0.0
  0
VERTEX
  5
C3A
  8
SAPA_PROFIL
 10
245.5000000000004
 20
63.5
 30
0.0
  0
VERTEX
  5
C3B
  8
SAPA_PROFIL
 10
245.0000000000004
 20
64.366025403783965
 30
0.0
  0
VERTEX
  5
C3C
  8
SAPA_PROFIL
 10
245.0000000000004
 20
65.200000000000045
 30
0.0
 42
0.4142135623730951
  0
VERTEX
  5
C3D
  8
SAPA_PROFIL
 10
244.7000000000003
 20
65.5
 30
0.0
  0
VERTEX
  5
C3E
  8
SAPA_PROFIL
 10
241.0000000000004
 20
65.5
 30
0.0
  0
VERTEX
  5
C3F
  8
SAPA_PROFIL
 10
240.0000000000004
 20
66.5
 30
0.0
  0
VERTEX
  5
C40
  8
SAPA_PROFIL
 10
240.0000000000004
 20
80.599999999999909
 30
0.0
 42
0.4142135623730951
  0
VERTEX
  5
C41
  8
SAPA_PROFIL
 10
239.7000000000003
 20
80.899999999999977
 30
0.0
  0
VERTEX
  5
C42
  8
SAPA_PROFIL
 10
236.3000000000003
 20
80.899999999999977
 30
0.0
 42
-0.4142135623730951
  0
VERTEX
  5
C43
  8
SAPA_PROFIL
 10
236.0000000000004
 20
81.200000000000045
 30
0.0
  0
VERTEX
  5
C44
  8
SAPA_PROFIL
 10
236.0000000000004
 20
82.799999999999955
 30
0.0
 42
-0.4142135623730951
  0
VERTEX
  5
C45
  8
SAPA_PROFIL
 10
236.3000000000003
 20
83.099999999999909
 30
0.0
  0
VERTEX
  5
C46
  8
SAPA_PROFIL
 10
239.7000000000003
 20
83.099999999999909
 30
0.0
 42
0.4142135623730951
  0
VERTEX
  5
C47
  8
SAPA_PROFIL
 10
240.0000000000004
 20
83.399999999999977
 30
0.0
  0
VERTEX
  5
C48
  8
SAPA_PROFIL
 10
240.0000000000004
 20
90.200000000000045
 30
0.0
 42
0.4142135623730951
  0
VERTEX
  5
C49
  8
SAPA_PROFIL
 10
239.7000000000003
 20
90.5
 30
0.0
  0
VERTEX
  5
C4A
  8
SAPA_PROFIL
 10
163.5000000000004
 20
90.5
 30
0.0
 42
0.4142135623730951
  0
VERTEX
  5
C4B
  8
SAPA_PROFIL
 10
163.2000000000003
 20
90.200000000000045
 30
0.0
  0
VERTEX
  5
C4C
  8
SAPA_PROFIL
 10
163.2000000000003
 20
83.399999999999977
 30
0.0
 42
0.4142135623730951
  0
VERTEX
  5
C4D
  8
SAPA_PROFIL
 10
163.5000000000004
 20
83.099999999999909
 30
0.0
  0
VERTEX
  5
C4E
  8
SAPA_PROFIL
 10
166.90000000000029
 20
83.099999999999909
 30
0.0
 42
-0.4142135623730951
  0
VERTEX
  5
C4F
  8
SAPA_PROFIL
 10
167.2000000000003
 20
82.799999999999955
 30
0.0
  0
VERTEX
  5
C50
  8
SAPA_PROFIL
 10
167.20000000000039
 20
81.200000000000045
 30
0.0
 42
-0.4142135623730951
  0
VERTEX
  5
C51
  8
SAPA_PROFIL
 10
166.90000000000029
 20
80.899999999999977
 30
0.0
  0
VERTEX
  5
C52
  8
SAPA_PROFIL
 10
162.3000000000003
 20
80.899999999999977
 30
0.0
 42
0.4142135623730951
  0
VERTEX
  5
C53
  8
SAPA_PROFIL
 10
162.00000000000031
 20
80.599999999999909
 30
0.0
  0
VERTEX
  5
C54
  8
SAPA_PROFIL
 10
162.00000000000031
 20
46.39999999999997
 30
0.0
 42
0.4142135623730951
  0
VERTEX
  5
C55
  8
SAPA_PROFIL
 10
162.3000000000003
 20
46.099999999999909
 30
0.0
  0
VERTEX
  5
C56
  8
SAPA_PROFIL
 10
166.90000000000029
 20
46.099999999999909
 30
0.0
 42
-0.4142135623730951
  0
VERTEX
  5
C57
  8
SAPA_PROFIL
 10
167.20000000000039
 20
45.799999999999947
 30
0.0
  0
VERTEX
  5
C58
  8
SAPA_PROFIL
 10
167.2000000000003
 20
44.200000000000038
 30
0.0
 42
-0.4142135623730951
  0
VERTEX
  5
C59
  8
SAPA_PROFIL
 10
166.90000000000029
 20
43.89999999999997
 30
0.0
  0
VERTEX
  5
C5A
  8
SAPA_PROFIL
 10
163.5000000000004
 20
43.89999999999997
 30
0.0
 42
0.4142135623730951
  0
VERTEX
  5
C5B
  8
SAPA_PROFIL
 10
163.2000000000003
 20
43.599999999999909
 30
0.0
  0
VERTEX
  5
C5C
  8
SAPA_PROFIL
 10
163.2000000000003
 20
36.799999999999962
 30
0.0
 42
0.4142135623730951
  0
VERTEX
  5
C5D
  8
SAPA_PROFIL
 10
163.5000000000004
 20
36.5
 30
0.0
  0
VERTEX
  5
C5E
  8
SAPA_PROFIL
 10
240.5000000000004
 20
36.5
 30
0.0
  0
VERTEX
  5
C5F
  8
SAPA_PROFIL
 10
243.91213203435629
 20
39.912132034355977
 30
0.0
 42
0.1989123673797207
  0
VERTEX
  5
C60
  8
SAPA_PROFIL
 10
244.0000000000004
 20
40.124264068711909
 30
0.0
  0
VERTEX
  5
C61
  8
SAPA_PROFIL
 10
244.0000000000004
 20
43.599999999999909
 30
0.0
 42
0.4142135623730951
  0
VERTEX
  5
C62
  8
SAPA_PROFIL
 10
243.7000000000003
 20
43.89999999999997
 30
0.0
  0
VERTEX
  5
C63
  8
SAPA_PROFIL
 10
236.3000000000003
 20
43.89999999999997
 30
0.0
 42
-0.4142135623730951
  0
VERTEX
  5
C64
  8
SAPA_PROFIL
 10
236.0000000000004
 20
44.200000000000038
 30
0.0
  0
VERTEX
  5
C65
  8
SAPA_PROFIL
 10
236.0000000000004
 20
45.799999999999947
 30
0.0
 42
-0.4142135623730951
  0
VERTEX
  5
C66
  8
SAPA_PROFIL
 10
236.3000000000003
 20
46.099999999999909
 30
0.0
  0
VERTEX
  5
C67
  8
SAPA_PROFIL
 10
244.7000000000003
 20
46.099999999999909
 30
0.0
 42
0.4142135623730951
  0
VERTEX
  5
C68
  8
SAPA_PROFIL
 10
245.0000000000004
 20
46.39999999999997
 30
0.0
  0
VERTEX
  5
C69
  8
SAPA_PROFIL
 10
245.0000000000004
 20
59.200000000000053
 30
0.0
 42
0.4142135623730951
  0
VERTEX
  5
C6A
  8
SAPA_PROFIL
 10
244.7000000000003
 20
59.5
 30
0.0
  0
VERTEX
  5
C6B
  8
SAPA_PROFIL
 10
240.7000000000003
 20
59.5
 30
0.0
 42
-0.6681786379192989
  0
VERTEX
  5
C6C
  8
SAPA_PROFIL
 10
240.34644660940711
 20
60.353553390593333
 30
0.0
  0
VERTEX
  5
C6D
  8
SAPA_PROFIL
 10
241.49289321881329
 20
61.5
 30
0.0
  0
SEQEND
  5
C6E
  8
SAPA_PROFIL
  0
POLYLINE
  5
75E
  8
SAPA_PROFIL
 66
     1
 10
0.0
 20
0.0
 30
0.0
 70
     1
  0
VERTEX
  5
C6F
  8
SAPA_PROFIL
 10
155.24264068711929
 20
33.5
 30
0.0
 42
-0.1989123673796595
  0
VERTEX
  5
C70
  8
SAPA_PROFIL
 10
153.12132034355969
 20
34.37867965644034
 30
0.0
  0
VERTEX
  5
C71
  8
SAPA_PROFIL
 10
150.29289321881319
 20
37.207106781185992
 30
0.0
 42
-0.1989123673796811
  0
VERTEX
  5
C72
  8
SAPA_PROFIL
 10
150.00000000000031
 20
37.914213562372993
 30
0.0
  0
VERTEX
  5
C73
  8
SAPA_PROFIL
 10
149.99999999999989
 20
40.299999999999841
 30
0.0
 42
-0.2504916501726618
  0
VERTEX
  5
C74
  8
SAPA_PROFIL
 10
151.0000000000004
 20
41.300000000000061
 30
0.0
  0
VERTEX
  5
C75
  8
SAPA_PROFIL
 10
151.7000000000003
 20
41.300000000000182
 30
0.0
 42
-0.4142135623730951
  0
VERTEX
  5
C76
  8
SAPA_PROFIL
 10
152.0000000000004
 20
41.000000000000107
 30
0.0
  0
VERTEX
  5
C77
  8
SAPA_PROFIL
 10
152.0000000000004
 20
40.550000000000061
 30
0.0
 42
0.4142135623730951
  0
VERTEX
  5
C78
  8
SAPA_PROFIL
 10
152.3000000000003
 20
40.250000000000107
 30
0.0
  0
VERTEX
  5
C79
  8
SAPA_PROFIL
 10
153.0000000000002
 20
40.250000000000107
 30
0.0
 42
0.4142135623731506
  0
VERTEX
  5
C7A
  8
SAPA_PROFIL
 10
153.3000000000003
 20
40.550000000000061
 30
0.0
  0
VERTEX
  5
C7B
  8
SAPA_PROFIL
 10
153.3000000000003
 20
41.000000000000107
 30
0.0
 42
-0.4142135623731506
  0
VERTEX
  5
C7C
  8
SAPA_PROFIL
 10
153.60000000000031
 20
41.300000000000061
 30
0.0
  0
VERTEX
  5
C7D
  8
SAPA_PROFIL
 10
154.10000000000031
 20
41.300000000000182
 30
0.0
 42
-0.4142135623730951
  0
VERTEX
  5
C7E
  8
SAPA_PROFIL
 10
154.60000000000031
 20
40.800000000000182
 30
0.0
  0
VERTEX
  5
C7F
  8
SAPA_PROFIL
 10
154.60000000000031
 20
39.400000000000212
 30
0.0
 42
0.4142135623730951
  0
VERTEX
  5
C80
  8
SAPA_PROFIL
 10
155.60000000000019
 20
38.400000000000212
 30
0.0
  0
VERTEX
  5
C81
  8
SAPA_PROFIL
 10
156.0000000000004
 20
38.400000000000091
 30
0.0
 42
0.9999999999999998
  0
VERTEX
  5
C82
  8
SAPA_PROFIL
 10
156.0000000000004
 20
45.600000000000129
 30
0.0
  0
VERTEX
  5
C83
  8
SAPA_PROFIL
 10
154.9000000000002
 20
45.600000000000357
 30
0.0
 42
0.4142135623732059
  0
VERTEX
  5
C84
  8
SAPA_PROFIL
 10
154.60000000000011
 20
45.300000000000182
 30
0.0
  0
VERTEX
  5
C85
  8
SAPA_PROFIL
 10
154.60000000000039
 20
45.000000000000227
 30
0.0
 42
-0.4142135623733948
  0
VERTEX
  5
C86
  8
SAPA_PROFIL
 10
154.10000000000031
 20
44.5
 30
0.0
  0
VERTEX
  5
C87
  8
SAPA_PROFIL
 10
153.60000000000031
 20
44.5
 30
0.0
 42
-0.4142135623730397
  0
VERTEX
  5
C88
  8
SAPA_PROFIL
 10
153.3000000000003
 20
44.799999999999947
 30
0.0
  0
VERTEX
  5
C89
  8
SAPA_PROFIL
 10
153.3000000000003
 20
45.250000000000107
 30
0.0
 42
0.4142135623731505
  0
VERTEX
  5
C8A
  8
SAPA_PROFIL
 10
153.0000000000002
 20
45.550000000000061
 30
0.0
  0
VERTEX
  5
C8B
  8
SAPA_PROFIL
 10
152.3000000000003
 20
45.550000000000182
 30
0.0
 42
0.4142135623730951
  0
VERTEX
  5
C8C
  8
SAPA_PROFIL
 10
152.0000000000004
 20
45.250000000000107
 30
0.0
  0
VERTEX
  5
C8D
  8
SAPA_PROFIL
 10
152.0000000000004
 20
44.799999999999947
 30
0.0
 42
-0.4142135623730951
  0
VERTEX
  5
C8E
  8
SAPA_PROFIL
 10
151.7000000000003
 20
44.5
 30
0.0
  0
VERTEX
  5
C8F
  8
SAPA_PROFIL
 10
150.99999999999989
 20
44.500000000000448
 30
0.0
 42
-0.2504916501726643
  0
VERTEX
  5
C90
  8
SAPA_PROFIL
 10
149.99999999999989
 20
45.499999999999417
 30
0.0
  0
VERTEX
  5
C91
  8
SAPA_PROFIL
 10
150.00000000000031
 20
47.799999999999947
 30
0.0
 42
-0.4142135623730951
  0
VERTEX
  5
C92
  8
SAPA_PROFIL
 10
151.0000000000004
 20
48.799999999999947
 30
0.0
  0
VERTEX
  5
C93
  8
SAPA_PROFIL
 10
158.7000000000003
 20
48.799999999999947
 30
0.0
 42
0.4142135623730951
  0
VERTEX
  5
C94
  8
SAPA_PROFIL
 10
159.00000000000031
 20
49.099999999999909
 30
0.0
  0
VERTEX
  5
C95
  8
SAPA_PROFIL
 10
159.00000000000031
 20
62.633974596215012
 30
0.0
  0
VERTEX
  5
C96
  8
SAPA_PROFIL
 10
159.5000000000004
 20
63.5
 30
0.0
  0
VERTEX
  5
C97
  8
SAPA_PROFIL
 10
159.00000000000031
 20
64.366025403783965
 30
0.0
  0
VERTEX
  5
C98
  8
SAPA_PROFIL
 10
159.00000000000031
 20
77.899999999999977
 30
0.0
 42
0.4142135623730951
  0
VERTEX
  5
C99
  8
SAPA_PROFIL
 10
158.7000000000003
 20
78.200000000000045
 30
0.0
  0
VERTEX
  5
C9A
  8
SAPA_PROFIL
 10
151.0000000000004
 20
78.200000000000045
 30
0.0
 42
-0.4142135623730951
  0
VERTEX
  5
C9B
  8
SAPA_PROFIL
 10
150.00000000000031
 20
79.200000000000045
 30
0.0
  0
VERTEX
  5
C9C
  8
SAPA_PROFIL
 10
150.00000000000031
 20
81.5
 30
0.0
 42
-0.2504916501726643
  0
VERTEX
  5
C9D
  8
SAPA_PROFIL
 10
150.99999999999989
 20
82.499999999999545
 30
0.0
  0
VERTEX
  5
C9E
  8
SAPA_PROFIL
 10
151.7000000000003
 20
82.5
 30
0.0
 42
-0.4142135623730951
  0
VERTEX
  5
C9F
  8
SAPA_PROFIL
 10
152.0000000000004
 20
82.200000000000045
 30
0.0
  0
VERTEX
  5
CA0
  8
SAPA_PROFIL
 10
152.0000000000004
 20
81.749999999999886
 30
0.0
 42
0.4142135623730951
  0
VERTEX
  5
CA1
  8
SAPA_PROFIL
 10
152.3000000000003
 20
81.449999999999804
 30
0.0
  0
VERTEX
  5
CA2
  8
SAPA_PROFIL
 10
153.0000000000002
 20
81.449999999999946
 30
0.0
 42
0.4142135623731506
  0
VERTEX
  5
CA3
  8
SAPA_PROFIL
 10
153.3000000000003
 20
81.749999999999886
 30
0.0
  0
VERTEX
  5
CA4
  8
SAPA_PROFIL
 10
153.3000000000003
 20
82.200000000000045
 30
0.0
 42
-0.4142135623730397
  0
VERTEX
  5
CA5
  8
SAPA_PROFIL
 10
153.60000000000031
 20
82.5
 30
0.0
  0
VERTEX
  5
CA6
  8
SAPA_PROFIL
 10
154.10000000000031
 20
82.5
 30
0.0
 42
-0.4142135623733948
  0
VERTEX
  5
CA7
  8
SAPA_PROFIL
 10
154.60000000000039
 20
81.999999999999773
 30
0.0
  0
VERTEX
  5
CA8
  8
SAPA_PROFIL
 10
154.60000000000011
 20
81.699999999999818
 30
0.0
 42
0.4142135623732059
  0
VERTEX
  5
CA9
  8
SAPA_PROFIL
 10
154.9000000000002
 20
81.399999999999636
 30
0.0
  0
VERTEX
  5
CAA
  8
SAPA_PROFIL
 10
156.0000000000004
 20
81.399999999999864
 30
0.0
 42
0.9999999999999998
  0
VERTEX
  5
CAB
  8
SAPA_PROFIL
 10
156.0000000000004
 20
88.599999999999895
 30
0.0
  0
VERTEX
  5
CAC
  8
SAPA_PROFIL
 10
155.60000000000019
 20
88.599999999999795
 30
0.0
 42
0.4142135623730951
  0
VERTEX
  5
CAD
  8
SAPA_PROFIL
 10
154.60000000000031
 20
87.599999999999795
 30
0.0
  0
VERTEX
  5
CAE
  8
SAPA_PROFIL
 10
154.60000000000031
 20
86.199999999999804
 30
0.0
 42
-0.4142135623730951
  0
VERTEX
  5
CAF
  8
SAPA_PROFIL
 10
154.10000000000031
 20
85.699999999999818
 30
0.0
  0
VERTEX
  5
CB0
  8
SAPA_PROFIL
 10
153.60000000000031
 20
85.699999999999932
 30
0.0
 42
-0.4142135623731506
  0
VERTEX
  5
CB1
  8
SAPA_PROFIL
 10
153.3000000000003
 20
85.999999999999886
 30
0.0
  0
VERTEX
  5
CB2
  8
SAPA_PROFIL
 10
153.3000000000003
 20
86.449999999999946
 30
0.0
 42
0.4142135623731505
  0
VERTEX
  5
CB3
  8
SAPA_PROFIL
 10
153.0000000000002
 20
86.749999999999886
 30
0.0
  0
VERTEX
  5
CB4
  8
SAPA_PROFIL
 10
152.3000000000003
 20
86.749999999999886
 30
0.0
 42
0.4142135623730951
  0
VERTEX
  5
CB5
  8
SAPA_PROFIL
 10
152.0000000000004
 20
86.449999999999946
 30
0.0
  0
VERTEX
  5
CB6
  8
SAPA_PROFIL
 10
152.0000000000004
 20
85.999999999999886
 30
0.0
 42
-0.4142135623730951
  0
VERTEX
  5
CB7
  8
SAPA_PROFIL
 10
151.7000000000003
 20
85.699999999999818
 30
0.0
  0
VERTEX
  5
CB8
  8
SAPA_PROFIL
 10
151.0000000000004
 20
85.699999999999932
 30
0.0
 42
-0.2504916501726621
  0
VERTEX
  5
CB9
  8
SAPA_PROFIL
 10
149.99999999999989
 20
86.700000000000145
 30
0.0
  0
VERTEX
  5
CBA
  8
SAPA_PROFIL
 10
150.00000000000031
 20
89.085786437626894
 30
0.0
 42
-0.1989123673796728
  0
VERTEX
  5
CBB
  8
SAPA_PROFIL
 10
150.2928932188137
 20
89.792893218813447
 30
0.0
  0
VERTEX
  5
CBC
  8
SAPA_PROFIL
 10
153.12132034356031
 20
92.621320343558978
 30
0.0
 42
-0.1989123673796584
  0
VERTEX
  5
CBD
  8
SAPA_PROFIL
 10
155.24264068711929
 20
93.499999999999986
 30
0.0
  0
VERTEX
  5
CBE
  8
SAPA_PROFIL
 10
161.99466711118109
 20
93.499999999999986
 30
0.0
  0
VERTEX
  5
CBF
  8
SAPA_PROFIL
 10
242.7573593128804
 20
93.499999999999986
 30
0.0
 42
-0.1989123673796596
  0
VERTEX
  5
CC0
  8
SAPA_PROFIL
 10
244.8786796564404
 20
92.621320343558978
 30
0.0
  0
VERTEX
  5
CC1
  8
SAPA_PROFIL
 10
247.70710678118689
 20
89.79289321881356
 30
0.0
 42
-0.1989123673796371
  0
VERTEX
  5
CC2
  8
SAPA_PROFIL
 10
248.00000000000031
 20
89.085786437626993
 30
0.0
  0
VERTEX
  5
CC3
  8
SAPA_PROFIL
 10
248.00000000000031
 20
86.0
 30
0.0
  0
VERTEX
  5
CC4
  8
SAPA_PROFIL
 10
247.0000000000004
 20
85.0
 30
0.0
  0
VERTEX
  5
CC5
  8
SAPA_PROFIL
 10
246.3000000000003
 20
85.0
 30
0.0
 42
-0.4142135623730951
  0
VERTEX
  5
CC6
  8
SAPA_PROFIL
 10
246.0000000000004
 20
85.299999999999955
 30
0.0
  0
VERTEX
  5
CC7
  8
SAPA_PROFIL
 10
246.0000000000004
 20
87.049999999999955
 30
0.0
 42
0.4142135623730951
  0
VERTEX
  5
CC8
  8
SAPA_PROFIL
 10
245.7000000000003
 20
87.349999999999895
 30
0.0
  0
VERTEX
  5
CC9
  8
SAPA_PROFIL
 10
243.2500000000004
 20
87.349999999999895
 30
0.0
 42
0.4142135623730951
  0
VERTEX
  5
CCA
  8
SAPA_PROFIL
 10
242.9500000000003
 20
87.049999999999955
 30
0.0
  0
VERTEX
  5
CCB
  8
SAPA_PROFIL
 10
242.9500000000003
 20
68.950000000000045
 30
0.0
 42
0.4142135623730951
  0
VERTEX
  5
CCC
  8
SAPA_PROFIL
 10
243.2500000000004
 20
68.649999999999977
 30
0.0
  0
VERTEX
  5
CCD
  8
SAPA_PROFIL
 10
245.7000000000003
 20
68.649999999999977
 30
0.0
 42
0.4142135623730951
  0
VERTEX
  5
CCE
  8
SAPA_PROFIL
 10
246.0000000000004
 20
68.950000000000045
 30
0.0
  0
VERTEX
  5
CCF
  8
SAPA_PROFIL
 10
246.0000000000004
 20
70.700000000000045
 30
0.0
 42
-0.4142135623730951
  0
VERTEX
  5
CD0
  8
SAPA_PROFIL
 10
246.3000000000003
 20
71.0
 30
0.0
  0
VERTEX
  5
CD1
  8
SAPA_PROFIL
 10
247.0000000000004
 20
71.0
 30
0.0
  0
VERTEX
  5
CD2
  8
SAPA_PROFIL
 10
248.00000000000031
 20
70.0
 30
0.0
  0
VERTEX
  5
CD3
  8
SAPA_PROFIL
 10
248.00000000000031
 20
64.366025403783965
 30
0.0
  0
VERTEX
  5
CD4
  8
SAPA_PROFIL
 10
247.5000000000004
 20
63.5
 30
0.0
  0
VERTEX
  5
CD5
  8
SAPA_PROFIL
 10
248.00000000000031
 20
62.633974596215012
 30
0.0
  0
VERTEX
  5
CD6
  8
SAPA_PROFIL
 10
248.00000000000031
 20
43.5
 30
0.0
 42
0.4142135623730951
  0
VERTEX
  5
CD7
  8
SAPA_PROFIL
 10
249.0000000000004
 20
42.5
 30
0.0
  0
VERTEX
  5
CD8
  8
SAPA_PROFIL
 10
258.23508893593242
 20
42.5
 30
0.0
 42
0.3475404855922902
  0
VERTEX
  5
CD9
  8
SAPA_PROFIL
 10
258.52699148917861
 20
42.730769230769162
 30
0.0
 42
-0.347540485592353
  0
VERTEX
  5
CDA
  8
SAPA_PROFIL
 10
259.50000000000028
 20
43.5
 30
0.0
  0
VERTEX
  5
CDB
  8
SAPA_PROFIL
 10
260.06754446796231
 20
43.5
 30
0.0
 42
-0.2896898633048417
  0
VERTEX
  5
CDC
  8
SAPA_PROFIL
 10
260.97105237087078
 20
42.928571428564503
 30
0.0
 42
-0.5507604245820768
  0
VERTEX
  5
CDD
  8
SAPA_PROFIL
 10
260.7000000000042
 20
42.500000000005002
 30
0.0
  0
VERTEX
  5
CDE
  8
SAPA_PROFIL
 10
260.04999999999819
 20
42.500000000000909
 30
0.0
 42
0.4142135623714856
  0
VERTEX
  5
CDF
  8
SAPA_PROFIL
 10
259.75000000000028
 20
42.200000000000948
 30
0.0
  0
VERTEX
  5
CE0
  8
SAPA_PROFIL
 10
259.75000000000028
 20
40.799999999999947
 30
0.0
 42
0.4142135623730951
  0
VERTEX
  5
CE1
  8
SAPA_PROFIL
 10
260.0500000000003
 20
40.499999999999993
 30
0.0
  0
VERTEX
  5
CE2
  8
SAPA_PROFIL
 10
268.45000000000027
 20
40.499999999999993
 30
0.0
 42
0.4142135623730951
  0
VERTEX
  5
CE3
  8
SAPA_PROFIL
 10
268.75000000000023
 20
40.799999999999947
 30
0.0
  0
VERTEX
  5
CE4
  8
SAPA_PROFIL
 10
268.75000000000028
 20
42.200000000000053
 30
0.0
 42
0.4142135623730951
  0
VERTEX
  5
CE5
  8
SAPA_PROFIL
 10
268.45000000000027
 20
42.5
 30
0.0
  0
VERTEX
  5
CE6
  8
SAPA_PROFIL
 10
267.8000000000003
 20
42.500000000000909
 30
0.0
  0
VERTEX
  5
CE7
  8
SAPA_PROFIL
 10
267.79999999999632
 20
42.5
 30
0.0
 42
-0.5507604245871307
  0
VERTEX
  5
CE8
  8
SAPA_PROFIL
 10
267.52894762912899
 20
42.92857142857315
 30
0.0
 42
-0.2896898633034174
  0
VERTEX
  5
CE9
  8
SAPA_PROFIL
 10
268.43245553203832
 20
43.5
 30
0.0
  0
VERTEX
  5
CEA
  8
SAPA_PROFIL
 10
269.70000000000027
 20
43.5
 30
0.0
 42
-0.4142135623730951
  0
VERTEX
  5
CEB
  8
SAPA_PROFIL
 10
270.00000000000028
 20
43.200000000000038
 30
0.0
  0
VERTEX
  5
CEC
  8
SAPA_PROFIL
 10
270.00000000000028
 20
39.0
 30
0.0
 42
-0.4142135623730951
  0
VERTEX
  5
CED
  8
SAPA_PROFIL
 10
269.00000000000028
 20
38.0
 30
0.0
  0
VERTEX
  5
CEE
  8
SAPA_PROFIL
 10
249.74264068711929
 20
38.0
 30
0.0
 42
0.1989123673796595
  0
VERTEX
  5
CEF
  8
SAPA_PROFIL
 10
247.62132034355969
 20
37.12132034355966
 30
0.0
  0
VERTEX
  5
CF0
  8
SAPA_PROFIL
 10
244.8786796564404
 20
34.378679656439999
 30
0.0
 42
-0.1989123673796601
  0
VERTEX
  5
CF1
  8
SAPA_PROFIL
 10
242.7573593128804
 20
33.5
 30
0.0
  0
SEQEND
  5
CF2
  8
SAPA_PROFIL
  0
LINE
  5
769
  8
SAPA_GLAS
 10
252.99999999999821
 20
53.40000000000029
 30
0.0
 11
252.99999999999821
 21
47.40000000000029
 31
0.0
  0
LINE
  5
76A
  8
SAPA_GLAS
 10
281.79999999999831
 20
47.40000000000029
 30
0.0
 11
252.99999999999821
 21
47.40000000000029
 31
0.0
  0
LINE
  5
76B
  8
SAPA_GLAS
 10
281.79999999999831
 20
53.400000000000517
 30
0.0
 11
252.99999999999821
 21
53.40000000000029
 31
0.0
  0
LINE
  5
76C
  8
SAPA_GLAS
 10
17.00000000000005
 20
53.40000000000029
 30
0.0
 11
17.00000000000005
 21
47.40000000000029
 31
0.0
  0
LINE
  5
76D
  8
SAPA_GLAS
 10
-11.80000000000001
 20
47.40000000000029
 30
0.0
 11
17.00000000000005
 21
47.40000000000029
 31
0.0
  0
LINE
  5
76E
  8
SAPA_GLAS
 10
-11.80000000000001
 20
53.400000000000517
 30
0.0
 11
17.00000000000005
 21
53.40000000000029
 31
0.0
  0
POLYLINE
  5
77D
  8
SAPA_FOGBAND
 62
     2
 66
     1
 10
0.0
 20
0.0
 30
0.0
  0
VERTEX
  5
E1D
  8
SAPA_FOGBAND
 62
     2
 10
138.1095560658828
 20
84.409455648071713
 30
0.0
 42
0.1803090304626144
  0
VERTEX
  5
E1E
  8
SAPA_FOGBAND
 62
     2
 10
139.49755369024189
 20
86.249867324885471
 30
0.0
  0
VERTEX
  5
E1F
  8
SAPA_FOGBAND
 62
     2
 10
140.23159757903991
 20
88.71522653081125
 30
0.0
 42
-0.3317810211360308
  0
VERTEX
  5
E20
  8
SAPA_FOGBAND
 62
     2
 10
141.19001712448789
 20
89.429863647970521
 30
0.0
  0
VERTEX
  5
E21
  8
SAPA_FOGBAND
 62
     2
 10
142.42374428308759
 20
89.429863647970635
 30
0.0
 42
0.2679491924312111
  0
VERTEX
  5
E22
  8
SAPA_FOGBAND
 62
     2
 10
142.68355190422031
 20
89.579863647970726
 30
0.0
  0
VERTEX
  5
E23
  8
SAPA_FOGBAND
 62
     2
 10
143.20500782163651
 20
90.483051790844286
 30
0.0
 42
0.5773502691894719
  0
VERTEX
  5
E24
  8
SAPA_FOGBAND
 62
     2
 10
142.94520020050109
 20
90.933051790844075
 30
0.0
  0
VERTEX
  5
E25
  8
SAPA_FOGBAND
 62
     2
 10
136.94335943644771
 20
90.933051790844203
 30
0.0
 42
0.4147066859862881
  0
VERTEX
  5
E26
  8
SAPA_FOGBAND
 62
     2
 10
133.94336368687561
 20
87.928001785989224
 30
0.0
  0
VERTEX
  5
E27
  8
SAPA_FOGBAND
 62
     2
 10
133.94703671412671
 20
85.746010588375313
 30
0.0
 42
-0.4565417232955612
  0
VERTEX
  5
E28
  8
SAPA_FOGBAND
 62
     2
 10
133.5639800879047
 20
85.396208482334416
 30
0.0
  0
VERTEX
  5
E29
  8
SAPA_FOGBAND
 62
     2
 10
132.55375843722351
 20
85.574337815845325
 30
0.0
  0
VERTEX
  5
E2A
  8
SAPA_FOGBAND
 62
     2
 10
132.62321770829021
 20
85.968260917050245
 30
0.0
 42
0.6720594905598717
  0
VERTEX
  5
E2B
  8
SAPA_FOGBAND
 62
     2
 10
132.30979241213771
 20
86.165582667928845
 30
0.0
  0
VERTEX
  5
E2C
  8
SAPA_FOGBAND
 62
     2
 10
130.46668330455429
 20
84.845374798863062
 30
0.0
 42
0.4079520108343612
  0
VERTEX
  5
E2D
  8
SAPA_FOGBAND
 62
     2
 10
130.32092483857511
 20
84.018737460699853
 30
0.0
  0
VERTEX
  5
E2E
  8
SAPA_FOGBAND
 62
     2
 10
131.60134318167701
 20
82.147767427094706
 30
0.0
 42
0.6720594905598635
  0
VERTEX
  5
E2F
  8
SAPA_FOGBAND
 62
     2
 10
131.963354633156
 20
82.225991455603875
 30
0.0
  0
VERTEX
  5
E30
  8
SAPA_FOGBAND
 62
     2
 10
132.03281390422279
 20
82.619914556808723
 30
0.0
  0
VERTEX
  5
E31
  8
SAPA_FOGBAND
 62
     2
 10
132.91914088193371
 20
82.463631196908509
 30
0.0
 42
-0.4142135623730951
  0
VERTEX
  5
E32
  8
SAPA_FOGBAND
 62
     2
 10
133.16248875453741
 20
82.116094417704787
 30
0.0
  0
VERTEX
  5
E33
  8
SAPA_FOGBAND
 62
     2
 10
132.9544119872813
 20
80.71774835708122
 30
0.0
 42
0.4313344489874135
  0
VERTEX
  5
E34
  8
SAPA_FOGBAND
 62
     2
 10
133.21500287893761
 20
80.367685151172893
 30
0.0
  0
VERTEX
  5
E35
  8
SAPA_FOGBAND
 62
     2
 10
133.92299240322811
 20
80.284876299111517
 30
0.0
 42
0.3972974670000809
  0
VERTEX
  5
E36
  8
SAPA_FOGBAND
 62
     2
 10
134.47348200347989
 20
80.694666797958391
 30
0.0
  0
VERTEX
  5
E37
  8
SAPA_FOGBAND
 62
     2
 10
135.4433615616617
 20
86.195127103494016
 30
0.0
  0
VERTEX
  5
E38
  8
SAPA_FOGBAND
 62
     2
 10
135.4433615616617
 20
87.930526788416657
 30
0.0
 42
-0.4147066859863004
  0
VERTEX
  5
E39
  8
SAPA_FOGBAND
 62
     2
 10
136.94335943644771
 20
89.433051790844203
 30
0.0
  0
VERTEX
  5
E3A
  8
SAPA_FOGBAND
 62
     2
 10
139.14588602603379
 20
89.433051790844104
 30
0.0
 42
-0.601131774324047
  0
VERTEX
  5
E3B
  8
SAPA_FOGBAND
 62
     2
 10
139.07798334846979
 20
88.513472838266949
 30
0.0
 42
0.2227389711612139
  0
VERTEX
  5
E3C
  8
SAPA_FOGBAND
 62
     2
 10
138.96631050934209
 20
88.385603669048166
 30
0.0
  0
VERTEX
  5
E3D
  8
SAPA_FOGBAND
 62
     2
 10
138.443292190249
 20
86.563766496010246
 30
0.0
 42
-0.1796843201953831
  0
VERTEX
  5
E3E
  8
SAPA_FOGBAND
 62
     2
 10
137.52244622306139
 20
85.339694630668504
 30
0.0
 42
1.0
  0
VERTEX
  5
E3F
  8
SAPA_FOGBAND
 62
     2
 10
138.1162847394603
 20
84.413759526872909
 30
0.0
  0
SEQEND
  5
E40
  8
SAPA_FOGBAND
 62
     2
  0
INSERT
  5
77E
  8
SAPA_FOGBAND
  6
CONTINUOUS
 62
     2
  2
*U56
 10
0.0
 20
0.0
 30
0.0
1001
ACAD
1002
{
1000
R14_HATCH_DATA
1000
77E
1011
1.0
1021
0.0
1031
0.0
1021
0.0
1031
0.0
1011
0.0
1021
0.0
1031
0.0
1021
1.0
1031
0.0
1011
0.0
1021
0.0
1031
0.0
1021
0.0
1031
1.0
1040
0.0
1010
0.0
1020
0.0
1030
1.0
1000
SOLID
1070
     1
1070
     0
1071
        1
1071
        1
1071
        1
1070
     2
1040
134.735354152669
1040
86.610944985818008
1040
0.2549509756796394
1040
0.0
1040
6.2831853071795862
1070
     1
1071
        0
1070
     0
1070
     1
1071
        1
1040
127.6255060126836
1040
77.630225805296774
1040
0.0
1002
}
  0
POLYLINE
  5
77F
  8
SAPA_FOGBAND
 62
     2
 66
     1
 10
0.0
 20
0.0
 30
0.0
 70
     1
  0
VERTEX
  5
E52
  8
SAPA_FOGBAND
 62
     2
 10
133.0927890596007
 20
83.448438949920714
 30
0.0
 42
1.0
  0
VERTEX
  5
E53
  8
SAPA_FOGBAND
 62
     2
 10
133.26643723726761
 20
84.433246702932905
 30
0.0
  0
VERTEX
  5
E54
  8
SAPA_FOGBAND
 62
     2
 10
131.7892256077493
 20
84.693718969433334
 30
0.0
 42
0.9999999999999998
  0
VERTEX
  5
E55
  8
SAPA_FOGBAND
 62
     2
 10
131.6155774300824
 20
83.708911216421129
 30
0.0
  0
SEQEND
  5
E56
  8
SAPA_FOGBAND
 62
     2
  0
POLYLINE
  5
780
  8
SAPA_FOGBAND
 62
     2
 66
     1
 10
0.0
 20
0.0
 30
0.0
  0
VERTEX
  5
E57
  8
SAPA_FOGBAND
 62
     2
 10
131.93910359040979
 20
42.589453150778233
 30
0.0
 42
0.1803090304626144
  0
VERTEX
  5
E58
  8
SAPA_FOGBAND
 62
     2
 10
130.55110596605081
 20
40.749041473964482
 30
0.0
  0
VERTEX
  5
E59
  8
SAPA_FOGBAND
 62
     2
 10
129.8170620772527
 20
38.28368226803871
 30
0.0
 42
-0.3317810211360308
  0
VERTEX
  5
E5A
  8
SAPA_FOGBAND
 62
     2
 10
128.85864253180469
 20
37.56904515087944
 30
0.0
  0
VERTEX
  5
E5B
  8
SAPA_FOGBAND
 62
     2
 10
127.624915373205
 20
37.569045150879333
 30
0.0
 42
0.2679491924312111
  0
VERTEX
  5
E5C
  8
SAPA_FOGBAND
 62
     2
 10
127.3651077520723
 20
37.419045150879242
 30
0.0
  0
VERTEX
  5
E5D
  8
SAPA_FOGBAND
 62
     2
 10
126.8436518346561
 20
36.515857008005689
 30
0.0
 42
0.5773502691894719
  0
VERTEX
  5
E5E
  8
SAPA_FOGBAND
 62
     2
 10
127.10345945579149
 20
36.065857008005871
 30
0.0
  0
VERTEX
  5
E5F
  8
SAPA_FOGBAND
 62
     2
 10
133.10530021984499
 20
36.065857008005757
 30
0.0
 42
0.4147066859862881
  0
VERTEX
  5
E60
  8
SAPA_FOGBAND
 62
     2
 10
136.105295969417
 20
39.070907012860737
 30
0.0
  0
VERTEX
  5
E61
  8
SAPA_FOGBAND
 62
     2
 10
136.10162294216599
 20
41.252898210474648
 30
0.0
 42
-0.4565417232955612
  0
VERTEX
  5
E62
  8
SAPA_FOGBAND
 62
     2
 10
136.48467956838789
 20
41.602700316515538
 30
0.0
  0
VERTEX
  5
E63
  8
SAPA_FOGBAND
 62
     2
 10
137.49490121906911
 20
41.424570983004621
 30
0.0
  0
VERTEX
  5
E64
  8
SAPA_FOGBAND
 62
     2
 10
137.4254419480024
 20
41.030647881799709
 30
0.0
 42
0.6720594905598717
  0
VERTEX
  5
E65
  8
SAPA_FOGBAND
 62
     2
 10
137.7388672441549
 20
40.83332613092113
 30
0.0
  0
VERTEX
  5
E66
  8
SAPA_FOGBAND
 62
     2
 10
139.58197635173829
 20
42.153533999986891
 30
0.0
 42
0.4079520108343612
  0
VERTEX
  5
E67
  8
SAPA_FOGBAND
 62
     2
 10
139.72773481771759
 20
42.980171338150107
 30
0.0
  0
VERTEX
  5
E68
  8
SAPA_FOGBAND
 62
     2
 10
138.4473164746156
 20
44.851141371755247
 30
0.0
 42
0.6720594905598635
  0
VERTEX
  5
E69
  8
SAPA_FOGBAND
 62
     2
 10
138.08530502313661
 20
44.772917343246078
 30
0.0
  0
VERTEX
  5
E6A
  8
SAPA_FOGBAND
 62
     2
 10
138.01584575206991
 20
44.378994242041237
 30
0.0
  0
VERTEX
  5
E6B
  8
SAPA_FOGBAND
 62
     2
 10
137.1295187743589
 20
44.535277601941452
 30
0.0
 42
-0.4142135623730951
  0
VERTEX
  5
E6C
  8
SAPA_FOGBAND
 62
     2
 10
136.88617090175529
 20
44.882814381145167
 30
0.0
  0
VERTEX
  5
E6D
  8
SAPA_FOGBAND
 62
     2
 10
137.09424766901139
 20
46.281160441768741
 30
0.0
 42
0.4313344489874135
  0
VERTEX
  5
E6E
  8
SAPA_FOGBAND
 62
     2
 10
136.83365677735509
 20
46.631223647677068
 30
0.0
  0
VERTEX
  5
E6F
  8
SAPA_FOGBAND
 62
     2
 10
136.12566725306459
 20
46.71403249973843
 30
0.0
 42
0.3972974670000809
  0
VERTEX
  5
E70
  8
SAPA_FOGBAND
 62
     2
 10
135.57517765281281
 20
46.30424200089157
 30
0.0
  0
VERTEX
  5
E71
  8
SAPA_FOGBAND
 62
     2
 10
134.605298094631
 20
40.803781695355937
 30
0.0
  0
VERTEX
  5
E72
  8
SAPA_FOGBAND
 62
     2
 10
134.605298094631
 20
39.068382010433297
 30
0.0
 42
-0.4147066859863004
  0
VERTEX
  5
E73
  8
SAPA_FOGBAND
 62
     2
 10
133.10530021984499
 20
37.565857008005757
 30
0.0
  0
VERTEX
  5
E74
  8
SAPA_FOGBAND
 62
     2
 10
130.90277363025891
 20
37.565857008005871
 30
0.0
 42
-0.601131774324047
  0
VERTEX
  5
E75
  8
SAPA_FOGBAND
 62
     2
 10
130.97067630782291
 20
38.485435960582997
 30
0.0
 42
0.2227389711612139
  0
VERTEX
  5
E76
  8
SAPA_FOGBAND
 62
     2
 10
131.08234914695049
 20
38.613305129801802
 30
0.0
  0
VERTEX
  5
E77
  8
SAPA_FOGBAND
 62
     2
 10
131.60536746604359
 20
40.435142302839708
 30
0.0
 42
-0.1796843201953831
  0
VERTEX
  5
E78
  8
SAPA_FOGBAND
 62
     2
 10
132.52621343323119
 20
41.659214168181443
 30
0.0
 42
1.0
  0
VERTEX
  5
E79
  8
SAPA_FOGBAND
 62
     2
 10
131.93237491683229
 20
42.585149271977052
 30
0.0
  0
SEQEND
  5
E7A
  8
SAPA_FOGBAND
 62
     2
  0
INSERT
  5
781
  8
SAPA_FOGBAND
  6
CONTINUOUS
 62
     2
  2
*U57
 10
0.0
 20
0.0
 30
0.0
1001
ACAD
1002
{
1000
R14_HATCH_DATA
1000
781
1011
1.0
1021
0.0
1031
0.0
1021
0.0
1031
0.0
1011
0.0
1021
0.0
1031
0.0
1021
1.0
1031
0.0
1011
0.0
1021
0.0
1031
0.0
1021
0.0
1031
1.0
1040
0.0
1010
0.0
1020
0.0
1030
1.0
1000
SOLID
1070
     1
1070
     0
1071
        1
1071
        1
1071
        1
1070
     2
1040
135.31330550362361
1040
40.387963813031931
1040
0.2549509756796394
1040
3.1415926535897931
1040
9.4247779607693793
1070
     1
1071
        0
1070
     0
1070
     1
1071
        1
1040
142.423153643609
1040
49.368682993553179
1040
0.0
1002
}
  0
POLYLINE
  5
782
  8
SAPA_FOGBAND
 62
     2
 66
     1
 10
0.0
 20
0.0
 30
0.0
 70
     1
  0
VERTEX
  5
E8C
  8
SAPA_FOGBAND
 62
     2
 10
136.95587059669191
 20
43.550469848929247
 30
0.0
 42
1.0
  0
VERTEX
  5
E8D
  8
SAPA_FOGBAND
 62
     2
 10
136.782222419025
 20
42.565662095917041
 30
0.0
  0
VERTEX
  5
E8E
  8
SAPA_FOGBAND
 62
     2
 10
138.25943404854331
 20
42.305189829416634
 30
0.0
 42
0.9999999999999998
  0
VERTEX
  5
E8F
  8
SAPA_FOGBAND
 62
     2
 10
138.43308222621019
 20
43.289997582428832
 30
0.0
  0
SEQEND
  5
E90
  8
SAPA_FOGBAND
 62
     2
  0
POLYLINE
  5
783
  8
SAPA_FOGBAND
 66
     1
 10
0.0
 20
0.0
 30
0.0
 70
     1
  0
VERTEX
  5
E91
  8
SAPA_FOGBAND
 10
259.4933978403476
 20
59.989251262205208
 30
0.0
  0
VERTEX
  5
E92
  8
SAPA_FOGBAND
 10
260.6933978403477
 20
59.989251262205208
 30
0.0
 42
0.4142135623730951
  0
VERTEX
  5
E93
  8
SAPA_FOGBAND
 10
260.9933978403476
 20
60.28925126220517
 30
0.0
  0
VERTEX
  5
E94
  8
SAPA_FOGBAND
 10
260.9933978403476
 20
61.189251262205261
 30
0.0
  0
VERTEX
  5
E95
  8
SAPA_FOGBAND
 10
260.64339784034769
 20
61.189251262205261
 30
0.0
 42
-0.6681786379192988
  0
VERTEX
  5
E96
  8
SAPA_FOGBAND
 10
260.43126580599159
 20
61.701383296561261
 30
0.0
  0
VERTEX
  5
E97
  8
SAPA_FOGBAND
 10
261.28481919658498
 20
62.554936687154367
 30
0.0
 42
-0.1989123673796552
  0
VERTEX
  5
E98
  8
SAPA_FOGBAND
 10
261.85050462153413
 20
62.78925126220517
 30
0.0
  0
VERTEX
  5
E99
  8
SAPA_FOGBAND
 10
262.01319974395392
 20
62.78925126220517
 30
0.0
 42
-0.3394542588633746
  0
VERTEX
  5
E9A
  8
SAPA_FOGBAND
 10
262.30297749184069
 20
62.566896975735951
 30
0.0
  0
VERTEX
  5
E9B
  8
SAPA_FOGBAND
 10
262.66612673523059
 20
61.211605548674441
 30
0.0
 42
0.3394542588633746
  0
VERTEX
  5
E9C
  8
SAPA_FOGBAND
 10
262.95590448311742
 20
60.989251262205208
 30
0.0
  0
VERTEX
  5
E9D
  8
SAPA_FOGBAND
 10
265.53089119757777
 20
60.989251262205208
 30
0.0
 42
0.3394542588633746
  0
VERTEX
  5
E9E
  8
SAPA_FOGBAND
 10
265.8206689454646
 20
61.211605548674441
 30
0.0
  0
VERTEX
  5
E9F
  8
SAPA_FOGBAND
 10
266.18381818885467
 20
62.566896975735951
 30
0.0
 42
-0.3394542588633744
  0
VERTEX
  5
EA0
  8
SAPA_FOGBAND
 10
266.47359593674128
 20
62.78925126220517
 30
0.0
  0
VERTEX
  5
EA1
  8
SAPA_FOGBAND
 10
266.63629105916129
 20
62.78925126220517
 30
0.0
 42
-0.1989123673796526
  0
VERTEX
  5
EA2
  8
SAPA_FOGBAND
 10
267.20197648411039
 20
62.554936687154367
 30
0.0
  0
VERTEX
  5
EA3
  8
SAPA_FOGBAND
 10
268.05552987470378
 20
61.701383296561261
 30
0.0
 42
-0.6681786379193474
  0
VERTEX
  5
EA4
  8
SAPA_FOGBAND
 10
267.84339784034768
 20
61.189251262205261
 30
0.0
  0
VERTEX
  5
EA5
  8
SAPA_FOGBAND
 10
267.4933978403476
 20
61.189251262205261
 30
0.0
  0
VERTEX
  5
EA6
  8
SAPA_FOGBAND
 10
267.4933978403476
 20
60.28925126220517
 30
0.0
 42
0.4142135623730951
  0
VERTEX
  5
EA7
  8
SAPA_FOGBAND
 10
267.79339784034778
 20
59.989251262205208
 30
0.0
  0
VERTEX
  5
EA8
  8
SAPA_FOGBAND
 10
269.89339784034769
 20
59.989251262205208
 30
0.0
 42
0.4142135623730951
  0
VERTEX
  5
EA9
  8
SAPA_FOGBAND
 10
270.19339784034759
 20
60.28925126220517
 30
0.0
  0
VERTEX
  5
EAA
  8
SAPA_FOGBAND
 10
270.19339784034759
 20
61.689251262205261
 30
0.0
 42
-0.7754026414786132
  0
VERTEX
  5
EAB
  8
SAPA_FOGBAND
 10
270.75618983575532
 20
61.83395913051114
 30
0.0
 42
0.1086822875051356
  0
VERTEX
  5
EAC
  8
SAPA_FOGBAND
 10
274.9062379943461
 20
53.905876740374403
 30
0.0
 42
-0.8680589103334746
  0
VERTEX
  5
EAD
  8
SAPA_FOGBAND
 10
274.43131396458239
 20
53.549036837712457
 30
0.0
  0
VERTEX
  5
EAE
  8
SAPA_FOGBAND
 10
270.46127856743078
 20
56.376837158856432
 30
0.0
 42
0.1989123673796536
  0
VERTEX
  5
EAF
  8
SAPA_FOGBAND
 10
269.75417178624411
 20
56.669730377669758
 30
0.0
  0
VERTEX
  5
EB0
  8
SAPA_FOGBAND
 10
266.92085282182438
 20
56.669730377669758
 30
0.0
 42
0.577350269189628
  0
VERTEX
  5
EB1
  8
SAPA_FOGBAND
 10
266.66104520068922
 20
56.219730377669947
 30
0.0
  0
VERTEX
  5
EB2
  8
SAPA_FOGBAND
 10
268.7991738971009
 20
53.914976274315649
 30
0.0
 42
-0.8769764629927301
  0
VERTEX
  5
EB3
  8
SAPA_FOGBAND
 10
268.32723424160957
 20
53.552844239959512
 30
0.0
  0
VERTEX
  5
EB4
  8
SAPA_FOGBAND
 10
264.3610062467049
 20
56.376837158856432
 30
0.0
 42
0.198912367379658
  0
VERTEX
  5
EB5
  8
SAPA_FOGBAND
 10
263.65389946551818
 20
56.669730377669758
 30
0.0
  0
VERTEX
  5
EB6
  8
SAPA_FOGBAND
 10
261.42162510329672
 20
56.669730377669758
 30
0.0
 42
0.5773502691896441
  0
VERTEX
  5
EB7
  8
SAPA_FOGBAND
 10
261.16181748216133
 20
56.219730377669947
 30
0.0
  0
VERTEX
  5
EB8
  8
SAPA_FOGBAND
 10
263.29944460369052
 20
53.915845027496033
 30
0.0
 42
-0.87697646299276
  0
VERTEX
  5
EB9
  8
SAPA_FOGBAND
 10
262.82750494819931
 20
53.553712993139897
 30
0.0
  0
VERTEX
  5
EBA
  8
SAPA_FOGBAND
 10
258.78629105916121
 20
56.452691806170122
 30
0.0
 42
-0.198912367379658
  0
VERTEX
  5
EBB
  8
SAPA_FOGBAND
 10
258.4933978403476
 20
57.159798587356562
 30
0.0
  0
VERTEX
  5
EBC
  8
SAPA_FOGBAND
 10
258.4933978403476
 20
58.989251262205222
 30
0.0
  0
VERTEX
  5
EBD
  8
SAPA_FOGBAND
 10
258.4933978403476
 20
58.979319471892012
 30
0.0
  0
SEQEND
  5
EBE
  8
SAPA_FOGBAND
  0
POLYLINE
  5
784
  8
SAPA_FOGBAND
 66
     1
 10
0.0
 20
0.0
 30
0.0
 70
     1
  0
VERTEX
  5
EBF
  8
SAPA_FOGBAND
 10
258.49340458768762
 20
44.497574328861653
 30
0.0
 42
0.4142135623730951
  0
VERTEX
  5
EC0
  8
SAPA_FOGBAND
 10
259.49340458768751
 20
43.497574328861639
 30
0.0
  0
VERTEX
  5
EC1
  8
SAPA_FOGBAND
 10
260.69340458768761
 20
43.497574328861639
 30
0.0
 42
-0.4142135623730951
  0
VERTEX
  5
EC2
  8
SAPA_FOGBAND
 10
260.99340458768762
 20
43.197574328861691
 30
0.0
  0
VERTEX
  5
EC3
  8
SAPA_FOGBAND
 10
260.99340458768762
 20
42.297574328861828
 30
0.0
  0
VERTEX
  5
EC4
  8
SAPA_FOGBAND
 10
260.64340458768743
 20
42.297574328861828
 30
0.0
 42
0.6681786379193472
  0
VERTEX
  5
EC5
  8
SAPA_FOGBAND
 10
260.43127255333161
 20
41.78544229450582
 30
0.0
  0
VERTEX
  5
EC6
  8
SAPA_FOGBAND
 10
261.28482594392477
 20
40.931888903912487
 30
0.0
 42
0.1989123673796526
  0
VERTEX
  5
EC7
  8
SAPA_FOGBAND
 10
261.85051136887409
 20
40.697574328861691
 30
0.0
  0
VERTEX
  5
EC8
  8
SAPA_FOGBAND
 10
262.01320649129389
 20
40.697574328861691
 30
0.0
 42
0.3394542588633746
  0
VERTEX
  5
EC9
  8
SAPA_FOGBAND
 10
262.30298423918072
 20
40.919928615330917
 30
0.0
  0
VERTEX
  5
ECA
  8
SAPA_FOGBAND
 10
262.66613348257061
 20
42.27522004239264
 30
0.0
 42
-0.3394542588633744
  0
VERTEX
  5
ECB
  8
SAPA_FOGBAND
 10
262.95591123045727
 20
42.497574328861639
 30
0.0
  0
VERTEX
  5
ECC
  8
SAPA_FOGBAND
 10
265.5308979449178
 20
42.497574328861639
 30
0.0
 42
-0.3394542588633746
  0
VERTEX
  5
ECD
  8
SAPA_FOGBAND
 10
265.82067569280463
 20
42.27522004239264
 30
0.0
  0
VERTEX
  5
ECE
  8
SAPA_FOGBAND
 10
266.18382493619453
 20
40.919928615330917
 30
0.0
 42
0.3394542588633747
  0
VERTEX
  5
ECF
  8
SAPA_FOGBAND
 10
266.4736026840813
 20
40.697574328861691
 30
0.0
  0
VERTEX
  5
ED0
  8
SAPA_FOGBAND
 10
266.63629780650098
 20
40.697574328861691
 30
0.0
 42
0.1989123673796526
  0
VERTEX
  5
ED1
  8
SAPA_FOGBAND
 10
267.20198323145041
 20
40.931888903912487
 30
0.0
  0
VERTEX
  5
ED2
  8
SAPA_FOGBAND
 10
268.05553662204352
 20
41.78544229450582
 30
0.0
 42
0.6681786379193474
  0
VERTEX
  5
ED3
  8
SAPA_FOGBAND
 10
267.8434045876877
 20
42.297574328861828
 30
0.0
  0
VERTEX
  5
ED4
  8
SAPA_FOGBAND
 10
267.49340458768751
 20
42.297574328861828
 30
0.0
  0
VERTEX
  5
ED5
  8
SAPA_FOGBAND
 10
267.49340458768751
 20
43.197574328861691
 30
0.0
 42
-0.4142135623730951
  0
VERTEX
  5
ED6
  8
SAPA_FOGBAND
 10
267.79340458768752
 20
43.497574328861639
 30
0.0
  0
VERTEX
  5
ED7
  8
SAPA_FOGBAND
 10
269.8934045876876
 20
43.497574328861639
 30
0.0
 42
-0.4142135623730951
  0
VERTEX
  5
ED8
  8
SAPA_FOGBAND
 10
270.19340458768761
 20
43.197574328861691
 30
0.0
  0
VERTEX
  5
ED9
  8
SAPA_FOGBAND
 10
270.19340458768761
 20
41.797574328861828
 30
0.0
 42
0.7754026414785753
  0
VERTEX
  5
EDA
  8
SAPA_FOGBAND
 10
270.75619658309529
 20
41.652866460555927
 30
0.0
  0
VERTEX
  5
EDB
  8
SAPA_FOGBAND
 10
274.27589909364059
 20
46.923530258996578
 30
0.0
 42
0.8680589103334742
  0
VERTEX
  5
EDC
  8
SAPA_FOGBAND
 10
273.8009750638771
 20
47.280370161658283
 30
0.0
  0
VERTEX
  5
EDD
  8
SAPA_FOGBAND
 10
270.46128531477081
 20
45.290467547675199
 30
0.0
 42
-0.198912367379658
  0
VERTEX
  5
EDE
  8
SAPA_FOGBAND
 10
269.75417853358408
 20
44.997574328861639
 30
0.0
  0
VERTEX
  5
EDF
  8
SAPA_FOGBAND
 10
266.92085956916429
 20
44.997574328861639
 30
0.0
 42
-0.5773502691896282
  0
VERTEX
  5
EE0
  8
SAPA_FOGBAND
 10
266.66105194802913
 20
45.447574328861691
 30
0.0
  0
VERTEX
  5
EE1
  8
SAPA_FOGBAND
 10
268.16883499639539
 20
46.914430725055553
 30
0.0
 42
0.8769764629927299
  0
VERTEX
  5
EE2
  8
SAPA_FOGBAND
 10
267.69689534090412
 20
47.276562759411462
 30
0.0
  0
VERTEX
  5
EE3
  8
SAPA_FOGBAND
 10
264.36101299404481
 20
45.290467547675199
 30
0.0
 42
-0.198912367379658
  0
VERTEX
  5
EE4
  8
SAPA_FOGBAND
 10
263.65390621285809
 20
44.997574328861639
 30
0.0
  0
VERTEX
  5
EE5
  8
SAPA_FOGBAND
 10
261.42163185063657
 20
44.997574328861639
 30
0.0
 42
-0.5773502691896282
  0
VERTEX
  5
EE6
  8
SAPA_FOGBAND
 10
261.16182422950118
 20
45.447574328861691
 30
0.0
  0
VERTEX
  5
EE7
  8
SAPA_FOGBAND
 10
262.66910570298501
 20
46.913561971875161
 30
0.0
 42
0.8769764629927299
  0
VERTEX
  5
EE8
  8
SAPA_FOGBAND
 10
262.19716604749368
 20
47.27569400623107
 30
0.0
  0
VERTEX
  5
EE9
  8
SAPA_FOGBAND
 10
258.78629780650112
 20
45.214612900361509
 30
0.0
 42
0.198912367379658
  0
VERTEX
  5
EEA
  8
SAPA_FOGBAND
 10
258.49340458768762
 20
44.507506119174842
 30
0.0
  0
SEQEND
  5
EEB
  8
SAPA_FOGBAND
  0
POLYLINE
  5
785
  8
SAPA_FOGBAND
 66
     1
 10
0.0
 20
0.0
 30
0.0
 70
     1
  0
VERTEX
  5
EEC
  8
SAPA_FOGBAND
 10
10.50660215965064
 20
59.989251262205208
 30
0.0
  0
VERTEX
  5
EED
  8
SAPA_FOGBAND
 10
9.3066021596505948
 20
59.989251262205208
 30
0.0
 42
-0.4142135623730951
  0
VERTEX
  5
EEE
  8
SAPA_FOGBAND
 10
9.0066021596506403
 20
60.28925126220517
 30
0.0
  0
VERTEX
  5
EEF
  8
SAPA_FOGBAND
 10
9.0066021596506403
 20
61.189251262205261
 30
0.0
  0
VERTEX
  5
EF0
  8
SAPA_FOGBAND
 10
9.3566021596505493
 20
61.189251262205261
 30
0.0
 42
0.6681786379192988
  0
VERTEX
  5
EF1
  8
SAPA_FOGBAND
 10
9.5687341940065949
 20
61.701383296561261
 30
0.0
  0
VERTEX
  5
EF2
  8
SAPA_FOGBAND
 10
8.7151808034132614
 20
62.554936687154367
 30
0.0
 42
0.1989123673796552
  0
VERTEX
  5
EF3
  8
SAPA_FOGBAND
 10
8.1494953784641098
 20
62.78925126220517
 30
0.0
  0
VERTEX
  5
EF4
  8
SAPA_FOGBAND
 10
7.9868002560443179
 20
62.78925126220517
 30
0.0
 42
0.3394542588633746
  0
VERTEX
  5
EF5
  8
SAPA_FOGBAND
 10
7.6970225081575441
 20
62.566896975735951
 30
0.0
  0
VERTEX
  5
EF6
  8
SAPA_FOGBAND
 10
7.3338732647676457
 20
61.211605548674441
 30
0.0
 42
-0.3394542588633746
  0
VERTEX
  5
EF7
  8
SAPA_FOGBAND
 10
7.0440955168808719
 20
60.989251262205208
 30
0.0
  0
VERTEX
  5
EF8
  8
SAPA_FOGBAND
 10
4.4691088024204069
 20
60.989251262205208
 30
0.0
 42
-0.3394542588633746
  0
VERTEX
  5
EF9
  8
SAPA_FOGBAND
 10
4.1793310545336331
 20
61.211605548674441
 30
0.0
  0
VERTEX
  5
EFA
  8
SAPA_FOGBAND
 10
3.8161818111435082
 20
62.566896975735951
 30
0.0
 42
0.3394542588633744
  0
VERTEX
  5
EFB
  8
SAPA_FOGBAND
 10
3.5264040632569609
 20
62.78925126220517
 30
0.0
  0
VERTEX
  5
EFC
  8
SAPA_FOGBAND
 10
3.3637089408369429
 20
62.78925126220517
 30
0.0
 42
0.1989123673796526
  0
VERTEX
  5
EFD
  8
SAPA_FOGBAND
 10
2.7980235158877909
 20
62.554936687154367
 30
0.0
  0
VERTEX
  5
EFE
  8
SAPA_FOGBAND
 10
1.9444701252944581
 20
61.701383296561261
 30
0.0
 42
0.6681786379193474
  0
VERTEX
  5
EFF
  8
SAPA_FOGBAND
 10
2.1566021596505029
 20
61.189251262205261
 30
0.0
  0
VERTEX
  5
F00
  8
SAPA_FOGBAND
 10
2.5066021596506398
 20
61.189251262205261
 30
0.0
  0
VERTEX
  5
F01
  8
SAPA_FOGBAND
 10
2.5066021596506398
 20
60.28925126220517
 30
0.0
 42
-0.4142135623730951
  0
VERTEX
  5
F02
  8
SAPA_FOGBAND
 10
2.2066021596504579
 20
59.989251262205208
 30
0.0
  0
VERTEX
  5
F03
  8
SAPA_FOGBAND
 10
0.1066021596505493
 20
59.989251262205208
 30
0.0
 42
-0.4142135623730951
  0
VERTEX
  5
F04
  8
SAPA_FOGBAND
 10
-0.1933978403494052
 20
60.28925126220517
 30
0.0
  0
VERTEX
  5
F05
  8
SAPA_FOGBAND
 10
-0.1933978403494052
 20
61.689251262205261
 30
0.0
 42
0.7754026414786132
  0
VERTEX
  5
F06
  8
SAPA_FOGBAND
 10
-0.756189835757084
 20
61.83395913051114
 30
0.0
 42
-0.1086822875051356
  0
VERTEX
  5
F07
  8
SAPA_FOGBAND
 10
-4.9062379943479177
 20
53.905876740374403
 30
0.0
 42
0.8680589103334746
  0
VERTEX
  5
F08
  8
SAPA_FOGBAND
 10
-4.4313139645841479
 20
53.549036837712457
 30
0.0
  0
VERTEX
  5
F09
  8
SAPA_FOGBAND
 10
-0.4612785674325437
 20
56.376837158856432
 30
0.0
 42
-0.1989123673796536
  0
VERTEX
  5
F0A
  8
SAPA_FOGBAND
 10
0.2458282137541232
 20
56.669730377669758
 30
0.0
  0
VERTEX
  5
F0B
  8
SAPA_FOGBAND
 10
3.0791471781738551
 20
56.669730377669758
 30
0.0
 42
-0.577350269189628
  0
VERTEX
  5
F0C
  8
SAPA_FOGBAND
 10
3.3389547993090778
 20
56.219730377669947
 30
0.0
  0
VERTEX
  5
F0D
  8
SAPA_FOGBAND
 10
1.200826102897337
 20
53.914976274315649
 30
0.0
 42
0.8769764629927301
  0
VERTEX
  5
F0E
  8
SAPA_FOGBAND
 10
1.6727657583886071
 20
53.552844239959512
 30
0.0
  0
VERTEX
  5
F0F
  8
SAPA_FOGBAND
 10
5.6389937532933914
 20
56.376837158856432
 30
0.0
 42
-0.198912367379658
  0
VERTEX
  5
F10
  8
SAPA_FOGBAND
 10
6.3461005344800583
 20
56.669730377669758
 30
0.0
  0
VERTEX
  5
F11
  8
SAPA_FOGBAND
 10
8.5783748967015185
 20
56.669730377669758
 30
0.0
 42
-0.5773502691896441
  0
VERTEX
  5
F12
  8
SAPA_FOGBAND
 10
8.8381825178369695
 20
56.219730377669947
 30
0.0
  0
VERTEX
  5
F13
  8
SAPA_FOGBAND
 10
6.7005553963077196
 20
53.915845027496033
 30
0.0
 42
0.87697646299276
  0
VERTEX
  5
F14
  8
SAPA_FOGBAND
 10
7.1724950517989887
 20
53.553712993139897
 30
0.0
  0
VERTEX
  5
F15
  8
SAPA_FOGBAND
 10
11.21370894083708
 20
56.452691806170122
 30
0.0
 42
0.198912367379658
  0
VERTEX
  5
F16
  8
SAPA_FOGBAND
 10
11.50660215965064
 20
57.159798587356562
 30
0.0
  0
VERTEX
  5
F17
  8
SAPA_FOGBAND
 10
11.50660215965064
 20
58.989251262205222
 30
0.0
  0
VERTEX
  5
F18
  8
SAPA_FOGBAND
 10
11.50660215965064
 20
58.979319471892012
 30
0.0
  0
SEQEND
  5
F19
  8
SAPA_FOGBAND
  0
POLYLINE
  5
786
  8
SAPA_FOGBAND
 66
     1
 10
0.0
 20
0.0
 30
0.0
 70
     1
  0
VERTEX
  5
F1A
  8
SAPA_FOGBAND
 10
11.50659541231067
 20
44.497574328861653
 30
0.0
 42
-0.4142135623730951
  0
VERTEX
  5
F1B
  8
SAPA_FOGBAND
 10
10.50659541231067
 20
43.497574328861639
 30
0.0
  0
VERTEX
  5
F1C
  8
SAPA_FOGBAND
 10
9.306595412310628
 20
43.497574328861639
 30
0.0
 42
0.4142135623730951
  0
VERTEX
  5
F1D
  8
SAPA_FOGBAND
 10
9.0065954123106735
 20
43.197574328861691
 30
0.0
  0
VERTEX
  5
F1E
  8
SAPA_FOGBAND
 10
9.0065954123106735
 20
42.297574328861828
 30
0.0
  0
VERTEX
  5
F1F
  8
SAPA_FOGBAND
 10
9.3565954123108082
 20
42.297574328861828
 30
0.0
 42
-0.6681786379193472
  0
VERTEX
  5
F20
  8
SAPA_FOGBAND
 10
9.5687274466666281
 20
41.78544229450582
 30
0.0
  0
VERTEX
  5
F21
  8
SAPA_FOGBAND
 10
8.7151740560734083
 20
40.931888903912487
 30
0.0
 42
-0.1989123673796526
  0
VERTEX
  5
F22
  8
SAPA_FOGBAND
 10
8.149488631124143
 20
40.697574328861691
 30
0.0
  0
VERTEX
  5
F23
  8
SAPA_FOGBAND
 10
7.986793508704352
 20
40.697574328861691
 30
0.0
 42
-0.3394542588633746
  0
VERTEX
  5
F24
  8
SAPA_FOGBAND
 10
7.6970157608175782
 20
40.919928615330917
 30
0.0
  0
VERTEX
  5
F25
  8
SAPA_FOGBAND
 10
7.3338665174276789
 20
42.27522004239264
 30
0.0
 42
0.3394542588633744
  0
VERTEX
  5
F26
  8
SAPA_FOGBAND
 10
7.044088769540906
 20
42.497574328861639
 30
0.0
  0
VERTEX
  5
F27
  8
SAPA_FOGBAND
 10
4.469102055080441
 20
42.497574328861639
 30
0.0
 42
0.3394542588633746
  0
VERTEX
  5
F28
  8
SAPA_FOGBAND
 10
4.1793243071936672
 20
42.27522004239264
 30
0.0
  0
VERTEX
  5
F29
  8
SAPA_FOGBAND
 10
3.8161750638037679
 20
40.919928615330917
 30
0.0
 42
-0.3394542588633747
  0
VERTEX
  5
F2A
  8
SAPA_FOGBAND
 10
3.526397315916995
 20
40.697574328861691
 30
0.0
  0
VERTEX
  5
F2B
  8
SAPA_FOGBAND
 10
3.363702193497204
 20
40.697574328861691
 30
0.0
 42
-0.1989123673796526
  0
VERTEX
  5
F2C
  8
SAPA_FOGBAND
 10
2.7980167685478241
 20
40.931888903912487
 30
0.0
  0
VERTEX
  5
F2D
  8
SAPA_FOGBAND
 10
1.944463377954718
 20
41.78544229450582
 30
0.0
 42
-0.6681786379193474
  0
VERTEX
  5
F2E
  8
SAPA_FOGBAND
 10
2.1565954123105371
 20
42.297574328861828
 30
0.0
  0
VERTEX
  5
F2F
  8
SAPA_FOGBAND
 10
2.5065954123106731
 20
42.297574328861828
 30
0.0
  0
VERTEX
  5
F30
  8
SAPA_FOGBAND
 10
2.5065954123106731
 20
43.197574328861691
 30
0.0
 42
0.4142135623730951
  0
VERTEX
  5
F31
  8
SAPA_FOGBAND
 10
2.2065954123107181
 20
43.497574328861639
 30
0.0
  0
VERTEX
  5
F32
  8
SAPA_FOGBAND
 10
0.1065954123105826
 20
43.497574328861639
 30
0.0
 42
0.4142135623730951
  0
VERTEX
  5
F33
  8
SAPA_FOGBAND
 10
-0.193404587689372
 20
43.197574328861691
 30
0.0
  0
VERTEX
  5
F34
  8
SAPA_FOGBAND
 10
-0.193404587689372
 20
41.797574328861828
 30
0.0
 42
-0.7754026414785753
  0
VERTEX
  5
F35
  8
SAPA_FOGBAND
 10
-0.7561965830970509
 20
41.652866460555927
 30
0.0
  0
VERTEX
  5
F36
  8
SAPA_FOGBAND
 10
-4.2758990936424084
 20
46.923530258996578
 30
0.0
 42
-0.8680589103334742
  0
VERTEX
  5
F37
  8
SAPA_FOGBAND
 10
-3.8009750638788651
 20
47.280370161658283
 30
0.0
  0
VERTEX
  5
F38
  8
SAPA_FOGBAND
 10
-0.4612853147725105
 20
45.290467547675199
 30
0.0
 42
0.198912367379658
  0
VERTEX
  5
F39
  8
SAPA_FOGBAND
 10
0.2458214664141565
 20
44.997574328861639
 30
0.0
  0
VERTEX
  5
F3A
  8
SAPA_FOGBAND
 10
3.0791404308338879
 20
44.997574328861639
 30
0.0
 42
0.5773502691896282
  0
VERTEX
  5
F3B
  8
SAPA_FOGBAND
 10
3.338948051969111
 20
45.447574328861691
 30
0.0
  0
VERTEX
  5
F3C
  8
SAPA_FOGBAND
 10
1.831165003602848
 20
46.914430725055553
 30
0.0
 42
-0.8769764629927299
  0
VERTEX
  5
F3D
  8
SAPA_FOGBAND
 10
2.3031046590941169
 20
47.276562759411462
 30
0.0
  0
VERTEX
  5
F3E
  8
SAPA_FOGBAND
 10
5.6389870059534237
 20
45.290467547675199
 30
0.0
 42
0.198912367379658
  0
VERTEX
  5
F3F
  8
SAPA_FOGBAND
 10
6.3460937871400906
 20
44.997574328861639
 30
0.0
  0
VERTEX
  5
F40
  8
SAPA_FOGBAND
 10
8.5783681493616655
 20
44.997574328861639
 30
0.0
 42
0.5773502691896282
  0
VERTEX
  5
F41
  8
SAPA_FOGBAND
 10
8.8381757704970028
 20
45.447574328861691
 30
0.0
  0
VERTEX
  5
F42
  8
SAPA_FOGBAND
 10
7.3308942970132298
 20
46.913561971875161
 30
0.0
 42
-0.8769764629927299
  0
VERTEX
  5
F43
  8
SAPA_FOGBAND
 10
7.802833952504499
 20
47.27569400623107
 30
0.0
  0
VERTEX
  5
F44
  8
SAPA_FOGBAND
 10
11.21370219349711
 20
45.214612900361509
 30
0.0
 42
-0.198912367379658
  0
VERTEX
  5
F45
  8
SAPA_FOGBAND
 10
11.50659541231067
 20
44.507506119174842
 30
0.0
  0
SEQEND
  5
F46
  8
SAPA_FOGBAND
  0
DIMENSION
  5
78F
  8
SAPA_MATT
  2
*D52
 10
-0.0000000000000016
 20
13.5
 30
0.0
 11
59.999999999999993
 21
16.000295275590549
 31
0.0
 70
     0
 13
119.9999999999999
 23
37.914213562372993
 33
0.0
 14
0.0
 24
39.0
 34
0.0
 50
180.0
1001
ACAD
1000
DSTYLE
1002
{
1070
    40
1040
1.0
1002
}
  0
DIMENSION
  5
790
  8
SAPA_MATT
  2
*D51
 10
119.9999999999999
 20
13.5
 30
0.0
 11
135.00000000000011
 21
16.0
 31
0.0
 70
     0
 13
150.0000000000004
 23
37.914213562372993
 33
0.0
 14
119.9999999999999
 24
37.914213562372993
 34
0.0
 50
180.0
1001
ACAD
1000
DSTYLE
1002
{
1070
    40
1040
1.0
1002
}
  0
DIMENSION
  5
791
  8
SAPA_MATT
  2
*D50
 10
150.0000000000004
 20
13.5
 30
0.0
 11
210.0000000000004
 21
16.000295275590549
 31
0.0
 70
     0
 13
270.0000000000004
 23
39.0
 33
0.0
 14
150.0000000000004
 24
37.914213562372993
 34
0.0
 50
180.0
1001
ACAD
1000
DSTYLE
1002
{
1070
    40
1040
1.0
1002
}
  0
DIMENSION
  5
792
  8
SAPA_MATT
  2
*D53
 10
-0.0000000000000023
 20
1.5
 30
0.0
 11
135.0000000000002
 21
4.0002952755905499
 31
0.0
 70
     0
  1
270
 13
270.0000000000004
 23
39.0
 33
0.0
 14
0.0
 24
39.0
 34
0.0
 50
180.0
1001
ACAD
1000
DSTYLE
1002
{
1070
    40
1040
1.0
1002
}
  0
ENDSEC
  0
EOF
