  0
SECTION
  2
HEADER
  9
$ACADVER
  1
AC1009
  9
$INSBASE
 10
69.764868393921986
 20
297.20846420016039
 30
0.0
  9
$EXTMIN
 10
-57.326377952755863
 20
-29.650000000000261
 30
0.0
  9
$EXTMAX
 10
188.00000184231391
 20
87.288256711346193
 30
0.0
  9
$LIMMIN
 10
0.0
 20
0.0
  9
$LIMMAX
 10
998.0
 20
710.0
  9
$ORTHOMODE
 70
     1
  9
$REGENMODE
 70
     1
  9
$FILLMODE
 70
     1
  9
$QTEXTMODE
 70
     0
  9
$MIRRTEXT
 70
     1
  9
$DRAGMODE
 70
     2
  9
$LTSCALE
 40
7.0
  9
$OSMODE
 70
    37
  9
$ATTMODE
 70
     1
  9
$TEXTSIZE
 40
6.0
  9
$TRACEWID
 40
0.05
  9
$TEXTSTYLE
  7
ISO
  9
$CLAYER
  8
0
  9
$CELTYPE
  6
BYLAYER
  9
$CECOLOR
 62
   256
  9
$DIMSCALE
 40
0.0
  9
$DIMASZ
 40
3.0
  9
$DIMEXO
 40
1.5
  9
$DIMDLI
 40
10.0
  9
$DIMRND
 40
0.0
  9
$DIMDLE
 40
0.0
  9
$DIMEXE
 40
1.5
  9
$DIMTP
 40
0.0
  9
$DIMTM
 40
0.0
  9
$DIMTXT
 40
3.5
  9
$DIMCEN
 40
-5.0
  9
$DIMTSZ
 40
0.0
  9
$DIMTOL
 70
     0
  9
$DIMLIM
 70
     0
  9
$DIMTIH
 70
     0
  9
$DIMTOH
 70
     1
  9
$DIMSE1
 70
     0
  9
$DIMSE2
 70
     0
  9
$DIMTAD
 70
     1
  9
$DIMZIN
 70
     8
  9
$DIMBLK
  1

  9
$DIMASO
 70
     1
  9
$DIMSHO
 70
     1
  9
$DIMPOST
  1

  9
$DIMAPOST
  1

  9
$DIMALT
 70
     0
  9
$DIMALTD
 70
     0
  9
$DIMALTF
 40
25.399999999999999
  9
$DIMLFAC
 40
-1.0
  9
$DIMTOFL
 70
     1
  9
$DIMTVP
 40
0.0
  9
$DIMTIX
 70
     0
  9
$DIMSOXD
 70
     0
  9
$DIMSAH
 70
     0
  9
$DIMBLK1
  1

  9
$DIMBLK2
  1

  9
$DIMSTYLE
  2
MASKIN
  9
$DIMCLRD
 70
   256
  9
$DIMCLRE
 70
   256
  9
$DIMCLRT
 70
     2
  9
$DIMTFAC
 40
1.0
  9
$DIMGAP
 40
1.0
  9
$LUNITS
 70
     2
  9
$LUPREC
 70
     2
  9
$SKETCHINC
 40
0.1
  9
$FILLETRAD
 40
0.0
  9
$AUNITS
 70
     0
  9
$AUPREC
 70
     2
  9
$MENU
  1
ACAD
  9
$ELEVATION
 40
0.0
  9
$PELEVATION
 40
0.0
  9
$THICKNESS
 40
0.0
  9
$LIMCHECK
 70
     0
  9
$BLIPMODE
 70
     0
  9
$CHAMFERA
 40
0.0
  9
$CHAMFERB
 40
0.0
  9
$SKPOLY
 70
     0
  9
$TDCREATE
 40
2450148.50961632
  9
$TDUPDATE
 40
2455825.3860865389
  9
$TDINDWG
 40
0.3839471644
  9
$TDUSRTIMER
 40
0.3839471644
  9
$USRTIMER
 70
     1
  9
$ANGBASE
 50
0.0
  9
$ANGDIR
 70
     0
  9
$PDMODE
 70
     3
  9
$PDSIZE
 40
-5.0
  9
$PLINEWID
 40
0.0
  9
$COORDS
 70
     1
  9
$SPLFRAME
 70
     0
  9
$SPLINETYPE
 70
     6
  9
$SPLINESEGS
 70
     8
  9
$ATTDIA
 70
     0
  9
$ATTREQ
 70
     1
  9
$HANDLING
 70
     1
  9
$HANDSEED
  5
1EFB
  9
$SURFTAB1
 70
     6
  9
$SURFTAB2
 70
     6
  9
$SURFTYPE
 70
     6
  9
$SURFU
 70
     6
  9
$SURFV
 70
     6
  9
$UCSNAME
  2

  9
$UCSORG
 10
0.0
 20
0.0
 30
0.0
  9
$UCSXDIR
 10
1.0
 20
0.0
 30
0.0
  9
$UCSYDIR
 10
0.0
 20
1.0
 30
0.0
  9
$PUCSNAME
  2

  9
$PUCSORG
 10
0.0
 20
0.0
 30
0.0
  9
$PUCSXDIR
 10
1.0
 20
0.0
 30
0.0
  9
$PUCSYDIR
 10
0.0
 20
1.0
 30
0.0
  9
$USERI1
 70
     0
  9
$USERI2
 70
     0
  9
$USERI3
 70
     0
  9
$USERI4
 70
     0
  9
$USERI5
 70
     0
  9
$USERR1
 40
0.0
  9
$USERR2
 40
0.0
  9
$USERR3
 40
0.0
  9
$USERR4
 40
0.0
  9
$USERR5
 40
0.0
  9
$WORLDVIEW
 70
     1
  9
$SHADEDGE
 70
     1
  9
$SHADEDIF
 70
    70
  9
$TILEMODE
 70
     1
  9
$MAXACTVP
 70
    16
  9
$PLIMCHECK
 70
     0
  9
$PEXTMIN
 10
3.7456423012465052
 20
-0.0043171380120839
 30
-0.0015258207003583
  9
$PEXTMAX
 10
188.45270920080051
 20
283.00283307759548
 30
0.0000000349246037
  9
$PLIMMIN
 10
-14.12592836160286
 20
-5.4102505909481797
  9
$PLIMMAX
 10
195.84739927511589
 20
291.55807216295813
  9
$UNITMODE
 70
     0
  9
$VISRETAIN
 70
     1
  9
$PLINEGEN
 70
     0
  9
$PSLTSCALE
 70
     1
  0
ENDSEC
  0
SECTION
  2
TABLES
  0
TABLE
  2
VPORT
 70
     1
  0
VPORT
  2
*ACTIVE
 70
     0
 10
0.0
 20
0.0
 11
1.0
 21
1.0
 12
65.353914339681936
 22
55.57686181415292
 13
0.0
 23
0.0
 14
5.0
 24
5.0
 15
10.0
 25
10.0
 16
0.0
 26
0.0
 36
1.0
 17
0.0
 27
0.0
 37
0.0
 40
171.3606015884628
 41
1.556552962298025
 42
50.0
 43
0.0
 44
0.0
 50
0.0
 51
0.0
 71
     0
 72
   100
 73
     1
 74
     0
 75
     0
 76
     0
 77
     0
 78
     1
  0
ENDTAB
  0
TABLE
  2
LTYPE
 70
    17
  0
LTYPE
  2
CONTINUOUS
 70
     0
  3
Solid line
 72
    65
 73
     0
 40
0.0
  0
LTYPE
  2
BYGG-014247$0$DASHDOT
 70
     0
  3
__ . __ . __ . __ . __ . __ . __ . __ . __ . __
 72
    65
 73
     4
 40
1.0
 49
0.5
 49
-0.25
 49
0.0
 49
-0.25
  0
LTYPE
  2
BYGG-014565$0$NEWDOT
 70
     0
  3
____ . ____ . ____ . ____ . ____ . ____ . ____
 72
    65
 73
     4
 40
2.0
 49
1.0
 49
-0.5
 49
0.0
 49
-0.5
  0
LTYPE
  2
BYGG-022308$0$NEWDOT
 70
     0
  3
____ . ____ . ____ . ____ . ____ . ____ . ____
 72
    65
 73
     4
 40
2.0
 49
1.0
 49
-0.5
 49
0.0
 49
-0.5
  0
LTYPE
  2
BYGG-022308$0$DASHDOT
 70
     0
  3
__ . __ . __ . __ . __ . __ . __ . __ . __ . __
 72
    65
 73
     4
 40
1.0
 49
0.5
 49
-0.25
 49
0.0
 49
-0.25
  0
LTYPE
  2
BYGG-022308$0$DASHED
 70
     0
  3
__ __ __ __ __ __ __ __ __ __ __ __ __ __ __
 72
    65
 73
     2
 40
0.75
 49
0.5
 49
-0.25
  0
LTYPE
  2
BYGG-022308$0$PHANTOM
 70
     0
  3
Phantom ______  __  __  ______  __  __  ______
 72
    65
 73
     6
 40
63.5
 49
31.75
 49
-6.3499999999999988
 49
6.3499999999999988
 49
-6.3499999999999988
 49
6.3499999999999988
 49
-6.3499999999999988
  0
LTYPE
  2
BYGG-014533$0$NEWDOT
 70
     0
  3
____ . ____ . ____ . ____ . ____ . ____ . ____
 72
    65
 73
     4
 40
2.0
 49
1.0
 49
-0.5
 49
0.0
 49
-0.5
  0
LTYPE
  2
BYGG-026564$0$NEWDOT
 70
     0
  3
____ . ____ . ____ . ____ . ____ . ____ . ____
 72
    65
 73
     4
 40
2.0
 49
1.0
 49
-0.5
 49
0.0
 49
-0.5
  0
LTYPE
  2
BYGG-026564$0$DASHDOT
 70
     0
  3
__ . __ . __ . __ . __ . __ . __ . __ . __ . __
 72
    65
 73
     4
 40
1.0
 49
0.5
 49
-0.25
 49
0.0
 49
-0.25
  0
LTYPE
  2
BYGG-026564$0$DASHED
 70
     0
  3
__ __ __ __ __ __ __ __ __ __ __ __ __ __ __
 72
    65
 73
     2
 40
0.75
 49
0.5
 49
-0.25
  0
LTYPE
  2
BYGG-026564$0$PHANTOM
 70
     0
  3
Phantom ______  __  __  ______  __  __  ______
 72
    65
 73
     6
 40
63.5
 49
31.75
 49
-6.3499999999999988
 49
6.3499999999999988
 49
-6.3499999999999988
 49
6.3499999999999988
 49
-6.3499999999999988
  0
LTYPE
  2
BYGG-026564$0$HIDDEN
 70
     0
  3
_ _ _ _ _ _ _ _ _ _ _ _ _ _ _ _ _ _ _ _ _ _ _
 72
    65
 73
     2
 40
0.375
 49
0.25
 49
-0.125
  0
LTYPE
  2
BYGG-014565$0$ZIGZAG
 70
     0
  3
Zig zag /\/\/\/\/\/\/\/\/\/\/\/\/\/\/\/\/\/\/\/\/\/\/\/
 72
    65
 73
     4
 40
20.32254
 49
0.00254
 49
-5.0800000000000001
 49
-10.16
 49
-5.0800000000000001
  0
LTYPE
  2
BYGG-014533$0$ZIGZAG
 70
     0
  3
Zig zag /\/\/\/\/\/\/\/\/\/\/\/\/\/\/\/\/\/\/\/\/\/\/\/
 72
    65
 73
     4
 40
20.32254
 49
0.00254
 49
-5.0800000000000001
 49
-10.16
 49
-5.0800000000000001
  0
LTYPE
  2
BYGG-014202$0$ZIGZAG
 70
     0
  3
Zig zag /\/\/\/\/\/\/\/\/\/\/\/\/\/\/\/\/\/\/\/\/\/\/\/
 72
    65
 73
     4
 40
20.32254
 49
0.00254
 49
-5.0800000000000001
 49
-10.16
 49
-5.0800000000000001
  0
LTYPE
  2
BYGG-014202$0$NEWDOT
 70
     0
  3
____ . ____ . ____ . ____ . ____ . ____ . ____
 72
    65
 73
     4
 40
2.0
 49
1.0
 49
-0.5
 49
0.0
 49
-0.5
  0
ENDTAB
  0
TABLE
  2
LAYER
 70
    99
  0
LAYER
  2
0
 70
     0
 62
     7
  6
CONTINUOUS
  0
LAYER
  2
DEFPOINTS
 70
     0
 62
     7
  6
CONTINUOUS
  0
LAYER
  2
SAPA_PROFIL
 70
     0
 62
     7
  6
CONTINUOUS
  0
LAYER
  2
SAPA_ARTIKELNR
 70
     0
 62
     4
  6
CONTINUOUS
  0
LAYER
  2
SAPA_MATT
 70
     0
 62
     1
  6
CONTINUOUS
  0
LAYER
  2
SAPA_ANSLUTNING
 70
     0
 62
     6
  6
CONTINUOUS
  0
LAYER
  2
SAPA_LIGHT
 70
     1
 62
     1
  6
CONTINUOUS
  0
LAYER
  2
SAPA_GLAS
 70
     0
 62
     4
  6
CONTINUOUS
  0
LAYER
  2
SAPA_FOGBAND
 70
     0
 62
     2
  6
CONTINUOUS
  0
ENDTAB
  0
TABLE
  2
STYLE
 70
    21
  0
STYLE
  2
STANDARD
 70
     0
 40
0.0
 41
1.0
 50
0.0
 71
     0
 42
0.2
  3
txt
  4

  0
STYLE
  2
ISO
 70
     0
 40
0.0
 41
1.0
 50
0.0
 71
     0
 42
6.0
  3
isocp3.shx
  4

  0
STYLE
  2

 70
     1
 40
0.0
 41
1.0
 50
0.0
 71
     0
 42
0.2
  3
ltypeshp.shx
  4

  0
STYLE
  2
BYGG-021741$0$STANDARD
 70
     0
 40
0.0
 41
1.0
 50
0.0
 71
     0
 42
0.2
  3
txt
  4

  0
STYLE
  2
BYGG-014247$0$STANDARD
 70
     0
 40
0.0
 41
1.0
 50
0.0
 71
     0
 42
0.2
  3
txt
  4

  0
STYLE
  2
BYGG-014247$0$ISO
 70
     0
 40
0.0
 41
1.0
 50
0.0
 71
     0
 42
3.5
  3
isocp3.shx
  4

  0
STYLE
  2
BYGG-026564$0$STANDARD
 70
     0
 40
0.0
 41
1.0
 50
0.0
 71
     0
 42
0.2
  3
txt
  4

  0
STYLE
  2
BYGG-026564$0$ISO
 70
     0
 40
0.0
 41
1.0
 50
0.0
 71
     0
 42
3.5
  3
txt
  4

  0
STYLE
  2
BYGG-026564$0$SIMPLEX
 70
     0
 40
0.0
 41
1.0
 50
0.0
 71
     0
 42
0.4
  3
simplex
  4

  0
STYLE
  2
BYGG-022466$0$STANDARD
 70
     0
 40
0.0
 41
1.0
 50
0.0
 71
     0
 42
0.2
  3
txt
  4

  0
STYLE
  2
BYGG-022466$0$ISO
 70
     0
 40
0.0
 41
1.0
 50
0.0
 71
     0
 42
3.5
  3
txt
  4

  0
STYLE
  2
BYGG-014565$0$STANDARD
 70
     0
 40
0.0
 41
1.0
 50
0.0
 71
     0
 42
0.2
  3
isocp3.shx
  4

  0
STYLE
  2
BYGG-014565$0$ISO
 70
     0
 40
0.0
 41
1.0
 50
0.0
 71
     0
 42
3.5
  3
isocp3.shx
  4

  0
STYLE
  2
BYGG-022308$0$STANDARD
 70
     0
 40
0.0
 41
1.0
 50
0.0
 71
     0
 42
0.2
  3
txt
  4

  0
STYLE
  2
BYGG-022308$0$ISO
 70
     0
 40
0.0
 41
1.0
 50
0.0
 71
     0
 42
3.5
  3
txt
  4

  0
STYLE
  2
BYGG-014533$0$STANDARD
 70
     0
 40
0.0
 41
1.0
 50
0.0
 71
     0
 42
0.2
  3
txt
  4

  0
STYLE
  2
BYGG-014533$0$ISO
 70
     0
 40
0.0
 41
1.0
 50
0.0
 71
     0
 42
2.5
  3
isocp3.shx
  4

  0
STYLE
  2
BYGG-023454$0$STANDARD
 70
     0
 40
0.0
 41
1.0
 50
0.0
 71
     0
 42
0.2
  3
txt
  4

  0
STYLE
  2
BYGG-023454$0$ISO
 70
     0
 40
0.0
 41
1.0
 50
0.0
 71
     0
 42
3.5
  3
txt
  4

  0
STYLE
  2
BYGG-014202$0$STANDARD
 70
     0
 40
0.0
 41
1.0
 50
0.0
 71
     0
 42
0.2
  3
txt
  4

  0
STYLE
  2
BYGG-014202$0$ISO
 70
     0
 40
0.0
 41
1.0
 50
0.0
 71
     0
 42
3.5
  3
isocp3.shx
  4

  0
ENDTAB
  0
TABLE
  2
VIEW
 70
     0
  0
ENDTAB
  0
TABLE
  2
UCS
 70
     0
  0
ENDTAB
  0
TABLE
  2
APPID
 70
    18
  0
APPID
  2
ACAD
 70
     0
  0
APPID
  2
ACAD_DSTYLE_DIMTEXT_FILL
 70
     0
  0
APPID
  2
ACAECLAYERSTANDARD
 70
     0
  0
APPID
  2
ACAD_MLEADERVER
 70
     0
  0
APPID
  2
AMG_ARCHIVE11
 70
     0
  0
APPID
  2
ACAD_DSTYLE_DIMEXT_LENGTH
 70
     0
  0
APPID
  2
ACAD_DSTYLE_DIMEXT_ENABLED
 70
     0
  0
APPID
  2
ACAD_DSTYLE_DIM_LINETYPE
 70
     0
  0
APPID
  2
ACAD_DSTYLE_DIM_EXT1_LINETYPE
 70
     0
  0
APPID
  2
ACAD_DSTYLE_DIM_EXT2_LINETYPE
 70
     0
  0
APPID
  2
ACAD_PSEXT
 70
     0
  0
APPID
  2
ACAD_DSTYLE_DIMJOGGED_JOGA
 70
     0
  0
APPID
  2
ACAD_DSTYLE_DIMARC_LENGTH_
 70
     0
  0
APPID
  2
ACAD_EXEMPT_FROM_CAD_STANDARDS
 70
     0
  0
APPID
  2
ACADANNOTATIVE
 70
     0
  0
APPID
  2
ACAD_DSTYLE_DIMJAG
 70
     0
  0
APPID
  2
ACAD_DSTYLE_DIMTALN
 70
     0
  0
APPID
  2
AEC_XDATA_BOUND_SPACE
 70
     0
  0
ENDTAB
  0
TABLE
  2
DIMSTYLE
 70
    16
  0
DIMSTYLE
  2
MASKIN
 70
     0
  3

  4

  5

  6

  7

 40
0.0
 41
3.0
 42
1.5
 43
10.0
 44
1.5
 45
0.0
 46
0.0
 47
0.0
 48
0.0
140
3.5
141
-5.0
142
0.0
143
25.399999999999999
144
-1.0
145
0.0
146
1.0
147
1.0
 71
     0
 72
     0
 73
     0
 74
     1
 75
     0
 76
     0
 77
     1
 78
     8
170
     0
171
     0
172
     1
173
     0
174
     0
175
     0
176
   256
177
   256
178
     2
  0
DIMSTYLE
  2
BYGG-021741$0$STANDARD
 70
     0
  3

  4

  5

  6

  7

 40
1.0
 41
0.18
 42
0.0625
 43
0.38
 44
0.18
 45
0.0
 46
0.0
 47
0.0
 48
0.0
140
0.18
141
0.09
142
0.0
143
25.399999999999999
144
1.0
145
0.0
146
1.0
147
0.09
 71
     0
 72
     0
 73
     1
 74
     1
 75
     0
 76
     0
 77
     0
 78
     0
170
     0
171
     2
172
     0
173
     0
174
     0
175
     0
176
     0
177
     0
178
     0
  0
DIMSTYLE
  2
BYGG-014247$0$MASKIN
 70
     0
  3

  4

  5

  6

  7

 40
0.0
 41
3.0
 42
1.5
 43
10.0
 44
1.5
 45
0.0
 46
0.0
 47
0.0
 48
0.0
140
3.0
141
-5.0
142
0.0
143
25.399999999999999
144
-1.0
145
0.0
146
1.0
147
1.0
 71
     0
 72
     0
 73
     0
 74
     0
 75
     0
 76
     0
 77
     1
 78
     8
170
     0
171
     0
172
     1
173
     0
174
     0
175
     0
176
   256
177
   256
178
   256
  0
DIMSTYLE
  2
BYGG-026564$0$STANDARD
 70
     0
  3

  4

  5

  6

  7

 40
1.0
 41
0.18
 42
0.0625
 43
0.38
 44
0.18
 45
0.0
 46
0.0
 47
0.0
 48
0.0
140
0.18
141
0.09
142
0.0
143
25.399999999999999
144
1.0
145
0.0
146
1.0
147
0.09
 71
     0
 72
     0
 73
     1
 74
     1
 75
     0
 76
     0
 77
     0
 78
     0
170
     0
171
     2
172
     0
173
     0
174
     0
175
     0
176
     0
177
     0
178
     0
  0
DIMSTYLE
  2
BYGG-026564$0$MASKIN
 70
     0
  3

  4

  5

  6

  7

 40
0.0
 41
3.0
 42
1.5
 43
10.0
 44
1.5
 45
0.0
 46
0.0
 47
0.0
 48
0.0
140
3.0
141
-5.0
142
0.0
143
25.399999999999999
144
-1.0
145
0.0
146
1.0
147
1.0
 71
     0
 72
     0
 73
     0
 74
     0
 75
     0
 76
     0
 77
     1
 78
     8
170
     0
171
     0
172
     1
173
     0
174
     0
175
     0
176
   256
177
   256
178
     2
  0
DIMSTYLE
  2
BYGG-022466$0$MASKIN
 70
     0
  3

  4

  5

  6

  7

 40
0.0
 41
3.0
 42
1.5
 43
10.0
 44
1.5
 45
0.0
 46
0.0
 47
0.0
 48
0.0
140
3.0
141
-5.0
142
0.0
143
25.399999999999999
144
-1.0
145
0.0
146
1.0
147
1.0
 71
     0
 72
     0
 73
     0
 74
     0
 75
     0
 76
     0
 77
     1
 78
     8
170
     0
171
     0
172
     1
173
     0
174
     0
175
     0
176
   256
177
   256
178
     2
  0
DIMSTYLE
  2
BYGG-022466$0$STANDARD
 70
     0
  3

  4

  5

  6

  7

 40
1.0
 41
0.18
 42
0.0625
 43
0.38
 44
0.18
 45
0.0
 46
0.0
 47
0.0
 48
0.0
140
0.18
141
0.09
142
0.0
143
25.399999999999999
144
1.0
145
0.0
146
1.0
147
0.09
 71
     0
 72
     0
 73
     1
 74
     1
 75
     0
 76
     0
 77
     0
 78
     0
170
     0
171
     2
172
     0
173
     0
174
     0
175
     0
176
     0
177
     0
178
     0
  0
DIMSTYLE
  2
BYGG-014565$0$STANDARD
 70
     0
  3

  4

  5

  6

  7

 40
1.0
 41
0.18
 42
0.0625
 43
0.38
 44
0.18
 45
0.0
 46
0.0
 47
0.0
 48
0.0
140
0.18
141
0.09
142
0.0
143
25.399999999999999
144
1.0
145
0.0
146
1.0
147
0.09
 71
     0
 72
     0
 73
     1
 74
     1
 75
     0
 76
     0
 77
     0
 78
     0
170
     0
171
     2
172
     0
173
     0
174
     0
175
     0
176
     0
177
     0
178
     0
  0
DIMSTYLE
  2
BYGG-014565$0$MASKIN
 70
     0
  3

  4

  5

  6

  7

 40
0.0
 41
3.0
 42
1.5
 43
10.0
 44
1.5
 45
0.0
 46
0.0
 47
0.0
 48
0.0
140
3.0
141
-5.0
142
0.0
143
25.399999999999999
144
-1.0
145
0.0
146
1.0
147
1.0
 71
     0
 72
     0
 73
     0
 74
     0
 75
     0
 76
     0
 77
     1
 78
     8
170
     0
171
     0
172
     1
173
     0
174
     0
175
     0
176
   256
177
   256
178
     2
  0
DIMSTYLE
  2
BYGG-022308$0$STANDARD
 70
     0
  3

  4

  5

  6

  7

 40
1.0
 41
0.18
 42
0.0625
 43
0.38
 44
0.18
 45
0.0
 46
0.0
 47
0.0
 48
0.0
140
0.18
141
0.09
142
0.0
143
25.399999999999999
144
1.0
145
0.0
146
1.0
147
0.09
 71
     0
 72
     0
 73
     1
 74
     1
 75
     0
 76
     0
 77
     0
 78
     0
170
     0
171
     2
172
     0
173
     0
174
     0
175
     0
176
     0
177
     0
178
     0
  0
DIMSTYLE
  2
BYGG-022308$0$MASKIN
 70
     0
  3

  4

  5

  6

  7

 40
0.0
 41
3.0
 42
1.5
 43
10.0
 44
1.5
 45
0.0
 46
0.0
 47
0.0
 48
0.0
140
3.0
141
-5.0
142
0.0
143
25.399999999999999
144
-1.0
145
0.0
146
1.0
147
1.0
 71
     0
 72
     0
 73
     0
 74
     0
 75
     0
 76
     0
 77
     1
 78
     8
170
     0
171
     0
172
     1
173
     0
174
     0
175
     0
176
   256
177
   256
178
     2
  0
DIMSTYLE
  2
BYGG-014533$0$STANDARD
 70
     0
  3

  4

  5

  6

  7

 40
1.0
 41
0.18
 42
0.0625
 43
0.38
 44
0.18
 45
0.0
 46
0.0
 47
0.0
 48
0.0
140
0.18
141
0.09
142
0.0
143
25.399999999999999
144
1.0
145
0.0
146
1.0
147
0.09
 71
     0
 72
     0
 73
     1
 74
     1
 75
     0
 76
     0
 77
     0
 78
     0
170
     0
171
     2
172
     0
173
     0
174
     0
175
     0
176
     0
177
     0
178
     0
  0
DIMSTYLE
  2
BYGG-014533$0$MASKIN
 70
     0
  3

  4

  5

  6

  7

 40
0.0
 41
3.0
 42
1.5
 43
10.0
 44
1.5
 45
0.0
 46
0.0
 47
0.0
 48
0.0
140
3.0
141
-5.0
142
0.0
143
25.399999999999999
144
-1.0
145
0.0
146
1.0
147
1.0
 71
     0
 72
     0
 73
     0
 74
     1
 75
     0
 76
     0
 77
     1
 78
     8
170
     0
171
     0
172
     1
173
     0
174
     0
175
     0
176
   256
177
   256
178
     2
  0
DIMSTYLE
  2
BYGG-023454$0$MASKIN
 70
     0
  3

  4

  5

  6

  7

 40
0.0
 41
3.0
 42
1.5
 43
10.0
 44
1.5
 45
0.0
 46
0.0
 47
0.0
 48
0.0
140
3.0
141
-5.0
142
0.0
143
25.399999999999999
144
-1.0
145
0.0
146
1.0
147
1.0
 71
     0
 72
     0
 73
     0
 74
     0
 75
     0
 76
     0
 77
     1
 78
     8
170
     0
171
     0
172
     1
173
     0
174
     0
175
     0
176
   256
177
   256
178
     2
  0
DIMSTYLE
  2
BYGG-014202$0$MASKIN
 70
     0
  3

  4

  5

  6

  7

 40
0.0
 41
3.0
 42
1.5
 43
10.0
 44
1.5
 45
0.0
 46
0.0
 47
0.0
 48
0.0
140
3.0
141
-5.0
142
0.0
143
25.399999999999999
144
-1.0
145
0.0
146
1.0
147
1.0
 71
     0
 72
     0
 73
     0
 74
     0
 75
     0
 76
     0
 77
     1
 78
     8
170
     0
171
     0
172
     1
173
     0
174
     0
175
     0
176
   256
177
   256
178
   256
  0
DIMSTYLE
  2
BYGG-014202$0$STANDARD
 70
     0
  3

  4

  5

  6

  7

 40
1.0
 41
0.18
 42
0.0625
 43
0.38
 44
0.18
 45
0.0
 46
0.0
 47
0.0
 48
0.0
140
0.18
141
0.09
142
0.0
143
25.399999999999999
144
1.0
145
0.0
146
1.0
147
0.09
 71
     0
 72
     0
 73
     1
 74
     1
 75
     0
 76
     0
 77
     0
 78
     0
170
     0
171
     2
172
     0
173
     0
174
     0
175
     0
176
     0
177
     0
178
     0
  0
ENDTAB
  0
ENDSEC
  0
SECTION
  2
BLOCKS
  0
BLOCK
  8
0
  2
$MODEL_SPACE
 70
     0
 10
0.0
 20
0.0
 30
0.0
  3
$MODEL_SPACE
  1

  0
ENDBLK
  5
9
  8
0
  0
BLOCK
 67
     1
  8
0
  2
$PAPER_SPACE
 70
     0
 10
0.0
 20
0.0
 30
0.0
  3
$PAPER_SPACE
  1

  0
ENDBLK
  5
E
 67
     1
  8
0
  0
BLOCK
  8
SAPA_PROFIL
  2
*D0
 70
     1
 10
0.0
 20
0.0
 30
0.0
  3
*D0
  1

  0
LINE
  5
F09
  8
SAPA_MATT
 10
173.0000000000002
 20
7.3499999999999091
 30
0.0
 11
173.0000000000002
 21
-29.650000000000261
 31
0.0
  0
LINE
  5
F0A
  8
SAPA_MATT
 10
-21.999999999999972
 20
7.8499999999998797
 30
0.0
 11
-21.999999999999972
 21
-29.650000000000261
 31
0.0
  0
LINE
  5
F0B
  8
SAPA_MATT
 10
170.0000000000002
 20
-28.150000000000261
 30
0.0
 11
-18.999999999999972
 21
-28.150000000000261
 31
0.0
  0
SOLID
  5
F0C
  8
SAPA_MATT
 10
170.0000000000002
 20
-27.650000000000261
 30
0.0
 11
170.0000000000002
 21
-28.650000000000261
 31
0.0
 12
173.0000000000002
 22
-28.150000000000261
 32
0.0
 13
173.0000000000002
 23
-28.150000000000261
 33
0.0
  0
SOLID
  5
F0D
  8
SAPA_MATT
 10
-18.999999999999972
 20
-27.650000000000261
 30
0.0
 11
-18.999999999999972
 21
-28.650000000000261
 31
0.0
 12
-21.999999999999972
 22
-28.150000000000261
 32
0.0
 13
-21.999999999999972
 23
-28.150000000000261
 33
0.0
  0
INSERT
  5
F0E
  8
0
  2
*U60
 10
0.0
 20
0.0
 30
0.0
  0
POINT
  5
F0F
  8
DEFPOINTS
 62
     0
 10
173.0000000000002
 20
8.8499999999999091
 30
0.0
  0
POINT
  5
F10
  8
DEFPOINTS
 62
     0
 10
-21.999999999999972
 20
9.3499999999998806
 30
0.0
  0
POINT
  5
F11
  8
DEFPOINTS
 62
     0
 10
-21.999999999999972
 20
-28.150000000000261
 30
0.0
  0
ENDBLK
  5
1FF
  8
SAPA_PROFIL
  0
BLOCK
  8
0
  2
*D12
 70
     1
 10
0.0
 20
0.0
 30
0.0
  3
*D12
  1

  0
LINE
  5
F2D
  8
SAPA_MATT
 10
3.742640687119049
 20
3.850000000000108
 30
0.0
 11
-54.49999999999995
 21
3.850000000000124
 31
0.0
  0
LINE
  5
F2E
  8
SAPA_MATT
 10
3.74264068711912
 20
63.850000000000108
 30
0.0
 11
-54.499999999999943
 21
63.850000000000129
 31
0.0
  0
LINE
  5
F2F
  8
SAPA_MATT
 10
-52.999999999999957
 20
6.850000000000124
 30
0.0
 11
-52.999999999999943
 21
60.850000000000129
 31
0.0
  0
SOLID
  5
F30
  8
SAPA_MATT
 10
-53.499999999999957
 20
6.850000000000124
 30
0.0
 11
-52.499999999999957
 21
6.850000000000124
 31
0.0
 12
-52.999999999999957
 22
3.850000000000124
 32
0.0
 13
-52.999999999999957
 23
3.850000000000124
 33
0.0
  0
SOLID
  5
F31
  8
SAPA_MATT
 10
-53.499999999999943
 20
60.850000000000129
 30
0.0
 11
-52.499999999999943
 21
60.850000000000129
 31
0.0
 12
-52.999999999999943
 22
63.850000000000129
 32
0.0
 13
-52.999999999999943
 23
63.850000000000129
 33
0.0
  0
INSERT
  5
F32
  8
0
  2
*U64
 10
0.0
 20
0.0
 30
0.0
  0
POINT
  5
F33
  8
DEFPOINTS
 62
     0
 10
5.2426406871190494
 20
3.850000000000108
 30
0.0
  0
POINT
  5
F34
  8
DEFPOINTS
 62
     0
 10
5.2426406871191196
 20
63.850000000000108
 30
0.0
  0
POINT
  5
F35
  8
DEFPOINTS
 62
     0
 10
-52.999999999999943
 20
63.850000000000129
 30
0.0
  0
ENDBLK
  5
E35
  8
0
  0
BLOCK
  8
0
  2
*X35
 70
     1
 10
0.0
 20
0.0
 30
0.0
  3
*X35
  1

  0
LINE
  5
10E9
  8
0
 62
     0
 10
468.125
 20
441.875
 30
0.0
 11
468.125
 21
441.875
 31
0.0
  0
LINE
  5
10EA
  8
0
 62
     0
 10
470.3125
 20
441.875
 30
0.0
 11
470.3125
 21
441.875
 31
0.0
  0
LINE
  5
10EB
  8
0
 62
     0
 10
472.5
 20
441.875
 30
0.0
 11
472.5
 21
441.875
 31
0.0
  0
LINE
  5
10EC
  8
0
 62
     0
 10
469.21875
 20
444.06249999999989
 30
0.0
 11
469.21875
 21
444.06249999999989
 31
0.0
  0
LINE
  5
10ED
  8
0
 62
     0
 10
471.40624999999989
 20
444.06249999999989
 30
0.0
 11
471.40624999999989
 21
444.06249999999989
 31
0.0
  0
LINE
  5
10EE
  8
0
 62
     0
 10
468.125
 20
446.25
 30
0.0
 11
468.125
 21
446.25
 31
0.0
  0
LINE
  5
10EF
  8
0
 62
     0
 10
470.3125
 20
446.25
 30
0.0
 11
470.3125
 21
446.25
 31
0.0
  0
LINE
  5
10F0
  8
0
 62
     0
 10
472.5
 20
446.25
 30
0.0
 11
472.5
 21
446.25
 31
0.0
  0
LINE
  5
10F1
  8
0
 62
     0
 10
469.21875
 20
448.4375
 30
0.0
 11
469.21875
 21
448.4375
 31
0.0
  0
LINE
  5
10F2
  8
0
 62
     0
 10
471.40624999999989
 20
448.4375
 30
0.0
 11
471.40624999999989
 21
448.4375
 31
0.0
  0
LINE
  5
10F3
  8
0
 62
     0
 10
468.125
 20
450.625
 30
0.0
 11
468.125
 21
450.625
 31
0.0
  0
LINE
  5
10F4
  8
0
 62
     0
 10
470.3125
 20
450.625
 30
0.0
 11
470.3125
 21
450.625
 31
0.0
  0
LINE
  5
10F5
  8
0
 62
     0
 10
472.5
 20
450.625
 30
0.0
 11
472.5
 21
450.625
 31
0.0
  0
LINE
  5
10F6
  8
0
 62
     0
 10
469.21875
 20
439.6875
 30
0.0
 11
469.21875
 21
439.6875
 31
0.0
  0
LINE
  5
10F7
  8
0
 62
     0
 10
471.40624999999989
 20
439.6875
 30
0.0
 11
471.40624999999989
 21
439.6875
 31
0.0
  0
LINE
  5
10F8
  8
0
 62
     0
 10
463.75
 20
437.5
 30
0.0
 11
463.75
 21
437.5
 31
0.0
  0
LINE
  5
10F9
  8
0
 62
     0
 10
465.93749999999989
 20
437.5
 30
0.0
 11
465.93749999999989
 21
437.5
 31
0.0
  0
LINE
  5
10FA
  8
0
 62
     0
 10
468.125
 20
437.5
 30
0.0
 11
468.125
 21
437.5
 31
0.0
  0
LINE
  5
10FB
  8
0
 62
     0
 10
470.3125
 20
437.5
 30
0.0
 11
470.3125
 21
437.5
 31
0.0
  0
LINE
  5
10FC
  8
0
 62
     0
 10
472.5
 20
437.5
 30
0.0
 11
472.5
 21
437.5
 31
0.0
  0
LINE
  5
10FD
  8
0
 62
     0
 10
464.84375
 20
435.3125
 30
0.0
 11
464.84375
 21
435.3125
 31
0.0
  0
LINE
  5
10FE
  8
0
 62
     0
 10
467.03125
 20
435.3125
 30
0.0
 11
467.03125
 21
435.3125
 31
0.0
  0
LINE
  5
10FF
  8
0
 62
     0
 10
469.21875
 20
435.3125
 30
0.0
 11
469.21875
 21
435.3125
 31
0.0
  0
LINE
  5
1100
  8
0
 62
     0
 10
471.40624999999989
 20
435.3125
 30
0.0
 11
471.40624999999989
 21
435.3125
 31
0.0
  0
ENDBLK
  5
1101
  8
0
  0
BLOCK
  8
0
  2
*D54
 70
     1
 10
0.0
 20
0.0
 30
0.0
  3
*D54
  1

  0
LINE
  5
133F
  8
SAPA_MATT
 10
-21.999999999999989
 20
7.8499999999999091
 30
0.0
 11
-21.999999999999989
 21
-17.65000000000023
 31
0.0
  0
LINE
  5
1340
  8
SAPA_MATT
 10
98.000000000000256
 20
6.764213562373242
 30
0.0
 11
98.000000000000256
 21
-17.65000000000023
 31
0.0
  0
LINE
  5
1341
  8
SAPA_MATT
 10
-18.999999999999979
 20
-16.15000000000023
 30
0.0
 11
95.000000000000242
 21
-16.15000000000023
 31
0.0
  0
SOLID
  5
1342
  8
SAPA_MATT
 10
-18.999999999999979
 20
-15.65000000000023
 30
0.0
 11
-18.999999999999979
 21
-16.65000000000023
 31
0.0
 12
-21.999999999999989
 22
-16.15000000000023
 32
0.0
 13
-21.999999999999989
 23
-16.15000000000023
 33
0.0
  0
SOLID
  5
1343
  8
SAPA_MATT
 10
95.000000000000242
 20
-15.65000000000023
 30
0.0
 11
95.000000000000242
 21
-16.65000000000023
 31
0.0
 12
98.000000000000256
 22
-16.15000000000023
 32
0.0
 13
98.000000000000256
 23
-16.15000000000023
 33
0.0
  0
INSERT
  5
1344
  8
0
  2
*U93
 10
0.0
 20
0.0
 30
0.0
  0
POINT
  5
1345
  8
DEFPOINTS
 62
     0
 10
-21.999999999999989
 20
9.3499999999999091
 30
0.0
  0
POINT
  5
1346
  8
DEFPOINTS
 62
     0
 10
98.000000000000256
 20
8.2642135623732411
 30
0.0
  0
POINT
  5
1347
  8
DEFPOINTS
 62
     0
 10
98.000000000000256
 20
-16.15000000000023
 30
0.0
  0
ENDBLK
  5
130B
  8
0
  0
BLOCK
  8
0
  2
*D55
 70
     1
 10
0.0
 20
0.0
 30
0.0
  3
*D55
  1

  0
LINE
  5
1336
  8
SAPA_MATT
 10
98.000000000000256
 20
6.764213562373242
 30
0.0
 11
98.000000000000256
 21
-17.650000000000201
 31
0.0
  0
LINE
  5
1337
  8
SAPA_MATT
 10
128.0000000000004
 20
7.3499999999999366
 30
0.0
 11
128.0000000000004
 21
-17.650000000000201
 31
0.0
  0
LINE
  5
1338
  8
SAPA_MATT
 10
101.0000000000002
 20
-16.150000000000201
 30
0.0
 11
125.0000000000004
 21
-16.150000000000201
 31
0.0
  0
SOLID
  5
1339
  8
SAPA_MATT
 10
101.0000000000002
 20
-15.650000000000199
 30
0.0
 11
101.0000000000002
 21
-16.650000000000201
 31
0.0
 12
98.000000000000256
 22
-16.150000000000201
 32
0.0
 13
98.000000000000256
 23
-16.150000000000201
 33
0.0
  0
SOLID
  5
133A
  8
SAPA_MATT
 10
125.0000000000004
 20
-15.650000000000199
 30
0.0
 11
125.0000000000004
 21
-16.650000000000201
 31
0.0
 12
128.0000000000004
 22
-16.150000000000201
 32
0.0
 13
128.0000000000004
 23
-16.150000000000201
 33
0.0
  0
INSERT
  5
133B
  8
0
  2
*U92
 10
0.0
 20
0.0
 30
0.0
  0
POINT
  5
133C
  8
DEFPOINTS
 62
     0
 10
98.000000000000256
 20
8.2642135623732411
 30
0.0
  0
POINT
  5
133D
  8
DEFPOINTS
 62
     0
 10
128.0000000000004
 20
8.8499999999999375
 30
0.0
  0
POINT
  5
133E
  8
DEFPOINTS
 62
     0
 10
128.0000000000004
 20
-16.150000000000201
 30
0.0
  0
ENDBLK
  5
1317
  8
0
  0
BLOCK
  8
0
  2
*D56
 70
     1
 10
0.0
 20
0.0
 30
0.0
  3
*D56
  1

  0
LINE
  5
132D
  8
SAPA_MATT
 10
128.0000000000004
 20
7.3499999999999366
 30
0.0
 11
128.0000000000004
 21
-17.650000000000201
 31
0.0
  0
LINE
  5
132E
  8
SAPA_MATT
 10
173.0000000000004
 20
7.3499999999999091
 30
0.0
 11
173.0000000000004
 21
-17.650000000000201
 31
0.0
  0
LINE
  5
132F
  8
SAPA_MATT
 10
131.0000000000004
 20
-16.150000000000201
 30
0.0
 11
170.0000000000004
 21
-16.150000000000201
 31
0.0
  0
SOLID
  5
1330
  8
SAPA_MATT
 10
131.0000000000004
 20
-15.650000000000199
 30
0.0
 11
131.0000000000004
 21
-16.650000000000201
 31
0.0
 12
128.0000000000004
 22
-16.150000000000201
 32
0.0
 13
128.0000000000004
 23
-16.150000000000201
 33
0.0
  0
SOLID
  5
1331
  8
SAPA_MATT
 10
170.0000000000004
 20
-15.650000000000199
 30
0.0
 11
170.0000000000004
 21
-16.650000000000201
 31
0.0
 12
173.0000000000004
 22
-16.150000000000201
 32
0.0
 13
173.0000000000004
 23
-16.150000000000201
 33
0.0
  0
INSERT
  5
1332
  8
0
  2
*U91
 10
0.0
 20
0.0
 30
0.0
  0
POINT
  5
1333
  8
DEFPOINTS
 62
     0
 10
128.0000000000004
 20
8.8499999999999375
 30
0.0
  0
POINT
  5
1334
  8
DEFPOINTS
 62
     0
 10
173.0000000000004
 20
8.8499999999999091
 30
0.0
  0
POINT
  5
1335
  8
DEFPOINTS
 62
     0
 10
173.0000000000004
 20
-16.150000000000201
 30
0.0
  0
ENDBLK
  5
1323
  8
0
  0
BLOCK
  8
0
  2
*X57
 70
     1
 10
0.0
 20
0.0
 30
0.0
  3
*X57
  1

  0
LINE
  5
1366
  8
0
 62
     0
 10
187.9972986342994
 20
47.55072707317467
 30
0.0
 11
188.0000000000004
 21
47.553428438875628
 31
0.0
  0
LINE
  5
1367
  8
0
 62
     0
 10
187.79041425558
 20
48.46637470958887
 30
0.0
 11
188.0000000000004
 21
48.675960454009271
 31
0.0
  0
LINE
  5
1368
  8
0
 62
     0
 10
187.38567666605681
 20
49.184169135199369
 30
0.0
 11
188.0000000000004
 21
49.798492469142921
 31
0.0
  0
LINE
  5
1369
  8
0
 62
     0
 10
186.86253896785919
 20
49.783563452135368
 30
0.0
 11
188.0000000000004
 21
50.921024484276558
 31
0.0
  0
LINE
  5
136A
  8
0
 62
     0
 10
186.2542083161309
 20
50.297764815540702
 30
0.0
 11
188.0000000000004
 21
52.043556499410208
 31
0.0
  0
LINE
  5
136B
  8
0
 62
     0
 10
185.57808139895039
 20
50.744169913493913
 30
0.0
 11
188.0000000000004
 21
53.166088514543858
 31
0.0
  0
LINE
  5
136C
  8
0
 62
     0
 10
184.8443061774835
 20
51.132926707160578
 30
0.0
 11
188.0000000000004
 21
54.288620529677509
 31
0.0
  0
LINE
  5
136D
  8
0
 62
     0
 10
184.05905825304609
 20
51.470210797856872
 30
0.0
 11
188.0000000000004
 21
55.411152544811152
 31
0.0
  0
LINE
  5
136E
  8
0
 62
     0
 10
183.2260146069255
 20
51.759699166869879
 30
0.0
 11
188.0000000000004
 21
56.533684559944788
 31
0.0
  0
LINE
  5
136F
  8
0
 62
     0
 10
182.3470636193301
 20
52.00328019440812
 30
0.0
 11
188.0000000000004
 21
57.656216575078439
 31
0.0
  0
LINE
  5
1370
  8
0
 62
     0
 10
181.42262434370389
 20
52.201372933915607
 30
0.0
 11
188.0000000000004
 21
58.778748590212082
 31
0.0
  0
LINE
  5
1371
  8
0
 62
     0
 10
180.45171333195739
 20
52.352993937302728
 30
0.0
 11
186.53134030938139
 21
58.432620914726812
 31
0.0
  0
LINE
  5
1372
  8
0
 62
     0
 10
179.43178551497209
 20
52.455598135451069
 30
0.0
 11
185.09266840578081
 21
58.11648102625977
 31
0.0
  0
LINE
  5
1373
  8
0
 62
     0
 10
178.35828461948961
 20
52.504629255102202
 30
0.0
 11
183.75542153914651
 21
57.901766174759182
 31
0.0
  0
LINE
  5
1374
  8
0
 62
     0
 10
177.2236953816078
 20
52.49257203235409
 30
0.0
 11
182.4987610157869
 21
57.767637666533211
 31
0.0
  0
LINE
  5
1375
  8
0
 62
     0
 10
176.01554468945761
 20
52.406953355337478
 30
0.0
 11
181.30863332596209
 21
57.700041991842028
 31
0.0
  0
LINE
  5
1376
  8
0
 62
     0
 10
174.71171862397301
 20
52.225659304986529
 30
0.0
 11
180.17502656530661
 21
57.688967246320182
 31
0.0
  0
LINE
  5
1377
  8
0
 62
     0
 10
173.266965817021
 20
51.903438513168233
 30
0.0
 11
179.0905107340183
 21
57.726983430165497
 31
0.0
  0
LINE
  5
1378
  8
0
 62
     0
 10
171.55364051300819
 20
51.312645224289007
 30
0.0
 11
178.049395488084
 21
57.808400199364868
 31
0.0
  0
LINE
  5
1379
  8
0
 62
     0
 10
168.0000000000004
 20
47.7590047112812
 30
0.0
 11
168.02381523787241
 21
47.782819949153193
 31
0.0
  0
LINE
  5
137A
  8
0
 62
     0
 10
168.0000000000004
 20
48.881536726414851
 30
0.0
 11
177.0472130147821
 21
57.928749741196611
 31
0.0
  0
LINE
  5
137B
  8
0
 62
     0
 10
168.0000000000004
 20
50.004068741548487
 30
0.0
 11
176.0803845218345
 21
58.084453263382642
 31
0.0
  0
LINE
  5
137C
  8
0
 62
     0
 10
173.0000000000004
 20
56.12660075668213
 30
0.0
 11
175.145996384478
 21
58.272597141159771
 31
0.0
  0
LINE
  5
137D
  8
0
 62
     0
 10
168.0000000000004
 20
51.126600756682151
 30
0.0
 11
171.72339924331811
 21
54.849999999999909
 31
0.0
  0
LINE
  5
137E
  8
0
 62
     0
 10
173.0000000000004
 20
57.249132771815781
 30
0.0
 11
174.24164485048621
 21
58.490777622301657
 31
0.0
  0
LINE
  5
137F
  8
0
 62
     0
 10
168.0000000000004
 20
52.249132771815781
 30
0.0
 11
171.0000000000004
 21
55.249132771815781
 31
0.0
  0
LINE
  5
1380
  8
0
 62
     0
 10
173.0000000000004
 20
58.371664786949431
 30
0.0
 11
173.3653252793633
 21
58.736990066312359
 31
0.0
  0
LINE
  5
1381
  8
0
 62
     0
 10
168.0000000000004
 20
53.371664786949431
 30
0.0
 11
171.0000000000004
 21
56.371664786949417
 31
0.0
  0
LINE
  5
1382
  8
0
 62
     0
 10
168.0000000000004
 20
54.494196802083081
 30
0.0
 11
170.55580319791719
 21
57.049999999999947
 31
0.0
  0
LINE
  5
1383
  8
0
 62
     0
 10
168.0000000000004
 20
55.616728817216732
 30
0.0
 11
169.43327118278361
 21
57.049999999999947
 31
0.0
  0
LINE
  5
1384
  8
0
 62
     0
 10
168.0000000000004
 20
56.739260832350368
 30
0.0
 11
168.3107391676499
 21
57.04999999999994
 31
0.0
  0
LINE
  5
1385
  8
0
 62
     0
 10
188.0000000000004
 20
57.96458098368673
 30
0.0
 11
187.32000645301869
 21
58.6445745306684
 31
0.0
  0
LINE
  5
1386
  8
0
 62
     0
 10
188.0000000000004
 20
56.84204896855308
 30
0.0
 11
186.43373127762291
 21
58.408317690930588
 31
0.0
  0
LINE
  5
1387
  8
0
 62
     0
 10
188.0000000000004
 20
55.719516953419443
 30
0.0
 11
185.5187376644736
 21
58.20077928894618
 31
0.0
  0
LINE
  5
1388
  8
0
 62
     0
 10
188.0000000000004
 20
54.596984938285793
 30
0.0
 11
184.57288691010751
 21
58.024098028178649
 31
0.0
  0
LINE
  5
1389
  8
0
 62
     0
 10
188.0000000000004
 20
53.474452923152157
 30
0.0
 11
183.59360510940269
 21
57.880847813749838
 31
0.0
  0
LINE
  5
138A
  8
0
 62
     0
 10
188.0000000000004
 20
52.351920908018514
 30
0.0
 11
182.57775831792429
 21
57.77416259009464
 31
0.0
  0
LINE
  5
138B
  8
0
 62
     0
 10
188.0000000000004
 20
51.22938889288487
 30
0.0
 11
181.521475847293
 21
57.707913045592257
 31
0.0
  0
LINE
  5
138C
  8
0
 62
     0
 10
188.0000000000004
 20
50.10685687775122
 30
0.0
 11
180.419892658566
 21
57.68696421918559
 31
0.0
  0
LINE
  5
138D
  8
0
 62
     0
 10
188.0000000000004
 20
48.984324862617576
 30
0.0
 11
179.26676031652991
 21
57.71756454608802
 31
0.0
  0
LINE
  5
138E
  8
0
 62
     0
 10
184.62943922507989
 20
51.232353622404389
 30
0.0
 11
178.05383365307151
 21
57.807959194412781
 31
0.0
  0
LINE
  5
138F
  8
0
 62
     0
 10
188.0000000000004
 20
47.861792847483933
 30
0.0
 11
187.95657629750369
 21
47.905216549980608
 31
0.0
  0
LINE
  5
1390
  8
0
 62
     0
 10
182.8754031146494
 20
51.863857717701229
 30
0.0
 11
176.76985083938999
 21
57.969409992960692
 31
0.0
  0
LINE
  5
1391
  8
0
 62
     0
 10
181.41371041916
 20
52.20301839805699
 30
0.0
 11
175.39871775085001
 21
58.218011066366969
 31
0.0
  0
LINE
  5
1392
  8
0
 62
     0
 10
180.09941322504321
 20
52.394783577040151
 30
0.0
 11
173.91597034038369
 21
58.578226461699707
 31
0.0
  0
LINE
  5
1393
  8
0
 62
     0
 10
178.88362917510909
 20
52.488035611840672
 30
0.0
 11
173.0000000000004
 21
58.371664786949353
 31
0.0
  0
LINE
  5
1394
  8
0
 62
     0
 10
177.7429223824511
 20
52.506210389365002
 30
0.0
 11
173.0000000000004
 21
57.249132771815702
 31
0.0
  0
LINE
  5
1395
  8
0
 62
     0
 10
176.6641963306827
 20
52.46240442599975
 30
0.0
 11
173.0000000000004
 21
56.126600756682059
 31
0.0
  0
LINE
  5
1396
  8
0
 62
     0
 10
171.0000000000004
 20
57.00406874154843
 30
0.0
 11
170.95406874154889
 21
57.049999999999947
 31
0.0
  0
LINE
  5
1397
  8
0
 62
     0
 10
175.63958834038479
 20
52.364480401164059
 30
0.0
 11
172.57703437077461
 21
55.427034370774159
 31
0.0
  0
LINE
  5
1398
  8
0
 62
     0
 10
171.0000000000004
 20
55.88153672641478
 30
0.0
 11
169.83153672641521
 21
57.04999999999994
 31
0.0
  0
LINE
  5
1399
  8
0
 62
     0
 10
174.6643209223962
 20
52.21721580401892
 30
0.0
 11
172.0157683632078
 21
54.865768363207351
 31
0.0
  0
LINE
  5
139A
  8
0
 62
     0
 10
173.73568898603079
 20
52.023315725250697
 30
0.0
 11
168.70900471128161
 21
57.04999999999994
 31
0.0
  0
LINE
  5
139B
  8
0
 62
     0
 10
172.8525763344075
 20
51.783896361740382
 30
0.0
 11
168.0000000000004
 21
56.636472696147507
 31
0.0
  0
LINE
  5
139C
  8
0
 62
     0
 10
172.01527416575999
 20
51.498666515254271
 30
0.0
 11
168.0000000000004
 21
55.513940681013857
 31
0.0
  0
LINE
  5
139D
  8
0
 62
     0
 10
171.22552743101261
 20
51.16588123486801
 30
0.0
 11
168.0000000000004
 21
54.391408665880199
 31
0.0
  0
LINE
  5
139E
  8
0
 62
     0
 10
170.4868273863284
 20
50.78204926441849
 30
0.0
 11
168.0000000000004
 21
53.26887665074657
 31
0.0
  0
LINE
  5
139F
  8
0
 62
     0
 10
169.80507548302609
 20
50.341269152587167
 30
0.0
 11
168.0000000000004
 21
52.14634463561292
 31
0.0
  0
LINE
  5
13A0
  8
0
 62
     0
 10
169.18995980102599
 20
49.833852819453703
 30
0.0
 11
168.0000000000004
 21
51.023812620479283
 31
0.0
  0
LINE
  5
13A1
  8
0
 62
     0
 10
168.6579844185234
 20
49.243296186822562
 30
0.0
 11
168.0000000000004
 21
49.90128060534564
 31
0.0
  0
LINE
  5
13A2
  8
0
 62
     0
 10
168.24023440838539
 20
48.538514181826962
 30
0.0
 11
168.0000000000004
 21
48.77874859021199
 31
0.0
  0
LINE
  5
13A3
  8
0
 62
     0
 10
168.00893648556749
 20
47.647280089511192
 30
0.0
 11
168.0000000000004
 21
47.656216575078354
 31
0.0
  0
ENDBLK
  5
13A5
  8
0
  0
BLOCK
  8
0
  2
*X58
 70
     1
 10
0.0
 20
0.0
 30
0.0
  3
*X58
  1

  0
LINE
  5
13A7
  8
0
 62
     0
 10
188.0000000000004
 20
20.762947229451122
 30
0.0
 11
187.9497400594903
 21
20.84999999999992
 31
0.0
  0
LINE
  5
13A8
  8
0
 62
     0
 10
185.69999544806279
 20
19.247411971046649
 30
0.0
 11
184.9062454480628
 21
20.622227299554449
 31
0.0
  0
LINE
  5
13A9
  8
0
 62
     0
 10
188.0000000000004
 20
15.263687229451129
 30
0.0
 11
187.2874954480628
 21
16.497781314031059
 31
0.0
  0
LINE
  5
13AA
  8
0
 62
     0
 10
183.31874601705499
 20
17.872596971046661
 30
0.0
 11
182.524996017055
 21
19.247412299554451
 31
0.0
  0
LINE
  5
13AB
  8
0
 62
     0
 10
185.69999601705501
 20
13.748150985523271
 30
0.0
 11
184.906246017055
 21
15.122966314031061
 31
0.0
  0
LINE
  5
13AC
  8
0
 62
     0
 10
188.0000000000004
 20
9.7644272294511421
 30
0.0
 11
187.28749601705499
 21
10.998520328507681
 31
0.0
  0
LINE
  5
13AD
  8
0
 62
     0
 10
178.55624658604719
 20
20.622227956570029
 30
0.0
 11
178.42474233545909
 21
20.849999999999898
 31
0.0
  0
LINE
  5
13AE
  8
0
 62
     0
 10
180.93749658604719
 20
16.497781971046638
 30
0.0
 11
180.1437465860472
 21
17.872597299554439
 31
0.0
  0
LINE
  5
13AF
  8
0
 62
     0
 10
183.31874658604721
 20
12.37333598552326
 30
0.0
 11
182.52499658604719
 21
13.748151314031061
 31
0.0
  0
LINE
  5
13B0
  8
0
 62
     0
 10
185.35294556573459
 20
8.8499999999999162
 30
0.0
 11
184.90624658604719
 21
9.6237053285076701
 31
0.0
  0
LINE
  5
13B1
  8
0
 62
     0
 10
176.17499715503939
 20
19.247412956570049
 30
0.0
 11
175.3812471550394
 21
20.622228285077849
 31
0.0
  0
LINE
  5
13B2
  8
0
 62
     0
 10
178.55624715503939
 20
15.122966971046671
 30
0.0
 11
177.7624971550394
 21
16.497782299554459
 31
0.0
  0
LINE
  5
13B3
  8
0
 62
     0
 10
180.93749715503941
 20
10.998520985523291
 30
0.0
 11
180.14374715503939
 21
12.37333631403108
 31
0.0
  0
LINE
  5
13B4
  8
0
 62
     0
 10
173.79374772403159
 20
17.872597956570051
 30
0.0
 11
172.9999977240316
 21
19.24741328507784
 31
0.0
  0
LINE
  5
13B5
  8
0
 62
     0
 10
176.17499772403161
 20
13.74815197104666
 30
0.0
 11
175.3812477240316
 21
15.12296729955445
 31
0.0
  0
LINE
  5
13B6
  8
0
 62
     0
 10
178.55624772403161
 20
9.6237059855232765
 30
0.0
 11
177.76249772403159
 21
10.99852131403107
 31
0.0
  0
LINE
  5
13B7
  8
0
 62
     0
 10
169.03124829302379
 20
20.622228942093422
 30
0.0
 11
168.89974461142791
 21
20.84999999999992
 31
0.0
  0
LINE
  5
13B8
  8
0
 62
     0
 10
171.41249829302379
 20
16.497782956570031
 30
0.0
 11
170.6187482930238
 21
17.872598285077832
 31
0.0
  0
LINE
  5
13B9
  8
0
 62
     0
 10
173.79374829302381
 20
12.373336971046649
 30
0.0
 11
172.99999829302379
 21
13.748152299554439
 31
0.0
  0
LINE
  5
13BA
  8
0
 62
     0
 10
175.82794784170341
 20
8.8499999999999091
 30
0.0
 11
175.38124829302379
 21
9.6237063140310593
 31
0.0
  0
LINE
  5
13BB
  8
0
 62
     0
 10
169.03124886201601
 20
15.122967956570029
 30
0.0
 11
168.237498862016
 21
16.49778328507783
 31
0.0
  0
LINE
  5
13BC
  8
0
 62
     0
 10
171.0000000000004
 20
11.71299095812204
 30
0.0
 11
170.61874886201599
 21
12.373337299554439
 31
0.0
  0
LINE
  5
13BD
  8
0
 62
     0
 10
168.4387188744746
 20
10.649999999999871
 30
0.0
 11
168.23749943100819
 21
10.998522299554461
 31
0.0
  0
LINE
  5
13BE
  8
0
 62
     0
 10
187.6345476063598
 20
8.8499999999999055
 30
0.0
 11
188.0000000000004
 21
9.4829821135330779
 31
0.0
  0
LINE
  5
13BF
  8
0
 62
     0
 10
187.28749886201601
 20
13.74815394209346
 30
0.0
 11
188.0000000000004
 21
14.98224211353309
 31
0.0
  0
LINE
  5
13C0
  8
0
 62
     0
 10
184.90624886201601
 20
9.6237079565700707
 30
0.0
 11
185.699998862016
 21
10.998523285077869
 31
0.0
  0
LINE
  5
13C1
  8
0
 62
     0
 10
187.28749943100809
 20
19.24741492761683
 30
0.0
 11
188.0000000000004
 21
20.4815021135331
 31
0.0
  0
LINE
  5
13C2
  8
0
 62
     0
 10
184.90624943100809
 20
15.122968942093429
 30
0.0
 11
185.69999943100811
 21
16.49778427060123
 31
0.0
  0
LINE
  5
13C3
  8
0
 62
     0
 10
182.52499943100821
 20
10.99852295657004
 30
0.0
 11
183.31874943100809
 21
12.373338285077841
 31
0.0
  0
LINE
  5
13C4
  8
0
 62
     0
 10
184.9062500000004
 20
20.622229927616829
 30
0.0
 11
185.03775311260401
 21
20.849999999999898
 31
0.0
  0
LINE
  5
13C5
  8
0
 62
     0
 10
182.5250000000004
 20
16.497783942093431
 30
0.0
 11
183.31875000000031
 21
17.872599270601231
 31
0.0
  0
LINE
  5
13C6
  8
0
 62
     0
 10
180.14375000000041
 20
12.37333795657004
 30
0.0
 11
180.93750000000031
 21
13.748153285077841
 31
0.0
  0
LINE
  5
13C7
  8
0
 62
     0
 10
178.10954988232859
 20
8.8499999999999091
 30
0.0
 11
178.55625000000029
 21
9.6237072995544537
 31
0.0
  0
LINE
  5
13C8
  8
0
 62
     0
 10
180.14375056899249
 20
17.87259894209344
 30
0.0
 11
180.9375005689925
 21
19.24741427060124
 31
0.0
  0
LINE
  5
13C9
  8
0
 62
     0
 10
177.76250056899261
 20
13.748152956570051
 30
0.0
 11
178.5562505689926
 21
15.122968285077841
 31
0.0
  0
LINE
  5
13CA
  8
0
 62
     0
 10
175.38125056899261
 20
9.6237069710466585
 30
0.0
 11
176.1750005689926
 21
10.99852229955445
 31
0.0
  0
LINE
  5
13CB
  8
0
 62
     0
 10
177.76250113798471
 20
19.247413942093431
 30
0.0
 11
178.5562511379847
 21
20.622229270601231
 31
0.0
  0
LINE
  5
13CC
  8
0
 62
     0
 10
175.38125113798469
 20
15.12296795657004
 30
0.0
 11
176.17500113798471
 21
16.497783285077841
 31
0.0
  0
LINE
  5
13CD
  8
0
 62
     0
 10
173.00000113798481
 20
10.99852197104665
 30
0.0
 11
173.79375113798471
 21
12.37333729955445
 31
0.0
  0
LINE
  5
13CE
  8
0
 62
     0
 10
175.381251706977
 20
20.622228942093439
 30
0.0
 11
175.51275538857291
 21
20.84999999999992
 31
0.0
  0
LINE
  5
13CF
  8
0
 62
     0
 10
173.000001706977
 20
16.497782956570049
 30
0.0
 11
173.79375170697691
 21
17.872598285077839
 31
0.0
  0
LINE
  5
13D0
  8
0
 62
     0
 10
170.61875170697701
 20
12.37333697104666
 30
0.0
 11
171.41250170697691
 21
13.74815229955445
 31
0.0
  0
LINE
  5
13D1
  8
0
 62
     0
 10
170.61875227596909
 20
17.87259795657004
 30
0.0
 11
171.4125022759691
 21
19.24741328507783
 31
0.0
  0
LINE
  5
13D2
  8
0
 62
     0
 10
168.23750227596909
 20
13.748151971046649
 30
0.0
 11
169.03125227596911
 21
15.12296729955445
 31
0.0
  0
LINE
  5
13D3
  8
0
 62
     0
 10
168.23750284496131
 20
19.247412956570031
 30
0.0
 11
169.0312528449613
 21
20.622228285077831
 31
0.0
  0
LINE
  5
13D4
  8
0
 62
     0
 10
168.2375000000003
 20
19.247409999999888
 30
0.0
 11
168.00000000000031
 21
19.247409999999888
 31
0.0
  0
LINE
  5
13D5
  8
0
 62
     0
 10
173.00000000000031
 20
19.247409999999888
 30
0.0
 11
171.41250000000031
 21
19.247409999999888
 31
0.0
  0
LINE
  5
13D6
  8
0
 62
     0
 10
177.7625000000003
 20
19.247409999999888
 30
0.0
 11
176.1750000000003
 21
19.247409999999888
 31
0.0
  0
LINE
  5
13D7
  8
0
 62
     0
 10
182.5250000000004
 20
19.247409999999888
 30
0.0
 11
180.93750000000031
 21
19.247409999999888
 31
0.0
  0
LINE
  5
13D8
  8
0
 62
     0
 10
187.28750000000039
 20
19.247409999999888
 30
0.0
 11
185.70000000000039
 21
19.247409999999888
 31
0.0
  0
LINE
  5
13D9
  8
0
 62
     0
 10
168.2375000000003
 20
16.497779999999889
 30
0.0
 11
168.00000000000031
 21
16.497779999999889
 31
0.0
  0
LINE
  5
13DA
  8
0
 62
     0
 10
173.00000000000031
 20
16.497779999999889
 30
0.0
 11
171.41250000000031
 21
16.497779999999889
 31
0.0
  0
LINE
  5
13DB
  8
0
 62
     0
 10
177.7625000000003
 20
16.497779999999889
 30
0.0
 11
176.1750000000003
 21
16.497779999999889
 31
0.0
  0
LINE
  5
13DC
  8
0
 62
     0
 10
182.5250000000004
 20
16.497779999999889
 30
0.0
 11
180.93750000000031
 21
16.497779999999889
 31
0.0
  0
LINE
  5
13DD
  8
0
 62
     0
 10
187.28750000000039
 20
16.497779999999889
 30
0.0
 11
185.70000000000039
 21
16.497779999999889
 31
0.0
  0
LINE
  5
13DE
  8
0
 62
     0
 10
168.2375000000003
 20
13.74814999999988
 30
0.0
 11
168.00000000000031
 21
13.74814999999988
 31
0.0
  0
LINE
  5
13DF
  8
0
 62
     0
 10
173.00000000000031
 20
13.74814999999988
 30
0.0
 11
171.41250000000031
 21
13.74814999999988
 31
0.0
  0
LINE
  5
13E0
  8
0
 62
     0
 10
177.7625000000003
 20
13.748149999999891
 30
0.0
 11
176.1750000000003
 21
13.748149999999891
 31
0.0
  0
LINE
  5
13E1
  8
0
 62
     0
 10
182.5250000000004
 20
13.748149999999891
 30
0.0
 11
180.93750000000031
 21
13.748149999999891
 31
0.0
  0
LINE
  5
13E2
  8
0
 62
     0
 10
187.28750000000039
 20
13.748149999999891
 30
0.0
 11
185.70000000000039
 21
13.748149999999891
 31
0.0
  0
LINE
  5
13E3
  8
0
 62
     0
 10
168.23750000000041
 20
10.99851999999988
 30
0.0
 11
168.0000000000004
 21
10.99851999999988
 31
0.0
  0
LINE
  5
13E4
  8
0
 62
     0
 10
177.7625000000003
 20
10.99851999999988
 30
0.0
 11
176.1750000000003
 21
10.99851999999988
 31
0.0
  0
LINE
  5
13E5
  8
0
 62
     0
 10
182.5250000000004
 20
10.998519999999891
 30
0.0
 11
180.93750000000031
 21
10.998519999999891
 31
0.0
  0
LINE
  5
13E6
  8
0
 62
     0
 10
187.28750000000039
 20
10.998519999999891
 30
0.0
 11
185.70000000000039
 21
10.998519999999891
 31
0.0
  0
ENDBLK
  5
13E8
  8
0
  0
BLOCK
  8
0
  2
*X59
 70
     1
 10
0.0
 20
0.0
 30
0.0
  3
*X59
  1

  0
LINE
  5
13F7
  8
0
 62
     0
 10
186.49374231860571
 20
49.493347391425282
 30
0.0
 11
186.09686731860569
 21
50.180755055679178
 31
0.0
  0
LINE
  5
13F8
  8
0
 62
     0
 10
187.68436731860569
 20
47.431124398663599
 30
0.0
 11
187.2874923186057
 21
48.118532062917502
 31
0.0
  0
LINE
  5
13F9
  8
0
 62
     0
 10
184.1124926031018
 20
50.868162884186972
 30
0.0
 11
183.7156176031018
 21
51.555570548440869
 31
0.0
  0
LINE
  5
13FA
  8
0
 62
     0
 10
185.30311760310181
 20
48.805939891425282
 30
0.0
 11
184.90624260310179
 21
49.493347555679172
 31
0.0
  0
LINE
  5
13FB
  8
0
 62
     0
 10
186.49374260310179
 20
46.743716898663592
 30
0.0
 11
186.0968676031018
 21
47.431124562917489
 31
0.0
  0
LINE
  5
13FC
  8
0
 62
     0
 10
182.92186788759801
 20
50.180755384186973
 30
0.0
 11
182.52499288759799
 21
50.86816304844087
 31
0.0
  0
LINE
  5
13FD
  8
0
 62
     0
 10
184.11249288759791
 20
48.11853239142529
 30
0.0
 11
183.715617887598
 21
48.80594005567918
 31
0.0
  0
LINE
  5
13FE
  8
0
 62
     0
 10
185.30311788759789
 20
46.056309398663593
 30
0.0
 11
184.9062428875979
 21
46.74371706291749
 31
0.0
  0
LINE
  5
13FF
  8
0
 62
     0
 10
186.18978991173111
 20
44.520548403214903
 30
0.0
 11
186.09686788759791
 21
44.681494070155793
 31
0.0
  0
LINE
  5
1400
  8
0
 62
     0
 10
180.5406181720941
 20
51.555570876948657
 30
0.0
 11
180.14374317209399
 21
52.242978541202547
 31
0.0
  0
LINE
  5
1401
  8
0
 62
     0
 10
181.731243172094
 20
49.49334788418696
 30
0.0
 11
181.334368172094
 21
50.180755548440857
 31
0.0
  0
LINE
  5
1402
  8
0
 62
     0
 10
182.92186817209401
 20
47.431124891425277
 30
0.0
 11
182.52499317209401
 21
48.118532555679181
 31
0.0
  0
LINE
  5
1403
  8
0
 62
     0
 10
184.11249317209399
 20
45.36890189866358
 30
0.0
 11
183.715618172094
 21
46.056309562917477
 31
0.0
  0
LINE
  5
1404
  8
0
 62
     0
 10
185.010440008383
 20
43.813612355715392
 30
0.0
 11
184.90624317209401
 21
43.994086570155787
 31
0.0
  0
LINE
  5
1405
  8
0
 62
     0
 10
179.3499934565902
 20
50.868163376948658
 30
0.0
 11
178.9531184565902
 21
51.555571041202562
 31
0.0
  0
LINE
  5
1406
  8
0
 62
     0
 10
180.5406184565901
 20
48.805940384186968
 30
0.0
 11
180.14374345659019
 21
49.493348048440872
 31
0.0
  0
LINE
  5
1407
  8
0
 62
     0
 10
181.73124345659011
 20
46.743717391425278
 30
0.0
 11
181.33436845659011
 21
47.431125055679182
 31
0.0
  0
LINE
  5
1408
  8
0
 62
     0
 10
182.92186845659009
 20
44.681494398663588
 30
0.0
 11
182.5249934565901
 21
45.368902062917492
 31
0.0
  0
LINE
  5
1409
  8
0
 62
     0
 10
183.733995659013
 20
43.27484882185837
 30
0.0
 11
183.71561845659011
 21
43.306679070155802
 31
0.0
  0
LINE
  5
140A
  8
0
 62
     0
 10
176.96874374108631
 20
52.242978869710342
 30
0.0
 11
176.8357257093154
 21
52.473372859060341
 31
0.0
  0
LINE
  5
140B
  8
0
 62
     0
 10
178.15936874108621
 20
50.180755876948652
 30
0.0
 11
177.7624937410863
 21
50.868163541202549
 31
0.0
  0
LINE
  5
140C
  8
0
 62
     0
 10
179.34999374108619
 20
48.118532884186962
 30
0.0
 11
178.9531187410862
 21
48.805940548440859
 31
0.0
  0
LINE
  5
140D
  8
0
 62
     0
 10
180.54061874108621
 20
46.056309891425272
 30
0.0
 11
180.14374374108621
 21
46.743717555679169
 31
0.0
  0
LINE
  5
140E
  8
0
 62
     0
 10
181.73124374108619
 20
43.994086898663582
 30
0.0
 11
181.33436874108619
 21
44.681494562917472
 31
0.0
  0
LINE
  5
140F
  8
0
 62
     0
 10
175.77811902558241
 20
51.555571369710357
 30
0.0
 11
175.38124402558239
 21
52.242979033964261
 31
0.0
  0
LINE
  5
1410
  8
0
 62
     0
 10
176.9687440255824
 20
49.49334837694866
 30
0.0
 11
176.5718690255824
 21
50.180756041202557
 31
0.0
  0
LINE
  5
1411
  8
0
 62
     0
 10
178.15936902558241
 20
47.431125384186977
 30
0.0
 11
177.76249402558241
 21
48.118533048440867
 31
0.0
  0
LINE
  5
1412
  8
0
 62
     0
 10
179.3499940255823
 20
45.36890239142528
 30
0.0
 11
178.95311902558231
 21
46.056310055679177
 31
0.0
  0
LINE
  5
1413
  8
0
 62
     0
 10
180.54061902558229
 20
43.30667939866359
 30
0.0
 11
180.14374402558229
 21
43.994087062917487
 31
0.0
  0
LINE
  5
1414
  8
0
 62
     0
 10
174.58749431007851
 20
50.868163869710337
 30
0.0
 11
174.19061931007849
 21
51.55557153396424
 31
0.0
  0
LINE
  5
1415
  8
0
 62
     0
 10
175.77811931007849
 20
48.805940876948647
 30
0.0
 11
175.3812443100785
 21
49.49334854120255
 31
0.0
  0
LINE
  5
1416
  8
0
 62
     0
 10
176.96874431007839
 20
46.743717884186957
 30
0.0
 11
176.57186931007851
 21
47.43112554844086
 31
0.0
  0
LINE
  5
1417
  8
0
 62
     0
 10
178.1593693100784
 20
44.681494891425267
 30
0.0
 11
177.76249431007841
 21
45.368902555679171
 31
0.0
  0
LINE
  5
1418
  8
0
 62
     0
 10
179.34999431007839
 20
42.619271898663577
 30
0.0
 11
178.95311931007839
 21
43.306679562917481
 31
0.0
  0
LINE
  5
1419
  8
0
 62
     0
 10
173.39686959457461
 20
50.180756369710338
 30
0.0
 11
172.99999459457459
 21
50.868164033964241
 31
0.0
  0
LINE
  5
141A
  8
0
 62
     0
 10
174.58749459457451
 20
48.118533376948662
 30
0.0
 11
174.1906195945746
 21
48.805941041202551
 31
0.0
  0
LINE
  5
141B
  8
0
 62
     0
 10
175.77811959457449
 20
46.056310384186958
 30
0.0
 11
175.3812445945745
 21
46.743718048440861
 31
0.0
  0
LINE
  5
141C
  8
0
 62
     0
 10
176.9687445945745
 20
43.994087391425268
 30
0.0
 11
176.57186959457451
 21
44.681495055679171
 31
0.0
  0
LINE
  5
141D
  8
0
 62
     0
 10
177.91343088058539
 20
42.357842746840859
 30
0.0
 11
177.76249459457449
 21
42.619272062917481
 31
0.0
  0
LINE
  5
141E
  8
0
 62
     0
 10
172.2062448790706
 20
49.493348869710317
 30
0.0
 11
171.8093698790706
 21
50.180756533964221
 31
0.0
  0
LINE
  5
141F
  8
0
 62
     0
 10
173.39686987907061
 20
47.431125876948627
 30
0.0
 11
172.99999487907061
 21
48.118533541202531
 31
0.0
  0
LINE
  5
1420
  8
0
 62
     0
 10
174.58749487907059
 20
45.368902884186937
 30
0.0
 11
174.1906198790706
 21
46.056310548440841
 31
0.0
  0
LINE
  5
1421
  8
0
 62
     0
 10
175.7781198790706
 20
43.306679891425247
 30
0.0
 11
175.38124487907061
 21
43.994087555679151
 31
0.0
  0
LINE
  5
1422
  8
0
 62
     0
 10
171.01562016356669
 20
48.805941369710332
 30
0.0
 11
170.6187451635667
 21
49.493349033964222
 31
0.0
  0
LINE
  5
1423
  8
0
 62
     0
 10
172.20624516356671
 20
46.743718376948628
 30
0.0
 11
171.80937016356671
 21
47.431126041202532
 31
0.0
  0
LINE
  5
1424
  8
0
 62
     0
 10
173.39687016356669
 20
44.681495384186938
 30
0.0
 11
172.99999516356669
 21
45.368903048440842
 31
0.0
  0
LINE
  5
1425
  8
0
 62
     0
 10
174.55968089397561
 20
42.667448119532402
 30
0.0
 11
174.19062016356671
 21
43.306680055679152
 31
0.0
  0
LINE
  5
1426
  8
0
 62
     0
 10
169.82499544806279
 20
48.11853386971034
 30
0.0
 11
169.4281204480628
 21
48.80594153396423
 31
0.0
  0
LINE
  5
1427
  8
0
 62
     0
 10
171.0156204480628
 20
46.05631087694865
 30
0.0
 11
170.61874544806281
 21
46.743718541202547
 31
0.0
  0
LINE
  5
1428
  8
0
 62
     0
 10
172.20624544806279
 20
43.994087884186953
 30
0.0
 11
171.80937044806279
 21
44.68149554844085
 31
0.0
  0
LINE
  5
1429
  8
0
 62
     0
 10
168.63437073255889
 20
47.431126369710348
 30
0.0
 11
168.2374957325589
 21
48.118534033964238
 31
0.0
  0
LINE
  5
142A
  8
0
 62
     0
 10
169.8249957325589
 20
45.368903376948658
 30
0.0
 11
169.42812073255891
 21
46.056311041202548
 31
0.0
  0
LINE
  5
142B
  8
0
 62
     0
 10
187.2875022759691
 20
46.743719855233742
 30
0.0
 11
187.68437727596901
 21
47.431127519487639
 31
0.0
  0
LINE
  5
142C
  8
0
 62
     0
 10
186.09687727596901
 20
44.681496862472059
 30
0.0
 11
186.49375227596909
 21
45.368904526725949
 31
0.0
  0
LINE
  5
142D
  8
0
 62
     0
 10
186.0968775604652
 20
47.431127355233748
 30
0.0
 11
186.49375256046511
 21
48.118535019487652
 31
0.0
  0
LINE
  5
142E
  8
0
 62
     0
 10
184.90625256046519
 20
45.368904362472058
 30
0.0
 11
185.3031275604651
 21
46.056312026725962
 31
0.0
  0
LINE
  5
142F
  8
0
 62
     0
 10
183.71562756046521
 20
43.306681369710368
 30
0.0
 11
184.1125025604652
 21
43.994089033964272
 31
0.0
  0
LINE
  5
1430
  8
0
 62
     0
 10
186.0968778449612
 20
50.18075784799543
 30
0.0
 11
186.19113553396289
 21
50.344016954350359
 31
0.0
  0
LINE
  5
1431
  8
0
 62
     0
 10
184.90625284496119
 20
48.11853485523374
 30
0.0
 11
185.3031278449613
 21
48.805942519487637
 31
0.0
  0
LINE
  5
1432
  8
0
 62
     0
 10
183.71562784496129
 20
46.05631186247205
 30
0.0
 11
184.11250284496131
 21
46.74371952672594
 31
0.0
  0
LINE
  5
1433
  8
0
 62
     0
 10
182.52500284496131
 20
43.99408886971036
 30
0.0
 11
182.9218778449613
 21
44.681496533964257
 31
0.0
  0
LINE
  5
1434
  8
0
 62
     0
 10
184.9062531294573
 20
50.868165347995429
 30
0.0
 11
185.01192163286481
 21
51.051188564657011
 31
0.0
  0
LINE
  5
1435
  8
0
 62
     0
 10
183.71562812945729
 20
48.805942355233753
 30
0.0
 11
184.11250312945731
 21
49.493350019487643
 31
0.0
  0
LINE
  5
1436
  8
0
 62
     0
 10
182.52500312945739
 20
46.743719362472049
 30
0.0
 11
182.92187812945741
 21
47.431127026725953
 31
0.0
  0
LINE
  5
1437
  8
0
 62
     0
 10
181.33437812945741
 20
44.681496369710374
 30
0.0
 11
181.7312531294574
 21
45.368904033964263
 31
0.0
  0
LINE
  5
1438
  8
0
 62
     0
 10
180.14375312945739
 20
42.619273376948669
 30
0.0
 11
180.54062812945739
 21
43.306681041202573
 31
0.0
  0
LINE
  5
1439
  8
0
 62
     0
 10
183.7156284139534
 20
51.555572847995428
 30
0.0
 11
183.73557931958351
 21
51.590128830203703
 31
0.0
  0
LINE
  5
143A
  8
0
 62
     0
 10
182.5250034139535
 20
49.493349855233753
 30
0.0
 11
182.92187841395341
 21
50.180757519487642
 31
0.0
  0
LINE
  5
143B
  8
0
 62
     0
 10
181.33437841395349
 20
47.431126862472048
 30
0.0
 11
181.73125341395351
 21
48.118534526725952
 31
0.0
  0
LINE
  5
143C
  8
0
 62
     0
 10
180.1437534139535
 20
45.368903869710373
 30
0.0
 11
180.5406284139535
 21
46.056311533964262
 31
0.0
  0
LINE
  5
143D
  8
0
 62
     0
 10
178.95312841395349
 20
43.306680876948668
 30
0.0
 11
179.35000341395349
 21
43.994088541202572
 31
0.0
  0
LINE
  5
143E
  8
0
 62
     0
 10
181.33437869844951
 20
50.180757355233752
 30
0.0
 11
181.73125369844951
 21
50.868165019487648
 31
0.0
  0
LINE
  5
143F
  8
0
 62
     0
 10
180.14375369844959
 20
48.118534362472062
 30
0.0
 11
180.54062869844961
 21
48.805942026725958
 31
0.0
  0
LINE
  5
1440
  8
0
 62
     0
 10
178.9531286984496
 20
46.056311369710357
 30
0.0
 11
179.3500036984496
 21
46.743719033964261
 31
0.0
  0
LINE
  5
1441
  8
0
 62
     0
 10
177.76250369844959
 20
43.994088376948682
 30
0.0
 11
178.15937869844959
 21
44.681496041202578
 31
0.0
  0
LINE
  5
1442
  8
0
 62
     0
 10
176.83757087848059
 20
42.39205773917439
 30
0.0
 11
176.9687536984496
 21
42.619273048440881
 31
0.0
  0
LINE
  5
1443
  8
0
 62
     0
 10
180.14375398294561
 20
50.868164855233744
 30
0.0
 11
180.54062898294561
 21
51.55557251948764
 31
0.0
  0
LINE
  5
1444
  8
0
 62
     0
 10
178.95312898294571
 20
48.805941862472039
 30
0.0
 11
179.35000398294571
 21
49.493349526725943
 31
0.0
  0
LINE
  5
1445
  8
0
 62
     0
 10
177.7625039829457
 20
46.743718869710357
 30
0.0
 11
178.1593789829457
 21
47.431126533964253
 31
0.0
  0
LINE
  5
1446
  8
0
 62
     0
 10
176.57187898294569
 20
44.681495876948659
 30
0.0
 11
176.96875398294571
 21
45.368903541202563
 31
0.0
  0
LINE
  5
1447
  8
0
 62
     0
 10
175.38125398294571
 20
42.619272884186969
 30
0.0
 11
175.7781289829457
 21
43.306680548440873
 31
0.0
  0
LINE
  5
1448
  8
0
 62
     0
 10
178.9531292674418
 20
51.555572355233743
 30
0.0
 11
179.3500042674417
 21
52.242980019487639
 31
0.0
  0
LINE
  5
1449
  8
0
 62
     0
 10
177.76250426744181
 20
49.49334936247206
 30
0.0
 11
178.15937926744181
 21
50.180757026725963
 31
0.0
  0
LINE
  5
144A
  8
0
 62
     0
 10
176.5718792674418
 20
47.431126369710363
 30
0.0
 11
176.9687542674418
 21
48.118534033964259
 31
0.0
  0
LINE
  5
144B
  8
0
 62
     0
 10
175.38125426744179
 20
45.36890337694868
 30
0.0
 11
175.77812926744181
 21
46.056311041202576
 31
0.0
  0
LINE
  5
144C
  8
0
 62
     0
 10
174.19062926744181
 20
43.30668038418699
 30
0.0
 11
174.5875042674418
 21
43.994088048440879
 31
0.0
  0
LINE
  5
144D
  8
0
 62
     0
 10
177.76250455193781
 20
52.242979855233727
 30
0.0
 11
177.9153441769167
 21
52.507705851106927
 31
0.0
  0
LINE
  5
144E
  8
0
 62
     0
 10
176.57187955193791
 20
50.180756862472037
 30
0.0
 11
176.96875455193791
 21
50.868164526725941
 31
0.0
  0
LINE
  5
144F
  8
0
 62
     0
 10
175.3812545519379
 20
48.118533869710348
 30
0.0
 11
175.77812955193789
 21
48.805941533964251
 31
0.0
  0
LINE
  5
1450
  8
0
 62
     0
 10
174.19062955193789
 20
46.056310876948658
 30
0.0
 11
174.58750455193791
 21
46.743718541202561
 31
0.0
  0
LINE
  5
1451
  8
0
 62
     0
 10
173.00000455193791
 20
43.994087884186968
 30
0.0
 11
173.3968795519379
 21
44.681495548440871
 31
0.0
  0
LINE
  5
1452
  8
0
 62
     0
 10
175.3812548364339
 20
50.868164362472051
 30
0.0
 11
175.77812983643389
 21
51.555572026725947
 31
0.0
  0
LINE
  5
1453
  8
0
 62
     0
 10
174.19062983643391
 20
48.805941369710361
 30
0.0
 11
174.58750483643391
 21
49.493349033964257
 31
0.0
  0
LINE
  5
1454
  8
0
 62
     0
 10
173.00000483643399
 20
46.743718376948671
 30
0.0
 11
173.39687983643401
 21
47.43112604120256
 31
0.0
  0
LINE
  5
1455
  8
0
 62
     0
 10
171.809379836434
 20
44.681495384186981
 30
0.0
 11
172.206254836434
 21
45.368903048440878
 31
0.0
  0
LINE
  5
1456
  8
0
 62
     0
 10
174.19063012093011
 20
51.555571862472057
 30
0.0
 11
174.56181883684749
 21
52.198489577637368
 31
0.0
  0
LINE
  5
1457
  8
0
 62
     0
 10
173.0000051209301
 20
49.493348869710367
 30
0.0
 11
173.39688012093009
 21
50.180756533964271
 31
0.0
  0
LINE
  5
1458
  8
0
 62
     0
 10
171.80938012093009
 20
47.431125876948677
 30
0.0
 11
172.20625512093011
 21
48.118533541202581
 31
0.0
  0
LINE
  5
1459
  8
0
 62
     0
 10
170.6187551209301
 20
45.368902884186987
 30
0.0
 11
171.0156301209301
 21
46.056310548440891
 31
0.0
  0
LINE
  5
145A
  8
0
 62
     0
 10
171.80938040542611
 20
50.180756369710359
 30
0.0
 11
172.20625540542611
 21
50.868164033964263
 31
0.0
  0
LINE
  5
145B
  8
0
 62
     0
 10
170.61875540542621
 20
48.118533376948662
 30
0.0
 11
171.01563040542621
 21
48.805941041202558
 31
0.0
  0
LINE
  5
145C
  8
0
 62
     0
 10
169.4281304054262
 20
46.056310384186979
 30
0.0
 11
169.8250054054262
 21
46.743718048440883
 31
0.0
  0
LINE
  5
145D
  8
0
 62
     0
 10
169.4281306899222
 20
48.805940876948668
 30
0.0
 11
169.82500568992219
 21
49.493348541202572
 31
0.0
  0
LINE
  5
145E
  8
0
 62
     0
 10
168.2375056899223
 20
46.743717884186992
 30
0.0
 11
168.63438068992221
 21
47.431125548440882
 31
0.0
  0
LINE
  5
145F
  8
0
 62
     0
 10
175.38125000000039
 20
52.242969999999893
 30
0.0
 11
174.81136580304209
 21
52.242969999999893
 31
0.0
  0
LINE
  5
1460
  8
0
 62
     0
 10
177.76250000000039
 20
52.242969999999893
 30
0.0
 11
176.9687500000004
 21
52.242969999999893
 31
0.0
  0
LINE
  5
1461
  8
0
 62
     0
 10
180.14375000000041
 20
52.242969999999893
 30
0.0
 11
179.35000000000039
 21
52.242969999999893
 31
0.0
  0
LINE
  5
1462
  8
0
 62
     0
 10
173.0000000000004
 20
50.868154999999888
 30
0.0
 11
172.20625000000041
 21
50.868154999999888
 31
0.0
  0
LINE
  5
1463
  8
0
 62
     0
 10
175.38125000000039
 20
50.868154999999888
 30
0.0
 11
174.5875000000004
 21
50.868154999999888
 31
0.0
  0
LINE
  5
1464
  8
0
 62
     0
 10
177.76250000000039
 20
50.868154999999888
 30
0.0
 11
176.9687500000004
 21
50.868154999999888
 31
0.0
  0
LINE
  5
1465
  8
0
 62
     0
 10
180.14375000000041
 20
50.868154999999888
 30
0.0
 11
179.35000000000039
 21
50.868154999999888
 31
0.0
  0
LINE
  5
1466
  8
0
 62
     0
 10
182.5250000000004
 20
50.868154999999888
 30
0.0
 11
181.73125000000039
 21
50.868154999999888
 31
0.0
  0
LINE
  5
1467
  8
0
 62
     0
 10
184.9062500000004
 20
50.868154999999888
 30
0.0
 11
184.11250000000041
 21
50.868154999999888
 31
0.0
  0
LINE
  5
1468
  8
0
 62
     0
 10
170.6187500000004
 20
49.49333999999989
 30
0.0
 11
169.82500000000039
 21
49.49333999999989
 31
0.0
  0
LINE
  5
1469
  8
0
 62
     0
 10
173.0000000000004
 20
49.49333999999989
 30
0.0
 11
172.20625000000041
 21
49.49333999999989
 31
0.0
  0
LINE
  5
146A
  8
0
 62
     0
 10
175.38125000000039
 20
49.49333999999989
 30
0.0
 11
174.5875000000004
 21
49.49333999999989
 31
0.0
  0
LINE
  5
146B
  8
0
 62
     0
 10
177.76250000000039
 20
49.49333999999989
 30
0.0
 11
176.9687500000004
 21
49.49333999999989
 31
0.0
  0
LINE
  5
146C
  8
0
 62
     0
 10
180.14375000000041
 20
49.49333999999989
 30
0.0
 11
179.35000000000039
 21
49.49333999999989
 31
0.0
  0
LINE
  5
146D
  8
0
 62
     0
 10
182.5250000000004
 20
49.49333999999989
 30
0.0
 11
181.73125000000039
 21
49.49333999999989
 31
0.0
  0
LINE
  5
146E
  8
0
 62
     0
 10
184.9062500000004
 20
49.49333999999989
 30
0.0
 11
184.11250000000041
 21
49.49333999999989
 31
0.0
  0
LINE
  5
146F
  8
0
 62
     0
 10
187.1386676277705
 20
49.49333999999989
 30
0.0
 11
186.49375000000029
 21
49.49333999999989
 31
0.0
  0
LINE
  5
1470
  8
0
 62
     0
 10
168.23750000000041
 20
48.118524999999892
 30
0.0
 11
168.0917089220236
 21
48.118524999999892
 31
0.0
  0
LINE
  5
1471
  8
0
 62
     0
 10
170.6187500000004
 20
48.118524999999892
 30
0.0
 11
169.82500000000039
 21
48.118524999999892
 31
0.0
  0
LINE
  5
1472
  8
0
 62
     0
 10
173.0000000000004
 20
48.118524999999892
 30
0.0
 11
172.20625000000041
 21
48.118524999999892
 31
0.0
  0
LINE
  5
1473
  8
0
 62
     0
 10
175.38125000000039
 20
48.118524999999892
 30
0.0
 11
174.5875000000004
 21
48.118524999999892
 31
0.0
  0
LINE
  5
1474
  8
0
 62
     0
 10
177.76250000000039
 20
48.118524999999892
 30
0.0
 11
176.9687500000004
 21
48.118524999999892
 31
0.0
  0
LINE
  5
1475
  8
0
 62
     0
 10
180.14375000000041
 20
48.118524999999892
 30
0.0
 11
179.35000000000039
 21
48.118524999999892
 31
0.0
  0
LINE
  5
1476
  8
0
 62
     0
 10
182.5250000000004
 20
48.118524999999892
 30
0.0
 11
181.73125000000039
 21
48.118524999999892
 31
0.0
  0
LINE
  5
1477
  8
0
 62
     0
 10
184.9062500000004
 20
48.118524999999892
 30
0.0
 11
184.11250000000041
 21
48.118524999999892
 31
0.0
  0
LINE
  5
1478
  8
0
 62
     0
 10
187.28750000000031
 20
48.118524999999892
 30
0.0
 11
186.49375000000029
 21
48.118524999999892
 31
0.0
  0
LINE
  5
1479
  8
0
 62
     0
 10
168.23750000000041
 20
46.743709999999894
 30
0.0
 11
168.09259925334979
 21
46.743709999999894
 31
0.0
  0
LINE
  5
147A
  8
0
 62
     0
 10
170.6187500000004
 20
46.743709999999894
 30
0.0
 11
169.82500000000039
 21
46.743709999999894
 31
0.0
  0
LINE
  5
147B
  8
0
 62
     0
 10
173.0000000000004
 20
46.743709999999894
 30
0.0
 11
172.20625000000041
 21
46.743709999999894
 31
0.0
  0
LINE
  5
147C
  8
0
 62
     0
 10
175.38125000000039
 20
46.743709999999894
 30
0.0
 11
174.5875000000004
 21
46.743709999999894
 31
0.0
  0
LINE
  5
147D
  8
0
 62
     0
 10
177.76250000000039
 20
46.743709999999894
 30
0.0
 11
176.9687500000004
 21
46.743709999999894
 31
0.0
  0
LINE
  5
147E
  8
0
 62
     0
 10
180.14375000000041
 20
46.743709999999894
 30
0.0
 11
179.35000000000039
 21
46.743709999999894
 31
0.0
  0
LINE
  5
147F
  8
0
 62
     0
 10
182.5250000000004
 20
46.743709999999894
 30
0.0
 11
181.73125000000039
 21
46.743709999999894
 31
0.0
  0
LINE
  5
1480
  8
0
 62
     0
 10
184.9062500000004
 20
46.743709999999894
 30
0.0
 11
184.11250000000041
 21
46.743709999999894
 31
0.0
  0
LINE
  5
1481
  8
0
 62
     0
 10
187.28750000000031
 20
46.743709999999894
 30
0.0
 11
186.49375000000029
 21
46.743709999999894
 31
0.0
  0
LINE
  5
1482
  8
0
 62
     0
 10
170.6187500000004
 20
45.368894999999888
 30
0.0
 11
169.82500000000039
 21
45.368894999999888
 31
0.0
  0
LINE
  5
1483
  8
0
 62
     0
 10
173.0000000000004
 20
45.368894999999888
 30
0.0
 11
172.20625000000041
 21
45.368894999999888
 31
0.0
  0
LINE
  5
1484
  8
0
 62
     0
 10
175.38125000000039
 20
45.368894999999888
 30
0.0
 11
174.5875000000004
 21
45.368894999999888
 31
0.0
  0
LINE
  5
1485
  8
0
 62
     0
 10
177.76250000000039
 20
45.368894999999888
 30
0.0
 11
176.9687500000004
 21
45.368894999999888
 31
0.0
  0
LINE
  5
1486
  8
0
 62
     0
 10
180.14375000000041
 20
45.368894999999888
 30
0.0
 11
179.35000000000039
 21
45.368894999999888
 31
0.0
  0
LINE
  5
1487
  8
0
 62
     0
 10
182.5250000000004
 20
45.368894999999888
 30
0.0
 11
181.73125000000039
 21
45.368894999999888
 31
0.0
  0
LINE
  5
1488
  8
0
 62
     0
 10
184.9062500000004
 20
45.368894999999888
 30
0.0
 11
184.11250000000041
 21
45.368894999999888
 31
0.0
  0
LINE
  5
1489
  8
0
 62
     0
 10
187.13577136411129
 20
45.368894999999888
 30
0.0
 11
186.49375000000029
 21
45.368894999999888
 31
0.0
  0
LINE
  5
148A
  8
0
 62
     0
 10
173.0000000000004
 20
43.99407999999989
 30
0.0
 11
172.20625000000041
 21
43.99407999999989
 31
0.0
  0
LINE
  5
148B
  8
0
 62
     0
 10
175.38125000000039
 20
43.99407999999989
 30
0.0
 11
174.5875000000004
 21
43.99407999999989
 31
0.0
  0
LINE
  5
148C
  8
0
 62
     0
 10
177.76250000000039
 20
43.99407999999989
 30
0.0
 11
176.9687500000004
 21
43.99407999999989
 31
0.0
  0
LINE
  5
148D
  8
0
 62
     0
 10
180.14375000000041
 20
43.99407999999989
 30
0.0
 11
179.35000000000039
 21
43.99407999999989
 31
0.0
  0
LINE
  5
148E
  8
0
 62
     0
 10
182.5250000000004
 20
43.99407999999989
 30
0.0
 11
181.73125000000039
 21
43.99407999999989
 31
0.0
  0
LINE
  5
148F
  8
0
 62
     0
 10
184.9062500000004
 20
43.99407999999989
 30
0.0
 11
184.11250000000041
 21
43.99407999999989
 31
0.0
  0
LINE
  5
1490
  8
0
 62
     0
 10
175.38125000000039
 20
42.619264999999878
 30
0.0
 11
174.8307902682632
 21
42.619264999999878
 31
0.0
  0
LINE
  5
1491
  8
0
 62
     0
 10
177.76250000000039
 20
42.619264999999878
 30
0.0
 11
176.9687500000004
 21
42.619264999999878
 31
0.0
  0
LINE
  5
1492
  8
0
 62
     0
 10
180.14375000000041
 20
42.619264999999878
 30
0.0
 11
179.35000000000039
 21
42.619264999999878
 31
0.0
  0
ENDBLK
  5
1494
  8
0
  0
BLOCK
  8
0
  2
*U60
 70
     1
 10
0.0
 20
0.0
 30
0.0
  3
*U60
  1

  0
TEXT
  5
14B3
  8
SAPA_MATT
 62
     2
 10
72.096397548219855
 20
-27.150000000000261
 30
0.0
 40
3.5
  1
195
  7
ISO
  0
ENDBLK
  5
14B5
  8
0
  0
BLOCK
  8
0
  2
*U61
 70
     1
 10
0.0
 20
0.0
 30
0.0
  3
*U61
  1

  0
TEXT
  5
14B7
  8
0
 62
     2
 10
34.673622047244223
 20
-15.14965551181125
 30
0.0
 40
3.5
  1
120
  7
ISO
  0
ENDBLK
  5
14B9
  8
0
  0
BLOCK
  8
0
  2
*U62
 70
     1
 10
0.0
 20
0.0
 30
0.0
  3
*U62
  1

  0
TEXT
  5
14BB
  8
0
 62
     2
 10
110.54862204724439
 20
-15.150000000000199
 30
0.0
 40
3.5
  1
30
  7
ISO
  0
ENDBLK
  5
14BD
  8
0
  0
BLOCK
  8
0
  2
*U63
 70
     1
 10
0.0
 20
0.0
 30
0.0
  3
*U63
  1

  0
TEXT
  5
14BF
  8
0
 62
     2
 10
147.8025126265851
 20
-15.150000000000199
 30
0.0
 40
3.5
  1
45
  7
ISO
  0
ENDBLK
  5
14C1
  8
0
  0
BLOCK
  8
0
  2
*U64
 70
     1
 10
0.0
 20
0.0
 30
0.0
  3
*U64
  1

  0
TEXT
  5
14C3
  8
SAPA_MATT
 62
     2
 10
-53.99999999999995
 20
31.503346456693031
 30
0.0
 40
3.5
  1
60
 50
90.0
  7
ISO
  0
ENDBLK
  5
14C5
  8
0
  0
BLOCK
  8
0
  2
*U65
 70
     1
 10
0.0
 20
0.0
 30
0.0
  3
*U65
  1

  0
TEXT
  5
15E0
  8
0
 10
200.7066197366058
 20
121.9761478607964
 30
0.0
 40
3.0
  1
55.15
 50
90.0
  7
BYGG-014247$0$ISO
  0
ENDBLK
  5
15E2
  8
0
  0
BLOCK
  8
0
  2
*U66
 70
     1
 10
0.0
 20
0.0
 30
0.0
  3
*U66
  1

  0
TEXT
  5
15EC
  8
0
 10
169.4719591245163
 20
80.624583302187148
 30
0.0
 40
3.0
  1
25
  7
BYGG-014247$0$ISO
  0
ENDBLK
  5
15EE
  8
0
  0
BLOCK
  8
0
  2
*U67
 70
     1
 10
0.0
 20
0.0
 30
0.0
  3
*U67
  1

  0
TEXT
  5
15F7
  8
0
 10
176.20834500782911
 20
165.11646576828349
 30
0.0
 40
3.0
  1
12
  7
BYGG-014247$0$ISO
  0
ENDBLK
  5
15F9
  8
0
  0
BLOCK
  8
0
  2
*U68
 70
     1
 10
0.0
 20
0.0
 30
0.0
  3
*U68
  1

  0
TEXT
  5
170F
  8
0
 62
     2
 10
190.89256628367221
 20
659.2717623260628
 30
0.0
 40
3.0
  1
60
 50
90.0
  7
BYGG-014565$0$ISO
  0
ENDBLK
  5
1711
  8
0
  0
BLOCK
  8
0
  2
*U69
 70
     1
 10
0.0
 20
0.0
 30
0.0
  3
*U69
  1

  0
TEXT
  5
1713
  8
0
 62
     2
 10
113.7344761310633
 20
618.04985164983123
 30
0.0
 40
3.0
  1
120
  7
BYGG-014565$0$ISO
  0
ENDBLK
  5
1715
  8
0
  0
BLOCK
  8
0
  2
*U70
 70
     1
 10
0.0
 20
0.0
 30
0.0
  3
*U70
  1

  0
TEXT
  5
1738
  8
0
 62
     2
 10
822.46231930336307
 20
606.73114493365938
 30
0.0
 40
3.0
  1
45
  7
BYGG-014533$0$ISO
  0
ENDBLK
  5
173A
  8
0
  0
BLOCK
  8
0
  2
*U71
 70
     1
 10
0.0
 20
0.0
 30
0.0
  3
*U71
  1

  0
TEXT
  5
173C
  8
0
 62
     2
 10
857.95933842027637
 20
642.22349427798235
 30
0.0
 40
3.0
  1
50
 50
90.0
  7
BYGG-014533$0$ISO
  0
ENDBLK
  5
173E
  8
0
  0
BLOCK
  8
0
  2
*U72
 70
     1
 10
0.0
 20
0.0
 30
0.0
  3
*U72
  1

  0
TEXT
  5
1849
  8
0
 10
-5.3810449962290932
 20
-29.629360508896362
 30
0.0
 40
3.0
  1
22
 50
90.0
  7
BYGG-014202$0$ISO
  0
ENDBLK
  5
184B
  8
0
  0
BLOCK
  8
0
  2
*U73
 70
     1
 10
0.0
 20
0.0
 30
0.0
  3
*U73
  1

  0
TEXT
  5
184D
  8
0
 10
-30.718369319056912
 20
-8.2014231872108585
 30
0.0
 40
3.0
  1
25.5
  7
BYGG-014202$0$ISO
  0
ENDBLK
  5
184F
  8
0
  0
BLOCK
  8
0
  2
*U74
 70
     1
 10
0.0
 20
0.0
 30
0.0
  3
*U74
  1

  0
SOLID
  5
1852
  8
0
  6
CONTINUOUS
 10
4.7491523350893203
 20
4.1961905468704446
 30
0.0
 11
4.5688747713161204
 21
4.1215171349640061
 31
0.0
 12
4.9294298988625203
 22
4.1215171349640061
 32
0.0
 13
4.9294298988625203
 23
4.1215171349640061
 33
0.0
210
0.0
220
0.0
230
1.0
  0
SOLID
  5
1853
  8
0
  6
CONTINUOUS
 10
4.5688747713161204
 20
4.1215171349640061
 30
0.0
 11
4.494201359409681
 21
3.9412395711908061
 31
0.0
 12
5.0041033107689588
 22
3.9412395711908061
 32
0.0
 13
5.0041033107689588
 23
3.9412395711908061
 33
0.0
210
0.0
220
0.0
230
1.0
  0
SOLID
  5
1854
  8
0
  6
CONTINUOUS
 10
-4.5688747713161204
 20
4.1215171349640061
 30
0.0
 11
-4.9294298988625203
 21
4.1215171349640061
 31
0.0
 12
-5.0041033107689588
 22
3.9412395711908061
 32
0.0
 13
-5.0041033107689588
 23
3.9412395711908061
 33
0.0
210
0.0
220
0.0
230
-1.0
  0
SOLID
  5
1855
  8
0
  6
CONTINUOUS
 10
-4.5688747713161204
 20
3.7609620074176058
 30
0.0
 11
-4.9294298988625194
 21
3.7609620074176058
 31
0.0
 12
-4.7491523350893203
 22
3.6862885955111659
 32
0.0
 13
-4.7491523350893203
 23
3.6862885955111659
 33
0.0
210
0.0
220
0.0
230
-1.0
  0
SOLID
  5
1856
  8
0
  6
CONTINUOUS
 10
4.494201359409681
 20
3.9412395711908061
 30
0.0
 11
4.5688747713161204
 21
3.7609620074176058
 31
0.0
 12
4.9294298988625194
 22
3.7609620074176058
 32
0.0
 13
4.9294298988625194
 23
3.7609620074176058
 33
0.0
210
0.0
220
0.0
230
1.0
  0
SOLID
  5
1857
  8
0
  6
CONTINUOUS
 10
-4.494201359409681
 20
3.9412395711908061
 30
0.0
 11
-5.0041033107689588
 21
3.9412395711908061
 31
0.0
 12
-4.9294298988625194
 22
3.7609620074176058
 32
0.0
 13
-4.9294298988625194
 23
3.7609620074176058
 33
0.0
210
0.0
220
0.0
230
-1.0
  0
LINE
  5
1858
  8
0
  6
CONTINUOUS
 10
4.7491523350893203
 20
4.1961905468704446
 30
0.0
 11
4.5688747713161204
 21
4.1215171349640061
 31
0.0
  0
LINE
  5
1859
  8
0
  6
CONTINUOUS
 10
4.9294298988625203
 20
4.1215171349640061
 30
0.0
 11
4.7491523350893203
 21
4.1961905468704446
 31
0.0
  0
LINE
  5
185A
  8
0
  6
CONTINUOUS
 10
4.5688747713161204
 20
4.1215171349640061
 30
0.0
 11
4.494201359409681
 21
3.9412395711908061
 31
0.0
  0
LINE
  5
185B
  8
0
  6
CONTINUOUS
 10
4.9294298988625203
 20
4.1215171349640061
 30
0.0
 11
5.0041033107689588
 21
3.9412395711908061
 31
0.0
  0
LINE
  5
185C
  8
0
  6
CONTINUOUS
 10
4.9294298988625194
 20
3.7609620074176058
 30
0.0
 11
4.7491523350893203
 21
3.6862885955111659
 31
0.0
  0
LINE
  5
185D
  8
0
  6
CONTINUOUS
 10
4.7491523350893203
 20
3.6862885955111659
 30
0.0
 11
4.5688747713161204
 21
3.7609620074176058
 31
0.0
  0
LINE
  5
185E
  8
0
  6
CONTINUOUS
 10
4.494201359409681
 20
3.9412395711908061
 30
0.0
 11
4.5688747713161204
 21
3.7609620074176058
 31
0.0
  0
LINE
  5
185F
  8
0
  6
CONTINUOUS
 10
5.0041033107689588
 20
3.9412395711908061
 30
0.0
 11
4.9294298988625194
 21
3.7609620074176058
 31
0.0
  0
ENDBLK
  5
1861
  8
0
  0
BLOCK
  8
0
  2
*U75
 70
     1
 10
0.0
 20
0.0
 30
0.0
  3
*U75
  1

  0
TEXT
  5
1898
  8
0
 10
81.389380871086246
 20
35.437748634931239
 30
0.0
 40
3.0
  1
55.15
 50
270.0
  7
BYGG-014247$0$ISO
  0
ENDBLK
  5
189A
  8
0
  0
BLOCK
  8
0
  2
*U76
 70
     1
 10
0.0
 20
0.0
 30
0.0
  3
*U76
  1

  0
TEXT
  5
189C
  8
0
 10
112.6240414831757
 20
-16.738670543571111
 30
0.0
 40
3.0
  1
25
 50
180.0
  7
BYGG-014247$0$ISO
  0
ENDBLK
  5
189E
  8
0
  0
BLOCK
  8
0
  2
*U77
 70
     1
 10
0.0
 20
0.0
 30
0.0
  3
*U77
  1

  0
TEXT
  5
18A0
  8
0
 10
105.8876555998629
 20
67.753211922525239
 30
0.0
 40
3.0
  1
12
 50
180.0
  7
BYGG-014247$0$ISO
  0
ENDBLK
  5
18A2
  8
0
  0
BLOCK
  8
0
  2
*U78
 70
     1
 10
0.0
 20
0.0
 30
0.0
  3
*U78
  1

  0
TEXT
  5
18A4
  8
0
 10
144.61061912891461
 20
32.261837532843899
 30
0.0
 40
3.0
  1
55.15
 50
90.0
  7
BYGG-014247$0$ISO
  0
ENDBLK
  5
18A6
  8
0
  0
BLOCK
  8
0
  2
*U79
 70
     1
 10
0.0
 20
0.0
 30
0.0
  3
*U79
  1

  0
TEXT
  5
18A8
  8
0
 10
113.37595851682509
 20
84.438256711346199
 30
0.0
 40
3.0
  1
25
  7
BYGG-014247$0$ISO
  0
ENDBLK
  5
18AA
  8
0
  0
BLOCK
  8
0
  2
*U80
 70
     1
 10
0.0
 20
0.0
 30
0.0
  3
*U80
  1

  0
TEXT
  5
18AC
  8
0
 10
120.1123444001379
 20
-0.05362575475011
 30
0.0
 40
3.0
  1
12
  7
BYGG-014247$0$ISO
  0
ENDBLK
  5
18AE
  8
0
  0
BLOCK
  8
0
  2
*U81
 70
     1
 10
0.0
 20
0.0
 30
0.0
  3
*U81
  1

  0
TEXT
  5
18B0
  8
0
 62
     2
 10
148.18786796564439
 20
73.443530446684903
 30
0.0
 40
3.0
  1
45
  7
BYGG-014533$0$ISO
  0
ENDBLK
  5
18B2
  8
0
  0
BLOCK
  8
0
  2
*U82
 70
     1
 10
0.0
 20
0.0
 30
0.0
  3
*U82
  1

  0
TEXT
  5
18B4
  8
0
 62
     2
 10
183.68488708255779
 20
31.748818897637729
 30
0.0
 40
3.0
  1
50
 50
90.0
  7
BYGG-014533$0$ISO
  0
ENDBLK
  5
18B6
  8
0
  0
BLOCK
  8
0
  2
*U83
 70
     1
 10
0.0
 20
0.0
 30
0.0
  3
*U83
  1

  0
TEXT
  5
18B8
  8
0
 62
     2
 10
112.3069090502468
 20
31.838582677165281
 30
0.0
 40
3.0
  1
60
 50
90.0
  7
BYGG-014565$0$ISO
  0
ENDBLK
  5
18BA
  8
0
  0
BLOCK
  8
0
  2
*U84
 70
     1
 10
0.0
 20
0.0
 30
0.0
  3
*U84
  1

  0
TEXT
  5
18BC
  8
0
 62
     2
 10
35.148818897637803
 20
-9.3833279990664469
 30
0.0
 40
3.0
  1
120
  7
BYGG-014565$0$ISO
  0
ENDBLK
  5
18BE
  8
0
  0
BLOCK
  8
0
  2
*U85
 70
     1
 10
0.0
 20
0.0
 30
0.0
  3
*U85
  1

  0
TEXT
  5
18C0
  8
0
 10
-13.48425505093277
 20
65.310687725161031
 30
0.0
 40
3.0
  1
22
  7
BYGG-014202$0$ISO
  0
ENDBLK
  5
18C2
  8
0
  0
BLOCK
  8
0
  2
*U86
 70
     1
 10
0.0
 20
0.0
 30
0.0
  3
*U86
  1

  0
TEXT
  5
18C4
  8
0
 10
-30.608196309626159
 20
42.97336340233322
 30
0.0
 40
3.0
  1
25.5
 50
90.0
  7
BYGG-014202$0$ISO
  0
ENDBLK
  5
18C6
  8
0
  0
BLOCK
  8
0
  2
*U87
 70
     1
 10
0.0
 20
0.0
 30
0.0
  3
*U87
  1

  0
SOLID
  5
1CDA
  8
SAPA_FOGBAND
  6
CONTINUOUS
 10
112.9200278233713
 20
58.984654984612632
 30
0.0
 11
112.7397502595981
 21
58.909981572706187
 31
0.0
 12
113.1003053871445
 22
58.909981572706187
 32
0.0
 13
113.1003053871445
 23
58.909981572706187
 33
0.0
210
0.0
220
0.0
230
1.0
  0
SOLID
  5
1CDB
  8
SAPA_FOGBAND
  6
CONTINUOUS
 10
112.7397502595981
 20
58.909981572706187
 30
0.0
 11
112.66507684769169
 21
58.729704008932991
 31
0.0
 12
113.1749787990509
 22
58.729704008932991
 32
0.0
 13
113.1749787990509
 23
58.729704008932991
 33
0.0
210
0.0
220
0.0
230
1.0
  0
SOLID
  5
1CDC
  8
SAPA_FOGBAND
  6
CONTINUOUS
 10
-112.7397502595981
 20
58.909981572706187
 30
0.0
 11
-113.1003053871445
 21
58.909981572706187
 31
0.0
 12
-113.1749787990509
 22
58.729704008932991
 32
0.0
 13
-113.1749787990509
 23
58.729704008932991
 33
0.0
210
0.0
220
0.0
230
-1.0
  0
SOLID
  5
1CDD
  8
SAPA_FOGBAND
  6
CONTINUOUS
 10
-112.7397502595981
 20
58.549426445159789
 30
0.0
 11
-113.1003053871445
 21
58.549426445159789
 31
0.0
 12
-112.9200278233713
 22
58.47475303325335
 32
0.0
 13
-112.9200278233713
 23
58.47475303325335
 33
0.0
210
0.0
220
0.0
230
-1.0
  0
SOLID
  5
1CDE
  8
SAPA_FOGBAND
  6
CONTINUOUS
 10
112.66507684769169
 20
58.729704008932991
 30
0.0
 11
112.7397502595981
 21
58.549426445159789
 31
0.0
 12
113.1003053871445
 22
58.549426445159789
 32
0.0
 13
113.1003053871445
 23
58.549426445159789
 33
0.0
210
0.0
220
0.0
230
1.0
  0
SOLID
  5
1CDF
  8
SAPA_FOGBAND
  6
CONTINUOUS
 10
-112.66507684769169
 20
58.729704008932991
 30
0.0
 11
-113.1749787990509
 21
58.729704008932991
 31
0.0
 12
-113.1003053871445
 22
58.549426445159789
 32
0.0
 13
-113.1003053871445
 23
58.549426445159789
 33
0.0
210
0.0
220
0.0
230
-1.0
  0
LINE
  5
1CE0
  8
SAPA_FOGBAND
  6
CONTINUOUS
 10
112.9200278233713
 20
58.984654984612632
 30
0.0
 11
112.7397502595981
 21
58.909981572706187
 31
0.0
  0
LINE
  5
1CE1
  8
SAPA_FOGBAND
  6
CONTINUOUS
 10
113.1003053871445
 20
58.909981572706187
 30
0.0
 11
112.9200278233713
 21
58.984654984612632
 31
0.0
  0
LINE
  5
1CE2
  8
SAPA_FOGBAND
  6
CONTINUOUS
 10
112.7397502595981
 20
58.909981572706187
 30
0.0
 11
112.66507684769169
 21
58.729704008932991
 31
0.0
  0
LINE
  5
1CE3
  8
SAPA_FOGBAND
  6
CONTINUOUS
 10
113.1003053871445
 20
58.909981572706187
 30
0.0
 11
113.1749787990509
 21
58.729704008932991
 31
0.0
  0
LINE
  5
1CE4
  8
SAPA_FOGBAND
  6
CONTINUOUS
 10
113.1003053871445
 20
58.549426445159789
 30
0.0
 11
112.9200278233713
 21
58.47475303325335
 31
0.0
  0
LINE
  5
1CE5
  8
SAPA_FOGBAND
  6
CONTINUOUS
 10
112.9200278233713
 20
58.47475303325335
 30
0.0
 11
112.7397502595981
 21
58.549426445159789
 31
0.0
  0
LINE
  5
1CE6
  8
SAPA_FOGBAND
  6
CONTINUOUS
 10
112.66507684769169
 20
58.729704008932991
 30
0.0
 11
112.7397502595981
 21
58.549426445159789
 31
0.0
  0
LINE
  5
1CE7
  8
SAPA_FOGBAND
  6
CONTINUOUS
 10
113.1749787990509
 20
58.729704008932991
 30
0.0
 11
113.1003053871445
 21
58.549426445159789
 31
0.0
  0
ENDBLK
  5
1CE9
  8
0
  0
BLOCK
  8
0
  2
*U88
 70
     1
 10
0.0
 20
0.0
 30
0.0
  3
*U88
  1

  0
SOLID
  5
1D1F
  8
SAPA_FOGBAND
  6
CONTINUOUS
 10
113.0957251766296
 20
9.2233271345220924
 30
0.0
 11
112.9154476128564
 21
9.1486537226156521
 31
0.0
 12
113.2760027404028
 22
9.1486537226156521
 32
0.0
 13
113.2760027404028
 23
9.1486537226156521
 33
0.0
210
0.0
220
0.0
230
1.0
  0
SOLID
  5
1D20
  8
SAPA_FOGBAND
  6
CONTINUOUS
 10
112.9154476128564
 20
9.1486537226156521
 30
0.0
 11
112.84077420094989
 21
8.9683761588424531
 31
0.0
 12
113.35067615230921
 22
8.9683761588424531
 32
0.0
 13
113.35067615230921
 23
8.9683761588424531
 33
0.0
210
0.0
220
0.0
230
1.0
  0
SOLID
  5
1D21
  8
SAPA_FOGBAND
  6
CONTINUOUS
 10
-112.9154476128564
 20
9.1486537226156521
 30
0.0
 11
-113.2760027404028
 21
9.1486537226156521
 31
0.0
 12
-113.35067615230921
 22
8.9683761588424531
 32
0.0
 13
-113.35067615230921
 23
8.9683761588424531
 33
0.0
210
0.0
220
0.0
230
-1.0
  0
SOLID
  5
1D22
  8
SAPA_FOGBAND
  6
CONTINUOUS
 10
-112.9154476128564
 20
8.7880985950692541
 30
0.0
 11
-113.2760027404028
 21
8.7880985950692541
 31
0.0
 12
-113.0957251766296
 22
8.7134251831628138
 32
0.0
 13
-113.0957251766296
 23
8.7134251831628138
 33
0.0
210
0.0
220
0.0
230
-1.0
  0
SOLID
  5
1D23
  8
SAPA_FOGBAND
  6
CONTINUOUS
 10
112.84077420094989
 20
8.9683761588424531
 30
0.0
 11
112.9154476128564
 21
8.7880985950692541
 31
0.0
 12
113.2760027404028
 22
8.7880985950692541
 32
0.0
 13
113.2760027404028
 23
8.7880985950692541
 33
0.0
210
0.0
220
0.0
230
1.0
  0
SOLID
  5
1D24
  8
SAPA_FOGBAND
  6
CONTINUOUS
 10
-112.84077420094989
 20
8.9683761588424531
 30
0.0
 11
-113.35067615230921
 21
8.9683761588424531
 31
0.0
 12
-113.2760027404028
 22
8.7880985950692541
 32
0.0
 13
-113.2760027404028
 23
8.7880985950692541
 33
0.0
210
0.0
220
0.0
230
-1.0
  0
LINE
  5
1D25
  8
SAPA_FOGBAND
  6
CONTINUOUS
 10
113.0957251766296
 20
9.2233271345220924
 30
0.0
 11
112.9154476128564
 21
9.1486537226156521
 31
0.0
  0
LINE
  5
1D26
  8
SAPA_FOGBAND
  6
CONTINUOUS
 10
113.2760027404028
 20
9.1486537226156521
 30
0.0
 11
113.0957251766296
 21
9.2233271345220924
 31
0.0
  0
LINE
  5
1D27
  8
SAPA_FOGBAND
  6
CONTINUOUS
 10
112.9154476128564
 20
9.1486537226156521
 30
0.0
 11
112.84077420094989
 21
8.9683761588424531
 31
0.0
  0
LINE
  5
1D28
  8
SAPA_FOGBAND
  6
CONTINUOUS
 10
113.2760027404028
 20
9.1486537226156521
 30
0.0
 11
113.35067615230921
 21
8.9683761588424531
 31
0.0
  0
LINE
  5
1D29
  8
SAPA_FOGBAND
  6
CONTINUOUS
 10
113.2760027404028
 20
8.7880985950692541
 30
0.0
 11
113.0957251766296
 21
8.7134251831628138
 31
0.0
  0
LINE
  5
1D2A
  8
SAPA_FOGBAND
  6
CONTINUOUS
 10
113.0957251766296
 20
8.7134251831628138
 30
0.0
 11
112.9154476128564
 21
8.7880985950692541
 31
0.0
  0
LINE
  5
1D2B
  8
SAPA_FOGBAND
  6
CONTINUOUS
 10
112.84077420094989
 20
8.9683761588424531
 30
0.0
 11
112.9154476128564
 21
8.7880985950692541
 31
0.0
  0
LINE
  5
1D2C
  8
SAPA_FOGBAND
  6
CONTINUOUS
 10
113.35067615230921
 20
8.9683761588424531
 30
0.0
 11
113.2760027404028
 21
8.7880985950692541
 31
0.0
  0
ENDBLK
  5
1D2E
  8
0
  0
BLOCK
  8
0
  2
*U89
 70
     1
 10
0.0
 20
0.0
 30
0.0
  3
*U89
  1

  0
SOLID
  5
1DBE
  8
SAPA_FOGBAND
  6
CONTINUOUS
 10
112.9200278233713
 20
58.984654984612632
 30
0.0
 11
112.7397502595981
 21
58.909981572706187
 31
0.0
 12
113.1003053871445
 22
58.909981572706187
 32
0.0
 13
113.1003053871445
 23
58.909981572706187
 33
0.0
210
0.0
220
0.0
230
1.0
  0
SOLID
  5
1DBF
  8
SAPA_FOGBAND
  6
CONTINUOUS
 10
112.7397502595981
 20
58.909981572706187
 30
0.0
 11
112.66507684769169
 21
58.729704008932991
 31
0.0
 12
113.1749787990509
 22
58.729704008932991
 32
0.0
 13
113.1749787990509
 23
58.729704008932991
 33
0.0
210
0.0
220
0.0
230
1.0
  0
SOLID
  5
1DC0
  8
SAPA_FOGBAND
  6
CONTINUOUS
 10
-112.7397502595981
 20
58.909981572706187
 30
0.0
 11
-113.1003053871445
 21
58.909981572706187
 31
0.0
 12
-113.1749787990509
 22
58.729704008932991
 32
0.0
 13
-113.1749787990509
 23
58.729704008932991
 33
0.0
210
0.0
220
0.0
230
-1.0
  0
SOLID
  5
1DC1
  8
SAPA_FOGBAND
  6
CONTINUOUS
 10
-112.7397502595981
 20
58.549426445159789
 30
0.0
 11
-113.1003053871445
 21
58.549426445159789
 31
0.0
 12
-112.9200278233713
 22
58.47475303325335
 32
0.0
 13
-112.9200278233713
 23
58.47475303325335
 33
0.0
210
0.0
220
0.0
230
-1.0
  0
SOLID
  5
1DC2
  8
SAPA_FOGBAND
  6
CONTINUOUS
 10
112.66507684769169
 20
58.729704008932991
 30
0.0
 11
112.7397502595981
 21
58.549426445159789
 31
0.0
 12
113.1003053871445
 22
58.549426445159789
 32
0.0
 13
113.1003053871445
 23
58.549426445159789
 33
0.0
210
0.0
220
0.0
230
1.0
  0
SOLID
  5
1DC3
  8
SAPA_FOGBAND
  6
CONTINUOUS
 10
-112.66507684769169
 20
58.729704008932991
 30
0.0
 11
-113.1749787990509
 21
58.729704008932991
 31
0.0
 12
-113.1003053871445
 22
58.549426445159789
 32
0.0
 13
-113.1003053871445
 23
58.549426445159789
 33
0.0
210
0.0
220
0.0
230
-1.0
  0
LINE
  5
1DC4
  8
SAPA_FOGBAND
  6
CONTINUOUS
 10
112.9200278233713
 20
58.984654984612632
 30
0.0
 11
112.7397502595981
 21
58.909981572706187
 31
0.0
  0
LINE
  5
1DC5
  8
SAPA_FOGBAND
  6
CONTINUOUS
 10
113.1003053871445
 20
58.909981572706187
 30
0.0
 11
112.9200278233713
 21
58.984654984612632
 31
0.0
  0
LINE
  5
1DC6
  8
SAPA_FOGBAND
  6
CONTINUOUS
 10
112.7397502595981
 20
58.909981572706187
 30
0.0
 11
112.66507684769169
 21
58.729704008932991
 31
0.0
  0
LINE
  5
1DC7
  8
SAPA_FOGBAND
  6
CONTINUOUS
 10
113.1003053871445
 20
58.909981572706187
 30
0.0
 11
113.1749787990509
 21
58.729704008932991
 31
0.0
  0
LINE
  5
1DC8
  8
SAPA_FOGBAND
  6
CONTINUOUS
 10
113.1003053871445
 20
58.549426445159789
 30
0.0
 11
112.9200278233713
 21
58.47475303325335
 31
0.0
  0
LINE
  5
1DC9
  8
SAPA_FOGBAND
  6
CONTINUOUS
 10
112.9200278233713
 20
58.47475303325335
 30
0.0
 11
112.7397502595981
 21
58.549426445159789
 31
0.0
  0
LINE
  5
1DCA
  8
SAPA_FOGBAND
  6
CONTINUOUS
 10
112.66507684769169
 20
58.729704008932991
 30
0.0
 11
112.7397502595981
 21
58.549426445159789
 31
0.0
  0
LINE
  5
1DCB
  8
SAPA_FOGBAND
  6
CONTINUOUS
 10
113.1749787990509
 20
58.729704008932991
 30
0.0
 11
113.1003053871445
 21
58.549426445159789
 31
0.0
  0
ENDBLK
  5
1DCD
  8
0
  0
BLOCK
  8
0
  2
*U90
 70
     1
 10
0.0
 20
0.0
 30
0.0
  3
*U90
  1

  0
SOLID
  5
1E03
  8
SAPA_FOGBAND
  6
CONTINUOUS
 10
113.0957251766296
 20
9.2233271345220924
 30
0.0
 11
112.9154476128564
 21
9.1486537226156521
 31
0.0
 12
113.2760027404028
 22
9.1486537226156521
 32
0.0
 13
113.2760027404028
 23
9.1486537226156521
 33
0.0
210
0.0
220
0.0
230
1.0
  0
SOLID
  5
1E04
  8
SAPA_FOGBAND
  6
CONTINUOUS
 10
112.9154476128564
 20
9.1486537226156521
 30
0.0
 11
112.84077420094989
 21
8.9683761588424531
 31
0.0
 12
113.35067615230921
 22
8.9683761588424531
 32
0.0
 13
113.35067615230921
 23
8.9683761588424531
 33
0.0
210
0.0
220
0.0
230
1.0
  0
SOLID
  5
1E05
  8
SAPA_FOGBAND
  6
CONTINUOUS
 10
-112.9154476128564
 20
9.1486537226156521
 30
0.0
 11
-113.2760027404028
 21
9.1486537226156521
 31
0.0
 12
-113.35067615230921
 22
8.9683761588424531
 32
0.0
 13
-113.35067615230921
 23
8.9683761588424531
 33
0.0
210
0.0
220
0.0
230
-1.0
  0
SOLID
  5
1E06
  8
SAPA_FOGBAND
  6
CONTINUOUS
 10
-112.9154476128564
 20
8.7880985950692541
 30
0.0
 11
-113.2760027404028
 21
8.7880985950692541
 31
0.0
 12
-113.0957251766296
 22
8.7134251831628138
 32
0.0
 13
-113.0957251766296
 23
8.7134251831628138
 33
0.0
210
0.0
220
0.0
230
-1.0
  0
SOLID
  5
1E07
  8
SAPA_FOGBAND
  6
CONTINUOUS
 10
112.84077420094989
 20
8.9683761588424531
 30
0.0
 11
112.9154476128564
 21
8.7880985950692541
 31
0.0
 12
113.2760027404028
 22
8.7880985950692541
 32
0.0
 13
113.2760027404028
 23
8.7880985950692541
 33
0.0
210
0.0
220
0.0
230
1.0
  0
SOLID
  5
1E08
  8
SAPA_FOGBAND
  6
CONTINUOUS
 10
-112.84077420094989
 20
8.9683761588424531
 30
0.0
 11
-113.35067615230921
 21
8.9683761588424531
 31
0.0
 12
-113.2760027404028
 22
8.7880985950692541
 32
0.0
 13
-113.2760027404028
 23
8.7880985950692541
 33
0.0
210
0.0
220
0.0
230
-1.0
  0
LINE
  5
1E09
  8
SAPA_FOGBAND
  6
CONTINUOUS
 10
113.0957251766296
 20
9.2233271345220924
 30
0.0
 11
112.9154476128564
 21
9.1486537226156521
 31
0.0
  0
LINE
  5
1E0A
  8
SAPA_FOGBAND
  6
CONTINUOUS
 10
113.2760027404028
 20
9.1486537226156521
 30
0.0
 11
113.0957251766296
 21
9.2233271345220924
 31
0.0
  0
LINE
  5
1E0B
  8
SAPA_FOGBAND
  6
CONTINUOUS
 10
112.9154476128564
 20
9.1486537226156521
 30
0.0
 11
112.84077420094989
 21
8.9683761588424531
 31
0.0
  0
LINE
  5
1E0C
  8
SAPA_FOGBAND
  6
CONTINUOUS
 10
113.2760027404028
 20
9.1486537226156521
 30
0.0
 11
113.35067615230921
 21
8.9683761588424531
 31
0.0
  0
LINE
  5
1E0D
  8
SAPA_FOGBAND
  6
CONTINUOUS
 10
113.2760027404028
 20
8.7880985950692541
 30
0.0
 11
113.0957251766296
 21
8.7134251831628138
 31
0.0
  0
LINE
  5
1E0E
  8
SAPA_FOGBAND
  6
CONTINUOUS
 10
113.0957251766296
 20
8.7134251831628138
 30
0.0
 11
112.9154476128564
 21
8.7880985950692541
 31
0.0
  0
LINE
  5
1E0F
  8
SAPA_FOGBAND
  6
CONTINUOUS
 10
112.84077420094989
 20
8.9683761588424531
 30
0.0
 11
112.9154476128564
 21
8.7880985950692541
 31
0.0
  0
LINE
  5
1E10
  8
SAPA_FOGBAND
  6
CONTINUOUS
 10
113.35067615230921
 20
8.9683761588424531
 30
0.0
 11
113.2760027404028
 21
8.7880985950692541
 31
0.0
  0
ENDBLK
  5
1E12
  8
0
  0
BLOCK
  8
0
  2
*U91
 70
     1
 10
0.0
 20
0.0
 30
0.0
  3
*U91
  1

  0
TEXT
  5
1E6E
  8
SAPA_MATT
 62
     2
 10
147.8025126265851
 20
-15.150000000000199
 30
0.0
 40
3.5
  1
45
  7
ISO
  0
ENDBLK
  5
1E70
  8
0
  0
BLOCK
  8
0
  2
*U92
 70
     1
 10
0.0
 20
0.0
 30
0.0
  3
*U92
  1

  0
TEXT
  5
1E72
  8
SAPA_MATT
 62
     2
 10
110.54862204724439
 20
-15.150000000000199
 30
0.0
 40
3.5
  1
30
  7
ISO
  0
ENDBLK
  5
1E74
  8
0
  0
BLOCK
  8
0
  2
*U93
 70
     1
 10
0.0
 20
0.0
 30
0.0
  3
*U93
  1

  0
TEXT
  5
1E76
  8
SAPA_MATT
 62
     2
 10
34.673622047244223
 20
-15.14965551181125
 30
0.0
 40
3.5
  1
120
  7
ISO
  0
ENDBLK
  5
1E78
  8
0
  0
ENDSEC
  0
SECTION
  2
ENTITIES
  0
TEXT
  5
195
  8
SAPA_ARTIKELNR
 10
143.83579301532129
 20
60.693498102257678
 30
0.0
 40
3.5
  1
68005
  7
ISO
  0
TEXT
  5
197
  8
SAPA_ARTIKELNR
 10
104.9671914571265
 20
66.425688408665508
 30
0.0
 40
3.5
  1
42138
  7
ISO
  0
TEXT
  5
198
  8
SAPA_ARTIKELNR
 10
108.2216753429359
 20
-1.819935561630643
 30
0.0
 40
3.5
  1
42138
  7
ISO
  0
TEXT
  5
199
  8
SAPA_ARTIKELNR
 10
41.04800640746361
 20
65.92904163154202
 30
0.0
 40
3.5
  1
68057
  7
ISO
  0
DIMENSION
  5
19B
  8
SAPA_MATT
  2
*D0
 10
-21.999999999999972
 20
-28.150000000000261
 30
0.0
 11
75.500000000000128
 21
-25.400000000000261
 31
0.0
 70
     0
  1
195
 13
173.0000000000002
 23
8.8499999999999091
 33
0.0
 14
-21.999999999999972
 24
9.3499999999998806
 34
0.0
1001
ACAD
1000
DSTYLE
1002
{
1070
    40
1040
1.0
1002
}
  0
POLYLINE
  5
354
  8
SAPA_LIGHT
 66
     1
 10
0.0
 20
0.0
 30
0.0
  0
VERTEX
  5
135C
  8
SAPA_LIGHT
 10
-37.999999999999943
 20
17.849999999999788
 30
0.0
  0
VERTEX
  5
135D
  8
SAPA_LIGHT
 10
-5.0000000000064651
 20
17.84999999999982
 30
0.0
  0
VERTEX
  5
135E
  8
SAPA_LIGHT
 10
-5.0000000000064801
 20
29.849999999999831
 30
0.0
  0
VERTEX
  5
135F
  8
SAPA_LIGHT
 10
-38.000000000000028
 20
29.84999999999977
 30
0.0
  0
VERTEX
  5
1360
  8
SAPA_LIGHT
 10
-37.999999999999943
 20
17.849999999999788
 30
0.0
  0
SEQEND
  5
1361
  8
SAPA_LIGHT
  0
DIMENSION
  5
E28
  8
SAPA_MATT
  2
*D12
 10
-52.999999999999943
 20
63.850000000000129
 30
0.0
 11
-55.74999999999995
 21
33.850000000000122
 31
0.0
 70
     0
 13
5.2426406871190494
 23
3.850000000000108
 33
0.0
 14
5.2426406871191196
 24
63.850000000000108
 34
0.0
 50
90.0
1001
ACAD
1000
DSTYLE
1002
{
1070
    40
1040
1.0
1002
}
  0
INSERT
  5
E2A
  8
SAPA_ANSLUTNING
  6
CONTINUOUS
  2
*X57
 10
0.0
 20
0.0
 30
0.0
1001
ACAD
1000
HATCH
1002
{
1070
    19
1000
ANSI37
1040
0.25
1040
-3.1415926535897931
1000
R14_HATCH_DATA
1000
E2A
1011
1.0
1021
0.0
1031
0.0
1021
0.0
1031
0.0
1011
0.0
1021
0.0
1031
0.0
1021
1.0
1031
0.0
1011
0.0
1021
0.0
1031
0.0
1021
0.0
1031
1.0
1040
0.0
1010
0.0
1020
0.0
1030
1.0
1000
ANSI37
1070
     0
1070
     0
1071
        1
1071
        5
1071
        9
1070
     1
1040
188.0000000000004
1040
58.849999999999973
1040
188.0000000000004
1040
47.43277014224882
1070
     3
1040
178.0000000000004
1040
47.432770142248842
1040
10.0
1040
-0.0000000000000176
1040
0.507511756901704
1040
0.0000000000000018
1040
3.141592653589794
1070
     1
1070
     1
1040
168.0000000000004
1040
47.432770142248842
1040
168.0000000000004
1040
57.049999999999947
1070
     1
1040
168.0000000000004
1040
57.049999999999947
1040
171.0000000000004
1040
57.049999999999947
1070
     1
1040
171.0000000000004
1040
57.049999999999947
1040
171.0000000000004
1040
54.849999999999909
1070
     1
1040
171.0000000000004
1040
54.849999999999909
1040
172.0000000000004
1040
54.849999999999909
1070
     1
1040
172.0000000000004
1040
54.849999999999909
1040
173.0000000000004
1040
55.849999999999909
1070
     1
1040
173.0000000000004
1040
55.849999999999909
1040
173.0000000000004
1040
58.849999999999902
1070
     2
1040
180.50000000000031
1040
82.448126339655232
1040
24.761291701814191
1040
4.4046631153073497
1040
5.0201148454620323
1070
     1
1071
        0
1070
     0
1070
     1
1040
-3.1415926535897931
1040
0.25
1070
     0
1070
     2
1040
2.3561944901923448
1040
173.0000000000004
1040
-0.0000000000001137
1040
0.5612660075668218
1040
0.5612660075668224
1070
     0
1040
0.7853981633974493
1040
173.0000000000004
1040
-0.0000000000001137
1040
0.5612660075668224
1040
-0.5612660075668218
1070
     0
1040
0.1260351043692141
1071
        1
1040
183.18167368899759
1040
55.30288325276365
1040
0.0
1002
}
  0
INSERT
  5
E2B
  8
SAPA_ANSLUTNING
  6
CONTINUOUS
  2
*X58
 10
0.0
 20
0.0
 30
0.0
1001
ACAD
1000
HATCH
1002
{
1070
    19
1000
HEX
1040
0.5
1040
-3.1415926535897931
1000
R14_HATCH_DATA
1000
E2B
1011
1.0
1021
0.0
1031
0.0
1021
0.0
1031
0.0
1011
0.0
1021
0.0
1031
0.0
1021
1.0
1031
0.0
1011
0.0
1021
0.0
1031
0.0
1021
0.0
1031
1.0
1040
0.0
1010
0.0
1020
0.0
1030
1.0
1000
HEX
1070
     0
1070
     0
1071
        1
1071
        7
1070
     0
1070
     1
1071
        9
1040
188.0000000000004
1040
20.849999999999909
1040
188.0000000000004
1040
8.8499999999999091
1040
173.0000000000004
1040
8.8499999999999091
1040
173.0000000000004
1040
11.849999999999911
1040
172.0000000000004
1040
12.849999999999911
1040
171.0000000000004
1040
12.849999999999911
1040
171.0000000000004
1040
10.64999999999986
1040
168.0000000000004
1040
10.64999999999986
1040
168.0000000000004
1040
20.849999999999909
1071
        0
1070
     0
1070
     1
1040
-3.1415926535897931
1040
0.5
1070
     0
1070
     3
1040
3.1415926535897931
1040
173.0000000000004
1040
-0.0000000000001137
1040
-0.000000000000001
1040
2.7496299999999989
1070
     2
1040
1.587499999999999
1040
-3.1749999999999989
1040
1.0471975511965981
1040
173.0000000000004
1040
-0.0000000000001137
1040
2.3812494310078058
1040
-1.3748149999999979
1070
     2
1040
1.587499999999999
1040
-3.174999999999998
1040
2.0943951023931962
1040
171.41250000000039
1040
-0.0000000000001137
1040
2.3812494310078041
1040
1.374815000000001
1070
     2
1040
1.587499999999999
1040
-3.174999999999998
1040
0.1260351043692141
1071
        1
1040
179.1463653793852
1040
14.9716497252046
1040
0.0
1002
}
  0
POLYLINE
  5
E2C
  8
SAPA_ANSLUTNING
 66
     1
 10
0.0
 20
0.0
 30
0.0
  0
VERTEX
  5
13E9
  8
SAPA_ANSLUTNING
 10
170.0000000000004
 20
20.849999999999909
 30
0.0
 42
-1.0
  0
VERTEX
  5
13EA
  8
SAPA_ANSLUTNING
 10
170.0000000000004
 20
24.849999999999909
 30
0.0
  0
VERTEX
  5
13EB
  8
SAPA_ANSLUTNING
 10
186.00000000000151
 20
24.849999999999682
 30
0.0
 42
0.9999989466455052
  0
VERTEX
  5
13EC
  8
SAPA_ANSLUTNING
 10
186.0000042134217
 20
28.849999999995362
 30
0.0
  0
VERTEX
  5
13ED
  8
SAPA_ANSLUTNING
 10
174.9464909926306
 20
28.849999999995362
 30
0.0
 42
-1.0
  0
VERTEX
  5
13EE
  8
SAPA_ANSLUTNING
 10
174.9464909926306
 20
32.849999999995362
 30
0.0
  0
VERTEX
  5
13EF
  8
SAPA_ANSLUTNING
 10
186.00000684519989
 20
32.849999999995248
 30
0.0
 42
0.9999974985601644
  0
VERTEX
  5
13F0
  8
SAPA_ANSLUTNING
 10
186.00000684519989
 20
36.849999999982742
 30
0.0
  0
VERTEX
  5
13F1
  8
SAPA_ANSLUTNING
 10
174.9464909926306
 20
36.849999999982629
 30
0.0
 42
-1.0
  0
VERTEX
  5
13F2
  8
SAPA_ANSLUTNING
 10
174.9464909926306
 20
40.849999999982678
 30
0.0
  0
VERTEX
  5
13F3
  8
SAPA_ANSLUTNING
 10
186.0000042134217
 20
40.849999999982622
 30
0.0
 42
0.8752915042408037
  0
VERTEX
  5
13F4
  8
SAPA_ANSLUTNING
 10
186.5249963240534
 20
44.779864984823632
 30
0.0
 42
0.8752915042408037
  0
SEQEND
  5
13F5
  8
SAPA_ANSLUTNING
  0
LINE
  5
E2D
  8
SAPA_ANSLUTNING
 10
188.0000000000004
 20
74.606826409558494
 30
0.0
 11
188.0000000000004
 21
-7.427436573342959
 31
0.0
  0
ARC
  5
E2E
  8
SAPA_ANSLUTNING
 10
180.5000000000004
 20
82.448126339655232
 30
0.0
 40
24.761291701814191
 50
252.3686066840574
 51
287.63139331594351
  0
INSERT
  5
E2F
  8
SAPA_ANSLUTNING
  6
CONTINUOUS
  2
*X59
 10
0.0
 20
0.0
 30
0.0
1001
ACAD
1000
HATCH
1002
{
1070
    19
1000
HEX
1040
0.25
1040
-3.1415926535897931
1000
ASC_BOUNDS
1070
     1
1070
     1
1070
     1
1005
E30
1000
ASC_SEEDPOINT
1011
180.533502806972
1021
0.0
1031
0.0
1021
48.496987599263207
1031
0.0
1000
R14_HATCH_DATA
1000
E2F
1011
1.0
1021
0.0
1031
0.0
1021
0.0
1031
0.0
1011
0.0
1021
0.0
1031
0.0
1021
1.0
1031
0.0
1011
0.0
1021
0.0
1031
0.0
1021
0.0
1031
1.0
1040
0.0
1010
0.0
1020
0.0
1030
1.0
1000
HEX
1070
     0
1070
     1
1071
        1
1071
        5
1071
        1
1070
     3
1040
178.0000000000004
1040
47.432770142248842
1040
10.0
1040
-0.0000000000000176
1040
0.507511756901704
1040
0.0
1040
6.2831853071795862
1070
     0
1071
        1
1005
E30
1070
     0
1070
     1
1040
-3.1415926535897931
1040
0.25
1070
     0
1070
     3
1040
3.1415926535897931
1040
173.0000000000004
1040
-0.0000000000001137
1040
-0.0000000000000005
1040
1.374814999999999
1070
     2
1040
0.79375
1040
-1.587499999999999
1040
1.0471975511965981
1040
173.0000000000004
1040
-0.0000000000001137
1040
1.1906247155039029
1040
-0.6874074999999992
1070
     2
1040
0.7937499999999997
1040
-1.587499999999999
1040
2.0943951023931962
1040
172.20625000000041
1040
-0.0000000000001137
1040
1.190624715503902
1040
0.6874075000000005
1070
     2
1040
0.7937499999999998
1040
-1.587499999999999
1040
0.1260351043692141
1071
        1
1040
180.533502806972
1040
48.496987599263207
1040
0.0
1002
}
  0
POLYLINE
  5
E30
  8
SAPA_ANSLUTNING
 10
188.0000000000004
 20
47.432770142248827
 30
0.0
 66
     1
 70
     8
  0
VERTEX
  8
SAPA_ANSLUTNING
  5
1E79
 10
188.000
 20
47.4328
 30
0.000000
  70
    32
  0
VERTEX
  8
SAPA_ANSLUTNING
  5
1E7A
 10
187.988
 20
47.1837
 30
0.000000
  70
    32
  0
VERTEX
  8
SAPA_ANSLUTNING
  5
1E7B
 10
187.952
 20
46.9353
 30
0.000000
  70
    32
  0
VERTEX
  8
SAPA_ANSLUTNING
  5
1E7C
 10
187.892
 20
46.6881
 30
0.000000
  70
    32
  0
VERTEX
  8
SAPA_ANSLUTNING
  5
1E7D
 10
187.808
 20
46.4427
 30
0.000000
  70
    32
  0
VERTEX
  8
SAPA_ANSLUTNING
  5
1E7E
 10
187.700
 20
46.1996
 30
0.000000
  70
    32
  0
VERTEX
  8
SAPA_ANSLUTNING
  5
1E7F
 10
187.569
 20
45.9595
 30
0.000000
  70
    32
  0
VERTEX
  8
SAPA_ANSLUTNING
  5
1E80
 10
187.415
 20
45.7230
 30
0.000000
  70
    32
  0
VERTEX
  8
SAPA_ANSLUTNING
  5
1E81
 10
187.239
 20
45.4906
 30
0.000000
  70
    32
  0
VERTEX
  8
SAPA_ANSLUTNING
  5
1E82
 10
187.040
 20
45.2629
 30
0.000000
  70
    32
  0
VERTEX
  8
SAPA_ANSLUTNING
  5
1E83
 10
186.819
 20
45.0404
 30
0.000000
  70
    32
  0
VERTEX
  8
SAPA_ANSLUTNING
  5
1E84
 10
186.577
 20
44.8236
 30
0.000000
  70
    32
  0
VERTEX
  8
SAPA_ANSLUTNING
  5
1E85
 10
186.315
 20
44.6132
 30
0.000000
  70
    32
  0
VERTEX
  8
SAPA_ANSLUTNING
  5
1E86
 10
186.032
 20
44.4095
 30
0.000000
  70
    32
  0
VERTEX
  8
SAPA_ANSLUTNING
  5
1E87
 10
185.730
 20
44.2131
 30
0.000000
  70
    32
  0
VERTEX
  8
SAPA_ANSLUTNING
  5
1E88
 10
185.410
 20
44.0245
 30
0.000000
  70
    32
  0
VERTEX
  8
SAPA_ANSLUTNING
  5
1E89
 10
185.071
 20
43.8441
 30
0.000000
  70
    32
  0
VERTEX
  8
SAPA_ANSLUTNING
  5
1E8A
 10
184.716
 20
43.6724
 30
0.000000
  70
    32
  0
VERTEX
  8
SAPA_ANSLUTNING
  5
1E8B
 10
184.344
 20
43.5097
 30
0.000000
  70
    32
  0
VERTEX
  8
SAPA_ANSLUTNING
  5
1E8C
 10
183.957
 20
43.3564
 30
0.000000
  70
    32
  0
VERTEX
  8
SAPA_ANSLUTNING
  5
1E8D
 10
183.556
 20
43.2130
 30
0.000000
  70
    32
  0
VERTEX
  8
SAPA_ANSLUTNING
  5
1E8E
 10
183.141
 20
43.0797
 30
0.000000
  70
    32
  0
VERTEX
  8
SAPA_ANSLUTNING
  5
1E8F
 10
182.714
 20
42.9569
 30
0.000000
  70
    32
  0
VERTEX
  8
SAPA_ANSLUTNING
  5
1E90
 10
182.276
 20
42.8449
 30
0.000000
  70
    32
  0
VERTEX
  8
SAPA_ANSLUTNING
  5
1E91
 10
181.827
 20
42.7440
 30
0.000000
  70
    32
  0
VERTEX
  8
SAPA_ANSLUTNING
  5
1E92
 10
181.369
 20
42.6543
 30
0.000000
  70
    32
  0
VERTEX
  8
SAPA_ANSLUTNING
  5
1E93
 10
180.903
 20
42.5762
 30
0.000000
  70
    32
  0
VERTEX
  8
SAPA_ANSLUTNING
  5
1E94
 10
180.430
 20
42.5097
 30
0.000000
  70
    32
  0
VERTEX
  8
SAPA_ANSLUTNING
  5
1E95
 10
179.951
 20
42.4552
 30
0.000000
  70
    32
  0
VERTEX
  8
SAPA_ANSLUTNING
  5
1E96
 10
179.467
 20
42.4126
 30
0.000000
  70
    32
  0
VERTEX
  8
SAPA_ANSLUTNING
  5
1E97
 10
178.980
 20
42.3821
 30
0.000000
  70
    32
  0
VERTEX
  8
SAPA_ANSLUTNING
  5
1E98
 10
178.491
 20
42.3638
 30
0.000000
  70
    32
  0
VERTEX
  8
SAPA_ANSLUTNING
  5
1E99
 10
178.000
 20
42.3577
 30
0.000000
  70
    32
  0
VERTEX
  8
SAPA_ANSLUTNING
  5
1E9A
 10
177.509
 20
42.3638
 30
0.000000
  70
    32
  0
VERTEX
  8
SAPA_ANSLUTNING
  5
1E9B
 10
177.020
 20
42.3821
 30
0.000000
  70
    32
  0
VERTEX
  8
SAPA_ANSLUTNING
  5
1E9C
 10
176.533
 20
42.4126
 30
0.000000
  70
    32
  0
VERTEX
  8
SAPA_ANSLUTNING
  5
1E9D
 10
176.049
 20
42.4552
 30
0.000000
  70
    32
  0
VERTEX
  8
SAPA_ANSLUTNING
  5
1E9E
 10
175.570
 20
42.5097
 30
0.000000
  70
    32
  0
VERTEX
  8
SAPA_ANSLUTNING
  5
1E9F
 10
175.097
 20
42.5762
 30
0.000000
  70
    32
  0
VERTEX
  8
SAPA_ANSLUTNING
  5
1EA0
 10
174.631
 20
42.6543
 30
0.000000
  70
    32
  0
VERTEX
  8
SAPA_ANSLUTNING
  5
1EA1
 10
174.173
 20
42.7440
 30
0.000000
  70
    32
  0
VERTEX
  8
SAPA_ANSLUTNING
  5
1EA2
 10
173.724
 20
42.8449
 30
0.000000
  70
    32
  0
VERTEX
  8
SAPA_ANSLUTNING
  5
1EA3
 10
173.286
 20
42.9569
 30
0.000000
  70
    32
  0
VERTEX
  8
SAPA_ANSLUTNING
  5
1EA4
 10
172.859
 20
43.0797
 30
0.000000
  70
    32
  0
VERTEX
  8
SAPA_ANSLUTNING
  5
1EA5
 10
172.444
 20
43.2130
 30
0.000000
  70
    32
  0
VERTEX
  8
SAPA_ANSLUTNING
  5
1EA6
 10
172.043
 20
43.3564
 30
0.000000
  70
    32
  0
VERTEX
  8
SAPA_ANSLUTNING
  5
1EA7
 10
171.656
 20
43.5097
 30
0.000000
  70
    32
  0
VERTEX
  8
SAPA_ANSLUTNING
  5
1EA8
 10
171.284
 20
43.6724
 30
0.000000
  70
    32
  0
VERTEX
  8
SAPA_ANSLUTNING
  5
1EA9
 10
170.929
 20
43.8441
 30
0.000000
  70
    32
  0
VERTEX
  8
SAPA_ANSLUTNING
  5
1EAA
 10
170.590
 20
44.0245
 30
0.000000
  70
    32
  0
VERTEX
  8
SAPA_ANSLUTNING
  5
1EAB
 10
170.270
 20
44.2131
 30
0.000000
  70
    32
  0
VERTEX
  8
SAPA_ANSLUTNING
  5
1EAC
 10
169.968
 20
44.4095
 30
0.000000
  70
    32
  0
VERTEX
  8
SAPA_ANSLUTNING
  5
1EAD
 10
169.685
 20
44.6132
 30
0.000000
  70
    32
  0
VERTEX
  8
SAPA_ANSLUTNING
  5
1EAE
 10
169.423
 20
44.8236
 30
0.000000
  70
    32
  0
VERTEX
  8
SAPA_ANSLUTNING
  5
1EAF
 10
169.181
 20
45.0404
 30
0.000000
  70
    32
  0
VERTEX
  8
SAPA_ANSLUTNING
  5
1EB0
 10
168.960
 20
45.2629
 30
0.000000
  70
    32
  0
VERTEX
  8
SAPA_ANSLUTNING
  5
1EB1
 10
168.761
 20
45.4906
 30
0.000000
  70
    32
  0
VERTEX
  8
SAPA_ANSLUTNING
  5
1EB2
 10
168.585
 20
45.7230
 30
0.000000
  70
    32
  0
VERTEX
  8
SAPA_ANSLUTNING
  5
1EB3
 10
168.431
 20
45.9595
 30
0.000000
  70
    32
  0
VERTEX
  8
SAPA_ANSLUTNING
  5
1EB4
 10
168.300
 20
46.1996
 30
0.000000
  70
    32
  0
VERTEX
  8
SAPA_ANSLUTNING
  5
1EB5
 10
168.192
 20
46.4427
 30
0.000000
  70
    32
  0
VERTEX
  8
SAPA_ANSLUTNING
  5
1EB6
 10
168.108
 20
46.6881
 30
0.000000
  70
    32
  0
VERTEX
  8
SAPA_ANSLUTNING
  5
1EB7
 10
168.048
 20
46.9353
 30
0.000000
  70
    32
  0
VERTEX
  8
SAPA_ANSLUTNING
  5
1EB8
 10
168.012
 20
47.1837
 30
0.000000
  70
    32
  0
VERTEX
  8
SAPA_ANSLUTNING
  5
1EB9
 10
168.000
 20
47.4328
 30
0.000000
  70
    32
  0
VERTEX
  8
SAPA_ANSLUTNING
  5
1EBA
 10
168.012
 20
47.6818
 30
0.000000
  70
    32
  0
VERTEX
  8
SAPA_ANSLUTNING
  5
1EBB
 10
168.048
 20
47.9302
 30
0.000000
  70
    32
  0
VERTEX
  8
SAPA_ANSLUTNING
  5
1EBC
 10
168.108
 20
48.1774
 30
0.000000
  70
    32
  0
VERTEX
  8
SAPA_ANSLUTNING
  5
1EBD
 10
168.192
 20
48.4229
 30
0.000000
  70
    32
  0
VERTEX
  8
SAPA_ANSLUTNING
  5
1EBE
 10
168.300
 20
48.6659
 30
0.000000
  70
    32
  0
VERTEX
  8
SAPA_ANSLUTNING
  5
1EBF
 10
168.431
 20
48.9060
 30
0.000000
  70
    32
  0
VERTEX
  8
SAPA_ANSLUTNING
  5
1EC0
 10
168.585
 20
49.1425
 30
0.000000
  70
    32
  0
VERTEX
  8
SAPA_ANSLUTNING
  5
1EC1
 10
168.761
 20
49.3749
 30
0.000000
  70
    32
  0
VERTEX
  8
SAPA_ANSLUTNING
  5
1EC2
 10
168.960
 20
49.6027
 30
0.000000
  70
    32
  0
VERTEX
  8
SAPA_ANSLUTNING
  5
1EC3
 10
169.181
 20
49.8252
 30
0.000000
  70
    32
  0
VERTEX
  8
SAPA_ANSLUTNING
  5
1EC4
 10
169.423
 20
50.0419
 30
0.000000
  70
    32
  0
VERTEX
  8
SAPA_ANSLUTNING
  5
1EC5
 10
169.685
 20
50.2524
 30
0.000000
  70
    32
  0
VERTEX
  8
SAPA_ANSLUTNING
  5
1EC6
 10
169.968
 20
50.4560
 30
0.000000
  70
    32
  0
VERTEX
  8
SAPA_ANSLUTNING
  5
1EC7
 10
170.270
 20
50.6524
 30
0.000000
  70
    32
  0
VERTEX
  8
SAPA_ANSLUTNING
  5
1EC8
 10
170.590
 20
50.8410
 30
0.000000
  70
    32
  0
VERTEX
  8
SAPA_ANSLUTNING
  5
1EC9
 10
170.929
 20
51.0214
 30
0.000000
  70
    32
  0
VERTEX
  8
SAPA_ANSLUTNING
  5
1ECA
 10
171.284
 20
51.1932
 30
0.000000
  70
    32
  0
VERTEX
  8
SAPA_ANSLUTNING
  5
1ECB
 10
171.656
 20
51.3559
 30
0.000000
  70
    32
  0
VERTEX
  8
SAPA_ANSLUTNING
  5
1ECC
 10
172.043
 20
51.5091
 30
0.000000
  70
    32
  0
VERTEX
  8
SAPA_ANSLUTNING
  5
1ECD
 10
172.444
 20
51.6526
 30
0.000000
  70
    32
  0
VERTEX
  8
SAPA_ANSLUTNING
  5
1ECE
 10
172.859
 20
51.7858
 30
0.000000
  70
    32
  0
VERTEX
  8
SAPA_ANSLUTNING
  5
1ECF
 10
173.286
 20
51.9086
 30
0.000000
  70
    32
  0
VERTEX
  8
SAPA_ANSLUTNING
  5
1ED0
 10
173.724
 20
52.0206
 30
0.000000
  70
    32
  0
VERTEX
  8
SAPA_ANSLUTNING
  5
1ED1
 10
174.173
 20
52.1216
 30
0.000000
  70
    32
  0
VERTEX
  8
SAPA_ANSLUTNING
  5
1ED2
 10
174.631
 20
52.2112
 30
0.000000
  70
    32
  0
VERTEX
  8
SAPA_ANSLUTNING
  5
1ED3
 10
175.097
 20
52.2894
 30
0.000000
  70
    32
  0
VERTEX
  8
SAPA_ANSLUTNING
  5
1ED4
 10
175.570
 20
52.3558
 30
0.000000
  70
    32
  0
VERTEX
  8
SAPA_ANSLUTNING
  5
1ED5
 10
176.049
 20
52.4104
 30
0.000000
  70
    32
  0
VERTEX
  8
SAPA_ANSLUTNING
  5
1ED6
 10
176.533
 20
52.4530
 30
0.000000
  70
    32
  0
VERTEX
  8
SAPA_ANSLUTNING
  5
1ED7
 10
177.020
 20
52.4834
 30
0.000000
  70
    32
  0
VERTEX
  8
SAPA_ANSLUTNING
  5
1ED8
 10
177.509
 20
52.5018
 30
0.000000
  70
    32
  0
VERTEX
  8
SAPA_ANSLUTNING
  5
1ED9
 10
178.000
 20
52.5079
 30
0.000000
  70
    32
  0
VERTEX
  8
SAPA_ANSLUTNING
  5
1EDA
 10
178.491
 20
52.5018
 30
0.000000
  70
    32
  0
VERTEX
  8
SAPA_ANSLUTNING
  5
1EDB
 10
178.980
 20
52.4834
 30
0.000000
  70
    32
  0
VERTEX
  8
SAPA_ANSLUTNING
  5
1EDC
 10
179.467
 20
52.4530
 30
0.000000
  70
    32
  0
VERTEX
  8
SAPA_ANSLUTNING
  5
1EDD
 10
179.951
 20
52.4104
 30
0.000000
  70
    32
  0
VERTEX
  8
SAPA_ANSLUTNING
  5
1EDE
 10
180.430
 20
52.3558
 30
0.000000
  70
    32
  0
VERTEX
  8
SAPA_ANSLUTNING
  5
1EDF
 10
180.903
 20
52.2894
 30
0.000000
  70
    32
  0
VERTEX
  8
SAPA_ANSLUTNING
  5
1EE0
 10
181.369
 20
52.2112
 30
0.000000
  70
    32
  0
VERTEX
  8
SAPA_ANSLUTNING
  5
1EE1
 10
181.827
 20
52.1216
 30
0.000000
  70
    32
  0
VERTEX
  8
SAPA_ANSLUTNING
  5
1EE2
 10
182.276
 20
52.0206
 30
0.000000
  70
    32
  0
VERTEX
  8
SAPA_ANSLUTNING
  5
1EE3
 10
182.714
 20
51.9086
 30
0.000000
  70
    32
  0
VERTEX
  8
SAPA_ANSLUTNING
  5
1EE4
 10
183.141
 20
51.7858
 30
0.000000
  70
    32
  0
VERTEX
  8
SAPA_ANSLUTNING
  5
1EE5
 10
183.556
 20
51.6526
 30
0.000000
  70
    32
  0
VERTEX
  8
SAPA_ANSLUTNING
  5
1EE6
 10
183.957
 20
51.5091
 30
0.000000
  70
    32
  0
VERTEX
  8
SAPA_ANSLUTNING
  5
1EE7
 10
184.344
 20
51.3559
 30
0.000000
  70
    32
  0
VERTEX
  8
SAPA_ANSLUTNING
  5
1EE8
 10
184.716
 20
51.1932
 30
0.000000
  70
    32
  0
VERTEX
  8
SAPA_ANSLUTNING
  5
1EE9
 10
185.071
 20
51.0214
 30
0.000000
  70
    32
  0
VERTEX
  8
SAPA_ANSLUTNING
  5
1EEA
 10
185.410
 20
50.8410
 30
0.000000
  70
    32
  0
VERTEX
  8
SAPA_ANSLUTNING
  5
1EEB
 10
185.730
 20
50.6524
 30
0.000000
  70
    32
  0
VERTEX
  8
SAPA_ANSLUTNING
  5
1EEC
 10
186.032
 20
50.4560
 30
0.000000
  70
    32
  0
VERTEX
  8
SAPA_ANSLUTNING
  5
1EED
 10
186.315
 20
50.2524
 30
0.000000
  70
    32
  0
VERTEX
  8
SAPA_ANSLUTNING
  5
1EEE
 10
186.577
 20
50.0419
 30
0.000000
  70
    32
  0
VERTEX
  8
SAPA_ANSLUTNING
  5
1EEF
 10
186.819
 20
49.8252
 30
0.000000
  70
    32
  0
VERTEX
  8
SAPA_ANSLUTNING
  5
1EF0
 10
187.040
 20
49.6027
 30
0.000000
  70
    32
  0
VERTEX
  8
SAPA_ANSLUTNING
  5
1EF1
 10
187.239
 20
49.3749
 30
0.000000
  70
    32
  0
VERTEX
  8
SAPA_ANSLUTNING
  5
1EF2
 10
187.415
 20
49.1425
 30
0.000000
  70
    32
  0
VERTEX
  8
SAPA_ANSLUTNING
  5
1EF3
 10
187.569
 20
48.9060
 30
0.000000
  70
    32
  0
VERTEX
  8
SAPA_ANSLUTNING
  5
1EF4
 10
187.700
 20
48.6659
 30
0.000000
  70
    32
  0
VERTEX
  8
SAPA_ANSLUTNING
  5
1EF5
 10
187.808
 20
48.4229
 30
0.000000
  70
    32
  0
VERTEX
  8
SAPA_ANSLUTNING
  5
1EF6
 10
187.892
 20
48.1774
 30
0.000000
  70
    32
  0
VERTEX
  8
SAPA_ANSLUTNING
  5
1EF7
 10
187.952
 20
47.9302
 30
0.000000
  70
    32
  0
VERTEX
  8
SAPA_ANSLUTNING
  5
1EF8
 10
187.988
 20
47.6818
 30
0.000000
  70
    32
  0
VERTEX
  8
SAPA_ANSLUTNING
  5
1EF9
 10
188.000
 20
47.4328
 30
0.000000
  70
    32
  0
SEQEND
  8
SAPA_ANSLUTNING
  5
1EFA
  0
LINE
  5
E31
  8
SAPA_ANSLUTNING
 10
173.0000000000004
 20
8.8499999999999091
 30
0.0
 11
188.0000000000004
 21
8.8499999999999091
 31
0.0
  0
LINE
  5
E32
  8
SAPA_ANSLUTNING
 10
168.0000000000004
 20
20.849999999999909
 30
0.0
 11
188.0000000000004
 21
20.849999999999909
 31
0.0
  0
POLYLINE
  5
E95
  8
SAPA_LIGHT
 66
     1
 10
0.0
 20
0.0
 30
0.0
  0
VERTEX
  5
1495
  8
SAPA_LIGHT
 10
123.00973573889409
 20
58.849999999999902
 30
0.0
  0
VERTEX
  5
1496
  8
SAPA_LIGHT
 10
123.00973573889409
 20
63.849999999999802
 30
0.0
  0
VERTEX
  5
1497
  8
SAPA_LIGHT
 10
102.9902642611067
 20
63.849999999999802
 30
0.0
  0
VERTEX
  5
1498
  8
SAPA_LIGHT
 10
102.9902642611067
 20
58.849999999999902
 30
0.0
  0
VERTEX
  5
1499
  8
SAPA_LIGHT
 10
116.00314200000049
 20
58.849999999999902
 30
0.0
  0
VERTEX
  5
149A
  8
SAPA_LIGHT
 10
116.00314200000049
 20
8.8499999999999091
 30
0.0
  0
VERTEX
  5
149B
  8
SAPA_LIGHT
 10
173.00000000000031
 20
8.8499999999999091
 30
0.0
  0
VERTEX
  5
149C
  8
SAPA_LIGHT
 10
173.00000000000031
 20
58.849999999999937
 30
0.0
  0
VERTEX
  5
149D
  8
SAPA_LIGHT
 10
123.00973573889409
 20
58.849999999999902
 30
0.0
  0
SEQEND
  5
149E
  8
SAPA_LIGHT
  0
POLYLINE
  5
EA1
  8
SAPA_LIGHT
 66
     1
 10
0.0
 20
0.0
 30
0.0
  0
VERTEX
  5
149F
  8
SAPA_LIGHT
 10
-22.000000000002188
 20
17.849999999999788
 30
0.0
  0
VERTEX
  5
14A0
  8
SAPA_LIGHT
 10
-22.0000000000007
 20
8.3499999999998806
 30
0.0
  0
VERTEX
  5
14A1
  8
SAPA_LIGHT
 10
0.0000000000000284
 20
8.3499999999998806
 30
0.0
  0
VERTEX
  5
14A2
  8
SAPA_LIGHT
 10
0.0000000000000142
 20
3.8499999999997661
 30
0.0
  0
VERTEX
  5
14A3
  8
SAPA_LIGHT
 10
98.000000000000455
 20
3.8499999999997661
 30
0.0
  0
VERTEX
  5
14A4
  8
SAPA_LIGHT
 10
98.000000000000455
 20
9.1006166005751936
 30
0.0
  0
VERTEX
  5
14A5
  8
SAPA_LIGHT
 10
102.9902642611067
 20
9.100616600575222
 30
0.0
  0
VERTEX
  5
14A6
  8
SAPA_LIGHT
 10
102.9902642611067
 20
3.8499999999997661
 30
0.0
  0
VERTEX
  5
14A7
  8
SAPA_LIGHT
 10
123.00973573889409
 20
3.8499999999997949
 30
0.0
  0
VERTEX
  5
14A8
  8
SAPA_LIGHT
 10
123.00973573889409
 20
8.8499999999999091
 30
0.0
  0
VERTEX
  5
14A9
  8
SAPA_LIGHT
 10
109.9968580000004
 20
8.8499999999999091
 30
0.0
  0
VERTEX
  5
14AA
  8
SAPA_LIGHT
 10
109.9968580000004
 20
58.849999999999902
 30
0.0
  0
VERTEX
  5
14AB
  8
SAPA_LIGHT
 10
98.000000000000014
 20
58.849999999999902
 30
0.0
  0
VERTEX
  5
14AC
  8
SAPA_LIGHT
 10
98.000000000000014
 20
63.849999999999802
 30
0.0
  0
VERTEX
  5
14AD
  8
SAPA_LIGHT
 10
0.0
 20
63.849999999999802
 30
0.0
  0
VERTEX
  5
14AE
  8
SAPA_LIGHT
 10
0.0000000000000142
 20
59.349999999999881
 30
0.0
  0
VERTEX
  5
14AF
  8
SAPA_LIGHT
 10
-22.00000000000222
 20
59.349999999999881
 30
0.0
  0
VERTEX
  5
14B0
  8
SAPA_LIGHT
 10
-22.000000000002231
 20
29.849999999999799
 30
0.0
  0
SEQEND
  5
14B1
  8
SAPA_LIGHT
  0
POLYLINE
  5
12CB
  8
SAPA_PROFIL
 66
     1
 10
0.0
 20
0.0
 30
0.0
  0
VERTEX
  5
1A9A
  8
SAPA_PROFIL
 10
-1.1591314795184069
 20
57.837183279991592
 30
0.0
  0
VERTEX
  5
1A9B
  8
SAPA_PROFIL
 10
-0.6853558130035822
 20
57.837183279991592
 30
0.0
  0
VERTEX
  5
1A9C
  8
SAPA_PROFIL
 10
-0.6853558130035822
 20
59.349999999999881
 30
0.0
  0
VERTEX
  5
1A9D
  8
SAPA_PROFIL
 10
-21.702640706692019
 20
59.349999999999937
 30
0.0
 42
0.4116378201539302
  0
VERTEX
  5
1A9E
  8
SAPA_PROFIL
 10
-21.99999999999994
 20
59.050011522329591
 30
0.0
  0
VERTEX
  5
1A9F
  8
SAPA_PROFIL
 10
-21.99999999999995
 20
34.147404885508053
 30
0.0
 42
0.414213562373095
  0
VERTEX
  5
1AA0
  8
SAPA_PROFIL
 10
-21.699999999999989
 20
33.847404885508098
 30
0.0
  0
VERTEX
  5
1AA1
  8
SAPA_PROFIL
 10
-20.489999999999949
 20
33.847404885508162
 30
0.0
 42
0.4142135623731037
  0
VERTEX
  5
1AA2
  8
SAPA_PROFIL
 10
-19.49999999999995
 20
34.837404885508107
 30
0.0
  0
VERTEX
  5
1AA3
  8
SAPA_PROFIL
 10
-19.49999999999995
 20
34.847404885508098
 30
0.0
  0
VERTEX
  5
1AA4
  8
SAPA_PROFIL
 10
-20.74999999999995
 20
34.847404885508098
 30
0.0
  0
VERTEX
  5
1AA5
  8
SAPA_PROFIL
 10
-20.74999999999995
 20
36.347404885508098
 30
0.0
 42
-0.4142135623730951
  0
VERTEX
  5
1AA6
  8
SAPA_PROFIL
 10
-20.24999999999995
 20
36.847404885508098
 30
0.0
  0
VERTEX
  5
1AA7
  8
SAPA_PROFIL
 10
-12.24999999999994
 20
36.847404885508098
 30
0.0
 42
-0.4142135623730951
  0
VERTEX
  5
1AA8
  8
SAPA_PROFIL
 10
-11.74999999999994
 20
36.347404885508098
 30
0.0
  0
VERTEX
  5
1AA9
  8
SAPA_PROFIL
 10
-11.74999999999994
 20
34.847404885508098
 30
0.0
  0
VERTEX
  5
1AAA
  8
SAPA_PROFIL
 10
-12.99999999999994
 20
34.847404885508098
 30
0.0
  0
VERTEX
  5
1AAB
  8
SAPA_PROFIL
 10
-12.99999999999994
 20
34.837404885508107
 30
0.0
 42
0.414213562373095
  0
VERTEX
  5
1AAC
  8
SAPA_PROFIL
 10
-12.009999999999939
 20
33.847404885508098
 30
0.0
  0
VERTEX
  5
1AAD
  8
SAPA_PROFIL
 10
-11.49999999999995
 20
33.847404885508098
 30
0.0
 42
0.4142135623730953
  0
VERTEX
  5
1AAE
  8
SAPA_PROFIL
 10
-10.49999999999994
 20
34.847404885508098
 30
0.0
  0
VERTEX
  5
1AAF
  8
SAPA_PROFIL
 10
-10.49999999999994
 20
36.347404885508098
 30
0.0
 42
0.4142135623730951
  0
VERTEX
  5
1AB0
  8
SAPA_PROFIL
 10
-12.19999999999988
 20
38.04740488550803
 30
0.0
  0
VERTEX
  5
1AB1
  8
SAPA_PROFIL
 10
-19.99999999999994
 20
38.047404885508151
 30
0.0
 42
-0.414213562373095
  0
VERTEX
  5
1AB2
  8
SAPA_PROFIL
 10
-20.49999999999995
 20
38.547404885508151
 30
0.0
  0
VERTEX
  5
1AB3
  8
SAPA_PROFIL
 10
-20.49999999999995
 20
40.547404885508143
 30
0.0
 42
-0.4142135623730951
  0
VERTEX
  5
1AB4
  8
SAPA_PROFIL
 10
-19.99999999999994
 20
41.047404885508143
 30
0.0
  0
VERTEX
  5
1AB5
  8
SAPA_PROFIL
 10
-2.8787369215495451
 20
41.718614531974453
 30
0.0
  0
VERTEX
  5
1AB6
  8
SAPA_PROFIL
 10
2.52420984220015
 20
42.375552982703788
 30
0.0
 42
-0.4666505291506209
  0
VERTEX
  5
1AB7
  8
SAPA_PROFIL
 10
2.804011408118924
 20
42.113721451659302
 30
0.0
  0
VERTEX
  5
1AB8
  8
SAPA_PROFIL
 10
2.764468514200586
 20
41.391065358100292
 30
0.0
 42
0.7332303362618522
  0
VERTEX
  5
1AB9
  8
SAPA_PROFIL
 10
3.3005445368528958
 20
41.190890769530171
 30
0.0
  0
VERTEX
  5
1ABA
  8
SAPA_PROFIL
 10
4.0714546543572956
 20
43.30099810906782
 30
0.0
 42
0.668178637919333
  0
VERTEX
  5
1ABB
  8
SAPA_PROFIL
 10
3.7982884591629609
 20
43.783345961158687
 30
0.0
  0
VERTEX
  5
1ABC
  8
SAPA_PROFIL
 10
-2.8787369215495451
 20
43.028444819366399
 30
0.0
  0
VERTEX
  5
1ABD
  8
SAPA_PROFIL
 10
-19.99999999999994
 20
42.347404885508091
 30
0.0
 42
-0.414213562373095
  0
VERTEX
  5
1ABE
  8
SAPA_PROFIL
 10
-20.49999999999995
 20
42.847404885508091
 30
0.0
  0
VERTEX
  5
1ABF
  8
SAPA_PROFIL
 10
-20.49999999999989
 20
54.647018368516768
 30
0.0
 42
-0.4076767287637269
  0
VERTEX
  5
1AC0
  8
SAPA_PROFIL
 10
-17.567103649182972
 20
57.646268200906462
 30
0.0
  0
VERTEX
  5
1AC1
  8
SAPA_PROFIL
 10
-2.8787369215495451
 20
57.800707423017201
 30
0.0
 42
-0.4182129759575463
  0
VERTEX
  5
1AC2
  8
SAPA_PROFIL
 10
-2.367575809494098
 20
57.305195702159978
 30
0.0
  0
VERTEX
  5
1AC3
  8
SAPA_PROFIL
 10
-2.3547482079683841
 20
54.830547946040639
 30
0.0
  0
VERTEX
  5
1AC4
  8
SAPA_PROFIL
 10
-0.7000596103445674
 20
53.204489989847083
 30
0.0
  0
VERTEX
  5
1AC5
  8
SAPA_PROFIL
 10
3.8490164239436799
 20
53.204489989847083
 30
0.0
 42
0.4293387945586817
  0
VERTEX
  5
1AC6
  8
SAPA_PROFIL
 10
4.1457429450281893
 20
53.522601125836466
 30
0.0
  0
VERTEX
  5
1AC7
  8
SAPA_PROFIL
 10
4.0731032689004669
 20
54.604056851106947
 30
0.0
 42
0.4883397947196161
  0
VERTEX
  5
1AC8
  8
SAPA_PROFIL
 10
2.5113814428921151
 20
54.383433916908729
 30
0.0
  0
VERTEX
  5
1AC9
  8
SAPA_PROFIL
 10
-0.1876998331422896
 20
54.383433916908729
 30
0.0
  0
VERTEX
  5
1ACA
  8
SAPA_PROFIL
 10
-1.1591314795184069
 20
55.338057137106631
 30
0.0
  0
VERTEX
  5
1ACB
  8
SAPA_PROFIL
 10
-1.1591314795184069
 20
57.83916793438712
 30
0.0
  0
SEQEND
  5
1ACC
  8
SAPA_PROFIL
  0
LINE
  5
12CC
  8
SAPA_PROFIL
 10
-12.700000000003911
 20
12.850000000004909
 30
0.0
 11
-12.700000000003911
 21
12.850000000004909
 31
0.0
  0
POLYLINE
  5
12CD
  8
SAPA_PROFIL
 66
     1
 10
0.0
 20
0.0
 30
0.0
 70
     1
  0
VERTEX
  5
1ACD
  8
SAPA_PROFIL
 10
3.3000000000000682
 20
31.849999999999909
 30
0.0
 42
-0.4142135623730951
  0
VERTEX
  5
1ACE
  8
SAPA_PROFIL
 10
3.0
 20
32.149999999999856
 30
0.0
  0
VERTEX
  5
1ACF
  8
SAPA_PROFIL
 10
3.0
 20
32.983974596214921
 30
0.0
  0
VERTEX
  5
1AD0
  8
SAPA_PROFIL
 10
2.5
 20
33.849999999999909
 30
0.0
  0
VERTEX
  5
1AD1
  8
SAPA_PROFIL
 10
3.0
 20
34.716025403783881
 30
0.0
  0
VERTEX
  5
1AD2
  8
SAPA_PROFIL
 10
3.0
 20
35.549999999999962
 30
0.0
 42
-0.4142135623730951
  0
VERTEX
  5
1AD3
  8
SAPA_PROFIL
 10
3.3000000000000682
 20
35.849999999999909
 30
0.0
  0
VERTEX
  5
1AD4
  8
SAPA_PROFIL
 10
7.0
 20
35.849999999999909
 30
0.0
  0
VERTEX
  5
1AD5
  8
SAPA_PROFIL
 10
8.0
 20
36.849999999999909
 30
0.0
  0
VERTEX
  5
1AD6
  8
SAPA_PROFIL
 10
8.0
 20
50.949999999999811
 30
0.0
 42
-0.4142135623730951
  0
VERTEX
  5
1AD7
  8
SAPA_PROFIL
 10
8.3000000000000682
 20
51.249999999999893
 30
0.0
  0
VERTEX
  5
1AD8
  8
SAPA_PROFIL
 10
11.70000000000004
 20
51.249999999999893
 30
0.0
 42
0.4142135623730951
  0
VERTEX
  5
1AD9
  8
SAPA_PROFIL
 10
12.0
 20
51.549999999999947
 30
0.0
  0
VERTEX
  5
1ADA
  8
SAPA_PROFIL
 10
12.0
 20
53.149999999999871
 30
0.0
 42
0.4142135623730951
  0
VERTEX
  5
1ADB
  8
SAPA_PROFIL
 10
11.70000000000004
 20
53.449999999999811
 30
0.0
  0
VERTEX
  5
1ADC
  8
SAPA_PROFIL
 10
8.3000000000000682
 20
53.449999999999811
 30
0.0
 42
-0.4142135623730951
  0
VERTEX
  5
1ADD
  8
SAPA_PROFIL
 10
8.0
 20
53.749999999999893
 30
0.0
  0
VERTEX
  5
1ADE
  8
SAPA_PROFIL
 10
8.0
 20
60.549999999999962
 30
0.0
 42
-0.4142135623730951
  0
VERTEX
  5
1ADF
  8
SAPA_PROFIL
 10
8.3000000000000682
 20
60.849999999999909
 30
0.0
  0
VERTEX
  5
1AE0
  8
SAPA_PROFIL
 10
84.500000000000014
 20
60.849999999999909
 30
0.0
 42
-0.4142135623730951
  0
VERTEX
  5
1AE1
  8
SAPA_PROFIL
 10
84.800000000000068
 20
60.549999999999962
 30
0.0
  0
VERTEX
  5
1AE2
  8
SAPA_PROFIL
 10
84.800000000000068
 20
53.749999999999893
 30
0.0
 42
-0.4142135623730951
  0
VERTEX
  5
1AE3
  8
SAPA_PROFIL
 10
84.500000000000014
 20
53.449999999999811
 30
0.0
  0
VERTEX
  5
1AE4
  8
SAPA_PROFIL
 10
81.100000000000023
 20
53.449999999999811
 30
0.0
 42
0.4142135623730951
  0
VERTEX
  5
1AE5
  8
SAPA_PROFIL
 10
80.800000000000068
 20
53.149999999999871
 30
0.0
  0
VERTEX
  5
1AE6
  8
SAPA_PROFIL
 10
80.799999999999955
 20
51.549999999999947
 30
0.0
 42
0.4142135623730951
  0
VERTEX
  5
1AE7
  8
SAPA_PROFIL
 10
81.100000000000023
 20
51.249999999999893
 30
0.0
  0
VERTEX
  5
1AE8
  8
SAPA_PROFIL
 10
85.700000000000045
 20
51.249999999999893
 30
0.0
 42
-0.4142135623730951
  0
VERTEX
  5
1AE9
  8
SAPA_PROFIL
 10
86.0
 20
50.949999999999811
 30
0.0
  0
VERTEX
  5
1AEA
  8
SAPA_PROFIL
 10
86.0
 20
16.749999999999879
 30
0.0
 42
-0.4142135623730951
  0
VERTEX
  5
1AEB
  8
SAPA_PROFIL
 10
85.700000000000045
 20
16.449999999999811
 30
0.0
  0
VERTEX
  5
1AEC
  8
SAPA_PROFIL
 10
81.100000000000023
 20
16.449999999999811
 30
0.0
 42
0.4142135623730951
  0
VERTEX
  5
1AED
  8
SAPA_PROFIL
 10
80.799999999999955
 20
16.14999999999986
 30
0.0
  0
VERTEX
  5
1AEE
  8
SAPA_PROFIL
 10
80.800000000000068
 20
14.549999999999949
 30
0.0
 42
0.4142135623730951
  0
VERTEX
  5
1AEF
  8
SAPA_PROFIL
 10
81.100000000000023
 20
14.249999999999879
 30
0.0
  0
VERTEX
  5
1AF0
  8
SAPA_PROFIL
 10
84.500000000000014
 20
14.249999999999879
 30
0.0
 42
-0.4142135623730951
  0
VERTEX
  5
1AF1
  8
SAPA_PROFIL
 10
84.800000000000068
 20
13.94999999999982
 30
0.0
  0
VERTEX
  5
1AF2
  8
SAPA_PROFIL
 10
84.800000000000068
 20
7.1499999999998627
 30
0.0
 42
-0.4142135623730951
  0
VERTEX
  5
1AF3
  8
SAPA_PROFIL
 10
84.500000000000014
 20
6.8499999999999091
 30
0.0
  0
VERTEX
  5
1AF4
  8
SAPA_PROFIL
 10
7.5
 20
6.8499999999999091
 30
0.0
  0
VERTEX
  5
1AF5
  8
SAPA_PROFIL
 10
4.0878679656440218
 20
10.262132034355879
 30
0.0
 42
-0.1989123673797207
  0
VERTEX
  5
1AF6
  8
SAPA_PROFIL
 10
4.0
 20
10.47426406871182
 30
0.0
  0
VERTEX
  5
1AF7
  8
SAPA_PROFIL
 10
4.0
 20
13.94999999999982
 30
0.0
 42
-0.4142135623730951
  0
VERTEX
  5
1AF8
  8
SAPA_PROFIL
 10
4.3000000000000682
 20
14.249999999999879
 30
0.0
  0
VERTEX
  5
1AF9
  8
SAPA_PROFIL
 10
11.70000000000004
 20
14.249999999999879
 30
0.0
 42
0.4142135623730951
  0
VERTEX
  5
1AFA
  8
SAPA_PROFIL
 10
12.0
 20
14.549999999999949
 30
0.0
  0
VERTEX
  5
1AFB
  8
SAPA_PROFIL
 10
12.0
 20
16.14999999999986
 30
0.0
 42
0.4142135623730951
  0
VERTEX
  5
1AFC
  8
SAPA_PROFIL
 10
11.70000000000004
 20
16.449999999999811
 30
0.0
  0
VERTEX
  5
1AFD
  8
SAPA_PROFIL
 10
3.3000000000000682
 20
16.449999999999811
 30
0.0
 42
-0.4142135623730951
  0
VERTEX
  5
1AFE
  8
SAPA_PROFIL
 10
3.0
 20
16.749999999999879
 30
0.0
  0
VERTEX
  5
1AFF
  8
SAPA_PROFIL
 10
3.0
 20
29.549999999999962
 30
0.0
 42
-0.4142135623730951
  0
VERTEX
  5
1B00
  8
SAPA_PROFIL
 10
3.3000000000000682
 20
29.849999999999909
 30
0.0
  0
VERTEX
  5
1B01
  8
SAPA_PROFIL
 10
7.3000000000000682
 20
29.849999999999909
 30
0.0
 42
0.6681786379192989
  0
VERTEX
  5
1B02
  8
SAPA_PROFIL
 10
7.6535533905932871
 20
30.703553390593239
 30
0.0
  0
VERTEX
  5
1B03
  8
SAPA_PROFIL
 10
6.5071067811870762
 20
31.849999999999909
 30
0.0
  0
SEQEND
  5
1B04
  8
SAPA_PROFIL
  0
POLYLINE
  5
12CE
  8
SAPA_PROFIL
 66
     1
 10
0.0
 20
0.0
 30
0.0
 70
     1
  0
VERTEX
  5
1B05
  8
SAPA_PROFIL
 10
92.757359312881007
 20
3.8499999999999091
 30
0.0
 42
0.1989123673796595
  0
VERTEX
  5
1B06
  8
SAPA_PROFIL
 10
94.878679656440696
 20
4.7286796564402493
 30
0.0
  0
VERTEX
  5
1B07
  8
SAPA_PROFIL
 10
97.707106781187122
 20
7.557106781185893
 30
0.0
 42
0.1989123673796811
  0
VERTEX
  5
1B08
  8
SAPA_PROFIL
 10
98.0
 20
8.2642135623729018
 30
0.0
  0
VERTEX
  5
1B09
  8
SAPA_PROFIL
 10
98.000000000000455
 20
10.64999999999975
 30
0.0
 42
0.2504916501726618
  0
VERTEX
  5
1B0A
  8
SAPA_PROFIL
 10
97.0
 20
11.649999999999981
 30
0.0
  0
VERTEX
  5
1B0B
  8
SAPA_PROFIL
 10
96.300000000000068
 20
11.650000000000089
 30
0.0
 42
0.4142135623730951
  0
VERTEX
  5
1B0C
  8
SAPA_PROFIL
 10
96.0
 20
11.350000000000019
 30
0.0
  0
VERTEX
  5
1B0D
  8
SAPA_PROFIL
 10
96.0
 20
10.899999999999981
 30
0.0
 42
-0.4142135623730951
  0
VERTEX
  5
1B0E
  8
SAPA_PROFIL
 10
95.700000000000045
 20
10.600000000000019
 30
0.0
  0
VERTEX
  5
1B0F
  8
SAPA_PROFIL
 10
95.000000000000114
 20
10.600000000000019
 30
0.0
 42
-0.4142135623731506
  0
VERTEX
  5
1B10
  8
SAPA_PROFIL
 10
94.700000000000045
 20
10.899999999999981
 30
0.0
  0
VERTEX
  5
1B11
  8
SAPA_PROFIL
 10
94.700000000000045
 20
11.350000000000019
 30
0.0
 42
0.4142135623731506
  0
VERTEX
  5
1B12
  8
SAPA_PROFIL
 10
94.400000000000105
 20
11.649999999999981
 30
0.0
  0
VERTEX
  5
1B13
  8
SAPA_PROFIL
 10
93.900000000000091
 20
11.650000000000089
 30
0.0
 42
0.4142135623730951
  0
VERTEX
  5
1B14
  8
SAPA_PROFIL
 10
93.400000000000077
 20
11.150000000000089
 30
0.0
  0
VERTEX
  5
1B15
  8
SAPA_PROFIL
 10
93.400000000000077
 20
9.7500000000001137
 30
0.0
 42
-0.4142135623730951
  0
VERTEX
  5
1B16
  8
SAPA_PROFIL
 10
92.400000000000091
 20
8.7500000000001137
 30
0.0
  0
VERTEX
  5
1B17
  8
SAPA_PROFIL
 10
92.0
 20
8.75
 30
0.0
 42
-0.9999999999999998
  0
VERTEX
  5
1B18
  8
SAPA_PROFIL
 10
92.0
 20
15.95000000000004
 30
0.0
  0
VERTEX
  5
1B19
  8
SAPA_PROFIL
 10
93.100000000000136
 20
15.950000000000269
 30
0.0
 42
-0.4142135623732059
  0
VERTEX
  5
1B1A
  8
SAPA_PROFIL
 10
93.400000000000205
 20
15.650000000000089
 30
0.0
  0
VERTEX
  5
1B1B
  8
SAPA_PROFIL
 10
93.399999999999977
 20
15.350000000000129
 30
0.0
 42
0.4142135623733948
  0
VERTEX
  5
1B1C
  8
SAPA_PROFIL
 10
93.900000000000091
 20
14.849999999999911
 30
0.0
  0
VERTEX
  5
1B1D
  8
SAPA_PROFIL
 10
94.400000000000105
 20
14.849999999999911
 30
0.0
 42
0.4142135623730397
  0
VERTEX
  5
1B1E
  8
SAPA_PROFIL
 10
94.700000000000045
 20
15.14999999999986
 30
0.0
  0
VERTEX
  5
1B1F
  8
SAPA_PROFIL
 10
94.700000000000045
 20
15.600000000000019
 30
0.0
 42
-0.4142135623731505
  0
VERTEX
  5
1B20
  8
SAPA_PROFIL
 10
95.000000000000114
 20
15.899999999999981
 30
0.0
  0
VERTEX
  5
1B21
  8
SAPA_PROFIL
 10
95.700000000000045
 20
15.900000000000089
 30
0.0
 42
-0.4142135623730951
  0
VERTEX
  5
1B22
  8
SAPA_PROFIL
 10
96.0
 20
15.600000000000019
 30
0.0
  0
VERTEX
  5
1B23
  8
SAPA_PROFIL
 10
96.0
 20
15.14999999999986
 30
0.0
 42
0.4142135623730951
  0
VERTEX
  5
1B24
  8
SAPA_PROFIL
 10
96.300000000000068
 20
14.849999999999911
 30
0.0
  0
VERTEX
  5
1B25
  8
SAPA_PROFIL
 10
97.000000000000455
 20
14.85000000000036
 30
0.0
 42
0.2504916501726643
  0
VERTEX
  5
1B26
  8
SAPA_PROFIL
 10
98.000000000000455
 20
15.849999999999341
 30
0.0
  0
VERTEX
  5
1B27
  8
SAPA_PROFIL
 10
98.0
 20
18.14999999999986
 30
0.0
 42
0.4142135623730951
  0
VERTEX
  5
1B28
  8
SAPA_PROFIL
 10
97.0
 20
19.14999999999986
 30
0.0
  0
VERTEX
  5
1B29
  8
SAPA_PROFIL
 10
89.300000000000054
 20
19.14999999999986
 30
0.0
 42
-0.4142135623730951
  0
VERTEX
  5
1B2A
  8
SAPA_PROFIL
 10
89.0
 20
19.449999999999822
 30
0.0
  0
VERTEX
  5
1B2B
  8
SAPA_PROFIL
 10
89.0
 20
32.983974596214921
 30
0.0
  0
VERTEX
  5
1B2C
  8
SAPA_PROFIL
 10
88.499999999999986
 20
33.849999999999909
 30
0.0
  0
VERTEX
  5
1B2D
  8
SAPA_PROFIL
 10
89.0
 20
34.716025403783881
 30
0.0
  0
VERTEX
  5
1B2E
  8
SAPA_PROFIL
 10
89.0
 20
48.249999999999879
 30
0.0
 42
-0.4142135623730951
  0
VERTEX
  5
1B2F
  8
SAPA_PROFIL
 10
89.300000000000054
 20
48.549999999999947
 30
0.0
  0
VERTEX
  5
1B30
  8
SAPA_PROFIL
 10
97.0
 20
48.549999999999947
 30
0.0
 42
0.4142135623730951
  0
VERTEX
  5
1B31
  8
SAPA_PROFIL
 10
98.0
 20
49.549999999999947
 30
0.0
  0
VERTEX
  5
1B32
  8
SAPA_PROFIL
 10
98.0
 20
51.849999999999909
 30
0.0
 42
0.2504916501726643
  0
VERTEX
  5
1B33
  8
SAPA_PROFIL
 10
97.000000000000455
 20
52.849999999999447
 30
0.0
  0
VERTEX
  5
1B34
  8
SAPA_PROFIL
 10
96.300000000000068
 20
52.849999999999909
 30
0.0
 42
0.4142135623730951
  0
VERTEX
  5
1B35
  8
SAPA_PROFIL
 10
96.0
 20
52.549999999999947
 30
0.0
  0
VERTEX
  5
1B36
  8
SAPA_PROFIL
 10
96.0
 20
52.099999999999788
 30
0.0
 42
-0.4142135623730951
  0
VERTEX
  5
1B37
  8
SAPA_PROFIL
 10
95.700000000000045
 20
51.799999999999727
 30
0.0
  0
VERTEX
  5
1B38
  8
SAPA_PROFIL
 10
95.000000000000114
 20
51.799999999999841
 30
0.0
 42
-0.4142135623731506
  0
VERTEX
  5
1B39
  8
SAPA_PROFIL
 10
94.700000000000045
 20
52.099999999999788
 30
0.0
  0
VERTEX
  5
1B3A
  8
SAPA_PROFIL
 10
94.700000000000045
 20
52.549999999999947
 30
0.0
 42
0.4142135623730397
  0
VERTEX
  5
1B3B
  8
SAPA_PROFIL
 10
94.400000000000105
 20
52.849999999999909
 30
0.0
  0
VERTEX
  5
1B3C
  8
SAPA_PROFIL
 10
93.900000000000091
 20
52.849999999999909
 30
0.0
 42
0.4142135623733948
  0
VERTEX
  5
1B3D
  8
SAPA_PROFIL
 10
93.399999999999977
 20
52.349999999999682
 30
0.0
  0
VERTEX
  5
1B3E
  8
SAPA_PROFIL
 10
93.400000000000205
 20
52.049999999999727
 30
0.0
 42
-0.4142135623732059
  0
VERTEX
  5
1B3F
  8
SAPA_PROFIL
 10
93.100000000000136
 20
51.749999999999538
 30
0.0
  0
VERTEX
  5
1B40
  8
SAPA_PROFIL
 10
92.0
 20
51.749999999999773
 30
0.0
 42
-0.9999999999999998
  0
VERTEX
  5
1B41
  8
SAPA_PROFIL
 10
92.0
 20
58.949999999999811
 30
0.0
  0
VERTEX
  5
1B42
  8
SAPA_PROFIL
 10
92.400000000000091
 20
58.949999999999712
 30
0.0
 42
-0.4142135623730951
  0
VERTEX
  5
1B43
  8
SAPA_PROFIL
 10
93.400000000000077
 20
57.949999999999697
 30
0.0
  0
VERTEX
  5
1B44
  8
SAPA_PROFIL
 10
93.400000000000077
 20
56.54999999999972
 30
0.0
 42
0.4142135623730951
  0
VERTEX
  5
1B45
  8
SAPA_PROFIL
 10
93.900000000000091
 20
56.04999999999972
 30
0.0
  0
VERTEX
  5
1B46
  8
SAPA_PROFIL
 10
94.400000000000105
 20
56.049999999999841
 30
0.0
 42
0.4142135623731506
  0
VERTEX
  5
1B47
  8
SAPA_PROFIL
 10
94.700000000000045
 20
56.349999999999802
 30
0.0
  0
VERTEX
  5
1B48
  8
SAPA_PROFIL
 10
94.700000000000045
 20
56.799999999999841
 30
0.0
 42
-0.4142135623731505
  0
VERTEX
  5
1B49
  8
SAPA_PROFIL
 10
95.000000000000114
 20
57.099999999999788
 30
0.0
  0
VERTEX
  5
1B4A
  8
SAPA_PROFIL
 10
95.700000000000045
 20
57.099999999999788
 30
0.0
 42
-0.4142135623730951
  0
VERTEX
  5
1B4B
  8
SAPA_PROFIL
 10
96.0
 20
56.799999999999841
 30
0.0
  0
VERTEX
  5
1B4C
  8
SAPA_PROFIL
 10
96.0
 20
56.349999999999802
 30
0.0
 42
0.4142135623730951
  0
VERTEX
  5
1B4D
  8
SAPA_PROFIL
 10
96.300000000000068
 20
56.04999999999972
 30
0.0
  0
VERTEX
  5
1B4E
  8
SAPA_PROFIL
 10
97.0
 20
56.049999999999841
 30
0.0
 42
0.2504916501726621
  0
VERTEX
  5
1B4F
  8
SAPA_PROFIL
 10
98.000000000000455
 20
57.050000000000068
 30
0.0
  0
VERTEX
  5
1B50
  8
SAPA_PROFIL
 10
98.0
 20
59.435786437626803
 30
0.0
 42
0.1989123673796728
  0
VERTEX
  5
1B51
  8
SAPA_PROFIL
 10
97.707106781186681
 20
60.142893218813349
 30
0.0
  0
VERTEX
  5
1B52
  8
SAPA_PROFIL
 10
94.878679656439985
 20
62.971320343558887
 30
0.0
 42
0.1989123673796584
  0
VERTEX
  5
1B53
  8
SAPA_PROFIL
 10
92.757359312881007
 20
63.849999999999902
 30
0.0
  0
VERTEX
  5
1B54
  8
SAPA_PROFIL
 10
86.005332888819225
 20
63.849999999999902
 30
0.0
  0
VERTEX
  5
1B55
  8
SAPA_PROFIL
 10
5.2426406871200006
 20
63.849999999999902
 30
0.0
 42
0.1989123673796596
  0
VERTEX
  5
1B56
  8
SAPA_PROFIL
 10
3.1213203435599999
 20
62.971320343558887
 30
0.0
  0
VERTEX
  5
1B57
  8
SAPA_PROFIL
 10
0.2928932188134468
 20
60.14289321881347
 30
0.0
 42
0.1989123673796371
  0
VERTEX
  5
1B58
  8
SAPA_PROFIL
 10
0.0
 20
59.435786437626909
 30
0.0
  0
VERTEX
  5
1B59
  8
SAPA_PROFIL
 10
0.0
 20
56.349999999999902
 30
0.0
  0
VERTEX
  5
1B5A
  8
SAPA_PROFIL
 10
1.0
 20
55.349999999999909
 30
0.0
  0
VERTEX
  5
1B5B
  8
SAPA_PROFIL
 10
1.700000000000045
 20
55.349999999999909
 30
0.0
 42
0.4142135623730951
  0
VERTEX
  5
1B5C
  8
SAPA_PROFIL
 10
2.0
 20
55.649999999999871
 30
0.0
  0
VERTEX
  5
1B5D
  8
SAPA_PROFIL
 10
2.0
 20
57.399999999999856
 30
0.0
 42
-0.4142135623730951
  0
VERTEX
  5
1B5E
  8
SAPA_PROFIL
 10
2.3000000000000682
 20
57.699999999999811
 30
0.0
  0
VERTEX
  5
1B5F
  8
SAPA_PROFIL
 10
4.75
 20
57.699999999999811
 30
0.0
 42
-0.4142135623730951
  0
VERTEX
  5
1B60
  8
SAPA_PROFIL
 10
5.0500000000000682
 20
57.399999999999856
 30
0.0
  0
VERTEX
  5
1B61
  8
SAPA_PROFIL
 10
5.0500000000000682
 20
39.299999999999962
 30
0.0
 42
-0.4142135623730951
  0
VERTEX
  5
1B62
  8
SAPA_PROFIL
 10
4.75
 20
38.999999999999893
 30
0.0
  0
VERTEX
  5
1B63
  8
SAPA_PROFIL
 10
2.3000000000000682
 20
38.999999999999893
 30
0.0
 42
-0.4142135623730951
  0
VERTEX
  5
1B64
  8
SAPA_PROFIL
 10
2.0
 20
39.299999999999962
 30
0.0
  0
VERTEX
  5
1B65
  8
SAPA_PROFIL
 10
2.0
 20
41.049999999999947
 30
0.0
 42
0.4142135623730951
  0
VERTEX
  5
1B66
  8
SAPA_PROFIL
 10
1.700000000000045
 20
41.349999999999902
 30
0.0
  0
VERTEX
  5
1B67
  8
SAPA_PROFIL
 10
1.0
 20
41.349999999999902
 30
0.0
  0
VERTEX
  5
1B68
  8
SAPA_PROFIL
 10
0.0
 20
40.349999999999909
 30
0.0
  0
VERTEX
  5
1B69
  8
SAPA_PROFIL
 10
0.0
 20
34.716025403783881
 30
0.0
  0
VERTEX
  5
1B6A
  8
SAPA_PROFIL
 10
0.5
 20
33.849999999999909
 30
0.0
  0
VERTEX
  5
1B6B
  8
SAPA_PROFIL
 10
0.0
 20
32.983974596214921
 30
0.0
  0
VERTEX
  5
1B6C
  8
SAPA_PROFIL
 10
0.0
 20
13.849999999999911
 30
0.0
 42
-0.4142135623730951
  0
VERTEX
  5
1B6D
  8
SAPA_PROFIL
 10
-1.0
 20
12.849999999999911
 30
0.0
  0
VERTEX
  5
1B6E
  8
SAPA_PROFIL
 10
-10.235088935932019
 20
12.849999999999911
 30
0.0
 42
-0.3475404855922902
  0
VERTEX
  5
1B6F
  8
SAPA_PROFIL
 10
-10.52699148917827
 20
13.08076923076908
 30
0.0
 42
0.347540485592353
  0
VERTEX
  5
1B70
  8
SAPA_PROFIL
 10
-11.5
 20
13.849999999999911
 30
0.0
  0
VERTEX
  5
1B71
  8
SAPA_PROFIL
 10
-12.067544467961961
 20
13.849999999999911
 30
0.0
 42
0.2896898633048417
  0
VERTEX
  5
1B72
  8
SAPA_PROFIL
 10
-12.97105237087044
 20
13.278571428564421
 30
0.0
 42
0.5507604245820768
  0
VERTEX
  5
1B73
  8
SAPA_PROFIL
 10
-12.700000000003911
 20
12.850000000004909
 30
0.0
  0
VERTEX
  5
1B74
  8
SAPA_PROFIL
 10
-12.04999999999791
 20
12.85000000000082
 30
0.0
 42
-0.4142135623714856
  0
VERTEX
  5
1B75
  8
SAPA_PROFIL
 10
-11.75
 20
12.55000000000086
 30
0.0
  0
VERTEX
  5
1B76
  8
SAPA_PROFIL
 10
-11.75
 20
11.14999999999986
 30
0.0
 42
-0.4142135623730951
  0
VERTEX
  5
1B77
  8
SAPA_PROFIL
 10
-12.049999999999949
 20
10.849999999999911
 30
0.0
  0
VERTEX
  5
1B78
  8
SAPA_PROFIL
 10
-20.449999999999928
 20
10.849999999999911
 30
0.0
 42
-0.4142135623730951
  0
VERTEX
  5
1B79
  8
SAPA_PROFIL
 10
-20.74999999999989
 20
11.14999999999986
 30
0.0
  0
VERTEX
  5
1B7A
  8
SAPA_PROFIL
 10
-20.75
 20
12.549999999999949
 30
0.0
 42
-0.4142135623730951
  0
VERTEX
  5
1B7B
  8
SAPA_PROFIL
 10
-20.449999999999928
 20
12.849999999999911
 30
0.0
  0
VERTEX
  5
1B7C
  8
SAPA_PROFIL
 10
-19.799999999999951
 20
12.85000000000082
 30
0.0
  0
VERTEX
  5
1B7D
  8
SAPA_PROFIL
 10
-19.799999999995968
 20
12.849999999999911
 30
0.0
 42
0.5507604245871307
  0
VERTEX
  5
1B7E
  8
SAPA_PROFIL
 10
-19.528947629128648
 20
13.278571428573059
 30
0.0
 42
0.2896898633034174
  0
VERTEX
  5
1B7F
  8
SAPA_PROFIL
 10
-20.43245553203792
 20
13.849999999999911
 30
0.0
  0
VERTEX
  5
1B80
  8
SAPA_PROFIL
 10
-21.699999999999928
 20
13.849999999999911
 30
0.0
 42
0.4142135623730951
  0
VERTEX
  5
1B81
  8
SAPA_PROFIL
 10
-22.0
 20
13.549999999999949
 30
0.0
  0
VERTEX
  5
1B82
  8
SAPA_PROFIL
 10
-22.0
 20
9.3499999999999091
 30
0.0
 42
0.4142135623730951
  0
VERTEX
  5
1B83
  8
SAPA_PROFIL
 10
-21.0
 20
8.3499999999999091
 30
0.0
  0
VERTEX
  5
1B84
  8
SAPA_PROFIL
 10
-1.7426406871189779
 20
8.3499999999999091
 30
0.0
 42
-0.1989123673796595
  0
VERTEX
  5
1B85
  8
SAPA_PROFIL
 10
0.3786796564406814
 20
7.4713203435595679
 30
0.0
  0
VERTEX
  5
1B86
  8
SAPA_PROFIL
 10
3.1213203435599999
 20
4.7286796564399083
 30
0.0
 42
0.1989123673796601
  0
VERTEX
  5
1B87
  8
SAPA_PROFIL
 10
5.2426406871200006
 20
3.8499999999999091
 30
0.0
  0
SEQEND
  5
1B88
  8
SAPA_PROFIL
  0
POLYLINE
  5
12CF
  8
SAPA_PROFIL
 66
     1
 10
0.0
 20
0.0
 30
0.0
 70
     1
  0
VERTEX
  5
1B89
  8
SAPA_PROFIL
 10
166.20000000000039
 20
57.049999999999947
 30
0.0
  0
VERTEX
  5
1B8A
  8
SAPA_PROFIL
 10
134.8000000000003
 20
57.049999999999947
 30
0.0
  0
VERTEX
  5
1B8B
  8
SAPA_PROFIL
 10
134.80000000000041
 20
35.944999999999943
 30
0.0
 42
-0.4142135623732293
  0
VERTEX
  5
1B8C
  8
SAPA_PROFIL
 10
134.30500000000029
 20
35.449999999999932
 30
0.0
  0
VERTEX
  5
1B8D
  8
SAPA_PROFIL
 10
134.29500000000041
 20
35.449999999999932
 30
0.0
 42
-0.414213562373095
  0
VERTEX
  5
1B8E
  8
SAPA_PROFIL
 10
133.8000000000003
 20
35.944999999999943
 30
0.0
  0
VERTEX
  5
1B8F
  8
SAPA_PROFIL
 10
133.8000000000003
 20
36.104999999999912
 30
0.0
 42
0.414213562373028
  0
VERTEX
  5
1B90
  8
SAPA_PROFIL
 10
133.3050000000004
 20
36.599999999999909
 30
0.0
  0
VERTEX
  5
1B91
  8
SAPA_PROFIL
 10
132.50000000000031
 20
36.599999999999909
 30
0.0
 42
0.3747564601179658
  0
VERTEX
  5
1B92
  8
SAPA_PROFIL
 10
129.7756049567659
 20
34.2243950432362
 30
0.0
  0
VERTEX
  5
1B93
  8
SAPA_PROFIL
 10
130.1500000000006
 20
33.849999999999909
 30
0.0
  0
VERTEX
  5
1B94
  8
SAPA_PROFIL
 10
129.7756049567642
 20
33.475604956763391
 30
0.0
 42
0.3747564601179647
  0
VERTEX
  5
1B95
  8
SAPA_PROFIL
 10
132.5000000000002
 20
31.099999999999909
 30
0.0
  0
VERTEX
  5
1B96
  8
SAPA_PROFIL
 10
133.3050000000004
 20
31.099999999999909
 30
0.0
 42
0.4142135623730281
  0
VERTEX
  5
1B97
  8
SAPA_PROFIL
 10
133.8000000000003
 20
31.59499999999991
 30
0.0
  0
VERTEX
  5
1B98
  8
SAPA_PROFIL
 10
133.8000000000003
 20
31.754999999999882
 30
0.0
 42
-0.4142135623730951
  0
VERTEX
  5
1B99
  8
SAPA_PROFIL
 10
134.29500000000041
 20
32.249999999999893
 30
0.0
  0
VERTEX
  5
1B9A
  8
SAPA_PROFIL
 10
134.30500000000029
 20
32.25
 30
0.0
 42
-0.4142135623732296
  0
VERTEX
  5
1B9B
  8
SAPA_PROFIL
 10
134.8000000000003
 20
31.754999999999882
 30
0.0
  0
VERTEX
  5
1B9C
  8
SAPA_PROFIL
 10
134.8000000000003
 20
10.64999999999986
 30
0.0
  0
VERTEX
  5
1B9D
  8
SAPA_PROFIL
 10
166.20000000000039
 20
10.64999999999986
 30
0.0
  0
VERTEX
  5
1B9E
  8
SAPA_PROFIL
 10
166.20000000000039
 20
31.754999999999882
 30
0.0
 42
-0.4142135623731625
  0
VERTEX
  5
1B9F
  8
SAPA_PROFIL
 10
166.69500000000031
 20
32.249999999999893
 30
0.0
  0
VERTEX
  5
1BA0
  8
SAPA_PROFIL
 10
166.7050000000003
 20
32.249999999999893
 30
0.0
 42
-0.4142135623731625
  0
VERTEX
  5
1BA1
  8
SAPA_PROFIL
 10
167.2000000000001
 20
31.754999999999882
 30
0.0
  0
VERTEX
  5
1BA2
  8
SAPA_PROFIL
 10
167.2000000000003
 20
31.59499999999991
 30
0.0
 42
0.4142135623729606
  0
VERTEX
  5
1BA3
  8
SAPA_PROFIL
 10
167.69500000000031
 20
31.100000000000019
 30
0.0
  0
VERTEX
  5
1BA4
  8
SAPA_PROFIL
 10
168.50000000000031
 20
31.099999999999909
 30
0.0
 42
0.3747564601179647
  0
VERTEX
  5
1BA5
  8
SAPA_PROFIL
 10
171.22439504323631
 20
33.475604956763391
 30
0.0
  0
VERTEX
  5
1BA6
  8
SAPA_PROFIL
 10
170.84999999999999
 20
33.849999999999909
 30
0.0
  0
VERTEX
  5
1BA7
  8
SAPA_PROFIL
 10
171.22439504323469
 20
34.2243950432362
 30
0.0
 42
0.3747564601179658
  0
VERTEX
  5
1BA8
  8
SAPA_PROFIL
 10
168.50000000000031
 20
36.599999999999909
 30
0.0
  0
VERTEX
  5
1BA9
  8
SAPA_PROFIL
 10
167.69500000000031
 20
36.599999999999909
 30
0.0
 42
0.4142135623730281
  0
VERTEX
  5
1BAA
  8
SAPA_PROFIL
 10
167.2000000000001
 20
36.104999999999912
 30
0.0
  0
VERTEX
  5
1BAB
  8
SAPA_PROFIL
 10
167.2000000000001
 20
35.944999999999943
 30
0.0
 42
-0.4142135623731625
  0
VERTEX
  5
1BAC
  8
SAPA_PROFIL
 10
166.7050000000003
 20
35.449999999999932
 30
0.0
  0
VERTEX
  5
1BAD
  8
SAPA_PROFIL
 10
166.69500000000031
 20
35.449999999999932
 30
0.0
 42
-0.4142135623731625
  0
VERTEX
  5
1BAE
  8
SAPA_PROFIL
 10
166.20000000000039
 20
35.944999999999943
 30
0.0
  0
SEQEND
  5
1BAF
  8
SAPA_PROFIL
  0
POLYLINE
  5
12D0
  8
SAPA_PROFIL
 66
     1
 10
0.0
 20
0.0
 30
0.0
 70
     1
  0
VERTEX
  5
1BB0
  8
SAPA_PROFIL
 10
171.00000000000031
 20
57.049999999999947
 30
0.0
  0
VERTEX
  5
1BB1
  8
SAPA_PROFIL
 10
171.00000000000031
 20
54.849999999999909
 30
0.0
  0
VERTEX
  5
1BB2
  8
SAPA_PROFIL
 10
172.00000000000031
 20
54.849999999999909
 30
0.0
  0
VERTEX
  5
1BB3
  8
SAPA_PROFIL
 10
173.00000000000031
 20
55.849999999999909
 30
0.0
  0
VERTEX
  5
1BB4
  8
SAPA_PROFIL
 10
173.00000000000031
 20
58.849999999999902
 30
0.0
  0
VERTEX
  5
1BB5
  8
SAPA_PROFIL
 10
128.00000000000031
 20
58.849999999999902
 30
0.0
  0
VERTEX
  5
1BB6
  8
SAPA_PROFIL
 10
128.00000000000031
 20
55.849999999999909
 30
0.0
  0
VERTEX
  5
1BB7
  8
SAPA_PROFIL
 10
129.00000000000031
 20
54.849999999999909
 30
0.0
  0
VERTEX
  5
1BB8
  8
SAPA_PROFIL
 10
130.00000000000031
 20
54.849999999999909
 30
0.0
  0
VERTEX
  5
1BB9
  8
SAPA_PROFIL
 10
130.00000000000031
 20
57.049999999999947
 30
0.0
  0
VERTEX
  5
1BBA
  8
SAPA_PROFIL
 10
133.00000000000031
 20
57.049999999999947
 30
0.0
  0
VERTEX
  5
1BBB
  8
SAPA_PROFIL
 10
133.00000000000031
 20
38.349999999999909
 30
0.0
  0
VERTEX
  5
1BBC
  8
SAPA_PROFIL
 10
130.00000000000031
 20
38.349999999999909
 30
0.0
  0
VERTEX
  5
1BBD
  8
SAPA_PROFIL
 10
130.00000000000031
 20
40.849999999999909
 30
0.0
  0
VERTEX
  5
1BBE
  8
SAPA_PROFIL
 10
129.00000000000031
 20
40.849999999999909
 30
0.0
  0
VERTEX
  5
1BBF
  8
SAPA_PROFIL
 10
128.20000000000019
 20
40.049999999999947
 30
0.0
  0
VERTEX
  5
1BC0
  8
SAPA_PROFIL
 10
128.20000000000019
 20
34.369615242270577
 30
0.0
  0
VERTEX
  5
1BC1
  8
SAPA_PROFIL
 10
128.50000000000031
 20
33.849999999999909
 30
0.0
  0
VERTEX
  5
1BC2
  8
SAPA_PROFIL
 10
128.20000000000019
 20
33.330384757729227
 30
0.0
  0
VERTEX
  5
1BC3
  8
SAPA_PROFIL
 10
128.20000000000019
 20
27.64999999999986
 30
0.0
  0
VERTEX
  5
1BC4
  8
SAPA_PROFIL
 10
129.00000000000031
 20
26.849999999999909
 30
0.0
  0
VERTEX
  5
1BC5
  8
SAPA_PROFIL
 10
130.00000000000031
 20
26.849999999999909
 30
0.0
  0
VERTEX
  5
1BC6
  8
SAPA_PROFIL
 10
130.00000000000031
 20
29.349999999999909
 30
0.0
  0
VERTEX
  5
1BC7
  8
SAPA_PROFIL
 10
133.00000000000031
 20
29.349999999999909
 30
0.0
  0
VERTEX
  5
1BC8
  8
SAPA_PROFIL
 10
133.00000000000031
 20
10.64999999999986
 30
0.0
  0
VERTEX
  5
1BC9
  8
SAPA_PROFIL
 10
130.00000000000031
 20
10.64999999999986
 30
0.0
  0
VERTEX
  5
1BCA
  8
SAPA_PROFIL
 10
130.00000000000031
 20
12.849999999999911
 30
0.0
  0
VERTEX
  5
1BCB
  8
SAPA_PROFIL
 10
129.00000000000031
 20
12.849999999999911
 30
0.0
  0
VERTEX
  5
1BCC
  8
SAPA_PROFIL
 10
128.00000000000031
 20
11.849999999999911
 30
0.0
  0
VERTEX
  5
1BCD
  8
SAPA_PROFIL
 10
128.00000000000031
 20
8.8499999999999091
 30
0.0
  0
VERTEX
  5
1BCE
  8
SAPA_PROFIL
 10
173.00000000000031
 20
8.8499999999999091
 30
0.0
  0
VERTEX
  5
1BCF
  8
SAPA_PROFIL
 10
173.00000000000031
 20
11.849999999999911
 30
0.0
  0
VERTEX
  5
1BD0
  8
SAPA_PROFIL
 10
172.00000000000031
 20
12.849999999999911
 30
0.0
  0
VERTEX
  5
1BD1
  8
SAPA_PROFIL
 10
171.00000000000031
 20
12.849999999999911
 30
0.0
  0
VERTEX
  5
1BD2
  8
SAPA_PROFIL
 10
171.00000000000031
 20
10.64999999999986
 30
0.0
  0
VERTEX
  5
1BD3
  8
SAPA_PROFIL
 10
168.00000000000031
 20
10.64999999999986
 30
0.0
  0
VERTEX
  5
1BD4
  8
SAPA_PROFIL
 10
168.00000000000031
 20
29.349999999999909
 30
0.0
  0
VERTEX
  5
1BD5
  8
SAPA_PROFIL
 10
171.00000000000031
 20
29.349999999999909
 30
0.0
  0
VERTEX
  5
1BD6
  8
SAPA_PROFIL
 10
171.00000000000031
 20
26.849999999999909
 30
0.0
  0
VERTEX
  5
1BD7
  8
SAPA_PROFIL
 10
172.00000000000031
 20
26.849999999999909
 30
0.0
  0
VERTEX
  5
1BD8
  8
SAPA_PROFIL
 10
172.8000000000003
 20
27.64999999999986
 30
0.0
  0
VERTEX
  5
1BD9
  8
SAPA_PROFIL
 10
172.8000000000003
 20
33.330384757729227
 30
0.0
  0
VERTEX
  5
1BDA
  8
SAPA_PROFIL
 10
172.50000000000031
 20
33.849999999999909
 30
0.0
  0
VERTEX
  5
1BDB
  8
SAPA_PROFIL
 10
172.8000000000003
 20
34.369615242270577
 30
0.0
  0
VERTEX
  5
1BDC
  8
SAPA_PROFIL
 10
172.8000000000003
 20
40.049999999999947
 30
0.0
  0
VERTEX
  5
1BDD
  8
SAPA_PROFIL
 10
172.00000000000031
 20
40.849999999999909
 30
0.0
  0
VERTEX
  5
1BDE
  8
SAPA_PROFIL
 10
171.00000000000031
 20
40.849999999999909
 30
0.0
  0
VERTEX
  5
1BDF
  8
SAPA_PROFIL
 10
171.00000000000031
 20
38.349999999999909
 30
0.0
  0
VERTEX
  5
1BE0
  8
SAPA_PROFIL
 10
168.00000000000031
 20
38.349999999999909
 30
0.0
  0
VERTEX
  5
1BE1
  8
SAPA_PROFIL
 10
168.00000000000031
 20
57.049999999999947
 30
0.0
  0
SEQEND
  5
1BE2
  8
SAPA_PROFIL
  0
POLYLINE
  5
12D1
  8
SAPA_PROFIL
 66
     1
 10
0.0
 20
0.0
 30
0.0
 70
     1
  0
VERTEX
  5
1BE3
  8
SAPA_PROFIL
 10
116.00126452503589
 20
20.680960536358779
 30
0.0
 42
-0.4557262555325856
  0
VERTEX
  5
1BE4
  8
SAPA_PROFIL
 10
116.4963981076915
 20
21.250546567199851
 30
0.0
  0
VERTEX
  5
1BE5
  8
SAPA_PROFIL
 10
118.00314200000049
 20
21.250546567199851
 30
0.0
  0
VERTEX
  5
1BE6
  8
SAPA_PROFIL
 10
118.00314200000049
 20
22.750546567199851
 30
0.0
  0
VERTEX
  5
1BE7
  8
SAPA_PROFIL
 10
119.00314200000049
 20
22.750546567199851
 30
0.0
  0
VERTEX
  5
1BE8
  8
SAPA_PROFIL
 10
119.00314200000049
 20
32.98301516341553
 30
0.0
  0
VERTEX
  5
1BE9
  8
SAPA_PROFIL
 10
119.50314200000039
 20
33.84904056719995
 30
0.0
  0
VERTEX
  5
1BEA
  8
SAPA_PROFIL
 10
119.00314200000049
 20
34.715065970984313
 30
0.0
  0
VERTEX
  5
1BEB
  8
SAPA_PROFIL
 10
119.00314200000049
 20
44.947534567200023
 30
0.0
  0
VERTEX
  5
1BEC
  8
SAPA_PROFIL
 10
118.00314200000049
 20
44.947534567200023
 30
0.0
  0
VERTEX
  5
1BED
  8
SAPA_PROFIL
 10
118.00314200000049
 20
46.44753456720003
 30
0.0
  0
VERTEX
  5
1BEE
  8
SAPA_PROFIL
 10
116.00314200000049
 20
46.447534567200023
 30
0.0
  0
VERTEX
  5
1BEF
  8
SAPA_PROFIL
 10
114.97445957310239
 20
52.281482513027022
 30
0.0
 42
-0.4142135623730531
  0
VERTEX
  5
1BF0
  8
SAPA_PROFIL
 10
115.380039360775
 20
52.860710478366492
 30
0.0
  0
VERTEX
  5
1BF1
  8
SAPA_PROFIL
 10
115.8724432372811
 20
52.947534567200023
 30
0.0
  0
VERTEX
  5
1BF2
  8
SAPA_PROFIL
 10
115.99399696164789
 20
52.258169140091383
 30
0.0
 42
0.6705660098148247
  0
VERTEX
  5
1BF3
  8
SAPA_PROFIL
 10
116.5363143149013
 20
52.139815006213077
 30
0.0
  0
VERTEX
  5
1BF4
  8
SAPA_PROFIL
 10
118.1842531261225
 20
54.526663415023968
 30
0.0
 42
0.4103557430781616
  0
VERTEX
  5
1BF5
  8
SAPA_PROFIL
 10
118.0639832723469
 20
55.208747650189423
 30
0.0
  0
VERTEX
  5
1BF6
  8
SAPA_PROFIL
 10
115.6990770970575
 20
56.888023218477727
 30
0.0
 42
0.6705660098148535
  0
VERTEX
  5
1BF7
  8
SAPA_PROFIL
 10
115.2299449799135
 20
56.591323253345081
 30
0.0
  0
VERTEX
  5
1BF8
  8
SAPA_PROFIL
 10
115.3514987042804
 20
55.901957826236583
 30
0.0
  0
VERTEX
  5
1BF9
  8
SAPA_PROFIL
 10
114.8590948277742
 20
55.815133737403109
 30
0.0
 42
-0.4142135623731039
  0
VERTEX
  5
1BFA
  8
SAPA_PROFIL
 10
114.2798668624347
 20
56.220713525075759
 30
0.0
  0
VERTEX
  5
1BFB
  8
SAPA_PROFIL
 10
114.2030427736012
 20
56.656404583385708
 30
0.0
  0
VERTEX
  5
1BFC
  8
SAPA_PROFIL
 10
114.205713361317
 20
58.242888562344852
 30
0.0
 42
0.4147066859862996
  0
VERTEX
  5
1BFD
  8
SAPA_PROFIL
 10
111.2057176117448
 20
61.24793856719991
 30
0.0
  0
VERTEX
  5
1BFE
  8
SAPA_PROFIL
 10
103.4990890000004
 20
61.24793856719991
 30
0.0
 42
-0.6638253569871671
  0
VERTEX
  5
1BFF
  8
SAPA_PROFIL
 10
103.14111519301331
 20
62.127124760134492
 30
0.0
  0
VERTEX
  5
1C00
  8
SAPA_PROFIL
 10
105.1201533906719
 20
64.106162957793217
 30
0.0
 42
-0.1989123673796449
  0
VERTEX
  5
1C01
  8
SAPA_PROFIL
 10
105.47370678126519
 20
64.252609567199883
 30
0.0
  0
VERTEX
  5
1C02
  8
SAPA_PROFIL
 10
117.2919817556654
 20
64.252609567199883
 30
0.0
 42
-0.1989123673796422
  0
VERTEX
  5
1C03
  8
SAPA_PROFIL
 10
117.64553514625869
 20
64.106162957793188
 30
0.0
  0
VERTEX
  5
1C04
  8
SAPA_PROFIL
 10
123.0062819274452
 20
58.745416176606618
 30
0.0
 42
0.1989123673796659
  0
VERTEX
  5
1C05
  8
SAPA_PROFIL
 10
123.35983531803851
 20
58.598969567199902
 30
0.0
  0
VERTEX
  5
1C06
  8
SAPA_PROFIL
 10
128.0000000000004
 20
58.598969567199902
 30
0.0
  0
VERTEX
  5
1C07
  8
SAPA_PROFIL
 10
128.0000000000004
 20
55.348969567199902
 30
0.0
  0
VERTEX
  5
1C08
  8
SAPA_PROFIL
 10
129.5000000000004
 20
53.848969567199902
 30
0.0
  0
VERTEX
  5
1C09
  8
SAPA_PROFIL
 10
128.0000000000004
 20
52.348969567199902
 30
0.0
  0
VERTEX
  5
1C0A
  8
SAPA_PROFIL
 10
128.0000000000004
 20
48.750000567199898
 30
0.0
 42
0.4142140000000165
  0
VERTEX
  5
1C0B
  8
SAPA_PROFIL
 10
128.5000000000004
 20
48.250000567199898
 30
0.0
  0
VERTEX
  5
1C0C
  8
SAPA_PROFIL
 10
130.00314200000039
 20
48.250000567199898
 30
0.0
 42
-0.4142140000000145
  0
VERTEX
  5
1C0D
  8
SAPA_PROFIL
 10
131.00314200000039
 20
47.250000567199912
 30
0.0
  0
VERTEX
  5
1C0E
  8
SAPA_PROFIL
 10
131.00314200000039
 20
46.250000567199869
 30
0.0
  0
VERTEX
  5
1C0F
  8
SAPA_PROFIL
 10
123.7443228680779
 20
44.305005143511508
 30
0.0
 42
0.3394542338034085
  0
VERTEX
  5
1C10
  8
SAPA_PROFIL
 10
123.00314200000049
 20
43.339079340485789
 30
0.0
  0
VERTEX
  5
1C11
  8
SAPA_PROFIL
 10
123.00314200000049
 20
24.360920659514221
 30
0.0
 42
0.3394542744563553
  0
VERTEX
  5
1C12
  8
SAPA_PROFIL
 10
123.74432300891969
 20
23.394994818750011
 30
0.0
  0
VERTEX
  5
1C13
  8
SAPA_PROFIL
 10
131.00314200000039
 20
21.450000567199851
 30
0.0
  0
VERTEX
  5
1C14
  8
SAPA_PROFIL
 10
131.00314200000039
 20
20.450000567199851
 30
0.0
 42
-0.4142139999999982
  0
VERTEX
  5
1C15
  8
SAPA_PROFIL
 10
130.00314200000051
 20
19.450000567199961
 30
0.0
  0
VERTEX
  5
1C16
  8
SAPA_PROFIL
 10
128.5127360000005
 20
19.450000567199851
 30
0.0
 42
0.4142140000000124
  0
VERTEX
  5
1C17
  8
SAPA_PROFIL
 10
128.0127360000005
 20
18.950000567199879
 30
0.0
  0
VERTEX
  5
1C18
  8
SAPA_PROFIL
 10
128.0127360000005
 20
15.35000056719994
 30
0.0
  0
VERTEX
  5
1C19
  8
SAPA_PROFIL
 10
129.5127360000005
 20
13.85000056719994
 30
0.0
  0
VERTEX
  5
1C1A
  8
SAPA_PROFIL
 10
128.0127360000005
 20
12.35000056719994
 30
0.0
  0
VERTEX
  5
1C1B
  8
SAPA_PROFIL
 10
128.0127360000005
 20
9.1000005671998832
 30
0.0
  0
VERTEX
  5
1C1C
  8
SAPA_PROFIL
 10
120.0001819430021
 20
9.1000005671998832
 30
0.0
 42
-0.3780475071674513
  0
VERTEX
  5
1C1D
  8
SAPA_PROFIL
 10
117.02360286440511
 20
11.725865579716549
 30
0.0
  0
VERTEX
  5
1C1E
  8
SAPA_PROFIL
 10
116.6602394520788
 20
14.616747125795079
 30
0.0
 42
-0.4247728136669583
  0
VERTEX
  5
1C1F
  8
SAPA_PROFIL
 10
117.5469830000004
 20
15.750546567199899
 30
0.0
  0
VERTEX
  5
1C20
  8
SAPA_PROFIL
 10
117.5469830000004
 20
14.500546567199841
 30
0.0
  0
VERTEX
  5
1C21
  8
SAPA_PROFIL
 10
118.6469830000005
 20
14.500546567199841
 30
0.0
  0
VERTEX
  5
1C22
  8
SAPA_PROFIL
 10
118.6469830000005
 20
19.700546567199918
 30
0.0
  0
VERTEX
  5
1C23
  8
SAPA_PROFIL
 10
117.5469830000004
 20
19.700546567199918
 30
0.0
  0
VERTEX
  5
1C24
  8
SAPA_PROFIL
 10
117.5469830000004
 20
18.450546567199918
 30
0.0
  0
VERTEX
  5
1C25
  8
SAPA_PROFIL
 10
117.17346085664769
 20
18.450546567199918
 30
0.0
 42
-0.3760477967976817
  0
VERTEX
  5
1C26
  8
SAPA_PROFIL
 10
116.1821655384411
 20
19.318889466739279
 30
0.0
  0
SEQEND
  5
1C27
  8
SAPA_PROFIL
  0
POLYLINE
  5
12D2
  8
SAPA_PROFIL
 66
     1
 10
0.0
 20
0.0
 30
0.0
 70
     1
  0
VERTEX
  5
1C28
  8
SAPA_PROFIL
 10
109.998735474965
 20
47.018625631416327
 30
0.0
 42
-0.4557262555325856
  0
VERTEX
  5
1C29
  8
SAPA_PROFIL
 10
109.5036018923094
 20
46.449039600575261
 30
0.0
  0
VERTEX
  5
1C2A
  8
SAPA_PROFIL
 10
107.9968580000004
 20
46.449039600575261
 30
0.0
  0
VERTEX
  5
1C2B
  8
SAPA_PROFIL
 10
107.9968580000004
 20
44.949039600575261
 30
0.0
  0
VERTEX
  5
1C2C
  8
SAPA_PROFIL
 10
106.9968580000004
 20
44.949039600575261
 30
0.0
  0
VERTEX
  5
1C2D
  8
SAPA_PROFIL
 10
106.9968580000004
 20
34.716571004359579
 30
0.0
  0
VERTEX
  5
1C2E
  8
SAPA_PROFIL
 10
106.4968580000004
 20
33.85054560057516
 30
0.0
  0
VERTEX
  5
1C2F
  8
SAPA_PROFIL
 10
106.9968580000004
 20
32.984520196790797
 30
0.0
  0
VERTEX
  5
1C30
  8
SAPA_PROFIL
 10
106.9968580000004
 20
22.75205160057509
 30
0.0
  0
VERTEX
  5
1C31
  8
SAPA_PROFIL
 10
107.9968580000004
 20
22.75205160057509
 30
0.0
  0
VERTEX
  5
1C32
  8
SAPA_PROFIL
 10
107.9968580000004
 20
21.252051600575069
 30
0.0
  0
VERTEX
  5
1C33
  8
SAPA_PROFIL
 10
109.9968580000004
 20
21.252051600575069
 30
0.0
  0
VERTEX
  5
1C34
  8
SAPA_PROFIL
 10
111.0255404268984
 20
15.41810365474808
 30
0.0
 42
-0.4142135623730531
  0
VERTEX
  5
1C35
  8
SAPA_PROFIL
 10
110.61996063922579
 20
14.83887568940859
 30
0.0
  0
VERTEX
  5
1C36
  8
SAPA_PROFIL
 10
110.12755676271971
 20
14.75205160057507
 30
0.0
  0
VERTEX
  5
1C37
  8
SAPA_PROFIL
 10
110.0060030383529
 20
15.441417027683711
 30
0.0
 42
0.6705660098148247
  0
VERTEX
  5
1C38
  8
SAPA_PROFIL
 10
109.46368568509951
 20
15.55977116156201
 30
0.0
  0
VERTEX
  5
1C39
  8
SAPA_PROFIL
 10
107.8157468738783
 20
13.172922752751131
 30
0.0
 42
0.4103557430781616
  0
VERTEX
  5
1C3A
  8
SAPA_PROFIL
 10
107.93601672765389
 20
12.490838517585679
 30
0.0
  0
VERTEX
  5
1C3B
  8
SAPA_PROFIL
 10
110.3009229029434
 20
10.81156294929737
 30
0.0
 42
0.6705660098148535
  0
VERTEX
  5
1C3C
  8
SAPA_PROFIL
 10
110.7700550200873
 20
11.108262914430011
 30
0.0
  0
VERTEX
  5
1C3D
  8
SAPA_PROFIL
 10
110.64850129572049
 20
11.797628341538511
 30
0.0
  0
VERTEX
  5
1C3E
  8
SAPA_PROFIL
 10
111.1409051722266
 20
11.884452430371979
 30
0.0
 42
-0.4142135623731039
  0
VERTEX
  5
1C3F
  8
SAPA_PROFIL
 10
111.72013313756609
 20
11.478872642699329
 30
0.0
  0
VERTEX
  5
1C40
  8
SAPA_PROFIL
 10
111.7969572263996
 20
11.04318158438938
 30
0.0
  0
VERTEX
  5
1C41
  8
SAPA_PROFIL
 10
111.7942866386838
 20
9.4566976054302501
 30
0.0
 42
0.4147066859862996
  0
VERTEX
  5
1C42
  8
SAPA_PROFIL
 10
114.79428238825599
 20
6.4516476005751846
 30
0.0
  0
VERTEX
  5
1C43
  8
SAPA_PROFIL
 10
122.5009110000004
 20
6.4516476005751846
 30
0.0
 42
-0.6638253569871671
  0
VERTEX
  5
1C44
  8
SAPA_PROFIL
 10
122.8588848069875
 20
5.5724614076406018
 30
0.0
  0
VERTEX
  5
1C45
  8
SAPA_PROFIL
 10
120.87984660932889
 20
3.5934232099818781
 30
0.0
 42
-0.1989123673796449
  0
VERTEX
  5
1C46
  8
SAPA_PROFIL
 10
120.5262932187356
 20
3.446976600575212
 30
0.0
  0
VERTEX
  5
1C47
  8
SAPA_PROFIL
 10
108.70801824433541
 20
3.446976600575212
 30
0.0
 42
-0.1989123673796422
  0
VERTEX
  5
1C48
  8
SAPA_PROFIL
 10
108.3544648537422
 20
3.593423209981907
 30
0.0
  0
VERTEX
  5
1C49
  8
SAPA_PROFIL
 10
102.99371807255559
 20
8.9541699911684844
 30
0.0
 42
0.1989123673796659
  0
VERTEX
  5
1C4A
  8
SAPA_PROFIL
 10
102.6401646819623
 20
9.1006166005752078
 30
0.0
  0
VERTEX
  5
1C4B
  8
SAPA_PROFIL
 10
98.000000000000455
 20
9.1006166005752078
 30
0.0
  0
VERTEX
  5
1C4C
  8
SAPA_PROFIL
 10
98.000000000000455
 20
12.35061660057521
 30
0.0
  0
VERTEX
  5
1C4D
  8
SAPA_PROFIL
 10
96.500000000000455
 20
13.85061660057521
 30
0.0
  0
VERTEX
  5
1C4E
  8
SAPA_PROFIL
 10
98.000000000000455
 20
15.35061660057521
 30
0.0
  0
VERTEX
  5
1C4F
  8
SAPA_PROFIL
 10
98.000000000000455
 20
18.949585600575201
 30
0.0
 42
0.4142140000000165
  0
VERTEX
  5
1C50
  8
SAPA_PROFIL
 10
97.500000000000455
 20
19.449585600575201
 30
0.0
  0
VERTEX
  5
1C51
  8
SAPA_PROFIL
 10
95.996858000000444
 20
19.449585600575201
 30
0.0
 42
-0.4142140000000145
  0
VERTEX
  5
1C52
  8
SAPA_PROFIL
 10
94.996858000000415
 20
20.449585600575212
 30
0.0
  0
VERTEX
  5
1C53
  8
SAPA_PROFIL
 10
94.996858000000458
 20
21.449585600575229
 30
0.0
  0
VERTEX
  5
1C54
  8
SAPA_PROFIL
 10
102.25567713192299
 20
23.394581024263601
 30
0.0
 42
0.3394542338034085
  0
VERTEX
  5
1C55
  8
SAPA_PROFIL
 10
102.9968580000004
 20
24.36050682728931
 30
0.0
  0
VERTEX
  5
1C56
  8
SAPA_PROFIL
 10
102.9968580000004
 20
43.338665508260888
 30
0.0
 42
0.3394542744563553
  0
VERTEX
  5
1C57
  8
SAPA_PROFIL
 10
102.2556769910812
 20
44.304591349025102
 30
0.0
  0
VERTEX
  5
1C58
  8
SAPA_PROFIL
 10
94.996858000000415
 20
46.249585600575259
 30
0.0
  0
VERTEX
  5
1C59
  8
SAPA_PROFIL
 10
94.996858000000415
 20
47.249585600575251
 30
0.0
 42
-0.4142139999999982
  0
VERTEX
  5
1C5A
  8
SAPA_PROFIL
 10
95.996858000000444
 20
48.249585600575138
 30
0.0
  0
VERTEX
  5
1C5B
  8
SAPA_PROFIL
 10
97.487264000000408
 20
48.249585600575259
 30
0.0
 42
0.4142140000000124
  0
VERTEX
  5
1C5C
  8
SAPA_PROFIL
 10
97.987264000000422
 20
48.74958560057523
 30
0.0
  0
VERTEX
  5
1C5D
  8
SAPA_PROFIL
 10
97.987264000000422
 20
52.349585600575168
 30
0.0
  0
VERTEX
  5
1C5E
  8
SAPA_PROFIL
 10
96.487264000000408
 20
53.849585600575161
 30
0.0
  0
VERTEX
  5
1C5F
  8
SAPA_PROFIL
 10
97.987264000000422
 20
55.349585600575168
 30
0.0
  0
VERTEX
  5
1C60
  8
SAPA_PROFIL
 10
97.987264000000422
 20
58.599585600575217
 30
0.0
  0
VERTEX
  5
1C61
  8
SAPA_PROFIL
 10
105.99981805699881
 20
58.599585600575217
 30
0.0
 42
-0.3780475071674513
  0
VERTEX
  5
1C62
  8
SAPA_PROFIL
 10
108.9763971355957
 20
55.973720588058562
 30
0.0
  0
VERTEX
  5
1C63
  8
SAPA_PROFIL
 10
109.3397605479221
 20
53.08283904198003
 30
0.0
 42
-0.4247728136669583
  0
VERTEX
  5
1C64
  8
SAPA_PROFIL
 10
108.4530170000004
 20
51.949039600575198
 30
0.0
  0
VERTEX
  5
1C65
  8
SAPA_PROFIL
 10
108.4530170000004
 20
53.199039600575261
 30
0.0
  0
VERTEX
  5
1C66
  8
SAPA_PROFIL
 10
107.35301700000041
 20
53.199039600575261
 30
0.0
  0
VERTEX
  5
1C67
  8
SAPA_PROFIL
 10
107.35301700000041
 20
47.999039600575188
 30
0.0
  0
VERTEX
  5
1C68
  8
SAPA_PROFIL
 10
108.4530170000004
 20
47.999039600575188
 30
0.0
  0
VERTEX
  5
1C69
  8
SAPA_PROFIL
 10
108.4530170000004
 20
49.249039600575188
 30
0.0
  0
VERTEX
  5
1C6A
  8
SAPA_PROFIL
 10
108.8265391433532
 20
49.249039600575188
 30
0.0
 42
-0.3760477967976817
  0
VERTEX
  5
1C6B
  8
SAPA_PROFIL
 10
109.8178344615598
 20
48.380696701035831
 30
0.0
  0
SEQEND
  5
1C6C
  8
SAPA_PROFIL
  0
POLYLINE
  5
12DD
  8
SAPA_GLAS
 66
     1
 10
0.0
 20
0.0
 30
0.0
  0
VERTEX
  5
1C89
  8
SAPA_GLAS
 10
-37.999999999999972
 20
23.849999999999831
 30
0.0
  0
VERTEX
  5
1C8A
  8
SAPA_GLAS
 10
-4.9999999999999707
 20
23.849999999999859
 30
0.0
  0
VERTEX
  5
1C8B
  8
SAPA_GLAS
 10
-4.9999999999999707
 20
26.849999999999849
 30
0.0
  0
VERTEX
  5
1C8C
  8
SAPA_GLAS
 10
-37.999999999999972
 20
26.84999999999987
 30
0.0
  0
SEQEND
  5
1C8D
  8
SAPA_GLAS
  0
POLYLINE
  5
12DE
  8
SAPA_GLAS
 66
     1
 10
0.0
 20
0.0
 30
0.0
  0
VERTEX
  5
1C8E
  8
SAPA_GLAS
 10
-37.999999999999972
 20
20.849999999999831
 30
0.0
  0
VERTEX
  5
1C8F
  8
SAPA_GLAS
 10
-4.9999999999999707
 20
20.849999999999859
 30
0.0
  0
VERTEX
  5
1C90
  8
SAPA_GLAS
 10
-4.9999999999999707
 20
23.849999999999849
 30
0.0
  0
VERTEX
  5
1C91
  8
SAPA_GLAS
 10
-37.999999999999972
 20
23.84999999999987
 30
0.0
  0
SEQEND
  5
1C92
  8
SAPA_GLAS
  0
INSERT
  5
12DF
  8
SAPA_GLAS
 62
     6
  2
*X35
 10
-472.83697271707791
 20
-420.98853224133552
 30
0.0
  0
POLYLINE
  5
12E0
  8
SAPA_GLAS
 66
     1
 10
0.0
 20
0.0
 30
0.0
  0
VERTEX
  5
1C93
  8
SAPA_GLAS
 10
-37.999999999999972
 20
26.849999999999842
 30
0.0
  0
VERTEX
  5
1C94
  8
SAPA_GLAS
 10
-4.9999999999999707
 20
26.849999999999859
 30
0.0
  0
VERTEX
  5
1C95
  8
SAPA_GLAS
 10
-4.9999999999999707
 20
29.84999999999992
 30
0.0
  0
VERTEX
  5
1C96
  8
SAPA_GLAS
 10
-37.999999999999972
 20
29.849999999999859
 30
0.0
  0
SEQEND
  5
1C97
  8
SAPA_GLAS
  0
POLYLINE
  5
12E1
  8
SAPA_GLAS
 66
     1
 10
0.0
 20
0.0
 30
0.0
  0
VERTEX
  5
1C98
  8
SAPA_GLAS
 10
-37.999999999999972
 20
17.84999999999982
 30
0.0
  0
VERTEX
  5
1C99
  8
SAPA_GLAS
 10
-4.9999999999999707
 20
17.849999999999849
 30
0.0
  0
VERTEX
  5
1C9A
  8
SAPA_GLAS
 10
-4.9999999999999707
 20
20.849999999999849
 30
0.0
  0
VERTEX
  5
1C9B
  8
SAPA_GLAS
 10
-37.999999999999972
 20
20.84999999999987
 30
0.0
  0
SEQEND
  5
1C9C
  8
SAPA_GLAS
  0
POLYLINE
  5
12E2
  8
SAPA_GLAS
 66
     1
 10
0.0
 20
0.0
 30
0.0
 70
     1
  0
VERTEX
  5
1C9D
  8
SAPA_GLAS
 10
-9.8381359150984906
 20
17.849999999999849
 30
0.0
  0
VERTEX
  5
1C9E
  8
SAPA_GLAS
 10
-9.8381359150984906
 20
12.847516442753999
 30
0.0
  0
VERTEX
  5
1C9F
  8
SAPA_GLAS
 10
-1.000000419275263
 20
12.847516442753999
 30
0.0
 42
0.4142135623730951
  0
VERTEX
  5
1CA0
  8
SAPA_GLAS
 10
-0.0000004192752634
 20
13.847516442753999
 30
0.0
  0
VERTEX
  5
1CA1
  8
SAPA_GLAS
 10
-0.0000004192752634
 20
29.84999999999992
 30
0.0
  0
VERTEX
  5
1CA2
  8
SAPA_GLAS
 10
-4.9999999999999707
 20
29.849999999999849
 30
0.0
  0
VERTEX
  5
1CA3
  8
SAPA_GLAS
 10
-4.9999999999999707
 20
17.849999999999849
 30
0.0
  0
SEQEND
  5
1CA4
  8
SAPA_GLAS
  0
POLYLINE
  5
12F3
  8
SAPA_FOGBAND
 66
     1
 10
0.0
 20
0.0
 30
0.0
 70
     1
  0
VERTEX
  5
1D89
  8
SAPA_FOGBAND
 10
116.4001755699182
 20
54.056991384196429
 30
0.0
  0
VERTEX
  5
1D8A
  8
SAPA_FOGBAND
 10
114.9229639404
 20
53.796519117696022
 30
0.0
 42
-1.0
  0
VERTEX
  5
1D8B
  8
SAPA_FOGBAND
 10
114.749315762733
 20
54.78132687070822
 30
0.0
  0
VERTEX
  5
1D8C
  8
SAPA_FOGBAND
 10
116.2265273922513
 20
55.041799137208642
 30
0.0
 42
-0.9999999999999998
  0
SEQEND
  5
1D8D
  8
SAPA_FOGBAND
  0
POLYLINE
  5
12F4
  8
SAPA_FOGBAND
 66
     1
 10
0.0
 20
0.0
 30
0.0
  0
VERTEX
  5
1D8E
  8
SAPA_FOGBAND
 10
112.6996784587959
 20
57.605678620602781
 30
0.0
  0
VERTEX
  5
1D8F
  8
SAPA_FOGBAND
 10
112.6996784587959
 20
56.721586831443027
 30
0.0
 42
0.044131587116972
  0
VERTEX
  5
1D90
  8
SAPA_FOGBAND
 10
112.7307189838925
 20
56.370590269938489
 30
0.0
  0
VERTEX
  5
1D91
  8
SAPA_FOGBAND
 10
113.85244229855471
 20
50.078141879114263
 30
0.0
 42
-0.51794817552104
  0
VERTEX
  5
1D92
  8
SAPA_FOGBAND
 10
113.6228136433256
 20
49.845738979594351
 30
0.0
 42
-0.256035075286107
  0
VERTEX
  5
1D93
  8
SAPA_FOGBAND
 10
111.1676764624805
 20
51.735708039441548
 30
0.0
 42
0.0503535055675395
  0
VERTEX
  5
1D94
  8
SAPA_FOGBAND
 10
111.1459039460421
 20
51.76947880191797
 30
0.0
 42
-0.2540279951327155
  0
VERTEX
  5
1D95
  8
SAPA_FOGBAND
 10
111.148180990349
 20
53.108014490300107
 30
0.0
 42
0.1435946900963506
  0
VERTEX
  5
1D96
  8
SAPA_FOGBAND
 10
111.1713116008528
 20
53.218167056267554
 30
0.0
 42
-0.0233508054218105
  0
VERTEX
  5
1D97
  8
SAPA_FOGBAND
 10
111.15485782097539
 20
55.836060047762899
 30
0.0
 42
0.0340924937683871
  0
VERTEX
  5
1D98
  8
SAPA_FOGBAND
 10
111.1532687019259
 20
55.863255990760329
 30
0.0
 42
-0.2467308326003479
  0
VERTEX
  5
1D99
  8
SAPA_FOGBAND
 10
111.86292473288511
 20
59.035434163580952
 30
0.0
 42
-0.4180751713660579
  0
VERTEX
  5
1D9A
  8
SAPA_FOGBAND
 10
112.1474318631126
 20
59.024995333740058
 30
0.0
 42
-0.1876945004404132
  0
VERTEX
  5
1D9B
  8
SAPA_FOGBAND
 10
112.6996784587959
 20
57.605678740483562
 30
0.0
  0
SEQEND
  5
1D9C
  8
SAPA_FOGBAND
  0
POLYLINE
  5
12F5
  8
SAPA_FOGBAND
 66
     1
 10
0.0
 20
0.0
 30
0.0
  0
VERTEX
  5
1D9D
  8
SAPA_FOGBAND
 10
109.5319166761001
 20
52.431227334286483
 30
0.0
 42
-0.0143850088623774
  0
VERTEX
  5
1D9E
  8
SAPA_FOGBAND
 10
109.5715592099363
 20
52.389538542086342
 30
0.0
 42
-0.2651165110231096
  0
VERTEX
  5
1D9F
  8
SAPA_FOGBAND
 10
109.772450216637
 20
56.367329491662893
 30
0.0
 42
-0.9078892500667688
  0
VERTEX
  5
1DA0
  8
SAPA_FOGBAND
 10
110.3080832071672
 20
56.103214994429742
 30
0.0
 42
0.3125051264089063
  0
VERTEX
  5
1DA1
  8
SAPA_FOGBAND
 10
110.4396122187789
 20
53.166471377786159
 30
0.0
 42
-0.0203225602963811
  0
VERTEX
  5
1DA2
  8
SAPA_FOGBAND
 10
110.4333683554287
 20
55.791835545081561
 30
0.0
 42
0.0306532727106981
  0
VERTEX
  5
1DA3
  8
SAPA_FOGBAND
 10
110.43206793453879
 20
55.816300605818931
 30
0.0
 42
-0.2112224772463461
  0
VERTEX
  5
1DA4
  8
SAPA_FOGBAND
 10
110.9559990925198
 20
59.238588354992743
 30
0.0
 42
0.5233245991436544
  0
VERTEX
  5
1DA5
  8
SAPA_FOGBAND
 10
110.8698366283234
 20
59.555744897258272
 30
0.0
 42
0.0855230035730003
  0
VERTEX
  5
1DA6
  8
SAPA_FOGBAND
 10
109.9996784587959
 20
59.70567862060274
 30
0.0
  0
VERTEX
  5
1DA7
  8
SAPA_FOGBAND
 10
103.5294540632418
 20
59.428017980248931
 30
0.0
 42
-0.4586905831423799
  0
VERTEX
  5
1DA8
  8
SAPA_FOGBAND
 10
103.299678458796
 20
59.625789093862309
 30
0.0
  0
VERTEX
  5
1DA9
  8
SAPA_FOGBAND
 10
103.2996784587959
 20
60.905678620602792
 30
0.0
 42
-0.4142135623730951
  0
VERTEX
  5
1DAA
  8
SAPA_FOGBAND
 10
103.4996784587959
 20
61.105678620602838
 30
0.0
  0
VERTEX
  5
1DAB
  8
SAPA_FOGBAND
 10
110.59967845879579
 20
61.105678620602781
 30
0.0
 42
-0.4142136125334971
  0
VERTEX
  5
1DAC
  8
SAPA_FOGBAND
 10
114.09967845879579
 20
57.605678620602781
 30
0.0
  0
VERTEX
  5
1DAD
  8
SAPA_FOGBAND
 10
114.09967845879601
 20
56.039730976013423
 30
0.0
 42
0.466307658155004
  0
VERTEX
  5
1DAE
  8
SAPA_FOGBAND
 10
114.4517729120959
 20
55.744288650109723
 30
0.0
  0
VERTEX
  5
1DAF
  8
SAPA_FOGBAND
 10
115.46199456277721
 20
55.922417983620697
 30
0.0
  0
VERTEX
  5
1DB0
  8
SAPA_FOGBAND
 10
115.3925352917104
 20
56.316341084825602
 30
0.0
 42
-0.6720594905596488
  0
VERTEX
  5
1DB1
  8
SAPA_FOGBAND
 10
115.7059605878631
 20
56.513662835704302
 30
0.0
  0
VERTEX
  5
1DB2
  8
SAPA_FOGBAND
 10
117.54906969544641
 20
55.193454966638363
 30
0.0
 42
-0.4079520108343429
  0
VERTEX
  5
1DB3
  8
SAPA_FOGBAND
 10
117.6948281614256
 20
54.366817628475147
 30
0.0
  0
VERTEX
  5
1DB4
  8
SAPA_FOGBAND
 10
116.4144098183238
 20
52.49584759487
 30
0.0
 42
-0.6720594905597137
  0
VERTEX
  5
1DB5
  8
SAPA_FOGBAND
 10
116.0523983668447
 20
52.574071623379169
 30
0.0
  0
VERTEX
  5
1DB6
  8
SAPA_FOGBAND
 10
115.98293909577799
 20
52.967994724584081
 30
0.0
  0
VERTEX
  5
1DB7
  8
SAPA_FOGBAND
 10
115.096612118067
 20
52.811711364683809
 30
0.0
 42
0.414213562373214
  0
VERTEX
  5
1DB8
  8
SAPA_FOGBAND
 10
114.85326424546339
 20
52.464174585480087
 30
0.0
  0
VERTEX
  5
1DB9
  8
SAPA_FOGBAND
 10
115.4038179311295
 20
49.34182947723879
 30
0.0
 42
-0.3634650901427803
  0
VERTEX
  5
1DBA
  8
SAPA_FOGBAND
 10
115.2755956770613
 20
49.11928368395543
 30
0.0
 42
-0.3506085486976247
  0
VERTEX
  5
1DBB
  8
SAPA_FOGBAND
 10
109.5715592099363
 20
52.389538542086342
 30
0.0
  0
SEQEND
  5
1DBC
  8
SAPA_FOGBAND
  0
CIRCLE
  5
12F6
  8
SAPA_FOGBAND
 10
112.9200278233713
 20
58.729704008932991
 30
0.0
 40
0.2549509756796394
  0
INSERT
  5
12F7
  8
SAPA_FOGBAND
  6
CONTINUOUS
  2
*U89
 10
0.0
 20
0.0
 30
0.0
1001
ACAD
1002
{
1000
R14_HATCH_DATA
1000
12F7
1011
1.0
1021
0.0
1031
0.0
1021
0.0
1031
0.0
1011
0.0
1021
0.0
1031
0.0
1021
1.0
1031
0.0
1011
0.0
1021
0.0
1031
0.0
1021
0.0
1031
1.0
1040
0.0
1010
0.0
1020
0.0
1030
1.0
1000
SOLID
1070
     1
1070
     1
1071
        1
1071
        1
1071
        1
1070
     2
1040
112.9200278233713
1040
58.729704008932991
1040
0.2549509756796394
1040
-3.1415926535897931
1040
3.1415926535897931
1070
     0
1071
        1
1005
12F6
1070
     0
1070
     1
1071
        1
1040
120.0298759633567
1040
49.748984828411743
1040
0.0
1002
}
  0
POLYLINE
  5
12F8
  8
SAPA_FOGBAND
 66
     1
 10
0.0
 20
0.0
 30
0.0
 70
     1
  0
VERTEX
  5
1DCE
  8
SAPA_FOGBAND
 10
109.61557743008269
 20
13.64108878357901
 30
0.0
  0
VERTEX
  5
1DCF
  8
SAPA_FOGBAND
 10
111.0927890596009
 20
13.90156105007943
 30
0.0
 42
-1.0
  0
VERTEX
  5
1DD0
  8
SAPA_FOGBAND
 10
111.26643723726779
 20
12.916753297067221
 30
0.0
  0
VERTEX
  5
1DD1
  8
SAPA_FOGBAND
 10
109.7892256077496
 20
12.656281030566809
 30
0.0
 42
-0.9999999999999998
  0
SEQEND
  5
1DD2
  8
SAPA_FOGBAND
  0
POLYLINE
  5
12F9
  8
SAPA_FOGBAND
 66
     1
 10
0.0
 20
0.0
 30
0.0
  0
VERTEX
  5
1DD3
  8
SAPA_FOGBAND
 10
113.316074541205
 20
10.09240154717266
 30
0.0
  0
VERTEX
  5
1DD4
  8
SAPA_FOGBAND
 10
113.316074541205
 20
10.976493336332419
 30
0.0
 42
0.044131587116972
  0
VERTEX
  5
1DD5
  8
SAPA_FOGBAND
 10
113.2850340161084
 20
11.32748989783695
 30
0.0
  0
VERTEX
  5
1DD6
  8
SAPA_FOGBAND
 10
112.16331070144621
 20
17.619938288661182
 30
0.0
 42
-0.51794817552104
  0
VERTEX
  5
1DD7
  8
SAPA_FOGBAND
 10
112.3929393566752
 20
17.852341188181089
 30
0.0
 42
-0.256035075286107
  0
VERTEX
  5
1DD8
  8
SAPA_FOGBAND
 10
114.8480765375203
 20
15.96237212833389
 30
0.0
 42
0.0503535055675395
  0
VERTEX
  5
1DD9
  8
SAPA_FOGBAND
 10
114.8698490539588
 20
15.928601365857469
 30
0.0
 42
-0.2540279951327155
  0
VERTEX
  5
1DDA
  8
SAPA_FOGBAND
 10
114.86757200965189
 20
14.59006567747533
 30
0.0
 42
0.1435946900963506
  0
VERTEX
  5
1DDB
  8
SAPA_FOGBAND
 10
114.8444413991481
 20
14.479913111507891
 30
0.0
 42
-0.0233508054218105
  0
VERTEX
  5
1DDC
  8
SAPA_FOGBAND
 10
114.86089517902541
 20
11.862020120012531
 30
0.0
 42
0.0340924937683871
  0
VERTEX
  5
1DDD
  8
SAPA_FOGBAND
 10
114.8624842980749
 20
11.834824177015109
 30
0.0
 42
-0.2467308326003479
  0
VERTEX
  5
1DDE
  8
SAPA_FOGBAND
 10
114.15282826711569
 20
8.6626460041944924
 30
0.0
 42
-0.4180751713660579
  0
VERTEX
  5
1DDF
  8
SAPA_FOGBAND
 10
113.8683211368883
 20
8.6730848340353859
 30
0.0
 42
-0.1876945004404132
  0
VERTEX
  5
1DE0
  8
SAPA_FOGBAND
 10
113.316074541205
 20
10.092401427291881
 30
0.0
  0
SEQEND
  5
1DE1
  8
SAPA_FOGBAND
  0
POLYLINE
  5
12FA
  8
SAPA_FOGBAND
 66
     1
 10
0.0
 20
0.0
 30
0.0
  0
VERTEX
  5
1DE2
  8
SAPA_FOGBAND
 10
116.4838363239007
 20
15.26685283348896
 30
0.0
 42
-0.0143850088623774
  0
VERTEX
  5
1DE3
  8
SAPA_FOGBAND
 10
116.4441937900646
 20
15.308541625689109
 30
0.0
 42
-0.2651165110231096
  0
VERTEX
  5
1DE4
  8
SAPA_FOGBAND
 10
116.2433027833639
 20
11.330750676112549
 30
0.0
 42
-0.9078892500667688
  0
VERTEX
  5
1DE5
  8
SAPA_FOGBAND
 10
115.7076697928337
 20
11.594865173345701
 30
0.0
 42
0.3125051264089063
  0
VERTEX
  5
1DE6
  8
SAPA_FOGBAND
 10
115.57614078122199
 20
14.53160878998928
 30
0.0
 42
-0.0203225602963811
  0
VERTEX
  5
1DE7
  8
SAPA_FOGBAND
 10
115.5823846445721
 20
11.90624462269388
 30
0.0
 42
0.0306532727106981
  0
VERTEX
  5
1DE8
  8
SAPA_FOGBAND
 10
115.58368506546211
 20
11.881779561956501
 30
0.0
 42
-0.2112224772463461
  0
VERTEX
  5
1DE9
  8
SAPA_FOGBAND
 10
115.0597539074811
 20
8.4594918127827086
 30
0.0
 42
0.5233245991436544
  0
VERTEX
  5
1DEA
  8
SAPA_FOGBAND
 10
115.1459163716775
 20
8.1423352705171723
 30
0.0
 42
0.0855230035730003
  0
VERTEX
  5
1DEB
  8
SAPA_FOGBAND
 10
116.0160745412049
 20
7.9924015471726984
 30
0.0
  0
VERTEX
  5
1DEC
  8
SAPA_FOGBAND
 10
122.4862989367591
 20
8.2700621875265146
 30
0.0
 42
-0.4586905831423799
  0
VERTEX
  5
1DED
  8
SAPA_FOGBAND
 10
122.7160745412049
 20
8.0722910739131297
 30
0.0
  0
VERTEX
  5
1DEE
  8
SAPA_FOGBAND
 10
122.716074541205
 20
6.7924015471726529
 30
0.0
 42
-0.4142135623730951
  0
VERTEX
  5
1DEF
  8
SAPA_FOGBAND
 10
122.5160745412049
 20
6.5924015471726083
 30
0.0
  0
VERTEX
  5
1DF0
  8
SAPA_FOGBAND
 10
115.41607454120501
 20
6.5924015471726642
 30
0.0
 42
-0.4142136125334971
  0
VERTEX
  5
1DF1
  8
SAPA_FOGBAND
 10
111.91607454120501
 20
10.09240154717266
 30
0.0
  0
VERTEX
  5
1DF2
  8
SAPA_FOGBAND
 10
111.91607454120491
 20
11.658349191762021
 30
0.0
 42
0.466307658155004
  0
VERTEX
  5
1DF3
  8
SAPA_FOGBAND
 10
111.56398008790499
 20
11.95379151766573
 30
0.0
  0
VERTEX
  5
1DF4
  8
SAPA_FOGBAND
 10
110.55375843722371
 20
11.77566218415474
 30
0.0
  0
VERTEX
  5
1DF5
  8
SAPA_FOGBAND
 10
110.6232177082904
 20
11.38173908294984
 30
0.0
 42
-0.6720594905596488
  0
VERTEX
  5
1DF6
  8
SAPA_FOGBAND
 10
110.3097924121378
 20
11.18441733207114
 30
0.0
  0
VERTEX
  5
1DF7
  8
SAPA_FOGBAND
 10
108.46668330455449
 20
12.504625201137079
 30
0.0
 42
-0.4079520108343429
  0
VERTEX
  5
1DF8
  8
SAPA_FOGBAND
 10
108.32092483857519
 20
13.33126253930029
 30
0.0
  0
VERTEX
  5
1DF9
  8
SAPA_FOGBAND
 10
109.60134318167709
 20
15.202232572905441
 30
0.0
 42
-0.6720594905597137
  0
VERTEX
  5
1DFA
  8
SAPA_FOGBAND
 10
109.9633546331562
 20
15.12400854439627
 30
0.0
  0
VERTEX
  5
1DFB
  8
SAPA_FOGBAND
 10
110.03281390422281
 20
14.73008544319136
 30
0.0
  0
VERTEX
  5
1DFC
  8
SAPA_FOGBAND
 10
110.9191408819339
 20
14.88636880309163
 30
0.0
 42
0.414213562373214
  0
VERTEX
  5
1DFD
  8
SAPA_FOGBAND
 10
111.16248875453741
 20
15.23390558229535
 30
0.0
  0
VERTEX
  5
1DFE
  8
SAPA_FOGBAND
 10
110.6119350688714
 20
18.356250690536651
 30
0.0
 42
-0.3634650901427803
  0
VERTEX
  5
1DFF
  8
SAPA_FOGBAND
 10
110.7401573229396
 20
18.57879648382001
 30
0.0
 42
-0.3506085486976247
  0
VERTEX
  5
1E00
  8
SAPA_FOGBAND
 10
116.4441937900646
 20
15.308541625689109
 30
0.0
  0
SEQEND
  5
1E01
  8
SAPA_FOGBAND
  0
CIRCLE
  5
12FB
  8
SAPA_FOGBAND
 10
113.0957251766296
 20
8.9683761588424531
 30
0.0
 40
0.2549509756796394
  0
INSERT
  5
12FC
  8
SAPA_FOGBAND
  6
CONTINUOUS
  2
*U90
 10
0.0
 20
0.0
 30
0.0
1001
ACAD
1002
{
1000
R14_HATCH_DATA
1000
12FC
1011
1.0
1021
0.0
1031
0.0
1021
0.0
1031
0.0
1011
0.0
1021
0.0
1031
0.0
1021
1.0
1031
0.0
1011
0.0
1021
0.0
1031
0.0
1021
0.0
1031
1.0
1040
0.0
1010
0.0
1020
0.0
1030
1.0
1000
SOLID
1070
     1
1070
     1
1071
        1
1071
        1
1071
        1
1070
     2
1040
113.0957251766296
1040
8.9683761588424531
1040
0.2549509756796394
1040
-0.0000000000000001
1040
6.2831853071795862
1070
     0
1071
        1
1005
12FB
1070
     0
1070
     1
1071
        1
1040
105.9858770366442
1040
17.949095339363701
1040
0.0
1002
}
  0
POLYLINE
  5
12FD
  8
SAPA_FOGBAND
 66
     1
 10
0.0
 20
0.0
 30
0.0
 70
     1
  0
VERTEX
  5
1E13
  8
SAPA_FOGBAND
 10
-10.299999999999869
 20
32.84740488550819
 30
0.0
 42
0.4142135623730951
  0
VERTEX
  5
1E14
  8
SAPA_FOGBAND
 10
-11.299999999999869
 20
33.847404885508183
 30
0.0
  0
VERTEX
  5
1E15
  8
SAPA_FOGBAND
 10
-12.499999999999909
 20
33.847404885508183
 30
0.0
 42
-0.4142135623730951
  0
VERTEX
  5
1E16
  8
SAPA_FOGBAND
 10
-12.799999999999869
 20
34.147404885508372
 30
0.0
  0
VERTEX
  5
1E17
  8
SAPA_FOGBAND
 10
-12.799999999999869
 20
35.047404885508229
 30
0.0
  0
VERTEX
  5
1E18
  8
SAPA_FOGBAND
 10
-12.449999999999729
 20
35.047404885508229
 30
0.0
 42
0.6681786379193472
  0
VERTEX
  5
1E19
  8
SAPA_FOGBAND
 10
-12.237867965643909
 20
35.559536919864229
 30
0.0
  0
VERTEX
  5
1E1A
  8
SAPA_FOGBAND
 10
-13.091421356237131
 20
36.413090310457562
 30
0.0
 42
0.1989123673796526
  0
VERTEX
  5
1E1B
  8
SAPA_FOGBAND
 10
-13.6571067811864
 20
36.647404885508308
 30
0.0
  0
VERTEX
  5
1E1C
  8
SAPA_FOGBAND
 10
-13.819801903606191
 20
36.647404885508308
 30
0.0
 42
0.3394542588633746
  0
VERTEX
  5
1E1D
  8
SAPA_FOGBAND
 10
-14.109579651492959
 20
36.425050599038862
 30
0.0
  0
VERTEX
  5
1E1E
  8
SAPA_FOGBAND
 10
-14.472728894882859
 20
35.069759171977353
 30
0.0
 42
-0.3394542588633744
  0
VERTEX
  5
1E1F
  8
SAPA_FOGBAND
 10
-14.76250664276963
 20
34.847404885508134
 30
0.0
  0
VERTEX
  5
1E20
  8
SAPA_FOGBAND
 10
-17.337493357230102
 20
34.847404885508134
 30
0.0
 42
-0.3394542588633746
  0
VERTEX
  5
1E21
  8
SAPA_FOGBAND
 10
-17.627271105116868
 20
35.069759171977353
 30
0.0
  0
VERTEX
  5
1E22
  8
SAPA_FOGBAND
 10
-17.99042034850677
 20
36.425050599038862
 30
0.0
 42
0.3394542588633747
  0
VERTEX
  5
1E23
  8
SAPA_FOGBAND
 10
-18.280198096393551
 20
36.647404885508308
 30
0.0
  0
VERTEX
  5
1E24
  8
SAPA_FOGBAND
 10
-18.442893218813339
 20
36.647404885508308
 30
0.0
 42
0.1989123673796526
  0
VERTEX
  5
1E25
  8
SAPA_FOGBAND
 10
-19.008578643762721
 20
36.413090310457498
 30
0.0
  0
VERTEX
  5
1E26
  8
SAPA_FOGBAND
 10
-19.86213203435582
 20
35.559536919864172
 30
0.0
 42
0.6681786379193474
  0
VERTEX
  5
1E27
  8
SAPA_FOGBAND
 10
-19.649999999999999
 20
35.047404885508172
 30
0.0
  0
VERTEX
  5
1E28
  8
SAPA_FOGBAND
 10
-19.299999999999869
 20
35.047404885508172
 30
0.0
  0
VERTEX
  5
1E29
  8
SAPA_FOGBAND
 10
-19.299999999999869
 20
34.147404885508308
 30
0.0
 42
-0.4142135623730951
  0
VERTEX
  5
1E2A
  8
SAPA_FOGBAND
 10
-19.59999999999982
 20
33.847404885508134
 30
0.0
  0
VERTEX
  5
1E2B
  8
SAPA_FOGBAND
 10
-21.69999999999996
 20
33.847404885508134
 30
0.0
 42
-0.4142135623730951
  0
VERTEX
  5
1E2C
  8
SAPA_FOGBAND
 10
-21.999999999999918
 20
34.147404885508308
 30
0.0
  0
VERTEX
  5
1E2D
  8
SAPA_FOGBAND
 10
-21.999999999999918
 20
35.547404885508172
 30
0.0
 42
0.7754026414785753
  0
VERTEX
  5
1E2E
  8
SAPA_FOGBAND
 10
-22.562791995407601
 20
35.692112753814058
 30
0.0
  0
VERTEX
  5
1E2F
  8
SAPA_FOGBAND
 10
-26.082494505952951
 20
30.290900466058751
 30
0.0
 42
0.8680589103334742
  0
VERTEX
  5
1E30
  8
SAPA_FOGBAND
 10
-25.607570476189409
 20
29.93406056339705
 30
0.0
  0
VERTEX
  5
1E31
  8
SAPA_FOGBAND
 10
-22.26788072708306
 20
32.0545116666948
 30
0.0
 42
-0.198912367379658
  0
VERTEX
  5
1E32
  8
SAPA_FOGBAND
 10
-21.560773945896379
 20
32.347404885508134
 30
0.0
  0
VERTEX
  5
1E33
  8
SAPA_FOGBAND
 10
-18.727454981476651
 20
32.347404885508134
 30
0.0
 42
-0.5773502691896282
  0
VERTEX
  5
1E34
  8
SAPA_FOGBAND
 10
-18.467647360341431
 20
31.897404885508308
 30
0.0
  0
VERTEX
  5
1E35
  8
SAPA_FOGBAND
 10
-19.975430408707691
 20
30.29999999999983
 30
0.0
 42
0.8769764629927299
  0
VERTEX
  5
1E36
  8
SAPA_FOGBAND
 10
-19.503490753216429
 20
29.937867965643932
 30
0.0
  0
VERTEX
  5
1E37
  8
SAPA_FOGBAND
 10
-16.167608406357122
 20
32.0545116666948
 30
0.0
 42
-0.198912367379658
  0
VERTEX
  5
1E38
  8
SAPA_FOGBAND
 10
-15.460501625170449
 20
32.347404885508134
 30
0.0
  0
VERTEX
  5
1E39
  8
SAPA_FOGBAND
 10
-13.22822726294887
 20
32.347404885508183
 30
0.0
 42
-0.5773502691896282
  0
VERTEX
  5
1E3A
  8
SAPA_FOGBAND
 10
-12.96841964181354
 20
31.897404885508369
 30
0.0
  0
VERTEX
  5
1E3B
  8
SAPA_FOGBAND
 10
-14.47570111529731
 20
30.300868753180222
 30
0.0
 42
0.8769764629927299
  0
VERTEX
  5
1E3C
  8
SAPA_FOGBAND
 10
-14.00376145980605
 20
29.938736718824309
 30
0.0
  0
VERTEX
  5
1E3D
  8
SAPA_FOGBAND
 10
-10.59289321881343
 20
32.13036631400854
 30
0.0
 42
0.198912367379658
  0
VERTEX
  5
1E3E
  8
SAPA_FOGBAND
 10
-10.299999999999869
 20
32.83747309519498
 30
0.0
  0
SEQEND
  5
1E3F
  8
SAPA_FOGBAND
  0
POLYLINE
  5
12FE
  8
SAPA_FOGBAND
 66
     1
 10
0.0
 20
0.0
 30
0.0
 70
     1
  0
VERTEX
  5
1E40
  8
SAPA_FOGBAND
 10
-10.59235241927521
 20
14.849999999999911
 30
0.0
 42
-0.4142135623730951
  0
VERTEX
  5
1E41
  8
SAPA_FOGBAND
 10
-11.59235241927521
 20
13.849999999999911
 30
0.0
  0
VERTEX
  5
1E42
  8
SAPA_FOGBAND
 10
-12.792352419275259
 20
13.849999999999911
 30
0.0
 42
0.4142135623730951
  0
VERTEX
  5
1E43
  8
SAPA_FOGBAND
 10
-13.09235241927521
 20
13.549999999999731
 30
0.0
  0
VERTEX
  5
1E44
  8
SAPA_FOGBAND
 10
-13.09235241927521
 20
12.64999999999986
 30
0.0
  0
VERTEX
  5
1E45
  8
SAPA_FOGBAND
 10
-12.742352419275081
 20
12.64999999999986
 30
0.0
 42
-0.6681786379193472
  0
VERTEX
  5
1E46
  8
SAPA_FOGBAND
 10
-12.530220384919261
 20
12.13786796564386
 30
0.0
  0
VERTEX
  5
1E47
  8
SAPA_FOGBAND
 10
-13.383773775512481
 20
11.28431457505053
 30
0.0
 42
-0.1989123673796526
  0
VERTEX
  5
1E48
  8
SAPA_FOGBAND
 10
-13.949459200461741
 20
11.04999999999972
 30
0.0
  0
VERTEX
  5
1E49
  8
SAPA_FOGBAND
 10
-14.11215432288154
 20
11.04999999999972
 30
0.0
 42
-0.3394542588633746
  0
VERTEX
  5
1E4A
  8
SAPA_FOGBAND
 10
-14.401932070768311
 20
11.272354286469181
 30
0.0
  0
VERTEX
  5
1E4B
  8
SAPA_FOGBAND
 10
-14.765081314158209
 20
12.627645713530679
 30
0.0
 42
0.3394542588633744
  0
VERTEX
  5
1E4C
  8
SAPA_FOGBAND
 10
-15.054859062044979
 20
12.849999999999911
 30
0.0
  0
VERTEX
  5
1E4D
  8
SAPA_FOGBAND
 10
-17.629845776505451
 20
12.849999999999911
 30
0.0
 42
0.3394542588633746
  0
VERTEX
  5
1E4E
  8
SAPA_FOGBAND
 10
-17.919623524392222
 20
12.627645713530679
 30
0.0
  0
VERTEX
  5
1E4F
  8
SAPA_FOGBAND
 10
-18.28277276778212
 20
11.272354286469181
 30
0.0
 42
-0.3394542588633747
  0
VERTEX
  5
1E50
  8
SAPA_FOGBAND
 10
-18.57255051566889
 20
11.04999999999972
 30
0.0
  0
VERTEX
  5
1E51
  8
SAPA_FOGBAND
 10
-18.735245638088681
 20
11.04999999999972
 30
0.0
 42
-0.1989123673796526
  0
VERTEX
  5
1E52
  8
SAPA_FOGBAND
 10
-19.30093106303806
 20
11.28431457505053
 30
0.0
  0
VERTEX
  5
1E53
  8
SAPA_FOGBAND
 10
-20.15448445363117
 20
12.13786796564386
 30
0.0
 42
-0.6681786379193474
  0
VERTEX
  5
1E54
  8
SAPA_FOGBAND
 10
-19.942352419275348
 20
12.64999999999986
 30
0.0
  0
VERTEX
  5
1E55
  8
SAPA_FOGBAND
 10
-19.592352419275208
 20
12.64999999999986
 30
0.0
  0
VERTEX
  5
1E56
  8
SAPA_FOGBAND
 10
-19.592352419275208
 20
13.549999999999731
 30
0.0
 42
0.4142135623730951
  0
VERTEX
  5
1E57
  8
SAPA_FOGBAND
 10
-19.89235241927517
 20
13.849999999999911
 30
0.0
  0
VERTEX
  5
1E58
  8
SAPA_FOGBAND
 10
-21.99235241927531
 20
13.849999999999911
 30
0.0
 42
0.4142135623730951
  0
VERTEX
  5
1E59
  8
SAPA_FOGBAND
 10
-22.292352419275261
 20
13.549999999999731
 30
0.0
  0
VERTEX
  5
1E5A
  8
SAPA_FOGBAND
 10
-22.292352419275261
 20
12.14999999999986
 30
0.0
 42
-0.7754026414785753
  0
VERTEX
  5
1E5B
  8
SAPA_FOGBAND
 10
-22.85514441468294
 20
12.005292131693979
 30
0.0
  0
VERTEX
  5
1E5C
  8
SAPA_FOGBAND
 10
-26.374846925228301
 20
17.409099533940939
 30
0.0
 42
-0.8680589103334742
  0
VERTEX
  5
1E5D
  8
SAPA_FOGBAND
 10
-25.899922895464758
 20
17.76593943660265
 30
0.0
  0
VERTEX
  5
1E5E
  8
SAPA_FOGBAND
 10
-22.560233146358399
 20
15.64289321881324
 30
0.0
 42
0.198912367379658
  0
VERTEX
  5
1E5F
  8
SAPA_FOGBAND
 10
-21.853126365171729
 20
15.349999999999911
 30
0.0
  0
VERTEX
  5
1E60
  8
SAPA_FOGBAND
 10
-19.019807400752001
 20
15.349999999999911
 30
0.0
 42
0.5773502691896282
  0
VERTEX
  5
1E61
  8
SAPA_FOGBAND
 10
-18.759999779616781
 20
15.79999999999972
 30
0.0
  0
VERTEX
  5
1E62
  8
SAPA_FOGBAND
 10
-20.267782827983041
 20
17.39999999999992
 30
0.0
 42
-0.8769764629927299
  0
VERTEX
  5
1E63
  8
SAPA_FOGBAND
 10
-19.795843172491772
 20
17.76213203435583
 30
0.0
  0
VERTEX
  5
1E64
  8
SAPA_FOGBAND
 10
-16.459960825632461
 20
15.64289321881324
 30
0.0
 42
0.198912367379658
  0
VERTEX
  5
1E65
  8
SAPA_FOGBAND
 10
-15.752854044445799
 20
15.349999999999911
 30
0.0
  0
VERTEX
  5
1E66
  8
SAPA_FOGBAND
 10
-13.52057968222422
 20
15.349999999999911
 30
0.0
 42
0.5773502691896282
  0
VERTEX
  5
1E67
  8
SAPA_FOGBAND
 10
-13.26077206108889
 20
15.79999999999972
 30
0.0
  0
VERTEX
  5
1E68
  8
SAPA_FOGBAND
 10
-14.76805353457266
 20
17.399131246819529
 30
0.0
 42
-0.8769764629927299
  0
VERTEX
  5
1E69
  8
SAPA_FOGBAND
 10
-14.296113879081391
 20
17.761263281175442
 30
0.0
  0
VERTEX
  5
1E6A
  8
SAPA_FOGBAND
 10
-10.885245638088771
 20
15.56703857149955
 30
0.0
 42
-0.198912367379658
  0
VERTEX
  5
1E6B
  8
SAPA_FOGBAND
 10
-10.59235241927521
 20
14.859931790313111
 30
0.0
  0
SEQEND
  5
1E6C
  8
SAPA_FOGBAND
  0
DIMENSION
  5
1306
  8
SAPA_MATT
  2
*D56
 10
173.0000000000004
 20
-16.150000000000201
 30
0.0
 11
150.5000000000004
 21
-13.400000000000199
 31
0.0
 70
     0
 13
128.0000000000004
 23
8.8499999999999375
 33
0.0
 14
173.0000000000004
 24
8.8499999999999091
 34
0.0
1001
ACAD
1000
DSTYLE
1002
{
1070
    40
1040
1.0
1002
}
  0
DIMENSION
  5
1307
  8
SAPA_MATT
  2
*D55
 10
128.0000000000004
 20
-16.150000000000201
 30
0.0
 11
113.0000000000003
 21
-13.400000000000199
 31
0.0
 70
     0
 13
98.000000000000256
 23
8.2642135623732411
 33
0.0
 14
128.0000000000004
 24
8.8499999999999375
 34
0.0
1001
ACAD
1000
DSTYLE
1002
{
1070
    40
1040
1.0
1002
}
  0
DIMENSION
  5
1308
  8
SAPA_MATT
  2
*D54
 10
98.000000000000256
 20
-16.15000000000023
 30
0.0
 11
38.000000000000128
 21
-13.399655511811259
 31
0.0
 70
     0
 13
-21.999999999999989
 23
9.3499999999999091
 33
0.0
 14
98.000000000000256
 24
8.2642135623732411
 34
0.0
1001
ACAD
1000
DSTYLE
1002
{
1070
    40
1040
1.0
1002
}
  0
ENDSEC
  0
EOF
