  0
SECTION
  2
HEADER
  9
$ACADVER
  1
AC1009
  9
$INSBASE
 10
69.764868393921986
 20
297.20846420016039
 30
0.0
  9
$EXTMIN
 10
-49.726691756569032
 20
-16.300000000000072
 30
0.0
  9
$EXTMAX
 10
67.687961435755767
 20
226.7360681849199
 30
0.0
  9
$LIMMIN
 10
0.0
 20
0.0
  9
$LIMMAX
 10
998.0
 20
710.0
  9
$ORTHOMODE
 70
     1
  9
$REGENMODE
 70
     1
  9
$FILLMODE
 70
     1
  9
$QTEXTMODE
 70
     0
  9
$MIRRTEXT
 70
     1
  9
$DRAGMODE
 70
     2
  9
$LTSCALE
 40
7.0
  9
$OSMODE
 70
   167
  9
$ATTMODE
 70
     1
  9
$TEXTSIZE
 40
6.0
  9
$TRACEWID
 40
0.05
  9
$TEXTSTYLE
  7
ISO
  9
$CLAYER
  8
0
  9
$CELTYPE
  6
BYLAYER
  9
$CECOLOR
 62
   256
  9
$DIMSCALE
 40
0.0
  9
$DIMASZ
 40
3.0
  9
$DIMEXO
 40
1.5
  9
$DIMDLI
 40
10.0
  9
$DIMRND
 40
0.0
  9
$DIMDLE
 40
0.0
  9
$DIMEXE
 40
1.5
  9
$DIMTP
 40
0.0
  9
$DIMTM
 40
0.0
  9
$DIMTXT
 40
3.5
  9
$DIMCEN
 40
-5.0
  9
$DIMTSZ
 40
0.0
  9
$DIMTOL
 70
     0
  9
$DIMLIM
 70
     0
  9
$DIMTIH
 70
     0
  9
$DIMTOH
 70
     1
  9
$DIMSE1
 70
     0
  9
$DIMSE2
 70
     0
  9
$DIMTAD
 70
     1
  9
$DIMZIN
 70
     8
  9
$DIMBLK
  1

  9
$DIMASO
 70
     1
  9
$DIMSHO
 70
     1
  9
$DIMPOST
  1

  9
$DIMAPOST
  1

  9
$DIMALT
 70
     0
  9
$DIMALTD
 70
     0
  9
$DIMALTF
 40
25.399999999999999
  9
$DIMLFAC
 40
-1.0
  9
$DIMTOFL
 70
     1
  9
$DIMTVP
 40
0.0
  9
$DIMTIX
 70
     0
  9
$DIMSOXD
 70
     0
  9
$DIMSAH
 70
     0
  9
$DIMBLK1
  1

  9
$DIMBLK2
  1

  9
$DIMSTYLE
  2
MASKIN
  9
$DIMCLRD
 70
   256
  9
$DIMCLRE
 70
   256
  9
$DIMCLRT
 70
     2
  9
$DIMTFAC
 40
1.0
  9
$DIMGAP
 40
1.0
  9
$LUNITS
 70
     2
  9
$LUPREC
 70
     2
  9
$SKETCHINC
 40
0.1
  9
$FILLETRAD
 40
0.0
  9
$AUNITS
 70
     0
  9
$AUPREC
 70
     2
  9
$MENU
  1
ACAD
  9
$ELEVATION
 40
0.0
  9
$PELEVATION
 40
0.0
  9
$THICKNESS
 40
0.0
  9
$LIMCHECK
 70
     0
  9
$BLIPMODE
 70
     0
  9
$CHAMFERA
 40
0.0
  9
$CHAMFERB
 40
0.0
  9
$SKPOLY
 70
     0
  9
$TDCREATE
 40
2450148.467949653
  9
$TDUPDATE
 40
2456597.4265414351
  9
$TDINDWG
 40
0.3852490856
  9
$TDUSRTIMER
 40
0.3852490856
  9
$USRTIMER
 70
     1
  9
$ANGBASE
 50
0.0
  9
$ANGDIR
 70
     0
  9
$PDMODE
 70
     3
  9
$PDSIZE
 40
-5.0
  9
$PLINEWID
 40
0.0
  9
$COORDS
 70
     1
  9
$SPLFRAME
 70
     0
  9
$SPLINETYPE
 70
     6
  9
$SPLINESEGS
 70
     8
  9
$ATTDIA
 70
     0
  9
$ATTREQ
 70
     1
  9
$HANDLING
 70
     1
  9
$HANDSEED
  5
1B33
  9
$SURFTAB1
 70
     6
  9
$SURFTAB2
 70
     6
  9
$SURFTYPE
 70
     6
  9
$SURFU
 70
     6
  9
$SURFV
 70
     6
  9
$UCSNAME
  2

  9
$UCSORG
 10
0.0
 20
0.0
 30
0.0
  9
$UCSXDIR
 10
1.0
 20
0.0
 30
0.0
  9
$UCSYDIR
 10
0.0
 20
1.0
 30
0.0
  9
$PUCSNAME
  2

  9
$PUCSORG
 10
0.0
 20
0.0
 30
0.0
  9
$PUCSXDIR
 10
1.0
 20
0.0
 30
0.0
  9
$PUCSYDIR
 10
0.0
 20
1.0
 30
0.0
  9
$USERI1
 70
     0
  9
$USERI2
 70
     0
  9
$USERI3
 70
     0
  9
$USERI4
 70
     0
  9
$USERI5
 70
     0
  9
$USERR1
 40
0.0
  9
$USERR2
 40
0.0
  9
$USERR3
 40
0.0
  9
$USERR4
 40
0.0
  9
$USERR5
 40
0.0
  9
$WORLDVIEW
 70
     1
  9
$SHADEDGE
 70
     1
  9
$SHADEDIF
 70
    70
  9
$TILEMODE
 70
     1
  9
$MAXACTVP
 70
    16
  9
$PLIMCHECK
 70
     0
  9
$PEXTMIN
 10
3.7456423012465052
 20
-0.0043171380120839
 30
-0.0015258207003583
  9
$PEXTMAX
 10
188.45270920080051
 20
283.00283307759548
 30
0.0000000349246037
  9
$PLIMMIN
 10
-14.12592836160286
 20
-5.4102505909481797
  9
$PLIMMAX
 10
195.84739927511589
 20
291.55807216295813
  9
$UNITMODE
 70
     0
  9
$VISRETAIN
 70
     1
  9
$PLINEGEN
 70
     0
  9
$PSLTSCALE
 70
     1
  0
ENDSEC
  0
SECTION
  2
TABLES
  0
TABLE
  2
VPORT
 70
     1
  0
VPORT
  2
*ACTIVE
 70
     0
 10
0.0
 20
0.0
 11
1.0
 21
1.0
 12
33.148237033646978
 22
144.63993484254661
 13
0.0
 23
0.0
 14
5.0
 24
5.0
 15
10.0
 25
10.0
 16
0.0
 26
0.0
 36
1.0
 17
0.0
 27
0.0
 37
0.0
 40
287.4887425067372
 41
2.112307692307692
 42
50.0
 43
0.0
 44
0.0
 50
0.0
 51
0.0
 71
     0
 72
   100
 73
     1
 74
     0
 75
     0
 76
     0
 77
     0
 78
     1
  0
ENDTAB
  0
TABLE
  2
LTYPE
 70
    16
  0
LTYPE
  2
CONTINUOUS
 70
     0
  3
Solid line
 72
    65
 73
     0
 40
0.0
  0
LTYPE
  2
BYGG-014247$0$DASHDOT
 70
     0
  3
__ . __ . __ . __ . __ . __ . __ . __ . __ . __
 72
    65
 73
     4
 40
1.0
 49
0.5
 49
-0.25
 49
0.0
 49
-0.25
  0
LTYPE
  2
BYGG-014565$0$NEWDOT
 70
     0
  3
____ . ____ . ____ . ____ . ____ . ____ . ____
 72
    65
 73
     4
 40
2.0
 49
1.0
 49
-0.5
 49
0.0
 49
-0.5
  0
LTYPE
  2
BYGG-022308$0$NEWDOT
 70
     0
  3
____ . ____ . ____ . ____ . ____ . ____ . ____
 72
    65
 73
     4
 40
2.0
 49
1.0
 49
-0.5
 49
0.0
 49
-0.5
  0
LTYPE
  2
BYGG-022308$0$DASHDOT
 70
     0
  3
__ . __ . __ . __ . __ . __ . __ . __ . __ . __
 72
    65
 73
     4
 40
1.0
 49
0.5
 49
-0.25
 49
0.0
 49
-0.25
  0
LTYPE
  2
BYGG-022308$0$DASHED
 70
     0
  3
__ __ __ __ __ __ __ __ __ __ __ __ __ __ __
 72
    65
 73
     2
 40
0.75
 49
0.5
 49
-0.25
  0
LTYPE
  2
BYGG-022308$0$PHANTOM
 70
     0
  3
Phantom ______  __  __  ______  __  __  ______
 72
    65
 73
     6
 40
63.5
 49
31.75
 49
-6.3499999999999988
 49
6.3499999999999988
 49
-6.3499999999999988
 49
6.3499999999999988
 49
-6.3499999999999988
  0
LTYPE
  2
BYGG-014533$0$NEWDOT
 70
     0
  3
____ . ____ . ____ . ____ . ____ . ____ . ____
 72
    65
 73
     4
 40
2.0
 49
1.0
 49
-0.5
 49
0.0
 49
-0.5
  0
LTYPE
  2
BYGG-014565$0$ZIGZAG
 70
     0
  3
Zig zag /\/\/\/\/\/\/\/\/\/\/\/\/\/\/\/\/\/\/\/\/\/\/\/
 72
    65
 73
     4
 40
20.32254
 49
0.00254
 49
-5.0800000000000001
 49
-10.16
 49
-5.0800000000000001
  0
LTYPE
  2
BYGG-014533$0$ZIGZAG
 70
     0
  3
Zig zag /\/\/\/\/\/\/\/\/\/\/\/\/\/\/\/\/\/\/\/\/\/\/\/
 72
    65
 73
     4
 40
20.32254
 49
0.00254
 49
-5.0800000000000001
 49
-10.16
 49
-5.0800000000000001
  0
LTYPE
  2
PHANTOM2
 70
     0
  3
Phantom (.5x) ___ _ _ ___ _ _ ___ _ _ ___ _ _
 72
    65
 73
     6
 40
1.25
 49
0.625
 49
-0.125
 49
0.125
 49
-0.125
 49
0.125
 49
-0.125
  0
LTYPE
  2
BYGG-028766$0$NEWDOT
 70
     0
  3
____ . ____ . ____ . ____ . ____ . ____ . ____
 72
    65
 73
     4
 40
2.0
 49
1.0
 49
-0.5
 49
0.0
 49
-0.5
  0
LTYPE
  2
BYGG-028766$0$DASHDOT
 70
     0
  3
__ . __ . __ . __ . __ . __ . __ . __ . __ . __
 72
    65
 73
     4
 40
1.0
 49
0.5
 49
-0.25
 49
0.0
 49
-0.25
  0
LTYPE
  2
BYGG-028766$0$DASHED
 70
     0
  3
__ __ __ __ __ __ __ __ __ __ __ __ __ __ __
 72
    65
 73
     2
 40
0.75
 49
0.5
 49
-0.25
  0
LTYPE
  2
BYGG-028766$0$PHANTOM
 70
     0
  3
Phantom ______  __  __  ______  __  __  ______
 72
    65
 73
     6
 40
63.5
 49
31.75
 49
-6.3499999999999988
 49
6.3499999999999988
 49
-6.3499999999999988
 49
6.3499999999999988
 49
-6.3499999999999988
  0
LTYPE
  2
BYGG-014169$0$DASHDOT
 70
     0
  3
__ . __ . __ . __ . __ . __ . __ . __ . __ . __
 72
    65
 73
     4
 40
1.0
 49
0.5
 49
-0.25
 49
0.0
 49
-0.25
  0
ENDTAB
  0
TABLE
  2
LAYER
 70
   105
  0
LAYER
  2
0
 70
     0
 62
     7
  6
CONTINUOUS
  0
LAYER
  2
DEFPOINTS
 70
     0
 62
     7
  6
CONTINUOUS
  0
LAYER
  2
SAPA_PROFIL
 70
     0
 62
     7
  6
CONTINUOUS
  0
LAYER
  2
SAPA_ARTIKELNR
 70
     0
 62
     4
  6
CONTINUOUS
  0
LAYER
  2
SAPA_ANSLUTNING
 70
     0
 62
     6
  6
CONTINUOUS
  0
LAYER
  2
SAPA_LIGHT
 70
     1
 62
     1
  6
CONTINUOUS
  0
LAYER
  2
SAPA_MATT
 70
     0
 62
     1
  6
CONTINUOUS
  0
LAYER
  2
SAPA_GLAS
 70
     0
 62
     4
  6
CONTINUOUS
  0
LAYER
  2
SAPA_FOGBAND
 70
     0
 62
     2
  6
CONTINUOUS
  0
ENDTAB
  0
TABLE
  2
STYLE
 70
    21
  0
STYLE
  2
STANDARD
 70
     0
 40
0.0
 41
1.0
 50
0.0
 71
     0
 42
0.2
  3
txt
  4

  0
STYLE
  2
ISO
 70
     0
 40
0.0
 41
1.0
 50
0.0
 71
     0
 42
6.0
  3
isocp3.shx
  4

  0
STYLE
  2

 70
     1
 40
0.0
 41
1.0
 50
0.0
 71
     0
 42
0.2
  3
ltypeshp.shx
  4

  0
STYLE
  2
BYGG-021741$0$STANDARD
 70
     0
 40
0.0
 41
1.0
 50
0.0
 71
     0
 42
0.2
  3
txt
  4

  0
STYLE
  2
BYGG-014247$0$STANDARD
 70
     0
 40
0.0
 41
1.0
 50
0.0
 71
     0
 42
0.2
  3
txt
  4

  0
STYLE
  2
BYGG-014247$0$ISO
 70
     0
 40
0.0
 41
1.0
 50
0.0
 71
     0
 42
3.5
  3
isocp3.shx
  4

  0
STYLE
  2
BYGG-028766$0$STANDARD
 70
     0
 40
0.0
 41
1.0
 50
0.0
 71
     0
 42
0.2
  3
txt
  4

  0
STYLE
  2
BYGG-028766$0$ISO
 70
     0
 40
0.0
 41
1.0
 50
0.0
 71
     0
 42
3.5
  3
txt
  4

  0
STYLE
  2
BYGG-022466$0$STANDARD
 70
     0
 40
0.0
 41
1.0
 50
0.0
 71
     0
 42
0.2
  3
txt
  4

  0
STYLE
  2
BYGG-022466$0$ISO
 70
     0
 40
0.0
 41
1.0
 50
0.0
 71
     0
 42
3.5
  3
txt
  4

  0
STYLE
  2
BYGG-014565$0$STANDARD
 70
     0
 40
0.0
 41
1.0
 50
0.0
 71
     0
 42
0.2
  3
isocp3.shx
  4

  0
STYLE
  2
BYGG-014565$0$ISO
 70
     0
 40
0.0
 41
1.0
 50
0.0
 71
     0
 42
3.5
  3
isocp3.shx
  4

  0
STYLE
  2
BYGG-022308$0$STANDARD
 70
     0
 40
0.0
 41
1.0
 50
0.0
 71
     0
 42
0.2
  3
txt
  4

  0
STYLE
  2
BYGG-022308$0$ISO
 70
     0
 40
0.0
 41
1.0
 50
0.0
 71
     0
 42
3.5
  3
txt
  4

  0
STYLE
  2
BYGG-014533$0$STANDARD
 70
     0
 40
0.0
 41
1.0
 50
0.0
 71
     0
 42
0.2
  3
txt
  4

  0
STYLE
  2
BYGG-014533$0$ISO
 70
     0
 40
0.0
 41
1.0
 50
0.0
 71
     0
 42
2.5
  3
isocp3.shx
  4

  0
STYLE
  2
BYGG-030104$0$STANDARD
 70
     0
 40
0.0
 41
1.0
 50
0.0
 71
     0
 42
0.2
  3
txt
  4

  0
STYLE
  2
BYGG-030104$0$ISO
 70
     0
 40
0.0
 41
1.0
 50
0.0
 71
     0
 42
3.5
  3
txt
  4

  0
STYLE
  2
BYGG-014169$0$STANDARD
 70
     0
 40
0.0
 41
1.0
 50
0.0
 71
     0
 42
0.2
  3
txt
  4

  0
STYLE
  2
BYGG-014169$0$ISO
 70
     0
 40
0.0
 41
1.0
 50
0.0
 71
     0
 42
7.0
  3
iso
  4

  0
STYLE
  2
BYGG-013986$0$STANDARD
 70
     0
 40
0.0
 41
1.0
 50
0.0
 71
     0
 42
0.2
  3
txt
  4

  0
ENDTAB
  0
TABLE
  2
VIEW
 70
     0
  0
ENDTAB
  0
TABLE
  2
UCS
 70
     0
  0
ENDTAB
  0
TABLE
  2
APPID
 70
    21
  0
APPID
  2
ACAD
 70
     0
  0
APPID
  2
ACAD_DSTYLE_DIMTEXT_FILL
 70
     0
  0
APPID
  2
ACAECLAYERSTANDARD
 70
     0
  0
APPID
  2
ACAD_MLEADERVER
 70
     0
  0
APPID
  2
AMG_ARCHIVE11
 70
     0
  0
APPID
  2
ACAD_DSTYLE_DIMEXT_LENGTH
 70
     0
  0
APPID
  2
ACAD_DSTYLE_DIMEXT_ENABLED
 70
     0
  0
APPID
  2
ACAD_DSTYLE_DIM_LINETYPE
 70
     0
  0
APPID
  2
ACAD_DSTYLE_DIM_EXT1_LINETYPE
 70
     0
  0
APPID
  2
ACAD_DSTYLE_DIM_EXT2_LINETYPE
 70
     0
  0
APPID
  2
ACAD_PSEXT
 70
     0
  0
APPID
  2
ACAD_DSTYLE_DIMJOGGED_JOGA
 70
     0
  0
APPID
  2
ACAD_DSTYLE_DIMARC_LENGTH_
 70
     0
  0
APPID
  2
ACAD_EXEMPT_FROM_CAD_STANDARDS
 70
     0
  0
APPID
  2
ACADANNOTATIVE
 70
     0
  0
APPID
  2
ACAD_DSTYLE_DIMJAG
 70
     0
  0
APPID
  2
ACAD_DSTYLE_DIMTALN
 70
     0
  0
APPID
  2
ACAD_NAV_VCDISPLAY
 70
     0
  0
APPID
  2
GRADIENTCOLOR1ACI
 70
     0
  0
APPID
  2
GRADIENTCOLOR2ACI
 70
     0
  0
APPID
  2
ACCMTRANSPARENCY
 70
     0
  0
ENDTAB
  0
TABLE
  2
DIMSTYLE
 70
    17
  0
DIMSTYLE
  2
MASKIN
 70
     0
  3

  4

  5

  6

  7

 40
0.0
 41
3.0
 42
1.5
 43
10.0
 44
1.5
 45
0.0
 46
0.0
 47
0.0
 48
0.0
140
3.5
141
-5.0
142
0.0
143
25.399999999999999
144
-1.0
145
0.0
146
1.0
147
1.0
 71
     0
 72
     0
 73
     0
 74
     1
 75
     0
 76
     0
 77
     1
 78
     8
170
     0
171
     0
172
     1
173
     0
174
     0
175
     0
176
   256
177
   256
178
     2
  0
DIMSTYLE
  2
BYGG-021741$0$STANDARD
 70
     0
  3

  4

  5

  6

  7

 40
1.0
 41
0.18
 42
0.0625
 43
0.38
 44
0.18
 45
0.0
 46
0.0
 47
0.0
 48
0.0
140
0.18
141
0.09
142
0.0
143
25.399999999999999
144
1.0
145
0.0
146
1.0
147
0.09
 71
     0
 72
     0
 73
     1
 74
     1
 75
     0
 76
     0
 77
     0
 78
     0
170
     0
171
     2
172
     0
173
     0
174
     0
175
     0
176
     0
177
     0
178
     0
  0
DIMSTYLE
  2
BYGG-014247$0$MASKIN
 70
     0
  3

  4

  5

  6

  7

 40
0.0
 41
3.0
 42
1.5
 43
10.0
 44
1.5
 45
0.0
 46
0.0
 47
0.0
 48
0.0
140
3.0
141
-5.0
142
0.0
143
25.399999999999999
144
-1.0
145
0.0
146
1.0
147
1.0
 71
     0
 72
     0
 73
     0
 74
     0
 75
     0
 76
     0
 77
     1
 78
     8
170
     0
171
     0
172
     1
173
     0
174
     0
175
     0
176
   256
177
   256
178
   256
  0
DIMSTYLE
  2
BYGG-028766$0$STANDARD
 70
     0
  3

  4

  5

  6

  7

 40
1.0
 41
0.18
 42
0.0625
 43
0.38
 44
0.18
 45
0.0
 46
0.0
 47
0.0
 48
0.0
140
0.18
141
0.09
142
0.0
143
25.399999999999999
144
1.0
145
0.0
146
1.0
147
0.09
 71
     0
 72
     0
 73
     1
 74
     1
 75
     0
 76
     0
 77
     0
 78
     0
170
     0
171
     2
172
     0
173
     0
174
     0
175
     0
176
     0
177
     0
178
     0
  0
DIMSTYLE
  2
BYGG-028766$0$MASKIN
 70
     0
  3

  4

  5

  6

  7

 40
0.0
 41
3.0
 42
1.5
 43
10.0
 44
1.5
 45
0.0
 46
0.0
 47
0.0
 48
0.0
140
3.0
141
-5.0
142
0.0
143
25.399999999999999
144
-1.0
145
0.0
146
1.0
147
1.0
 71
     0
 72
     0
 73
     0
 74
     0
 75
     0
 76
     0
 77
     1
 78
     8
170
     0
171
     0
172
     1
173
     0
174
     0
175
     0
176
   256
177
   256
178
     2
  0
DIMSTYLE
  2
BYGG-022466$0$MASKIN
 70
     0
  3

  4

  5

  6

  7

 40
0.0
 41
3.0
 42
1.5
 43
10.0
 44
1.5
 45
0.0
 46
0.0
 47
0.0
 48
0.0
140
3.0
141
-5.0
142
0.0
143
25.399999999999999
144
-1.0
145
0.0
146
1.0
147
1.0
 71
     0
 72
     0
 73
     0
 74
     0
 75
     0
 76
     0
 77
     1
 78
     8
170
     0
171
     0
172
     1
173
     0
174
     0
175
     0
176
   256
177
   256
178
     2
  0
DIMSTYLE
  2
BYGG-022466$0$STANDARD
 70
     0
  3

  4

  5

  6

  7

 40
1.0
 41
0.18
 42
0.0625
 43
0.38
 44
0.18
 45
0.0
 46
0.0
 47
0.0
 48
0.0
140
0.18
141
0.09
142
0.0
143
25.399999999999999
144
1.0
145
0.0
146
1.0
147
0.09
 71
     0
 72
     0
 73
     1
 74
     1
 75
     0
 76
     0
 77
     0
 78
     0
170
     0
171
     2
172
     0
173
     0
174
     0
175
     0
176
     0
177
     0
178
     0
  0
DIMSTYLE
  2
BYGG-014565$0$STANDARD
 70
     0
  3

  4

  5

  6

  7

 40
1.0
 41
0.18
 42
0.0625
 43
0.38
 44
0.18
 45
0.0
 46
0.0
 47
0.0
 48
0.0
140
0.18
141
0.09
142
0.0
143
25.399999999999999
144
1.0
145
0.0
146
1.0
147
0.09
 71
     0
 72
     0
 73
     1
 74
     1
 75
     0
 76
     0
 77
     0
 78
     0
170
     0
171
     2
172
     0
173
     0
174
     0
175
     0
176
     0
177
     0
178
     0
  0
DIMSTYLE
  2
BYGG-014565$0$MASKIN
 70
     0
  3

  4

  5

  6

  7

 40
0.0
 41
3.0
 42
1.5
 43
10.0
 44
1.5
 45
0.0
 46
0.0
 47
0.0
 48
0.0
140
3.0
141
-5.0
142
0.0
143
25.399999999999999
144
-1.0
145
0.0
146
1.0
147
1.0
 71
     0
 72
     0
 73
     0
 74
     0
 75
     0
 76
     0
 77
     1
 78
     8
170
     0
171
     0
172
     1
173
     0
174
     0
175
     0
176
   256
177
   256
178
     2
  0
DIMSTYLE
  2
BYGG-022308$0$STANDARD
 70
     0
  3

  4

  5

  6

  7

 40
1.0
 41
0.18
 42
0.0625
 43
0.38
 44
0.18
 45
0.0
 46
0.0
 47
0.0
 48
0.0
140
0.18
141
0.09
142
0.0
143
25.399999999999999
144
1.0
145
0.0
146
1.0
147
0.09
 71
     0
 72
     0
 73
     1
 74
     1
 75
     0
 76
     0
 77
     0
 78
     0
170
     0
171
     2
172
     0
173
     0
174
     0
175
     0
176
     0
177
     0
178
     0
  0
DIMSTYLE
  2
BYGG-022308$0$MASKIN
 70
     0
  3

  4

  5

  6

  7

 40
0.0
 41
3.0
 42
1.5
 43
10.0
 44
1.5
 45
0.0
 46
0.0
 47
0.0
 48
0.0
140
3.0
141
-5.0
142
0.0
143
25.399999999999999
144
-1.0
145
0.0
146
1.0
147
1.0
 71
     0
 72
     0
 73
     0
 74
     0
 75
     0
 76
     0
 77
     1
 78
     8
170
     0
171
     0
172
     1
173
     0
174
     0
175
     0
176
   256
177
   256
178
     2
  0
DIMSTYLE
  2
BYGG-014533$0$STANDARD
 70
     0
  3

  4

  5

  6

  7

 40
1.0
 41
0.18
 42
0.0625
 43
0.38
 44
0.18
 45
0.0
 46
0.0
 47
0.0
 48
0.0
140
0.18
141
0.09
142
0.0
143
25.399999999999999
144
1.0
145
0.0
146
1.0
147
0.09
 71
     0
 72
     0
 73
     1
 74
     1
 75
     0
 76
     0
 77
     0
 78
     0
170
     0
171
     2
172
     0
173
     0
174
     0
175
     0
176
     0
177
     0
178
     0
  0
DIMSTYLE
  2
BYGG-014533$0$MASKIN
 70
     0
  3

  4

  5

  6

  7

 40
0.0
 41
3.0
 42
1.5
 43
10.0
 44
1.5
 45
0.0
 46
0.0
 47
0.0
 48
0.0
140
3.0
141
-5.0
142
0.0
143
25.399999999999999
144
-1.0
145
0.0
146
1.0
147
1.0
 71
     0
 72
     0
 73
     0
 74
     1
 75
     0
 76
     0
 77
     1
 78
     8
170
     0
171
     0
172
     1
173
     0
174
     0
175
     0
176
   256
177
   256
178
     2
  0
DIMSTYLE
  2
BYGG-030104$0$STANDARD
 70
     0
  3

  4

  5

  6

  7

 40
1.0
 41
0.18
 42
0.0625
 43
0.38
 44
0.18
 45
0.0
 46
0.0
 47
0.0
 48
0.0
140
0.18
141
0.09
142
0.0
143
25.399999999999999
144
1.0
145
0.0
146
1.0
147
0.09
 71
     0
 72
     0
 73
     1
 74
     1
 75
     0
 76
     0
 77
     0
 78
     0
170
     0
171
     2
172
     0
173
     0
174
     0
175
     0
176
     0
177
     0
178
     0
  0
DIMSTYLE
  2
BYGG-030104$0$MASKIN
 70
     0
  3

  4

  5

  6

  7

 40
0.0
 41
3.0
 42
1.5
 43
10.0
 44
1.5
 45
0.0
 46
0.0
 47
0.0
 48
0.0
140
3.0
141
-5.0
142
0.0
143
25.399999999999999
144
-1.0
145
0.0
146
1.0
147
1.0
 71
     0
 72
     0
 73
     0
 74
     0
 75
     0
 76
     0
 77
     1
 78
     8
170
     0
171
     0
172
     1
173
     0
174
     0
175
     0
176
   256
177
   256
178
     2
  0
DIMSTYLE
  2
BYGG-014169$0$MASKIN
 70
     0
  3

  4

  5

  6

  7

 40
0.0
 41
3.0
 42
1.5
 43
10.0
 44
1.5
 45
0.0
 46
0.0
 47
0.0
 48
0.0
140
3.0
141
-5.0
142
0.0
143
25.399999999999999
144
-1.0
145
0.0
146
1.0
147
1.0
 71
     0
 72
     0
 73
     0
 74
     1
 75
     0
 76
     0
 77
     1
 78
     8
170
     0
171
     0
172
     1
173
     0
174
     0
175
     0
176
   256
177
   256
178
     2
  0
DIMSTYLE
  2
BYGG-013986$0$STANDARD
 70
     0
  3

  4

  5

  6

  7

 40
1.0
 41
0.18
 42
0.0625
 43
0.38
 44
0.18
 45
0.0
 46
0.0
 47
0.0
 48
0.0
140
0.18
141
0.09
142
0.0
143
25.399999999999999
144
1.0
145
0.0
146
1.0
147
0.09
 71
     0
 72
     0
 73
     1
 74
     1
 75
     0
 76
     0
 77
     0
 78
     0
170
     0
171
     2
172
     0
173
     0
174
     0
175
     0
176
     0
177
     0
178
     0
  0
ENDTAB
  0
ENDSEC
  0
SECTION
  2
BLOCKS
  0
BLOCK
  8
0
  2
$MODEL_SPACE
 70
     0
 10
0.0
 20
0.0
 30
0.0
  3
$MODEL_SPACE
  1

  0
ENDBLK
  5
9
  8
0
  0
BLOCK
 67
     1
  8
0
  2
$PAPER_SPACE
 70
     0
 10
0.0
 20
0.0
 30
0.0
  3
$PAPER_SPACE
  1

  0
ENDBLK
  5
E
 67
     1
  8
0
  0
BLOCK
  8
0
  2
*D54
 70
     1
 10
0.0
 20
0.0
 30
0.0
  3
*D54
  1

  0
LINE
  5
13F9
  8
SAPA_MATT
 10
-9.3999999999999631
 20
16.199999999999878
 30
0.0
 11
-34.900000000000126
 21
16.199999999999878
 31
0.0
  0
LINE
  5
13FA
  8
SAPA_MATT
 10
-10.485786437626629
 20
136.2000000000001
 30
0.0
 11
-34.900000000000112
 21
136.2000000000001
 31
0.0
  0
LINE
  5
13FB
  8
SAPA_MATT
 10
-33.400000000000141
 20
19.199999999999878
 30
0.0
 11
-33.400000000000112
 21
133.2000000000001
 31
0.0
  0
SOLID
  5
13FC
  8
SAPA_MATT
 10
-33.900000000000126
 20
19.199999999999878
 30
0.0
 11
-32.900000000000126
 21
19.199999999999878
 31
0.0
 12
-33.400000000000141
 22
16.199999999999878
 32
0.0
 13
-33.400000000000141
 23
16.199999999999878
 33
0.0
  0
SOLID
  5
13FD
  8
SAPA_MATT
 10
-33.900000000000112
 20
133.2000000000001
 30
0.0
 11
-32.900000000000119
 21
133.2000000000001
 31
0.0
 12
-33.400000000000112
 22
136.2000000000001
 32
0.0
 13
-33.400000000000112
 23
136.2000000000001
 33
0.0
  0
INSERT
  5
13FE
  8
0
  2
*U69
 10
0.0
 20
0.0
 30
0.0
  0
POINT
  5
13FF
  8
DEFPOINTS
 62
     0
 10
-7.8999999999999631
 20
16.199999999999871
 30
0.0
  0
POINT
  5
1400
  8
DEFPOINTS
 62
     0
 10
-8.9857864376266292
 20
136.2000000000001
 30
0.0
  0
POINT
  5
1401
  8
DEFPOINTS
 62
     0
 10
-33.400000000000112
 20
136.2000000000001
 30
0.0
  0
ENDBLK
  5
13A4
  8
0
  0
BLOCK
  8
0
  2
*D55
 70
     1
 10
0.0
 20
0.0
 30
0.0
  3
*D55
  1

  0
LINE
  5
13F0
  8
SAPA_MATT
 10
-10.485786437626629
 20
136.2000000000001
 30
0.0
 11
-34.900000000000112
 21
136.2000000000001
 31
0.0
  0
LINE
  5
13F1
  8
SAPA_MATT
 10
-9.8999999999999631
 20
166.2000000000003
 30
0.0
 11
-34.900000000000112
 21
166.2000000000003
 31
0.0
  0
LINE
  5
13F2
  8
SAPA_MATT
 10
-33.400000000000112
 20
139.2000000000001
 30
0.0
 11
-33.400000000000098
 21
163.2000000000003
 31
0.0
  0
SOLID
  5
13F3
  8
SAPA_MATT
 10
-33.900000000000112
 20
139.2000000000001
 30
0.0
 11
-32.900000000000119
 21
139.2000000000001
 31
0.0
 12
-33.400000000000112
 22
136.2000000000001
 32
0.0
 13
-33.400000000000112
 23
136.2000000000001
 33
0.0
  0
SOLID
  5
13F4
  8
SAPA_MATT
 10
-33.900000000000112
 20
163.2000000000003
 30
0.0
 11
-32.900000000000112
 21
163.2000000000003
 31
0.0
 12
-33.400000000000098
 22
166.2000000000003
 32
0.0
 13
-33.400000000000098
 23
166.2000000000003
 33
0.0
  0
INSERT
  5
13F5
  8
0
  2
*U68
 10
0.0
 20
0.0
 30
0.0
  0
POINT
  5
13F6
  8
DEFPOINTS
 62
     0
 10
-8.9857864376266292
 20
136.2000000000001
 30
0.0
  0
POINT
  5
13F7
  8
DEFPOINTS
 62
     0
 10
-8.3999999999999631
 20
166.2000000000003
 30
0.0
  0
POINT
  5
13F8
  8
DEFPOINTS
 62
     0
 10
-33.400000000000098
 20
166.2000000000003
 30
0.0
  0
ENDBLK
  5
13B0
  8
0
  0
BLOCK
  8
0
  2
*D56
 70
     1
 10
0.0
 20
0.0
 30
0.0
  3
*D56
  1

  0
LINE
  5
13E7
  8
SAPA_MATT
 10
-9.8999999999999631
 20
166.2000000000003
 30
0.0
 11
-34.900000000000119
 21
166.2000000000003
 31
0.0
  0
LINE
  5
13E8
  8
SAPA_MATT
 10
-9.8999999999999773
 20
211.2000000000003
 30
0.0
 11
-34.900000000000112
 21
211.2000000000003
 31
0.0
  0
LINE
  5
13E9
  8
SAPA_MATT
 10
-33.400000000000119
 20
169.2000000000003
 30
0.0
 11
-33.400000000000098
 21
208.2000000000003
 31
0.0
  0
SOLID
  5
13EA
  8
SAPA_MATT
 10
-33.900000000000119
 20
169.2000000000003
 30
0.0
 11
-32.900000000000119
 21
169.2000000000003
 31
0.0
 12
-33.400000000000119
 22
166.2000000000003
 32
0.0
 13
-33.400000000000119
 23
166.2000000000003
 33
0.0
  0
SOLID
  5
13EB
  8
SAPA_MATT
 10
-33.900000000000112
 20
208.2000000000003
 30
0.0
 11
-32.900000000000112
 21
208.2000000000003
 31
0.0
 12
-33.400000000000098
 22
211.2000000000003
 32
0.0
 13
-33.400000000000098
 23
211.2000000000003
 33
0.0
  0
INSERT
  5
13EC
  8
0
  2
*U67
 10
0.0
 20
0.0
 30
0.0
  0
POINT
  5
13ED
  8
DEFPOINTS
 62
     0
 10
-8.3999999999999631
 20
166.2000000000003
 30
0.0
  0
POINT
  5
13EE
  8
DEFPOINTS
 62
     0
 10
-8.3999999999999773
 20
211.2000000000003
 30
0.0
  0
POINT
  5
13EF
  8
DEFPOINTS
 62
     0
 10
-33.400000000000098
 20
211.2000000000003
 30
0.0
  0
ENDBLK
  5
13BC
  8
0
  0
BLOCK
  8
0
  2
*D57
 70
     1
 10
0.0
 20
0.0
 30
0.0
  3
*D57
  1

  0
LINE
  5
13DE
  8
SAPA_MATT
 10
-13.39999999999975
 20
41.942640687118903
 30
0.0
 11
-13.39999999999975
 21
-16.300000000000072
 31
0.0
  0
LINE
  5
13DF
  8
SAPA_MATT
 10
46.60000000000025
 20
41.942640687118988
 30
0.0
 11
46.600000000000243
 21
-16.300000000000072
 31
0.0
  0
LINE
  5
13E0
  8
SAPA_MATT
 10
-10.39999999999975
 20
-14.80000000000007
 30
0.0
 11
43.600000000000243
 21
-14.80000000000007
 31
0.0
  0
SOLID
  5
13E1
  8
SAPA_MATT
 10
-10.39999999999975
 20
-14.300000000000059
 30
0.0
 11
-10.39999999999975
 21
-15.30000000000007
 31
0.0
 12
-13.39999999999975
 22
-14.80000000000007
 32
0.0
 13
-13.39999999999975
 23
-14.80000000000007
 33
0.0
  0
SOLID
  5
13E2
  8
SAPA_MATT
 10
43.600000000000243
 20
-14.300000000000059
 30
0.0
 11
43.600000000000243
 21
-15.30000000000007
 31
0.0
 12
46.600000000000243
 22
-14.80000000000007
 32
0.0
 13
46.600000000000243
 23
-14.80000000000007
 33
0.0
  0
INSERT
  5
13E3
  8
0
  2
*U66
 10
0.0
 20
0.0
 30
0.0
  0
POINT
  5
13E4
  8
DEFPOINTS
 62
     0
 10
-13.39999999999975
 20
43.44264068711891
 30
0.0
  0
POINT
  5
13E5
  8
DEFPOINTS
 62
     0
 10
46.60000000000025
 20
43.442640687119003
 30
0.0
  0
POINT
  5
13E6
  8
DEFPOINTS
 62
     0
 10
46.600000000000243
 20
-14.80000000000007
 30
0.0
  0
ENDBLK
  5
13C8
  8
0
  0
BLOCK
  8
0
  2
*D58
 70
     1
 10
0.0
 20
0.0
 30
0.0
  3
*D58
  1

  0
LINE
  5
1402
  8
SAPA_MATT
 10
-9.8999999999999915
 20
211.2000000000001
 30
0.0
 11
-46.90000000000007
 21
211.2000000000001
 31
0.0
  0
LINE
  5
1403
  8
SAPA_MATT
 10
-9.3999999999999773
 20
16.199999999999889
 30
0.0
 11
-46.900000000000112
 21
16.1999999999999
 31
0.0
  0
LINE
  5
1404
  8
SAPA_MATT
 10
-45.400000000000077
 20
208.2000000000001
 30
0.0
 11
-45.400000000000119
 21
19.1999999999999
 31
0.0
  0
SOLID
  5
1405
  8
SAPA_MATT
 10
-45.90000000000007
 20
208.2000000000001
 30
0.0
 11
-44.900000000000077
 21
208.2000000000001
 31
0.0
 12
-45.400000000000077
 22
211.2000000000001
 32
0.0
 13
-45.400000000000077
 23
211.2000000000001
 33
0.0
  0
SOLID
  5
1406
  8
SAPA_MATT
 10
-45.900000000000119
 20
19.1999999999999
 30
0.0
 11
-44.900000000000112
 21
19.1999999999999
 31
0.0
 12
-45.400000000000119
 22
16.1999999999999
 32
0.0
 13
-45.400000000000119
 23
16.1999999999999
 33
0.0
  0
INSERT
  5
1407
  8
0
  2
*U70
 10
0.0
 20
0.0
 30
0.0
  0
POINT
  5
1408
  8
DEFPOINTS
 62
     0
 10
-8.3999999999999915
 20
211.2000000000001
 30
0.0
  0
POINT
  5
1409
  8
DEFPOINTS
 62
     0
 10
-7.8999999999999773
 20
16.199999999999889
 30
0.0
  0
POINT
  5
140A
  8
DEFPOINTS
 62
     0
 10
-45.400000000000119
 20
16.1999999999999
 30
0.0
  0
ENDBLK
  5
13D4
  8
0
  0
BLOCK
  8
0
  2
*X59
 70
     1
 10
0.0
 20
0.0
 30
0.0
  3
*X59
  1

  0
LINE
  5
142D
  8
0
 62
     0
 10
39.489260832350432
 20
206.2000000000003
 30
0.0
 11
39.800000000000068
 21
206.51073916764989
 31
0.0
  0
LINE
  5
142E
  8
0
 62
     0
 10
38.366728817216782
 20
206.2000000000003
 30
0.0
 11
39.800000000000068
 21
207.6332711827836
 31
0.0
  0
LINE
  5
142F
  8
0
 62
     0
 10
37.244196802083138
 20
206.2000000000003
 30
0.0
 11
39.800000000000068
 21
208.7558031979172
 31
0.0
  0
LINE
  5
1430
  8
0
 62
     0
 10
41.121664786949466
 20
211.20000000000019
 30
0.0
 11
41.486990066312423
 21
211.56532527936321
 31
0.0
  0
LINE
  5
1431
  8
0
 62
     0
 10
36.121664786949502
 20
206.2000000000003
 30
0.0
 11
39.121664786949466
 21
209.20000000000019
 31
0.0
  0
LINE
  5
1432
  8
0
 62
     0
 10
39.999132771815823
 20
211.20000000000019
 30
0.0
 11
41.240777622301721
 21
212.44164485048611
 31
0.0
  0
LINE
  5
1433
  8
0
 62
     0
 10
34.999132771815852
 20
206.2000000000003
 30
0.0
 11
37.99913277181583
 21
209.20000000000019
 31
0.0
  0
LINE
  5
1434
  8
0
 62
     0
 10
38.87660075668218
 20
211.20000000000019
 30
0.0
 11
41.022597141159842
 21
213.3459963844779
 31
0.0
  0
LINE
  5
1435
  8
0
 62
     0
 10
33.876600756682208
 20
206.20000000000019
 30
0.0
 11
37.600000000000023
 21
209.9233992433181
 31
0.0
  0
LINE
  5
1436
  8
0
 62
     0
 10
32.754068741548572
 20
206.2000000000003
 30
0.0
 11
40.83445326338272
 21
214.28038452183441
 31
0.0
  0
LINE
  5
1437
  8
0
 62
     0
 10
31.631536726414922
 20
206.2000000000003
 30
0.0
 11
40.678749741196683
 21
215.24721301478201
 31
0.0
  0
LINE
  5
1438
  8
0
 62
     0
 10
34.062645224289113
 20
209.75364051300809
 30
0.0
 11
40.558400199364947
 21
216.24939548808391
 31
0.0
  0
LINE
  5
1439
  8
0
 62
     0
 10
30.509004711281278
 20
206.20000000000019
 30
0.0
 11
30.532819949153279
 21
206.22381523787229
 31
0.0
  0
LINE
  5
143A
  8
0
 62
     0
 10
34.653438513168332
 20
211.46696581702099
 30
0.0
 11
40.476983430165582
 21
217.2905107340182
 31
0.0
  0
LINE
  5
143B
  8
0
 62
     0
 10
34.975659304986642
 20
212.91171862397289
 30
0.0
 11
40.43896724632026
 21
218.3750265653066
 31
0.0
  0
LINE
  5
143C
  8
0
 62
     0
 10
35.156953355337571
 20
214.21554468945749
 30
0.0
 11
40.450041991842113
 21
219.50863332596199
 31
0.0
  0
LINE
  5
143D
  8
0
 62
     0
 10
35.242572032354182
 20
215.4236953816077
 30
0.0
 11
40.517637666533297
 21
220.6987610157868
 31
0.0
  0
LINE
  5
143E
  8
0
 62
     0
 10
35.254629255102287
 20
216.55828461948951
 30
0.0
 11
40.651766174759267
 21
221.9554215391465
 31
0.0
  0
LINE
  5
143F
  8
0
 62
     0
 10
35.205598135451162
 20
217.63178551497199
 30
0.0
 11
40.866481026259869
 21
223.29266840578069
 31
0.0
  0
LINE
  5
1440
  8
0
 62
     0
 10
35.10299393730282
 20
218.6517133319573
 30
0.0
 11
41.18262091472689
 21
224.73134030938141
 31
0.0
  0
LINE
  5
1441
  8
0
 62
     0
 10
34.951372933915678
 20
219.62262434370379
 30
0.0
 11
41.528748590212089
 21
226.2000000000003
 31
0.0
  0
LINE
  5
1442
  8
0
 62
     0
 10
34.753280194408212
 20
220.54706361933
 30
0.0
 11
40.406216575078453
 21
226.2000000000003
 31
0.0
  0
LINE
  5
1443
  8
0
 62
     0
 10
34.509699166869972
 20
221.42601460692541
 30
0.0
 11
39.28368455994481
 21
226.20000000000019
 31
0.0
  0
LINE
  5
1444
  8
0
 62
     0
 10
34.22021079785695
 20
222.25905825304599
 30
0.0
 11
38.161152544811173
 21
226.20000000000019
 31
0.0
  0
LINE
  5
1445
  8
0
 62
     0
 10
33.882926707160657
 20
223.04430617748341
 30
0.0
 11
37.038620529677523
 21
226.2000000000003
 31
0.0
  0
LINE
  5
1446
  8
0
 62
     0
 10
33.494169913493977
 20
223.77808139895041
 30
0.0
 11
35.91608851454388
 21
226.2000000000003
 31
0.0
  0
LINE
  5
1447
  8
0
 62
     0
 10
33.047764815540788
 20
224.4542083161308
 30
0.0
 11
34.793556499410244
 21
226.2000000000003
 31
0.0
  0
LINE
  5
1448
  8
0
 62
     0
 10
32.533563452135454
 20
225.0625389678591
 30
0.0
 11
33.671024484276593
 21
226.20000000000019
 31
0.0
  0
LINE
  5
1449
  8
0
 62
     0
 10
31.934169135199451
 20
225.5856766660568
 30
0.0
 11
32.54849246914295
 21
226.2000000000003
 31
0.0
  0
LINE
  5
144A
  8
0
 62
     0
 10
31.216374709588951
 20
225.99041425557991
 30
0.0
 11
31.425960454009299
 21
226.2000000000003
 31
0.0
  0
LINE
  5
144B
  8
0
 62
     0
 10
30.300727073174741
 20
226.1972986342993
 30
0.0
 11
30.30342843887567
 21
226.2000000000003
 31
0.0
  0
LINE
  5
144C
  8
0
 62
     0
 10
30.397280089511309
 20
206.20893648556739
 30
0.0
 11
30.406216575078471
 21
206.2000000000003
 31
0.0
  0
LINE
  5
144D
  8
0
 62
     0
 10
31.28851418182705
 20
206.44023440838529
 30
0.0
 11
31.528748590212121
 21
206.2000000000003
 31
0.0
  0
LINE
  5
144E
  8
0
 62
     0
 10
31.993296186822651
 20
206.8579844185233
 30
0.0
 11
32.651280605345747
 21
206.2000000000003
 31
0.0
  0
LINE
  5
144F
  8
0
 62
     0
 10
32.583852819453782
 20
207.3899598010259
 30
0.0
 11
33.773812620479397
 21
206.2000000000003
 31
0.0
  0
LINE
  5
1450
  8
0
 62
     0
 10
33.091269152587273
 20
208.00507548302599
 30
0.0
 11
34.896344635613048
 21
206.2000000000003
 31
0.0
  0
LINE
  5
1451
  8
0
 62
     0
 10
33.532049264418589
 20
208.6868273863283
 30
0.0
 11
36.018876650746691
 21
206.2000000000003
 31
0.0
  0
LINE
  5
1452
  8
0
 62
     0
 10
33.91588123486811
 20
209.42552743101251
 30
0.0
 11
37.141408665880341
 21
206.2000000000003
 31
0.0
  0
LINE
  5
1453
  8
0
 62
     0
 10
34.248666515254357
 20
210.21527416575989
 30
0.0
 11
38.263940681013977
 21
206.2000000000003
 31
0.0
  0
LINE
  5
1454
  8
0
 62
     0
 10
34.53389636174046
 20
211.05257633440741
 30
0.0
 11
39.386472696147621
 21
206.2000000000003
 31
0.0
  0
LINE
  5
1455
  8
0
 62
     0
 10
34.773315725250782
 20
211.9356889860307
 30
0.0
 11
39.800000000000068
 21
206.90900471128151
 31
0.0
  0
LINE
  5
1456
  8
0
 62
     0
 10
38.63153672641495
 20
209.20000000000019
 30
0.0
 11
39.800000000000068
 21
208.03153672641511
 31
0.0
  0
LINE
  5
1457
  8
0
 62
     0
 10
34.967215804019013
 20
212.8643209223961
 30
0.0
 11
37.615768363207472
 21
210.2157683632077
 31
0.0
  0
LINE
  5
1458
  8
0
 62
     0
 10
39.7540687415486
 20
209.20000000000019
 30
0.0
 11
39.800000000000047
 21
209.1540687415488
 31
0.0
  0
LINE
  5
1459
  8
0
 62
     0
 10
35.11448040116413
 20
213.83958834038469
 30
0.0
 11
38.17703437077428
 21
210.77703437077449
 31
0.0
  0
LINE
  5
145A
  8
0
 62
     0
 10
35.212404425999843
 20
214.8641963306826
 30
0.0
 11
38.876600756682237
 21
211.20000000000019
 31
0.0
  0
LINE
  5
145B
  8
0
 62
     0
 10
35.256210389365073
 20
215.942922382451
 30
0.0
 11
39.99913277181588
 21
211.20000000000019
 31
0.0
  0
LINE
  5
145C
  8
0
 62
     0
 10
35.238035611840743
 20
217.083629175109
 30
0.0
 11
41.121664786949523
 21
211.20000000000019
 31
0.0
  0
LINE
  5
145D
  8
0
 62
     0
 10
35.144783577040222
 20
218.2994132250432
 30
0.0
 11
41.328226461699771
 21
212.1159703403836
 31
0.0
  0
LINE
  5
145E
  8
0
 62
     0
 10
34.953018398057047
 20
219.61371041915999
 30
0.0
 11
40.96801106636704
 21
213.59871775085
 31
0.0
  0
LINE
  5
145F
  8
0
 62
     0
 10
34.613857717701293
 20
221.07540311464939
 30
0.0
 11
40.719409992960763
 21
214.96985083938989
 31
0.0
  0
LINE
  5
1460
  8
0
 62
     0
 10
33.982353622404432
 20
222.82943922507991
 30
0.0
 11
40.557959194412859
 21
216.2538336530715
 31
0.0
  0
LINE
  5
1461
  8
0
 62
     0
 10
30.6117928474841
 20
226.20000000000019
 30
0.0
 11
30.655216549980739
 21
226.15657629750359
 31
0.0
  0
LINE
  5
1462
  8
0
 62
     0
 10
31.73432486261774
 20
226.2000000000003
 30
0.0
 11
40.467564546088099
 21
217.4667603165299
 31
0.0
  0
LINE
  5
1463
  8
0
 62
     0
 10
32.85685687775139
 20
226.2000000000003
 30
0.0
 11
40.436964219185668
 21
218.61989265856599
 31
0.0
  0
LINE
  5
1464
  8
0
 62
     0
 10
33.979388892885041
 20
226.20000000000019
 30
0.0
 11
40.457913045592349
 21
219.72147584729291
 31
0.0
  0
LINE
  5
1465
  8
0
 62
     0
 10
35.10192090801867
 20
226.2000000000003
 30
0.0
 11
40.524162590094733
 21
220.7777583179242
 31
0.0
  0
LINE
  5
1466
  8
0
 62
     0
 10
36.22445292315232
 20
226.2000000000003
 30
0.0
 11
40.630847813749931
 21
221.79360510940259
 31
0.0
  0
LINE
  5
1467
  8
0
 62
     0
 10
37.346984938285964
 20
226.2000000000003
 30
0.0
 11
40.774098028178742
 21
222.7728869101075
 31
0.0
  0
LINE
  5
1468
  8
0
 62
     0
 10
38.4695169534196
 20
226.20000000000019
 30
0.0
 11
40.950779288946272
 21
223.71873766447359
 31
0.0
  0
LINE
  5
1469
  8
0
 62
     0
 10
39.592048968553243
 20
226.20000000000019
 30
0.0
 11
41.158317690930687
 21
224.63373127762279
 31
0.0
  0
LINE
  5
146A
  8
0
 62
     0
 10
40.714580983686879
 20
226.2000000000003
 30
0.0
 11
41.3945745306685
 21
225.5200064530186
 31
0.0
  0
ENDBLK
  5
146C
  8
0
  0
BLOCK
  8
0
  2
*X60
 70
     1
 10
0.0
 20
0.0
 30
0.0
  3
*X60
  1

  0
LINE
  5
146E
  8
0
 62
     0
 10
-6.6000000000000361
 20
206.63871887447451
 30
0.0
 11
-6.2514777004454372
 21
206.43749943100809
 31
0.0
  0
LINE
  5
146F
  8
0
 62
     0
 10
-2.1270320434298329
 20
207.23124886201589
 30
0.0
 11
-0.7522167149220378
 21
206.4374988620159
 31
0.0
  0
LINE
  5
1470
  8
0
 62
     0
 10
-5.5370090418778579
 20
209.2000000000003
 30
0.0
 11
-4.8766627004454239
 21
208.81874886201589
 31
0.0
  0
LINE
  5
1471
  8
0
 62
     0
 10
3.3722289420935532
 20
207.2312482930237
 30
0.0
 11
3.6000000000000281
 21
207.09974461142781
 31
0.0
  0
LINE
  5
1472
  8
0
 62
     0
 10
-0.7522170434298339
 20
209.61249829302369
 30
0.0
 11
0.6225982850779621
 21
208.8187482930237
 31
0.0
  0
LINE
  5
1473
  8
0
 62
     0
 10
-4.87666302895322
 20
211.9937482930236
 30
0.0
 11
-3.501847700445424
 21
211.1999982930237
 31
0.0
  0
LINE
  5
1474
  8
0
 62
     0
 10
-8.3999999999999773
 20
214.02794784170331
 30
0.0
 11
-7.626293685968812
 21
213.58124829302369
 31
0.0
  0
LINE
  5
1475
  8
0
 62
     0
 10
0.6225979565701643
 20
211.99374772403149
 30
0.0
 11
1.9974132850779609
 21
211.1999977240315
 31
0.0
  0
LINE
  5
1476
  8
0
 62
     0
 10
-3.5018480289532219
 20
214.37499772403149
 30
0.0
 11
-2.127032700445425
 21
213.5812477240315
 31
0.0
  0
LINE
  5
1477
  8
0
 62
     0
 10
-7.6262940144766089
 20
216.75624772403151
 30
0.0
 11
-6.2514786859688121
 21
215.96249772403149
 31
0.0
  0
LINE
  5
1478
  8
0
 62
     0
 10
1.9974129565701511
 20
214.3749971550393
 30
0.0
 11
3.3722282850779481
 21
213.58124715503931
 31
0.0
  0
LINE
  5
1479
  8
0
 62
     0
 10
-2.1270330289532349
 20
216.75624715503929
 30
0.0
 11
-0.7522177004454385
 21
215.9624971550393
 31
0.0
  0
LINE
  5
147A
  8
0
 62
     0
 10
-6.2514790144766224
 20
219.13749715503931
 30
0.0
 11
-4.8766636859688246
 21
218.3437471550393
 31
0.0
  0
LINE
  5
147B
  8
0
 62
     0
 10
3.3722279565701672
 20
216.7562465860471
 30
0.0
 11
3.6000000000000258
 21
216.62474233545899
 31
0.0
  0
LINE
  5
147C
  8
0
 62
     0
 10
-0.7522180289532195
 20
219.13749658604709
 30
0.0
 11
0.6225972995545767
 21
218.3437465860471
 31
0.0
  0
LINE
  5
147D
  8
0
 62
     0
 10
-4.8766640144766056
 20
221.51874658604709
 30
0.0
 11
-3.50184868596881
 21
220.7249965860471
 31
0.0
  0
LINE
  5
147E
  8
0
 62
     0
 10
-8.3999999999999684
 20
223.55294556573449
 30
0.0
 11
-7.6262946714921984
 21
223.10624658604709
 31
0.0
  0
LINE
  5
147F
  8
0
 62
     0
 10
0.6225969710467659
 20
221.51874601705489
 30
0.0
 11
1.9974122995545609
 21
220.72499601705491
 31
0.0
  0
LINE
  5
1480
  8
0
 62
     0
 10
-3.5018490144766208
 20
223.89999601705489
 30
0.0
 11
-2.1270336859688248
 21
223.1062460170549
 31
0.0
  0
LINE
  5
1481
  8
0
 62
     0
 10
-7.4855727705488153
 20
226.2000000000003
 30
0.0
 11
-6.2514796714922118
 21
225.48749601705489
 31
0.0
  0
LINE
  5
1482
  8
0
 62
     0
 10
1.9974119710467919
 20
223.8999954480627
 30
0.0
 11
3.372227299554587
 21
223.10624544806271
 31
0.0
  0
LINE
  5
1483
  8
0
 62
     0
 10
-1.9863127705488091
 20
226.2000000000003
 30
0.0
 11
-0.7522186859687992
 21
225.4874954480627
 31
0.0
  0
LINE
  5
1484
  8
0
 62
     0
 10
3.5129472294511981
 20
226.2000000000003
 30
0.0
 11
3.6000000000000361
 21
226.1497400594902
 31
0.0
  0
LINE
  5
1485
  8
0
 62
     0
 10
1.9974129565701459
 20
206.43750284496119
 30
0.0
 11
3.3722282850779419
 21
207.2312528449612
 31
0.0
  0
LINE
  5
1486
  8
0
 62
     0
 10
0.6225979565701527
 20
208.81875227596899
 30
0.0
 11
1.997413285077948
 21
209.61250227596901
 31
0.0
  0
LINE
  5
1487
  8
0
 62
     0
 10
-3.5018480289532352
 20
206.437502275969
 30
0.0
 11
-2.1270327004454388
 21
207.23125227596901
 31
0.0
  0
LINE
  5
1488
  8
0
 62
     0
 10
3.3722289420935421
 20
213.58125170697679
 30
0.0
 11
3.6000000000000218
 21
213.7127553885727
 31
0.0
  0
LINE
  5
1489
  8
0
 62
     0
 10
-0.7522170434298454
 20
211.20000170697679
 30
0.0
 11
0.6225982850779506
 21
211.99375170697681
 31
0.0
  0
LINE
  5
148A
  8
0
 62
     0
 10
-4.8766630289532333
 20
208.81875170697691
 30
0.0
 11
-3.5018477004454369
 21
209.61250170697679
 31
0.0
  0
LINE
  5
148B
  8
0
 62
     0
 10
1.9974139420935511
 20
215.96250113798459
 30
0.0
 11
3.372229270601347
 21
216.75625113798461
 31
0.0
  0
LINE
  5
148C
  8
0
 62
     0
 10
-2.127032043429836
 20
213.58125113798459
 30
0.0
 11
-0.7522167149220405
 21
214.3750011379847
 31
0.0
  0
LINE
  5
148D
  8
0
 62
     0
 10
-6.2514780289532244
 20
211.2000011379846
 30
0.0
 11
-4.8766627004454284
 21
211.9937511379847
 31
0.0
  0
LINE
  5
148E
  8
0
 62
     0
 10
0.6225989420935436
 20
218.3437505689925
 30
0.0
 11
1.9974142706013389
 21
219.13750056899241
 31
0.0
  0
LINE
  5
148F
  8
0
 62
     0
 10
-3.5018470434298439
 20
215.96250056899251
 30
0.0
 11
-2.1270317149220479
 21
216.75625056899241
 31
0.0
  0
LINE
  5
1490
  8
0
 62
     0
 10
-7.6262930289532322
 20
213.58125056899249
 30
0.0
 11
-6.2514777004454363
 21
214.37500056899239
 31
0.0
  0
LINE
  5
1491
  8
0
 62
     0
 10
3.3722299276169441
 20
223.1062500000003
 30
0.0
 11
3.6000000000000321
 21
223.237753112604
 31
0.0
  0
LINE
  5
1492
  8
0
 62
     0
 10
-0.752216057906443
 20
220.72500000000031
 30
0.0
 11
0.622599270601353
 21
221.51875000000021
 31
0.0
  0
LINE
  5
1493
  8
0
 62
     0
 10
-4.87666204342983
 20
218.34375000000031
 30
0.0
 11
-3.501846714922034
 21
219.1375000000003
 31
0.0
  0
LINE
  5
1494
  8
0
 62
     0
 10
-8.399999999999979
 20
216.3095498823285
 30
0.0
 11
-7.626292700445422
 21
216.75625000000031
 31
0.0
  0
LINE
  5
1495
  8
0
 62
     0
 10
1.9974149276169471
 20
225.48749943100799
 30
0.0
 11
3.2315021135331539
 21
226.2000000000003
 31
0.0
  0
LINE
  5
1496
  8
0
 62
     0
 10
-2.1270310579064402
 20
223.106249431008
 30
0.0
 11
-0.7522157293986443
 21
223.8999994310081
 31
0.0
  0
LINE
  5
1497
  8
0
 62
     0
 10
-6.2514770434298281
 20
220.724999431008
 30
0.0
 11
-4.8766617149220322
 21
221.5187494310081
 31
0.0
  0
LINE
  5
1498
  8
0
 62
     0
 10
-3.5018460579064392
 20
225.48749886201591
 30
0.0
 11
-2.2677578864668511
 21
226.2000000000003
 31
0.0
  0
LINE
  5
1499
  8
0
 62
     0
 10
-7.6262920434298271
 20
223.10624886201589
 30
0.0
 11
-6.2514767149220312
 21
223.89999886201579
 31
0.0
  0
LINE
  5
149A
  8
0
 62
     0
 10
-8.3999999999999702
 20
225.83454760635971
 30
0.0
 11
-7.7670178864668609
 21
226.2000000000003
 31
0.0
  0
LINE
  5
149B
  8
0
 62
     0
 10
-6.2514800000000008
 20
206.43750000000031
 30
0.0
 11
-6.2514800000000008
 21
206.2000000000003
 31
0.0
  0
LINE
  5
149C
  8
0
 62
     0
 10
-6.251479999999999
 20
215.9625000000002
 30
0.0
 11
-6.251479999999999
 21
214.3750000000002
 31
0.0
  0
LINE
  5
149D
  8
0
 62
     0
 10
-6.251479999999999
 20
220.72500000000019
 30
0.0
 11
-6.251479999999999
 21
219.13750000000019
 31
0.0
  0
LINE
  5
149E
  8
0
 62
     0
 10
-6.2514799999999981
 20
225.4875000000003
 30
0.0
 11
-6.2514799999999981
 21
223.9000000000002
 31
0.0
  0
LINE
  5
149F
  8
0
 62
     0
 10
-3.501850000000001
 20
206.4375000000002
 30
0.0
 11
-3.501850000000001
 21
206.20000000000019
 31
0.0
  0
LINE
  5
14A0
  8
0
 62
     0
 10
-3.501850000000001
 20
211.20000000000019
 30
0.0
 11
-3.501850000000001
 21
209.61250000000021
 31
0.0
  0
LINE
  5
14A1
  8
0
 62
     0
 10
-3.5018500000000001
 20
215.9625000000002
 30
0.0
 11
-3.5018500000000001
 21
214.3750000000002
 31
0.0
  0
LINE
  5
14A2
  8
0
 62
     0
 10
-3.5018499999999988
 20
220.72500000000019
 30
0.0
 11
-3.5018499999999988
 21
219.13750000000019
 31
0.0
  0
LINE
  5
14A3
  8
0
 62
     0
 10
-3.5018499999999979
 20
225.4875000000003
 30
0.0
 11
-3.5018499999999979
 21
223.9000000000002
 31
0.0
  0
LINE
  5
14A4
  8
0
 62
     0
 10
-0.7522200000000023
 20
206.4375000000002
 30
0.0
 11
-0.7522200000000021
 21
206.20000000000019
 31
0.0
  0
LINE
  5
14A5
  8
0
 62
     0
 10
-0.7522200000000014
 20
211.20000000000019
 30
0.0
 11
-0.7522200000000014
 21
209.61250000000021
 31
0.0
  0
LINE
  5
14A6
  8
0
 62
     0
 10
-0.7522200000000006
 20
215.9625000000002
 30
0.0
 11
-0.7522200000000006
 21
214.3750000000002
 31
0.0
  0
LINE
  5
14A7
  8
0
 62
     0
 10
-0.7522199999999997
 20
220.72500000000019
 30
0.0
 11
-0.7522199999999997
 21
219.13750000000019
 31
0.0
  0
LINE
  5
14A8
  8
0
 62
     0
 10
-0.7522199999999988
 20
225.4875000000003
 30
0.0
 11
-0.7522199999999988
 21
223.9000000000002
 31
0.0
  0
LINE
  5
14A9
  8
0
 62
     0
 10
1.997409999999997
 20
206.4375000000002
 30
0.0
 11
1.997409999999997
 21
206.20000000000019
 31
0.0
  0
LINE
  5
14AA
  8
0
 62
     0
 10
1.9974099999999979
 20
211.20000000000019
 30
0.0
 11
1.9974099999999979
 21
209.61250000000021
 31
0.0
  0
LINE
  5
14AB
  8
0
 62
     0
 10
1.997409999999999
 20
215.9625000000002
 30
0.0
 11
1.9974099999999979
 21
214.3750000000002
 31
0.0
  0
LINE
  5
14AC
  8
0
 62
     0
 10
1.9974099999999999
 20
220.72500000000019
 30
0.0
 11
1.997409999999999
 21
219.13750000000019
 31
0.0
  0
LINE
  5
14AD
  8
0
 62
     0
 10
1.997410000000001
 20
225.4875000000003
 30
0.0
 11
1.9974099999999999
 21
223.9000000000002
 31
0.0
  0
ENDBLK
  5
14AF
  8
0
  0
BLOCK
  8
0
  2
*X61
 70
     1
 10
0.0
 20
0.0
 30
0.0
  3
*X61
  1

  0
LINE
  5
14BE
  8
0
 62
     0
 10
30.181126369710501
 20
206.8343707325588
 30
0.0
 11
30.868534033964391
 21
206.4374957325588
 31
0.0
  0
LINE
  5
14BF
  8
0
 62
     0
 10
28.118903376948801
 20
208.02499573255881
 30
0.0
 11
28.806311041202701
 21
207.62812073255881
 31
0.0
  0
LINE
  5
14C0
  8
0
 62
     0
 10
30.86853386971049
 20
208.02499544806281
 30
0.0
 11
31.55594153396439
 21
207.62812044806279
 31
0.0
  0
LINE
  5
14C1
  8
0
 62
     0
 10
28.8063108769488
 20
209.21562044806271
 30
0.0
 11
29.493718541202689
 21
208.81874544806271
 31
0.0
  0
LINE
  5
14C2
  8
0
 62
     0
 10
26.744087884187099
 20
210.40624544806269
 30
0.0
 11
27.431495548440999
 21
210.0093704480627
 31
0.0
  0
LINE
  5
14C3
  8
0
 62
     0
 10
31.555941369710499
 20
209.2156201635666
 30
0.0
 11
32.2433490339644
 21
208.81874516356669
 31
0.0
  0
LINE
  5
14C4
  8
0
 62
     0
 10
29.493718376948809
 20
210.40624516356661
 30
0.0
 11
30.18112604120271
 21
210.0093701635667
 31
0.0
  0
LINE
  5
14C5
  8
0
 62
     0
 10
27.431495384187119
 20
211.59687016356659
 30
0.0
 11
28.118903048441009
 21
211.1999951635666
 31
0.0
  0
LINE
  5
14C6
  8
0
 62
     0
 10
25.417448119532519
 20
212.7596808939756
 30
0.0
 11
26.056680055679319
 21
212.39062016356661
 31
0.0
  0
LINE
  5
14C7
  8
0
 62
     0
 10
32.243348869710502
 20
210.40624487907061
 30
0.0
 11
32.930756533964392
 21
210.0093698790705
 31
0.0
  0
LINE
  5
14C8
  8
0
 62
     0
 10
30.181125876948808
 20
211.59686987907051
 30
0.0
 11
30.868533541202702
 21
211.19999487907049
 31
0.0
  0
LINE
  5
14C9
  8
0
 62
     0
 10
28.118902884187111
 20
212.78749487907049
 30
0.0
 11
28.806310548441012
 21
212.3906198790705
 31
0.0
  0
LINE
  5
14CA
  8
0
 62
     0
 10
26.056679891425421
 20
213.9781198790705
 30
0.0
 11
26.744087555679311
 21
213.58124487907051
 31
0.0
  0
LINE
  5
14CB
  8
0
 62
     0
 10
32.930756369710501
 20
211.59686959457451
 30
0.0
 11
33.618164033964398
 21
211.19999459457449
 31
0.0
  0
LINE
  5
14CC
  8
0
 62
     0
 10
30.868533376948811
 20
212.7874945945745
 30
0.0
 11
31.555941041202701
 21
212.3906195945745
 31
0.0
  0
LINE
  5
14CD
  8
0
 62
     0
 10
28.80631038418711
 20
213.97811959457451
 30
0.0
 11
29.493718048441011
 21
213.58124459457451
 31
0.0
  0
LINE
  5
14CE
  8
0
 62
     0
 10
26.74408739142542
 20
215.16874459457441
 30
0.0
 11
27.431495055679321
 21
214.77186959457441
 31
0.0
  0
LINE
  5
14CF
  8
0
 62
     0
 10
25.10784274684098
 20
216.1134308805853
 30
0.0
 11
25.369272062917631
 21
215.96249459457439
 31
0.0
  0
LINE
  5
14D0
  8
0
 62
     0
 10
33.6181638697105
 20
212.78749431007839
 30
0.0
 11
34.30557153396439
 21
212.39061931007839
 31
0.0
  0
LINE
  5
14D1
  8
0
 62
     0
 10
31.555940876948799
 20
213.9781193100784
 30
0.0
 11
32.2433485412027
 21
213.5812443100784
 31
0.0
  0
LINE
  5
14D2
  8
0
 62
     0
 10
29.493717884187109
 20
215.1687443100783
 30
0.0
 11
30.18112554844101
 21
214.77186931007839
 31
0.0
  0
LINE
  5
14D3
  8
0
 62
     0
 10
27.43149489142542
 20
216.35936931007831
 30
0.0
 11
28.118902555679309
 21
215.9624943100784
 31
0.0
  0
LINE
  5
14D4
  8
0
 62
     0
 10
25.369271898663719
 20
217.54999431007829
 30
0.0
 11
26.056679562917619
 21
217.1531193100783
 31
0.0
  0
LINE
  5
14D5
  8
0
 62
     0
 10
34.305571369710499
 20
213.97811902558229
 30
0.0
 11
34.992979033964403
 21
213.58124402558229
 31
0.0
  0
LINE
  5
14D6
  8
0
 62
     0
 10
32.243348376948809
 20
215.1687440255823
 30
0.0
 11
32.930756041202713
 21
214.7718690255823
 31
0.0
  0
LINE
  5
14D7
  8
0
 62
     0
 10
30.181125384187119
 20
216.3593690255822
 30
0.0
 11
30.868533048441019
 21
215.9624940255822
 31
0.0
  0
LINE
  5
14D8
  8
0
 62
     0
 10
28.118902391425429
 20
217.54999402558221
 30
0.0
 11
28.806310055679319
 21
217.15311902558221
 31
0.0
  0
LINE
  5
14D9
  8
0
 62
     0
 10
26.056679398663739
 20
218.74061902558219
 30
0.0
 11
26.744087062917629
 21
218.3437440255822
 31
0.0
  0
LINE
  5
14DA
  8
0
 62
     0
 10
34.992978869710498
 20
215.16874374108619
 30
0.0
 11
35.223372859060468
 21
215.0357257093153
 31
0.0
  0
LINE
  5
14DB
  8
0
 62
     0
 10
32.930755876948808
 20
216.3593687410862
 30
0.0
 11
33.618163541202712
 21
215.96249374108621
 31
0.0
  0
LINE
  5
14DC
  8
0
 62
     0
 10
30.868532884187118
 20
217.54999374108621
 30
0.0
 11
31.555940548441011
 21
217.15311874108619
 31
0.0
  0
LINE
  5
14DD
  8
0
 62
     0
 10
28.806309891425421
 20
218.74061874108611
 30
0.0
 11
29.493717555679321
 21
218.34374374108609
 31
0.0
  0
LINE
  5
14DE
  8
0
 62
     0
 10
26.744086898663731
 20
219.93124374108609
 30
0.0
 11
27.431494562917621
 21
219.5343687410861
 31
0.0
  0
LINE
  5
14DF
  8
0
 62
     0
 10
33.618163376948793
 20
217.5499934565901
 30
0.0
 11
34.30557104120269
 21
217.15311845659011
 31
0.0
  0
LINE
  5
14E0
  8
0
 62
     0
 10
31.55594038418711
 20
218.74061845659
 30
0.0
 11
32.243348048441
 21
218.34374345659009
 31
0.0
  0
LINE
  5
14E1
  8
0
 62
     0
 10
29.49371739142541
 20
219.93124345659001
 30
0.0
 11
30.18112505567931
 21
219.5343684565901
 31
0.0
  0
LINE
  5
14E2
  8
0
 62
     0
 10
27.43149439866372
 20
221.12186845658999
 30
0.0
 11
28.118902062917609
 21
220.72499345659
 31
0.0
  0
LINE
  5
14E3
  8
0
 62
     0
 10
26.024848821858502
 20
221.93399565901291
 30
0.0
 11
26.056679070155919
 21
221.91561845659001
 31
0.0
  0
LINE
  5
14E4
  8
0
 62
     0
 10
34.305570876948792
 20
218.740618172094
 30
0.0
 11
34.992978541202689
 21
218.34374317209401
 31
0.0
  0
LINE
  5
14E5
  8
0
 62
     0
 10
32.243347884187109
 20
219.93124317209401
 30
0.0
 11
32.930755548440999
 21
219.53436817209391
 31
0.0
  0
LINE
  5
14E6
  8
0
 62
     0
 10
30.181124891425409
 20
221.12186817209391
 30
0.0
 11
30.868532555679309
 21
220.72499317209389
 31
0.0
  0
LINE
  5
14E7
  8
0
 62
     0
 10
28.118901898663719
 20
222.31249317209389
 30
0.0
 11
28.806309562917619
 21
221.9156181720939
 31
0.0
  0
LINE
  5
14E8
  8
0
 62
     0
 10
26.56361235571552
 20
223.2104400083829
 30
0.0
 11
26.744086570155918
 21
223.10624317209391
 31
0.0
  0
LINE
  5
14E9
  8
0
 62
     0
 10
32.930755384187087
 20
221.12186788759789
 30
0.0
 11
33.618163048440977
 21
220.72499288759789
 31
0.0
  0
LINE
  5
14EA
  8
0
 62
     0
 10
30.868532391425401
 20
222.3124928875979
 30
0.0
 11
31.55594005567929
 21
221.9156178875979
 31
0.0
  0
LINE
  5
14EB
  8
0
 62
     0
 10
28.8063093986637
 20
223.50311788759791
 30
0.0
 11
29.4937170629176
 21
223.10624288759789
 31
0.0
  0
LINE
  5
14EC
  8
0
 62
     0
 10
27.270548403215042
 20
224.38978991173099
 30
0.0
 11
27.4314940701559
 21
224.29686788759781
 31
0.0
  0
LINE
  5
14ED
  8
0
 62
     0
 10
33.618162884187093
 20
222.3124926031017
 30
0.0
 11
34.305570548440983
 21
221.91561760310179
 31
0.0
  0
LINE
  5
14EE
  8
0
 62
     0
 10
31.5559398914254
 20
223.50311760310171
 30
0.0
 11
32.243347555679293
 21
223.1062426031018
 31
0.0
  0
LINE
  5
14EF
  8
0
 62
     0
 10
29.493716898663699
 20
224.6937426031017
 30
0.0
 11
30.181124562917599
 21
224.2968676031017
 31
0.0
  0
LINE
  5
14F0
  8
0
 62
     0
 10
32.243347391425409
 20
224.69374231860559
 30
0.0
 11
32.930755055679313
 21
224.29686731860559
 31
0.0
  0
LINE
  5
14F1
  8
0
 62
     0
 10
30.181124398663719
 20
225.8843673186056
 30
0.0
 11
30.86853206291762
 21
225.4874923186056
 31
0.0
  0
LINE
  5
14F2
  8
0
 62
     0
 10
31.555940876948782
 20
207.62813068992219
 30
0.0
 11
32.243348541202678
 21
208.02500568992221
 31
0.0
  0
LINE
  5
14F3
  8
0
 62
     0
 10
29.493717884187092
 20
206.4375056899222
 30
0.0
 11
30.181125548440981
 21
206.8343806899222
 31
0.0
  0
LINE
  5
14F4
  8
0
 62
     0
 10
32.93075636971048
 20
210.0093804054261
 30
0.0
 11
33.618164033964383
 21
210.40625540542609
 31
0.0
  0
LINE
  5
14F5
  8
0
 62
     0
 10
30.86853337694879
 20
208.81875540542609
 30
0.0
 11
31.55594104120269
 21
209.21563040542611
 31
0.0
  0
LINE
  5
14F6
  8
0
 62
     0
 10
28.806310384187089
 20
207.62813040542611
 30
0.0
 11
29.493718048440989
 21
208.0250054054261
 31
0.0
  0
LINE
  5
14F7
  8
0
 62
     0
 10
34.305571862472171
 20
212.39063012093001
 30
0.0
 11
34.94848957763746
 21
212.7618188368474
 31
0.0
  0
LINE
  5
14F8
  8
0
 62
     0
 10
32.243348869710481
 20
211.20000512093
 30
0.0
 11
32.930756533964377
 21
211.59688012093
 31
0.0
  0
LINE
  5
14F9
  8
0
 62
     0
 10
30.181125876948791
 20
210.00938012092999
 30
0.0
 11
30.868533541202691
 21
210.40625512093001
 31
0.0
  0
LINE
  5
14FA
  8
0
 62
     0
 10
28.11890288418709
 20
208.81875512093001
 30
0.0
 11
28.80631054844099
 21
209.21563012093
 31
0.0
  0
LINE
  5
14FB
  8
0
 62
     0
 10
33.618164362472172
 20
213.5812548364338
 30
0.0
 11
34.305572026726068
 21
213.97812983643391
 31
0.0
  0
LINE
  5
14FC
  8
0
 62
     0
 10
31.555941369710482
 20
212.3906298364339
 30
0.0
 11
32.243349033964378
 21
212.7875048364339
 31
0.0
  0
LINE
  5
14FD
  8
0
 62
     0
 10
29.493718376948792
 20
211.20000483643389
 30
0.0
 11
30.181126041202688
 21
211.59687983643391
 31
0.0
  0
LINE
  5
14FE
  8
0
 62
     0
 10
27.431495384187091
 20
210.00937983643391
 30
0.0
 11
28.118903048440991
 21
210.4062548364339
 31
0.0
  0
LINE
  5
14FF
  8
0
 62
     0
 10
34.992979855233848
 20
215.96250455193771
 30
0.0
 11
35.257705851107033
 21
216.11534417691661
 31
0.0
  0
LINE
  5
1500
  8
0
 62
     0
 10
32.930756862472158
 20
214.7718795519377
 30
0.0
 11
33.618164526726062
 21
215.1687545519377
 31
0.0
  0
LINE
  5
1501
  8
0
 62
     0
 10
30.868533869710468
 20
213.5812545519378
 30
0.0
 11
31.555941533964369
 21
213.9781295519378
 31
0.0
  0
LINE
  5
1502
  8
0
 62
     0
 10
28.806310876948778
 20
212.39062955193779
 30
0.0
 11
29.493718541202671
 21
212.78750455193779
 31
0.0
  0
LINE
  5
1503
  8
0
 62
     0
 10
26.744087884187081
 20
211.20000455193781
 30
0.0
 11
27.431495548440981
 21
211.5968795519378
 31
0.0
  0
LINE
  5
1504
  8
0
 62
     0
 10
34.305572355233849
 20
217.1531292674417
 30
0.0
 11
34.992980019487753
 21
217.55000426744161
 31
0.0
  0
LINE
  5
1505
  8
0
 62
     0
 10
32.243349362472159
 20
215.96250426744169
 30
0.0
 11
32.930757026726063
 21
216.3593792674416
 31
0.0
  0
LINE
  5
1506
  8
0
 62
     0
 10
30.181126369710469
 20
214.7718792674417
 30
0.0
 11
30.868534033964359
 21
215.1687542674417
 31
0.0
  0
LINE
  5
1507
  8
0
 62
     0
 10
28.118903376948769
 20
213.58125426744169
 30
0.0
 11
28.806311041202669
 21
213.97812926744169
 31
0.0
  0
LINE
  5
1508
  8
0
 62
     0
 10
26.056680384187079
 20
212.39062926744171
 30
0.0
 11
26.744088048440979
 21
212.7875042674417
 31
0.0
  0
LINE
  5
1509
  8
0
 62
     0
 10
33.618164855233857
 20
218.34375398294549
 30
0.0
 11
34.305572519487761
 21
218.74062898294551
 31
0.0
  0
LINE
  5
150A
  8
0
 62
     0
 10
31.555941862472171
 20
217.1531289829455
 30
0.0
 11
32.243349526726071
 21
217.5500039829455
 31
0.0
  0
LINE
  5
150B
  8
0
 62
     0
 10
29.493718869710481
 20
215.96250398294549
 30
0.0
 11
30.181126533964381
 21
216.35937898294549
 31
0.0
  0
LINE
  5
150C
  8
0
 62
     0
 10
27.43149587694878
 20
214.77187898294559
 30
0.0
 11
28.11890354120268
 21
215.16875398294559
 31
0.0
  0
LINE
  5
150D
  8
0
 62
     0
 10
25.36927288418709
 20
213.58125398294561
 30
0.0
 11
26.05668054844099
 21
213.97812898294561
 31
0.0
  0
LINE
  5
150E
  8
0
 62
     0
 10
32.930757355233872
 20
219.53437869844939
 30
0.0
 11
33.618165019487769
 21
219.9312536984495
 31
0.0
  0
LINE
  5
150F
  8
0
 62
     0
 10
30.868534362472179
 20
218.34375369844949
 30
0.0
 11
31.555942026726079
 21
218.74062869844951
 31
0.0
  0
LINE
  5
1510
  8
0
 62
     0
 10
28.806311369710489
 20
217.15312869844951
 30
0.0
 11
29.493719033964378
 21
217.5500036984495
 31
0.0
  0
LINE
  5
1511
  8
0
 62
     0
 10
26.744088376948788
 20
215.9625036984495
 30
0.0
 11
27.431496041202688
 21
216.35937869844949
 31
0.0
  0
LINE
  5
1512
  8
0
 62
     0
 10
25.142057739174469
 20
215.03757087848041
 30
0.0
 11
25.369273048440999
 21
215.16875369844951
 31
0.0
  0
LINE
  5
1513
  8
0
 62
     0
 10
34.305572847995563
 20
221.9156284139533
 30
0.0
 11
34.340128830203803
 21
221.93557931958341
 31
0.0
  0
LINE
  5
1514
  8
0
 62
     0
 10
32.243349855233873
 20
220.7250034139534
 30
0.0
 11
32.930757519487763
 21
221.12187841395331
 31
0.0
  0
LINE
  5
1515
  8
0
 62
     0
 10
30.18112686247218
 20
219.53437841395339
 30
0.0
 11
30.868534526726069
 21
219.9312534139533
 31
0.0
  0
LINE
  5
1516
  8
0
 62
     0
 10
28.118903869710479
 20
218.34375341395341
 30
0.0
 11
28.806311533964379
 21
218.7406284139534
 31
0.0
  0
LINE
  5
1517
  8
0
 62
     0
 10
26.056680876948789
 20
217.1531284139534
 30
0.0
 11
26.744088541202689
 21
217.55000341395339
 31
0.0
  0
LINE
  5
1518
  8
0
 62
     0
 10
33.61816534799555
 20
223.1062531294572
 30
0.0
 11
33.80118856465711
 21
223.21192163286469
 31
0.0
  0
LINE
  5
1519
  8
0
 62
     0
 10
31.55594235523386
 20
221.91562812945719
 30
0.0
 11
32.243350019487757
 21
222.31250312945721
 31
0.0
  0
LINE
  5
151A
  8
0
 62
     0
 10
29.49371936247217
 20
220.72500312945729
 30
0.0
 11
30.18112702672607
 21
221.12187812945729
 31
0.0
  0
LINE
  5
151B
  8
0
 62
     0
 10
27.431496369710469
 20
219.53437812945731
 30
0.0
 11
28.11890403396437
 21
219.9312531294573
 31
0.0
  0
LINE
  5
151C
  8
0
 62
     0
 10
25.369273376948779
 20
218.3437531294573
 30
0.0
 11
26.05668104120268
 21
218.74062812945729
 31
0.0
  0
LINE
  5
151D
  8
0
 62
     0
 10
32.930757847995551
 20
224.29687784496119
 30
0.0
 11
33.094016954350437
 21
224.3911355339628
 31
0.0
  0
LINE
  5
151E
  8
0
 62
     0
 10
30.868534855233861
 20
223.1062528449612
 30
0.0
 11
31.555942519487761
 21
223.5031278449612
 31
0.0
  0
LINE
  5
151F
  8
0
 62
     0
 10
28.806311862472171
 20
221.91562784496119
 30
0.0
 11
29.493719526726071
 21
222.31250284496119
 31
0.0
  0
LINE
  5
1520
  8
0
 62
     0
 10
26.74408886971047
 20
220.72500284496121
 30
0.0
 11
27.431496533964371
 21
221.1218778449612
 31
0.0
  0
LINE
  5
1521
  8
0
 62
     0
 10
30.181127355233858
 20
224.29687756046511
 30
0.0
 11
30.868535019487751
 21
224.6937525604651
 31
0.0
  0
LINE
  5
1522
  8
0
 62
     0
 10
28.118904362472168
 20
223.10625256046509
 30
0.0
 11
28.806312026726062
 21
223.50312756046509
 31
0.0
  0
LINE
  5
1523
  8
0
 62
     0
 10
26.056681369710471
 20
221.91562756046511
 30
0.0
 11
26.744089033964372
 21
222.31250256046511
 31
0.0
  0
LINE
  5
1524
  8
0
 62
     0
 10
29.493719855233859
 20
225.48750227596901
 30
0.0
 11
30.18112751948776
 21
225.884377275969
 31
0.0
  0
LINE
  5
1525
  8
0
 62
     0
 10
27.431496862472169
 20
224.296877275969
 30
0.0
 11
28.11890452672607
 21
224.69375227596899
 31
0.0
  0
LINE
  5
1526
  8
0
 62
     0
 10
25.369264999999999
 20
213.5812500000003
 30
0.0
 11
25.369264999999999
 21
213.0307902682629
 31
0.0
  0
LINE
  5
1527
  8
0
 62
     0
 10
25.369264999999999
 20
215.96250000000029
 30
0.0
 11
25.369264999999999
 21
215.1687500000003
 31
0.0
  0
LINE
  5
1528
  8
0
 62
     0
 10
25.369264999999999
 20
218.34375000000031
 30
0.0
 11
25.369264999999999
 21
217.5500000000003
 31
0.0
  0
LINE
  5
1529
  8
0
 62
     0
 10
26.74408
 20
211.2000000000003
 30
0.0
 11
26.74408
 21
210.40625000000031
 31
0.0
  0
LINE
  5
152A
  8
0
 62
     0
 10
26.74408
 20
213.5812500000003
 30
0.0
 11
26.74408
 21
212.78750000000031
 31
0.0
  0
LINE
  5
152B
  8
0
 62
     0
 10
26.74408
 20
215.96250000000029
 30
0.0
 11
26.74408
 21
215.1687500000003
 31
0.0
  0
LINE
  5
152C
  8
0
 62
     0
 10
26.74408
 20
218.34375000000031
 30
0.0
 11
26.74408
 21
217.5500000000003
 31
0.0
  0
LINE
  5
152D
  8
0
 62
     0
 10
26.74408
 20
220.72500000000031
 30
0.0
 11
26.74408
 21
219.93125000000029
 31
0.0
  0
LINE
  5
152E
  8
0
 62
     0
 10
26.74408
 20
223.1062500000003
 30
0.0
 11
26.74408
 21
222.31250000000031
 31
0.0
  0
LINE
  5
152F
  8
0
 62
     0
 10
28.118894999999998
 20
208.81875000000031
 30
0.0
 11
28.118894999999998
 21
208.02500000000029
 31
0.0
  0
LINE
  5
1530
  8
0
 62
     0
 10
28.118894999999998
 20
211.2000000000003
 30
0.0
 11
28.118894999999998
 21
210.40625000000031
 31
0.0
  0
LINE
  5
1531
  8
0
 62
     0
 10
28.118894999999998
 20
213.5812500000003
 30
0.0
 11
28.118894999999998
 21
212.78750000000031
 31
0.0
  0
LINE
  5
1532
  8
0
 62
     0
 10
28.118894999999998
 20
215.96250000000029
 30
0.0
 11
28.118894999999998
 21
215.1687500000003
 31
0.0
  0
LINE
  5
1533
  8
0
 62
     0
 10
28.118894999999998
 20
218.34375000000031
 30
0.0
 11
28.118894999999998
 21
217.5500000000003
 31
0.0
  0
LINE
  5
1534
  8
0
 62
     0
 10
28.118894999999998
 20
220.72500000000031
 30
0.0
 11
28.118894999999998
 21
219.93125000000029
 31
0.0
  0
LINE
  5
1535
  8
0
 62
     0
 10
28.118894999999998
 20
223.1062500000003
 30
0.0
 11
28.118894999999998
 21
222.31250000000031
 31
0.0
  0
LINE
  5
1536
  8
0
 62
     0
 10
28.118894999999998
 20
225.3357713641112
 30
0.0
 11
28.118894999999998
 21
224.69375000000031
 31
0.0
  0
LINE
  5
1537
  8
0
 62
     0
 10
29.49371
 20
206.43750000000031
 30
0.0
 11
29.49371
 21
206.29259925334969
 31
0.0
  0
LINE
  5
1538
  8
0
 62
     0
 10
29.49371
 20
208.81875000000031
 30
0.0
 11
29.49371
 21
208.02500000000029
 31
0.0
  0
LINE
  5
1539
  8
0
 62
     0
 10
29.49371
 20
211.2000000000003
 30
0.0
 11
29.49371
 21
210.40625000000031
 31
0.0
  0
LINE
  5
153A
  8
0
 62
     0
 10
29.49371
 20
213.5812500000003
 30
0.0
 11
29.49371
 21
212.78750000000031
 31
0.0
  0
LINE
  5
153B
  8
0
 62
     0
 10
29.49371
 20
215.96250000000029
 30
0.0
 11
29.49371
 21
215.1687500000003
 31
0.0
  0
LINE
  5
153C
  8
0
 62
     0
 10
29.49371
 20
218.34375000000031
 30
0.0
 11
29.49371
 21
217.5500000000003
 31
0.0
  0
LINE
  5
153D
  8
0
 62
     0
 10
29.49371
 20
220.72500000000031
 30
0.0
 11
29.49371
 21
219.93125000000029
 31
0.0
  0
LINE
  5
153E
  8
0
 62
     0
 10
29.49371
 20
223.1062500000003
 30
0.0
 11
29.49371
 21
222.31250000000031
 31
0.0
  0
LINE
  5
153F
  8
0
 62
     0
 10
29.49371
 20
225.4875000000003
 30
0.0
 11
29.49371
 21
224.69375000000031
 31
0.0
  0
LINE
  5
1540
  8
0
 62
     0
 10
30.868525000000002
 20
206.43750000000031
 30
0.0
 11
30.868525000000002
 21
206.2917089220235
 31
0.0
  0
LINE
  5
1541
  8
0
 62
     0
 10
30.868525000000002
 20
208.81875000000031
 30
0.0
 11
30.868525000000002
 21
208.02500000000029
 31
0.0
  0
LINE
  5
1542
  8
0
 62
     0
 10
30.868525000000002
 20
211.2000000000003
 30
0.0
 11
30.868525000000002
 21
210.40625000000031
 31
0.0
  0
LINE
  5
1543
  8
0
 62
     0
 10
30.868525000000002
 20
213.5812500000003
 30
0.0
 11
30.868525000000002
 21
212.78750000000031
 31
0.0
  0
LINE
  5
1544
  8
0
 62
     0
 10
30.868525000000002
 20
215.96250000000029
 30
0.0
 11
30.868525000000002
 21
215.1687500000003
 31
0.0
  0
LINE
  5
1545
  8
0
 62
     0
 10
30.868525000000002
 20
218.34375000000031
 30
0.0
 11
30.868525000000002
 21
217.5500000000003
 31
0.0
  0
LINE
  5
1546
  8
0
 62
     0
 10
30.868525000000002
 20
220.72500000000031
 30
0.0
 11
30.868525000000002
 21
219.93125000000029
 31
0.0
  0
LINE
  5
1547
  8
0
 62
     0
 10
30.868525000000002
 20
223.1062500000003
 30
0.0
 11
30.868525000000002
 21
222.31250000000031
 31
0.0
  0
LINE
  5
1548
  8
0
 62
     0
 10
30.868525000000002
 20
225.4875000000003
 30
0.0
 11
30.868525000000002
 21
224.69375000000031
 31
0.0
  0
LINE
  5
1549
  8
0
 62
     0
 10
32.243340000000003
 20
208.81875000000031
 30
0.0
 11
32.243340000000003
 21
208.02500000000029
 31
0.0
  0
LINE
  5
154A
  8
0
 62
     0
 10
32.243340000000003
 20
211.2000000000003
 30
0.0
 11
32.243340000000003
 21
210.40625000000031
 31
0.0
  0
LINE
  5
154B
  8
0
 62
     0
 10
32.243340000000003
 20
213.5812500000003
 30
0.0
 11
32.243340000000003
 21
212.78750000000031
 31
0.0
  0
LINE
  5
154C
  8
0
 62
     0
 10
32.243340000000003
 20
215.96250000000029
 30
0.0
 11
32.243340000000003
 21
215.1687500000003
 31
0.0
  0
LINE
  5
154D
  8
0
 62
     0
 10
32.243340000000003
 20
218.34375000000031
 30
0.0
 11
32.243340000000003
 21
217.5500000000003
 31
0.0
  0
LINE
  5
154E
  8
0
 62
     0
 10
32.243340000000003
 20
220.72500000000031
 30
0.0
 11
32.243340000000003
 21
219.93125000000029
 31
0.0
  0
LINE
  5
154F
  8
0
 62
     0
 10
32.243340000000003
 20
223.1062500000003
 30
0.0
 11
32.243340000000003
 21
222.31250000000031
 31
0.0
  0
LINE
  5
1550
  8
0
 62
     0
 10
32.243340000000003
 20
225.33866762777041
 30
0.0
 11
32.243340000000003
 21
224.69375000000031
 31
0.0
  0
LINE
  5
1551
  8
0
 62
     0
 10
33.618155000000002
 20
211.2000000000003
 30
0.0
 11
33.618155000000002
 21
210.40625000000031
 31
0.0
  0
LINE
  5
1552
  8
0
 62
     0
 10
33.618155000000002
 20
213.5812500000003
 30
0.0
 11
33.618155000000002
 21
212.78750000000031
 31
0.0
  0
LINE
  5
1553
  8
0
 62
     0
 10
33.618155000000002
 20
215.96250000000029
 30
0.0
 11
33.618155000000002
 21
215.1687500000003
 31
0.0
  0
LINE
  5
1554
  8
0
 62
     0
 10
33.618155000000002
 20
218.34375000000031
 30
0.0
 11
33.618155000000002
 21
217.5500000000003
 31
0.0
  0
LINE
  5
1555
  8
0
 62
     0
 10
33.618155000000002
 20
220.72500000000031
 30
0.0
 11
33.618155000000002
 21
219.93125000000029
 31
0.0
  0
LINE
  5
1556
  8
0
 62
     0
 10
33.618155000000002
 20
223.1062500000003
 30
0.0
 11
33.618155000000002
 21
222.31250000000031
 31
0.0
  0
LINE
  5
1557
  8
0
 62
     0
 10
34.99297
 20
213.5812500000003
 30
0.0
 11
34.99297
 21
213.0113658030422
 31
0.0
  0
LINE
  5
1558
  8
0
 62
     0
 10
34.99297
 20
215.96250000000029
 30
0.0
 11
34.99297
 21
215.1687500000003
 31
0.0
  0
LINE
  5
1559
  8
0
 62
     0
 10
34.99297
 20
218.34375000000031
 30
0.0
 11
34.99297
 21
217.5500000000003
 31
0.0
  0
ENDBLK
  5
155B
  8
0
  0
BLOCK
  8
0
  2
*U62
 70
     1
 10
0.0
 20
0.0
 30
0.0
  3
*U62
  1

  0
SOLID
  5
1975
  8
SAPA_FOGBAND
  6
CONTINUOUS
 62
     2
 10
-6.5109449858177832
 20
151.1903051283488
 30
0.0
 11
-6.6912225495909832
 21
151.11563171644229
 31
0.0
 12
-6.3306674220445833
 22
151.11563171644229
 32
0.0
 13
-6.3306674220445833
 23
151.11563171644229
 33
0.0
210
0.0
220
0.0
230
1.0
  0
SOLID
  5
1976
  8
SAPA_FOGBAND
  6
CONTINUOUS
 62
     2
 10
-6.6912225495909832
 20
151.11563171644229
 30
0.0
 11
-6.7658959614974217
 21
150.93535415266911
 31
0.0
 12
-6.255994010138143
 22
150.93535415266911
 32
0.0
 13
-6.255994010138143
 23
150.93535415266911
 33
0.0
210
0.0
220
0.0
230
1.0
  0
SOLID
  5
1977
  8
SAPA_FOGBAND
  6
CONTINUOUS
 62
     2
 10
6.6912225495909832
 20
151.11563171644229
 30
0.0
 11
6.3306674220445833
 21
151.11563171644229
 31
0.0
 12
6.255994010138143
 22
150.93535415266911
 32
0.0
 13
6.255994010138143
 23
150.93535415266911
 33
0.0
210
0.0
220
0.0
230
-1.0
  0
SOLID
  5
1978
  8
SAPA_FOGBAND
  6
CONTINUOUS
 62
     2
 10
6.6912225495909832
 20
150.75507658889589
 30
0.0
 11
6.3306674220445842
 21
150.75507658889589
 31
0.0
 12
6.5109449858177832
 22
150.6804031769895
 32
0.0
 13
6.5109449858177832
 23
150.6804031769895
 33
0.0
210
0.0
220
0.0
230
-1.0
  0
SOLID
  5
1979
  8
SAPA_FOGBAND
  6
CONTINUOUS
 62
     2
 10
-6.7658959614974217
 20
150.93535415266911
 30
0.0
 11
-6.6912225495909832
 21
150.75507658889589
 31
0.0
 12
-6.3306674220445842
 22
150.75507658889589
 32
0.0
 13
-6.3306674220445842
 23
150.75507658889589
 33
0.0
210
0.0
220
0.0
230
1.0
  0
SOLID
  5
197A
  8
SAPA_FOGBAND
  6
CONTINUOUS
 62
     2
 10
6.7658959614974217
 20
150.93535415266911
 30
0.0
 11
6.255994010138143
 21
150.93535415266911
 31
0.0
 12
6.3306674220445842
 22
150.75507658889589
 32
0.0
 13
6.3306674220445842
 23
150.75507658889589
 33
0.0
210
0.0
220
0.0
230
-1.0
  0
LINE
  5
197B
  8
SAPA_FOGBAND
  6
CONTINUOUS
 62
     2
 10
-6.5109449858177832
 20
151.1903051283488
 30
0.0
 11
-6.6912225495909832
 21
151.11563171644229
 31
0.0
  0
LINE
  5
197C
  8
SAPA_FOGBAND
  6
CONTINUOUS
 62
     2
 10
-6.3306674220445833
 20
151.11563171644229
 30
0.0
 11
-6.5109449858177832
 21
151.1903051283488
 31
0.0
  0
LINE
  5
197D
  8
SAPA_FOGBAND
  6
CONTINUOUS
 62
     2
 10
-6.6912225495909832
 20
151.11563171644229
 30
0.0
 11
-6.7658959614974217
 21
150.93535415266911
 31
0.0
  0
LINE
  5
197E
  8
SAPA_FOGBAND
  6
CONTINUOUS
 62
     2
 10
-6.3306674220445833
 20
151.11563171644229
 30
0.0
 11
-6.255994010138143
 21
150.93535415266911
 31
0.0
  0
LINE
  5
197F
  8
SAPA_FOGBAND
  6
CONTINUOUS
 62
     2
 10
-6.3306674220445842
 20
150.75507658889589
 30
0.0
 11
-6.5109449858177832
 21
150.6804031769895
 31
0.0
  0
LINE
  5
1980
  8
SAPA_FOGBAND
  6
CONTINUOUS
 62
     2
 10
-6.5109449858177832
 20
150.6804031769895
 30
0.0
 11
-6.6912225495909832
 21
150.75507658889589
 31
0.0
  0
LINE
  5
1981
  8
SAPA_FOGBAND
  6
CONTINUOUS
 62
     2
 10
-6.7658959614974217
 20
150.93535415266911
 30
0.0
 11
-6.6912225495909832
 21
150.75507658889589
 31
0.0
  0
LINE
  5
1982
  8
SAPA_FOGBAND
  6
CONTINUOUS
 62
     2
 10
-6.255994010138143
 20
150.93535415266911
 30
0.0
 11
-6.3306674220445842
 21
150.75507658889589
 31
0.0
  0
ENDBLK
  5
1984
  8
0
  0
BLOCK
  8
0
  2
*U63
 70
     1
 10
0.0
 20
0.0
 30
0.0
  3
*U63
  1

  0
SOLID
  5
19AF
  8
SAPA_FOGBAND
  6
CONTINUOUS
 62
     2
 10
39.712036186968298
 20
151.7682564793034
 30
0.0
 11
39.531758623195103
 21
151.69358306739699
 31
0.0
 12
39.892313750741501
 22
151.69358306739699
 32
0.0
 13
39.892313750741501
 23
151.69358306739699
 33
0.0
210
0.0
220
0.0
230
1.0
  0
SOLID
  5
19B0
  8
SAPA_FOGBAND
  6
CONTINUOUS
 62
     2
 10
39.531758623195103
 20
151.69358306739699
 30
0.0
 11
39.457085211288657
 21
151.5133055036238
 31
0.0
 12
39.966987162647939
 22
151.5133055036238
 32
0.0
 13
39.966987162647939
 23
151.5133055036238
 33
0.0
210
0.0
220
0.0
230
1.0
  0
SOLID
  5
19B1
  8
SAPA_FOGBAND
  6
CONTINUOUS
 62
     2
 10
-39.531758623195103
 20
151.69358306739699
 30
0.0
 11
-39.892313750741501
 21
151.69358306739699
 31
0.0
 12
-39.966987162647939
 22
151.5133055036238
 32
0.0
 13
-39.966987162647939
 23
151.5133055036238
 33
0.0
210
0.0
220
0.0
230
-1.0
  0
SOLID
  5
19B2
  8
SAPA_FOGBAND
  6
CONTINUOUS
 62
     2
 10
-39.531758623195103
 20
151.33302793985061
 30
0.0
 11
-39.892313750741501
 21
151.33302793985061
 31
0.0
 12
-39.712036186968298
 22
151.25835452794419
 32
0.0
 13
-39.712036186968298
 23
151.25835452794419
 33
0.0
210
0.0
220
0.0
230
-1.0
  0
SOLID
  5
19B3
  8
SAPA_FOGBAND
  6
CONTINUOUS
 62
     2
 10
39.457085211288657
 20
151.5133055036238
 30
0.0
 11
39.531758623195103
 21
151.33302793985061
 31
0.0
 12
39.892313750741501
 22
151.33302793985061
 32
0.0
 13
39.892313750741501
 23
151.33302793985061
 33
0.0
210
0.0
220
0.0
230
1.0
  0
SOLID
  5
19B4
  8
SAPA_FOGBAND
  6
CONTINUOUS
 62
     2
 10
-39.457085211288657
 20
151.5133055036238
 30
0.0
 11
-39.966987162647939
 21
151.5133055036238
 31
0.0
 12
-39.892313750741501
 22
151.33302793985061
 32
0.0
 13
-39.892313750741501
 23
151.33302793985061
 33
0.0
210
0.0
220
0.0
230
-1.0
  0
LINE
  5
19B5
  8
SAPA_FOGBAND
  6
CONTINUOUS
 62
     2
 10
39.712036186968298
 20
151.7682564793034
 30
0.0
 11
39.531758623195103
 21
151.69358306739699
 31
0.0
  0
LINE
  5
19B6
  8
SAPA_FOGBAND
  6
CONTINUOUS
 62
     2
 10
39.892313750741501
 20
151.69358306739699
 30
0.0
 11
39.712036186968298
 21
151.7682564793034
 31
0.0
  0
LINE
  5
19B7
  8
SAPA_FOGBAND
  6
CONTINUOUS
 62
     2
 10
39.531758623195103
 20
151.69358306739699
 30
0.0
 11
39.457085211288657
 21
151.5133055036238
 31
0.0
  0
LINE
  5
19B8
  8
SAPA_FOGBAND
  6
CONTINUOUS
 62
     2
 10
39.892313750741501
 20
151.69358306739699
 30
0.0
 11
39.966987162647939
 21
151.5133055036238
 31
0.0
  0
LINE
  5
19B9
  8
SAPA_FOGBAND
  6
CONTINUOUS
 62
     2
 10
39.892313750741501
 20
151.33302793985061
 30
0.0
 11
39.712036186968298
 21
151.25835452794419
 31
0.0
  0
LINE
  5
19BA
  8
SAPA_FOGBAND
  6
CONTINUOUS
 62
     2
 10
39.712036186968298
 20
151.25835452794419
 30
0.0
 11
39.531758623195103
 21
151.33302793985061
 31
0.0
  0
LINE
  5
19BB
  8
SAPA_FOGBAND
  6
CONTINUOUS
 62
     2
 10
39.457085211288657
 20
151.5133055036238
 30
0.0
 11
39.531758623195103
 21
151.33302793985061
 31
0.0
  0
LINE
  5
19BC
  8
SAPA_FOGBAND
  6
CONTINUOUS
 62
     2
 10
39.966987162647939
 20
151.5133055036238
 30
0.0
 11
39.892313750741501
 21
151.33302793985061
 31
0.0
  0
ENDBLK
  5
19BE
  8
0
  0
BLOCK
  8
0
  2
*U64
 70
     1
 10
0.0
 20
0.0
 30
0.0
  3
*U64
  1

  0
SOLID
  5
1A33
  8
SAPA_FOGBAND
  6
CONTINUOUS
 62
     2
 10
-6.5109449858177832
 20
151.1903051283488
 30
0.0
 11
-6.6912225495909832
 21
151.11563171644229
 31
0.0
 12
-6.3306674220445833
 22
151.11563171644229
 32
0.0
 13
-6.3306674220445833
 23
151.11563171644229
 33
0.0
210
0.0
220
0.0
230
1.0
  0
SOLID
  5
1A34
  8
SAPA_FOGBAND
  6
CONTINUOUS
 62
     2
 10
-6.6912225495909832
 20
151.11563171644229
 30
0.0
 11
-6.7658959614974217
 21
150.93535415266911
 31
0.0
 12
-6.255994010138143
 22
150.93535415266911
 32
0.0
 13
-6.255994010138143
 23
150.93535415266911
 33
0.0
210
0.0
220
0.0
230
1.0
  0
SOLID
  5
1A35
  8
SAPA_FOGBAND
  6
CONTINUOUS
 62
     2
 10
6.6912225495909832
 20
151.11563171644229
 30
0.0
 11
6.3306674220445833
 21
151.11563171644229
 31
0.0
 12
6.255994010138143
 22
150.93535415266911
 32
0.0
 13
6.255994010138143
 23
150.93535415266911
 33
0.0
210
0.0
220
0.0
230
-1.0
  0
SOLID
  5
1A36
  8
SAPA_FOGBAND
  6
CONTINUOUS
 62
     2
 10
6.6912225495909832
 20
150.75507658889589
 30
0.0
 11
6.3306674220445842
 21
150.75507658889589
 31
0.0
 12
6.5109449858177832
 22
150.6804031769895
 32
0.0
 13
6.5109449858177832
 23
150.6804031769895
 33
0.0
210
0.0
220
0.0
230
-1.0
  0
SOLID
  5
1A37
  8
SAPA_FOGBAND
  6
CONTINUOUS
 62
     2
 10
-6.7658959614974217
 20
150.93535415266911
 30
0.0
 11
-6.6912225495909832
 21
150.75507658889589
 31
0.0
 12
-6.3306674220445842
 22
150.75507658889589
 32
0.0
 13
-6.3306674220445842
 23
150.75507658889589
 33
0.0
210
0.0
220
0.0
230
1.0
  0
SOLID
  5
1A38
  8
SAPA_FOGBAND
  6
CONTINUOUS
 62
     2
 10
6.7658959614974217
 20
150.93535415266911
 30
0.0
 11
6.255994010138143
 21
150.93535415266911
 31
0.0
 12
6.3306674220445842
 22
150.75507658889589
 32
0.0
 13
6.3306674220445842
 23
150.75507658889589
 33
0.0
210
0.0
220
0.0
230
-1.0
  0
LINE
  5
1A39
  8
SAPA_FOGBAND
  6
CONTINUOUS
 62
     2
 10
-6.5109449858177832
 20
151.1903051283488
 30
0.0
 11
-6.6912225495909832
 21
151.11563171644229
 31
0.0
  0
LINE
  5
1A3A
  8
SAPA_FOGBAND
  6
CONTINUOUS
 62
     2
 10
-6.3306674220445833
 20
151.11563171644229
 30
0.0
 11
-6.5109449858177832
 21
151.1903051283488
 31
0.0
  0
LINE
  5
1A3B
  8
SAPA_FOGBAND
  6
CONTINUOUS
 62
     2
 10
-6.6912225495909832
 20
151.11563171644229
 30
0.0
 11
-6.7658959614974217
 21
150.93535415266911
 31
0.0
  0
LINE
  5
1A3C
  8
SAPA_FOGBAND
  6
CONTINUOUS
 62
     2
 10
-6.3306674220445833
 20
151.11563171644229
 30
0.0
 11
-6.255994010138143
 21
150.93535415266911
 31
0.0
  0
LINE
  5
1A3D
  8
SAPA_FOGBAND
  6
CONTINUOUS
 62
     2
 10
-6.3306674220445842
 20
150.75507658889589
 30
0.0
 11
-6.5109449858177832
 21
150.6804031769895
 31
0.0
  0
LINE
  5
1A3E
  8
SAPA_FOGBAND
  6
CONTINUOUS
 62
     2
 10
-6.5109449858177832
 20
150.6804031769895
 30
0.0
 11
-6.6912225495909832
 21
150.75507658889589
 31
0.0
  0
LINE
  5
1A3F
  8
SAPA_FOGBAND
  6
CONTINUOUS
 62
     2
 10
-6.7658959614974217
 20
150.93535415266911
 30
0.0
 11
-6.6912225495909832
 21
150.75507658889589
 31
0.0
  0
LINE
  5
1A40
  8
SAPA_FOGBAND
  6
CONTINUOUS
 62
     2
 10
-6.255994010138143
 20
150.93535415266911
 30
0.0
 11
-6.3306674220445842
 21
150.75507658889589
 31
0.0
  0
ENDBLK
  5
1A42
  8
0
  0
BLOCK
  8
0
  2
*U65
 70
     1
 10
0.0
 20
0.0
 30
0.0
  3
*U65
  1

  0
SOLID
  5
1A6D
  8
SAPA_FOGBAND
  6
CONTINUOUS
 62
     2
 10
39.712036186968298
 20
151.7682564793034
 30
0.0
 11
39.531758623195103
 21
151.69358306739699
 31
0.0
 12
39.892313750741501
 22
151.69358306739699
 32
0.0
 13
39.892313750741501
 23
151.69358306739699
 33
0.0
210
0.0
220
0.0
230
1.0
  0
SOLID
  5
1A6E
  8
SAPA_FOGBAND
  6
CONTINUOUS
 62
     2
 10
39.531758623195103
 20
151.69358306739699
 30
0.0
 11
39.457085211288657
 21
151.5133055036238
 31
0.0
 12
39.966987162647939
 22
151.5133055036238
 32
0.0
 13
39.966987162647939
 23
151.5133055036238
 33
0.0
210
0.0
220
0.0
230
1.0
  0
SOLID
  5
1A6F
  8
SAPA_FOGBAND
  6
CONTINUOUS
 62
     2
 10
-39.531758623195103
 20
151.69358306739699
 30
0.0
 11
-39.892313750741501
 21
151.69358306739699
 31
0.0
 12
-39.966987162647939
 22
151.5133055036238
 32
0.0
 13
-39.966987162647939
 23
151.5133055036238
 33
0.0
210
0.0
220
0.0
230
-1.0
  0
SOLID
  5
1A70
  8
SAPA_FOGBAND
  6
CONTINUOUS
 62
     2
 10
-39.531758623195103
 20
151.33302793985061
 30
0.0
 11
-39.892313750741501
 21
151.33302793985061
 31
0.0
 12
-39.712036186968298
 22
151.25835452794419
 32
0.0
 13
-39.712036186968298
 23
151.25835452794419
 33
0.0
210
0.0
220
0.0
230
-1.0
  0
SOLID
  5
1A71
  8
SAPA_FOGBAND
  6
CONTINUOUS
 62
     2
 10
39.457085211288657
 20
151.5133055036238
 30
0.0
 11
39.531758623195103
 21
151.33302793985061
 31
0.0
 12
39.892313750741501
 22
151.33302793985061
 32
0.0
 13
39.892313750741501
 23
151.33302793985061
 33
0.0
210
0.0
220
0.0
230
1.0
  0
SOLID
  5
1A72
  8
SAPA_FOGBAND
  6
CONTINUOUS
 62
     2
 10
-39.457085211288657
 20
151.5133055036238
 30
0.0
 11
-39.966987162647939
 21
151.5133055036238
 31
0.0
 12
-39.892313750741501
 22
151.33302793985061
 32
0.0
 13
-39.892313750741501
 23
151.33302793985061
 33
0.0
210
0.0
220
0.0
230
-1.0
  0
LINE
  5
1A73
  8
SAPA_FOGBAND
  6
CONTINUOUS
 62
     2
 10
39.712036186968298
 20
151.7682564793034
 30
0.0
 11
39.531758623195103
 21
151.69358306739699
 31
0.0
  0
LINE
  5
1A74
  8
SAPA_FOGBAND
  6
CONTINUOUS
 62
     2
 10
39.892313750741501
 20
151.69358306739699
 30
0.0
 11
39.712036186968298
 21
151.7682564793034
 31
0.0
  0
LINE
  5
1A75
  8
SAPA_FOGBAND
  6
CONTINUOUS
 62
     2
 10
39.531758623195103
 20
151.69358306739699
 30
0.0
 11
39.457085211288657
 21
151.5133055036238
 31
0.0
  0
LINE
  5
1A76
  8
SAPA_FOGBAND
  6
CONTINUOUS
 62
     2
 10
39.892313750741501
 20
151.69358306739699
 30
0.0
 11
39.966987162647939
 21
151.5133055036238
 31
0.0
  0
LINE
  5
1A77
  8
SAPA_FOGBAND
  6
CONTINUOUS
 62
     2
 10
39.892313750741501
 20
151.33302793985061
 30
0.0
 11
39.712036186968298
 21
151.25835452794419
 31
0.0
  0
LINE
  5
1A78
  8
SAPA_FOGBAND
  6
CONTINUOUS
 62
     2
 10
39.712036186968298
 20
151.25835452794419
 30
0.0
 11
39.531758623195103
 21
151.33302793985061
 31
0.0
  0
LINE
  5
1A79
  8
SAPA_FOGBAND
  6
CONTINUOUS
 62
     2
 10
39.457085211288657
 20
151.5133055036238
 30
0.0
 11
39.531758623195103
 21
151.33302793985061
 31
0.0
  0
LINE
  5
1A7A
  8
SAPA_FOGBAND
  6
CONTINUOUS
 62
     2
 10
39.966987162647939
 20
151.5133055036238
 30
0.0
 11
39.892313750741501
 21
151.33302793985061
 31
0.0
  0
ENDBLK
  5
1A7C
  8
0
  0
BLOCK
  8
0
  2
*U66
 70
     1
 10
0.0
 20
0.0
 30
0.0
  3
*U66
  1

  0
TEXT
  5
1A9E
  8
SAPA_MATT
 62
     2
 10
14.25334645669315
 20
-13.80000000000007
 30
0.0
 40
3.5
  1
60
  7
ISO
  0
ENDBLK
  5
1AA0
  8
0
  0
BLOCK
  8
0
  2
*U67
 70
     1
 10
0.0
 20
0.0
 30
0.0
  3
*U67
  1

  0
TEXT
  5
1AA2
  8
SAPA_MATT
 62
     2
 10
-34.400000000000141
 20
186.00251262658489
 30
0.0
 40
3.5
  1
45
 50
90.0
  7
ISO
  0
ENDBLK
  5
1AA4
  8
0
  0
BLOCK
  8
0
  2
*U68
 70
     1
 10
0.0
 20
0.0
 30
0.0
  3
*U68
  1

  0
TEXT
  5
1AA6
  8
SAPA_MATT
 62
     2
 10
-34.400000000000141
 20
148.74862204724431
 30
0.0
 40
3.5
  1
30
 50
90.0
  7
ISO
  0
ENDBLK
  5
1AA8
  8
0
  0
BLOCK
  8
0
  2
*U69
 70
     1
 10
0.0
 20
0.0
 30
0.0
  3
*U69
  1

  0
TEXT
  5
1AAA
  8
SAPA_MATT
 62
     2
 10
-34.40034448818912
 20
72.873622047244083
 30
0.0
 40
3.5
  1
120
 50
90.0
  7
ISO
  0
ENDBLK
  5
1AAC
  8
0
  0
BLOCK
  8
0
  2
*U70
 70
     1
 10
0.0
 20
0.0
 30
0.0
  3
*U70
  1

  0
TEXT
  5
1AAE
  8
SAPA_MATT
 62
     2
 10
-46.400000000000119
 20
110.2963975482197
 30
0.0
 40
3.5
  1
195
 50
90.0
  7
ISO
  0
ENDBLK
  5
1AB0
  8
0
  0
ENDSEC
  0
SECTION
  2
ENTITIES
  0
TEXT
  5
195
  8
SAPA_ARTIKELNR
 10
47.070569778627672
 20
182.03579301532119
 30
0.0
 40
3.5
  1
68005
 50
90.0
  7
ISO
  0
TEXT
  5
197
  8
SAPA_ARTIKELNR
 10
53.097771137475277
 20
142.17754745465271
 30
0.0
 40
3.5
  1
42138
 50
90.0
  7
ISO
  0
TEXT
  5
198
  8
SAPA_ARTIKELNR
 10
-15.48317003855567
 20
145.21211150651791
 30
0.0
 40
3.5
  1
42138
 50
90.0
  7
ISO
  0
TEXT
  5
199
  8
SAPA_ARTIKELNR
 10
53.097771137475277
 20
79.248006407463492
 30
0.0
 40
3.5
  1
68057
 50
90.0
  7
ISO
  0
POLYLINE
  5
354
  8
SAPA_LIGHT
 66
     1
 10
0.0
 20
0.0
 30
0.0
  0
VERTEX
  5
1423
  8
SAPA_LIGHT
 10
0.5999999999999233
 20
0.1999999999999176
 30
0.0
  0
VERTEX
  5
1424
  8
SAPA_LIGHT
 10
0.5999999999999659
 20
33.199999999993388
 30
0.0
  0
VERTEX
  5
1425
  8
SAPA_LIGHT
 10
12.599999999999961
 20
33.199999999993381
 30
0.0
  0
VERTEX
  5
1426
  8
SAPA_LIGHT
 10
12.59999999999992
 20
0.1999999999998394
 30
0.0
  0
VERTEX
  5
1427
  8
SAPA_LIGHT
 10
0.5999999999999233
 20
0.1999999999999176
 30
0.0
  0
SEQEND
  5
1428
  8
SAPA_LIGHT
  0
INSERT
  5
E2A
  8
SAPA_ANSLUTNING
  6
CONTINUOUS
  2
*X59
 10
0.0
 20
0.0
 30
0.0
1001
ACAD
1000
HATCH
1002
{
1070
    19
1000
ANSI37
1040
0.25
1040
-1.5707963267948959
1000
R14_HATCH_DATA
1000
E2A
1011
1.0
1021
0.0
1031
0.0
1021
0.0
1031
0.0
1011
0.0
1021
0.0
1031
0.0
1021
1.0
1031
0.0
1011
0.0
1021
0.0
1031
0.0
1021
0.0
1031
1.0
1040
0.0
1010
0.0
1020
0.0
1030
1.0
1000
ANSI37
1070
     0
1070
     0
1071
        1
1071
        5
1071
        9
1070
     1
1040
41.600000000000051
1040
226.2000000000003
1040
30.182770142248909
1040
226.2000000000003
1070
     3
1040
30.182770142248931
1040
216.2000000000003
1040
-0.0000000000000195
1040
10.0
1040
0.507511756901704
1040
0.0000000000000018
1040
3.141592653589794
1070
     0
1070
     1
1040
30.182770142248959
1040
206.2000000000003
1040
39.800000000000068
1040
206.2000000000003
1070
     1
1040
39.800000000000068
1040
206.20000000000019
1040
39.800000000000068
1040
209.20000000000019
1070
     1
1040
39.800000000000068
1040
209.20000000000019
1040
37.600000000000023
1040
209.20000000000019
1070
     1
1040
37.600000000000023
1040
209.2000000000003
1040
37.600000000000023
1040
210.2000000000003
1070
     1
1040
37.600000000000023
1040
210.2000000000003
1040
38.600000000000023
1040
211.2000000000003
1070
     1
1040
38.600000000000023
1040
211.20000000000019
1040
41.600000000000023
1040
211.20000000000019
1070
     2
1040
65.198126339655317
1040
218.70000000000019
1040
24.761291701814191
1040
2.8338667885124531
1040
3.4493185186671349
1070
     0
1071
        0
1070
     0
1070
     1
1040
-1.5707963267948959
1040
0.25
1070
     0
1070
     2
1040
5.4977871437821371
1040
-17.25
1040
211.2000000000003
1040
0.5612660075668222
1040
0.5612660075668219
1070
     0
1040
0.7853981633974481
1040
-17.25
1040
211.2000000000003
1040
-0.5612660075668219
1040
0.5612660075668222
1070
     0
1040
0.1260351043692141
1071
        1
1040
38.05288325276377
1040
221.38167368899741
1040
0.0
1002
}
  0
INSERT
  5
E2B
  8
SAPA_ANSLUTNING
  6
CONTINUOUS
  2
*X60
 10
0.0
 20
0.0
 30
0.0
1001
ACAD
1000
HATCH
1002
{
1070
    19
1000
HEX
1040
0.5
1040
-1.5707963267948959
1000
R14_HATCH_DATA
1000
E2B
1011
1.0
1021
0.0
1031
0.0
1021
0.0
1031
0.0
1011
0.0
1021
0.0
1031
0.0
1021
1.0
1031
0.0
1011
0.0
1021
0.0
1031
0.0
1021
0.0
1031
1.0
1040
0.0
1010
0.0
1020
0.0
1030
1.0
1000
HEX
1070
     0
1070
     0
1071
        1
1071
        7
1070
     0
1070
     1
1071
        9
1040
3.6000000000000218
1040
226.2000000000003
1040
-8.3999999999999773
1040
226.2000000000003
1040
-8.3999999999999773
1040
211.2000000000003
1040
-5.3999999999999773
1040
211.2000000000003
1040
-4.3999999999999773
1040
210.2000000000003
1040
-4.3999999999999773
1040
209.2000000000003
1040
-6.6000000000000218
1040
209.2000000000003
1040
-6.6000000000000218
1040
206.2000000000003
1040
3.6000000000000218
1040
206.2000000000003
1071
        0
1070
     0
1070
     1
1040
-1.5707963267948959
1040
0.5
1070
     0
1070
     3
1040
4.7123889803846888
1040
-17.25
1040
211.2000000000003
1040
2.7496299999999989
1040
-0.0000000000000005
1070
     2
1040
1.587499999999999
1040
-3.1749999999999989
1040
0.5235987755982985
1040
-17.25
1040
211.2000000000003
1040
-1.3748149999999979
1040
2.3812494310078058
1070
     2
1040
1.587499999999999
1040
-3.174999999999998
1040
5.7595865315812871
1040
-17.25
1040
209.6125000000003
1040
1.3748149999999999
1040
2.381249431007805
1070
     2
1040
1.587499999999999
1040
-3.1749999999999989
1040
0.1260351043692141
1071
        1
1040
-2.2783502747952862
1040
217.34636537938511
1040
0.0
1002
}
  0
POLYLINE
  5
E2C
  8
SAPA_ANSLUTNING
 66
     1
 10
0.0
 20
0.0
 30
0.0
  0
VERTEX
  5
14B0
  8
SAPA_ANSLUTNING
 10
3.6000000000000218
 20
208.2000000000003
 30
0.0
 42
1.0
  0
VERTEX
  5
14B1
  8
SAPA_ANSLUTNING
 10
7.6000000000000218
 20
208.2000000000003
 30
0.0
  0
VERTEX
  5
14B2
  8
SAPA_ANSLUTNING
 10
7.5999999999997954
 20
224.2000000000013
 30
0.0
 42
-0.9999989466455052
  0
VERTEX
  5
14B3
  8
SAPA_ANSLUTNING
 10
11.59999999999547
 20
224.20000421342149
 30
0.0
  0
VERTEX
  5
14B4
  8
SAPA_ANSLUTNING
 10
11.59999999999547
 20
213.1464909926305
 30
0.0
 42
1.0
  0
VERTEX
  5
14B5
  8
SAPA_ANSLUTNING
 10
15.59999999999547
 20
213.1464909926305
 30
0.0
  0
VERTEX
  5
14B6
  8
SAPA_ANSLUTNING
 10
15.59999999999536
 20
224.20000684519971
 30
0.0
 42
-0.9999974985601644
  0
VERTEX
  5
14B7
  8
SAPA_ANSLUTNING
 10
19.599999999982849
 20
224.20000684519971
 30
0.0
  0
VERTEX
  5
14B8
  8
SAPA_ANSLUTNING
 10
19.599999999982739
 20
213.1464909926305
 30
0.0
 42
1.0
  0
VERTEX
  5
14B9
  8
SAPA_ANSLUTNING
 10
23.599999999982799
 20
213.1464909926305
 30
0.0
  0
VERTEX
  5
14BA
  8
SAPA_ANSLUTNING
 10
23.599999999982739
 20
224.20000421342149
 30
0.0
 42
-0.8752915042408037
  0
VERTEX
  5
14BB
  8
SAPA_ANSLUTNING
 10
27.52986498482375
 20
224.72499632405331
 30
0.0
 42
-0.8752915042408037
  0
SEQEND
  5
14BC
  8
SAPA_ANSLUTNING
  0
LINE
  5
E2D
  8
SAPA_ANSLUTNING
 10
57.356826409558607
 20
226.2000000000003
 30
0.0
 11
-24.677436573342849
 21
226.2000000000003
 31
0.0
  0
ARC
  5
E2E
  8
SAPA_ANSLUTNING
 10
65.198126339655317
 20
218.70000000000019
 30
0.0
 40
24.761291701814191
 50
162.3686066840568
 51
197.6313933159428
  0
INSERT
  5
E2F
  8
SAPA_ANSLUTNING
  6
CONTINUOUS
  2
*X61
 10
0.0
 20
0.0
 30
0.0
1001
ACAD
1000
HATCH
1002
{
1070
    19
1000
HEX
1040
0.25
1040
-1.5707963267948959
1000
ASC_BOUNDS
1070
     1
1070
     1
1070
     1
1005
E30
1000
ASC_SEEDPOINT
1011
31.246987599263321
1021
0.0
1031
0.0
1021
218.7335028069719
1031
0.0
1000
R14_HATCH_DATA
1000
E2F
1011
1.0
1021
0.0
1031
0.0
1021
0.0
1031
0.0
1011
0.0
1021
0.0
1031
0.0
1021
1.0
1031
0.0
1011
0.0
1021
0.0
1031
0.0
1021
0.0
1031
1.0
1040
0.0
1010
0.0
1020
0.0
1030
1.0
1000
HEX
1070
     0
1070
     1
1071
        1
1071
        5
1071
        1
1070
     3
1040
30.182770142248931
1040
216.2000000000003
1040
-0.0000000000000195
1040
10.0
1040
0.507511756901704
1040
0.0
1040
6.2831853071795862
1070
     1
1071
        1
1005
E30
1070
     0
1070
     1
1040
-1.5707963267948959
1040
0.25
1070
     0
1070
     3
1040
4.7123889803846888
1040
-17.25
1040
211.2000000000003
1040
1.374814999999999
1040
-0.0000000000000003
1070
     2
1040
0.79375
1040
-1.587499999999999
1040
0.5235987755982985
1040
-17.25
1040
211.2000000000003
1040
-0.6874074999999995
1040
1.1906247155039029
1070
     2
1040
0.7937499999999997
1040
-1.587499999999999
1040
5.7595865315812871
1040
-17.25
1040
210.40625000000031
1040
0.6874075000000003
1040
1.190624715503902
1070
     2
1040
0.7937499999999998
1040
-1.587499999999999
1040
0.1260351043692141
1071
        1
1040
31.246987599263321
1040
218.7335028069719
1040
0.0
1002
}
  0
POLYLINE
  5
E30
  8
SAPA_ANSLUTNING
 10
30.182770142248913
 20
226.2000000000003
 30
0.0
 66
     1
 70
     8
  0
VERTEX
  8
SAPA_ANSLUTNING
  5
1AB1
 10
30.1828
 20
226.200
 30
0.000000
  70
    32
  0
VERTEX
  8
SAPA_ANSLUTNING
  5
1AB2
 10
29.9337
 20
226.188
 30
0.000000
  70
    32
  0
VERTEX
  8
SAPA_ANSLUTNING
  5
1AB3
 10
29.6853
 20
226.152
 30
0.000000
  70
    32
  0
VERTEX
  8
SAPA_ANSLUTNING
  5
1AB4
 10
29.4381
 20
226.092
 30
0.000000
  70
    32
  0
VERTEX
  8
SAPA_ANSLUTNING
  5
1AB5
 10
29.1927
 20
226.008
 30
0.000000
  70
    32
  0
VERTEX
  8
SAPA_ANSLUTNING
  5
1AB6
 10
28.9496
 20
225.900
 30
0.000000
  70
    32
  0
VERTEX
  8
SAPA_ANSLUTNING
  5
1AB7
 10
28.7095
 20
225.769
 30
0.000000
  70
    32
  0
VERTEX
  8
SAPA_ANSLUTNING
  5
1AB8
 10
28.4730
 20
225.615
 30
0.000000
  70
    32
  0
VERTEX
  8
SAPA_ANSLUTNING
  5
1AB9
 10
28.2406
 20
225.439
 30
0.000000
  70
    32
  0
VERTEX
  8
SAPA_ANSLUTNING
  5
1ABA
 10
28.0129
 20
225.240
 30
0.000000
  70
    32
  0
VERTEX
  8
SAPA_ANSLUTNING
  5
1ABB
 10
27.7904
 20
225.019
 30
0.000000
  70
    32
  0
VERTEX
  8
SAPA_ANSLUTNING
  5
1ABC
 10
27.5736
 20
224.777
 30
0.000000
  70
    32
  0
VERTEX
  8
SAPA_ANSLUTNING
  5
1ABD
 10
27.3632
 20
224.515
 30
0.000000
  70
    32
  0
VERTEX
  8
SAPA_ANSLUTNING
  5
1ABE
 10
27.1595
 20
224.232
 30
0.000000
  70
    32
  0
VERTEX
  8
SAPA_ANSLUTNING
  5
1ABF
 10
26.9631
 20
223.930
 30
0.000000
  70
    32
  0
VERTEX
  8
SAPA_ANSLUTNING
  5
1AC0
 10
26.7745
 20
223.610
 30
0.000000
  70
    32
  0
VERTEX
  8
SAPA_ANSLUTNING
  5
1AC1
 10
26.5941
 20
223.271
 30
0.000000
  70
    32
  0
VERTEX
  8
SAPA_ANSLUTNING
  5
1AC2
 10
26.4224
 20
222.916
 30
0.000000
  70
    32
  0
VERTEX
  8
SAPA_ANSLUTNING
  5
1AC3
 10
26.2597
 20
222.544
 30
0.000000
  70
    32
  0
VERTEX
  8
SAPA_ANSLUTNING
  5
1AC4
 10
26.1064
 20
222.157
 30
0.000000
  70
    32
  0
VERTEX
  8
SAPA_ANSLUTNING
  5
1AC5
 10
25.9630
 20
221.756
 30
0.000000
  70
    32
  0
VERTEX
  8
SAPA_ANSLUTNING
  5
1AC6
 10
25.8297
 20
221.341
 30
0.000000
  70
    32
  0
VERTEX
  8
SAPA_ANSLUTNING
  5
1AC7
 10
25.7069
 20
220.914
 30
0.000000
  70
    32
  0
VERTEX
  8
SAPA_ANSLUTNING
  5
1AC8
 10
25.5949
 20
220.476
 30
0.000000
  70
    32
  0
VERTEX
  8
SAPA_ANSLUTNING
  5
1AC9
 10
25.4940
 20
220.027
 30
0.000000
  70
    32
  0
VERTEX
  8
SAPA_ANSLUTNING
  5
1ACA
 10
25.4043
 20
219.569
 30
0.000000
  70
    32
  0
VERTEX
  8
SAPA_ANSLUTNING
  5
1ACB
 10
25.3262
 20
219.103
 30
0.000000
  70
    32
  0
VERTEX
  8
SAPA_ANSLUTNING
  5
1ACC
 10
25.2597
 20
218.630
 30
0.000000
  70
    32
  0
VERTEX
  8
SAPA_ANSLUTNING
  5
1ACD
 10
25.2052
 20
218.151
 30
0.000000
  70
    32
  0
VERTEX
  8
SAPA_ANSLUTNING
  5
1ACE
 10
25.1626
 20
217.667
 30
0.000000
  70
    32
  0
VERTEX
  8
SAPA_ANSLUTNING
  5
1ACF
 10
25.1321
 20
217.180
 30
0.000000
  70
    32
  0
VERTEX
  8
SAPA_ANSLUTNING
  5
1AD0
 10
25.1138
 20
216.691
 30
0.000000
  70
    32
  0
VERTEX
  8
SAPA_ANSLUTNING
  5
1AD1
 10
25.1077
 20
216.200
 30
0.000000
  70
    32
  0
VERTEX
  8
SAPA_ANSLUTNING
  5
1AD2
 10
25.1138
 20
215.709
 30
0.000000
  70
    32
  0
VERTEX
  8
SAPA_ANSLUTNING
  5
1AD3
 10
25.1321
 20
215.220
 30
0.000000
  70
    32
  0
VERTEX
  8
SAPA_ANSLUTNING
  5
1AD4
 10
25.1626
 20
214.733
 30
0.000000
  70
    32
  0
VERTEX
  8
SAPA_ANSLUTNING
  5
1AD5
 10
25.2052
 20
214.249
 30
0.000000
  70
    32
  0
VERTEX
  8
SAPA_ANSLUTNING
  5
1AD6
 10
25.2597
 20
213.770
 30
0.000000
  70
    32
  0
VERTEX
  8
SAPA_ANSLUTNING
  5
1AD7
 10
25.3262
 20
213.297
 30
0.000000
  70
    32
  0
VERTEX
  8
SAPA_ANSLUTNING
  5
1AD8
 10
25.4043
 20
212.831
 30
0.000000
  70
    32
  0
VERTEX
  8
SAPA_ANSLUTNING
  5
1AD9
 10
25.4940
 20
212.373
 30
0.000000
  70
    32
  0
VERTEX
  8
SAPA_ANSLUTNING
  5
1ADA
 10
25.5949
 20
211.924
 30
0.000000
  70
    32
  0
VERTEX
  8
SAPA_ANSLUTNING
  5
1ADB
 10
25.7069
 20
211.486
 30
0.000000
  70
    32
  0
VERTEX
  8
SAPA_ANSLUTNING
  5
1ADC
 10
25.8297
 20
211.059
 30
0.000000
  70
    32
  0
VERTEX
  8
SAPA_ANSLUTNING
  5
1ADD
 10
25.9630
 20
210.644
 30
0.000000
  70
    32
  0
VERTEX
  8
SAPA_ANSLUTNING
  5
1ADE
 10
26.1064
 20
210.243
 30
0.000000
  70
    32
  0
VERTEX
  8
SAPA_ANSLUTNING
  5
1ADF
 10
26.2597
 20
209.856
 30
0.000000
  70
    32
  0
VERTEX
  8
SAPA_ANSLUTNING
  5
1AE0
 10
26.4224
 20
209.484
 30
0.000000
  70
    32
  0
VERTEX
  8
SAPA_ANSLUTNING
  5
1AE1
 10
26.5941
 20
209.129
 30
0.000000
  70
    32
  0
VERTEX
  8
SAPA_ANSLUTNING
  5
1AE2
 10
26.7745
 20
208.790
 30
0.000000
  70
    32
  0
VERTEX
  8
SAPA_ANSLUTNING
  5
1AE3
 10
26.9631
 20
208.470
 30
0.000000
  70
    32
  0
VERTEX
  8
SAPA_ANSLUTNING
  5
1AE4
 10
27.1595
 20
208.168
 30
0.000000
  70
    32
  0
VERTEX
  8
SAPA_ANSLUTNING
  5
1AE5
 10
27.3632
 20
207.885
 30
0.000000
  70
    32
  0
VERTEX
  8
SAPA_ANSLUTNING
  5
1AE6
 10
27.5736
 20
207.623
 30
0.000000
  70
    32
  0
VERTEX
  8
SAPA_ANSLUTNING
  5
1AE7
 10
27.7904
 20
207.381
 30
0.000000
  70
    32
  0
VERTEX
  8
SAPA_ANSLUTNING
  5
1AE8
 10
28.0129
 20
207.160
 30
0.000000
  70
    32
  0
VERTEX
  8
SAPA_ANSLUTNING
  5
1AE9
 10
28.2406
 20
206.961
 30
0.000000
  70
    32
  0
VERTEX
  8
SAPA_ANSLUTNING
  5
1AEA
 10
28.4730
 20
206.785
 30
0.000000
  70
    32
  0
VERTEX
  8
SAPA_ANSLUTNING
  5
1AEB
 10
28.7095
 20
206.631
 30
0.000000
  70
    32
  0
VERTEX
  8
SAPA_ANSLUTNING
  5
1AEC
 10
28.9496
 20
206.500
 30
0.000000
  70
    32
  0
VERTEX
  8
SAPA_ANSLUTNING
  5
1AED
 10
29.1927
 20
206.392
 30
0.000000
  70
    32
  0
VERTEX
  8
SAPA_ANSLUTNING
  5
1AEE
 10
29.4381
 20
206.308
 30
0.000000
  70
    32
  0
VERTEX
  8
SAPA_ANSLUTNING
  5
1AEF
 10
29.6853
 20
206.248
 30
0.000000
  70
    32
  0
VERTEX
  8
SAPA_ANSLUTNING
  5
1AF0
 10
29.9337
 20
206.212
 30
0.000000
  70
    32
  0
VERTEX
  8
SAPA_ANSLUTNING
  5
1AF1
 10
30.1828
 20
206.200
 30
0.000000
  70
    32
  0
VERTEX
  8
SAPA_ANSLUTNING
  5
1AF2
 10
30.4318
 20
206.212
 30
0.000000
  70
    32
  0
VERTEX
  8
SAPA_ANSLUTNING
  5
1AF3
 10
30.6802
 20
206.248
 30
0.000000
  70
    32
  0
VERTEX
  8
SAPA_ANSLUTNING
  5
1AF4
 10
30.9274
 20
206.308
 30
0.000000
  70
    32
  0
VERTEX
  8
SAPA_ANSLUTNING
  5
1AF5
 10
31.1729
 20
206.392
 30
0.000000
  70
    32
  0
VERTEX
  8
SAPA_ANSLUTNING
  5
1AF6
 10
31.4159
 20
206.500
 30
0.000000
  70
    32
  0
VERTEX
  8
SAPA_ANSLUTNING
  5
1AF7
 10
31.6560
 20
206.631
 30
0.000000
  70
    32
  0
VERTEX
  8
SAPA_ANSLUTNING
  5
1AF8
 10
31.8925
 20
206.785
 30
0.000000
  70
    32
  0
VERTEX
  8
SAPA_ANSLUTNING
  5
1AF9
 10
32.1249
 20
206.961
 30
0.000000
  70
    32
  0
VERTEX
  8
SAPA_ANSLUTNING
  5
1AFA
 10
32.3527
 20
207.160
 30
0.000000
  70
    32
  0
VERTEX
  8
SAPA_ANSLUTNING
  5
1AFB
 10
32.5752
 20
207.381
 30
0.000000
  70
    32
  0
VERTEX
  8
SAPA_ANSLUTNING
  5
1AFC
 10
32.7919
 20
207.623
 30
0.000000
  70
    32
  0
VERTEX
  8
SAPA_ANSLUTNING
  5
1AFD
 10
33.0024
 20
207.885
 30
0.000000
  70
    32
  0
VERTEX
  8
SAPA_ANSLUTNING
  5
1AFE
 10
33.2060
 20
208.168
 30
0.000000
  70
    32
  0
VERTEX
  8
SAPA_ANSLUTNING
  5
1AFF
 10
33.4024
 20
208.470
 30
0.000000
  70
    32
  0
VERTEX
  8
SAPA_ANSLUTNING
  5
1B00
 10
33.5910
 20
208.790
 30
0.000000
  70
    32
  0
VERTEX
  8
SAPA_ANSLUTNING
  5
1B01
 10
33.7714
 20
209.129
 30
0.000000
  70
    32
  0
VERTEX
  8
SAPA_ANSLUTNING
  5
1B02
 10
33.9432
 20
209.484
 30
0.000000
  70
    32
  0
VERTEX
  8
SAPA_ANSLUTNING
  5
1B03
 10
34.1059
 20
209.856
 30
0.000000
  70
    32
  0
VERTEX
  8
SAPA_ANSLUTNING
  5
1B04
 10
34.2591
 20
210.243
 30
0.000000
  70
    32
  0
VERTEX
  8
SAPA_ANSLUTNING
  5
1B05
 10
34.4026
 20
210.644
 30
0.000000
  70
    32
  0
VERTEX
  8
SAPA_ANSLUTNING
  5
1B06
 10
34.5358
 20
211.059
 30
0.000000
  70
    32
  0
VERTEX
  8
SAPA_ANSLUTNING
  5
1B07
 10
34.6586
 20
211.486
 30
0.000000
  70
    32
  0
VERTEX
  8
SAPA_ANSLUTNING
  5
1B08
 10
34.7706
 20
211.924
 30
0.000000
  70
    32
  0
VERTEX
  8
SAPA_ANSLUTNING
  5
1B09
 10
34.8716
 20
212.373
 30
0.000000
  70
    32
  0
VERTEX
  8
SAPA_ANSLUTNING
  5
1B0A
 10
34.9612
 20
212.831
 30
0.000000
  70
    32
  0
VERTEX
  8
SAPA_ANSLUTNING
  5
1B0B
 10
35.0394
 20
213.297
 30
0.000000
  70
    32
  0
VERTEX
  8
SAPA_ANSLUTNING
  5
1B0C
 10
35.1058
 20
213.770
 30
0.000000
  70
    32
  0
VERTEX
  8
SAPA_ANSLUTNING
  5
1B0D
 10
35.1604
 20
214.249
 30
0.000000
  70
    32
  0
VERTEX
  8
SAPA_ANSLUTNING
  5
1B0E
 10
35.2030
 20
214.733
 30
0.000000
  70
    32
  0
VERTEX
  8
SAPA_ANSLUTNING
  5
1B0F
 10
35.2334
 20
215.220
 30
0.000000
  70
    32
  0
VERTEX
  8
SAPA_ANSLUTNING
  5
1B10
 10
35.2518
 20
215.709
 30
0.000000
  70
    32
  0
VERTEX
  8
SAPA_ANSLUTNING
  5
1B11
 10
35.2579
 20
216.200
 30
0.000000
  70
    32
  0
VERTEX
  8
SAPA_ANSLUTNING
  5
1B12
 10
35.2518
 20
216.691
 30
0.000000
  70
    32
  0
VERTEX
  8
SAPA_ANSLUTNING
  5
1B13
 10
35.2334
 20
217.180
 30
0.000000
  70
    32
  0
VERTEX
  8
SAPA_ANSLUTNING
  5
1B14
 10
35.2030
 20
217.667
 30
0.000000
  70
    32
  0
VERTEX
  8
SAPA_ANSLUTNING
  5
1B15
 10
35.1604
 20
218.151
 30
0.000000
  70
    32
  0
VERTEX
  8
SAPA_ANSLUTNING
  5
1B16
 10
35.1058
 20
218.630
 30
0.000000
  70
    32
  0
VERTEX
  8
SAPA_ANSLUTNING
  5
1B17
 10
35.0394
 20
219.103
 30
0.000000
  70
    32
  0
VERTEX
  8
SAPA_ANSLUTNING
  5
1B18
 10
34.9612
 20
219.569
 30
0.000000
  70
    32
  0
VERTEX
  8
SAPA_ANSLUTNING
  5
1B19
 10
34.8716
 20
220.027
 30
0.000000
  70
    32
  0
VERTEX
  8
SAPA_ANSLUTNING
  5
1B1A
 10
34.7706
 20
220.476
 30
0.000000
  70
    32
  0
VERTEX
  8
SAPA_ANSLUTNING
  5
1B1B
 10
34.6586
 20
220.914
 30
0.000000
  70
    32
  0
VERTEX
  8
SAPA_ANSLUTNING
  5
1B1C
 10
34.5358
 20
221.341
 30
0.000000
  70
    32
  0
VERTEX
  8
SAPA_ANSLUTNING
  5
1B1D
 10
34.4026
 20
221.756
 30
0.000000
  70
    32
  0
VERTEX
  8
SAPA_ANSLUTNING
  5
1B1E
 10
34.2591
 20
222.157
 30
0.000000
  70
    32
  0
VERTEX
  8
SAPA_ANSLUTNING
  5
1B1F
 10
34.1059
 20
222.544
 30
0.000000
  70
    32
  0
VERTEX
  8
SAPA_ANSLUTNING
  5
1B20
 10
33.9432
 20
222.916
 30
0.000000
  70
    32
  0
VERTEX
  8
SAPA_ANSLUTNING
  5
1B21
 10
33.7714
 20
223.271
 30
0.000000
  70
    32
  0
VERTEX
  8
SAPA_ANSLUTNING
  5
1B22
 10
33.5910
 20
223.610
 30
0.000000
  70
    32
  0
VERTEX
  8
SAPA_ANSLUTNING
  5
1B23
 10
33.4024
 20
223.930
 30
0.000000
  70
    32
  0
VERTEX
  8
SAPA_ANSLUTNING
  5
1B24
 10
33.2060
 20
224.232
 30
0.000000
  70
    32
  0
VERTEX
  8
SAPA_ANSLUTNING
  5
1B25
 10
33.0024
 20
224.515
 30
0.000000
  70
    32
  0
VERTEX
  8
SAPA_ANSLUTNING
  5
1B26
 10
32.7919
 20
224.777
 30
0.000000
  70
    32
  0
VERTEX
  8
SAPA_ANSLUTNING
  5
1B27
 10
32.5752
 20
225.019
 30
0.000000
  70
    32
  0
VERTEX
  8
SAPA_ANSLUTNING
  5
1B28
 10
32.3527
 20
225.240
 30
0.000000
  70
    32
  0
VERTEX
  8
SAPA_ANSLUTNING
  5
1B29
 10
32.1249
 20
225.439
 30
0.000000
  70
    32
  0
VERTEX
  8
SAPA_ANSLUTNING
  5
1B2A
 10
31.8925
 20
225.615
 30
0.000000
  70
    32
  0
VERTEX
  8
SAPA_ANSLUTNING
  5
1B2B
 10
31.6560
 20
225.769
 30
0.000000
  70
    32
  0
VERTEX
  8
SAPA_ANSLUTNING
  5
1B2C
 10
31.4159
 20
225.900
 30
0.000000
  70
    32
  0
VERTEX
  8
SAPA_ANSLUTNING
  5
1B2D
 10
31.1729
 20
226.008
 30
0.000000
  70
    32
  0
VERTEX
  8
SAPA_ANSLUTNING
  5
1B2E
 10
30.9274
 20
226.092
 30
0.000000
  70
    32
  0
VERTEX
  8
SAPA_ANSLUTNING
  5
1B2F
 10
30.6802
 20
226.152
 30
0.000000
  70
    32
  0
VERTEX
  8
SAPA_ANSLUTNING
  5
1B30
 10
30.4318
 20
226.188
 30
0.000000
  70
    32
  0
VERTEX
  8
SAPA_ANSLUTNING
  5
1B31
 10
30.1828
 20
226.200
 30
0.000000
  70
    32
  0
SEQEND
  8
SAPA_ANSLUTNING
  5
1B32
  0
LINE
  5
E31
  8
SAPA_ANSLUTNING
 10
-8.3999999999999773
 20
211.2000000000003
 30
0.0
 11
-8.3999999999999773
 21
226.2000000000003
 31
0.0
  0
LINE
  5
E32
  8
SAPA_ANSLUTNING
 10
3.6000000000000218
 20
206.2000000000003
 30
0.0
 11
3.6000000000000218
 21
226.2000000000003
 31
0.0
  0
POLYLINE
  5
E95
  8
SAPA_LIGHT
 66
     1
 10
0.0
 20
0.0
 30
0.0
  0
VERTEX
  5
155C
  8
SAPA_LIGHT
 10
41.60000000000003
 20
161.20973573889401
 30
0.0
  0
VERTEX
  5
155D
  8
SAPA_LIGHT
 10
46.599999999999923
 20
161.20973573889401
 30
0.0
  0
VERTEX
  5
155E
  8
SAPA_LIGHT
 10
46.599999999999923
 20
141.19026426110659
 30
0.0
  0
VERTEX
  5
155F
  8
SAPA_LIGHT
 10
41.60000000000003
 20
141.19026426110659
 30
0.0
  0
VERTEX
  5
1560
  8
SAPA_LIGHT
 10
41.60000000000003
 20
154.2031420000003
 30
0.0
  0
VERTEX
  5
1561
  8
SAPA_LIGHT
 10
-8.3999999999999915
 20
154.2031420000003
 30
0.0
  0
VERTEX
  5
1562
  8
SAPA_LIGHT
 10
-8.3999999999999915
 20
211.20000000000019
 30
0.0
  0
VERTEX
  5
1563
  8
SAPA_LIGHT
 10
41.60000000000003
 20
211.20000000000019
 30
0.0
  0
VERTEX
  5
1564
  8
SAPA_LIGHT
 10
41.60000000000003
 20
161.20973573889401
 30
0.0
  0
SEQEND
  5
1565
  8
SAPA_LIGHT
  0
POLYLINE
  5
EA1
  8
SAPA_LIGHT
 66
     1
 10
0.0
 20
0.0
 30
0.0
  0
VERTEX
  5
1566
  8
SAPA_LIGHT
 10
0.5999999999999439
 20
16.199999999997662
 30
0.0
  0
VERTEX
  5
1567
  8
SAPA_LIGHT
 10
-8.8999999999999773
 20
16.199999999999161
 30
0.0
  0
VERTEX
  5
1568
  8
SAPA_LIGHT
 10
-8.899999999999979
 20
38.199999999999882
 30
0.0
  0
VERTEX
  5
1569
  8
SAPA_LIGHT
 10
-13.4000000000001
 20
38.199999999999882
 30
0.0
  0
VERTEX
  5
156A
  8
SAPA_LIGHT
 10
-13.4000000000001
 20
136.2000000000003
 30
0.0
  0
VERTEX
  5
156B
  8
SAPA_LIGHT
 10
-8.1493833994246785
 20
136.2000000000003
 30
0.0
  0
VERTEX
  5
156C
  8
SAPA_LIGHT
 10
-8.1493833994246767
 20
141.19026426110659
 30
0.0
  0
VERTEX
  5
156D
  8
SAPA_LIGHT
 10
-13.4000000000001
 20
141.19026426110659
 30
0.0
  0
VERTEX
  5
156E
  8
SAPA_LIGHT
 10
-13.4000000000001
 20
161.20973573889401
 30
0.0
  0
VERTEX
  5
156F
  8
SAPA_LIGHT
 10
-8.3999999999999915
 20
161.20973573889401
 30
0.0
  0
VERTEX
  5
1570
  8
SAPA_LIGHT
 10
-8.3999999999999897
 20
148.1968580000003
 30
0.0
  0
VERTEX
  5
1571
  8
SAPA_LIGHT
 10
41.60000000000003
 20
148.1968580000003
 30
0.0
  0
VERTEX
  5
1572
  8
SAPA_LIGHT
 10
41.60000000000003
 20
136.19999999999979
 30
0.0
  0
VERTEX
  5
1573
  8
SAPA_LIGHT
 10
46.599999999999923
 20
136.19999999999979
 30
0.0
  0
VERTEX
  5
1574
  8
SAPA_LIGHT
 10
46.59999999999993
 20
38.199999999999882
 30
0.0
  0
VERTEX
  5
1575
  8
SAPA_LIGHT
 10
42.100000000000023
 20
38.199999999999882
 30
0.0
  0
VERTEX
  5
1576
  8
SAPA_LIGHT
 10
42.100000000000023
 20
16.199999999997651
 30
0.0
  0
VERTEX
  5
1577
  8
SAPA_LIGHT
 10
12.599999999999939
 20
16.19999999999764
 30
0.0
  0
SEQEND
  5
1578
  8
SAPA_LIGHT
  0
POLYLINE
  5
1362
  8
SAPA_PROFIL
 66
     1
 10
0.0
 20
0.0
 30
0.0
 70
     1
  0
VERTEX
  5
1752
  8
SAPA_PROFIL
 10
25.100000000000051
 20
42.528983705148669
 30
0.0
 42
0.6134491722178288
  0
VERTEX
  5
1753
  8
SAPA_PROFIL
 10
24.623207252335451
 20
42.771355989812548
 30
0.0
  0
VERTEX
  5
1754
  8
SAPA_PROFIL
 10
22.928190308444211
 20
41.237444952365877
 30
0.0
  0
VERTEX
  5
1755
  8
SAPA_PROFIL
 10
23.452637278060511
 20
40.707626856810244
 30
0.0
 42
0.6388018024364188
  0
VERTEX
  5
1756
  8
SAPA_PROFIL
 10
23.94660254037845
 20
40.936488118307118
 30
0.0
  0
VERTEX
  5
1757
  8
SAPA_PROFIL
 10
23.94660254037845
 20
40.999999999999773
 30
0.0
  0
VERTEX
  5
1758
  8
SAPA_PROFIL
 10
28.107179676972379
 20
40.999999999999773
 30
0.0
  0
VERTEX
  5
1759
  8
SAPA_PROFIL
 10
28.79999999999999
 20
41.399999999999807
 30
0.0
  0
VERTEX
  5
175A
  8
SAPA_PROFIL
 10
29.49282032302759
 20
40.999999999999822
 30
0.0
  0
VERTEX
  5
175B
  8
SAPA_PROFIL
 10
35.110283236558558
 20
40.999999999999652
 30
0.0
  0
VERTEX
  5
175C
  8
SAPA_PROFIL
 10
36.11683422917546
 20
40.41886751345919
 30
0.0
  0
VERTEX
  5
175D
  8
SAPA_PROFIL
 10
36.116834229175574
 20
38.2721894703202
 30
0.0
  0
VERTEX
  5
175E
  8
SAPA_PROFIL
 10
38.405229823018693
 20
35.98379387647725
 30
0.0
 42
0.1989123673796169
  0
VERTEX
  5
175F
  8
SAPA_PROFIL
 10
38.617361857374618
 20
35.895925910833228
 30
0.0
  0
VERTEX
  5
1760
  8
SAPA_PROFIL
 10
39.600000000000172
 20
35.895925910833121
 30
0.0
 42
-0.4142135623730612
  0
VERTEX
  5
1761
  8
SAPA_PROFIL
 10
40.600000000000037
 20
34.895925910833121
 30
0.0
  0
VERTEX
  5
1762
  8
SAPA_PROFIL
 10
40.600000000000037
 20
28.199999999999761
 30
0.0
 42
-0.4142135623731035
  0
VERTEX
  5
1763
  8
SAPA_PROFIL
 10
40.100000000000037
 20
27.699999999999761
 30
0.0
  0
VERTEX
  5
1764
  8
SAPA_PROFIL
 10
38.100000000000037
 20
27.699999999999822
 30
0.0
 42
0.4142135623731117
  0
VERTEX
  5
1765
  8
SAPA_PROFIL
 10
37.600000000000037
 20
27.199999999999822
 30
0.0
  0
VERTEX
  5
1766
  8
SAPA_PROFIL
 10
37.600000000000037
 20
26.132455532031599
 30
0.0
 42
0.2896898633025024
  0
VERTEX
  5
1767
  8
SAPA_PROFIL
 10
38.171428571427569
 20
25.228947629126768
 30
0.0
 42
0.5507604245866044
  0
VERTEX
  5
1768
  8
SAPA_PROFIL
 10
38.600000000000037
 20
25.499999999999829
 30
0.0
  0
VERTEX
  5
1769
  8
SAPA_PROFIL
 10
38.600000000000037
 20
26.449999999999822
 30
0.0
  0
VERTEX
  5
176A
  8
SAPA_PROFIL
 10
40.100000000000037
 20
26.449999999999761
 30
0.0
 42
-0.4142135623730951
  0
VERTEX
  5
176B
  8
SAPA_PROFIL
 10
40.600000000000037
 20
25.949999999999761
 30
0.0
  0
VERTEX
  5
176C
  8
SAPA_PROFIL
 10
40.600000000000037
 20
17.949999999999701
 30
0.0
 42
-0.4142135623731035
  0
VERTEX
  5
176D
  8
SAPA_PROFIL
 10
40.100000000000037
 20
17.449999999999761
 30
0.0
  0
VERTEX
  5
176E
  8
SAPA_PROFIL
 10
38.600000000000037
 20
17.449999999999822
 30
0.0
  0
VERTEX
  5
176F
  8
SAPA_PROFIL
 10
38.599999999999923
 20
18.39999999999975
 30
0.0
 42
0.5507604245861439
  0
VERTEX
  5
1770
  8
SAPA_PROFIL
 10
38.171428571428713
 20
18.67105237087139
 30
0.0
 42
0.2896898633028721
  0
VERTEX
  5
1771
  8
SAPA_PROFIL
 10
37.600000000000037
 20
17.767544467965699
 30
0.0
  0
VERTEX
  5
1772
  8
SAPA_PROFIL
 10
37.600000000000037
 20
16.499999999999709
 30
0.0
 42
0.4142135623730673
  0
VERTEX
  5
1773
  8
SAPA_PROFIL
 10
37.899999999999991
 20
16.199999999999822
 30
0.0
  0
VERTEX
  5
1774
  8
SAPA_PROFIL
 10
41.799999999999969
 20
16.199999999999822
 30
0.0
 42
0.4142135623730397
  0
VERTEX
  5
1775
  8
SAPA_PROFIL
 10
42.10000000000003
 20
16.499999999999829
 30
0.0
  0
VERTEX
  5
1776
  8
SAPA_PROFIL
 10
42.100000000000051
 20
37.445925910833182
 30
0.0
 42
0.4573231221468568
  0
VERTEX
  5
1777
  8
SAPA_PROFIL
 10
41.756678345920733
 20
37.742781488998389
 30
0.0
  0
VERTEX
  5
1778
  8
SAPA_PROFIL
 10
39.224861715792969
 20
37.41766843668529
 30
0.0
 42
-0.2368639028498007
  0
VERTEX
  5
1779
  8
SAPA_PROFIL
 10
38.969408027357787
 20
37.502391980494622
 30
0.0
  0
VERTEX
  5
177A
  8
SAPA_PROFIL
 10
37.64597510969682
 20
38.825824898155467
 30
0.0
  0
VERTEX
  5
177B
  8
SAPA_PROFIL
 10
37.64597510969682
 20
40.30339745962123
 30
0.0
  0
VERTEX
  5
177C
  8
SAPA_PROFIL
 10
37.958716073354623
 20
40.48395853917566
 30
0.0
 42
0.5594233586603379
  0
VERTEX
  5
177D
  8
SAPA_PROFIL
 10
37.967952038455593
 20
40.824697210380748
 30
0.0
  0
VERTEX
  5
177E
  8
SAPA_PROFIL
 10
35.398564830010201
 20
42.499999999999773
 30
0.0
  0
VERTEX
  5
177F
  8
SAPA_PROFIL
 10
25.100000000000051
 20
42.499999999999773
 30
0.0
  0
SEQEND
  5
1780
  8
SAPA_PROFIL
  0
LINE
  5
1363
  8
SAPA_PROFIL
 10
-4.399999999994975
 20
25.49999999999595
 30
0.0
 11
-4.399999999994975
 21
25.49999999999595
 31
0.0
  0
POLYLINE
  5
1364
  8
SAPA_PROFIL
 66
     1
 10
0.0
 20
0.0
 30
0.0
 70
     1
  0
VERTEX
  5
1781
  8
SAPA_PROFIL
 10
14.600000000000019
 20
41.499999999999929
 30
0.0
 42
0.4142135623730951
  0
VERTEX
  5
1782
  8
SAPA_PROFIL
 10
14.89999999999997
 20
41.199999999999847
 30
0.0
  0
VERTEX
  5
1783
  8
SAPA_PROFIL
 10
15.733974596215029
 20
41.199999999999847
 30
0.0
  0
VERTEX
  5
1784
  8
SAPA_PROFIL
 10
16.600000000000019
 20
40.699999999999861
 30
0.0
  0
VERTEX
  5
1785
  8
SAPA_PROFIL
 10
17.466025403783991
 20
41.199999999999847
 30
0.0
  0
VERTEX
  5
1786
  8
SAPA_PROFIL
 10
18.300000000000072
 20
41.199999999999847
 30
0.0
 42
0.4142135623730951
  0
VERTEX
  5
1787
  8
SAPA_PROFIL
 10
18.600000000000019
 20
41.499999999999929
 30
0.0
  0
VERTEX
  5
1788
  8
SAPA_PROFIL
 10
18.600000000000019
 20
45.199999999999861
 30
0.0
  0
VERTEX
  5
1789
  8
SAPA_PROFIL
 10
19.600000000000019
 20
46.199999999999847
 30
0.0
  0
VERTEX
  5
178A
  8
SAPA_PROFIL
 10
33.699999999999932
 20
46.199999999999868
 30
0.0
 42
0.4142135623730951
  0
VERTEX
  5
178B
  8
SAPA_PROFIL
 10
34.0
 20
46.499999999999943
 30
0.0
  0
VERTEX
  5
178C
  8
SAPA_PROFIL
 10
34.0
 20
49.89999999999992
 30
0.0
 42
-0.4142135623730951
  0
VERTEX
  5
178D
  8
SAPA_PROFIL
 10
34.300000000000068
 20
50.199999999999882
 30
0.0
  0
VERTEX
  5
178E
  8
SAPA_PROFIL
 10
35.899999999999977
 20
50.199999999999882
 30
0.0
 42
-0.4142135623730951
  0
VERTEX
  5
178F
  8
SAPA_PROFIL
 10
36.199999999999932
 20
49.89999999999992
 30
0.0
  0
VERTEX
  5
1790
  8
SAPA_PROFIL
 10
36.199999999999932
 20
46.499999999999943
 30
0.0
 42
0.4142135623730951
  0
VERTEX
  5
1791
  8
SAPA_PROFIL
 10
36.5
 20
46.199999999999868
 30
0.0
  0
VERTEX
  5
1792
  8
SAPA_PROFIL
 10
43.300000000000068
 20
46.199999999999868
 30
0.0
 42
0.4142135623730951
  0
VERTEX
  5
1793
  8
SAPA_PROFIL
 10
43.600000000000023
 20
46.499999999999943
 30
0.0
  0
VERTEX
  5
1794
  8
SAPA_PROFIL
 10
43.600000000000023
 20
122.6999999999998
 30
0.0
 42
0.4142135623730951
  0
VERTEX
  5
1795
  8
SAPA_PROFIL
 10
43.300000000000068
 20
122.9999999999999
 30
0.0
  0
VERTEX
  5
1796
  8
SAPA_PROFIL
 10
36.5
 20
122.9999999999999
 30
0.0
 42
0.4142135623730951
  0
VERTEX
  5
1797
  8
SAPA_PROFIL
 10
36.199999999999932
 20
122.6999999999998
 30
0.0
  0
VERTEX
  5
1798
  8
SAPA_PROFIL
 10
36.199999999999932
 20
119.2999999999999
 30
0.0
 42
-0.4142135623730951
  0
VERTEX
  5
1799
  8
SAPA_PROFIL
 10
35.899999999999977
 20
118.9999999999999
 30
0.0
  0
VERTEX
  5
179A
  8
SAPA_PROFIL
 10
34.300000000000068
 20
118.9999999999998
 30
0.0
 42
-0.4142135623730951
  0
VERTEX
  5
179B
  8
SAPA_PROFIL
 10
34.0
 20
119.2999999999999
 30
0.0
  0
VERTEX
  5
179C
  8
SAPA_PROFIL
 10
34.0
 20
123.89999999999991
 30
0.0
 42
0.4142135623730951
  0
VERTEX
  5
179D
  8
SAPA_PROFIL
 10
33.699999999999932
 20
124.1999999999998
 30
0.0
  0
VERTEX
  5
179E
  8
SAPA_PROFIL
 10
-0.5
 20
124.1999999999998
 30
0.0
 42
0.4142135623730951
  0
VERTEX
  5
179F
  8
SAPA_PROFIL
 10
-0.8000000000000682
 20
123.89999999999991
 30
0.0
  0
VERTEX
  5
17A0
  8
SAPA_PROFIL
 10
-0.8000000000000682
 20
119.2999999999999
 30
0.0
 42
-0.4142135623730951
  0
VERTEX
  5
17A1
  8
SAPA_PROFIL
 10
-1.1000000000000221
 20
118.9999999999998
 30
0.0
  0
VERTEX
  5
17A2
  8
SAPA_PROFIL
 10
-2.6999999999999309
 20
118.9999999999999
 30
0.0
 42
-0.4142135623730951
  0
VERTEX
  5
17A3
  8
SAPA_PROFIL
 10
-3.0
 20
119.2999999999999
 30
0.0
  0
VERTEX
  5
17A4
  8
SAPA_PROFIL
 10
-3.0
 20
122.6999999999998
 30
0.0
 42
0.4142135623730951
  0
VERTEX
  5
17A5
  8
SAPA_PROFIL
 10
-3.3000000000000682
 20
122.9999999999999
 30
0.0
  0
VERTEX
  5
17A6
  8
SAPA_PROFIL
 10
-10.100000000000019
 20
122.9999999999999
 30
0.0
 42
0.4142135623730951
  0
VERTEX
  5
17A7
  8
SAPA_PROFIL
 10
-10.399999999999981
 20
122.6999999999998
 30
0.0
  0
VERTEX
  5
17A8
  8
SAPA_PROFIL
 10
-10.399999999999981
 20
45.699999999999861
 30
0.0
  0
VERTEX
  5
17A9
  8
SAPA_PROFIL
 10
-6.987867965643999
 20
42.287867965643883
 30
0.0
 42
0.1989123673797207
  0
VERTEX
  5
17AA
  8
SAPA_PROFIL
 10
-6.7757359312880681
 20
42.199999999999861
 30
0.0
  0
VERTEX
  5
17AB
  8
SAPA_PROFIL
 10
-3.3000000000000682
 20
42.199999999999861
 30
0.0
 42
0.4142135623730951
  0
VERTEX
  5
17AC
  8
SAPA_PROFIL
 10
-3.0
 20
42.499999999999922
 30
0.0
  0
VERTEX
  5
17AD
  8
SAPA_PROFIL
 10
-3.0
 20
49.899999999999913
 30
0.0
 42
-0.4142135623730951
  0
VERTEX
  5
17AE
  8
SAPA_PROFIL
 10
-2.6999999999999309
 20
50.199999999999861
 30
0.0
  0
VERTEX
  5
17AF
  8
SAPA_PROFIL
 10
-1.1000000000000221
 20
50.199999999999861
 30
0.0
 42
-0.4142135623730951
  0
VERTEX
  5
17B0
  8
SAPA_PROFIL
 10
-0.8000000000000682
 20
49.899999999999913
 30
0.0
  0
VERTEX
  5
17B1
  8
SAPA_PROFIL
 10
-0.8000000000000682
 20
41.499999999999929
 30
0.0
 42
0.4142135623730951
  0
VERTEX
  5
17B2
  8
SAPA_PROFIL
 10
-0.5
 20
41.199999999999847
 30
0.0
  0
VERTEX
  5
17B3
  8
SAPA_PROFIL
 10
12.30000000000007
 20
41.199999999999847
 30
0.0
 42
0.4142135623730951
  0
VERTEX
  5
17B4
  8
SAPA_PROFIL
 10
12.600000000000019
 20
41.499999999999929
 30
0.0
  0
VERTEX
  5
17B5
  8
SAPA_PROFIL
 10
12.600000000000019
 20
45.499999999999922
 30
0.0
 42
-0.6681786379192989
  0
VERTEX
  5
17B6
  8
SAPA_PROFIL
 10
13.45355339059336
 20
45.853553390593142
 30
0.0
  0
VERTEX
  5
17B7
  8
SAPA_PROFIL
 10
14.600000000000019
 20
44.707106781186937
 30
0.0
  0
SEQEND
  5
17B8
  8
SAPA_PROFIL
  0
POLYLINE
  5
1365
  8
SAPA_PROFIL
 66
     1
 10
0.0
 20
0.0
 30
0.0
 70
     1
  0
VERTEX
  5
17B9
  8
SAPA_PROFIL
 10
-13.399999999999981
 20
130.9573593128809
 30
0.0
 42
-0.1989123673796595
  0
VERTEX
  5
17BA
  8
SAPA_PROFIL
 10
-12.521320343559641
 20
133.0786796564405
 30
0.0
  0
VERTEX
  5
17BB
  8
SAPA_PROFIL
 10
-9.6928932188139925
 20
135.907106781187
 30
0.0
 42
-0.1989123673796811
  0
VERTEX
  5
17BC
  8
SAPA_PROFIL
 10
-8.9857864376269845
 20
136.19999999999979
 30
0.0
  0
VERTEX
  5
17BD
  8
SAPA_PROFIL
 10
-6.6000000000001364
 20
136.2000000000003
 30
0.0
 42
-0.2504916501726618
  0
VERTEX
  5
17BE
  8
SAPA_PROFIL
 10
-5.5999999999999091
 20
135.19999999999979
 30
0.0
  0
VERTEX
  5
17BF
  8
SAPA_PROFIL
 10
-5.5999999999997954
 20
134.49999999999989
 30
0.0
 42
-0.4142135623730951
  0
VERTEX
  5
17C0
  8
SAPA_PROFIL
 10
-5.8999999999998627
 20
134.19999999999979
 30
0.0
  0
VERTEX
  5
17C1
  8
SAPA_PROFIL
 10
-6.3499999999999091
 20
134.19999999999979
 30
0.0
 42
0.4142135623730951
  0
VERTEX
  5
17C2
  8
SAPA_PROFIL
 10
-6.6499999999998627
 20
133.89999999999989
 30
0.0
  0
VERTEX
  5
17C3
  8
SAPA_PROFIL
 10
-6.6499999999998627
 20
133.19999999999999
 30
0.0
 42
0.4142135623731506
  0
VERTEX
  5
17C4
  8
SAPA_PROFIL
 10
-6.3499999999999091
 20
132.89999999999989
 30
0.0
  0
VERTEX
  5
17C5
  8
SAPA_PROFIL
 10
-5.8999999999998627
 20
132.89999999999989
 30
0.0
 42
-0.4142135623731506
  0
VERTEX
  5
17C6
  8
SAPA_PROFIL
 10
-5.5999999999999091
 20
132.59999999999991
 30
0.0
  0
VERTEX
  5
17C7
  8
SAPA_PROFIL
 10
-5.5999999999997954
 20
132.09999999999991
 30
0.0
 42
-0.4142135623730951
  0
VERTEX
  5
17C8
  8
SAPA_PROFIL
 10
-6.0999999999997954
 20
131.59999999999991
 30
0.0
  0
VERTEX
  5
17C9
  8
SAPA_PROFIL
 10
-7.4999999999997717
 20
131.59999999999991
 30
0.0
 42
0.4142135623730951
  0
VERTEX
  5
17CA
  8
SAPA_PROFIL
 10
-8.4999999999997726
 20
130.59999999999991
 30
0.0
  0
VERTEX
  5
17CB
  8
SAPA_PROFIL
 10
-8.4999999999998863
 20
130.19999999999979
 30
0.0
 42
0.9999999999999998
  0
VERTEX
  5
17CC
  8
SAPA_PROFIL
 10
-1.29999999999984
 20
130.19999999999979
 30
0.0
  0
VERTEX
  5
17CD
  8
SAPA_PROFIL
 10
-1.299999999999613
 20
131.30000000000001
 30
0.0
 42
0.4142135623732059
  0
VERTEX
  5
17CE
  8
SAPA_PROFIL
 10
-1.5999999999997949
 20
131.59999999999999
 30
0.0
  0
VERTEX
  5
17CF
  8
SAPA_PROFIL
 10
-1.899999999999749
 20
131.5999999999998
 30
0.0
 42
-0.4142135623733948
  0
VERTEX
  5
17D0
  8
SAPA_PROFIL
 10
-2.3999999999999768
 20
132.09999999999991
 30
0.0
  0
VERTEX
  5
17D1
  8
SAPA_PROFIL
 10
-2.3999999999999768
 20
132.59999999999991
 30
0.0
 42
-0.4142135623730397
  0
VERTEX
  5
17D2
  8
SAPA_PROFIL
 10
-2.1000000000000218
 20
132.89999999999989
 30
0.0
  0
VERTEX
  5
17D3
  8
SAPA_PROFIL
 10
-1.6499999999998629
 20
132.89999999999989
 30
0.0
 42
0.4142135623731505
  0
VERTEX
  5
17D4
  8
SAPA_PROFIL
 10
-1.3499999999999091
 20
133.19999999999999
 30
0.0
  0
VERTEX
  5
17D5
  8
SAPA_PROFIL
 10
-1.3499999999997949
 20
133.89999999999989
 30
0.0
 42
0.4142135623730951
  0
VERTEX
  5
17D6
  8
SAPA_PROFIL
 10
-1.6499999999998629
 20
134.19999999999979
 30
0.0
  0
VERTEX
  5
17D7
  8
SAPA_PROFIL
 10
-2.1000000000000218
 20
134.19999999999979
 30
0.0
 42
-0.4142135623730951
  0
VERTEX
  5
17D8
  8
SAPA_PROFIL
 10
-2.3999999999999768
 20
134.49999999999989
 30
0.0
  0
VERTEX
  5
17D9
  8
SAPA_PROFIL
 10
-2.3999999999995221
 20
135.2000000000003
 30
0.0
 42
-0.2504916501726643
  0
VERTEX
  5
17DA
  8
SAPA_PROFIL
 10
-1.400000000000545
 20
136.2000000000003
 30
0.0
  0
VERTEX
  5
17DB
  8
SAPA_PROFIL
 10
0.8999999999999772
 20
136.19999999999979
 30
0.0
 42
-0.4142135623730951
  0
VERTEX
  5
17DC
  8
SAPA_PROFIL
 10
1.899999999999977
 20
135.19999999999979
 30
0.0
  0
VERTEX
  5
17DD
  8
SAPA_PROFIL
 10
1.899999999999977
 20
127.4999999999999
 30
0.0
 42
0.4142135623730951
  0
VERTEX
  5
17DE
  8
SAPA_PROFIL
 10
2.1999999999999309
 20
127.1999999999998
 30
0.0
  0
VERTEX
  5
17DF
  8
SAPA_PROFIL
 10
15.733974596215029
 20
127.1999999999998
 30
0.0
  0
VERTEX
  5
17E0
  8
SAPA_PROFIL
 10
16.600000000000019
 20
126.6999999999998
 30
0.0
  0
VERTEX
  5
17E1
  8
SAPA_PROFIL
 10
17.466025403783991
 20
127.1999999999998
 30
0.0
  0
VERTEX
  5
17E2
  8
SAPA_PROFIL
 10
31.0
 20
127.1999999999998
 30
0.0
 42
0.4142135623730951
  0
VERTEX
  5
17E3
  8
SAPA_PROFIL
 10
31.300000000000072
 20
127.4999999999999
 30
0.0
  0
VERTEX
  5
17E4
  8
SAPA_PROFIL
 10
31.300000000000072
 20
135.19999999999979
 30
0.0
 42
-0.4142135623730951
  0
VERTEX
  5
17E5
  8
SAPA_PROFIL
 10
32.300000000000068
 20
136.19999999999979
 30
0.0
  0
VERTEX
  5
17E6
  8
SAPA_PROFIL
 10
34.60000000000003
 20
136.19999999999979
 30
0.0
 42
-0.2504916501726643
  0
VERTEX
  5
17E7
  8
SAPA_PROFIL
 10
35.599999999999568
 20
135.2000000000003
 30
0.0
  0
VERTEX
  5
17E8
  8
SAPA_PROFIL
 10
35.600000000000023
 20
134.49999999999989
 30
0.0
 42
-0.4142135623730951
  0
VERTEX
  5
17E9
  8
SAPA_PROFIL
 10
35.300000000000068
 20
134.19999999999979
 30
0.0
  0
VERTEX
  5
17EA
  8
SAPA_PROFIL
 10
34.849999999999909
 20
134.19999999999979
 30
0.0
 42
0.4142135623730951
  0
VERTEX
  5
17EB
  8
SAPA_PROFIL
 10
34.549999999999841
 20
133.89999999999989
 30
0.0
  0
VERTEX
  5
17EC
  8
SAPA_PROFIL
 10
34.549999999999962
 20
133.19999999999999
 30
0.0
 42
0.4142135623731506
  0
VERTEX
  5
17ED
  8
SAPA_PROFIL
 10
34.849999999999909
 20
132.89999999999989
 30
0.0
  0
VERTEX
  5
17EE
  8
SAPA_PROFIL
 10
35.300000000000068
 20
132.89999999999989
 30
0.0
 42
-0.4142135623730397
  0
VERTEX
  5
17EF
  8
SAPA_PROFIL
 10
35.600000000000023
 20
132.59999999999991
 30
0.0
  0
VERTEX
  5
17F0
  8
SAPA_PROFIL
 10
35.600000000000023
 20
132.09999999999991
 30
0.0
 42
-0.4142135623733948
  0
VERTEX
  5
17F1
  8
SAPA_PROFIL
 10
35.099999999999802
 20
131.5999999999998
 30
0.0
  0
VERTEX
  5
17F2
  8
SAPA_PROFIL
 10
34.799999999999841
 20
131.59999999999999
 30
0.0
 42
0.4142135623732059
  0
VERTEX
  5
17F3
  8
SAPA_PROFIL
 10
34.499999999999659
 20
131.30000000000001
 30
0.0
  0
VERTEX
  5
17F4
  8
SAPA_PROFIL
 10
34.499999999999893
 20
130.19999999999979
 30
0.0
 42
0.9999999999999998
  0
VERTEX
  5
17F5
  8
SAPA_PROFIL
 10
41.699999999999932
 20
130.19999999999979
 30
0.0
  0
VERTEX
  5
17F6
  8
SAPA_PROFIL
 10
41.699999999999818
 20
130.59999999999991
 30
0.0
 42
0.4142135623730951
  0
VERTEX
  5
17F7
  8
SAPA_PROFIL
 10
40.699999999999811
 20
131.59999999999991
 30
0.0
  0
VERTEX
  5
17F8
  8
SAPA_PROFIL
 10
39.299999999999841
 20
131.59999999999991
 30
0.0
 42
-0.4142135623730951
  0
VERTEX
  5
17F9
  8
SAPA_PROFIL
 10
38.799999999999841
 20
132.09999999999991
 30
0.0
  0
VERTEX
  5
17FA
  8
SAPA_PROFIL
 10
38.799999999999947
 20
132.59999999999991
 30
0.0
 42
-0.4142135623731506
  0
VERTEX
  5
17FB
  8
SAPA_PROFIL
 10
39.099999999999909
 20
132.89999999999989
 30
0.0
  0
VERTEX
  5
17FC
  8
SAPA_PROFIL
 10
39.549999999999962
 20
132.89999999999989
 30
0.0
 42
0.4142135623731505
  0
VERTEX
  5
17FD
  8
SAPA_PROFIL
 10
39.849999999999909
 20
133.19999999999999
 30
0.0
  0
VERTEX
  5
17FE
  8
SAPA_PROFIL
 10
39.849999999999909
 20
133.89999999999989
 30
0.0
 42
0.4142135623730951
  0
VERTEX
  5
17FF
  8
SAPA_PROFIL
 10
39.549999999999962
 20
134.19999999999979
 30
0.0
  0
VERTEX
  5
1800
  8
SAPA_PROFIL
 10
39.099999999999909
 20
134.19999999999979
 30
0.0
 42
-0.4142135623730951
  0
VERTEX
  5
1801
  8
SAPA_PROFIL
 10
38.799999999999841
 20
134.49999999999989
 30
0.0
  0
VERTEX
  5
1802
  8
SAPA_PROFIL
 10
38.799999999999947
 20
135.19999999999979
 30
0.0
 42
-0.2504916501726621
  0
VERTEX
  5
1803
  8
SAPA_PROFIL
 10
39.800000000000182
 20
136.2000000000003
 30
0.0
  0
VERTEX
  5
1804
  8
SAPA_PROFIL
 10
42.185786437626909
 20
136.19999999999979
 30
0.0
 42
-0.1989123673796728
  0
VERTEX
  5
1805
  8
SAPA_PROFIL
 10
42.89289321881347
 20
135.90710678118651
 30
0.0
  0
VERTEX
  5
1806
  8
SAPA_PROFIL
 10
45.721320343559
 20
133.07867965643979
 30
0.0
 42
-0.1989123673796584
  0
VERTEX
  5
1807
  8
SAPA_PROFIL
 10
46.600000000000023
 20
130.9573593128809
 30
0.0
  0
VERTEX
  5
1808
  8
SAPA_PROFIL
 10
46.600000000000023
 20
124.2053328888191
 30
0.0
  0
VERTEX
  5
1809
  8
SAPA_PROFIL
 10
46.600000000000023
 20
43.442640687119876
 30
0.0
 42
-0.1989123673796596
  0
VERTEX
  5
180A
  8
SAPA_PROFIL
 10
45.721320343559
 20
41.321320343559869
 30
0.0
  0
VERTEX
  5
180B
  8
SAPA_PROFIL
 10
42.892893218813583
 20
38.492893218813322
 30
0.0
 42
-0.1989123673796371
  0
VERTEX
  5
180C
  8
SAPA_PROFIL
 10
42.18578643762703
 20
38.199999999999882
 30
0.0
  0
VERTEX
  5
180D
  8
SAPA_PROFIL
 10
39.100000000000023
 20
38.199999999999882
 30
0.0
  0
VERTEX
  5
180E
  8
SAPA_PROFIL
 10
38.100000000000023
 20
39.199999999999868
 30
0.0
  0
VERTEX
  5
180F
  8
SAPA_PROFIL
 10
38.100000000000023
 20
39.89999999999992
 30
0.0
 42
-0.4142135623730951
  0
VERTEX
  5
1810
  8
SAPA_PROFIL
 10
38.399999999999977
 20
40.199999999999882
 30
0.0
  0
VERTEX
  5
1811
  8
SAPA_PROFIL
 10
40.14999999999997
 20
40.199999999999882
 30
0.0
 42
0.4142135623730951
  0
VERTEX
  5
1812
  8
SAPA_PROFIL
 10
40.449999999999932
 20
40.499999999999943
 30
0.0
  0
VERTEX
  5
1813
  8
SAPA_PROFIL
 10
40.449999999999932
 20
42.949999999999868
 30
0.0
 42
0.4142135623730951
  0
VERTEX
  5
1814
  8
SAPA_PROFIL
 10
40.14999999999997
 20
43.249999999999943
 30
0.0
  0
VERTEX
  5
1815
  8
SAPA_PROFIL
 10
22.050000000000072
 20
43.249999999999929
 30
0.0
 42
0.4142135623730951
  0
VERTEX
  5
1816
  8
SAPA_PROFIL
 10
21.75
 20
42.949999999999861
 30
0.0
  0
VERTEX
  5
1817
  8
SAPA_PROFIL
 10
21.75
 20
40.499999999999922
 30
0.0
 42
0.4142135623730951
  0
VERTEX
  5
1818
  8
SAPA_PROFIL
 10
22.050000000000072
 20
40.199999999999861
 30
0.0
  0
VERTEX
  5
1819
  8
SAPA_PROFIL
 10
23.800000000000072
 20
40.199999999999861
 30
0.0
 42
-0.4142135623730951
  0
VERTEX
  5
181A
  8
SAPA_PROFIL
 10
24.100000000000019
 20
39.899999999999913
 30
0.0
  0
VERTEX
  5
181B
  8
SAPA_PROFIL
 10
24.100000000000019
 20
39.199999999999861
 30
0.0
  0
VERTEX
  5
181C
  8
SAPA_PROFIL
 10
23.100000000000019
 20
38.199999999999861
 30
0.0
  0
VERTEX
  5
181D
  8
SAPA_PROFIL
 10
17.466025403783991
 20
38.199999999999861
 30
0.0
  0
VERTEX
  5
181E
  8
SAPA_PROFIL
 10
16.600000000000019
 20
38.699999999999861
 30
0.0
  0
VERTEX
  5
181F
  8
SAPA_PROFIL
 10
15.733974596215029
 20
38.199999999999861
 30
0.0
  0
VERTEX
  5
1820
  8
SAPA_PROFIL
 10
-3.3999999999999768
 20
38.199999999999861
 30
0.0
 42
0.4142135623730951
  0
VERTEX
  5
1821
  8
SAPA_PROFIL
 10
-4.3999999999999773
 20
37.199999999999861
 30
0.0
  0
VERTEX
  5
1822
  8
SAPA_PROFIL
 10
-4.3999999999999773
 20
27.964911064067831
 30
0.0
 42
0.3475404855922902
  0
VERTEX
  5
1823
  8
SAPA_PROFIL
 10
-4.1692307692308068
 20
27.673008510821589
 30
0.0
 42
-0.347540485592353
  0
VERTEX
  5
1824
  8
SAPA_PROFIL
 10
-3.3999999999999768
 20
26.699999999999861
 30
0.0
  0
VERTEX
  5
1825
  8
SAPA_PROFIL
 10
-3.3999999999999768
 20
26.132455532037891
 30
0.0
 42
-0.2896898633048417
  0
VERTEX
  5
1826
  8
SAPA_PROFIL
 10
-3.9714285714354669
 20
25.228947629129429
 30
0.0
 42
-0.5507604245820768
  0
VERTEX
  5
1827
  8
SAPA_PROFIL
 10
-4.399999999994975
 20
25.49999999999595
 30
0.0
  0
VERTEX
  5
1828
  8
SAPA_PROFIL
 10
-4.3999999999990669
 20
26.15000000000196
 30
0.0
 42
0.4142135623714856
  0
VERTEX
  5
1829
  8
SAPA_PROFIL
 10
-4.6999999999990223
 20
26.449999999999861
 30
0.0
  0
VERTEX
  5
182A
  8
SAPA_PROFIL
 10
-6.1000000000000218
 20
26.449999999999861
 30
0.0
 42
0.4142135623730951
  0
VERTEX
  5
182B
  8
SAPA_PROFIL
 10
-6.3999999999999773
 20
26.14999999999991
 30
0.0
  0
VERTEX
  5
182C
  8
SAPA_PROFIL
 10
-6.3999999999999773
 20
17.749999999999929
 30
0.0
 42
0.4142135623730951
  0
VERTEX
  5
182D
  8
SAPA_PROFIL
 10
-6.1000000000000218
 20
17.449999999999971
 30
0.0
  0
VERTEX
  5
182E
  8
SAPA_PROFIL
 10
-4.6999999999999309
 20
17.449999999999861
 30
0.0
 42
0.4142135623730951
  0
VERTEX
  5
182F
  8
SAPA_PROFIL
 10
-4.3999999999999773
 20
17.749999999999929
 30
0.0
  0
VERTEX
  5
1830
  8
SAPA_PROFIL
 10
-4.3999999999990669
 20
18.399999999999899
 30
0.0
  0
VERTEX
  5
1831
  8
SAPA_PROFIL
 10
-4.3999999999999773
 20
18.400000000003882
 30
0.0
 42
-0.5507604245871307
  0
VERTEX
  5
1832
  8
SAPA_PROFIL
 10
-3.9714285714268271
 20
18.671052370871209
 30
0.0
 42
-0.2896898633034174
  0
VERTEX
  5
1833
  8
SAPA_PROFIL
 10
-3.3999999999999768
 20
17.76754446796194
 30
0.0
  0
VERTEX
  5
1834
  8
SAPA_PROFIL
 10
-3.3999999999999768
 20
16.499999999999929
 30
0.0
 42
-0.4142135623730951
  0
VERTEX
  5
1835
  8
SAPA_PROFIL
 10
-3.6999999999999309
 20
16.199999999999861
 30
0.0
  0
VERTEX
  5
1836
  8
SAPA_PROFIL
 10
-7.8999999999999773
 20
16.199999999999861
 30
0.0
 42
-0.4142135623730951
  0
VERTEX
  5
1837
  8
SAPA_PROFIL
 10
-8.8999999999999773
 20
17.199999999999861
 30
0.0
  0
VERTEX
  5
1838
  8
SAPA_PROFIL
 10
-8.8999999999999773
 20
36.457359312880889
 30
0.0
 42
0.1989123673796595
  0
VERTEX
  5
1839
  8
SAPA_PROFIL
 10
-9.7786796564403176
 20
38.578679656440542
 30
0.0
  0
VERTEX
  5
183A
  8
SAPA_PROFIL
 10
-12.52132034355998
 20
41.321320343559847
 30
0.0
 42
-0.1989123673796601
  0
VERTEX
  5
183B
  8
SAPA_PROFIL
 10
-13.399999999999981
 20
43.442640687119862
 30
0.0
  0
SEQEND
  5
183C
  8
SAPA_PROFIL
  0
POLYLINE
  5
1366
  8
SAPA_PROFIL
 66
     1
 10
0.0
 20
0.0
 30
0.0
 70
     1
  0
VERTEX
  5
183D
  8
SAPA_PROFIL
 10
39.800000000000068
 20
204.40000000000029
 30
0.0
  0
VERTEX
  5
183E
  8
SAPA_PROFIL
 10
39.800000000000068
 20
173.0000000000002
 30
0.0
  0
VERTEX
  5
183F
  8
SAPA_PROFIL
 10
18.69500000000005
 20
173.00000000000031
 30
0.0
 42
0.4142135623732293
  0
VERTEX
  5
1840
  8
SAPA_PROFIL
 10
18.200000000000038
 20
172.50500000000019
 30
0.0
  0
VERTEX
  5
1841
  8
SAPA_PROFIL
 10
18.200000000000038
 20
172.49500000000029
 30
0.0
 42
0.414213562373095
  0
VERTEX
  5
1842
  8
SAPA_PROFIL
 10
18.69500000000005
 20
172.0000000000002
 30
0.0
  0
VERTEX
  5
1843
  8
SAPA_PROFIL
 10
18.855000000000022
 20
172.0000000000002
 30
0.0
 42
-0.414213562373028
  0
VERTEX
  5
1844
  8
SAPA_PROFIL
 10
19.350000000000019
 20
171.50500000000031
 30
0.0
  0
VERTEX
  5
1845
  8
SAPA_PROFIL
 10
19.350000000000019
 20
170.70000000000019
 30
0.0
 42
-0.3747564601179658
  0
VERTEX
  5
1846
  8
SAPA_PROFIL
 10
16.97439504323631
 20
167.97560495676589
 30
0.0
  0
VERTEX
  5
1847
  8
SAPA_PROFIL
 10
16.600000000000019
 20
168.35000000000059
 30
0.0
  0
VERTEX
  5
1848
  8
SAPA_PROFIL
 10
16.225604956763501
 20
167.9756049567641
 30
0.0
 42
-0.3747564601179647
  0
VERTEX
  5
1849
  8
SAPA_PROFIL
 10
13.850000000000019
 20
170.7000000000001
 30
0.0
  0
VERTEX
  5
184A
  8
SAPA_PROFIL
 10
13.850000000000019
 20
171.50500000000031
 30
0.0
 42
-0.4142135623730281
  0
VERTEX
  5
184B
  8
SAPA_PROFIL
 10
14.34500000000002
 20
172.0000000000002
 30
0.0
  0
VERTEX
  5
184C
  8
SAPA_PROFIL
 10
14.50499999999999
 20
172.0000000000002
 30
0.0
 42
0.4142135623730951
  0
VERTEX
  5
184D
  8
SAPA_PROFIL
 10
15.0
 20
172.49500000000029
 30
0.0
  0
VERTEX
  5
184E
  8
SAPA_PROFIL
 10
15.00000000000011
 20
172.50500000000019
 30
0.0
 42
0.4142135623732296
  0
VERTEX
  5
184F
  8
SAPA_PROFIL
 10
14.50499999999999
 20
173.0000000000002
 30
0.0
  0
VERTEX
  5
1850
  8
SAPA_PROFIL
 10
-6.6000000000000218
 20
173.0000000000002
 30
0.0
  0
VERTEX
  5
1851
  8
SAPA_PROFIL
 10
-6.6000000000000218
 20
204.40000000000029
 30
0.0
  0
VERTEX
  5
1852
  8
SAPA_PROFIL
 10
14.50499999999999
 20
204.40000000000029
 30
0.0
 42
0.4142135623731625
  0
VERTEX
  5
1853
  8
SAPA_PROFIL
 10
15.0
 20
204.89500000000021
 30
0.0
  0
VERTEX
  5
1854
  8
SAPA_PROFIL
 10
15.0
 20
204.9050000000002
 30
0.0
 42
0.4142135623731625
  0
VERTEX
  5
1855
  8
SAPA_PROFIL
 10
14.50499999999999
 20
205.40000000000009
 30
0.0
  0
VERTEX
  5
1856
  8
SAPA_PROFIL
 10
14.34500000000002
 20
205.4000000000002
 30
0.0
 42
-0.4142135623729606
  0
VERTEX
  5
1857
  8
SAPA_PROFIL
 10
13.850000000000129
 20
205.89500000000021
 30
0.0
  0
VERTEX
  5
1858
  8
SAPA_PROFIL
 10
13.850000000000019
 20
206.7000000000003
 30
0.0
 42
-0.3747564601179647
  0
VERTEX
  5
1859
  8
SAPA_PROFIL
 10
16.225604956763501
 20
209.4243950432363
 30
0.0
  0
VERTEX
  5
185A
  8
SAPA_PROFIL
 10
16.600000000000019
 20
209.05000000000001
 30
0.0
  0
VERTEX
  5
185B
  8
SAPA_PROFIL
 10
16.97439504323631
 20
209.42439504323471
 30
0.0
 42
-0.3747564601179658
  0
VERTEX
  5
185C
  8
SAPA_PROFIL
 10
19.350000000000019
 20
206.7000000000003
 30
0.0
  0
VERTEX
  5
185D
  8
SAPA_PROFIL
 10
19.350000000000019
 20
205.89500000000021
 30
0.0
 42
-0.4142135623730281
  0
VERTEX
  5
185E
  8
SAPA_PROFIL
 10
18.855000000000022
 20
205.40000000000009
 30
0.0
  0
VERTEX
  5
185F
  8
SAPA_PROFIL
 10
18.69500000000005
 20
205.40000000000009
 30
0.0
 42
0.4142135623731625
  0
VERTEX
  5
1860
  8
SAPA_PROFIL
 10
18.200000000000038
 20
204.9050000000002
 30
0.0
  0
VERTEX
  5
1861
  8
SAPA_PROFIL
 10
18.200000000000038
 20
204.89500000000021
 30
0.0
 42
0.4142135623731625
  0
VERTEX
  5
1862
  8
SAPA_PROFIL
 10
18.69500000000005
 20
204.40000000000029
 30
0.0
  0
SEQEND
  5
1863
  8
SAPA_PROFIL
  0
POLYLINE
  5
1367
  8
SAPA_PROFIL
 66
     1
 10
0.0
 20
0.0
 30
0.0
 70
     1
  0
VERTEX
  5
1864
  8
SAPA_PROFIL
 10
39.800000000000068
 20
209.2000000000003
 30
0.0
  0
VERTEX
  5
1865
  8
SAPA_PROFIL
 10
37.600000000000023
 20
209.2000000000003
 30
0.0
  0
VERTEX
  5
1866
  8
SAPA_PROFIL
 10
37.600000000000023
 20
210.2000000000003
 30
0.0
  0
VERTEX
  5
1867
  8
SAPA_PROFIL
 10
38.600000000000023
 20
211.2000000000003
 30
0.0
  0
VERTEX
  5
1868
  8
SAPA_PROFIL
 10
41.600000000000023
 20
211.2000000000003
 30
0.0
  0
VERTEX
  5
1869
  8
SAPA_PROFIL
 10
41.600000000000023
 20
166.2000000000003
 30
0.0
  0
VERTEX
  5
186A
  8
SAPA_PROFIL
 10
38.600000000000023
 20
166.2000000000003
 30
0.0
  0
VERTEX
  5
186B
  8
SAPA_PROFIL
 10
37.600000000000023
 20
167.2000000000003
 30
0.0
  0
VERTEX
  5
186C
  8
SAPA_PROFIL
 10
37.600000000000023
 20
168.2000000000003
 30
0.0
  0
VERTEX
  5
186D
  8
SAPA_PROFIL
 10
39.800000000000068
 20
168.2000000000003
 30
0.0
  0
VERTEX
  5
186E
  8
SAPA_PROFIL
 10
39.800000000000068
 20
171.2000000000003
 30
0.0
  0
VERTEX
  5
186F
  8
SAPA_PROFIL
 10
21.100000000000019
 20
171.2000000000003
 30
0.0
  0
VERTEX
  5
1870
  8
SAPA_PROFIL
 10
21.100000000000019
 20
168.2000000000003
 30
0.0
  0
VERTEX
  5
1871
  8
SAPA_PROFIL
 10
23.600000000000019
 20
168.2000000000003
 30
0.0
  0
VERTEX
  5
1872
  8
SAPA_PROFIL
 10
23.600000000000019
 20
167.2000000000003
 30
0.0
  0
VERTEX
  5
1873
  8
SAPA_PROFIL
 10
22.800000000000072
 20
166.4000000000002
 30
0.0
  0
VERTEX
  5
1874
  8
SAPA_PROFIL
 10
17.119615242270701
 20
166.4000000000002
 30
0.0
  0
VERTEX
  5
1875
  8
SAPA_PROFIL
 10
16.600000000000019
 20
166.70000000000019
 30
0.0
  0
VERTEX
  5
1876
  8
SAPA_PROFIL
 10
16.080384757729352
 20
166.4000000000002
 30
0.0
  0
VERTEX
  5
1877
  8
SAPA_PROFIL
 10
10.399999999999981
 20
166.4000000000002
 30
0.0
  0
VERTEX
  5
1878
  8
SAPA_PROFIL
 10
9.6000000000000227
 20
167.2000000000003
 30
0.0
  0
VERTEX
  5
1879
  8
SAPA_PROFIL
 10
9.6000000000000227
 20
168.2000000000003
 30
0.0
  0
VERTEX
  5
187A
  8
SAPA_PROFIL
 10
12.100000000000019
 20
168.2000000000003
 30
0.0
  0
VERTEX
  5
187B
  8
SAPA_PROFIL
 10
12.100000000000019
 20
171.2000000000003
 30
0.0
  0
VERTEX
  5
187C
  8
SAPA_PROFIL
 10
-6.6000000000000218
 20
171.2000000000003
 30
0.0
  0
VERTEX
  5
187D
  8
SAPA_PROFIL
 10
-6.6000000000000218
 20
168.2000000000003
 30
0.0
  0
VERTEX
  5
187E
  8
SAPA_PROFIL
 10
-4.3999999999999773
 20
168.2000000000003
 30
0.0
  0
VERTEX
  5
187F
  8
SAPA_PROFIL
 10
-4.3999999999999773
 20
167.2000000000003
 30
0.0
  0
VERTEX
  5
1880
  8
SAPA_PROFIL
 10
-5.3999999999999773
 20
166.2000000000003
 30
0.0
  0
VERTEX
  5
1881
  8
SAPA_PROFIL
 10
-8.3999999999999773
 20
166.2000000000003
 30
0.0
  0
VERTEX
  5
1882
  8
SAPA_PROFIL
 10
-8.3999999999999773
 20
211.2000000000003
 30
0.0
  0
VERTEX
  5
1883
  8
SAPA_PROFIL
 10
-5.3999999999999773
 20
211.2000000000003
 30
0.0
  0
VERTEX
  5
1884
  8
SAPA_PROFIL
 10
-4.3999999999999773
 20
210.2000000000003
 30
0.0
  0
VERTEX
  5
1885
  8
SAPA_PROFIL
 10
-4.3999999999999773
 20
209.2000000000003
 30
0.0
  0
VERTEX
  5
1886
  8
SAPA_PROFIL
 10
-6.6000000000000218
 20
209.2000000000003
 30
0.0
  0
VERTEX
  5
1887
  8
SAPA_PROFIL
 10
-6.6000000000000218
 20
206.2000000000003
 30
0.0
  0
VERTEX
  5
1888
  8
SAPA_PROFIL
 10
12.100000000000019
 20
206.2000000000003
 30
0.0
  0
VERTEX
  5
1889
  8
SAPA_PROFIL
 10
12.100000000000019
 20
209.2000000000003
 30
0.0
  0
VERTEX
  5
188A
  8
SAPA_PROFIL
 10
9.6000000000000227
 20
209.2000000000003
 30
0.0
  0
VERTEX
  5
188B
  8
SAPA_PROFIL
 10
9.6000000000000227
 20
210.2000000000003
 30
0.0
  0
VERTEX
  5
188C
  8
SAPA_PROFIL
 10
10.399999999999981
 20
211.0000000000002
 30
0.0
  0
VERTEX
  5
188D
  8
SAPA_PROFIL
 10
16.080384757729352
 20
211.0000000000002
 30
0.0
  0
VERTEX
  5
188E
  8
SAPA_PROFIL
 10
16.600000000000019
 20
210.7000000000003
 30
0.0
  0
VERTEX
  5
188F
  8
SAPA_PROFIL
 10
17.119615242270701
 20
211.0000000000002
 30
0.0
  0
VERTEX
  5
1890
  8
SAPA_PROFIL
 10
22.800000000000072
 20
211.0000000000002
 30
0.0
  0
VERTEX
  5
1891
  8
SAPA_PROFIL
 10
23.600000000000019
 20
210.2000000000003
 30
0.0
  0
VERTEX
  5
1892
  8
SAPA_PROFIL
 10
23.600000000000019
 20
209.2000000000003
 30
0.0
  0
VERTEX
  5
1893
  8
SAPA_PROFIL
 10
21.100000000000019
 20
209.2000000000003
 30
0.0
  0
VERTEX
  5
1894
  8
SAPA_PROFIL
 10
21.100000000000019
 20
206.2000000000003
 30
0.0
  0
VERTEX
  5
1895
  8
SAPA_PROFIL
 10
39.800000000000068
 20
206.2000000000003
 30
0.0
  0
SEQEND
  5
1896
  8
SAPA_PROFIL
  0
POLYLINE
  5
1368
  8
SAPA_PROFIL
 66
     1
 10
0.0
 20
0.0
 30
0.0
 70
     1
  0
VERTEX
  5
1897
  8
SAPA_PROFIL
 10
3.4309605363588669
 20
154.2012645250357
 30
0.0
 42
0.4557262555325856
  0
VERTEX
  5
1898
  8
SAPA_PROFIL
 10
4.0005465671999332
 20
154.69639810769129
 30
0.0
  0
VERTEX
  5
1899
  8
SAPA_PROFIL
 10
4.0005465671999332
 20
156.2031420000003
 30
0.0
  0
VERTEX
  5
189A
  8
SAPA_PROFIL
 10
5.5005465671999332
 20
156.2031420000003
 30
0.0
  0
VERTEX
  5
189B
  8
SAPA_PROFIL
 10
5.5005465671999332
 20
157.2031420000003
 30
0.0
  0
VERTEX
  5
189C
  8
SAPA_PROFIL
 10
15.73301516341561
 20
157.2031420000003
 30
0.0
  0
VERTEX
  5
189D
  8
SAPA_PROFIL
 10
16.599040567200031
 20
157.7031420000003
 30
0.0
  0
VERTEX
  5
189E
  8
SAPA_PROFIL
 10
17.465065970984401
 20
157.2031420000003
 30
0.0
  0
VERTEX
  5
189F
  8
SAPA_PROFIL
 10
27.69753456720013
 20
157.2031420000003
 30
0.0
  0
VERTEX
  5
18A0
  8
SAPA_PROFIL
 10
27.69753456720013
 20
156.2031420000003
 30
0.0
  0
VERTEX
  5
18A1
  8
SAPA_PROFIL
 10
29.19753456720014
 20
156.2031420000003
 30
0.0
  0
VERTEX
  5
18A2
  8
SAPA_PROFIL
 10
29.19753456720014
 20
154.2031420000003
 30
0.0
  0
VERTEX
  5
18A3
  8
SAPA_PROFIL
 10
35.031482513027129
 20
153.1744595731023
 30
0.0
 42
0.4142135623730531
  0
VERTEX
  5
18A4
  8
SAPA_PROFIL
 10
35.610710478366613
 20
153.58003936077489
 30
0.0
  0
VERTEX
  5
18A5
  8
SAPA_PROFIL
 10
35.697534567200137
 20
154.07244323728099
 30
0.0
  0
VERTEX
  5
18A6
  8
SAPA_PROFIL
 10
35.008169140091503
 20
154.1939969616478
 30
0.0
 42
-0.6705660098148247
  0
VERTEX
  5
18A7
  8
SAPA_PROFIL
 10
34.889815006213198
 20
154.73631431490119
 30
0.0
  0
VERTEX
  5
18A8
  8
SAPA_PROFIL
 10
37.276663415024082
 20
156.38425312612239
 30
0.0
 42
-0.4103557430781616
  0
VERTEX
  5
18A9
  8
SAPA_PROFIL
 10
37.95874765018953
 20
156.26398327234679
 30
0.0
  0
VERTEX
  5
18AA
  8
SAPA_PROFIL
 10
39.638023218477841
 20
153.89907709705739
 30
0.0
 42
-0.6705660098148535
  0
VERTEX
  5
18AB
  8
SAPA_PROFIL
 10
39.341323253345202
 20
153.42994497991339
 30
0.0
  0
VERTEX
  5
18AC
  8
SAPA_PROFIL
 10
38.651957826236703
 20
153.55149870428031
 30
0.0
  0
VERTEX
  5
18AD
  8
SAPA_PROFIL
 10
38.565133737403229
 20
153.05909482777409
 30
0.0
 42
0.4142135623731039
  0
VERTEX
  5
18AE
  8
SAPA_PROFIL
 10
38.97071352507588
 20
152.4798668624347
 30
0.0
  0
VERTEX
  5
18AF
  8
SAPA_PROFIL
 10
39.406404583385822
 20
152.4030427736011
 30
0.0
  0
VERTEX
  5
18B0
  8
SAPA_PROFIL
 10
40.992888562344959
 20
152.40571336131691
 30
0.0
 42
-0.4147066859862996
  0
VERTEX
  5
18B1
  8
SAPA_PROFIL
 10
43.997938567200023
 20
149.40571761174471
 30
0.0
  0
VERTEX
  5
18B2
  8
SAPA_PROFIL
 10
43.997938567200023
 20
141.6990890000003
 30
0.0
 42
0.6638253569871671
  0
VERTEX
  5
18B3
  8
SAPA_PROFIL
 10
44.877124760134599
 20
141.3411151930132
 30
0.0
  0
VERTEX
  5
18B4
  8
SAPA_PROFIL
 10
46.85616295779333
 20
143.32015339067181
 30
0.0
 42
0.1989123673796449
  0
VERTEX
  5
18B5
  8
SAPA_PROFIL
 10
47.002609567199997
 20
143.67370678126511
 30
0.0
  0
VERTEX
  5
18B6
  8
SAPA_PROFIL
 10
47.002609567199997
 20
155.49198175566531
 30
0.0
 42
0.1989123673796422
  0
VERTEX
  5
18B7
  8
SAPA_PROFIL
 10
46.856162957793302
 20
155.84553514625861
 30
0.0
  0
VERTEX
  5
18B8
  8
SAPA_PROFIL
 10
41.495416176606717
 20
161.2062819274451
 30
0.0
 42
-0.1989123673796659
  0
VERTEX
  5
18B9
  8
SAPA_PROFIL
 10
41.348969567200001
 20
161.55983531803841
 30
0.0
  0
VERTEX
  5
18BA
  8
SAPA_PROFIL
 10
41.348969567200001
 20
166.2000000000003
 30
0.0
  0
VERTEX
  5
18BB
  8
SAPA_PROFIL
 10
38.098969567200001
 20
166.2000000000003
 30
0.0
  0
VERTEX
  5
18BC
  8
SAPA_PROFIL
 10
36.598969567200001
 20
167.7000000000003
 30
0.0
  0
VERTEX
  5
18BD
  8
SAPA_PROFIL
 10
35.098969567200001
 20
166.2000000000003
 30
0.0
  0
VERTEX
  5
18BE
  8
SAPA_PROFIL
 10
31.500000567200011
 20
166.2000000000003
 30
0.0
 42
-0.4142140000000165
  0
VERTEX
  5
18BF
  8
SAPA_PROFIL
 10
31.000000567200011
 20
166.7000000000003
 30
0.0
  0
VERTEX
  5
18C0
  8
SAPA_PROFIL
 10
31.000000567200011
 20
168.2031420000003
 30
0.0
 42
0.4142140000000145
  0
VERTEX
  5
18C1
  8
SAPA_PROFIL
 10
30.000000567200011
 20
169.2031420000003
 30
0.0
  0
VERTEX
  5
18C2
  8
SAPA_PROFIL
 10
29.000000567199979
 20
169.2031420000003
 30
0.0
  0
VERTEX
  5
18C3
  8
SAPA_PROFIL
 10
27.055005143511611
 20
161.94432286807771
 30
0.0
 42
-0.3394542338034085
  0
VERTEX
  5
18C4
  8
SAPA_PROFIL
 10
26.089079340485899
 20
161.2031420000003
 30
0.0
  0
VERTEX
  5
18C5
  8
SAPA_PROFIL
 10
7.1109206595143064
 20
161.2031420000003
 30
0.0
 42
-0.3394542744563553
  0
VERTEX
  5
18C6
  8
SAPA_PROFIL
 10
6.1449948187500922
 20
161.94432300891961
 30
0.0
  0
VERTEX
  5
18C7
  8
SAPA_PROFIL
 10
4.2000005671999361
 20
169.2031420000003
 30
0.0
  0
VERTEX
  5
18C8
  8
SAPA_PROFIL
 10
3.2000005671999361
 20
169.2031420000003
 30
0.0
 42
0.4142139999999982
  0
VERTEX
  5
18C9
  8
SAPA_PROFIL
 10
2.2000005672000489
 20
168.2031420000003
 30
0.0
  0
VERTEX
  5
18CA
  8
SAPA_PROFIL
 10
2.2000005671999361
 20
166.7127360000004
 30
0.0
 42
-0.4142140000000124
  0
VERTEX
  5
18CB
  8
SAPA_PROFIL
 10
1.7000005671999641
 20
166.21273600000029
 30
0.0
  0
VERTEX
  5
18CC
  8
SAPA_PROFIL
 10
-1.8999994327999721
 20
166.21273600000029
 30
0.0
  0
VERTEX
  5
18CD
  8
SAPA_PROFIL
 10
-3.3999994327999721
 20
167.7127360000004
 30
0.0
  0
VERTEX
  5
18CE
  8
SAPA_PROFIL
 10
-4.8999994327999721
 20
166.21273600000029
 30
0.0
  0
VERTEX
  5
18CF
  8
SAPA_PROFIL
 10
-8.1499994328000298
 20
166.21273600000029
 30
0.0
  0
VERTEX
  5
18D0
  8
SAPA_PROFIL
 10
-8.1499994328000298
 20
158.20018194300201
 30
0.0
 42
0.3780475071674513
  0
VERTEX
  5
18D1
  8
SAPA_PROFIL
 10
-5.5241344202833602
 20
155.223602864405
 30
0.0
  0
VERTEX
  5
18D2
  8
SAPA_PROFIL
 10
-2.6332528742048278
 20
154.86023945207859
 30
0.0
 42
0.4247728136669583
  0
VERTEX
  5
18D3
  8
SAPA_PROFIL
 10
-1.4994534328000091
 20
155.74698300000031
 30
0.0
  0
VERTEX
  5
18D4
  8
SAPA_PROFIL
 10
-2.7494534328000659
 20
155.74698300000031
 30
0.0
  0
VERTEX
  5
18D5
  8
SAPA_PROFIL
 10
-2.7494534328000659
 20
156.84698300000031
 30
0.0
  0
VERTEX
  5
18D6
  8
SAPA_PROFIL
 10
2.4505465672000071
 20
156.84698300000031
 30
0.0
  0
VERTEX
  5
18D7
  8
SAPA_PROFIL
 10
2.4505465672000071
 20
155.74698300000031
 30
0.0
  0
VERTEX
  5
18D8
  8
SAPA_PROFIL
 10
1.2005465672000071
 20
155.74698300000031
 30
0.0
  0
VERTEX
  5
18D9
  8
SAPA_PROFIL
 10
1.2005465672000071
 20
155.3734608566476
 30
0.0
 42
0.3760477967976817
  0
VERTEX
  5
18DA
  8
SAPA_PROFIL
 10
2.068889466739364
 20
154.382165538441
 30
0.0
  0
SEQEND
  5
18DB
  8
SAPA_PROFIL
  0
POLYLINE
  5
1369
  8
SAPA_PROFIL
 66
     1
 10
0.0
 20
0.0
 30
0.0
 70
     1
  0
VERTEX
  5
18DC
  8
SAPA_PROFIL
 10
29.76862563141643
 20
148.19873547496479
 30
0.0
 42
0.4557262555325856
  0
VERTEX
  5
18DD
  8
SAPA_PROFIL
 10
29.199039600575361
 20
147.70360189230919
 30
0.0
  0
VERTEX
  5
18DE
  8
SAPA_PROFIL
 10
29.199039600575361
 20
146.1968580000003
 30
0.0
  0
VERTEX
  5
18DF
  8
SAPA_PROFIL
 10
27.699039600575361
 20
146.1968580000003
 30
0.0
  0
VERTEX
  5
18E0
  8
SAPA_PROFIL
 10
27.699039600575361
 20
145.1968580000003
 30
0.0
  0
VERTEX
  5
18E1
  8
SAPA_PROFIL
 10
17.466571004359679
 20
145.1968580000003
 30
0.0
  0
VERTEX
  5
18E2
  8
SAPA_PROFIL
 10
16.600545600575259
 20
144.69685800000019
 30
0.0
  0
VERTEX
  5
18E3
  8
SAPA_PROFIL
 10
15.734520196790889
 20
145.1968580000003
 30
0.0
  0
VERTEX
  5
18E4
  8
SAPA_PROFIL
 10
5.5020516005751849
 20
145.1968580000003
 30
0.0
  0
VERTEX
  5
18E5
  8
SAPA_PROFIL
 10
5.5020516005751849
 20
146.1968580000003
 30
0.0
  0
VERTEX
  5
18E6
  8
SAPA_PROFIL
 10
4.0020516005751707
 20
146.1968580000003
 30
0.0
  0
VERTEX
  5
18E7
  8
SAPA_PROFIL
 10
4.0020516005751707
 20
148.1968580000003
 30
0.0
  0
VERTEX
  5
18E8
  8
SAPA_PROFIL
 10
-1.83189634525182
 20
149.22554042689831
 30
0.0
 42
0.4142135623730531
  0
VERTEX
  5
18E9
  8
SAPA_PROFIL
 10
-2.4111243105913038
 20
148.81996063922571
 30
0.0
  0
VERTEX
  5
18EA
  8
SAPA_PROFIL
 10
-2.4979483994248279
 20
148.3275567627195
 30
0.0
  0
VERTEX
  5
18EB
  8
SAPA_PROFIL
 10
-1.808582972316187
 20
148.2060030383528
 30
0.0
 42
-0.6705660098148247
  0
VERTEX
  5
18EC
  8
SAPA_PROFIL
 10
-1.690228838437889
 20
147.6636856850993
 30
0.0
  0
VERTEX
  5
18ED
  8
SAPA_PROFIL
 10
-4.0770772472487664
 20
146.01574687387819
 30
0.0
 42
-0.4103557430781616
  0
VERTEX
  5
18EE
  8
SAPA_PROFIL
 10
-4.7591614824142141
 20
146.13601672765381
 30
0.0
  0
VERTEX
  5
18EF
  8
SAPA_PROFIL
 10
-6.4384370507025324
 20
148.50092290294319
 30
0.0
 42
-0.6705660098148535
  0
VERTEX
  5
18F0
  8
SAPA_PROFIL
 10
-6.1417370855698863
 20
148.9700550200871
 30
0.0
  0
VERTEX
  5
18F1
  8
SAPA_PROFIL
 10
-5.452371658461387
 20
148.8485012957203
 30
0.0
  0
VERTEX
  5
18F2
  8
SAPA_PROFIL
 10
-5.3655475696279211
 20
149.3409051722264
 30
0.0
 42
0.4142135623731039
  0
VERTEX
  5
18F3
  8
SAPA_PROFIL
 10
-5.7711273573005712
 20
149.9201331375659
 30
0.0
  0
VERTEX
  5
18F4
  8
SAPA_PROFIL
 10
-6.2068184156105133
 20
149.9969572263995
 30
0.0
  0
VERTEX
  5
18F5
  8
SAPA_PROFIL
 10
-7.7933023945696496
 20
149.99428663868369
 30
0.0
 42
-0.4147066859862996
  0
VERTEX
  5
18F6
  8
SAPA_PROFIL
 10
-10.79835239942471
 20
152.99428238825581
 30
0.0
  0
VERTEX
  5
18F7
  8
SAPA_PROFIL
 10
-10.79835239942471
 20
160.7009110000003
 30
0.0
 42
0.6638253569871671
  0
VERTEX
  5
18F8
  8
SAPA_PROFIL
 10
-11.6775385923593
 20
161.05888480698729
 30
0.0
  0
VERTEX
  5
18F9
  8
SAPA_PROFIL
 10
-13.65657679001802
 20
159.0798466093288
 30
0.0
 42
0.1989123673796449
  0
VERTEX
  5
18FA
  8
SAPA_PROFIL
 10
-13.80302339942469
 20
158.72629321873549
 30
0.0
  0
VERTEX
  5
18FB
  8
SAPA_PROFIL
 10
-13.80302339942469
 20
146.9080182443353
 30
0.0
 42
0.1989123673796422
  0
VERTEX
  5
18FC
  8
SAPA_PROFIL
 10
-13.65657679001799
 20
146.55446485374199
 30
0.0
  0
VERTEX
  5
18FD
  8
SAPA_PROFIL
 10
-8.2958300088314161
 20
141.19371807255541
 30
0.0
 42
-0.1989123673796659
  0
VERTEX
  5
18FE
  8
SAPA_PROFIL
 10
-8.1493833994246927
 20
140.84016468196219
 30
0.0
  0
VERTEX
  5
18FF
  8
SAPA_PROFIL
 10
-8.1493833994246927
 20
136.2000000000003
 30
0.0
  0
VERTEX
  5
1900
  8
SAPA_PROFIL
 10
-4.8993833994246918
 20
136.2000000000003
 30
0.0
  0
VERTEX
  5
1901
  8
SAPA_PROFIL
 10
-3.3993833994246918
 20
134.7000000000003
 30
0.0
  0
VERTEX
  5
1902
  8
SAPA_PROFIL
 10
-1.899383399424692
 20
136.2000000000003
 30
0.0
  0
VERTEX
  5
1903
  8
SAPA_PROFIL
 10
1.6995856005753041
 20
136.2000000000003
 30
0.0
 42
-0.4142140000000165
  0
VERTEX
  5
1904
  8
SAPA_PROFIL
 10
2.1995856005753041
 20
135.7000000000003
 30
0.0
  0
VERTEX
  5
1905
  8
SAPA_PROFIL
 10
2.1995856005753041
 20
134.1968580000003
 30
0.0
 42
0.4142140000000145
  0
VERTEX
  5
1906
  8
SAPA_PROFIL
 10
3.1995856005753041
 20
133.19685800000019
 30
0.0
  0
VERTEX
  5
1907
  8
SAPA_PROFIL
 10
4.1995856005753316
 20
133.1968580000003
 30
0.0
  0
VERTEX
  5
1908
  8
SAPA_PROFIL
 10
6.1445810242637
 20
140.45567713192281
 30
0.0
 42
-0.3394542338034085
  0
VERTEX
  5
1909
  8
SAPA_PROFIL
 10
7.1105068272894121
 20
141.1968580000003
 30
0.0
  0
VERTEX
  5
190A
  8
SAPA_PROFIL
 10
26.088665508260991
 20
141.1968580000003
 30
0.0
 42
-0.3394542744563553
  0
VERTEX
  5
190B
  8
SAPA_PROFIL
 10
27.054591349025198
 20
140.45567699108099
 30
0.0
  0
VERTEX
  5
190C
  8
SAPA_PROFIL
 10
28.999585600575362
 20
133.19685800000019
 30
0.0
  0
VERTEX
  5
190D
  8
SAPA_PROFIL
 10
29.999585600575362
 20
133.19685800000019
 30
0.0
 42
0.4142139999999982
  0
VERTEX
  5
190E
  8
SAPA_PROFIL
 10
30.999585600575251
 20
134.19685800000019
 30
0.0
  0
VERTEX
  5
190F
  8
SAPA_PROFIL
 10
30.999585600575362
 20
135.6872640000002
 30
0.0
 42
-0.4142140000000124
  0
VERTEX
  5
1910
  8
SAPA_PROFIL
 10
31.49958560057533
 20
136.1872640000002
 30
0.0
  0
VERTEX
  5
1911
  8
SAPA_PROFIL
 10
35.099585600575267
 20
136.1872640000002
 30
0.0
  0
VERTEX
  5
1912
  8
SAPA_PROFIL
 10
36.599585600575267
 20
134.6872640000002
 30
0.0
  0
VERTEX
  5
1913
  8
SAPA_PROFIL
 10
38.099585600575267
 20
136.1872640000002
 30
0.0
  0
VERTEX
  5
1914
  8
SAPA_PROFIL
 10
41.349585600575317
 20
136.1872640000002
 30
0.0
  0
VERTEX
  5
1915
  8
SAPA_PROFIL
 10
41.349585600575317
 20
144.19981805699859
 30
0.0
 42
0.3780475071674513
  0
VERTEX
  5
1916
  8
SAPA_PROFIL
 10
38.723720588058647
 20
147.17639713559561
 30
0.0
  0
VERTEX
  5
1917
  8
SAPA_PROFIL
 10
35.832839041980122
 20
147.5397605479219
 30
0.0
 42
0.4247728136669583
  0
VERTEX
  5
1918
  8
SAPA_PROFIL
 10
34.699039600575311
 20
146.65301700000029
 30
0.0
  0
VERTEX
  5
1919
  8
SAPA_PROFIL
 10
35.949039600575361
 20
146.65301700000029
 30
0.0
  0
VERTEX
  5
191A
  8
SAPA_PROFIL
 10
35.949039600575361
 20
145.55301700000021
 30
0.0
  0
VERTEX
  5
191B
  8
SAPA_PROFIL
 10
30.749039600575291
 20
145.55301700000021
 30
0.0
  0
VERTEX
  5
191C
  8
SAPA_PROFIL
 10
30.749039600575291
 20
146.65301700000029
 30
0.0
  0
VERTEX
  5
191D
  8
SAPA_PROFIL
 10
31.999039600575291
 20
146.65301700000029
 30
0.0
  0
VERTEX
  5
191E
  8
SAPA_PROFIL
 10
31.999039600575291
 20
147.02653914335301
 30
0.0
 42
0.3760477967976817
  0
VERTEX
  5
191F
  8
SAPA_PROFIL
 10
31.13069670103593
 20
148.0178344615596
 30
0.0
  0
SEQEND
  5
1920
  8
SAPA_PROFIL
  0
LINE
  5
1377
  8
SAPA_GLAS
 10
10.04031575879617
 20
23.182119086132801
 30
0.0
 11
22.040315758796179
 21
23.182119086132818
 31
0.0
  0
LINE
  5
1378
  8
SAPA_GLAS
 10
10.04031575879619
 20
3.1821190861328068
 30
0.0
 11
10.04031575879617
 21
33.182119086132801
 31
0.0
  0
LINE
  5
1379
  8
SAPA_GLAS
 10
31.54031575879619
 20
3.1821190861328068
 30
0.0
 11
31.540315758796169
 21
33.182119086132822
 31
0.0
  0
LINE
  5
137A
  8
SAPA_GLAS
 10
27.54031575879619
 20
3.1821190861328001
 30
0.0
 11
27.540315758796169
 21
33.182119086132822
 31
0.0
  0
LINE
  5
137B
  8
SAPA_GLAS
 10
26.04031575879619
 20
3.1821190861328001
 30
0.0
 11
26.040315758796169
 21
33.182119086132808
 31
0.0
  0
LINE
  5
137C
  8
SAPA_GLAS
 10
22.04031575879619
 20
3.182119086132793
 30
0.0
 11
22.040315758796169
 21
33.182119086132808
 31
0.0
  0
LINE
  5
137D
  8
SAPA_GLAS
 10
4.0474123112666396
 20
33.182119086132801
 30
0.0
 11
31.57245546136625
 21
33.182119086132793
 31
0.0
  0
LINE
  5
137E
  8
SAPA_GLAS
 10
4.0403157587961971
 20
33.182119086132801
 30
0.0
 11
4.0403157587961891
 21
3.1821190861328068
 31
0.0
  0
LINE
  5
137F
  8
SAPA_GLAS
 10
27.637887634433358
 20
33.182119086132793
 30
0.0
 11
31.57245546136625
 21
33.182119086132793
 31
0.0
  0
POLYLINE
  5
138C
  8
SAPA_FOGBAND
 66
     1
 10
0.0
 20
0.0
 30
0.0
  0
VERTEX
  5
19DF
  8
SAPA_FOGBAND
 10
-1.4608797622273719
 20
27.702019413292529
 30
0.0
  0
VERTEX
  5
19E0
  8
SAPA_FOGBAND
 10
-1.4708115525405461
 20
27.702019413292529
 30
0.0
 42
0.4142135623730951
  0
VERTEX
  5
19E1
  8
SAPA_FOGBAND
 10
-2.4708115525405461
 20
26.702019413292529
 30
0.0
  0
VERTEX
  5
19E2
  8
SAPA_FOGBAND
 10
-2.4708115525405461
 20
25.502019413292579
 30
0.0
 42
-0.4142135623730951
  0
VERTEX
  5
19E3
  8
SAPA_FOGBAND
 10
-2.770811552540557
 20
25.202019413292561
 30
0.0
  0
VERTEX
  5
19E4
  8
SAPA_FOGBAND
 10
-3.6708115525405351
 20
25.202019413292561
 30
0.0
  0
VERTEX
  5
19E5
  8
SAPA_FOGBAND
 10
-3.6708115525405351
 20
25.552019413292641
 30
0.0
 42
0.6681786379192988
  0
VERTEX
  5
19E6
  8
SAPA_FOGBAND
 10
-4.1829435868965064
 20
25.764151447648601
 30
0.0
  0
VERTEX
  5
19E7
  8
SAPA_FOGBAND
 10
-5.0364969774897821
 20
24.910598057055321
 30
0.0
 42
0.1989123673796552
  0
VERTEX
  5
19E8
  8
SAPA_FOGBAND
 10
-5.2708115525405574
 20
24.344912632106091
 30
0.0
  0
VERTEX
  5
19E9
  8
SAPA_FOGBAND
 10
-5.2708115525405574
 20
24.18221750968624
 30
0.0
 42
0.3394542588633746
  0
VERTEX
  5
19EA
  8
SAPA_FOGBAND
 10
-5.0484572660713019
 20
23.892439761799519
 30
0.0
  0
VERTEX
  5
19EB
  8
SAPA_FOGBAND
 10
-3.6931658390097719
 20
23.529290518409571
 30
0.0
 42
-0.3394542588633744
  0
VERTEX
  5
19EC
  8
SAPA_FOGBAND
 10
-3.4708115525405461
 20
23.23951277052285
 30
0.0
  0
VERTEX
  5
19ED
  8
SAPA_FOGBAND
 10
-3.4708115525405461
 20
20.6645260560623
 30
0.0
 42
-0.3394542588633746
  0
VERTEX
  5
19EE
  8
SAPA_FOGBAND
 10
-3.6931658390097999
 20
20.37474830817558
 30
0.0
  0
VERTEX
  5
19EF
  8
SAPA_FOGBAND
 10
-5.0484572660713019
 20
20.011599064785631
 30
0.0
 42
0.3394542588633747
  0
VERTEX
  5
19F0
  8
SAPA_FOGBAND
 10
-5.2708115525405574
 20
19.721821316898911
 30
0.0
  0
VERTEX
  5
19F1
  8
SAPA_FOGBAND
 10
-5.2708115525405574
 20
19.55912619447906
 30
0.0
 42
0.1989123673796552
  0
VERTEX
  5
19F2
  8
SAPA_FOGBAND
 10
-5.0364969774897821
 20
18.993440769529819
 30
0.0
  0
VERTEX
  5
19F3
  8
SAPA_FOGBAND
 10
-4.1829435868965064
 20
18.13988737893655
 30
0.0
 42
0.6681786379192989
  0
VERTEX
  5
19F4
  8
SAPA_FOGBAND
 10
-3.6708115525405338
 20
18.35201941329251
 30
0.0
  0
VERTEX
  5
19F5
  8
SAPA_FOGBAND
 10
-3.6708115525405338
 20
18.702019413292561
 30
0.0
  0
VERTEX
  5
19F6
  8
SAPA_FOGBAND
 10
-2.7708115525405561
 20
18.702019413292561
 30
0.0
 42
-0.4142135623730951
  0
VERTEX
  5
19F7
  8
SAPA_FOGBAND
 10
-2.4708115525405452
 20
18.40201941329255
 30
0.0
  0
VERTEX
  5
19F8
  8
SAPA_FOGBAND
 10
-2.4708115525405452
 20
16.302019413292552
 30
0.0
 42
-0.4142135623730951
  0
VERTEX
  5
19F9
  8
SAPA_FOGBAND
 10
-2.7708115525405561
 20
16.00201941329254
 30
0.0
  0
VERTEX
  5
19FA
  8
SAPA_FOGBAND
 10
-4.1708115525405622
 20
16.002019413292601
 30
0.0
 42
0.7754026414785753
  0
VERTEX
  5
19FB
  8
SAPA_FOGBAND
 10
-4.315519420846476
 20
15.43922741788486
 30
0.0
 42
-0.110934821664006
  0
VERTEX
  5
19FC
  8
SAPA_FOGBAND
 10
3.5850851340709311
 20
11.639371285985961
 30
0.0
 42
0.8680589103335039
  0
VERTEX
  5
19FD
  8
SAPA_FOGBAND
 10
3.9419250367327781
 20
12.11429531574964
 30
0.0
  0
VERTEX
  5
19FE
  8
SAPA_FOGBAND
 10
0.32208166627293
 20
15.734138686209491
 30
0.0
 42
-0.1989123673796558
  0
VERTEX
  5
19FF
  8
SAPA_FOGBAND
 10
0.0291884474594548
 20
16.44124546739604
 30
0.0
  0
VERTEX
  5
1A00
  8
SAPA_FOGBAND
 10
0.0291884474594539
 20
19.274564431815801
 30
0.0
 42
-0.5773502691896282
  0
VERTEX
  5
1A01
  8
SAPA_FOGBAND
 10
0.4791884474594426
 20
19.53437205295111
 30
0.0
  0
VERTEX
  5
1A02
  8
SAPA_FOGBAND
 10
3.575985600129818
 20
17.746435383231209
 30
0.0
 42
0.8769764629927598
  0
VERTEX
  5
1A03
  8
SAPA_FOGBAND
 10
3.938117634485784
 20
18.21837503872251
 30
0.0
  0
VERTEX
  5
1A04
  8
SAPA_FOGBAND
 10
0.3220816662729007
 20
21.834411006935401
 30
0.0
 42
-0.198912367379658
  0
VERTEX
  5
1A05
  8
SAPA_FOGBAND
 10
0.0291884474594539
 20
22.541517788121951
 30
0.0
  0
VERTEX
  5
1A06
  8
SAPA_FOGBAND
 10
0.0291884474594539
 20
24.77379215034356
 30
0.0
 42
-0.5773502691896282
  0
VERTEX
  5
1A07
  8
SAPA_FOGBAND
 10
0.4791884474594426
 20
25.033599771478858
 30
0.0
  0
VERTEX
  5
1A08
  8
SAPA_FOGBAND
 10
3.5751168469494341
 20
23.246164676641541
 30
0.0
 42
0.8769764629927598
  0
VERTEX
  5
1A09
  8
SAPA_FOGBAND
 10
3.9372488813054001
 20
23.718104332132839
 30
0.0
  0
VERTEX
  5
1A0A
  8
SAPA_FOGBAND
 10
0.2462270189591811
 20
27.409126194479089
 30
0.0
 42
0.1989123673796591
  0
VERTEX
  5
1A0B
  8
SAPA_FOGBAND
 10
-0.4608797622273722
 20
27.702019413292529
 30
0.0
  0
VERTEX
  5
1A0C
  8
SAPA_FOGBAND
 10
-1.4708115525405461
 20
27.702019413292529
 30
0.0
  0
SEQEND
  5
1A0D
  8
SAPA_FOGBAND
  0
POLYLINE
  5
138D
  8
SAPA_FOGBAND
 62
     2
 66
     1
 10
0.0
 20
0.0
 30
0.0
  0
VERTEX
  5
1A0E
  8
SAPA_FOGBAND
 62
     2
 10
-4.309455648071487
 20
154.30955606588299
 30
0.0
 42
0.1803090304626144
  0
VERTEX
  5
1A0F
  8
SAPA_FOGBAND
 62
     2
 10
-6.1498673248852311
 20
155.69755369024199
 30
0.0
  0
VERTEX
  5
1A10
  8
SAPA_FOGBAND
 62
     2
 10
-8.6152265308110092
 20
156.4315975790401
 30
0.0
 42
-0.3317810211360308
  0
VERTEX
  5
1A11
  8
SAPA_FOGBAND
 62
     2
 10
-9.3298636479702814
 20
157.39001712448811
 30
0.0
  0
VERTEX
  5
1A12
  8
SAPA_FOGBAND
 62
     2
 10
-9.3298636479703951
 20
158.6237442830878
 30
0.0
 42
0.2679491924312111
  0
VERTEX
  5
1A13
  8
SAPA_FOGBAND
 62
     2
 10
-9.4798636479704861
 20
158.8835519042205
 30
0.0
  0
VERTEX
  5
1A14
  8
SAPA_FOGBAND
 62
     2
 10
-10.38305179084403
 20
159.4050078216367
 30
0.0
 42
0.5773502691894719
  0
VERTEX
  5
1A15
  8
SAPA_FOGBAND
 62
     2
 10
-10.83305179084385
 20
159.14520020050131
 30
0.0
  0
VERTEX
  5
1A16
  8
SAPA_FOGBAND
 62
     2
 10
-10.83305179084396
 20
153.14335943644781
 30
0.0
 42
0.4147066859862881
  0
VERTEX
  5
1A17
  8
SAPA_FOGBAND
 62
     2
 10
-7.8280017859889837
 20
150.1433636868758
 30
0.0
  0
VERTEX
  5
1A18
  8
SAPA_FOGBAND
 62
     2
 10
-5.6460105883750726
 20
150.14703671412681
 30
0.0
 42
-0.4565417232955612
  0
VERTEX
  5
1A19
  8
SAPA_FOGBAND
 62
     2
 10
-5.2962084823341762
 20
149.76398008790491
 30
0.0
  0
VERTEX
  5
1A1A
  8
SAPA_FOGBAND
 62
     2
 10
-5.4743378158451002
 20
148.75375843722361
 30
0.0
  0
VERTEX
  5
1A1B
  8
SAPA_FOGBAND
 62
     2
 10
-5.8682609170500051
 20
148.8232177082904
 30
0.0
 42
0.6720594905598717
  0
VERTEX
  5
1A1C
  8
SAPA_FOGBAND
 62
     2
 10
-6.0655826679285907
 20
148.50979241213781
 30
0.0
  0
VERTEX
  5
1A1D
  8
SAPA_FOGBAND
 62
     2
 10
-4.7453747988628221
 20
146.66668330455451
 30
0.0
 42
0.4079520108343612
  0
VERTEX
  5
1A1E
  8
SAPA_FOGBAND
 62
     2
 10
-3.9187374606996128
 20
146.52092483857521
 30
0.0
  0
VERTEX
  5
1A1F
  8
SAPA_FOGBAND
 62
     2
 10
-2.0477674270944659
 20
147.80134318167711
 30
0.0
 42
0.6720594905598635
  0
VERTEX
  5
1A20
  8
SAPA_FOGBAND
 62
     2
 10
-2.1259914556036348
 20
148.16335463315619
 30
0.0
  0
VERTEX
  5
1A21
  8
SAPA_FOGBAND
 62
     2
 10
-2.5199145568084829
 20
148.23281390422289
 30
0.0
  0
VERTEX
  5
1A22
  8
SAPA_FOGBAND
 62
     2
 10
-2.3636311969082691
 20
149.1191408819339
 30
0.0
 42
-0.4142135623730951
  0
VERTEX
  5
1A23
  8
SAPA_FOGBAND
 62
     2
 10
-2.0160944177045468
 20
149.36248875453751
 30
0.0
  0
VERTEX
  5
1A24
  8
SAPA_FOGBAND
 62
     2
 10
-0.6177483570809806
 20
149.15441198728141
 30
0.0
 42
0.4313344489874135
  0
VERTEX
  5
1A25
  8
SAPA_FOGBAND
 62
     2
 10
-0.2676851511726532
 20
149.41500287893771
 30
0.0
  0
VERTEX
  5
1A26
  8
SAPA_FOGBAND
 62
     2
 10
-0.1848762991112911
 20
150.12299240322821
 30
0.0
 42
0.3972974670000809
  0
VERTEX
  5
1A27
  8
SAPA_FOGBAND
 62
     2
 10
-0.5946667979581511
 20
150.67348200347999
 30
0.0
  0
VERTEX
  5
1A28
  8
SAPA_FOGBAND
 62
     2
 10
-6.095127103493776
 20
151.64336156166181
 30
0.0
  0
VERTEX
  5
1A29
  8
SAPA_FOGBAND
 62
     2
 10
-7.8305267884164174
 20
151.64336156166181
 30
0.0
 42
-0.4147066859863004
  0
VERTEX
  5
1A2A
  8
SAPA_FOGBAND
 62
     2
 10
-9.3330517908439639
 20
153.14335943644781
 30
0.0
  0
VERTEX
  5
1A2B
  8
SAPA_FOGBAND
 62
     2
 10
-9.3330517908438502
 20
155.3458860260339
 30
0.0
 42
-0.601131774324047
  0
VERTEX
  5
1A2C
  8
SAPA_FOGBAND
 62
     2
 10
-8.4134728382667241
 20
155.27798334846989
 30
0.0
 42
0.2227389711612139
  0
VERTEX
  5
1A2D
  8
SAPA_FOGBAND
 62
     2
 10
-8.2856036690479264
 20
155.16631050934231
 30
0.0
  0
VERTEX
  5
1A2E
  8
SAPA_FOGBAND
 62
     2
 10
-6.4637664960100061
 20
154.6432921902491
 30
0.0
 42
-0.1796843201953831
  0
VERTEX
  5
1A2F
  8
SAPA_FOGBAND
 62
     2
 10
-5.2396946306682777
 20
153.72244622306161
 30
0.0
 42
1.0
  0
VERTEX
  5
1A30
  8
SAPA_FOGBAND
 62
     2
 10
-4.3137595268726692
 20
154.31628473946051
 30
0.0
  0
SEQEND
  5
1A31
  8
SAPA_FOGBAND
 62
     2
  0
INSERT
  5
138E
  8
SAPA_FOGBAND
  6
CONTINUOUS
 62
     2
  2
*U64
 10
0.0
 20
0.0
 30
0.0
1001
ACAD
1002
{
1000
R14_HATCH_DATA
1000
138E
1011
1.0
1021
0.0
1031
0.0
1021
0.0
1031
0.0
1011
0.0
1021
0.0
1031
0.0
1021
1.0
1031
0.0
1011
0.0
1021
0.0
1031
0.0
1021
0.0
1031
1.0
1040
0.0
1010
0.0
1020
0.0
1030
1.0
1000
SOLID
1070
     1
1070
     0
1071
        1
1071
        1
1071
        1
1070
     2
1040
-6.5109449858177832
1040
150.93535415266911
1040
0.2549509756796394
1040
1.5707963267948959
1040
7.8539816339744819
1070
     1
1071
        0
1070
     0
1070
     1
1071
        1
1040
2.469774194703465
1040
143.8255060126838
1040
0.0
1002
}
  0
POLYLINE
  5
138F
  8
SAPA_FOGBAND
 62
     2
 66
     1
 10
0.0
 20
0.0
 30
0.0
 70
     1
  0
VERTEX
  5
1A43
  8
SAPA_FOGBAND
 62
     2
 10
-3.3484389499204741
 20
149.29278905960081
 30
0.0
 42
1.0
  0
VERTEX
  5
1A44
  8
SAPA_FOGBAND
 62
     2
 10
-4.3332467029326791
 20
149.4664372372678
 30
0.0
  0
VERTEX
  5
1A45
  8
SAPA_FOGBAND
 62
     2
 10
-4.5937189694330938
 20
147.98922560774949
 30
0.0
 42
0.9999999999999998
  0
VERTEX
  5
1A46
  8
SAPA_FOGBAND
 62
     2
 10
-3.6089112164208892
 20
147.8155774300825
 30
0.0
  0
SEQEND
  5
1A47
  8
SAPA_FOGBAND
 62
     2
  0
POLYLINE
  5
1390
  8
SAPA_FOGBAND
 62
     2
 66
     1
 10
0.0
 20
0.0
 30
0.0
  0
VERTEX
  5
1A48
  8
SAPA_FOGBAND
 62
     2
 10
37.51054684922201
 20
148.13910359041
 30
0.0
 42
0.1803090304626144
  0
VERTEX
  5
1A49
  8
SAPA_FOGBAND
 62
     2
 10
39.350958526035747
 20
146.75110596605089
 30
0.0
  0
VERTEX
  5
1A4A
  8
SAPA_FOGBAND
 62
     2
 10
41.816317731961519
 20
146.01706207725289
 30
0.0
 42
-0.3317810211360308
  0
VERTEX
  5
1A4B
  8
SAPA_FOGBAND
 62
     2
 10
42.530954849120789
 20
145.05864253180479
 30
0.0
  0
VERTEX
  5
1A4C
  8
SAPA_FOGBAND
 62
     2
 10
42.530954849120903
 20
143.82491537320519
 30
0.0
 42
0.2679491924312111
  0
VERTEX
  5
1A4D
  8
SAPA_FOGBAND
 62
     2
 10
42.680954849121001
 20
143.56510775207249
 30
0.0
  0
VERTEX
  5
1A4E
  8
SAPA_FOGBAND
 62
     2
 10
43.584142991994547
 20
143.0436518346562
 30
0.0
 42
0.5773502691894719
  0
VERTEX
  5
1A4F
  8
SAPA_FOGBAND
 62
     2
 10
44.034142991994358
 20
143.30345945579171
 30
0.0
  0
VERTEX
  5
1A50
  8
SAPA_FOGBAND
 62
     2
 10
44.034142991994479
 20
149.30530021984509
 30
0.0
 42
0.4147066859862881
  0
VERTEX
  5
1A51
  8
SAPA_FOGBAND
 62
     2
 10
41.029092987139492
 20
152.3052959694171
 30
0.0
  0
VERTEX
  5
1A52
  8
SAPA_FOGBAND
 62
     2
 10
38.847101789525588
 20
152.30162294216609
 30
0.0
 42
-0.4565417232955612
  0
VERTEX
  5
1A53
  8
SAPA_FOGBAND
 62
     2
 10
38.497299683484691
 20
152.68467956838799
 30
0.0
  0
VERTEX
  5
1A54
  8
SAPA_FOGBAND
 62
     2
 10
38.675429016995608
 20
153.69490121906929
 30
0.0
  0
VERTEX
  5
1A55
  8
SAPA_FOGBAND
 62
     2
 10
39.06935211820052
 20
153.6254419480025
 30
0.0
 42
0.6720594905598717
  0
VERTEX
  5
1A56
  8
SAPA_FOGBAND
 62
     2
 10
39.266673869079114
 20
153.93886724415509
 30
0.0
  0
VERTEX
  5
1A57
  8
SAPA_FOGBAND
 62
     2
 10
37.946466000013338
 20
155.78197635173839
 30
0.0
 42
0.4079520108343612
  0
VERTEX
  5
1A58
  8
SAPA_FOGBAND
 62
     2
 10
37.119828661850129
 20
155.92773481771769
 30
0.0
  0
VERTEX
  5
1A59
  8
SAPA_FOGBAND
 62
     2
 10
35.248858628244982
 20
154.64731647461579
 30
0.0
 42
0.6720594905598635
  0
VERTEX
  5
1A5A
  8
SAPA_FOGBAND
 62
     2
 10
35.32708265675415
 20
154.2853050231368
 30
0.0
  0
VERTEX
  5
1A5B
  8
SAPA_FOGBAND
 62
     2
 10
35.721005757958999
 20
154.21584575207001
 30
0.0
  0
VERTEX
  5
1A5C
  8
SAPA_FOGBAND
 62
     2
 10
35.564722398058791
 20
153.32951877435909
 30
0.0
 42
-0.4142135623730951
  0
VERTEX
  5
1A5D
  8
SAPA_FOGBAND
 62
     2
 10
35.217185618855062
 20
153.08617090175539
 30
0.0
  0
VERTEX
  5
1A5E
  8
SAPA_FOGBAND
 62
     2
 10
33.818839558231502
 20
153.2942476690115
 30
0.0
 42
0.4313344489874135
  0
VERTEX
  5
1A5F
  8
SAPA_FOGBAND
 62
     2
 10
33.468776352323168
 20
153.03365677735519
 30
0.0
  0
VERTEX
  5
1A60
  8
SAPA_FOGBAND
 62
     2
 10
33.385967500261813
 20
152.32566725306469
 30
0.0
 42
0.3972974670000809
  0
VERTEX
  5
1A61
  8
SAPA_FOGBAND
 62
     2
 10
33.795757999108673
 20
151.77517765281291
 30
0.0
  0
VERTEX
  5
1A62
  8
SAPA_FOGBAND
 62
     2
 10
39.296218304644292
 20
150.8052980946311
 30
0.0
  0
VERTEX
  5
1A63
  8
SAPA_FOGBAND
 62
     2
 10
41.031617989566932
 20
150.8052980946311
 30
0.0
 42
-0.4147066859863004
  0
VERTEX
  5
1A64
  8
SAPA_FOGBAND
 62
     2
 10
42.534142991994472
 20
149.30530021984509
 30
0.0
  0
VERTEX
  5
1A65
  8
SAPA_FOGBAND
 62
     2
 10
42.534142991994372
 20
147.10277363025901
 30
0.0
 42
-0.601131774324047
  0
VERTEX
  5
1A66
  8
SAPA_FOGBAND
 62
     2
 10
41.614564039417232
 20
147.17067630782299
 30
0.0
 42
0.2227389711612139
  0
VERTEX
  5
1A67
  8
SAPA_FOGBAND
 62
     2
 10
41.486694870198427
 20
147.28234914695071
 30
0.0
  0
VERTEX
  5
1A68
  8
SAPA_FOGBAND
 62
     2
 10
39.664857697160521
 20
147.8053674660438
 30
0.0
 42
-0.1796843201953831
  0
VERTEX
  5
1A69
  8
SAPA_FOGBAND
 62
     2
 10
38.440785831818793
 20
148.72621343323141
 30
0.0
 42
1.0
  0
VERTEX
  5
1A6A
  8
SAPA_FOGBAND
 62
     2
 10
37.514850728023191
 20
148.1323749168325
 30
0.0
  0
SEQEND
  5
1A6B
  8
SAPA_FOGBAND
 62
     2
  0
INSERT
  5
1391
  8
SAPA_FOGBAND
  6
CONTINUOUS
 62
     2
  2
*U65
 10
0.0
 20
0.0
 30
0.0
1001
ACAD
1002
{
1000
R14_HATCH_DATA
1000
1391
1011
1.0
1021
0.0
1031
0.0
1021
0.0
1031
0.0
1011
0.0
1021
0.0
1031
0.0
1021
1.0
1031
0.0
1011
0.0
1021
0.0
1031
0.0
1021
0.0
1031
1.0
1040
0.0
1010
0.0
1020
0.0
1030
1.0
1000
SOLID
1070
     1
1070
     0
1071
        1
1071
        1
1071
        1
1070
     2
1040
39.712036186968298
1040
151.5133055036238
1040
0.2549509756796394
1040
-1.5707963267948959
1040
4.7123889803846888
1070
     1
1071
        0
1070
     0
1070
     1
1071
        1
1040
30.73131700644705
1040
158.62315364360919
1040
0.0
1002
}
  0
POLYLINE
  5
1392
  8
SAPA_FOGBAND
 62
     2
 66
     1
 10
0.0
 20
0.0
 30
0.0
 70
     1
  0
VERTEX
  5
1A7D
  8
SAPA_FOGBAND
 62
     2
 10
36.549530151070989
 20
153.1558705966921
 30
0.0
 42
1.0
  0
VERTEX
  5
1A7E
  8
SAPA_FOGBAND
 62
     2
 10
37.534337904083188
 20
152.98222241902511
 30
0.0
  0
VERTEX
  5
1A7F
  8
SAPA_FOGBAND
 62
     2
 10
37.794810170583609
 20
154.45943404854339
 30
0.0
 42
0.9999999999999998
  0
VERTEX
  5
1A80
  8
SAPA_FOGBAND
 62
     2
 10
36.810002417571411
 20
154.6330822262104
 30
0.0
  0
SEQEND
  5
1A81
  8
SAPA_FOGBAND
 62
     2
  0
POLYLINE
  5
1393
  8
SAPA_FOGBAND
 66
     1
 10
0.0
 20
0.0
 30
0.0
 70
     1
  0
VERTEX
  5
1A82
  8
SAPA_FOGBAND
 10
34.721143568722511
 20
16.256814947101379
 30
0.0
  0
VERTEX
  5
1A83
  8
SAPA_FOGBAND
 10
34.721143568722511
 20
19.090133911521111
 30
0.0
 42
0.577350269189628
  0
VERTEX
  5
1A84
  8
SAPA_FOGBAND
 10
34.271143568722472
 20
19.349941532656558
 30
0.0
  0
VERTEX
  5
1A85
  8
SAPA_FOGBAND
 10
32.052015725039752
 20
17.650976190904331
 30
0.0
 42
-0.8769764629927237
  0
VERTEX
  5
1A86
  8
SAPA_FOGBAND
 10
31.689883690683839
 20
18.1229158463956
 30
0.0
  0
VERTEX
  5
1A87
  8
SAPA_FOGBAND
 10
34.42825034990895
 20
21.649980486640882
 30
0.0
 42
0.1989123673796493
  0
VERTEX
  5
1A88
  8
SAPA_FOGBAND
 10
34.721143568722511
 20
22.357087267827321
 30
0.0
  0
VERTEX
  5
1A89
  8
SAPA_FOGBAND
 10
34.721143568722511
 20
24.589361630049002
 30
0.0
 42
0.577350269189628
  0
VERTEX
  5
1A8A
  8
SAPA_FOGBAND
 10
34.271143568722472
 20
24.849169251184229
 30
0.0
  0
VERTEX
  5
1A8B
  8
SAPA_FOGBAND
 10
32.052884478220143
 20
23.15070548431472
 30
0.0
 42
-0.8769764629928424
  0
VERTEX
  5
1A8C
  8
SAPA_FOGBAND
 10
31.69075244386422
 20
23.622645139805989
 30
0.0
  0
VERTEX
  5
1A8D
  8
SAPA_FOGBAND
 10
34.943721370306797
 20
27.224695674184559
 30
0.0
 42
-0.1192781274240942
  0
VERTEX
  5
1A8E
  8
SAPA_FOGBAND
 10
36.186013301334498
 20
27.5175888929979
 30
0.0
  0
VERTEX
  5
1A8F
  8
SAPA_FOGBAND
 10
36.195945091647701
 20
27.5175888929979
 30
0.0
 42
-0.4142135623730951
  0
VERTEX
  5
1A90
  8
SAPA_FOGBAND
 10
37.195945091647701
 20
26.5175888929979
 30
0.0
  0
VERTEX
  5
1A91
  8
SAPA_FOGBAND
 10
38.360029690771199
 20
19.282596392230651
 30
0.0
 42
-0.6261632875160376
  0
VERTEX
  5
1A92
  8
SAPA_FOGBAND
 10
37.91806288734486
 20
18.97273946371196
 30
0.0
  0
VERTEX
  5
1A93
  8
SAPA_FOGBAND
 10
37.641721241358738
 20
19.12637745850078
 30
0.0
 42
0.5719685712689121
  0
VERTEX
  5
1A94
  8
SAPA_FOGBAND
 10
37.195945091647822
 20
18.864176554277389
 30
0.0
  0
VERTEX
  5
1A95
  8
SAPA_FOGBAND
 10
37.195945091647701
 20
16.117588892998029
 30
0.0
 42
0.4142135623730118
  0
VERTEX
  5
1A96
  8
SAPA_FOGBAND
 10
37.495945091647648
 20
15.817588892997851
 30
0.0
  0
VERTEX
  5
1A97
  8
SAPA_FOGBAND
 10
38.895945091647739
 20
15.817588892998071
 30
0.0
 42
-0.7754026414785753
  0
VERTEX
  5
1A98
  8
SAPA_FOGBAND
 10
39.040652959953619
 20
15.25479689759017
 30
0.0
  0
VERTEX
  5
1A99
  8
SAPA_FOGBAND
 10
32.042916191098719
 20
11.543912093659079
 30
0.0
 42
-0.8680589103333867
  0
VERTEX
  5
1A9A
  8
SAPA_FOGBAND
 10
31.686076288436791
 20
12.018836123422849
 30
0.0
  0
VERTEX
  5
1A9B
  8
SAPA_FOGBAND
 10
34.42825034990895
 20
15.549708165914939
 30
0.0
 42
0.1989123673796493
  0
SEQEND
  5
1A9C
  8
SAPA_FOGBAND
  0
DIMENSION
  5
139D
  8
SAPA_MATT
  2
*D57
 10
46.600000000000243
 20
-14.80000000000007
 30
0.0
 11
16.600000000000239
 21
-12.05000000000007
 31
0.0
 70
     0
 13
-13.39999999999975
 23
43.44264068711891
 33
0.0
 14
46.60000000000025
 24
43.442640687119003
 34
0.0
1001
ACAD
1000
DSTYLE
1002
{
1070
    40
1040
1.0
1002
}
  0
DIMENSION
  5
139E
  8
SAPA_MATT
  2
*D56
 10
-33.400000000000098
 20
211.2000000000003
 30
0.0
 11
-36.150000000000141
 21
188.70000000000019
 31
0.0
 70
     0
 13
-8.3999999999999631
 23
166.2000000000003
 33
0.0
 14
-8.3999999999999773
 24
211.2000000000003
 34
0.0
 50
90.0
1001
ACAD
1000
DSTYLE
1002
{
1070
    40
1040
1.0
1002
}
  0
DIMENSION
  5
139F
  8
SAPA_MATT
  2
*D55
 10
-33.400000000000098
 20
166.2000000000003
 30
0.0
 11
-36.150000000000126
 21
151.20000000000019
 31
0.0
 70
     0
 13
-8.9857864376266292
 23
136.2000000000001
 33
0.0
 14
-8.3999999999999631
 24
166.2000000000003
 34
0.0
 50
90.0
1001
ACAD
1000
DSTYLE
1002
{
1070
    40
1040
1.0
1002
}
  0
DIMENSION
  5
13A0
  8
SAPA_MATT
  2
*D54
 10
-33.400000000000112
 20
136.2000000000001
 30
0.0
 11
-36.150344488189113
 21
76.199999999999989
 31
0.0
 70
     0
 13
-7.8999999999999631
 23
16.199999999999871
 33
0.0
 14
-8.9857864376266292
 24
136.2000000000001
 34
0.0
 50
90.0
1001
ACAD
1000
DSTYLE
1002
{
1070
    40
1040
1.0
1002
}
  0
DIMENSION
  5
13A1
  8
SAPA_MATT
  2
*D58
 10
-45.400000000000119
 20
16.1999999999999
 30
0.0
 11
-48.150000000000112
 21
113.7
 31
0.0
 70
     0
  1
195
 13
-8.3999999999999915
 23
211.2000000000001
 33
0.0
 14
-7.8999999999999773
 24
16.199999999999889
 34
0.0
 50
90.0
1001
ACAD
1000
DSTYLE
1002
{
1070
    40
1040
1.0
1002
}
  0
ENDSEC
  0
EOF
