  0
SECTION
  2
HEADER
  9
$ACADVER
  1
AC1009
  9
$INSBASE
 10
119.5764141936595
 20
54.501590843837732
 30
0.0
  9
$EXTMIN
 10
-15.00118110236204
 20
-39.77908306909228
 30
0.0
  9
$EXTMAX
 10
78.828212161271722
 20
115.9156750223829
 30
0.0
  9
$LIMMIN
 10
0.0
 20
0.0
  9
$LIMMAX
 10
420.0
 20
297.0
  9
$ORTHOMODE
 70
     0
  9
$REGENMODE
 70
     1
  9
$FILLMODE
 70
     1
  9
$QTEXTMODE
 70
     0
  9
$MIRRTEXT
 70
     1
  9
$DRAGMODE
 70
     2
  9
$LTSCALE
 40
7.0
  9
$OSMODE
 70
   167
  9
$ATTMODE
 70
     1
  9
$TEXTSIZE
 40
3.5
  9
$TRACEWID
 40
0.05
  9
$TEXTSTYLE
  7
ISO
  9
$CLAYER
  8
0
  9
$CELTYPE
  6
BYLAYER
  9
$CECOLOR
 62
   256
  9
$DIMSCALE
 40
0.0
  9
$DIMASZ
 40
3.0
  9
$DIMEXO
 40
1.5
  9
$DIMDLI
 40
10.0
  9
$DIMRND
 40
0.0
  9
$DIMDLE
 40
0.0
  9
$DIMEXE
 40
1.5
  9
$DIMTP
 40
0.0
  9
$DIMTM
 40
0.0
  9
$DIMTXT
 40
3.0
  9
$DIMCEN
 40
-5.0
  9
$DIMTSZ
 40
0.0
  9
$DIMTOL
 70
     0
  9
$DIMLIM
 70
     0
  9
$DIMTIH
 70
     0
  9
$DIMTOH
 70
     1
  9
$DIMSE1
 70
     0
  9
$DIMSE2
 70
     0
  9
$DIMTAD
 70
     1
  9
$DIMZIN
 70
     8
  9
$DIMBLK
  1

  9
$DIMASO
 70
     1
  9
$DIMSHO
 70
     1
  9
$DIMPOST
  1

  9
$DIMAPOST
  1

  9
$DIMALT
 70
     0
  9
$DIMALTD
 70
     0
  9
$DIMALTF
 40
25.399999999999999
  9
$DIMLFAC
 40
-1.0
  9
$DIMTOFL
 70
     1
  9
$DIMTVP
 40
0.0
  9
$DIMTIX
 70
     0
  9
$DIMSOXD
 70
     0
  9
$DIMSAH
 70
     0
  9
$DIMBLK1
  1

  9
$DIMBLK2
  1

  9
$DIMSTYLE
  2
MASKIN
  9
$DIMCLRD
 70
   256
  9
$DIMCLRE
 70
   256
  9
$DIMCLRT
 70
     2
  9
$DIMTFAC
 40
1.0
  9
$DIMGAP
 40
1.0
  9
$LUNITS
 70
     2
  9
$LUPREC
 70
     2
  9
$SKETCHINC
 40
0.1
  9
$FILLETRAD
 40
0.0
  9
$AUNITS
 70
     0
  9
$AUPREC
 70
     2
  9
$MENU
  1
ACAD
  9
$ELEVATION
 40
0.0
  9
$PELEVATION
 40
0.0
  9
$THICKNESS
 40
0.0
  9
$LIMCHECK
 70
     0
  9
$BLIPMODE
 70
     0
  9
$CHAMFERA
 40
0.0
  9
$CHAMFERB
 40
0.0
  9
$SKPOLY
 70
     0
  9
$TDCREATE
 40
2449499.413659838
  9
$TDUPDATE
 40
2454882.5515097338
  9
$TDINDWG
 40
0.1885052315
  9
$TDUSRTIMER
 40
0.1885052315
  9
$USRTIMER
 70
     1
  9
$ANGBASE
 50
0.0
  9
$ANGDIR
 70
     0
  9
$PDMODE
 70
     3
  9
$PDSIZE
 40
0.0
  9
$PLINEWID
 40
0.0
  9
$COORDS
 70
     1
  9
$SPLFRAME
 70
     0
  9
$SPLINETYPE
 70
     6
  9
$SPLINESEGS
 70
     8
  9
$ATTDIA
 70
     0
  9
$ATTREQ
 70
     1
  9
$HANDLING
 70
     1
  9
$HANDSEED
  5
E6A
  9
$SURFTAB1
 70
     6
  9
$SURFTAB2
 70
     6
  9
$SURFTYPE
 70
     6
  9
$SURFU
 70
     6
  9
$SURFV
 70
     6
  9
$UCSNAME
  2

  9
$UCSORG
 10
0.0
 20
0.0
 30
0.0
  9
$UCSXDIR
 10
1.0
 20
0.0
 30
0.0
  9
$UCSYDIR
 10
0.0
 20
1.0
 30
0.0
  9
$PUCSNAME
  2

  9
$PUCSORG
 10
0.0
 20
0.0
 30
0.0
  9
$PUCSXDIR
 10
1.0
 20
0.0
 30
0.0
  9
$PUCSYDIR
 10
0.0
 20
1.0
 30
0.0
  9
$USERI1
 70
     0
  9
$USERI2
 70
     0
  9
$USERI3
 70
     0
  9
$USERI4
 70
     0
  9
$USERI5
 70
     0
  9
$USERR1
 40
0.0
  9
$USERR2
 40
0.0
  9
$USERR3
 40
0.0
  9
$USERR4
 40
0.0
  9
$USERR5
 40
0.0
  9
$WORLDVIEW
 70
     1
  9
$SHADEDGE
 70
     1
  9
$SHADEDIF
 70
    70
  9
$TILEMODE
 70
     1
  9
$MAXACTVP
 70
    16
  9
$PLIMCHECK
 70
     0
  9
$PEXTMIN
 10
0.0
 20
0.0
 30
0.0
  9
$PEXTMAX
 10
0.0
 20
0.0
 30
0.0
  9
$PLIMMIN
 10
0.0
 20
0.0
  9
$PLIMMAX
 10
12.0
 20
9.0
  9
$UNITMODE
 70
     0
  9
$VISRETAIN
 70
     1
  9
$PLINEGEN
 70
     0
  9
$PSLTSCALE
 70
     1
  0
ENDSEC
  0
SECTION
  2
TABLES
  0
TABLE
  2
VPORT
 70
     1
  0
VPORT
  2
*ACTIVE
 70
     0
 10
0.0
 20
0.0
 11
1.0
 21
1.0
 12
66.832123470274311
 22
38.064080914228121
 13
0.0
 23
0.0
 14
5.0
 24
5.0
 15
0.0
 25
0.0
 16
0.0
 26
0.0
 36
1.0
 17
0.0
 27
0.0
 37
0.0
 40
156.92334177614021
 41
1.995238095238095
 42
50.0
 43
0.0
 44
0.0
 50
0.0
 51
0.0
 71
     0
 72
   100
 73
     1
 74
     0
 75
     0
 76
     0
 77
     0
 78
     0
  0
ENDTAB
  0
TABLE
  2
LTYPE
 70
     8
  0
LTYPE
  2
CONTINUOUS
 70
     0
  3
Solid line
 72
    65
 73
     0
 40
0.0
  0
LTYPE
  2
BYGG-014555$0$NEWDOT
 70
     0
  3
____ . ____ . ____ . ____ . ____ . ____ . ____
 72
    65
 73
     4
 40
2.0
 49
1.0
 49
-0.5
 49
0.0
 49
-0.5
  0
LTYPE
  2
BYGG-021997$0$NEWDOT
 70
     0
  3
____ . ____ . ____ . ____ . ____ . ____ . ____
 72
    65
 73
     4
 40
2.0
 49
1.0
 49
-0.5
 49
0.0
 49
-0.5
  0
LTYPE
  2
BYGG-021997$0$DASHDOT
 70
     0
  3
__ . __ . __ . __ . __ . __ . __ . __ . __ . __
 72
    65
 73
     4
 40
1.0
 49
0.5
 49
-0.25
 49
0.0
 49
-0.25
  0
LTYPE
  2
BYGG-021997$0$DASHED
 70
     0
  3
__ __ __ __ __ __ __ __ __ __ __ __ __ __ __
 72
    65
 73
     2
 40
0.75
 49
0.5
 49
-0.25
  0
LTYPE
  2
BYGG-021997$0$PHANTOM
 70
     0
  3
Phantom ______  __  __  ______  __  __  ______
 72
    65
 73
     6
 40
63.5
 49
31.75
 49
-6.3499999999999988
 49
6.3499999999999988
 49
-6.3499999999999988
 49
6.3499999999999988
 49
-6.3499999999999988
  0
LTYPE
  2
BYGG-014203$0$DASHDOT
 70
     0
  3
__ . __ . __ . __ . __ . __ . __ . __ . __ . __
 72
    65
 73
     4
 40
1.0
 49
0.5
 49
-0.25
 49
0.0
 49
-0.25
  0
LTYPE
  2
BYGG-014542$0$NEWDOT
 70
     0
  3
____ . ____ . ____ . ____ . ____ . ____ . ____
 72
    65
 73
     4
 40
2.0
 49
1.0
 49
-0.5
 49
0.0
 49
-0.5
  0
ENDTAB
  0
TABLE
  2
LAYER
 70
    73
  0
LAYER
  2
0
 70
     0
 62
     7
  6
CONTINUOUS
  0
LAYER
  2
DEFPOINTS
 70
     0
 62
     7
  6
CONTINUOUS
  0
LAYER
  2
SAPA_ARTIKELNR
 70
     0
 62
     4
  6
CONTINUOUS
  0
LAYER
  2
SAPA_LIGHT
 70
     1
 62
     1
  6
CONTINUOUS
  0
LAYER
  2
SAPA_ANSLUTNING
 70
     0
 62
     6
  6
CONTINUOUS
  0
LAYER
  2
BYGG-014193$0$MATT
 70
     0
 62
    -1
  6
CONTINUOUS
  0
LAYER
  2
SAPA_MATT
 70
     0
 62
     1
  6
CONTINUOUS
  0
LAYER
  2
SAPA_GLAS
 70
     0
 62
     4
  6
CONTINUOUS
  0
LAYER
  2
SAPA_FOGBAND
 70
     0
 62
     2
  6
CONTINUOUS
  0
LAYER
  2
SAPA_PROFIL
 70
     0
 62
     7
  6
CONTINUOUS
  0
LAYER
  2
SAPA_BESLAG
 70
     0
 62
     1
  6
CONTINUOUS
  0
ENDTAB
  0
TABLE
  2
STYLE
 70
    16
  0
STYLE
  2
STANDARD
 70
     0
 40
0.0
 41
1.0
 50
0.0
 71
     0
 42
0.2
  3
txt
  4

  0
STYLE
  2
ISO
 70
     0
 40
0.0
 41
1.0
 50
0.0
 71
     0
 42
3.5
  3
isocp3.shx
  4

  0
STYLE
  2
BYGG-021997$0$STANDARD
 70
     0
 40
0.0
 41
1.0
 50
0.0
 71
     0
 42
0.2
  3
txt
  4

  0
STYLE
  2
BYGG-021997$0$ISO
 70
     0
 40
0.0
 41
1.0
 50
0.0
 71
     0
 42
3.5
  3
txt
  4

  0
STYLE
  2
BYGG-014203$0$STANDARD
 70
     0
 40
0.0
 41
1.0
 50
0.0
 71
     0
 42
0.2
  3
txt
  4

  0
STYLE
  2
BYGG-014203$0$ISO
 70
     0
 40
0.0
 41
1.0
 50
0.0
 71
     0
 42
3.5
  3
isocp3.shx
  4

  0
STYLE
  2
BYGG-015415$0$STANDARD
 70
     0
 40
0.0
 41
1.0
 50
0.0
 71
     0
 42
0.2
  3
txt
  4

  0
STYLE
  2
BYGG-015415$0$ISO
 70
     0
 40
0.0
 41
1.0
 50
0.0
 71
     0
 42
3.5
  3
txt
  4

  0
STYLE
  2
BYGG-014542$0$STANDARD
 70
     0
 40
0.0
 41
1.0
 50
0.0
 71
     0
 42
0.2
  3
txt
  4

  0
STYLE
  2
BYGG-014542$0$ISO
 70
     0
 40
0.0
 41
1.0
 50
0.0
 71
     0
 42
2.5
  3
isocp3.shx
  4

  0
STYLE
  2
BYGG-019753$0$STANDARD
 70
     0
 40
0.0
 41
1.0
 50
0.0
 71
     0
 42
0.2
  3
txt
  4

  0
STYLE
  2
BYGG-019753$0$ISO
 70
     0
 40
0.0
 41
1.0
 50
0.0
 71
     0
 42
3.5
  3
txt
  4

  0
STYLE
  2
BYGG-014555$0$STANDARD
 70
     0
 40
0.0
 41
1.0
 50
0.0
 71
     0
 42
0.2
  3
txt
  4

  0
STYLE
  2
BYGG-014555$0$ISO
 70
     0
 40
0.0
 41
1.0
 50
0.0
 71
     0
 42
2.5
  3
isocp3.shx
  4

  0
STYLE
  2
BYGG-021499$0$STANDARD
 70
     0
 40
0.0
 41
1.0
 50
0.0
 71
     0
 42
0.2
  3
txt
  4

  0
STYLE
  2
BYGG-014193$0$STANDARD
 70
     0
 40
0.0
 41
1.0
 50
0.0
 71
     0
 42
0.2
  3
txt
  4

  0
ENDTAB
  0
TABLE
  2
VIEW
 70
     0
  0
ENDTAB
  0
TABLE
  2
UCS
 70
     0
  0
ENDTAB
  0
TABLE
  2
APPID
 70
    17
  0
APPID
  2
ACAD
 70
     0
  0
APPID
  2
ACAECLAYERSTANDARD
 70
     0
  0
APPID
  2
ACAD_PSEXT
 70
     0
  0
APPID
  2
ACAD_MLEADERVER
 70
     0
  0
APPID
  2
ACAD_DSTYLE_DIMTEXT_FILL
 70
     0
  0
APPID
  2
ACAD_DSTYLE_DIMEXT_LENGTH
 70
     0
  0
APPID
  2
ACAD_DSTYLE_DIMEXT_ENABLED
 70
     0
  0
APPID
  2
ACAD_DSTYLE_DIM_LINETYPE
 70
     0
  0
APPID
  2
ACAD_DSTYLE_DIM_EXT1_LINETYPE
 70
     0
  0
APPID
  2
ACAD_DSTYLE_DIM_EXT2_LINETYPE
 70
     0
  0
APPID
  2
ACAD_DSTYLE_DIMJOGGED_JOGA
 70
     0
  0
APPID
  2
ACAD_DSTYLE_DIMARC_LENGTH_
 70
     0
  0
APPID
  2
ACAD_EXEMPT_FROM_CAD_STANDARDS
 70
     0
  0
APPID
  2
AMG_ARCHIVE11
 70
     0
  0
APPID
  2
ACAD_DSTYLE_DIMJAG
 70
     0
  0
APPID
  2
ACAD_DSTYLE_DIMTALN
 70
     0
  0
APPID
  2
ACADANNOTATIVE
 70
     0
  0
ENDTAB
  0
TABLE
  2
DIMSTYLE
 70
    16
  0
DIMSTYLE
  2
MASKIN
 70
     0
  3

  4

  5

  6

  7

 40
0.0
 41
3.0
 42
1.5
 43
10.0
 44
1.5
 45
0.0
 46
0.0
 47
0.0
 48
0.0
140
3.0
141
-5.0
142
0.0
143
25.399999999999999
144
-1.0
145
0.0
146
1.0
147
1.0
 71
     0
 72
     0
 73
     0
 74
     1
 75
     0
 76
     0
 77
     1
 78
     8
170
     0
171
     0
172
     1
173
     0
174
     0
175
     0
176
   256
177
   256
178
     2
  0
DIMSTYLE
  2
STANDARD
 70
     0
  3

  4

  5

  6

  7

 40
1.0
 41
0.18
 42
0.0625
 43
0.38
 44
0.18
 45
0.0
 46
0.0
 47
0.0
 48
0.0
140
0.18
141
0.09
142
0.0
143
25.399999999999999
144
1.0
145
0.0
146
1.0
147
0.09
 71
     0
 72
     0
 73
     1
 74
     1
 75
     0
 76
     0
 77
     0
 78
     0
170
     0
171
     2
172
     0
173
     0
174
     0
175
     0
176
     0
177
     0
178
     0
  0
DIMSTYLE
  2
BYGG-021997$0$STANDARD
 70
     0
  3

  4

  5

  6

  7

 40
1.0
 41
0.18
 42
0.0625
 43
0.38
 44
0.18
 45
0.0
 46
0.0
 47
0.0
 48
0.0
140
0.18
141
0.09
142
0.0
143
25.399999999999999
144
1.0
145
0.0
146
1.0
147
0.09
 71
     0
 72
     0
 73
     1
 74
     1
 75
     0
 76
     0
 77
     0
 78
     0
170
     0
171
     2
172
     0
173
     0
174
     0
175
     0
176
     0
177
     0
178
     0
  0
DIMSTYLE
  2
BYGG-021997$0$MASKIN
 70
     0
  3

  4

  5

  6

  7

 40
0.0
 41
3.0
 42
1.5
 43
10.0
 44
1.5
 45
0.0
 46
0.0
 47
0.0
 48
0.0
140
3.0
141
-5.0
142
0.0
143
25.399999999999999
144
-1.0
145
0.0
146
1.0
147
1.0
 71
     0
 72
     0
 73
     0
 74
     0
 75
     0
 76
     0
 77
     1
 78
     8
170
     0
171
     0
172
     1
173
     0
174
     0
175
     0
176
   256
177
   256
178
     2
  0
DIMSTYLE
  2
BYGG-014203$0$STANDARD
 70
     0
  3

  4

  5

  6

  7

 40
1.0
 41
0.18
 42
0.0625
 43
0.38
 44
0.18
 45
0.0
 46
0.0
 47
0.0
 48
0.0
140
0.18
141
0.09
142
0.0
143
25.399999999999999
144
1.0
145
0.0
146
1.0
147
0.09
 71
     0
 72
     0
 73
     1
 74
     1
 75
     0
 76
     0
 77
     0
 78
     0
170
     0
171
     2
172
     0
173
     0
174
     0
175
     0
176
     0
177
     0
178
     0
  0
DIMSTYLE
  2
BYGG-014203$0$MASKIN
 70
     0
  3

  4

  5

  6

  7

 40
0.0
 41
3.0
 42
1.5
 43
10.0
 44
1.5
 45
0.0
 46
0.0
 47
0.0
 48
0.0
140
3.0
141
-5.0
142
0.0
143
25.399999999999999
144
-1.0
145
0.0
146
1.0
147
1.0
 71
     0
 72
     0
 73
     0
 74
     0
 75
     0
 76
     0
 77
     1
 78
     8
170
     0
171
     0
172
     1
173
     0
174
     0
175
     0
176
   256
177
   256
178
   256
  0
DIMSTYLE
  2
BYGG-015415$0$STANDARD
 70
     0
  3

  4

  5

  6

  7

 40
1.0
 41
0.18
 42
0.0625
 43
0.38
 44
0.18
 45
0.0
 46
0.0
 47
0.0
 48
0.0
140
0.18
141
0.09
142
0.0
143
25.399999999999999
144
1.0
145
0.0
146
1.0
147
0.09
 71
     0
 72
     0
 73
     1
 74
     1
 75
     0
 76
     0
 77
     0
 78
     0
170
     0
171
     2
172
     0
173
     0
174
     0
175
     0
176
     0
177
     0
178
     0
  0
DIMSTYLE
  2
BYGG-015415$0$MASKIN
 70
     0
  3

  4

  5

  6

  7

 40
0.0
 41
3.0
 42
1.5
 43
10.0
 44
1.5
 45
0.0
 46
0.0
 47
0.0
 48
0.0
140
3.0
141
-5.0
142
0.0
143
25.399999999999999
144
-1.0
145
0.0
146
1.0
147
1.0
 71
     0
 72
     0
 73
     0
 74
     0
 75
     0
 76
     0
 77
     1
 78
     8
170
     0
171
     0
172
     1
173
     0
174
     0
175
     0
176
   256
177
   256
178
     2
  0
DIMSTYLE
  2
BYGG-014542$0$STANDARD
 70
     0
  3

  4

  5

  6

  7

 40
1.0
 41
0.18
 42
0.0625
 43
0.38
 44
0.18
 45
0.0
 46
0.0
 47
0.0
 48
0.0
140
0.18
141
0.09
142
0.0
143
25.399999999999999
144
1.0
145
0.0
146
1.0
147
0.09
 71
     0
 72
     0
 73
     1
 74
     1
 75
     0
 76
     0
 77
     0
 78
     0
170
     0
171
     2
172
     0
173
     0
174
     0
175
     0
176
     0
177
     0
178
     0
  0
DIMSTYLE
  2
BYGG-014542$0$MASKIN
 70
     0
  3

  4

  5

  6

  7

 40
0.0
 41
3.0
 42
1.5
 43
10.0
 44
1.5
 45
0.0
 46
0.0
 47
0.0
 48
0.0
140
3.0
141
-5.0
142
0.0
143
25.399999999999999
144
-1.0
145
0.0
146
1.0
147
1.0
 71
     0
 72
     0
 73
     0
 74
     1
 75
     0
 76
     0
 77
     1
 78
     8
170
     0
171
     0
172
     1
173
     0
174
     0
175
     0
176
   256
177
   256
178
     2
  0
DIMSTYLE
  2
BYGG-019753$0$STANDARD
 70
     0
  3

  4

  5

  6

  7

 40
1.0
 41
0.18
 42
0.0625
 43
0.38
 44
0.18
 45
0.0
 46
0.0
 47
0.0
 48
0.0
140
0.18
141
0.09
142
0.0
143
25.399999999999999
144
1.0
145
0.0
146
1.0
147
0.09
 71
     0
 72
     0
 73
     1
 74
     1
 75
     0
 76
     0
 77
     0
 78
     0
170
     0
171
     2
172
     0
173
     0
174
     0
175
     0
176
     0
177
     0
178
     0
  0
DIMSTYLE
  2
BYGG-019753$0$MASKIN
 70
     0
  3

  4

  5

  6

  7

 40
0.0
 41
3.0
 42
1.5
 43
10.0
 44
1.5
 45
0.0
 46
0.0
 47
0.0
 48
0.0
140
3.0
141
-5.0
142
0.0
143
25.399999999999999
144
-1.0
145
0.0
146
1.0
147
1.0
 71
     0
 72
     0
 73
     0
 74
     0
 75
     0
 76
     0
 77
     1
 78
     8
170
     0
171
     0
172
     1
173
     0
174
     0
175
     0
176
   256
177
   256
178
     2
  0
DIMSTYLE
  2
BYGG-014555$0$STANDARD
 70
     0
  3

  4

  5

  6

  7

 40
1.0
 41
0.18
 42
0.0625
 43
0.38
 44
0.18
 45
0.0
 46
0.0
 47
0.0
 48
0.0
140
0.18
141
0.09
142
0.0
143
25.399999999999999
144
1.0
145
0.0
146
1.0
147
0.09
 71
     0
 72
     0
 73
     1
 74
     1
 75
     0
 76
     0
 77
     0
 78
     0
170
     0
171
     2
172
     0
173
     0
174
     0
175
     0
176
     0
177
     0
178
     0
  0
DIMSTYLE
  2
BYGG-014555$0$MASKIN
 70
     0
  3

  4

  5

  6

  7

 40
0.0
 41
3.0
 42
1.5
 43
10.0
 44
1.5
 45
0.0
 46
0.0
 47
0.0
 48
0.0
140
3.0
141
-5.0
142
0.0
143
25.399999999999999
144
-1.0
145
0.0
146
1.0
147
1.0
 71
     0
 72
     0
 73
     0
 74
     1
 75
     0
 76
     0
 77
     1
 78
     8
170
     0
171
     0
172
     1
173
     0
174
     0
175
     0
176
   256
177
   256
178
     2
  0
DIMSTYLE
  2
BYGG-021499$0$STANDARD
 70
     0
  3

  4

  5

  6

  7

 40
1.0
 41
0.18
 42
0.0625
 43
0.38
 44
0.18
 45
0.0
 46
0.0
 47
0.0
 48
0.0
140
0.18
141
0.09
142
0.0
143
25.399999999999999
144
1.0
145
0.0
146
1.0
147
0.09
 71
     0
 72
     0
 73
     1
 74
     1
 75
     0
 76
     0
 77
     0
 78
     0
170
     0
171
     2
172
     0
173
     0
174
     0
175
     0
176
     0
177
     0
178
     0
  0
DIMSTYLE
  2
BYGG-014193$0$STANDARD
 70
     0
  3

  4

  5

  6

  7

 40
1.0
 41
0.18
 42
0.0625
 43
0.38
 44
0.18
 45
0.0
 46
0.0
 47
0.0
 48
0.0
140
0.18
141
0.09
142
0.0
143
25.399999999999999
144
1.0
145
0.0
146
1.0
147
0.09
 71
     0
 72
     0
 73
     1
 74
     1
 75
     0
 76
     0
 77
     0
 78
     0
170
     0
171
     2
172
     0
173
     0
174
     0
175
     0
176
     0
177
     0
178
     0
  0
ENDTAB
  0
ENDSEC
  0
SECTION
  2
BLOCKS
  0
BLOCK
  8
0
  2
$MODEL_SPACE
 70
     0
 10
0.0
 20
0.0
 30
0.0
  3
$MODEL_SPACE
  1

  0
ENDBLK
  5
D
  8
0
  0
BLOCK
 67
     1
  8
0
  2
$PAPER_SPACE
 70
     0
 10
0.0
 20
0.0
 30
0.0
  3
$PAPER_SPACE
  1

  0
ENDBLK
  5
13
 67
     1
  8
0
  0
BLOCK
  8
0
  2
BYGG-014193
 70
     0
 10
365.45232074597618
 20
73.062449759402725
 30
0.0
  3
BYGG-014193
  1
\\spnves09\compass$\2004\10\0\BYGG-014193.dwg
  0
POLYLINE
  5
57A
  8
0
 66
     1
 10
0.0
 20
0.0
 30
0.0
 70
     1
  0
VERTEX
  5
9A5
  8
0
 10
10.825972216461819
 20
25.9779970912187
 30
0.0
 42
-0.4095289747066464
  0
VERTEX
  5
9A6
  8
0
 10
11.82584388889097
 20
26.961977145097929
 30
0.0
  0
VERTEX
  5
9A7
  8
0
 10
36.750633780985993
 20
26.961977145097929
 30
0.0
 42
-0.4095289747066465
  0
VERTEX
  5
9A8
  8
0
 10
37.750505453415087
 20
25.9779970912187
 30
0.0
  0
VERTEX
  5
9A9
  8
0
 10
38.073050824859308
 20
5.8465948037768953
 30
0.0
 42
0.4663187362303805
  0
VERTEX
  5
9AA
  8
0
 10
38.66770576093171
 20
5.3636584537813974
 30
0.0
  0
VERTEX
  5
9AB
  8
0
 10
43.133877264221553
 20
6.2253244338201617
 30
0.0
 42
0.3594307989875152
  0
VERTEX
  5
9AC
  8
0
 10
43.539158164363762
 20
6.7162707568759847
 30
0.0
  0
VERTEX
  5
9AD
  8
0
 10
43.539158164363762
 20
7.4619771450978192
 30
0.0
 42
-0.6681786379192989
  0
VERTEX
  5
9AE
  8
0
 10
44.392711554956968
 20
7.8155305356911517
 30
0.0
  0
VERTEX
  5
9AF
  8
0
 10
46.5234444697914
 20
5.6602028914095959
 30
0.0
 42
-0.5388096138364681
  0
VERTEX
  5
9B0
  8
0
 10
45.217704611649253
 20
3.5218179771362079
 30
0.0
  0
VERTEX
  5
9B1
  8
0
 10
44.702022015361131
 20
3.3362041392035162
 30
0.0
 42
0.4453134940460101
  0
VERTEX
  5
9B2
  8
0
 10
44.633633730032841
 20
2.6660016088146099
 30
0.0
  0
VERTEX
  5
9B3
  8
0
 10
45.395867961020883
 20
1.5873062059965259
 30
0.0
 42
-0.6681786379193231
  0
VERTEX
  5
9B4
  8
0
 10
45.183735926664937
 20
1.0751741716406391
 30
0.0
  0
VERTEX
  5
9B5
  8
0
 10
44.661452236684973
 20
0.9619771450978191
 30
0.0
 42
-0.3594307989874839
  0
VERTEX
  5
9B6
  8
0
 10
44.170505913629029
 20
1.3672580452400209
 30
0.0
  0
VERTEX
  5
9B7
  8
0
 10
43.900459274280422
 20
3.4310008805242092
 30
0.0
  0
VERTEX
  5
9B8
  8
0
 10
43.879019433417803
 20
3.5421274754157248
 30
0.0
 42
-0.4142135623730921
  0
VERTEX
  5
9B9
  8
0
 10
44.275246656615927
 20
4.1277928983295729
 30
0.0
  0
VERTEX
  5
9BA
  8
0
 10
45.502612464255719
 20
4.3645906479741248
 30
0.0
  0
VERTEX
  5
9BB
  8
0
 10
45.294230444568427
 20
5.4199954745939181
 30
0.0
  0
VERTEX
  5
9BC
  8
0
 10
37.930035598729717
 20
3.9992089767262651
 30
0.0
  0
VERTEX
  5
9BD
  8
0
 10
38.138417618417009
 20
2.919127066003341
 30
0.0
  0
VERTEX
  5
9BE
  8
0
 10
39.267594161445629
 20
3.1369809956763102
 30
0.0
 42
-0.9999999999999532
  0
VERTEX
  5
9BF
  8
0
 10
39.49492000110439
 20
1.9587098203421069
 30
0.0
  0
VERTEX
  5
9C0
  8
0
 10
37.328674188892649
 20
1.5471498232847689
 30
0.0
 42
-0.4663187362303669
  0
VERTEX
  5
9C1
  8
0
 10
36.734019252820246
 20
2.0300861732802669
 30
0.0
  0
VERTEX
  5
9C2
  8
0
 10
36.356991244243723
 20
25.561977145097838
 30
0.0
  0
VERTEX
  5
9C3
  8
0
 10
12.219486425633191
 20
25.561977145097838
 30
0.0
  0
VERTEX
  5
9C4
  8
0
 10
11.84245841705666
 20
2.0300861732802669
 30
0.0
 42
-0.4663187362303668
  0
VERTEX
  5
9C5
  8
0
 10
11.247803480984309
 20
1.5471498232847689
 30
0.0
  0
VERTEX
  5
9C6
  8
0
 10
9.0815576687725184
 20
1.9587098203421069
 30
0.0
 42
-0.9999999999999532
  0
VERTEX
  5
9C7
  8
0
 10
9.3088835084313342
 20
3.1369809956763102
 30
0.0
  0
VERTEX
  5
9C8
  8
0
 10
10.438060051459949
 20
2.919127066003341
 30
0.0
  0
VERTEX
  5
9C9
  8
0
 10
10.64644207114719
 20
3.9992089767262651
 30
0.0
  0
VERTEX
  5
9CA
  8
0
 10
3.2822472253085371
 20
5.4199954745939181
 30
0.0
  0
VERTEX
  5
9CB
  8
0
 10
3.073865205621245
 20
4.3645906479741248
 30
0.0
  0
VERTEX
  5
9CC
  8
0
 10
4.3012310132610301
 20
4.1277928983294601
 30
0.0
 42
-0.4142135623730919
  0
VERTEX
  5
9CD
  8
0
 10
4.697458236459112
 20
3.5421274754157248
 30
0.0
  0
VERTEX
  5
9CE
  8
0
 10
4.6760183955965431
 20
3.4310008805242092
 30
0.0
  0
VERTEX
  5
9CF
  8
0
 10
4.4059717562479364
 20
1.3672580452400209
 30
0.0
 42
-0.3594307989874839
  0
VERTEX
  5
9D0
  8
0
 10
3.9150254331919991
 20
0.9619771450978191
 30
0.0
  0
VERTEX
  5
9D1
  8
0
 10
3.3927417432120128
 20
1.0751741716405261
 30
0.0
 42
-0.6681786379193233
  0
VERTEX
  5
9D2
  8
0
 10
3.180609708856081
 20
1.5873062059965259
 30
0.0
  0
VERTEX
  5
9D3
  8
0
 10
3.9428439398440669
 20
2.6660016088146099
 30
0.0
 42
0.4453134940460101
  0
VERTEX
  5
9D4
  8
0
 10
3.8744556545158271
 20
3.3362041392035162
 30
0.0
  0
VERTEX
  5
9D5
  8
0
 10
3.3587730582277109
 20
3.5218179771362079
 30
0.0
 42
-0.5388096138364684
  0
VERTEX
  5
9D6
  8
0
 10
2.0530332000855651
 20
5.6602028914095959
 30
0.0
  0
VERTEX
  5
9D7
  8
0
 10
4.1837661149199334
 20
7.8155305356911517
 30
0.0
 42
-0.6681786379192989
  0
VERTEX
  5
9D8
  8
0
 10
5.0373195055132101
 20
7.4619771450978192
 30
0.0
  0
VERTEX
  5
9D9
  8
0
 10
5.0373195055132101
 20
6.7162707568759847
 30
0.0
 42
0.3594307989875152
  0
VERTEX
  5
9DA
  8
0
 10
5.442600405655412
 20
6.2253244338201617
 30
0.0
  0
VERTEX
  5
9DB
  8
0
 10
9.9087719089452548
 20
5.3636584537813974
 30
0.0
 42
0.4663187362303803
  0
VERTEX
  5
9DC
  8
0
 10
10.50342684501766
 20
5.8465948037768953
 30
0.0
  0
SEQEND
  5
9DD
  8
0
  0
DIMENSION
  5
57B
  8
BYGG-014193$0$MATT
  2
*D27
 10
51.583081346756643
 20
0.9619771450978172
 30
0.0
 11
47.045684807191734
 21
14.090476585403589
 31
0.0
 70
   128
  3
BYGG-014193$0$STANDARD
 13
36.750633780985957
 23
26.961977145097929
 33
0.0
 14
44.661452236685037
 24
0.9619771450978191
 34
0.0
 50
90.0
1001
ACAD
1000
DSTYLE
1002
{
1070
   287
1070
     5
1070
    41
1040
3.0
1070
    42
1040
1.5
1070
    43
1040
10.0
1070
    44
1040
1.5
1070
    73
1070
     0
1070
    74
1070
     0
1070
    77
1070
     1
1070
    78
1070
     8
1070
   140
1040
3.0
1070
   141
1040
-5.0
1070
   171
1070
     0
1070
   176
1070
   256
1070
   177
1070
   256
1070
   178
1070
   256
1070
   179
1070
     2
1070
   271
1070
     8
1070
   272
1070
     8
1070
   274
1070
     0
1070
   279
1070
     2
1070
   284
1070
     8
1070
   285
1070
     8
1070
   286
1070
     8
1002
}
  0
DIMENSION
  5
58C
  8
BYGG-014193$0$MATT
  2
*D28
 10
37.750505453415087
 20
32.20834742715445
 30
0.0
 11
24.220626075127139
 21
35.351450655614713
 31
0.0
 70
   128
  1
27
  3
BYGG-014193$0$STANDARD
 13
10.825972216461819
 23
25.9779970912187
 33
0.0
 14
37.750505453415087
 24
25.977997091218761
 34
0.0
1001
ACAD
1000
DSTYLE
1002
{
1070
   287
1070
     5
1070
    41
1040
3.0
1070
    42
1040
1.5
1070
    43
1040
10.0
1070
    44
1040
1.5
1070
    73
1070
     0
1070
    74
1070
     0
1070
    77
1070
     1
1070
    78
1070
     8
1070
   140
1040
3.0
1070
   141
1040
-5.0
1070
   171
1070
     0
1070
   176
1070
   256
1070
   177
1070
   256
1070
   178
1070
   256
1070
   179
1070
     2
1070
   271
1070
     8
1070
   272
1070
     8
1070
   274
1070
     0
1070
   279
1070
     2
1070
   284
1070
     8
1070
   285
1070
     8
1070
   286
1070
     8
1002
}
  0
ENDBLK
  5
42F
  8
0
  0
BLOCK
  8
0
  2
*D27
 70
     1
 10
0.0
 20
0.0
 30
0.0
  3
*D27
  1

  0
LINE
  5
582
  8
BYGG-014193$0$MATT
 10
38.250633780985957
 20
26.961977145097929
 30
0.0
 11
53.083081346756643
 21
26.961977145097929
 31
0.0
  0
LINE
  5
583
  8
BYGG-014193$0$MATT
 10
46.161452236685037
 20
0.9619771450978188
 30
0.0
 11
53.083081346756629
 21
0.9619771450978166
 31
0.0
  0
LINE
  5
584
  8
BYGG-014193$0$MATT
 10
51.583081346756643
 20
23.961977145097929
 30
0.0
 11
51.583081346756643
 21
3.961977145097817
 31
0.0
  0
INSERT
  5
585
  8
0
  2
*U52
 10
0.0
 20
0.0
 30
0.0
  0
SOLID
  5
586
  8
BYGG-014193$0$MATT
 10
51.083081346756643
 20
23.961977145097929
 30
0.0
 11
52.08308134675665
 21
23.961977145097929
 31
0.0
 12
51.583081346756643
 22
26.961977145097929
 32
0.0
 13
51.583081346756643
 23
26.961977145097929
 33
0.0
  0
SOLID
  5
587
  8
BYGG-014193$0$MATT
 10
51.083081346756629
 20
3.961977145097817
 30
0.0
 11
52.083081346756643
 21
3.961977145097817
 31
0.0
 12
51.583081346756643
 22
0.9619771450978172
 32
0.0
 13
51.583081346756643
 23
0.9619771450978172
 33
0.0
  0
POINT
  5
588
  8
DEFPOINTS
 62
     0
 10
36.750633780985957
 20
26.961977145097929
 30
0.0
  0
POINT
  5
589
  8
DEFPOINTS
 62
     0
 10
44.661452236685037
 20
0.9619771450978191
 30
0.0
  0
POINT
  5
58A
  8
DEFPOINTS
 62
     0
 10
51.583081346756643
 20
0.9619771450978172
 30
0.0
  0
ENDBLK
  5
58B
  8
0
  0
BLOCK
  8
0
  2
*D28
 70
     1
 10
0.0
 20
0.0
 30
0.0
  3
*D28
  1

  0
LINE
  5
591
  8
BYGG-014193$0$MATT
 10
10.825972216461819
 20
27.4779970912187
 30
0.0
 11
10.825972216461819
 21
33.70834742715445
 31
0.0
  0
LINE
  5
592
  8
BYGG-014193$0$MATT
 10
37.750505453415087
 20
27.477997091218761
 30
0.0
 11
37.750505453415087
 21
33.70834742715445
 31
0.0
  0
LINE
  5
593
  8
BYGG-014193$0$MATT
 10
13.825972216461819
 20
32.20834742715445
 30
0.0
 11
34.750505453415087
 21
32.20834742715445
 31
0.0
  0
INSERT
  5
594
  8
0
  2
*U53
 10
0.0
 20
0.0
 30
0.0
  0
SOLID
  5
595
  8
BYGG-014193$0$MATT
 10
13.825972216461819
 20
32.70834742715445
 30
0.0
 11
13.825972216461819
 21
31.70834742715445
 31
0.0
 12
10.825972216461819
 22
32.20834742715445
 32
0.0
 13
10.825972216461819
 23
32.20834742715445
 33
0.0
  0
SOLID
  5
596
  8
BYGG-014193$0$MATT
 10
34.750505453415087
 20
32.70834742715445
 30
0.0
 11
34.750505453415087
 21
31.70834742715445
 31
0.0
 12
37.750505453415087
 22
32.20834742715445
 32
0.0
 13
37.750505453415087
 23
32.20834742715445
 33
0.0
  0
POINT
  5
597
  8
DEFPOINTS
 62
     0
 10
10.825972216461819
 20
25.9779970912187
 30
0.0
  0
POINT
  5
598
  8
DEFPOINTS
 62
     0
 10
37.750505453415087
 20
25.977997091218761
 30
0.0
  0
POINT
  5
599
  8
DEFPOINTS
 62
     0
 10
37.750505453415087
 20
32.20834742715445
 30
0.0
  0
ENDBLK
  5
59A
  8
0
  0
BLOCK
  8
0
  2
*D39
 70
     1
 10
0.0
 20
0.0
 30
0.0
  3
*D39
  1

  0
LINE
  5
7B2
  8
SAPA_MATT
 10
7.8282121612717237
 20
-30.0
 30
0.0
 11
-12.55786575277512
 21
-30.0
 31
0.0
  0
LINE
  5
7B3
  8
SAPA_MATT
 10
8.3282121612717201
 20
-10.0
 30
0.0
 11
-12.557865752775109
 21
-9.9999999999999911
 31
0.0
  0
LINE
  5
7B4
  8
SAPA_MATT
 10
-11.05786575277512
 20
-26.999999999999989
 30
0.0
 11
-11.057865752775109
 21
-12.999999999999989
 31
0.0
  0
SOLID
  5
7B5
  8
SAPA_MATT
 10
-11.557865752775109
 20
-26.999999999999989
 30
0.0
 11
-10.557865752775109
 21
-26.999999999999989
 31
0.0
 12
-11.05786575277512
 22
-30.0
 32
0.0
 13
-11.05786575277512
 23
-30.0
 33
0.0
  0
SOLID
  5
7B6
  8
SAPA_MATT
 10
-11.557865752775109
 20
-12.999999999999989
 30
0.0
 11
-10.557865752775109
 21
-12.999999999999989
 31
0.0
 12
-11.057865752775109
 22
-9.9999999999999947
 32
0.0
 13
-11.057865752775109
 23
-9.9999999999999947
 33
0.0
  0
INSERT
  5
7B7
  8
0
  2
*U68
 10
0.0
 20
0.0
 30
0.0
  0
POINT
  5
7B8
  8
DEFPOINTS
 62
     0
 10
9.3282121612717237
 20
-30.0
 30
0.0
  0
POINT
  5
7B9
  8
DEFPOINTS
 62
     0
 10
9.8282121612717201
 20
-10.0
 30
0.0
  0
POINT
  5
7BA
  8
DEFPOINTS
 62
     0
 10
-11.057865752775109
 20
-9.9999999999999947
 30
0.0
  0
ENDBLK
  5
787
  8
0
  0
BLOCK
  8
0
  2
*D40
 70
     1
 10
0.0
 20
0.0
 30
0.0
  3
*D40
  1

  0
LINE
  5
7A9
  8
SAPA_MATT
 10
8.3282121612717201
 20
-10.0
 30
0.0
 11
-12.557865752775109
 21
-9.9999999999999911
 31
0.0
  0
LINE
  5
7AA
  8
SAPA_MATT
 10
7.3499999999999091
 20
0.0000000000000004
 30
0.0
 11
-12.557865752775109
 21
0.0000000000000061
 31
0.0
  0
LINE
  5
7AB
  8
SAPA_MATT
 10
-11.057865752775109
 20
-6.9999999999999929
 30
0.0
 11
-11.057865752775109
 21
-2.9999999999999938
 31
0.0
  0
SOLID
  5
7AC
  8
SAPA_MATT
 10
-11.557865752775109
 20
-6.9999999999999929
 30
0.0
 11
-10.557865752775109
 21
-6.9999999999999929
 31
0.0
 12
-11.057865752775109
 22
-9.9999999999999947
 32
0.0
 13
-11.057865752775109
 23
-9.9999999999999947
 33
0.0
  0
SOLID
  5
7AD
  8
SAPA_MATT
 10
-11.557865752775109
 20
-2.9999999999999938
 30
0.0
 11
-10.557865752775109
 21
-2.9999999999999938
 31
0.0
 12
-11.057865752775109
 22
0.0000000000000056
 32
0.0
 13
-11.057865752775109
 23
0.0000000000000056
 33
0.0
  0
INSERT
  5
7AE
  8
0
  2
*U67
 10
0.0
 20
0.0
 30
0.0
  0
POINT
  5
7AF
  8
DEFPOINTS
 62
     0
 10
9.8282121612717201
 20
-10.0
 30
0.0
  0
POINT
  5
7B0
  8
DEFPOINTS
 62
     0
 10
8.8499999999999091
 20
0.0
 30
0.0
  0
POINT
  5
7B1
  8
DEFPOINTS
 62
     0
 10
-11.057865752775109
 20
0.0000000000000056
 30
0.0
  0
ENDBLK
  5
793
  8
0
  0
BLOCK
  8
0
  2
*D41
 70
     1
 10
0.0
 20
0.0
 30
0.0
  3
*D41
  1

  0
LINE
  5
7A0
  8
SAPA_MATT
 10
7.3499999999999091
 20
0.0000000000000004
 30
0.0
 11
-12.64999999999984
 21
0.0000000000000061
 31
0.0
  0
LINE
  5
7A1
  8
SAPA_MATT
 10
7.6500000000000901
 20
100.0
 30
0.0
 11
-12.64999999999981
 21
100.0
 31
0.0
  0
LINE
  5
7A2
  8
SAPA_MATT
 10
-11.14999999999984
 20
3.0000000000000049
 30
0.0
 11
-11.149999999999819
 21
97.000000000000057
 31
0.0
  0
SOLID
  5
7A3
  8
SAPA_MATT
 10
-11.64999999999984
 20
3.0000000000000049
 30
0.0
 11
-10.64999999999984
 21
3.0000000000000049
 31
0.0
 12
-11.14999999999984
 22
0.0000000000000057
 32
0.0
 13
-11.14999999999984
 23
0.0000000000000057
 33
0.0
  0
SOLID
  5
7A4
  8
SAPA_MATT
 10
-11.649999999999819
 20
97.000000000000057
 30
0.0
 11
-10.64999999999981
 21
97.000000000000057
 31
0.0
 12
-11.14999999999981
 22
100.0
 32
0.0
 13
-11.14999999999981
 23
100.0
 33
0.0
  0
INSERT
  5
7A5
  8
0
  2
*U66
 10
0.0
 20
0.0
 30
0.0
  0
POINT
  5
7A6
  8
DEFPOINTS
 62
     0
 10
8.8499999999999091
 20
0.0
 30
0.0
  0
POINT
  5
7A7
  8
DEFPOINTS
 62
     0
 10
9.1500000000000892
 20
100.0
 30
0.0
  0
POINT
  5
7A8
  8
DEFPOINTS
 62
     0
 10
-11.14999999999981
 20
100.0
 30
0.0
  0
ENDBLK
  5
79F
  8
0
  0
BLOCK
  8
0
  2
*U43
 70
     1
 10
0.0
 20
0.0
 30
0.0
  3
*U43
  1

  0
TEXT
  5
80E
  8
0
 62
     2
 10
-12.057865752775109
 20
-6.8011811023622002
 30
0.0
 40
3.0
  1
10
 50
90.0
  7
ISO
  0
ENDBLK
  5
810
  8
0
  0
BLOCK
  8
0
  2
*U44
 70
     1
 10
0.0
 20
0.0
 30
0.0
  3
*U44
  1

  0
TEXT
  5
812
  8
0
 62
     2
 10
-12.05816102836566
 20
-22.063090551181102
 30
0.0
 40
3.0
  1
20
 50
90.0
  7
ISO
  0
ENDBLK
  5
814
  8
0
  0
BLOCK
  8
0
  2
*U45
 70
     1
 10
0.0
 20
0.0
 30
0.0
  3
*U45
  1

  0
TEXT
  5
816
  8
SAPA_ARTIKELNR
 10
65.004893969601426
 20
41.089388241353049
 30
0.0
 40
3.5
  1
68019
 50
90.0
  7
ISO
  0
ENDBLK
  5
818
  8
0
  0
BLOCK
  8
0
  2
*U46
 70
     1
 10
0.0
 20
0.0
 30
0.0
  3
*U46
  1

  0
TEXT
  5
81A
  8
SAPA_ARTIKELNR
 10
65.005582945979384
 20
82.186221589257769
 30
0.0
 40
3.5
  1
42077
 50
90.0
  7
ISO
  0
ENDBLK
  5
81C
  8
0
  0
BLOCK
  8
0
  2
*U47
 70
     1
 10
0.0
 20
0.0
 30
0.0
  3
*U47
  1

  0
TEXT
  5
81E
  8
SAPA_ARTIKELNR
 10
65.005582945979384
 20
6.0723697855790748
 30
0.0
 40
3.5
  1
42064
 50
90.0
  7
ISO
  0
ENDBLK
  5
820
  8
0
  0
BLOCK
  8
0
  2
*U48
 70
     1
 10
0.0
 20
0.0
 30
0.0
  3
*U48
  1

  0
TEXT
  5
822
  8
SAPA_ARTIKELNR
 10
65.004893969601426
 20
-26.217591692759239
 30
0.0
 40
3.5
  1
68041
 50
90.0
  7
ISO
  0
ENDBLK
  5
824
  8
0
  0
BLOCK
  8
0
  2
*U49
 70
     1
 10
0.0
 20
0.0
 30
0.0
  3
*U49
  1

  0
TEXT
  5
826
  8
0
 62
     2
 10
-12.14999999999983
 20
47.148818897637817
 30
0.0
 40
3.0
  1
100
 50
90.0
  7
ISO
  0
ENDBLK
  5
828
  8
0
  0
BLOCK
  8
0
  2
*U50
 70
     1
 10
0.0
 20
0.0
 30
0.0
  3
*U50
  1

  0
TEXT
  5
993
  8
0
 62
     2
 10
355.03004320525582
 20
348.69687909202088
 30
0.0
 40
3.0
  1
50
  7
BYGG-014555$0$ISO
  0
ENDBLK
  5
995
  8
0
  0
BLOCK
  8
0
  2
*U51
 70
     1
 10
0.0
 20
0.0
 30
0.0
  3
*U51
  1

  0
TEXT
  5
997
  8
0
 62
     2
 10
391.0162108149454
 20
363.9128716099321
 30
0.0
 40
3.0
  1
20
 50
90.0
  7
BYGG-014555$0$ISO
  0
ENDBLK
  5
999
  8
0
  0
BLOCK
  8
0
  2
*U52
 70
     1
 10
0.0
 20
0.0
 30
0.0
  3
*U52
  1

  0
TEXT
  5
9DF
  8
BYGG-014193$0$MATT
 10
48.545684807191741
 20
11.590476585403589
 30
0.0
 40
3.0
  1
26
 50
90.0
  7
BYGG-014193$0$STANDARD
  0
ENDBLK
  5
9E1
  8
0
  0
BLOCK
  8
0
  2
*U53
 70
     1
 10
0.0
 20
0.0
 30
0.0
  3
*U53
  1

  0
TEXT
  5
9E3
  8
BYGG-014193$0$MATT
 10
21.720626075127139
 20
33.851450655614713
 30
0.0
 40
3.0
  1
27
  7
BYGG-014193$0$STANDARD
  0
ENDBLK
  5
9E5
  8
0
  0
BLOCK
  8
0
  2
*U54
 70
     1
 10
0.0
 20
0.0
 30
0.0
  3
*U54
  1

  0
TEXT
  5
A1D
  8
0
 10
269.13695666615928
 20
387.12121780868893
 30
0.0
 40
3.0
  1
22
 50
90.0
  7
BYGG-014203$0$ISO
  0
ENDBLK
  5
A1F
  8
0
  0
BLOCK
  8
0
  2
*U55
 70
     1
 10
0.0
 20
0.0
 30
0.0
  3
*U55
  1

  0
TEXT
  5
A21
  8
0
 10
243.50583563664401
 20
406.8346351471406
 30
0.0
 40
3.0
  1
29
  7
BYGG-014203$0$ISO
  0
ENDBLK
  5
A23
  8
0
  0
BLOCK
  8
0
  2
*U56
 70
     1
 10
0.0
 20
0.0
 30
0.0
  3
*U56
  1

  0
TEXT
  5
A26
  8
0
 10
89.477352001818133
 20
536.91038923748056
 30
0.0
 40
3.0
  1
29.00259511
  7
BYGG-014203$0$ISO
  0
ENDBLK
  5
A28
  8
0
  0
BLOCK
  8
0
  2
*U57
 70
     1
 10
0.0
 20
0.0
 30
0.0
  3
*U57
  1

  0
TEXT
  5
A2A
  8
0
 10
139.81857160131429
 20
500.42082458589999
 30
0.0
 40
3.0
  1
21.99913956
 50
90.0
  7
BYGG-014203$0$ISO
  0
ENDBLK
  5
A2C
  8
0
  0
BLOCK
  8
0
  2
*U58
 70
     1
 10
0.0
 20
0.0
 30
0.0
  3
*U58
  1

  0
TEXT
  5
ACD
  8
0
 62
     2
 10
390.20311673484258
 20
506.99537380256629
 30
0.0
 40
3.0
  1
50
 50
90.0
  7
BYGG-014542$0$ISO
  0
ENDBLK
  5
ACF
  8
0
  0
BLOCK
  8
0
  2
*U59
 70
     1
 10
0.0
 20
0.0
 30
0.0
  3
*U59
  1

  0
TEXT
  5
AD1
  8
0
 62
     2
 10
325.38706642501228
 20
475.19076842680909
 30
0.0
 40
3.0
  1
100
  7
BYGG-014542$0$ISO
  0
ENDBLK
  5
AD3
  8
0
  0
BLOCK
  8
0
  2
*U60
 70
     1
 10
0.0
 20
0.0
 30
0.0
  3
*U60
  1

  0
TEXT
  5
AE7
  8
0
 10
67.809226247701886
 20
87.147313075523201
 30
0.0
 40
3.0
  1
22
 50
90.0
  7
BYGG-014203$0$ISO
  0
ENDBLK
  5
AE9
  8
0
  0
BLOCK
  8
0
  2
*U61
 70
     1
 10
0.0
 20
0.0
 30
0.0
  3
*U61
  1

  0
TEXT
  5
AEB
  8
0
 10
42.178105218186687
 20
106.86073041397501
 30
0.0
 40
3.0
  1
29
  7
BYGG-014203$0$ISO
  0
ENDBLK
  5
AED
  8
0
  0
BLOCK
  8
0
  2
*U62
 70
     1
 10
0.0
 20
0.0
 30
0.0
  3
*U62
  1

  0
TEXT
  5
D7B
  8
0
 62
     2
 10
31.727031058909521
 20
-37.27908306909228
 30
0.0
 40
3.0
  1
50
  7
BYGG-014555$0$ISO
  0
ENDBLK
  5
D7D
  8
0
  0
BLOCK
  8
0
  2
*U63
 70
     1
 10
0.0
 20
0.0
 30
0.0
  3
*U63
  1

  0
TEXT
  5
D7F
  8
0
 62
     2
 10
67.713198668599148
 20
-22.063090551181102
 30
0.0
 40
3.0
  1
20
 50
90.0
  7
BYGG-014555$0$ISO
  0
ENDBLK
  5
D81
  8
0
  0
BLOCK
  8
0
  2
*U64
 70
     1
 10
0.0
 20
0.0
 30
0.0
  3
*U64
  1

  0
TEXT
  5
D83
  8
0
 62
     2
 10
31.74881889763774
 20
-11.96486920746815
 30
0.0
 40
3.0
  1
50
  7
BYGG-014542$0$ISO
  0
ENDBLK
  5
D85
  8
0
  0
BLOCK
  8
0
  2
*U65
 70
     1
 10
0.0
 20
0.0
 30
0.0
  3
*U65
  1

  0
TEXT
  5
D87
  8
0
 62
     2
 10
-2.3557864781194509
 20
46.296407547131707
 30
0.0
 40
3.0
  1
99.7
 50
90.0
  7
BYGG-014542$0$ISO
  0
ENDBLK
  5
D89
  8
0
  0
BLOCK
  8
0
  2
*U66
 70
     1
 10
0.0
 20
0.0
 30
0.0
  3
*U66
  1

  0
TEXT
  5
E5F
  8
SAPA_MATT
 62
     2
 10
-12.14999999999983
 20
47.148818897637817
 30
0.0
 40
3.0
  1
100
 50
90.0
  7
ISO
  0
ENDBLK
  5
E61
  8
0
  0
BLOCK
  8
0
  2
*U67
 70
     1
 10
0.0
 20
0.0
 30
0.0
  3
*U67
  1

  0
TEXT
  5
E63
  8
SAPA_MATT
 62
     2
 10
-12.057865752775109
 20
-6.8011811023622002
 30
0.0
 40
3.0
  1
10
 50
90.0
  7
ISO
  0
ENDBLK
  5
E65
  8
0
  0
BLOCK
  8
0
  2
*U68
 70
     1
 10
0.0
 20
0.0
 30
0.0
  3
*U68
  1

  0
TEXT
  5
E67
  8
SAPA_MATT
 62
     2
 10
-12.05816102836566
 20
-22.063090551181102
 30
0.0
 40
3.0
  1
20
 50
90.0
  7
ISO
  0
ENDBLK
  5
E69
  8
0
  0
ENDSEC
  0
SECTION
  2
ENTITIES
  0
POLYLINE
  5
7F
  8
SAPA_LIGHT
 66
     1
 10
0.0
 20
0.0
 30
0.0
 70
     1
  0
VERTEX
  5
7FC
  8
SAPA_LIGHT
 10
58.828212161271722
 20
-30.000000000000021
 30
0.0
  0
VERTEX
  5
7FD
  8
SAPA_LIGHT
 10
8.8282121612717201
 20
-30.000000000000021
 30
0.0
  0
VERTEX
  5
7FE
  8
SAPA_LIGHT
 10
8.8282121612717201
 20
-9.9999999999999574
 30
0.0
  0
VERTEX
  5
7FF
  8
SAPA_LIGHT
 10
58.828212161271722
 20
-9.9999999999999574
 30
0.0
  0
SEQEND
  5
800
  8
SAPA_LIGHT
  0
POLYLINE
  5
81
  8
SAPA_LIGHT
 66
     1
 10
0.0
 20
0.0
 30
0.0
  0
VERTEX
  5
801
  8
SAPA_LIGHT
 10
23.250000000000199
 20
100.0000000000021
 30
0.0
  0
VERTEX
  5
802
  8
SAPA_LIGHT
 10
58.849999999999987
 20
100.0000000000021
 30
0.0
  0
VERTEX
  5
803
  8
SAPA_LIGHT
 10
58.850000000000129
 20
0.0026590329958509
 30
0.0
  0
VERTEX
  5
804
  8
SAPA_LIGHT
 10
8.8500000000001933
 20
0.0026590329958509
 30
0.0
  0
VERTEX
  5
805
  8
SAPA_LIGHT
 10
8.8500000000000512
 20
100.0000000000021
 30
0.0
  0
VERTEX
  5
806
  8
SAPA_LIGHT
 10
17.250000000000139
 20
100.0000000000021
 30
0.0
  0
SEQEND
  5
807
  8
SAPA_LIGHT
  0
POLYLINE
  5
82
  8
SAPA_LIGHT
 66
     1
 10
0.0
 20
0.0
 30
0.0
 70
     1
  0
VERTEX
  5
808
  8
SAPA_LIGHT
 10
23.25000000000022
 20
82.999999999999815
 30
0.0
  0
VERTEX
  5
809
  8
SAPA_LIGHT
 10
17.250000000000281
 20
82.999999999999815
 30
0.0
  0
VERTEX
  5
80A
  8
SAPA_LIGHT
 10
17.250000000000281
 20
115.9156750223829
 30
0.0
  0
VERTEX
  5
80B
  8
SAPA_LIGHT
 10
23.250000000000501
 20
115.9156750223829
 30
0.0
  0
SEQEND
  5
80C
  8
SAPA_LIGHT
  0
INSERT
  5
209
  8
0
  2
*U45
 10
0.0
 20
0.0
 30
0.0
  0
INSERT
  5
20A
  8
0
  2
*U46
 10
0.0
 20
0.0
 30
0.0
  0
INSERT
  5
20B
  8
0
  2
*U47
 10
0.0
 20
0.0
 30
0.0
  0
INSERT
  5
20C
  8
0
  2
*U48
 10
0.0
 20
0.0
 30
0.0
  0
LINE
  5
33E
  8
SAPA_ANSLUTNING
 10
58.828212161271722
 20
-11.0
 30
0.0
 11
78.828212161271722
 21
-11.0
 31
0.0
  0
LINE
  5
33F
  8
SAPA_ANSLUTNING
 10
-11.171787838728269
 20
-11.0
 30
0.0
 11
8.8282121612717201
 21
-11.0
 31
0.0
  0
LINE
  5
341
  8
SAPA_LIGHT
 10
58.828212161271722
 20
-11.0
 30
0.0
 11
78.828212161271722
 21
-11.0
 31
0.0
  0
LINE
  5
342
  8
SAPA_LIGHT
 10
8.8282121612717201
 20
-11.0
 30
0.0
 11
-11.171787838728269
 21
-11.0
 31
0.0
  0
POLYLINE
  5
722
  8
SAPA_PROFIL
 66
     1
 10
0.0
 20
0.0
 30
0.0
 70
     1
  0
VERTEX
  5
C34
  8
SAPA_PROFIL
 10
23.728212161271699
 20
-16.999999999999542
 30
0.0
  0
VERTEX
  5
C35
  8
SAPA_PROFIL
 10
19.828212161271718
 20
-17.0
 30
0.0
 42
0.5769223638781051
  0
VERTEX
  5
C36
  8
SAPA_PROFIL
 10
15.928212161271739
 20
-23.744994432064232
 30
0.0
 42
-0.1313259594334748
  0
VERTEX
  5
C37
  8
SAPA_PROFIL
 10
16.528212161271771
 20
-25.989988864128581
 30
0.0
  0
VERTEX
  5
C38
  8
SAPA_PROFIL
 10
16.528212161271771
 20
-27.199999999999989
 30
0.0
 42
-0.4142135623730951
  0
VERTEX
  5
C39
  8
SAPA_PROFIL
 10
15.528212161271769
 20
-28.199999999999989
 30
0.0
  0
VERTEX
  5
C3A
  8
SAPA_PROFIL
 10
11.628212161271669
 20
-28.199999999999989
 30
0.0
 42
-0.4142135623730951
  0
VERTEX
  5
C3B
  8
SAPA_PROFIL
 10
10.628212161271669
 20
-27.199999999999989
 30
0.0
  0
VERTEX
  5
C3C
  8
SAPA_PROFIL
 10
10.628212161271669
 20
-14.0
 30
0.0
 42
-0.4142135623730951
  0
VERTEX
  5
C3D
  8
SAPA_PROFIL
 10
11.628212161271669
 20
-13.0
 30
0.0
  0
VERTEX
  5
C3E
  8
SAPA_PROFIL
 10
33.428212161271631
 20
-13.0
 30
0.0
  0
VERTEX
  5
C3F
  8
SAPA_PROFIL
 10
33.828212161271722
 20
-12.599999999999961
 30
0.0
  0
VERTEX
  5
C40
  8
SAPA_PROFIL
 10
34.228212161271699
 20
-13.0
 30
0.0
  0
VERTEX
  5
C41
  8
SAPA_PROFIL
 10
56.028212161271647
 20
-13.0
 30
0.0
 42
-0.4142135623730951
  0
VERTEX
  5
C42
  8
SAPA_PROFIL
 10
57.028212161271661
 20
-14.0
 30
0.0
  0
VERTEX
  5
C43
  8
SAPA_PROFIL
 10
57.028212161271661
 20
-27.199999999999989
 30
0.0
 42
-0.4142135623730951
  0
VERTEX
  5
C44
  8
SAPA_PROFIL
 10
56.028212161271647
 20
-28.199999999999989
 30
0.0
  0
VERTEX
  5
C45
  8
SAPA_PROFIL
 10
52.128212161271669
 20
-28.199999999999989
 30
0.0
 42
-0.4142135623730951
  0
VERTEX
  5
C46
  8
SAPA_PROFIL
 10
51.128212161271676
 20
-27.199999999999989
 30
0.0
  0
VERTEX
  5
C47
  8
SAPA_PROFIL
 10
51.128212161271676
 20
-25.989988864128581
 30
0.0
 42
-0.1313259594334748
  0
VERTEX
  5
C48
  8
SAPA_PROFIL
 10
51.728212161271578
 20
-23.744994432064232
 30
0.0
 42
0.5769223638781068
  0
VERTEX
  5
C49
  8
SAPA_PROFIL
 10
47.828212161271722
 20
-16.99999999999994
 30
0.0
  0
VERTEX
  5
C4A
  8
SAPA_PROFIL
 10
43.928212161271617
 20
-16.999999999999542
 30
0.0
 42
0.4142135623730951
  0
VERTEX
  5
C4B
  8
SAPA_PROFIL
 10
43.428212161271631
 20
-17.499999999999542
 30
0.0
  0
VERTEX
  5
C4C
  8
SAPA_PROFIL
 10
43.428212161271631
 20
-21.5
 30
0.0
  0
VERTEX
  5
C4D
  8
SAPA_PROFIL
 10
43.428212161271631
 20
-22.0
 30
0.0
  0
VERTEX
  5
C4E
  8
SAPA_PROFIL
 10
24.228212161271699
 20
-22.0
 30
0.0
  0
VERTEX
  5
C4F
  8
SAPA_PROFIL
 10
24.228212161271699
 20
-21.5
 30
0.0
  0
VERTEX
  5
C50
  8
SAPA_PROFIL
 10
24.228212161271699
 20
-17.499999999999542
 30
0.0
 42
0.4142135623730951
  0
SEQEND
  5
C51
  8
SAPA_PROFIL
  0
POLYLINE
  5
723
  8
SAPA_PROFIL
 66
     1
 10
0.0
 20
0.0
 30
0.0
 70
     1
  0
VERTEX
  5
C52
  8
SAPA_PROFIL
 10
49.325802695268749
 20
-27.81006990492773
 30
0.0
  0
VERTEX
  5
C53
  8
SAPA_PROFIL
 10
49.328212161271608
 20
-27.810353444305012
 30
0.0
  0
VERTEX
  5
C54
  8
SAPA_PROFIL
 10
49.328212161271843
 20
-23.923324163210388
 30
0.0
 42
0.0247814694318612
  0
VERTEX
  5
C55
  8
SAPA_PROFIL
 10
49.560623775178662
 20
-23.763017896526659
 30
0.0
  0
VERTEX
  5
C56
  8
SAPA_PROFIL
 10
49.560623775178662
 20
-23.232411613906951
 30
0.0
  0
VERTEX
  5
C57
  8
SAPA_PROFIL
 10
50.091230057798377
 20
-23.232411613906951
 30
0.0
 42
0.5765964874796224
  0
VERTEX
  5
C58
  8
SAPA_PROFIL
 10
48.203407461853772
 20
-18.674804699417621
 30
0.0
  0
VERTEX
  5
C59
  8
SAPA_PROFIL
 10
47.828212161271722
 20
-19.04999999999972
 30
0.0
  0
VERTEX
  5
C5A
  8
SAPA_PROFIL
 10
47.453016860689779
 20
-18.67480469941961
 30
0.0
 42
0.576596487479657
  0
VERTEX
  5
C5B
  8
SAPA_PROFIL
 10
45.565194264745287
 20
-23.232411613907061
 30
0.0
  0
VERTEX
  5
C5C
  8
SAPA_PROFIL
 10
46.09580054736454
 20
-23.232411613907061
 30
0.0
  0
VERTEX
  5
C5D
  8
SAPA_PROFIL
 10
46.095800547364661
 20
-23.763017896526659
 30
0.0
 42
0.0324535495921299
  0
VERTEX
  5
C5E
  8
SAPA_PROFIL
 10
46.403212161271881
 20
-23.96817240078531
 30
0.0
  0
VERTEX
  5
C5F
  8
SAPA_PROFIL
 10
45.578212161271722
 20
-25.397114317029949
 30
0.0
 42
-0.079534545142671
  0
VERTEX
  5
C60
  8
SAPA_PROFIL
 10
44.474110195021687
 20
-24.49999999999994
 30
0.0
  0
VERTEX
  5
C61
  8
SAPA_PROFIL
 10
34.228212161271699
 20
-24.49999999999994
 30
0.0
  0
VERTEX
  5
C62
  8
SAPA_PROFIL
 10
33.828212161271722
 20
-24.099999999999969
 30
0.0
  0
VERTEX
  5
C63
  8
SAPA_PROFIL
 10
33.428212161271631
 20
-24.49999999999994
 30
0.0
  0
VERTEX
  5
C64
  8
SAPA_PROFIL
 10
23.182314127521629
 20
-24.49999999999994
 30
0.0
 42
-0.0795345451426699
  0
VERTEX
  5
C65
  8
SAPA_PROFIL
 10
22.078212161272059
 20
-25.397114317030631
 30
0.0
  0
VERTEX
  5
C66
  8
SAPA_PROFIL
 10
21.253212161271559
 20
-23.96817240078531
 30
0.0
 42
0.0324535495921269
  0
VERTEX
  5
C67
  8
SAPA_PROFIL
 10
21.560623775178779
 20
-23.763017896526659
 30
0.0
  0
VERTEX
  5
C68
  8
SAPA_PROFIL
 10
21.560623775178779
 20
-23.232411613907061
 30
0.0
  0
VERTEX
  5
C69
  8
SAPA_PROFIL
 10
22.09123005779816
 20
-23.232411613907178
 30
0.0
 42
0.5765964874796641
  0
VERTEX
  5
C6A
  8
SAPA_PROFIL
 10
20.203407461853772
 20
-18.674804699417621
 30
0.0
  0
VERTEX
  5
C6B
  8
SAPA_PROFIL
 10
19.828212161271718
 20
-19.04999999999972
 30
0.0
  0
VERTEX
  5
C6C
  8
SAPA_PROFIL
 10
19.453016860689779
 20
-18.67480469941961
 30
0.0
 42
0.5765964874796238
  0
VERTEX
  5
C6D
  8
SAPA_PROFIL
 10
17.565194264744939
 20
-23.232411613906951
 30
0.0
  0
VERTEX
  5
C6E
  8
SAPA_PROFIL
 10
18.095800547364771
 20
-23.232411613906951
 30
0.0
  0
VERTEX
  5
C6F
  8
SAPA_PROFIL
 10
18.095800547364771
 20
-23.763017896526659
 30
0.0
 42
0.0247814694318589
  0
VERTEX
  5
C70
  8
SAPA_PROFIL
 10
18.328212161271718
 20
-23.923324163210001
 30
0.0
  0
VERTEX
  5
C71
  8
SAPA_PROFIL
 10
18.328212161271718
 20
-27.810353444305122
 30
0.0
  0
VERTEX
  5
C72
  8
SAPA_PROFIL
 10
18.330621627274581
 20
-27.81006990492773
 30
0.0
 42
0.944860514891134
  0
VERTEX
  5
C73
  8
SAPA_PROFIL
 10
19.828212161271718
 20
-27.81006990492773
 30
0.0
  0
VERTEX
  5
C74
  8
SAPA_PROFIL
 10
19.828212161271718
 20
-27.49999999999995
 30
0.0
  0
VERTEX
  5
C75
  8
SAPA_PROFIL
 10
20.828212161271718
 20
-27.49999999999995
 30
0.0
 42
-0.4142135623730951
  0
VERTEX
  5
C76
  8
SAPA_PROFIL
 10
21.328212161271718
 20
-27.99999999999994
 30
0.0
  0
VERTEX
  5
C77
  8
SAPA_PROFIL
 10
21.328212161271718
 20
-28.199999999999989
 30
0.0
  0
VERTEX
  5
C78
  8
SAPA_PROFIL
 10
21.328212161271718
 20
-29.49999999999994
 30
0.0
 42
-0.4142135623730951
  0
VERTEX
  5
C79
  8
SAPA_PROFIL
 10
20.828212161271718
 20
-29.99999999999995
 30
0.0
  0
VERTEX
  5
C7A
  8
SAPA_PROFIL
 10
9.3282121612717201
 20
-30.0
 30
0.0
 42
-0.4142135623730951
  0
VERTEX
  5
C7B
  8
SAPA_PROFIL
 10
8.8282121612717201
 20
-29.5
 30
0.0
  0
VERTEX
  5
C7C
  8
SAPA_PROFIL
 10
8.8282121612717201
 20
-11.0
 30
0.0
 42
-0.4142135623730951
  0
VERTEX
  5
C7D
  8
SAPA_PROFIL
 10
9.8282121612717201
 20
-10.0
 30
0.0
  0
VERTEX
  5
C7E
  8
SAPA_PROFIL
 10
17.578212161271718
 20
-10.0
 30
0.0
  0
VERTEX
  5
C7F
  8
SAPA_PROFIL
 10
17.578212161271718
 20
-10.5
 30
0.0
  0
VERTEX
  5
C80
  8
SAPA_PROFIL
 10
20.078212161271718
 20
-10.5
 30
0.0
  0
VERTEX
  5
C81
  8
SAPA_PROFIL
 10
20.078212161271718
 20
-10.0
 30
0.0
  0
VERTEX
  5
C82
  8
SAPA_PROFIL
 10
22.578212161271718
 20
-10.0
 30
0.0
  0
VERTEX
  5
C83
  8
SAPA_PROFIL
 10
22.578212161271718
 20
-10.5
 30
0.0
  0
VERTEX
  5
C84
  8
SAPA_PROFIL
 10
25.078212161271718
 20
-10.5
 30
0.0
  0
VERTEX
  5
C85
  8
SAPA_PROFIL
 10
25.078212161271718
 20
-10.0
 30
0.0
  0
VERTEX
  5
C86
  8
SAPA_PROFIL
 10
27.578212161271718
 20
-10.0
 30
0.0
  0
VERTEX
  5
C87
  8
SAPA_PROFIL
 10
27.578212161271718
 20
-10.5
 30
0.0
  0
VERTEX
  5
C88
  8
SAPA_PROFIL
 10
30.078212161271718
 20
-10.5
 30
0.0
  0
VERTEX
  5
C89
  8
SAPA_PROFIL
 10
30.078212161271718
 20
-10.0
 30
0.0
  0
VERTEX
  5
C8A
  8
SAPA_PROFIL
 10
32.578212161271722
 20
-10.0
 30
0.0
  0
VERTEX
  5
C8B
  8
SAPA_PROFIL
 10
32.578212161271722
 20
-10.5
 30
0.0
  0
VERTEX
  5
C8C
  8
SAPA_PROFIL
 10
35.078212161271722
 20
-10.5
 30
0.0
  0
VERTEX
  5
C8D
  8
SAPA_PROFIL
 10
35.078212161271722
 20
-10.0
 30
0.0
  0
VERTEX
  5
C8E
  8
SAPA_PROFIL
 10
37.578212161271722
 20
-10.0
 30
0.0
  0
VERTEX
  5
C8F
  8
SAPA_PROFIL
 10
37.578212161271722
 20
-10.5
 30
0.0
  0
VERTEX
  5
C90
  8
SAPA_PROFIL
 10
40.078212161271722
 20
-10.5
 30
0.0
  0
VERTEX
  5
C91
  8
SAPA_PROFIL
 10
40.078212161271722
 20
-10.0
 30
0.0
  0
VERTEX
  5
C92
  8
SAPA_PROFIL
 10
42.578212161271722
 20
-10.0
 30
0.0
  0
VERTEX
  5
C93
  8
SAPA_PROFIL
 10
42.578212161271722
 20
-10.5
 30
0.0
  0
VERTEX
  5
C94
  8
SAPA_PROFIL
 10
45.078212161271722
 20
-10.5
 30
0.0
  0
VERTEX
  5
C95
  8
SAPA_PROFIL
 10
45.078212161271722
 20
-10.0
 30
0.0
  0
VERTEX
  5
C96
  8
SAPA_PROFIL
 10
47.578212161271722
 20
-10.0
 30
0.0
  0
VERTEX
  5
C97
  8
SAPA_PROFIL
 10
47.578212161271722
 20
-10.5
 30
0.0
  0
VERTEX
  5
C98
  8
SAPA_PROFIL
 10
50.078212161271722
 20
-10.5
 30
0.0
  0
VERTEX
  5
C99
  8
SAPA_PROFIL
 10
50.078212161271722
 20
-10.0
 30
0.0
  0
VERTEX
  5
C9A
  8
SAPA_PROFIL
 10
57.828212161271722
 20
-10.0
 30
0.0
 42
-0.4142135623730951
  0
VERTEX
  5
C9B
  8
SAPA_PROFIL
 10
58.828212161271722
 20
-11.0
 30
0.0
  0
VERTEX
  5
C9C
  8
SAPA_PROFIL
 10
58.828212161271722
 20
-29.5
 30
0.0
 42
-0.4142135623730951
  0
VERTEX
  5
C9D
  8
SAPA_PROFIL
 10
58.328212161271722
 20
-30.0
 30
0.0
  0
VERTEX
  5
C9E
  8
SAPA_PROFIL
 10
46.828212161271722
 20
-29.99999999999995
 30
0.0
 42
-0.4142135623730951
  0
VERTEX
  5
C9F
  8
SAPA_PROFIL
 10
46.328212161271722
 20
-29.49999999999994
 30
0.0
  0
VERTEX
  5
CA0
  8
SAPA_PROFIL
 10
46.328212161271722
 20
-28.199999999999989
 30
0.0
  0
VERTEX
  5
CA1
  8
SAPA_PROFIL
 10
46.328212161271722
 20
-27.99999999999994
 30
0.0
 42
-0.4142135623730951
  0
VERTEX
  5
CA2
  8
SAPA_PROFIL
 10
46.828212161271722
 20
-27.49999999999995
 30
0.0
  0
VERTEX
  5
CA3
  8
SAPA_PROFIL
 10
47.828212161271722
 20
-27.49999999999995
 30
0.0
  0
VERTEX
  5
CA4
  8
SAPA_PROFIL
 10
47.828212161271722
 20
-27.810353444305012
 30
0.0
 42
1.0
  0
VERTEX
  5
CA5
  8
SAPA_PROFIL
 10
49.328212161271722
 20
-27.810353444305122
 30
0.0
 42
0.8892228952715917
  0
SEQEND
  5
CA6
  8
SAPA_PROFIL
  0
INSERT
  5
724
  8
SAPA_PROFIL
  2
BYGG-014193
 10
375.01408191103769
 20
71.900472614304732
 30
0.0
  0
POLYLINE
  5
725
  8
SAPA_PROFIL
 66
     1
 10
0.0
 20
0.0
 30
0.0
 70
     1
  0
VERTEX
  5
CA7
  8
SAPA_PROFIL
 10
21.81449900599927
 20
35.283321904117088
 30
0.0
 42
-0.1757213873471214
  0
VERTEX
  5
CA8
  8
SAPA_PROFIL
 10
22.094533826604959
 20
35.088888888888619
 30
0.0
 42
-0.5627218711633772
  0
VERTEX
  5
CA9
  8
SAPA_PROFIL
 10
20.2243950432341
 20
30.775604956765498
 30
0.0
  0
VERTEX
  5
CAA
  8
SAPA_PROFIL
 10
19.849999999999959
 20
31.14999999999975
 30
0.0
  0
VERTEX
  5
CAB
  8
SAPA_PROFIL
 10
19.475604956767079
 20
30.77560495676687
 30
0.0
 42
-0.5627218711632042
  0
VERTEX
  5
CAC
  8
SAPA_PROFIL
 10
17.605466173394969
 20
35.088888888888619
 30
0.0
 42
-0.1757213873472601
  0
VERTEX
  5
CAD
  8
SAPA_PROFIL
 10
17.885500994000999
 20
35.283321904116413
 30
0.0
 42
0.3402319204271726
  0
VERTEX
  5
CAE
  8
SAPA_PROFIL
 10
18.24999999999994
 20
35.756977370151283
 30
0.0
  0
VERTEX
  5
CAF
  8
SAPA_PROFIL
 10
18.24999999999994
 20
35.800000000000068
 30
0.0
 42
0.4142135623730951
  0
VERTEX
  5
CB0
  8
SAPA_PROFIL
 10
17.74999999999994
 20
36.300000000000068
 30
0.0
  0
VERTEX
  5
CB1
  8
SAPA_PROFIL
 10
16.849999999999959
 20
36.299999999999947
 30
0.0
 42
0.414213562373095
  0
VERTEX
  5
CB2
  8
SAPA_PROFIL
 10
14.849999999999961
 20
34.299999999999962
 30
0.0
  0
VERTEX
  5
CB3
  8
SAPA_PROFIL
 10
14.849999999999961
 20
30.300000000000072
 30
0.0
 42
-0.4142135623730951
  0
VERTEX
  5
CB4
  8
SAPA_PROFIL
 10
12.849999999999961
 20
28.300000000000072
 30
0.0
  0
VERTEX
  5
CB5
  8
SAPA_PROFIL
 10
12.849997628513901
 20
28.300000000000072
 30
0.0
  0
VERTEX
  5
CB6
  8
SAPA_PROFIL
 10
11.64999999999992
 20
28.300000000000072
 30
0.0
 42
-0.4142135623730951
  0
VERTEX
  5
CB7
  8
SAPA_PROFIL
 10
10.64999999999992
 20
29.300000000000072
 30
0.0
  0
VERTEX
  5
CB8
  8
SAPA_PROFIL
 10
10.650000000000031
 20
71.200000000000045
 30
0.0
  0
VERTEX
  5
CB9
  8
SAPA_PROFIL
 10
31.755000000000049
 20
71.199999999999989
 30
0.0
 42
0.4142135623730951
  0
VERTEX
  5
CBA
  8
SAPA_PROFIL
 10
32.250000000000057
 20
71.694999999999993
 30
0.0
  0
VERTEX
  5
CBB
  8
SAPA_PROFIL
 10
32.250000000000057
 20
71.704999999999927
 30
0.0
 42
0.4142135623730951
  0
VERTEX
  5
CBC
  8
SAPA_PROFIL
 10
31.755000000000049
 20
72.199999999999932
 30
0.0
  0
VERTEX
  5
CBD
  8
SAPA_PROFIL
 10
31.59499999999997
 20
72.199999999999932
 30
0.0
 42
-0.4142135623730826
  0
VERTEX
  5
CBE
  8
SAPA_PROFIL
 10
31.099999999999969
 20
72.694999999999936
 30
0.0
  0
VERTEX
  5
CBF
  8
SAPA_PROFIL
 10
31.099999999999969
 20
73.5
 30
0.0
 42
-0.374756460117969
  0
VERTEX
  5
CC0
  8
SAPA_PROFIL
 10
33.475604956763561
 20
76.224395043236086
 30
0.0
  0
VERTEX
  5
CC1
  8
SAPA_PROFIL
 10
33.849999999999973
 20
75.849999999999625
 30
0.0
  0
VERTEX
  5
CC2
  8
SAPA_PROFIL
 10
34.224395043236257
 20
76.224395043234381
 30
0.0
 42
-0.3747564601179689
  0
VERTEX
  5
CC3
  8
SAPA_PROFIL
 10
36.599999999999973
 20
73.5
 30
0.0
  0
VERTEX
  5
CC4
  8
SAPA_PROFIL
 10
36.599999999999973
 20
72.694999999999936
 30
0.0
 42
-0.4142135623730824
  0
VERTEX
  5
CC5
  8
SAPA_PROFIL
 10
36.105000000000082
 20
72.199999999999932
 30
0.0
  0
VERTEX
  5
CC6
  8
SAPA_PROFIL
 10
35.945
 20
72.199999999999932
 30
0.0
 42
0.4142135623730951
  0
VERTEX
  5
CC7
  8
SAPA_PROFIL
 10
35.449999999999989
 20
71.704999999999927
 30
0.0
  0
VERTEX
  5
CC8
  8
SAPA_PROFIL
 10
35.449999999999989
 20
71.694999999999993
 30
0.0
 42
0.4142135623730951
  0
VERTEX
  5
CC9
  8
SAPA_PROFIL
 10
35.945
 20
71.199999999999989
 30
0.0
  0
VERTEX
  5
CCA
  8
SAPA_PROFIL
 10
57.050000000000068
 20
71.199999999999989
 30
0.0
  0
VERTEX
  5
CCB
  8
SAPA_PROFIL
 10
57.049999999999841
 20
29.300000000000011
 30
0.0
 42
-0.4142135623730951
  0
VERTEX
  5
CCC
  8
SAPA_PROFIL
 10
56.049999999999841
 20
28.300000000000011
 30
0.0
  0
VERTEX
  5
CCD
  8
SAPA_PROFIL
 10
54.850002371485857
 20
28.300000000000011
 30
0.0
  0
VERTEX
  5
CCE
  8
SAPA_PROFIL
 10
54.849999999999909
 20
28.300000000000011
 30
0.0
 42
-0.4142135623730951
  0
VERTEX
  5
CCF
  8
SAPA_PROFIL
 10
52.849999999999909
 20
30.300000000000011
 30
0.0
  0
VERTEX
  5
CD0
  8
SAPA_PROFIL
 10
52.849999999999909
 20
34.299999999999962
 30
0.0
 42
0.4142135623730951
  0
VERTEX
  5
CD1
  8
SAPA_PROFIL
 10
50.849999999999909
 20
36.299999999999947
 30
0.0
  0
VERTEX
  5
CD2
  8
SAPA_PROFIL
 10
49.949999999999818
 20
36.300000000000011
 30
0.0
 42
0.4142135623730951
  0
VERTEX
  5
CD3
  8
SAPA_PROFIL
 10
49.449999999999818
 20
35.800000000000011
 30
0.0
  0
VERTEX
  5
CD4
  8
SAPA_PROFIL
 10
49.449999999999818
 20
35.756977370151283
 30
0.0
 42
0.3402319204271726
  0
VERTEX
  5
CD5
  8
SAPA_PROFIL
 10
49.814499005998762
 20
35.283321904116413
 30
0.0
 42
-0.1757213873472602
  0
VERTEX
  5
CD6
  8
SAPA_PROFIL
 10
50.094533826604902
 20
35.088888888888619
 30
0.0
 42
-0.5627218711634021
  0
VERTEX
  5
CD7
  8
SAPA_PROFIL
 10
48.224395043233237
 20
30.77560495676574
 30
0.0
  0
VERTEX
  5
CD8
  8
SAPA_PROFIL
 10
47.849999999999909
 20
31.149999999999181
 30
0.0
  0
VERTEX
  5
CD9
  8
SAPA_PROFIL
 10
47.475604956762702
 20
30.775604956761981
 30
0.0
 42
-0.5627218711638518
  0
VERTEX
  5
CDA
  8
SAPA_PROFIL
 10
45.605466173394909
 20
35.088888888888683
 30
0.0
 42
-0.1757213873471214
  0
VERTEX
  5
CDB
  8
SAPA_PROFIL
 10
45.885500994000488
 20
35.283321904117152
 30
0.0
 42
0.3402319204270061
  0
VERTEX
  5
CDC
  8
SAPA_PROFIL
 10
46.249999999999879
 20
35.756977370149059
 30
0.0
  0
VERTEX
  5
CDD
  8
SAPA_PROFIL
 10
46.249999999999879
 20
35.799999999999962
 30
0.0
 42
0.4142135623731031
  0
VERTEX
  5
CDE
  8
SAPA_PROFIL
 10
45.749999999999879
 20
36.299999999999947
 30
0.0
  0
VERTEX
  5
CDF
  8
SAPA_PROFIL
 10
44.849999999999909
 20
36.300000000000011
 30
0.0
 42
0.4142135623730951
  0
VERTEX
  5
CE0
  8
SAPA_PROFIL
 10
42.849999999999909
 20
34.300000000000011
 30
0.0
  0
VERTEX
  5
CE1
  8
SAPA_PROFIL
 10
42.849999999999788
 20
30.300000000000011
 30
0.0
 42
-0.4142135623730951
  0
VERTEX
  5
CE2
  8
SAPA_PROFIL
 10
40.849999999999788
 20
28.300000000000011
 30
0.0
  0
VERTEX
  5
CE3
  8
SAPA_PROFIL
 10
39.249999999999893
 20
28.300000000000011
 30
0.0
  0
VERTEX
  5
CE4
  8
SAPA_PROFIL
 10
38.049999999999841
 20
29.50000000000006
 30
0.0
  0
VERTEX
  5
CE5
  8
SAPA_PROFIL
 10
29.64999999999992
 20
29.50000000000006
 30
0.0
  0
VERTEX
  5
CE6
  8
SAPA_PROFIL
 10
28.449999999999878
 20
28.299999999999962
 30
0.0
  0
VERTEX
  5
CE7
  8
SAPA_PROFIL
 10
26.849999999999969
 20
28.300000000000072
 30
0.0
 42
-0.4142135623730951
  0
VERTEX
  5
CE8
  8
SAPA_PROFIL
 10
24.849999999999969
 20
30.300000000000072
 30
0.0
  0
VERTEX
  5
CE9
  8
SAPA_PROFIL
 10
24.849999999999969
 20
34.300000000000068
 30
0.0
 42
0.4142135623730951
  0
VERTEX
  5
CEA
  8
SAPA_PROFIL
 10
22.849999999999969
 20
36.300000000000068
 30
0.0
  0
VERTEX
  5
CEB
  8
SAPA_PROFIL
 10
21.949999999999871
 20
36.299999999999947
 30
0.0
 42
0.414213562373103
  0
VERTEX
  5
CEC
  8
SAPA_PROFIL
 10
21.449999999999878
 20
35.799999999999962
 30
0.0
  0
VERTEX
  5
CED
  8
SAPA_PROFIL
 10
21.449999999999878
 20
35.756977370149123
 30
0.0
 42
0.3402319204270058
  0
SEQEND
  5
CEE
  8
SAPA_PROFIL
  0
POLYLINE
  5
726
  8
SAPA_PROFIL
 66
     1
 10
0.0
 20
0.0
 30
0.0
 70
     1
  0
VERTEX
  5
CEF
  8
SAPA_PROFIL
 10
46.949999999999811
 20
28.181165541210589
 30
0.0
 42
0.3406875359425307
  0
VERTEX
  5
CF0
  8
SAPA_PROFIL
 10
46.577272727272657
 20
28.664695946555529
 30
0.0
 42
-0.077294398689983
  0
VERTEX
  5
CF1
  8
SAPA_PROFIL
 10
45.168945279853801
 20
29.279579927592302
 30
0.0
 42
0.4814060708635808
  0
VERTEX
  5
CF2
  8
SAPA_PROFIL
 10
44.429811923206671
 20
29.02526606914779
 30
0.0
 42
-0.3172172005078511
  0
VERTEX
  5
CF3
  8
SAPA_PROFIL
 10
40.850001438560177
 20
26.5
 30
0.0
  0
VERTEX
  5
CF4
  8
SAPA_PROFIL
 10
34.36961524227064
 20
26.5
 30
0.0
  0
VERTEX
  5
CF5
  8
SAPA_PROFIL
 10
33.849999999999973
 20
26.800000000000011
 30
0.0
  0
VERTEX
  5
CF6
  8
SAPA_PROFIL
 10
33.330384757729178
 20
26.49999999999995
 30
0.0
  0
VERTEX
  5
CF7
  8
SAPA_PROFIL
 10
26.849998561439691
 20
26.500000000000341
 30
0.0
 42
-0.317217200507851
  0
VERTEX
  5
CF8
  8
SAPA_PROFIL
 10
23.27018807679309
 20
29.02526606914785
 30
0.0
 42
0.4814060708635807
  0
VERTEX
  5
CF9
  8
SAPA_PROFIL
 10
22.53105472014596
 20
29.279579927592302
 30
0.0
 42
-0.077294398689983
  0
VERTEX
  5
CFA
  8
SAPA_PROFIL
 10
21.122727272727101
 20
28.664695946555529
 30
0.0
 42
0.3406875359425307
  0
VERTEX
  5
CFB
  8
SAPA_PROFIL
 10
20.74999999999994
 20
28.181165541210589
 30
0.0
  0
VERTEX
  5
CFC
  8
SAPA_PROFIL
 10
20.74999999999994
 20
26.5
 30
0.0
  0
VERTEX
  5
CFD
  8
SAPA_PROFIL
 10
18.949999999999871
 20
26.5
 30
0.0
  0
VERTEX
  5
CFE
  8
SAPA_PROFIL
 10
18.949999999999871
 20
28.18116554121071
 30
0.0
 42
0.3406875359425185
  0
VERTEX
  5
CFF
  8
SAPA_PROFIL
 10
18.577272727272831
 20
28.664695946555529
 30
0.0
 42
-0.0772943986899827
  0
VERTEX
  5
D00
  8
SAPA_PROFIL
 10
17.168945279853862
 20
29.279579927592302
 30
0.0
 42
0.4814060708635715
  0
VERTEX
  5
D01
  8
SAPA_PROFIL
 10
16.429811923206842
 20
29.02526606914785
 30
0.0
 42
-0.3172174763920503
  0
VERTEX
  5
D02
  8
SAPA_PROFIL
 10
12.849997628513901
 20
26.5
 30
0.0
  0
VERTEX
  5
D03
  8
SAPA_PROFIL
 10
11.64999999999992
 20
26.5
 30
0.0
 42
0.4142135623730951
  0
VERTEX
  5
D04
  8
SAPA_PROFIL
 10
10.64999999999992
 20
25.5
 30
0.0
  0
VERTEX
  5
D05
  8
SAPA_PROFIL
 10
10.64999999999992
 20
2.0
 30
0.0
  0
VERTEX
  5
D06
  8
SAPA_PROFIL
 10
12.849999999999961
 20
2.0
 30
0.0
  0
VERTEX
  5
D07
  8
SAPA_PROFIL
 10
12.849999999999961
 20
1.0
 30
0.0
  0
VERTEX
  5
D08
  8
SAPA_PROFIL
 10
11.849999999999961
 20
0.0
 30
0.0
  0
VERTEX
  5
D09
  8
SAPA_PROFIL
 10
8.8499999999999641
 20
0.0
 30
0.0
  0
VERTEX
  5
D0A
  8
SAPA_PROFIL
 10
8.8499999999999641
 20
99.699999999999974
 30
0.0
 42
-0.4142135623730951
  0
VERTEX
  5
D0B
  8
SAPA_PROFIL
 10
9.1500000000000341
 20
100.0
 30
0.0
  0
VERTEX
  5
D0C
  8
SAPA_PROFIL
 10
13.05000000000001
 20
100.0
 30
0.0
 42
-0.4142135623730951
  0
VERTEX
  5
D0D
  8
SAPA_PROFIL
 10
13.349999999999961
 20
99.699999999999974
 30
0.0
  0
VERTEX
  5
D0E
  8
SAPA_PROFIL
 10
13.349999999999961
 20
98.490000000000009
 30
0.0
 42
-0.4142135623730951
  0
VERTEX
  5
D0F
  8
SAPA_PROFIL
 10
12.35999999999995
 20
97.5
 30
0.0
  0
VERTEX
  5
D10
  8
SAPA_PROFIL
 10
12.349999999999961
 20
97.5
 30
0.0
  0
VERTEX
  5
D11
  8
SAPA_PROFIL
 10
12.349999999999961
 20
98.75
 30
0.0
  0
VERTEX
  5
D12
  8
SAPA_PROFIL
 10
10.849999999999961
 20
98.75
 30
0.0
 42
0.4142135623730951
  0
VERTEX
  5
D13
  8
SAPA_PROFIL
 10
10.349999999999961
 20
98.250000000000014
 30
0.0
  0
VERTEX
  5
D14
  8
SAPA_PROFIL
 10
10.349999999999961
 20
90.25
 30
0.0
 42
0.4142135623730951
  0
VERTEX
  5
D15
  8
SAPA_PROFIL
 10
10.849999999999961
 20
89.749999999999986
 30
0.0
  0
VERTEX
  5
D16
  8
SAPA_PROFIL
 10
12.349999999999961
 20
89.749999999999986
 30
0.0
  0
VERTEX
  5
D17
  8
SAPA_PROFIL
 10
12.349999999999961
 20
91.0
 30
0.0
  0
VERTEX
  5
D18
  8
SAPA_PROFIL
 10
12.35999999999995
 20
91.0
 30
0.0
 42
-0.4142135623730951
  0
VERTEX
  5
D19
  8
SAPA_PROFIL
 10
13.349999999999961
 20
90.009999999999991
 30
0.0
  0
VERTEX
  5
D1A
  8
SAPA_PROFIL
 10
13.349999999999961
 20
89.490000000000009
 30
0.0
 42
-0.4142135623730951
  0
VERTEX
  5
D1B
  8
SAPA_PROFIL
 10
12.35999999999995
 20
88.499999999999986
 30
0.0
  0
VERTEX
  5
D1C
  8
SAPA_PROFIL
 10
11.150000000000031
 20
88.499999999999986
 30
0.0
 42
0.4142135623730951
  0
VERTEX
  5
D1D
  8
SAPA_PROFIL
 10
10.650000000000031
 20
88.0
 30
0.0
  0
VERTEX
  5
D1E
  8
SAPA_PROFIL
 10
10.650000000000031
 20
78.0
 30
0.0
  0
VERTEX
  5
D1F
  8
SAPA_PROFIL
 10
11.849999999999961
 20
78.0
 30
0.0
  0
VERTEX
  5
D20
  8
SAPA_PROFIL
 10
12.849999999999961
 20
77.0
 30
0.0
  0
VERTEX
  5
D21
  8
SAPA_PROFIL
 10
12.849999999999961
 20
76.0
 30
0.0
  0
VERTEX
  5
D22
  8
SAPA_PROFIL
 10
10.650000000000031
 20
76.0
 30
0.0
  0
VERTEX
  5
D23
  8
SAPA_PROFIL
 10
10.650000000000031
 20
73.0
 30
0.0
  0
VERTEX
  5
D24
  8
SAPA_PROFIL
 10
29.349999999999969
 20
73.0
 30
0.0
  0
VERTEX
  5
D25
  8
SAPA_PROFIL
 10
29.349999999999969
 20
76.0
 30
0.0
  0
VERTEX
  5
D26
  8
SAPA_PROFIL
 10
26.849999999999969
 20
76.0
 30
0.0
  0
VERTEX
  5
D27
  8
SAPA_PROFIL
 10
26.849999999999969
 20
77.0
 30
0.0
  0
VERTEX
  5
D28
  8
SAPA_PROFIL
 10
27.650000000000041
 20
77.800000000000068
 30
0.0
  0
VERTEX
  5
D29
  8
SAPA_PROFIL
 10
33.330384757729412
 20
77.800000000000011
 30
0.0
  0
VERTEX
  5
D2A
  8
SAPA_PROFIL
 10
33.849999999999973
 20
77.5
 30
0.0
  0
VERTEX
  5
D2B
  8
SAPA_PROFIL
 10
34.36961524227064
 20
77.800000000000011
 30
0.0
  0
VERTEX
  5
D2C
  8
SAPA_PROFIL
 10
40.050000000000061
 20
77.800000000000011
 30
0.0
  0
VERTEX
  5
D2D
  8
SAPA_PROFIL
 10
40.850000000000023
 20
77.0
 30
0.0
  0
VERTEX
  5
D2E
  8
SAPA_PROFIL
 10
40.850000000000023
 20
76.0
 30
0.0
  0
VERTEX
  5
D2F
  8
SAPA_PROFIL
 10
38.350000000000023
 20
76.0
 30
0.0
  0
VERTEX
  5
D30
  8
SAPA_PROFIL
 10
38.350000000000023
 20
73.0
 30
0.0
  0
VERTEX
  5
D31
  8
SAPA_PROFIL
 10
57.050000000000068
 20
73.0
 30
0.0
  0
VERTEX
  5
D32
  8
SAPA_PROFIL
 10
57.050000000000068
 20
76.0
 30
0.0
  0
VERTEX
  5
D33
  8
SAPA_PROFIL
 10
54.850000000000023
 20
76.0
 30
0.0
  0
VERTEX
  5
D34
  8
SAPA_PROFIL
 10
54.850000000000023
 20
77.0
 30
0.0
  0
VERTEX
  5
D35
  8
SAPA_PROFIL
 10
55.850000000000023
 20
78.0
 30
0.0
  0
VERTEX
  5
D36
  8
SAPA_PROFIL
 10
58.850000000000023
 20
78.0
 30
0.0
  0
VERTEX
  5
D37
  8
SAPA_PROFIL
 10
58.849999999999902
 20
0.0
 30
0.0
  0
VERTEX
  5
D38
  8
SAPA_PROFIL
 10
55.849999999999909
 20
0.0
 30
0.0
  0
VERTEX
  5
D39
  8
SAPA_PROFIL
 10
54.849999999999909
 20
1.0
 30
0.0
  0
VERTEX
  5
D3A
  8
SAPA_PROFIL
 10
54.849999999999909
 20
2.0
 30
0.0
  0
VERTEX
  5
D3B
  8
SAPA_PROFIL
 10
57.049999999999841
 20
2.0
 30
0.0
  0
VERTEX
  5
D3C
  8
SAPA_PROFIL
 10
57.049999999999841
 20
25.5
 30
0.0
 42
0.4142135623730951
  0
VERTEX
  5
D3D
  8
SAPA_PROFIL
 10
56.049999999999841
 20
26.5
 30
0.0
  0
VERTEX
  5
D3E
  8
SAPA_PROFIL
 10
54.850002371485857
 20
26.5
 30
0.0
 42
-0.3172174763920454
  0
VERTEX
  5
D3F
  8
SAPA_PROFIL
 10
51.270188076793033
 20
29.02526606914785
 30
0.0
 42
0.4814060708635715
  0
VERTEX
  5
D40
  8
SAPA_PROFIL
 10
50.531054720145903
 20
29.279579927592181
 30
0.0
 42
-0.0772943986899826
  0
VERTEX
  5
D41
  8
SAPA_PROFIL
 10
49.12272727272704
 20
28.664695946555529
 30
0.0
 42
0.3406875359425185
  0
VERTEX
  5
D42
  8
SAPA_PROFIL
 10
48.749999999999893
 20
28.18116554121065
 30
0.0
  0
VERTEX
  5
D43
  8
SAPA_PROFIL
 10
48.749999999999893
 20
26.5
 30
0.0
  0
VERTEX
  5
D44
  8
SAPA_PROFIL
 10
46.949999999999811
 20
26.5
 30
0.0
  0
SEQEND
  5
D45
  8
SAPA_PROFIL
  0
POLYLINE
  5
727
  8
SAPA_PROFIL
 66
     1
 10
0.0
 20
0.0
 30
0.0
  0
VERTEX
  5
D46
  8
SAPA_PROFIL
 10
42.52844481936657
 20
80.878736921551749
 30
0.0
  0
VERTEX
  5
D47
  8
SAPA_PROFIL
 10
41.847404885508269
 20
98.000000000002103
 30
0.0
 42
-0.4142135623730951
  0
VERTEX
  5
D48
  8
SAPA_PROFIL
 10
42.347404885508261
 20
98.500000000002103
 30
0.0
  0
VERTEX
  5
D49
  8
SAPA_PROFIL
 10
54.147018368516989
 20
98.500000000002046
 30
0.0
 42
-0.4076767287637263
  0
VERTEX
  5
D4A
  8
SAPA_PROFIL
 10
57.14626820090654
 20
95.567103649185128
 30
0.0
  0
VERTEX
  5
D4B
  8
SAPA_PROFIL
 10
57.300707423017343
 20
80.878736921551749
 30
0.0
 42
-0.4182129759575463
  0
VERTEX
  5
D4C
  8
SAPA_PROFIL
 10
56.805195702160169
 20
80.367575809496245
 30
0.0
  0
VERTEX
  5
D4D
  8
SAPA_PROFIL
 10
54.330547946040809
 20
80.354748207970545
 30
0.0
  0
VERTEX
  5
D4E
  8
SAPA_PROFIL
 10
52.704489989847247
 20
78.700059610346727
 30
0.0
  0
VERTEX
  5
D4F
  8
SAPA_PROFIL
 10
52.704489989847247
 20
74.150983576058536
 30
0.0
 42
0.4293387945586749
  0
VERTEX
  5
D50
  8
SAPA_PROFIL
 10
53.022601125836587
 20
73.854257054974028
 30
0.0
  0
VERTEX
  5
D51
  8
SAPA_PROFIL
 10
54.10405685110706
 20
73.926896731101749
 30
0.0
 42
0.4883397947196161
  0
VERTEX
  5
D52
  8
SAPA_PROFIL
 10
53.883433916908842
 20
75.488618557110101
 30
0.0
  0
VERTEX
  5
D53
  8
SAPA_PROFIL
 10
53.883433916908842
 20
78.187699833144507
 30
0.0
  0
VERTEX
  5
D54
  8
SAPA_PROFIL
 10
54.838057137106723
 20
79.159131479520624
 30
0.0
  0
VERTEX
  5
D55
  8
SAPA_PROFIL
 10
57.337183279991791
 20
79.159131479520624
 30
0.0
  0
VERTEX
  5
D56
  8
SAPA_PROFIL
 10
57.337183279991791
 20
78.685355813005742
 30
0.0
  0
VERTEX
  5
D57
  8
SAPA_PROFIL
 10
58.850000000000023
 20
78.685355813005742
 30
0.0
  0
VERTEX
  5
D58
  8
SAPA_PROFIL
 10
58.850000000000129
 20
99.702640706694183
 30
0.0
 42
0.4116378201539302
  0
VERTEX
  5
D59
  8
SAPA_PROFIL
 10
58.550011522329783
 20
100.000000000002
 30
0.0
  0
VERTEX
  5
D5A
  8
SAPA_PROFIL
 10
30.14740488550828
 20
100.0000000000021
 30
0.0
 42
0.414213562373095
  0
VERTEX
  5
D5B
  8
SAPA_PROFIL
 10
29.847404885508212
 20
99.700000000002106
 30
0.0
  0
VERTEX
  5
D5C
  8
SAPA_PROFIL
 10
29.847404885508269
 20
98.490000000002112
 30
0.0
 42
0.4142135623731037
  0
VERTEX
  5
D5D
  8
SAPA_PROFIL
 10
30.837404885508221
 20
97.500000000002103
 30
0.0
  0
VERTEX
  5
D5E
  8
SAPA_PROFIL
 10
30.847404885508269
 20
97.500000000002103
 30
0.0
  0
VERTEX
  5
D5F
  8
SAPA_PROFIL
 10
30.847404885508269
 20
98.750000000002103
 30
0.0
  0
VERTEX
  5
D60
  8
SAPA_PROFIL
 10
32.347404885508269
 20
98.750000000002103
 30
0.0
 42
-0.4142135623730951
  0
VERTEX
  5
D61
  8
SAPA_PROFIL
 10
32.847404885508269
 20
98.250000000002103
 30
0.0
  0
VERTEX
  5
D62
  8
SAPA_PROFIL
 10
32.847404885508269
 20
90.250000000002089
 30
0.0
 42
-0.4142135623730951
  0
VERTEX
  5
D63
  8
SAPA_PROFIL
 10
32.347404885508269
 20
89.750000000002103
 30
0.0
  0
VERTEX
  5
D64
  8
SAPA_PROFIL
 10
30.847404885508269
 20
89.750000000002103
 30
0.0
  0
VERTEX
  5
D65
  8
SAPA_PROFIL
 10
30.847404885508269
 20
91.000000000002103
 30
0.0
  0
VERTEX
  5
D66
  8
SAPA_PROFIL
 10
30.837404885508221
 20
91.000000000002103
 30
0.0
 42
0.414213562373095
  0
VERTEX
  5
D67
  8
SAPA_PROFIL
 10
29.847404885508212
 20
90.010000000002094
 30
0.0
  0
VERTEX
  5
D68
  8
SAPA_PROFIL
 10
29.847404885508269
 20
89.500000000002103
 30
0.0
 42
0.4142135623730953
  0
VERTEX
  5
D69
  8
SAPA_PROFIL
 10
30.847404885508269
 20
88.500000000002103
 30
0.0
  0
VERTEX
  5
D6A
  8
SAPA_PROFIL
 10
32.347404885508269
 20
88.500000000002103
 30
0.0
 42
0.4142135623730951
  0
VERTEX
  5
D6B
  8
SAPA_PROFIL
 10
34.047404885508257
 20
90.200000000002092
 30
0.0
  0
VERTEX
  5
D6C
  8
SAPA_PROFIL
 10
34.047404885508321
 20
98.000000000002103
 30
0.0
 42
-0.414213562373095
  0
VERTEX
  5
D6D
  8
SAPA_PROFIL
 10
34.547404885508307
 20
98.500000000002103
 30
0.0
  0
VERTEX
  5
D6E
  8
SAPA_PROFIL
 10
40.047404885508307
 20
98.500000000002103
 30
0.0
 42
-0.4142135623730951
  0
VERTEX
  5
D6F
  8
SAPA_PROFIL
 10
40.547404885508307
 20
98.000000000002103
 30
0.0
  0
VERTEX
  5
D70
  8
SAPA_PROFIL
 10
41.218614531974623
 20
80.878736921551749
 30
0.0
  0
VERTEX
  5
D71
  8
SAPA_PROFIL
 10
41.875552982703958
 20
75.475790157802066
 30
0.0
 42
-0.4666505291506209
  0
VERTEX
  5
D72
  8
SAPA_PROFIL
 10
41.613721451659409
 20
75.195988591883292
 30
0.0
  0
VERTEX
  5
D73
  8
SAPA_PROFIL
 10
40.891065358100462
 20
75.235531485801616
 30
0.0
 42
0.7332303362618522
  0
VERTEX
  5
D74
  8
SAPA_PROFIL
 10
40.690890769530277
 20
74.69945546314932
 30
0.0
  0
VERTEX
  5
D75
  8
SAPA_PROFIL
 10
42.80099810906799
 20
73.92854534564492
 30
0.0
 42
0.668178637919333
  0
VERTEX
  5
D76
  8
SAPA_PROFIL
 10
43.283345961158801
 20
74.201711540839199
 30
0.0
  0
VERTEX
  5
D77
  8
SAPA_PROFIL
 10
42.52844481936657
 20
80.878736921551749
 30
0.0
  0
VERTEX
  5
D78
  8
SAPA_PROFIL
 10
42.537978271529667
 20
80.878736921551749
 30
0.0
  0
SEQEND
  5
D79
  8
SAPA_PROFIL
  0
POLYLINE
  5
751
  8
SAPA_GLAS
 66
     1
 10
0.0
 20
0.0
 30
0.0
  0
VERTEX
  5
D8F
  8
SAPA_GLAS
 10
17.25000000000022
 20
111.7999999999998
 30
0.0
  0
VERTEX
  5
D90
  8
SAPA_GLAS
 10
17.25000000000022
 20
82.999999999999815
 30
0.0
  0
VERTEX
  5
D91
  8
SAPA_GLAS
 10
23.25000000000022
 20
82.999999999999815
 30
0.0
  0
VERTEX
  5
D92
  8
SAPA_GLAS
 10
23.250000000000451
 20
111.7999999999998
 30
0.0
  0
SEQEND
  5
D93
  8
SAPA_GLAS
  0
POLYLINE
  5
764
  8
SAPA_FOGBAND
 66
     1
 10
0.0
 20
0.0
 30
0.0
 70
     1
  0
VERTEX
  5
DF9
  8
SAPA_FOGBAND
 10
49.065358435989062
 20
2.2373567716660498
 30
0.0
  0
VERTEX
  5
DFA
  8
SAPA_FOGBAND
 10
49.017166696863256
 20
2.4385280708162962
 30
0.0
  0
VERTEX
  5
DFB
  8
SAPA_FOGBAND
 10
53.486492374500791
 20
3.509180683961012
 30
0.0
  0
VERTEX
  5
DFC
  8
SAPA_FOGBAND
 10
53.534684113626582
 20
3.3080093848107648
 30
0.0
  0
SEQEND
  5
DFD
  8
SAPA_FOGBAND
  0
LINE
  5
765
  8
SAPA_FOGBAND
 10
51.705666577482617
 20
2.8698577382753632
 30
0.0
 11
56.273138147260987
 21
-8.5875476916833637
 31
0.0
  0
LINE
  5
766
  8
SAPA_FOGBAND
 10
51.537662658786672
 20
2.829611435467263
 30
0.0
 11
55.485651515993801
 21
-8.752559532411448
 31
0.0
  0
LINE
  5
767
  8
SAPA_FOGBAND
 10
50.809319558960482
 20
2.6551326663328099
 30
0.0
 11
52.882733347602802
 21
-9.3288333148909075
 31
0.0
  0
LINE
  5
768
  8
SAPA_FOGBAND
 10
51.091818159749579
 20
2.7228068272600638
 30
0.0
 11
53.82129173990662
 21
-9.1039962661305314
 31
0.0
  0
LINE
  5
769
  8
SAPA_FOGBAND
 10
51.300698445365043
 20
2.772845298331339
 30
0.0
 11
54.531029210648029
 21
-8.9103394814550771
 31
0.0
  0
POLYLINE
  5
76A
  8
SAPA_FOGBAND
 66
     1
 10
0.0
 20
0.0
 30
0.0
 70
     1
  0
VERTEX
  5
DFE
  8
SAPA_FOGBAND
 10
18.63464156401076
 20
2.2373567716660552
 30
0.0
  0
VERTEX
  5
DFF
  8
SAPA_FOGBAND
 10
18.682833303136562
 20
2.4385280708163011
 30
0.0
  0
VERTEX
  5
E00
  8
SAPA_FOGBAND
 10
14.21350762549903
 20
3.5091806839610191
 30
0.0
  0
VERTEX
  5
E01
  8
SAPA_FOGBAND
 10
14.16531588637323
 20
3.3080093848107719
 30
0.0
  0
SEQEND
  5
E02
  8
SAPA_FOGBAND
  0
LINE
  5
76B
  8
SAPA_FOGBAND
 10
15.994333422517199
 20
2.8698577382753689
 30
0.0
 11
11.426861852738821
 21
-8.5875476916833549
 31
0.0
  0
LINE
  5
76C
  8
SAPA_FOGBAND
 10
16.162337341213139
 20
2.8296114354672688
 30
0.0
 11
12.21434848400602
 21
-8.7525595324114391
 31
0.0
  0
LINE
  5
76D
  8
SAPA_FOGBAND
 10
16.890680441039329
 20
2.6551326663328161
 30
0.0
 11
14.81726665239702
 21
-9.3288333148909022
 31
0.0
  0
LINE
  5
76E
  8
SAPA_FOGBAND
 10
16.608181840250239
 20
2.7228068272600701
 30
0.0
 11
13.878708260093189
 21
-9.1039962661305225
 31
0.0
  0
LINE
  5
76F
  8
SAPA_FOGBAND
 10
16.399301554634771
 20
2.7728452983313461
 30
0.0
 11
13.168970789351791
 21
-8.9103394814550683
 31
0.0
  0
POLYLINE
  5
770
  8
SAPA_FOGBAND
 66
     1
 10
0.0
 20
0.0
 30
0.0
 70
     1
  0
VERTEX
  5
E03
  8
SAPA_FOGBAND
 10
29.839251262205149
 20
89.493397840349218
 30
0.0
  0
VERTEX
  5
E04
  8
SAPA_FOGBAND
 10
29.839251262205149
 20
90.693397840349263
 30
0.0
 42
-0.4142135623730951
  0
VERTEX
  5
E05
  8
SAPA_FOGBAND
 10
30.1392512622051
 20
90.993397840349218
 30
0.0
  0
VERTEX
  5
E06
  8
SAPA_FOGBAND
 10
31.039251262205202
 20
90.993397840349218
 30
0.0
  0
VERTEX
  5
E07
  8
SAPA_FOGBAND
 10
31.039251262205202
 20
90.643397840349309
 30
0.0
 42
0.6681786379192988
  0
VERTEX
  5
E08
  8
SAPA_FOGBAND
 10
31.551383296561202
 20
90.431265805993249
 30
0.0
  0
VERTEX
  5
E09
  8
SAPA_FOGBAND
 10
32.404936687154297
 20
91.284819196586596
 30
0.0
 42
0.1989123673796552
  0
VERTEX
  5
E0A
  8
SAPA_FOGBAND
 10
32.639251262205107
 20
91.850504621535734
 30
0.0
  0
VERTEX
  5
E0B
  8
SAPA_FOGBAND
 10
32.639251262205107
 20
92.013199743955539
 30
0.0
 42
0.3394542588633746
  0
VERTEX
  5
E0C
  8
SAPA_FOGBAND
 10
32.416896975735881
 20
92.302977491842313
 30
0.0
  0
VERTEX
  5
E0D
  8
SAPA_FOGBAND
 10
31.061605548674379
 20
92.666126735232211
 30
0.0
 42
-0.3394542588633746
  0
VERTEX
  5
E0E
  8
SAPA_FOGBAND
 10
30.839251262205149
 20
92.955904483118985
 30
0.0
  0
VERTEX
  5
E0F
  8
SAPA_FOGBAND
 10
30.839251262205149
 20
95.53089119757945
 30
0.0
 42
-0.3394542588633746
  0
VERTEX
  5
E10
  8
SAPA_FOGBAND
 10
31.061605548674379
 20
95.820668945466224
 30
0.0
  0
VERTEX
  5
E11
  8
SAPA_FOGBAND
 10
32.416896975735881
 20
96.183818188856364
 30
0.0
 42
0.3394542588633744
  0
VERTEX
  5
E12
  8
SAPA_FOGBAND
 10
32.639251262205107
 20
96.473595936742896
 30
0.0
  0
VERTEX
  5
E13
  8
SAPA_FOGBAND
 10
32.639251262205107
 20
96.636291059162915
 30
0.0
 42
0.1989123673796526
  0
VERTEX
  5
E14
  8
SAPA_FOGBAND
 10
32.404936687154297
 20
97.20197648411208
 30
0.0
  0
VERTEX
  5
E15
  8
SAPA_FOGBAND
 10
31.551383296561202
 20
98.055529874705414
 30
0.0
 42
0.6681786379193474
  0
VERTEX
  5
E16
  8
SAPA_FOGBAND
 10
31.039251262205202
 20
97.843397840349354
 30
0.0
  0
VERTEX
  5
E17
  8
SAPA_FOGBAND
 10
31.039251262205202
 20
97.493397840349232
 30
0.0
  0
VERTEX
  5
E18
  8
SAPA_FOGBAND
 10
30.139251262205111
 20
97.493397840349232
 30
0.0
 42
-0.4142135623730951
  0
VERTEX
  5
E19
  8
SAPA_FOGBAND
 10
29.839251262205149
 20
97.7933978403494
 30
0.0
  0
VERTEX
  5
E1A
  8
SAPA_FOGBAND
 10
29.839251262205149
 20
99.893397840349323
 30
0.0
 42
-0.4142135623730951
  0
VERTEX
  5
E1B
  8
SAPA_FOGBAND
 10
30.139251262205111
 20
100.19339784034921
 30
0.0
  0
VERTEX
  5
E1C
  8
SAPA_FOGBAND
 10
31.539251262205202
 20
100.19339784034921
 30
0.0
 42
0.7754026414786132
  0
VERTEX
  5
E1D
  8
SAPA_FOGBAND
 10
31.683959130511091
 20
100.7561898357569
 30
0.0
 42
-0.1086822875051356
  0
VERTEX
  5
E1E
  8
SAPA_FOGBAND
 10
23.75587674037433
 20
104.90623799434771
 30
0.0
 42
0.8680589103334746
  0
VERTEX
  5
E1F
  8
SAPA_FOGBAND
 10
23.399036837712401
 20
104.43131396458401
 30
0.0
  0
VERTEX
  5
E20
  8
SAPA_FOGBAND
 10
26.22683715885637
 20
100.4612785674324
 30
0.0
 42
-0.1989123673796536
  0
VERTEX
  5
E21
  8
SAPA_FOGBAND
 10
26.519730377669699
 20
99.754171786245735
 30
0.0
  0
VERTEX
  5
E22
  8
SAPA_FOGBAND
 10
26.519730377669699
 20
96.920852821826017
 30
0.0
 42
-0.577350269189628
  0
VERTEX
  5
E23
  8
SAPA_FOGBAND
 10
26.069730377669881
 20
96.661045200690779
 30
0.0
  0
VERTEX
  5
E24
  8
SAPA_FOGBAND
 10
23.764976274315579
 20
98.79917389710252
 30
0.0
 42
0.8769764629927301
  0
VERTEX
  5
E25
  8
SAPA_FOGBAND
 10
23.40284423995945
 20
98.327234241611251
 30
0.0
  0
VERTEX
  5
E26
  8
SAPA_FOGBAND
 10
26.22683715885637
 20
94.361006246706467
 30
0.0
 42
-0.198912367379658
  0
VERTEX
  5
E27
  8
SAPA_FOGBAND
 10
26.519730377669699
 20
93.6538994655198
 30
0.0
  0
VERTEX
  5
E28
  8
SAPA_FOGBAND
 10
26.519730377669699
 20
91.421625103298339
 30
0.0
 42
-0.5773502691896441
  0
VERTEX
  5
E29
  8
SAPA_FOGBAND
 10
26.069730377669881
 20
91.161817482162888
 30
0.0
  0
VERTEX
  5
E2A
  8
SAPA_FOGBAND
 10
23.76584502749597
 20
93.299444603692137
 30
0.0
 42
0.87697646299276
  0
VERTEX
  5
E2B
  8
SAPA_FOGBAND
 10
23.40371299313983
 20
92.827504948200868
 30
0.0
  0
VERTEX
  5
E2C
  8
SAPA_FOGBAND
 10
26.30269180617006
 20
88.786291059162778
 30
0.0
 42
0.198912367379658
  0
VERTEX
  5
E2D
  8
SAPA_FOGBAND
 10
27.009798587356499
 20
88.493397840349218
 30
0.0
  0
VERTEX
  5
E2E
  8
SAPA_FOGBAND
 10
28.839251262205149
 20
88.493397840349218
 30
0.0
  0
VERTEX
  5
E2F
  8
SAPA_FOGBAND
 10
28.829319471891949
 20
88.493397840349218
 30
0.0
  0
SEQEND
  5
E30
  8
SAPA_FOGBAND
  0
POLYLINE
  5
771
  8
SAPA_FOGBAND
 66
     1
 10
0.0
 20
0.0
 30
0.0
 70
     1
  0
VERTEX
  5
E31
  8
SAPA_FOGBAND
 10
14.34757432886158
 20
88.493404587689184
 30
0.0
 42
-0.4142135623730951
  0
VERTEX
  5
E32
  8
SAPA_FOGBAND
 10
13.34757432886158
 20
89.493404587689184
 30
0.0
  0
VERTEX
  5
E33
  8
SAPA_FOGBAND
 10
13.34757432886158
 20
90.69340458768923
 30
0.0
 42
0.4142135623730951
  0
VERTEX
  5
E34
  8
SAPA_FOGBAND
 10
13.04757432886162
 20
90.993404587689184
 30
0.0
  0
VERTEX
  5
E35
  8
SAPA_FOGBAND
 10
12.14757432886176
 20
90.993404587689184
 30
0.0
  0
VERTEX
  5
E36
  8
SAPA_FOGBAND
 10
12.14757432886176
 20
90.643404587689048
 30
0.0
 42
-0.6681786379193472
  0
VERTEX
  5
E37
  8
SAPA_FOGBAND
 10
11.63544229450576
 20
90.431272553333216
 30
0.0
  0
VERTEX
  5
E38
  8
SAPA_FOGBAND
 10
10.78188890391243
 20
91.28482594392645
 30
0.0
 42
-0.1989123673796526
  0
VERTEX
  5
E39
  8
SAPA_FOGBAND
 10
10.54757432886162
 20
91.850511368875715
 30
0.0
  0
VERTEX
  5
E3A
  8
SAPA_FOGBAND
 10
10.54757432886162
 20
92.013206491295506
 30
0.0
 42
-0.3394542588633746
  0
VERTEX
  5
E3B
  8
SAPA_FOGBAND
 10
10.76992861533085
 20
92.302984239182265
 30
0.0
  0
VERTEX
  5
E3C
  8
SAPA_FOGBAND
 10
12.125220042392581
 20
92.666133482572178
 30
0.0
 42
0.3394542588633744
  0
VERTEX
  5
E3D
  8
SAPA_FOGBAND
 10
12.34757432886158
 20
92.955911230458952
 30
0.0
  0
VERTEX
  5
E3E
  8
SAPA_FOGBAND
 10
12.34757432886158
 20
95.530897944919417
 30
0.0
 42
0.3394542588633746
  0
VERTEX
  5
E3F
  8
SAPA_FOGBAND
 10
12.125220042392581
 20
95.820675692806191
 30
0.0
  0
VERTEX
  5
E40
  8
SAPA_FOGBAND
 10
10.76992861533085
 20
96.183824936196089
 30
0.0
 42
-0.3394542588633747
  0
VERTEX
  5
E41
  8
SAPA_FOGBAND
 10
10.54757432886162
 20
96.473602684082863
 30
0.0
  0
VERTEX
  5
E42
  8
SAPA_FOGBAND
 10
10.54757432886162
 20
96.636297806502654
 30
0.0
 42
-0.1989123673796526
  0
VERTEX
  5
E43
  8
SAPA_FOGBAND
 10
10.78188890391243
 20
97.201983231452033
 30
0.0
  0
VERTEX
  5
E44
  8
SAPA_FOGBAND
 10
11.63544229450576
 20
98.055536622045139
 30
0.0
 42
-0.6681786379193474
  0
VERTEX
  5
E45
  8
SAPA_FOGBAND
 10
12.14757432886176
 20
97.843404587689321
 30
0.0
  0
VERTEX
  5
E46
  8
SAPA_FOGBAND
 10
12.14757432886176
 20
97.493404587689184
 30
0.0
  0
VERTEX
  5
E47
  8
SAPA_FOGBAND
 10
13.04757432886162
 20
97.493404587689184
 30
0.0
 42
0.4142135623730951
  0
VERTEX
  5
E48
  8
SAPA_FOGBAND
 10
13.34757432886158
 20
97.793404587689125
 30
0.0
  0
VERTEX
  5
E49
  8
SAPA_FOGBAND
 10
13.34757432886158
 20
99.893404587689275
 30
0.0
 42
0.4142135623730951
  0
VERTEX
  5
E4A
  8
SAPA_FOGBAND
 10
13.04757432886163
 20
100.1934045876892
 30
0.0
  0
VERTEX
  5
E4B
  8
SAPA_FOGBAND
 10
11.64757432886176
 20
100.1934045876892
 30
0.0
 42
-0.7754026414785753
  0
VERTEX
  5
E4C
  8
SAPA_FOGBAND
 10
11.502866460555881
 20
100.75619658309689
 30
0.0
  0
VERTEX
  5
E4D
  8
SAPA_FOGBAND
 10
16.773530258996509
 20
104.2758990936422
 30
0.0
 42
-0.8680589103334742
  0
VERTEX
  5
E4E
  8
SAPA_FOGBAND
 10
17.13037016165822
 20
103.8009750638787
 30
0.0
  0
VERTEX
  5
E4F
  8
SAPA_FOGBAND
 10
15.14046754767514
 20
100.4612853147723
 30
0.0
 42
0.198912367379658
  0
VERTEX
  5
E50
  8
SAPA_FOGBAND
 10
14.84757432886158
 20
99.754178533585716
 30
0.0
  0
VERTEX
  5
E51
  8
SAPA_FOGBAND
 10
14.84757432886158
 20
96.920859569165984
 30
0.0
 42
0.5773502691896282
  0
VERTEX
  5
E52
  8
SAPA_FOGBAND
 10
15.29757432886162
 20
96.661051948030746
 30
0.0
  0
VERTEX
  5
E53
  8
SAPA_FOGBAND
 10
16.76443072505549
 20
98.168834996396996
 30
0.0
 42
-0.8769764629927299
  0
VERTEX
  5
E54
  8
SAPA_FOGBAND
 10
17.126562759411389
 20
97.696895340905741
 30
0.0
  0
VERTEX
  5
E55
  8
SAPA_FOGBAND
 10
15.14046754767514
 20
94.361012994046433
 30
0.0
 42
0.198912367379658
  0
VERTEX
  5
E56
  8
SAPA_FOGBAND
 10
14.84757432886158
 20
93.653906212859766
 30
0.0
  0
VERTEX
  5
E57
  8
SAPA_FOGBAND
 10
14.84757432886158
 20
91.421631850638207
 30
0.0
 42
0.5773502691896282
  0
VERTEX
  5
E58
  8
SAPA_FOGBAND
 10
15.29757432886162
 20
91.161824229502855
 30
0.0
  0
VERTEX
  5
E59
  8
SAPA_FOGBAND
 10
16.763561971875099
 20
92.669105702986613
 30
0.0
 42
-0.8769764629927299
  0
VERTEX
  5
E5A
  8
SAPA_FOGBAND
 10
17.125694006231011
 20
92.197166047495344
 30
0.0
  0
VERTEX
  5
E5B
  8
SAPA_FOGBAND
 10
15.06461290036145
 20
88.786297806502745
 30
0.0
 42
-0.198912367379658
  0
VERTEX
  5
E5C
  8
SAPA_FOGBAND
 10
14.357506119174779
 20
88.493404587689184
 30
0.0
  0
SEQEND
  5
E5D
  8
SAPA_FOGBAND
  0
DIMENSION
  5
779
  8
SAPA_MATT
  2
*D41
 10
-11.14999999999981
 20
100.0
 30
0.0
 11
-13.64999999999983
 21
50.000000000000028
 31
0.0
 70
     0
 13
8.8499999999999091
 23
0.0
 33
0.0
 14
9.1500000000000892
 24
100.0
 34
0.0
 50
90.0
1001
ACAD
1000
DSTYLE
1002
{
1070
    40
1040
1.0
1002
}
  0
DIMENSION
  5
77A
  8
SAPA_MATT
  2
*D40
 10
-11.057865752775109
 20
0.0000000000000056
 30
0.0
 11
-13.557865752775109
 21
-4.9999999999999947
 31
0.0
 70
     0
 13
9.8282121612717201
 23
-10.0
 33
0.0
 14
8.8499999999999091
 24
0.0
 34
0.0
 50
90.0
1001
ACAD
1000
DSTYLE
1002
{
1070
    40
1040
1.0
1002
}
  0
DIMENSION
  5
77B
  8
SAPA_MATT
  2
*D39
 10
-11.057865752775109
 20
-9.9999999999999947
 30
0.0
 11
-13.55816102836566
 21
-20.0
 31
0.0
 70
     0
 13
9.3282121612717237
 23
-30.0
 33
0.0
 14
9.8282121612717201
 24
-10.0
 34
0.0
 50
90.0
1001
ACAD
1000
DSTYLE
1002
{
1070
    40
1040
1.0
1002
}
  0
ARC
  5
7D4
  8
SAPA_BESLAG
 10
24.24999999999989
 20
17.201944722176119
 30
0.0
 40
2.0
 50
90.0
 51
180.0
  0
ARC
  5
7D5
  8
SAPA_BESLAG
 10
43.449999999999839
 20
17.201944722176059
 30
0.0
 40
2.0
 50
0.0
 51
90.0
  0
LINE
  5
7D6
  8
SAPA_BESLAG
 10
41.349999999999852
 20
4.2019447221760586
 30
0.0
 11
45.449999999999839
 21
4.2019447221760586
 31
0.0
  0
LINE
  5
7D7
  8
SAPA_BESLAG
 10
26.349999999999859
 20
9.9019447221760508
 30
0.0
 11
26.349999999999859
 21
4.2019447221760631
 31
0.0
  0
LINE
  5
7D8
  8
SAPA_BESLAG
 10
41.349999999999852
 20
9.901944722176049
 30
0.0
 11
41.349999999999852
 21
4.2019447221760586
 31
0.0
  0
LINE
  5
7D9
  8
SAPA_BESLAG
 10
22.249999999999861
 20
4.2019447221760631
 30
0.0
 11
26.349999999999859
 21
4.2019447221760631
 31
0.0
  0
LINE
  5
7DA
  8
SAPA_BESLAG
 10
24.24999999999989
 20
19.201944722176119
 30
0.0
 11
43.449999999999839
 21
19.201944722176059
 31
0.0
  0
LINE
  5
7DB
  8
SAPA_BESLAG
 10
22.249999999999861
 20
4.2019447221760631
 30
0.0
 11
22.249999999999879
 21
17.201944722176119
 31
0.0
  0
LINE
  5
7DC
  8
SAPA_BESLAG
 10
45.449999999999839
 20
4.2019447221760586
 30
0.0
 11
45.449999999999839
 21
17.201944722176059
 31
0.0
  0
LINE
  5
7DD
  8
SAPA_BESLAG
 10
27.849999999999849
 20
5.4019447221760499
 30
0.0
 11
39.849999999999852
 21
5.401944722176049
 31
0.0
  0
ARC
  5
7DE
  8
SAPA_BESLAG
 10
33.849999999999859
 20
9.9019447221760508
 30
0.0
 40
7.5
 50
323.1301023541555
 51
216.8698976458445
  0
LINE
  5
7DF
  8
SAPA_BESLAG
 10
39.849999999999852
 20
2.4019447221759922
 30
0.0
 11
39.849999999999852
 21
5.401944722176049
 31
0.0
  0
LINE
  5
7E0
  8
SAPA_BESLAG
 10
27.849999999999849
 20
2.4019447221760499
 30
0.0
 11
27.849999999999849
 21
5.4019447221760499
 31
0.0
  0
LINE
  5
7E1
  8
SAPA_BESLAG
 10
24.849999999999849
 20
2.4019447221760508
 30
0.0
 11
42.849999999999852
 21
2.4019447221759909
 31
0.0
  0
LINE
  5
7E2
  8
SAPA_BESLAG
 10
24.849999999999849
 20
-4.5980552778239483
 30
0.0
 11
24.849999999999849
 21
2.4019447221760508
 31
0.0
  0
LINE
  5
7E3
  8
SAPA_BESLAG
 10
42.849999999999852
 20
-4.598055277823951
 30
0.0
 11
42.849999999999852
 21
2.4019447221760482
 31
0.0
  0
LINE
  5
7E4
  8
SAPA_BESLAG
 10
33.849999999999859
 20
-4.5980552778239501
 30
0.0
 11
33.849999999999859
 21
2.401944722176049
 31
0.0
  0
LINE
  5
7E5
  8
SAPA_BESLAG
 10
23.849999999999849
 20
-9.798055277823936
 30
0.0
 11
23.849999999999849
 21
-4.5980552778239483
 31
0.0
  0
LINE
  5
7E6
  8
SAPA_BESLAG
 10
43.849999999999852
 20
-9.7980552778239414
 30
0.0
 11
23.849999999999849
 21
-9.798055277823936
 31
0.0
  0
LINE
  5
7E7
  8
SAPA_BESLAG
 10
43.849999999999852
 20
-4.598055277823951
 30
0.0
 11
43.849999999999852
 21
-9.7980552778239414
 31
0.0
  0
LINE
  5
7E8
  8
SAPA_BESLAG
 10
23.849999999999849
 20
-4.5980552778239483
 30
0.0
 11
43.849999999999852
 21
-4.598055277823951
 31
0.0
  0
ENDSEC
  0
EOF
