  0
SECTION
  2
HEADER
  9
$ACADVER
  1
AC1009
  9
$INSBASE
 10
0.0
 20
0.0
 30
0.0
  9
$EXTMIN
 10
-12.48805005754809
 20
-22.650000000000091
 30
0.0
  9
$EXTMAX
 10
110.4156750223829
 20
76.209477912639727
 30
0.0000000195376815
  9
$LIMMIN
 10
0.0
 20
0.0
  9
$LIMMAX
 10
790.0
 20
790.0
  9
$ORTHOMODE
 70
     0
  9
$REGENMODE
 70
     1
  9
$FILLMODE
 70
     1
  9
$QTEXTMODE
 70
     0
  9
$MIRRTEXT
 70
     1
  9
$DRAGMODE
 70
     2
  9
$LTSCALE
 40
4.0
  9
$OSMODE
 70
    37
  9
$ATTMODE
 70
     1
  9
$TEXTSIZE
 40
3.5
  9
$TRACEWID
 40
0.05
  9
$TEXTSTYLE
  7
ISO
  9
$CLAYER
  8
0
  9
$CELTYPE
  6
BYLAYER
  9
$CECOLOR
 62
   256
  9
$DIMSCALE
 40
0.0
  9
$DIMASZ
 40
3.0
  9
$DIMEXO
 40
1.5
  9
$DIMDLI
 40
10.0
  9
$DIMRND
 40
0.0
  9
$DIMDLE
 40
0.0
  9
$DIMEXE
 40
1.5
  9
$DIMTP
 40
0.0
  9
$DIMTM
 40
0.0
  9
$DIMTXT
 40
3.5
  9
$DIMCEN
 40
-5.0
  9
$DIMTSZ
 40
0.0
  9
$DIMTOL
 70
     0
  9
$DIMLIM
 70
     0
  9
$DIMTIH
 70
     0
  9
$DIMTOH
 70
     0
  9
$DIMSE1
 70
     0
  9
$DIMSE2
 70
     0
  9
$DIMTAD
 70
     1
  9
$DIMZIN
 70
     8
  9
$DIMBLK
  1

  9
$DIMASO
 70
     1
  9
$DIMSHO
 70
     1
  9
$DIMPOST
  1

  9
$DIMAPOST
  1

  9
$DIMALT
 70
     0
  9
$DIMALTD
 70
     0
  9
$DIMALTF
 40
25.399999999999999
  9
$DIMLFAC
 40
-1.0
  9
$DIMTOFL
 70
     1
  9
$DIMTVP
 40
0.0
  9
$DIMTIX
 70
     0
  9
$DIMSOXD
 70
     0
  9
$DIMSAH
 70
     0
  9
$DIMBLK1
  1

  9
$DIMBLK2
  1

  9
$DIMSTYLE
  2
MASKIN
  9
$DIMCLRD
 70
   256
  9
$DIMCLRE
 70
   256
  9
$DIMCLRT
 70
     2
  9
$DIMTFAC
 40
1.0
  9
$DIMGAP
 40
1.0
  9
$LUNITS
 70
     2
  9
$LUPREC
 70
     8
  9
$SKETCHINC
 40
0.1
  9
$FILLETRAD
 40
0.0
  9
$AUNITS
 70
     0
  9
$AUPREC
 70
     8
  9
$MENU
  1
ACAD
  9
$ELEVATION
 40
0.0
  9
$PELEVATION
 40
0.0
  9
$THICKNESS
 40
0.0
  9
$LIMCHECK
 70
     0
  9
$BLIPMODE
 70
     0
  9
$CHAMFERA
 40
0.0
  9
$CHAMFERB
 40
0.0
  9
$SKPOLY
 70
     0
  9
$TDCREATE
 40
2454966.6014965861
  9
$TDUPDATE
 40
2455464.3909191671
  9
$TDINDWG
 40
0.1069809144
  9
$TDUSRTIMER
 40
0.1069807292
  9
$USRTIMER
 70
     1
  9
$ANGBASE
 50
0.0
  9
$ANGDIR
 70
     0
  9
$PDMODE
 70
     0
  9
$PDSIZE
 40
0.0
  9
$PLINEWID
 40
0.0
  9
$COORDS
 70
     1
  9
$SPLFRAME
 70
     0
  9
$SPLINETYPE
 70
     6
  9
$SPLINESEGS
 70
     8
  9
$ATTDIA
 70
     0
  9
$ATTREQ
 70
     1
  9
$HANDLING
 70
     1
  9
$HANDSEED
  5
15C7
  9
$SURFTAB1
 70
     6
  9
$SURFTAB2
 70
     6
  9
$SURFTYPE
 70
     6
  9
$SURFU
 70
     6
  9
$SURFV
 70
     6
  9
$UCSNAME
  2

  9
$UCSORG
 10
0.0
 20
0.0
 30
0.0
  9
$UCSXDIR
 10
1.0
 20
0.0
 30
0.0
  9
$UCSYDIR
 10
0.0
 20
1.0
 30
0.0
  9
$PUCSNAME
  2

  9
$PUCSORG
 10
0.0
 20
0.0
 30
0.0
  9
$PUCSXDIR
 10
1.0
 20
0.0
 30
0.0
  9
$PUCSYDIR
 10
0.0
 20
1.0
 30
0.0
  9
$USERI1
 70
     0
  9
$USERI2
 70
     0
  9
$USERI3
 70
     0
  9
$USERI4
 70
     0
  9
$USERI5
 70
     0
  9
$USERR1
 40
0.0
  9
$USERR2
 40
0.0
  9
$USERR3
 40
0.0
  9
$USERR4
 40
0.0
  9
$USERR5
 40
0.0
  9
$WORLDVIEW
 70
     1
  9
$SHADEDGE
 70
     3
  9
$SHADEDIF
 70
    70
  9
$TILEMODE
 70
     1
  9
$MAXACTVP
 70
    16
  9
$PLIMCHECK
 70
     0
  9
$PEXTMIN
 10
1.0000000000000000E+020
 20
1.0000000000000000E+020
 30
1.0000000000000000E+020
  9
$PEXTMAX
 10
-1.0000000000000000E+020
 20
-1.0000000000000000E+020
 30
-1.0000000000000000E+020
  9
$PLIMMIN
 10
-5.069427490234375
 20
-5.8737497329711914
  9
$PLIMMAX
 10
291.89889526367187
 20
204.0995779037475
  9
$UNITMODE
 70
     0
  9
$VISRETAIN
 70
     1
  9
$PLINEGEN
 70
     0
  9
$PSLTSCALE
 70
     1
  0
ENDSEC
  0
SECTION
  2
TABLES
  0
TABLE
  2
VPORT
 70
     1
  0
VPORT
  2
*ACTIVE
 70
     0
 10
0.0
 20
0.0
 11
1.0
 21
1.0
 12
105.6338683315803
 22
52.293514289931011
 13
0.0
 23
0.0
 14
1.0
 24
1.0
 15
0.0
 25
0.0
 16
0.0
 26
0.0
 36
1.0
 17
0.0
 27
0.0
 37
0.0
 40
150.65757595529621
 41
2.2448979591836729
 42
50.0
 43
0.0
 44
0.0
 50
0.0
 51
0.0
 71
     0
 72
   100
 73
     1
 74
     1
 75
     0
 76
     0
 77
     0
 78
     0
  0
ENDTAB
  0
TABLE
  2
LTYPE
 70
    11
  0
LTYPE
  2
CONTINUOUS
 70
     0
  3
Solid line
 72
    65
 73
     0
 40
0.0
  0
LTYPE
  2
BYGG-014880$0$NEWDOT
 70
     0
  3
____ . ____ . ____ . ____ . ____ . ____ . ____
 72
    65
 73
     4
 40
2.0
 49
1.0
 49
-0.5
 49
0.0
 49
-0.5
  0
LTYPE
  2
BYGG-014878$0$NEWDOT
 70
     0
  3
____ . ____ . ____ . ____ . ____ . ____ . ____
 72
    65
 73
     4
 40
2.0
 49
1.0
 49
-0.5
 49
0.0
 49
-0.5
  0
LTYPE
  2
BYGG-014203$0$ZIGZAG
 70
     0
  3
Zig zag /\/\/\/\/\/\/\/\/\/\/\/\/\/\/\/\/\/\/\/\/\/\/\/
 72
    65
 73
     4
 40
20.32254
 49
0.00254
 49
-5.0800000000000001
 49
-10.16
 49
-5.0800000000000001
  0
LTYPE
  2
BYGG-014203$0$NEWDOT
 70
     0
  3
____ . ____ . ____ . ____ . ____ . ____ . ____
 72
    65
 73
     4
 40
2.0
 49
1.0
 49
-0.5
 49
0.0
 49
-0.5
  0
LTYPE
  2
BYGG-014880$0$ZIGZAG
 70
     0
  3
Zig zag /\/\/\/\/\/\/\/\/\/\/\/\/\/\/\/\/\/\/\/\/\/\/\/
 72
    65
 73
     4
 40
20.32254
 49
0.00254
 49
-5.0800000000000001
 49
-10.16
 49
-5.0800000000000001
  0
LTYPE
  2
BYGG-014878$0$ZIGZAG
 70
     0
  3
Zig zag /\/\/\/\/\/\/\/\/\/\/\/\/\/\/\/\/\/\/\/\/\/\/\/
 72
    65
 73
     4
 40
20.32254
 49
0.00254
 49
-5.0800000000000001
 49
-10.16
 49
-5.0800000000000001
  0
LTYPE
  2
BYGG-015740$0$NEWDOT
 70
     0
  3
____ . ____ . ____ . ____ . ____ . ____ . ____
 72
    65
 73
     4
 40
2.0
 49
1.0
 49
-0.5
 49
0.0
 49
-0.5
  0
LTYPE
  2
BYGG-015740$0$DASHDOT
 70
     0
  3
__ . __ . __ . __ . __ . __ . __ . __ . __ . __
 72
    65
 73
     4
 40
1.0
 49
0.5
 49
-0.25
 49
0.0
 49
-0.25
  0
LTYPE
  2
BYGG-015740$0$DASHED
 70
     0
  3
__ __ __ __ __ __ __ __ __ __ __ __ __ __ __
 72
    65
 73
     2
 40
0.75
 49
0.5
 49
-0.25
  0
LTYPE
  2
BYGG-015740$0$PHANTOM
 70
     0
  3
Phantom ______  __  __  ______  __  __  ______
 72
    65
 73
     6
 40
63.5
 49
31.75
 49
-6.3499999999999988
 49
6.3499999999999988
 49
-6.3499999999999988
 49
6.3499999999999988
 49
-6.3499999999999988
  0
ENDTAB
  0
TABLE
  2
LAYER
 70
    39
  0
LAYER
  2
0
 70
     0
 62
     7
  6
CONTINUOUS
  0
LAYER
  2
DEFPOINTS
 70
     0
 62
     7
  6
CONTINUOUS
  0
LAYER
  2
SAPA_MATT
 70
     0
 62
     1
  6
CONTINUOUS
  0
LAYER
  2
SAPA_LIGHT
 70
     1
 62
     1
  6
CONTINUOUS
  0
LAYER
  2
SAPA_ANSLUTNING
 70
     0
 62
     6
  6
CONTINUOUS
  0
LAYER
  2
SAPA_ARTIKELNR
 70
     0
 62
     4
  6
CONTINUOUS
  0
LAYER
  2
SAPA_GLAS
 70
     0
 62
     4
  6
CONTINUOUS
  0
LAYER
  2
SAPA_FOGBAND
 70
     0
 62
     2
  6
CONTINUOUS
  0
LAYER
  2
SAPA_PROFIL
 70
     0
 62
     7
  6
CONTINUOUS
  0
ENDTAB
  0
TABLE
  2
STYLE
 70
    15
  0
STYLE
  2
STANDARD
 70
     0
 40
0.0
 41
1.0
 50
0.0
 71
     0
 42
0.2
  3
txt
  4

  0
STYLE
  2
ISO
 70
     0
 40
0.0
 41
1.0
 50
0.0
 71
     0
 42
3.5
  3
txt
  4

  0
STYLE
  2

 70
     1
 40
0.0
 41
1.0
 50
0.0
 71
     0
 42
0.2
  3
ltypeshp.shx
  4

  0
STYLE
  2
BYGG-015740$0$STANDARD
 70
     0
 40
0.0
 41
1.0
 50
0.0
 71
     0
 42
0.2
  3
txt
  4

  0
STYLE
  2
BYGG-015740$0$ISO
 70
     0
 40
0.0
 41
1.0
 50
0.0
 71
     0
 42
3.5
  3
txt
  4

  0
STYLE
  2
BYGG-014880$0$STANDARD
 70
     0
 40
0.0
 41
1.0
 50
0.0
 71
     0
 42
0.2
  3
txt
  4

  0
STYLE
  2
BYGG-014880$0$ISO
 70
     0
 40
0.0
 41
1.0
 50
0.0
 71
     0
 42
3.5
  3
isocp3.shx
  4

  0
STYLE
  2
BYGG-018921$0$STANDARD
 70
     0
 40
0.0
 41
1.0
 50
0.0
 71
     0
 42
0.2
  3
txt
  4

  0
STYLE
  2
BYGG-018921$0$ISO
 70
     0
 40
0.0
 41
1.0
 50
0.0
 71
     0
 42
3.5
  3
txt
  4

  0
STYLE
  2
BYGG-014878$0$STANDARD
 70
     0
 40
0.0
 41
1.0
 50
0.0
 71
     0
 42
0.2
  3
txt
  4

  0
STYLE
  2
BYGG-014878$0$ISO
 70
     0
 40
0.0
 41
1.0
 50
0.0
 71
     0
 42
3.5
  3
isocp3.shx
  4

  0
STYLE
  2
BYGG-026033$0$STANDARD
 70
     0
 40
0.0
 41
1.0
 50
0.0
 71
     0
 42
0.2
  3
txt
  4

  0
STYLE
  2
BYGG-026033$0$ISO
 70
     0
 40
0.0
 41
1.0
 50
0.0
 71
     0
 42
3.5
  3
txt
  4

  0
STYLE
  2
BYGG-014203$0$STANDARD
 70
     0
 40
0.0
 41
1.0
 50
0.0
 71
     0
 42
0.2
  3
txt
  4

  0
STYLE
  2
BYGG-014203$0$ISO
 70
     0
 40
0.0
 41
1.0
 50
0.0
 71
     0
 42
3.5
  3
isocp3.shx
  4

  0
ENDTAB
  0
TABLE
  2
VIEW
 70
     0
  0
ENDTAB
  0
TABLE
  2
UCS
 70
     0
  0
ENDTAB
  0
TABLE
  2
APPID
 70
    18
  0
APPID
  2
ACAD
 70
     0
  0
APPID
  2
ACAD_DSTYLE_DIMTEXT_FILL
 70
     0
  0
APPID
  2
ACAD_DSTYLE_DIMEXT_LENGTH
 70
     0
  0
APPID
  2
ACAD_DSTYLE_DIMEXT_ENABLED
 70
     0
  0
APPID
  2
ACAD_DSTYLE_DIM_LINETYPE
 70
     0
  0
APPID
  2
ACAD_DSTYLE_DIM_EXT1_LINETYPE
 70
     0
  0
APPID
  2
ACAD_DSTYLE_DIM_EXT2_LINETYPE
 70
     0
  0
APPID
  2
ACAD_DSTYLE_DIMJOGGED_JOGA
 70
     0
  0
APPID
  2
ACAD_DSTYLE_DIMARC_LENGTH_
 70
     0
  0
APPID
  2
ACAD_PSEXT
 70
     0
  0
APPID
  2
ACAD_MLEADERVER
 70
     0
  0
APPID
  2
ACAECLAYERSTANDARD
 70
     0
  0
APPID
  2
AMG_ARCHIVE11
 70
     0
  0
APPID
  2
ACAD_EXEMPT_FROM_CAD_STANDARDS
 70
     0
  0
APPID
  2
ACAD_DSTYLE_DIMJAG
 70
     0
  0
APPID
  2
ACAD_DSTYLE_DIMTALN
 70
     0
  0
APPID
  2
ACADANNOTATIVE
 70
     0
  0
APPID
  2
AEC_XDATA_BOUND_SPACE
 70
     0
  0
ENDTAB
  0
TABLE
  2
DIMSTYLE
 70
    11
  0
DIMSTYLE
  2
MASKIN
 70
     0
  3

  4

  5

  6

  7

 40
0.0
 41
3.0
 42
1.5
 43
10.0
 44
1.5
 45
0.0
 46
0.0
 47
0.0
 48
0.0
140
3.5
141
-5.0
142
0.0
143
25.399999999999999
144
-1.0
145
0.0
146
1.0
147
1.0
 71
     0
 72
     0
 73
     0
 74
     0
 75
     0
 76
     0
 77
     1
 78
     8
170
     0
171
     0
172
     1
173
     0
174
     0
175
     0
176
   256
177
   256
178
     2
  0
DIMSTYLE
  2
BYGG-015740$0$STANDARD
 70
     0
  3

  4

  5

  6

  7

 40
1.0
 41
0.18
 42
0.0625
 43
0.38
 44
0.18
 45
0.0
 46
0.0
 47
0.0
 48
0.0
140
0.18
141
0.09
142
0.0
143
25.399999999999999
144
1.0
145
0.0
146
1.0
147
0.09
 71
     0
 72
     0
 73
     1
 74
     1
 75
     0
 76
     0
 77
     0
 78
     0
170
     0
171
     2
172
     0
173
     0
174
     0
175
     0
176
     0
177
     0
178
     0
  0
DIMSTYLE
  2
BYGG-015740$0$MASKIN
 70
     0
  3

  4

  5

  6

  7

 40
0.0
 41
3.0
 42
1.5
 43
10.0
 44
1.5
 45
0.0
 46
0.0
 47
0.0
 48
0.0
140
3.0
141
-5.0
142
0.0
143
25.399999999999999
144
-1.0
145
0.0
146
1.0
147
1.0
 71
     0
 72
     0
 73
     0
 74
     0
 75
     0
 76
     0
 77
     1
 78
     8
170
     0
171
     0
172
     1
173
     0
174
     0
175
     0
176
   256
177
   256
178
     2
  0
DIMSTYLE
  2
BYGG-014880$0$MASKIN
 70
     0
  3

  4

  5

  6

  7

 40
0.0
 41
3.0
 42
1.5
 43
10.0
 44
1.5
 45
0.0
 46
0.0
 47
0.0
 48
0.0
140
3.0
141
-5.0
142
0.0
143
25.399999999999999
144
-1.0
145
0.0
146
1.0
147
1.0
 71
     0
 72
     0
 73
     0
 74
     0
 75
     0
 76
     0
 77
     1
 78
     8
170
     0
171
     0
172
     1
173
     0
174
     0
175
     0
176
   256
177
   256
178
   256
  0
DIMSTYLE
  2
BYGG-014880$0$STANDARD
 70
     0
  3

  4

  5

  6

  7

 40
1.0
 41
0.18
 42
0.0625
 43
0.38
 44
0.18
 45
0.0
 46
0.0
 47
0.0
 48
0.0
140
0.18
141
0.09
142
0.0
143
25.399999999999999
144
1.0
145
0.0
146
1.0
147
0.09
 71
     0
 72
     0
 73
     1
 74
     1
 75
     0
 76
     0
 77
     0
 78
     0
170
     0
171
     2
172
     0
173
     0
174
     0
175
     0
176
     0
177
     0
178
     0
  0
DIMSTYLE
  2
BYGG-018921$0$MASKIN
 70
     0
  3

  4

  5

  6

  7

 40
0.0
 41
3.0
 42
1.5
 43
10.0
 44
1.5
 45
0.0
 46
0.0
 47
0.0
 48
0.0
140
3.0
141
-5.0
142
0.0
143
25.399999999999999
144
-1.0
145
0.0
146
1.0
147
1.0
 71
     0
 72
     0
 73
     0
 74
     0
 75
     0
 76
     0
 77
     1
 78
     8
170
     0
171
     0
172
     1
173
     0
174
     0
175
     0
176
   256
177
   256
178
     2
  0
DIMSTYLE
  2
BYGG-014878$0$MASKIN
 70
     0
  3

  4

  5

  6

  7

 40
0.0
 41
3.0
 42
1.5
 43
10.0
 44
1.5
 45
0.0
 46
0.0
 47
0.0
 48
0.0
140
3.0
141
-5.0
142
0.0
143
25.399999999999999
144
-1.0
145
0.0
146
1.0
147
1.0
 71
     0
 72
     0
 73
     0
 74
     0
 75
     0
 76
     0
 77
     1
 78
     8
170
     0
171
     0
172
     1
173
     0
174
     0
175
     0
176
   256
177
   256
178
   256
  0
DIMSTYLE
  2
BYGG-014878$0$STANDARD
 70
     0
  3

  4

  5

  6

  7

 40
1.0
 41
0.18
 42
0.0625
 43
0.38
 44
0.18
 45
0.0
 46
0.0
 47
0.0
 48
0.0
140
0.18
141
0.09
142
0.0
143
25.399999999999999
144
1.0
145
0.0
146
1.0
147
0.09
 71
     0
 72
     0
 73
     1
 74
     1
 75
     0
 76
     0
 77
     0
 78
     0
170
     0
171
     2
172
     0
173
     0
174
     0
175
     0
176
     0
177
     0
178
     0
  0
DIMSTYLE
  2
BYGG-026033$0$MASKIN
 70
     0
  3

  4

  5

  6

  7

 40
0.0
 41
3.0
 42
1.5
 43
10.0
 44
1.5
 45
0.0
 46
0.0
 47
0.0
 48
0.0
140
3.0
141
-5.0
142
0.0
143
25.399999999999999
144
-1.0
145
0.0
146
1.0
147
1.0
 71
     0
 72
     0
 73
     0
 74
     0
 75
     0
 76
     0
 77
     1
 78
     8
170
     0
171
     0
172
     1
173
     0
174
     0
175
     0
176
   256
177
   256
178
     2
  0
DIMSTYLE
  2
BYGG-014203$0$STANDARD
 70
     0
  3

  4

  5

  6

  7

 40
1.0
 41
0.18
 42
0.0625
 43
0.38
 44
0.18
 45
0.0
 46
0.0
 47
0.0
 48
0.0
140
0.18
141
0.09
142
0.0
143
25.399999999999999
144
1.0
145
0.0
146
1.0
147
0.09
 71
     0
 72
     0
 73
     1
 74
     1
 75
     0
 76
     0
 77
     0
 78
     0
170
     0
171
     2
172
     0
173
     0
174
     0
175
     0
176
     0
177
     0
178
     0
  0
DIMSTYLE
  2
BYGG-014203$0$MASKIN
 70
     0
  3

  4

  5

  6

  7

 40
0.0
 41
3.0
 42
1.5
 43
10.0
 44
1.5
 45
0.0
 46
0.0
 47
0.0
 48
0.0
140
3.0
141
-5.0
142
0.0
143
25.399999999999999
144
-1.0
145
0.0
146
1.0
147
1.0
 71
     0
 72
     0
 73
     0
 74
     0
 75
     0
 76
     0
 77
     1
 78
     8
170
     0
171
     0
172
     1
173
     0
174
     0
175
     0
176
   256
177
   256
178
   256
  0
ENDTAB
  0
ENDSEC
  0
SECTION
  2
BLOCKS
  0
BLOCK
  8
0
  2
$MODEL_SPACE
 70
     0
 10
0.0
 20
0.0
 30
0.0
  3
$MODEL_SPACE
  1

  0
ENDBLK
  5
37
  8
0
  0
BLOCK
 67
     1
  8
0
  2
$PAPER_SPACE
 70
     0
 10
0.0
 20
0.0
 30
0.0
  3
$PAPER_SPACE
  1

  0
ENDBLK
  5
35
 67
     1
  8
0
  0
BLOCK
  8
0
  2
*D30
 70
     1
 10
0.0
 20
0.0
 30
0.0
  3
*D30
  1

  0
LINE
  5
C33
  8
SAPA_MATT
 10
52.000000000000057
 20
7.6499999999998627
 30
0.0
 11
52.000000000000057
 21
-12.650000000000089
 31
0.0
  0
LINE
  5
C34
  8
SAPA_MATT
 10
-0.0000000000000569
 20
7.6499999999999773
 30
0.0
 11
-0.0000000000000582
 21
-12.650000000000089
 31
0.0
  0
LINE
  5
C35
  8
SAPA_MATT
 10
49.00000000000005
 20
-11.150000000000089
 30
0.0
 11
2.9999999999999409
 21
-11.150000000000089
 31
0.0
  0
SOLID
  5
C36
  8
SAPA_MATT
 10
49.00000000000005
 20
-10.650000000000089
 30
0.0
 11
49.00000000000005
 21
-11.650000000000089
 31
0.0
 12
52.000000000000057
 22
-11.150000000000089
 32
0.0
 13
52.000000000000057
 23
-11.150000000000089
 33
0.0
  0
SOLID
  5
C37
  8
SAPA_MATT
 10
2.9999999999999409
 20
-10.650000000000089
 30
0.0
 11
2.9999999999999409
 21
-11.650000000000089
 31
0.0
 12
-0.0000000000000581
 22
-11.150000000000089
 32
0.0
 13
-0.0000000000000581
 23
-11.150000000000089
 33
0.0
  0
INSERT
  5
C38
  8
0
  2
*U57
 10
0.0
 20
0.0
 30
0.0
  0
POINT
  5
C39
  8
DEFPOINTS
 62
     0
 10
52.000000000000057
 20
9.1499999999998636
 30
0.0
  0
POINT
  5
C3A
  8
DEFPOINTS
 62
     0
 10
-0.0000000000000568
 20
9.1499999999999773
 30
0.0
  0
POINT
  5
C3B
  8
DEFPOINTS
 62
     0
 10
-0.0000000000000581
 20
-11.150000000000089
 30
0.0
  0
ENDBLK
  5
BE6
  8
0
  0
BLOCK
  8
0
  2
*D31
 70
     1
 10
0.0
 20
0.0
 30
0.0
  3
*D31
  1

  0
LINE
  5
15B2
  8
SAPA_MATT
 10
52.000000000000057
 20
7.6499999999998627
 30
0.0
 11
52.000000000000057
 21
-12.650000000000089
 31
0.0
  0
LINE
  5
15B3
  8
SAPA_MATT
 10
56.999999999999829
 20
8.3500000000000227
 30
0.0
 11
56.999999999999829
 21
-12.650000000000089
 31
0.0
  0
LINE
  5
15B4
  8
SAPA_MATT
 10
49.00000000000005
 20
-11.150000000000089
 30
0.0
 11
46.00000000000005
 21
-11.150000000000089
 31
0.0
  0
LINE
  5
15B5
  8
SAPA_MATT
 10
59.999999999999829
 20
-11.150000000000089
 30
0.0
 11
62.999999999999822
 21
-11.150000000000089
 31
0.0
  0
LINE
  5
15B6
  8
SAPA_MATT
 10
52.000000000000057
 20
-11.150000000000089
 30
0.0
 11
56.999999999999829
 21
-11.150000000000089
 31
0.0
  0
SOLID
  5
15B7
  8
SAPA_MATT
 10
49.00000000000005
 20
-10.650000000000089
 30
0.0
 11
49.00000000000005
 21
-11.650000000000089
 31
0.0
 12
52.000000000000057
 22
-11.150000000000089
 32
0.0
 13
52.000000000000057
 23
-11.150000000000089
 33
0.0
  0
SOLID
  5
15B8
  8
SAPA_MATT
 10
59.999999999999829
 20
-10.650000000000089
 30
0.0
 11
59.999999999999829
 21
-11.650000000000089
 31
0.0
 12
56.999999999999829
 22
-11.150000000000089
 32
0.0
 13
56.999999999999829
 23
-11.150000000000089
 33
0.0
  0
TEXT
  8
SAPA_MATT
  40
3.5
  5
15C5
  62
2
  72
0
  71
0
 10
47.5000
 20
-14.5950
 30
0.000000
  1
5
  7
ISO
  0
POINT
  5
15BA
  8
DEFPOINTS
 62
     0
 10
52.000000000000057
 20
9.1499999999998636
 30
0.0
  0
POINT
  5
15BB
  8
DEFPOINTS
 62
     0
 10
56.999999999999829
 20
9.8500000000000227
 30
0.0
  0
POINT
  5
15BC
  8
DEFPOINTS
 62
     0
 10
56.999999999999829
 20
-11.150000000000089
 30
0.0
  0
ENDBLK
  5
BF2
  8
0
  0
BLOCK
  8
0
  2
*D32
 70
     1
 10
0.0
 20
0.0
 30
0.0
  3
*D32
  1

  0
LINE
  5
15A9
  8
SAPA_MATT
 10
56.999999999999829
 20
8.3500000000000227
 30
0.0
 11
56.999999999999829
 21
-12.65000000000015
 31
0.0
  0
LINE
  5
15AA
  8
SAPA_MATT
 10
94.499999999999716
 20
8.3500000000000227
 30
0.0
 11
94.499999999999716
 21
-12.65000000000015
 31
0.0
  0
LINE
  5
15AB
  8
SAPA_MATT
 10
59.999999999999829
 20
-11.15000000000015
 30
0.0
 11
91.499999999999716
 21
-11.15000000000015
 31
0.0
  0
SOLID
  5
15AC
  8
SAPA_MATT
 10
59.999999999999829
 20
-10.65000000000015
 30
0.0
 11
59.999999999999829
 21
-11.65000000000015
 31
0.0
 12
56.999999999999829
 22
-11.15000000000015
 32
0.0
 13
56.999999999999829
 23
-11.15000000000015
 33
0.0
  0
SOLID
  5
15AD
  8
SAPA_MATT
 10
91.499999999999716
 20
-10.65000000000015
 30
0.0
 11
91.499999999999716
 21
-11.65000000000015
 31
0.0
 12
94.499999999999716
 22
-11.15000000000015
 32
0.0
 13
94.499999999999716
 23
-11.15000000000015
 33
0.0
  0
TEXT
  8
SAPA_MATT
  40
3.5
  5
15C6
  62
2
  72
0
  71
0
 10
68.7500
 20
-14.5950
 30
0.000000
  1
37.5
  7
ISO
  0
POINT
  5
15AF
  8
DEFPOINTS
 62
     0
 10
56.999999999999829
 20
9.8500000000000227
 30
0.0
  0
POINT
  5
15B0
  8
DEFPOINTS
 62
     0
 10
94.499999999999716
 20
9.8500000000000227
 30
0.0
  0
POINT
  5
15B1
  8
DEFPOINTS
 62
     0
 10
94.499999999999716
 20
-11.15000000000015
 30
0.0
  0
ENDBLK
  5
C00
  8
0
  0
BLOCK
  8
0
  2
*D33
 70
     1
 10
0.0
 20
0.0
 30
0.0
  3
*D33
  1

  0
LINE
  5
C16
  8
SAPA_MATT
 10
-0.0000000000000569
 20
-12.650000000000089
 30
0.0
 11
-0.0000000000000575
 21
-22.650000000000091
 31
0.0
  0
LINE
  5
C17
  8
SAPA_MATT
 10
94.499999999999716
 20
-12.650000000000089
 30
0.0
 11
94.499999999999716
 21
-22.650000000000091
 31
0.0
  0
LINE
  5
C18
  8
SAPA_MATT
 10
2.9999999999999418
 20
-21.150000000000091
 30
0.0
 11
91.499999999999716
 21
-21.150000000000091
 31
0.0
  0
SOLID
  5
C19
  8
SAPA_MATT
 10
2.9999999999999418
 20
-20.650000000000091
 30
0.0
 11
2.9999999999999418
 21
-21.650000000000091
 31
0.0
 12
-0.0000000000000575
 22
-21.150000000000091
 32
0.0
 13
-0.0000000000000575
 23
-21.150000000000091
 33
0.0
  0
SOLID
  5
C1A
  8
SAPA_MATT
 10
91.499999999999716
 20
-20.650000000000091
 30
0.0
 11
91.499999999999716
 21
-21.650000000000091
 31
0.0
 12
94.499999999999716
 22
-21.150000000000091
 32
0.0
 13
94.499999999999716
 23
-21.150000000000091
 33
0.0
  0
INSERT
  5
C1B
  8
0
  2
*U56
 10
0.0
 20
0.0
 30
0.0
  0
POINT
  5
C1C
  8
DEFPOINTS
 62
     0
 10
-0.0000000000000568
 20
-11.150000000000089
 30
0.0
  0
POINT
  5
C1D
  8
DEFPOINTS
 62
     0
 10
94.499999999999716
 20
-11.150000000000089
 30
0.0
  0
POINT
  5
C1E
  8
DEFPOINTS
 62
     0
 10
94.499999999999716
 20
-21.150000000000091
 30
0.0
  0
ENDBLK
  5
C0C
  8
0
  0
BLOCK
  8
0
  2
*X34
 70
     1
 10
0.0
 20
0.0
 30
0.0
  3
*X34
  1

  0
LINE
  5
C5A
  8
0
 62
     0
 10
4.5035016193100388
 20
18.399374874101589
 30
0.0
 11
4.3008189764153846
 21
18.516393752536889
 31
0.0
  0
LINE
  5
C5B
  8
0
 62
     0
 10
2.2385961479075922
 20
18.11951903703298
 30
0.0
 11
1.551188483653696
 21
18.516394037032981
 31
0.0
  0
LINE
  5
C5C
  8
0
 62
     0
 10
4.3008191406692857
 20
16.928894037032979
 30
0.0
 11
3.61341147641539
 21
17.32576903703298
 31
0.0
  0
LINE
  5
C5D
  8
0
 62
     0
 10
-0.5110343448540671
 20
18.119519321529079
 30
0.0
 11
-1.1984420091079631
 21
18.516394321529081
 31
0.0
  0
LINE
  5
C5E
  8
0
 62
     0
 10
1.551188647907626
 20
16.928894321529079
 30
0.0
 11
0.8637809836537307
 21
17.32576932152908
 31
0.0
  0
LINE
  5
C5F
  8
0
 62
     0
 10
3.61341164066932
 20
15.73826932152908
 30
0.0
 11
2.9260039764154242
 21
16.135144321529079
 31
0.0
  0
LINE
  5
C60
  8
0
 62
     0
 10
-3.2606648376158258
 20
18.1195196060252
 30
0.0
 11
-3.948072501869722
 21
18.516394606025209
 31
0.0
  0
LINE
  5
C61
  8
0
 62
     0
 10
-1.1984418448541321
 20
16.928894606025199
 30
0.0
 11
-1.8858495091080281
 21
17.325769606025212
 31
0.0
  0
LINE
  5
C62
  8
0
 62
     0
 10
0.8637811479075616
 20
15.738269606025201
 30
0.0
 11
0.1763734836536654
 21
16.135144606025211
 31
0.0
  0
LINE
  5
C63
  8
0
 62
     0
 10
2.9260041406692552
 20
14.5476446060252
 30
0.0
 11
2.238596476415359
 21
14.944519606025199
 31
0.0
  0
LINE
  5
C64
  8
0
 62
     0
 10
4.5035016193100388
 20
13.63687601208599
 30
0.0
 11
4.3008194691770534
 21
13.753894606025201
 31
0.0
  0
LINE
  5
C65
  8
0
 62
     0
 10
-6.0102953303774811
 20
18.11951989052131
 30
0.0
 11
-6.6977029946313769
 21
18.516394890521308
 31
0.0
  0
LINE
  5
C66
  8
0
 62
     0
 10
-3.9480723376157871
 20
16.928894890521299
 30
0.0
 11
-4.6354800018696842
 21
17.3257698905213
 31
0.0
  0
LINE
  5
C67
  8
0
 62
     0
 10
-1.8858493448540929
 20
15.7382698905213
 30
0.0
 11
-2.5732570091079898
 21
16.1351448905213
 31
0.0
  0
LINE
  5
C68
  8
0
 62
     0
 10
0.1763736479076003
 20
14.547644890521299
 30
0.0
 11
-0.5110340163462963
 21
14.944519890521301
 31
0.0
  0
LINE
  5
C69
  8
0
 62
     0
 10
2.2385966406692939
 20
13.3570198905213
 30
0.0
 11
1.551188976415397
 21
13.7538948905213
 31
0.0
  0
LINE
  5
C6A
  8
0
 62
     0
 10
4.3008196334309634
 20
12.166394890521319
 30
0.0
 11
3.6134119691770659
 21
12.563269890521321
 31
0.0
  0
LINE
  5
C6B
  8
0
 62
     0
 10
-8.7599258231391897
 20
18.119520175017421
 30
0.0
 11
-9.4473334873930881
 21
18.516395175017418
 31
0.0
  0
LINE
  5
C6C
  8
0
 62
     0
 10
-6.697702830377497
 20
16.928895175017409
 30
0.0
 11
-7.3851104946313937
 21
17.325770175017421
 31
0.0
  0
LINE
  5
C6D
  8
0
 62
     0
 10
-4.6354798376158017
 20
15.73827017501741
 30
0.0
 11
-5.3228875018697011
 21
16.135145175017421
 31
0.0
  0
LINE
  5
C6E
  8
0
 62
     0
 10
-2.5732568448541082
 20
14.54764517501741
 30
0.0
 11
-3.2606645091080071
 21
14.944520175017409
 31
0.0
  0
LINE
  5
C6F
  8
0
 62
     0
 10
-0.5110338520924147
 20
13.357020175017411
 30
0.0
 11
-1.1984415163463129
 21
13.75389517501741
 31
0.0
  0
LINE
  5
C70
  8
0
 62
     0
 10
3.6134121334309799
 20
10.97577017501742
 30
0.0
 11
2.926004469177081
 21
11.37264517501742
 31
0.0
  0
LINE
  5
C71
  8
0
 62
     0
 10
-9.4473333231392207
 20
16.928895459513509
 30
0.0
 11
-9.4964983806899692
 21
16.957280918725161
 31
0.0
  0
LINE
  5
C72
  8
0
 62
     0
 10
-7.3851103303775281
 20
15.73827045951351
 30
0.0
 11
-8.0725179946314256
 21
16.13514545951352
 31
0.0
  0
LINE
  5
C73
  8
0
 62
     0
 10
-5.3228873376158337
 20
14.547645459513509
 30
0.0
 11
-6.0102950018697321
 21
14.944520459513511
 31
0.0
  0
LINE
  5
C74
  8
0
 62
     0
 10
-3.2606643448541401
 20
13.35702045951351
 30
0.0
 11
-3.9480720091080381
 21
13.75389545951351
 31
0.0
  0
LINE
  5
C75
  8
0
 62
     0
 10
-1.198441352092446
 20
12.16639545951351
 30
0.0
 11
-1.8858490163463451
 21
12.563270459513509
 31
0.0
  0
LINE
  5
C76
  8
0
 62
     0
 10
-8.0725178303774801
 20
14.54764574400958
 30
0.0
 11
-8.7599254946313785
 21
14.94452074400958
 31
0.0
  0
LINE
  5
C77
  8
0
 62
     0
 10
-6.0102948376157848
 20
13.35702074400958
 30
0.0
 11
-6.6977025018696832
 21
13.753895744009579
 31
0.0
  0
LINE
  5
C78
  8
0
 62
     0
 10
-3.9480718448540908
 20
12.166395744009581
 30
0.0
 11
-4.6354795091079888
 21
12.56327074400958
 31
0.0
  0
LINE
  5
C79
  8
0
 62
     0
 10
-1.8858488520923971
 20
10.97577074400958
 30
0.0
 11
-2.5732565163462939
 21
11.37264574400958
 31
0.0
  0
LINE
  5
C7A
  8
0
 62
     0
 10
-0.4964983806899586
 20
10.173628875346649
 30
0.0
 11
-0.5110335235846009
 21
10.182020744009581
 31
0.0
  0
LINE
  5
C7B
  8
0
 62
     0
 10
-8.7599253303775146
 20
13.357021028505709
 30
0.0
 11
-9.4473329946314131
 21
13.753896028505711
 31
0.0
  0
LINE
  5
C7C
  8
0
 62
     0
 10
-6.6977023376158202
 20
12.16639602850571
 30
0.0
 11
-7.3851100018697169
 21
12.56327102850571
 31
0.0
  0
LINE
  5
C7D
  8
0
 62
     0
 10
-4.6354793448541249
 20
10.97577102850571
 30
0.0
 11
-5.3228870091080243
 21
11.372646028505709
 31
0.0
  0
LINE
  5
C7E
  8
0
 62
     0
 10
-2.573256352092431
 20
9.7851460285057108
 30
0.0
 11
-3.2606640163463281
 21
10.18202102850571
 31
0.0
  0
LINE
  5
C7F
  8
0
 62
     0
 10
-9.4473328303774711
 20
12.16639631300176
 30
0.0
 11
-9.4964983806899976
 21
12.19478205670956
 31
0.0
  0
LINE
  5
C80
  8
0
 62
     0
 10
-7.3851098376157758
 20
10.97577131300176
 30
0.0
 11
-8.0725175018696742
 21
11.372646313001759
 31
0.0
  0
LINE
  5
C81
  8
0
 62
     0
 10
-5.3228868448540831
 20
9.7851463130017642
 30
0.0
 11
-6.0102945091079798
 21
10.18202131300176
 31
0.0
  0
LINE
  5
C82
  8
0
 62
     0
 10
-8.0725173376157677
 20
9.7851465974978744
 30
0.0
 11
-8.7599250018696662
 21
10.182021597497871
 31
0.0
  0
LINE
  5
C83
  8
0
 62
     0
 10
-9.4473219896201961
 20
18.516281945571059
 30
0.0
 11
-9.4964983806899266
 21
18.487889942949181
 31
0.0
  0
LINE
  5
C84
  8
0
 62
     0
 10
-8.7599144896202041
 20
17.325657230067179
 30
0.0
 11
-9.4473221538741043
 21
16.928782230067181
 31
0.0
  0
LINE
  5
C85
  8
0
 62
     0
 10
-6.6976914968585106
 20
18.516282230067169
 30
0.0
 11
-7.385099161112409
 21
18.119407230067178
 31
0.0
  0
LINE
  5
C86
  8
0
 62
     0
 10
-8.0725069896201571
 20
16.135032514563228
 30
0.0
 11
-8.7599146538740573
 21
15.73815751456323
 31
0.0
  0
LINE
  5
C87
  8
0
 62
     0
 10
-6.0102839968584627
 20
17.325657514563229
 30
0.0
 11
-6.697691661112362
 21
16.928782514563231
 31
0.0
  0
LINE
  5
C88
  8
0
 62
     0
 10
-3.9480610040967692
 20
18.51628251456323
 30
0.0
 11
-4.6354686683506667
 21
18.119407514563228
 31
0.0
  0
LINE
  5
C89
  8
0
 62
     0
 10
-9.4473224823819191
 20
13.753782799059371
 30
0.0
 11
-9.4964983806899195
 21
13.72539108093361
 31
0.0
  0
LINE
  5
C8A
  8
0
 62
     0
 10
-7.3850994896202229
 20
14.94440779905937
 30
0.0
 11
-8.0725071538741222
 21
14.54753279905937
 31
0.0
  0
LINE
  5
C8B
  8
0
 62
     0
 10
-5.3228764968585294
 20
16.13503279905937
 30
0.0
 11
-6.0102841611124269
 21
15.738157799059371
 31
0.0
  0
LINE
  5
C8C
  8
0
 62
     0
 10
-3.2606535040968341
 20
17.325657799059371
 30
0.0
 11
-3.948061168350733
 21
16.92878279905937
 31
0.0
  0
LINE
  5
C8D
  8
0
 62
     0
 10
-1.1984305113351399
 20
18.516282799059368
 30
0.0
 11
-1.8858381755890381
 21
18.11940779905937
 31
0.0
  0
LINE
  5
C8E
  8
0
 62
     0
 10
-8.7599149823819111
 20
12.563158083555431
 30
0.0
 11
-9.4473226466358113
 21
12.166283083555429
 31
0.0
  0
LINE
  5
C8F
  8
0
 62
     0
 10
-6.6976919896202167
 20
13.75378308355543
 30
0.0
 11
-7.385099653874116
 21
13.35690808355543
 31
0.0
  0
LINE
  5
C90
  8
0
 62
     0
 10
-4.6354689968585232
 20
14.94440808355543
 30
0.0
 11
-5.3228766611124216
 21
14.547533083555431
 31
0.0
  0
LINE
  5
C91
  8
0
 62
     0
 10
-2.5732460040968279
 20
16.135033083555431
 30
0.0
 11
-3.2606536683507268
 21
15.73815808355543
 31
0.0
  0
LINE
  5
C92
  8
0
 62
     0
 10
-0.5110230113351344
 20
17.325658083555421
 30
0.0
 11
-1.1984306755890319
 21
16.92878308355543
 31
0.0
  0
LINE
  5
C93
  8
0
 62
     0
 10
1.55119998142656
 20
18.516283083555422
 30
0.0
 11
0.8637923171726615
 21
18.11940808355542
 31
0.0
  0
LINE
  5
C94
  8
0
 62
     0
 10
-8.0725074823818677
 20
11.37253336805154
 30
0.0
 11
-8.7599151466357661
 21
10.97565836805154
 31
0.0
  0
LINE
  5
C95
  8
0
 62
     0
 10
-6.0102844896201724
 20
12.563158368051541
 30
0.0
 11
-6.6976921538740708
 21
12.166283368051539
 31
0.0
  0
LINE
  5
C96
  8
0
 62
     0
 10
-3.9480614968584771
 20
13.753783368051529
 30
0.0
 11
-4.6354691611123773
 21
13.356908368051529
 31
0.0
  0
LINE
  5
C97
  8
0
 62
     0
 10
-1.8858385040967831
 20
14.94440836805153
 30
0.0
 11
-2.573246168350682
 21
14.54753336805153
 31
0.0
  0
LINE
  5
C98
  8
0
 62
     0
 10
0.1763844886649108
 20
16.135033368051531
 30
0.0
 11
-0.5110231755889885
 21
15.738158368051529
 31
0.0
  0
LINE
  5
C99
  8
0
 62
     0
 10
2.2386074814266048
 20
17.325658368051531
 30
0.0
 11
1.5511998171727051
 21
16.92878336805153
 31
0.0
  0
LINE
  5
C9A
  8
0
 62
     0
 10
4.3008304741882988
 20
18.516283368051528
 30
0.0
 11
3.6134228099343999
 21
18.119408368051531
 31
0.0
  0
LINE
  5
C9B
  8
0
 62
     0
 10
-7.3850999823819192
 20
10.181908652547619
 30
0.0
 11
-8.0725076466358185
 21
9.7850336525476251
 31
0.0
  0
LINE
  5
C9C
  8
0
 62
     0
 10
-5.3228769896202239
 20
11.37253365254762
 30
0.0
 11
-6.010284653874125
 21
10.975658652547621
 31
0.0
  0
LINE
  5
C9D
  8
0
 62
     0
 10
-3.26065399685853
 20
12.563158652547621
 30
0.0
 11
-3.9480616611124302
 21
12.166283652547619
 31
0.0
  0
LINE
  5
C9E
  8
0
 62
     0
 10
-1.198431004096836
 20
13.75378365254762
 30
0.0
 11
-1.885838668350736
 21
13.35690865254762
 31
0.0
  0
LINE
  5
C9F
  8
0
 62
     0
 10
0.8637919886648575
 20
14.944408652547621
 30
0.0
 11
0.1763843244109577
 21
14.547533652547621
 31
0.0
  0
LINE
  5
CA0
  8
0
 62
     0
 10
2.926014981426551
 20
16.135033652547619
 30
0.0
 11
2.2386073171726522
 21
15.73815865254762
 31
0.0
  0
LINE
  5
CA1
  8
0
 62
     0
 10
4.5035016193100432
 20
17.045795987572689
 30
0.0
 11
4.3008303099343461
 21
16.928783652547619
 31
0.0
  0
LINE
  5
CA2
  8
0
 62
     0
 10
-4.6354694896202018
 20
10.181908937043691
 30
0.0
 11
-5.3228771538741011
 21
9.7850339370436927
 31
0.0
  0
LINE
  5
CA3
  8
0
 62
     0
 10
-2.5732464968585078
 20
11.37253393704369
 30
0.0
 11
-3.2606541611124058
 21
10.97565893704369
 31
0.0
  0
LINE
  5
CA4
  8
0
 62
     0
 10
-0.5110235040968139
 20
12.56315893704369
 30
0.0
 11
-1.198431168350711
 21
12.166283937043691
 31
0.0
  0
LINE
  5
CA5
  8
0
 62
     0
 10
1.5511994886648801
 20
13.753783937043689
 30
0.0
 11
0.8637918244109826
 21
13.35690893704369
 31
0.0
  0
LINE
  5
CA6
  8
0
 62
     0
 10
3.6134224814265741
 20
14.94440893704369
 30
0.0
 11
2.9260148171726761
 21
14.54753393704369
 31
0.0
  0
LINE
  5
CA7
  8
0
 62
     0
 10
-1.8858389968585381
 20
10.181909221539829
 30
0.0
 11
-2.5732466611124361
 21
9.7850342215398385
 31
0.0
  0
LINE
  5
CA8
  8
0
 62
     0
 10
-0.4964983806899568
 20
10.98404540028085
 30
0.0
 11
-0.5110236683507421
 21
10.97565922153983
 31
0.0
  0
LINE
  5
CA9
  8
0
 62
     0
 10
4.300829981426582
 20
13.75378422153984
 30
0.0
 11
3.613422317172684
 21
13.356909221539841
 31
0.0
  0
LINE
  5
CAA
  8
0
 62
     0
 10
2.926014488664932
 20
11.37253450603593
 30
0.0
 11
2.605503424212404
 21
11.18748735669601
 31
0.0
  0
LINE
  5
CAB
  8
0
 62
     0
 10
4.5035016193100432
 20
12.28329712555705
 30
0.0
 11
4.3008298171727279
 21
12.166284506035931
 31
0.0
  0
LINE
  5
CAC
  8
0
 62
     0
 10
3.6135126568165128
 20
17.32572351765738
 30
0.0
 11
3.6135126568165128
 21
18.119473517657379
 31
0.0
  0
LINE
  5
CAD
  8
0
 62
     0
 10
3.6135126568165128
 20
14.94447351765738
 30
0.0
 11
3.6135126568165128
 21
15.73822351765738
 31
0.0
  0
LINE
  5
CAE
  8
0
 62
     0
 10
3.6135126568165128
 20
12.563223517657381
 30
0.0
 11
3.6135126568165128
 21
13.35697351765738
 31
0.0
  0
LINE
  5
CAF
  8
0
 62
     0
 10
3.6135126568165128
 20
10.842954439071891
 30
0.0
 11
3.6135126568165128
 21
10.97572351765738
 31
0.0
  0
LINE
  5
CB0
  8
0
 62
     0
 10
2.238697656816615
 20
17.32572351765738
 30
0.0
 11
2.238697656816615
 21
18.119473517657379
 31
0.0
  0
LINE
  5
CB1
  8
0
 62
     0
 10
2.238697656816615
 20
14.94447351765738
 30
0.0
 11
2.238697656816615
 21
15.73822351765738
 31
0.0
  0
LINE
  5
CB2
  8
0
 62
     0
 10
2.238697656816615
 20
13.3279824873282
 30
0.0
 11
2.238697656816615
 21
13.35697351765738
 31
0.0
  0
LINE
  5
CB3
  8
0
 62
     0
 10
0.8638826568166027
 20
17.32572351765738
 30
0.0
 11
0.8638826568166027
 21
18.119473517657379
 31
0.0
  0
LINE
  5
CB4
  8
0
 62
     0
 10
0.8638826568166027
 20
14.94447351765738
 30
0.0
 11
0.8638826568166027
 21
15.73822351765738
 31
0.0
  0
LINE
  5
CB5
  8
0
 62
     0
 10
0.8638826568166026
 20
13.316217684733671
 30
0.0
 11
0.8638826568166026
 21
13.35697351765738
 31
0.0
  0
LINE
  5
CB6
  8
0
 62
     0
 10
-0.5109323431834096
 20
17.32572351765738
 30
0.0
 11
-0.5109323431834096
 21
18.119473517657379
 31
0.0
  0
LINE
  5
CB7
  8
0
 62
     0
 10
-0.5109323431834097
 20
14.94447351765738
 30
0.0
 11
-0.5109323431834097
 21
15.73822351765738
 31
0.0
  0
LINE
  5
CB8
  8
0
 62
     0
 10
-0.5109323431834099
 20
12.563223517657381
 30
0.0
 11
-0.5109323431834099
 21
13.35697351765738
 31
0.0
  0
LINE
  5
CB9
  8
0
 62
     0
 10
-0.5109323431834099
 20
10.181973517657379
 30
0.0
 11
-0.5109323431834099
 21
10.97572351765738
 31
0.0
  0
LINE
  5
CBA
  8
0
 62
     0
 10
-1.885747343183422
 20
17.32572351765738
 30
0.0
 11
-1.885747343183422
 21
18.119473517657379
 31
0.0
  0
LINE
  5
CBB
  8
0
 62
     0
 10
-1.885747343183422
 20
14.94447351765738
 30
0.0
 11
-1.885747343183422
 21
15.73822351765738
 31
0.0
  0
LINE
  5
CBC
  8
0
 62
     0
 10
-1.885747343183422
 20
12.563223517657381
 30
0.0
 11
-1.885747343183422
 21
13.35697351765738
 31
0.0
  0
LINE
  5
CBD
  8
0
 62
     0
 10
-1.885747343183422
 20
10.181973517657379
 30
0.0
 11
-1.885747343183422
 21
10.97572351765738
 31
0.0
  0
LINE
  5
CBE
  8
0
 62
     0
 10
-3.2605623431834339
 20
17.32572351765738
 30
0.0
 11
-3.2605623431834339
 21
18.119473517657379
 31
0.0
  0
LINE
  5
CBF
  8
0
 62
     0
 10
-3.2605623431834339
 20
14.94447351765738
 30
0.0
 11
-3.2605623431834339
 21
15.73822351765738
 31
0.0
  0
LINE
  5
CC0
  8
0
 62
     0
 10
-3.2605623431834339
 20
12.563223517657381
 30
0.0
 11
-3.2605623431834339
 21
13.35697351765738
 31
0.0
  0
LINE
  5
CC1
  8
0
 62
     0
 10
-3.2605623431834339
 20
10.181973517657379
 30
0.0
 11
-3.2605623431834339
 21
10.97572351765738
 31
0.0
  0
LINE
  5
CC2
  8
0
 62
     0
 10
-4.6353773431834471
 20
17.32572351765738
 30
0.0
 11
-4.6353773431834471
 21
18.119473517657379
 31
0.0
  0
LINE
  5
CC3
  8
0
 62
     0
 10
-4.6353773431834471
 20
14.94447351765738
 30
0.0
 11
-4.6353773431834471
 21
15.73822351765738
 31
0.0
  0
LINE
  5
CC4
  8
0
 62
     0
 10
-4.6353773431834471
 20
12.563223517657381
 30
0.0
 11
-4.6353773431834471
 21
13.35697351765738
 31
0.0
  0
LINE
  5
CC5
  8
0
 62
     0
 10
-4.6353773431834471
 20
10.181973517657379
 30
0.0
 11
-4.6353773431834471
 21
10.97572351765738
 31
0.0
  0
LINE
  5
CC6
  8
0
 62
     0
 10
-6.0101923431834594
 20
17.32572351765738
 30
0.0
 11
-6.0101923431834594
 21
18.119473517657379
 31
0.0
  0
LINE
  5
CC7
  8
0
 62
     0
 10
-6.0101923431834594
 20
14.94447351765738
 30
0.0
 11
-6.0101923431834594
 21
15.73822351765738
 31
0.0
  0
LINE
  5
CC8
  8
0
 62
     0
 10
-6.0101923431834594
 20
12.563223517657381
 30
0.0
 11
-6.0101923431834594
 21
13.35697351765738
 31
0.0
  0
LINE
  5
CC9
  8
0
 62
     0
 10
-6.0101923431834594
 20
10.181973517657379
 30
0.0
 11
-6.0101923431834594
 21
10.97572351765738
 31
0.0
  0
LINE
  5
CCA
  8
0
 62
     0
 10
-7.3850073431834709
 20
17.32572351765738
 30
0.0
 11
-7.3850073431834709
 21
18.119473517657379
 31
0.0
  0
LINE
  5
CCB
  8
0
 62
     0
 10
-7.3850073431834709
 20
14.94447351765738
 30
0.0
 11
-7.3850073431834709
 21
15.73822351765738
 31
0.0
  0
LINE
  5
CCC
  8
0
 62
     0
 10
-7.3850073431834709
 20
12.563223517657381
 30
0.0
 11
-7.3850073431834709
 21
13.35697351765738
 31
0.0
  0
LINE
  5
CCD
  8
0
 62
     0
 10
-7.3850073431834709
 20
10.181973517657379
 30
0.0
 11
-7.3850073431834709
 21
10.97572351765738
 31
0.0
  0
LINE
  5
CCE
  8
0
 62
     0
 10
-8.7598223431834832
 20
17.32572351765738
 30
0.0
 11
-8.7598223431834832
 21
18.119473517657379
 31
0.0
  0
LINE
  5
CCF
  8
0
 62
     0
 10
-8.7598223431834832
 20
14.94447351765738
 30
0.0
 11
-8.7598223431834832
 21
15.73822351765738
 31
0.0
  0
LINE
  5
CD0
  8
0
 62
     0
 10
-8.7598223431834832
 20
12.563223517657381
 30
0.0
 11
-8.7598223431834832
 21
13.35697351765738
 31
0.0
  0
LINE
  5
CD1
  8
0
 62
     0
 10
-8.7598223431834832
 20
10.181973517657379
 30
0.0
 11
-8.7598223431834832
 21
10.97572351765738
 31
0.0
  0
ENDBLK
  5
CD3
  8
0
  0
BLOCK
  8
0
  2
*X35
 70
     1
 10
0.0
 20
0.0
 30
0.0
  3
*X35
  1

  0
LINE
  5
CD5
  8
0
 62
     0
 10
-8.9645786322496406
 20
58.638974885035744
 30
0.0
 11
-9.9953398554511068
 21
57.608213661834299
 31
0.0
  0
LINE
  5
CD6
  8
0
 62
     0
 10
-7.16479437209341
 20
58.193695114924708
 30
0.0
 11
-9.9953398554511352
 21
55.363149631566984
 31
0.0
  0
LINE
  5
CD7
  8
0
 62
     0
 10
-5.104154680339632
 20
58.009270776411192
 30
0.0
 11
-9.9953398554510784
 21
53.118085601299718
 31
0.0
  0
LINE
  5
CD8
  8
0
 62
     0
 10
-2.6411746201445392
 20
58.22718680633897
 30
0.0
 11
-6.4707488012869296
 21
54.397612625196558
 31
0.0
  0
LINE
  5
CD9
  8
0
 62
     0
 10
0.012543249165276
 20
58.635840645381528
 30
0.0
 11
-3.6774569615223238
 21
54.945840434693913
 31
0.0
  0
LINE
  5
CDA
  8
0
 62
     0
 10
0.000000000000199
 20
56.378233365949171
 30
0.0
 11
-1.423771947887388
 21
54.954461418061612
 31
0.0
  0
LINE
  5
CDB
  8
0
 62
     0
 10
0.858415332159268
 20
54.991584667840897
 30
0.0
 11
0.5310339578196022
 21
54.664203293501203
 31
0.0
  0
LINE
  5
CDC
  8
0
 62
     0
 10
0.0000000000002274
 20
57.321092211817977
 30
0.0
 11
-1.248316558691499
 21
58.56940877050971
 31
0.0
  0
LINE
  5
CDD
  8
0
 62
     0
 10
0.3789929422705995
 20
54.697035239280289
 30
0.0
 11
-3.077344921787073
 21
58.153373103337969
 31
0.0
  0
LINE
  5
CDE
  8
0
 62
     0
 10
-2.160666509018597
 20
54.991630660302171
 30
0.0
 11
-5.1791575993399874
 21
58.010121750623568
 31
0.0
  0
LINE
  5
CDF
  8
0
 62
     0
 10
-4.2939983245715894
 20
54.879898445587862
 30
0.0
 11
-7.7146715441193692
 21
58.300571665135628
 31
0.0
  0
LINE
  5
CE0
  8
0
 62
     0
 10
-6.1576444716491201
 20
54.498480562398072
 30
0.0
 11
-9.9953398554510482
 21
58.336175946200001
 31
0.0
  0
LINE
  5
CE1
  8
0
 62
     0
 10
-7.7486252527261854
 20
53.844397313207878
 30
0.0
 11
-9.9953398554510482
 21
56.091111915932743
 31
0.0
  0
LINE
  5
CE2
  8
0
 62
     0
 10
-9.0370391849371572
 20
52.887747215151592
 30
0.0
 11
-9.9953398554510482
 21
53.846047885665477
 31
0.0
  0
LINE
  5
CE3
  8
0
 62
     0
 10
-9.873245890572889
 20
51.478889890520058
 30
0.0
 11
-9.9953398554510482
 21
51.600983855398219
 31
0.0
  0
ENDBLK
  5
CE5
  8
0
  0
BLOCK
  8
0
  2
*X36
 70
     1
 10
0.0
 20
0.0
 30
0.0
  3
*X36
  1

  0
LINE
  5
CE7
  8
0
 62
     0
 10
0.8637772058140193
 20
53.838262778118882
 30
0.0
 11
0.1763695415601214
 21
54.235137778118869
 31
0.0
  0
LINE
  5
CE8
  8
0
 62
     0
 10
2.9260001985757129
 20
52.64763777811887
 30
0.0
 11
2.2385925343218149
 21
53.044512778118872
 31
0.0
  0
LINE
  5
CE9
  8
0
 62
     0
 10
4.8696141126984571
 20
51.525491761599397
 30
0.0
 11
4.3008155270835093
 21
51.853887778118867
 31
0.0
  0
LINE
  5
CEA
  8
0
 62
     0
 10
-1.885853286947607
 20
53.838263062614928
 30
0.0
 11
-2.5732609512015041
 21
54.235138062614929
 31
0.0
  0
LINE
  5
CEB
  8
0
 62
     0
 10
0.1763697058140865
 20
52.647638062614931
 30
0.0
 11
-0.5110379584398112
 21
53.044513062614932
 31
0.0
  0
LINE
  5
CEC
  8
0
 62
     0
 10
2.23859269857578
 20
51.457013062614926
 30
0.0
 11
1.551185034321882
 21
51.853888062614921
 31
0.0
  0
LINE
  5
CED
  8
0
 62
     0
 10
4.3008156913374744
 20
50.266388062614922
 30
0.0
 11
3.613408027083576
 21
50.663263062614917
 31
0.0
  0
LINE
  5
CEE
  8
0
 62
     0
 10
-4.6354837797093049
 20
53.838263347111038
 30
0.0
 11
-5.3228914439632034
 21
54.23513834711104
 31
0.0
  0
LINE
  5
CEF
  8
0
 62
     0
 10
-2.5732607869476118
 20
52.647638347111041
 30
0.0
 11
-3.2606684512015089
 21
53.044513347111028
 31
0.0
  0
LINE
  5
CF0
  8
0
 62
     0
 10
-0.5110377941859188
 20
51.45701334711103
 30
0.0
 11
-1.198445458439815
 21
51.853888347111031
 31
0.0
  0
LINE
  5
CF1
  8
0
 62
     0
 10
1.551185198575775
 20
50.266388347111032
 30
0.0
 11
0.8637775343218784
 21
50.663263347111027
 31
0.0
  0
LINE
  5
CF2
  8
0
 62
     0
 10
3.6134081913374692
 20
49.075763347111021
 30
0.0
 11
2.9260005270835721
 21
49.472638347111022
 31
0.0
  0
LINE
  5
CF3
  8
0
 62
     0
 10
-7.3851142724710268
 20
53.838263631607148
 30
0.0
 11
-7.5620231112431293
 21
53.940401997294252
 31
0.0
  0
LINE
  5
CF4
  8
0
 62
     0
 10
-5.3228912797093333
 20
52.647638631607151
 30
0.0
 11
-6.0102989439632308
 21
53.044513631607153
 31
0.0
  0
LINE
  5
CF5
  8
0
 62
     0
 10
-3.2606682869476389
 20
51.45701363160714
 30
0.0
 11
-3.9480759512015369
 21
51.853888631607148
 31
0.0
  0
LINE
  5
CF6
  8
0
 62
     0
 10
-1.1984452941859449
 20
50.266388631607143
 30
0.0
 11
-1.8858529584398429
 21
50.663263631607137
 31
0.0
  0
LINE
  5
CF7
  8
0
 62
     0
 10
0.8637776985757486
 20
49.075763631607138
 30
0.0
 11
0.1763700343218502
 21
49.472638631607133
 31
0.0
  0
LINE
  5
CF8
  8
0
 62
     0
 10
2.4421880529239952
 20
48.164467988632481
 30
0.0
 11
2.2385930270835441
 21
48.282013631607128
 31
0.0
  0
LINE
  5
CF9
  8
0
 62
     0
 10
-8.0725217724710205
 20
52.647638916103247
 30
0.0
 11
-8.7599294367249172
 21
53.044513916103242
 31
0.0
  0
LINE
  5
CFA
  8
0
 62
     0
 10
-6.0102987797093279
 20
51.457013916103243
 30
0.0
 11
-6.6977064439632246
 21
51.853888916103237
 31
0.0
  0
LINE
  5
CFB
  8
0
 62
     0
 10
-3.9480757869476339
 20
50.266388916103239
 30
0.0
 11
-4.635483451201531
 21
50.66326391610324
 31
0.0
  0
LINE
  5
CFC
  8
0
 62
     0
 10
-1.88585279418594
 20
49.075763916103227
 30
0.0
 11
-2.5732604584398371
 21
49.472638916103229
 31
0.0
  0
LINE
  5
CFD
  8
0
 62
     0
 10
0.1763701985757535
 20
47.88513891610323
 30
0.0
 11
-0.5110374656781432
 21
48.282013916103232
 31
0.0
  0
LINE
  5
CFE
  8
0
 62
     0
 10
-8.7599292724710232
 20
51.457014200599382
 30
0.0
 11
-9.4473369367249216
 21
51.85388920059939
 31
0.0
  0
LINE
  5
CFF
  8
0
 62
     0
 10
-6.6977062797093296
 20
50.26638920059937
 30
0.0
 11
-7.3851139439632263
 21
50.663264200599379
 31
0.0
  0
LINE
  5
D00
  8
0
 62
     0
 10
-4.6354832869476361
 20
49.075764200599373
 30
0.0
 11
-5.3228909512015319
 21
49.472639200599367
 31
0.0
  0
LINE
  5
D01
  8
0
 62
     0
 10
-2.5732602941859422
 20
47.885139200599362
 30
0.0
 11
-3.2606679584398388
 21
48.28201420059937
 31
0.0
  0
LINE
  5
D02
  8
0
 62
     0
 10
-9.4473367724710346
 20
50.266389485095431
 30
0.0
 11
-9.8255646832420158
 21
50.484759471194089
 31
0.0
  0
LINE
  5
D03
  8
0
 62
     0
 10
-7.385113779709342
 20
49.075764485095419
 30
0.0
 11
-8.0725214439632378
 21
49.472639485095428
 31
0.0
  0
LINE
  5
D04
  8
0
 62
     0
 10
-5.3228907869476476
 20
47.885139485095422
 30
0.0
 11
-6.0102984512015443
 21
48.282014485095416
 31
0.0
  0
LINE
  5
D05
  8
0
 62
     0
 10
-9.4473185402882862
 20
51.853775971152977
 30
0.0
 11
-9.8404759034095122
 21
51.626786461721061
 31
0.0
  0
LINE
  5
D06
  8
0
 62
     0
 10
-7.3850955475265909
 20
53.044400971152982
 30
0.0
 11
-8.0725032117804876
 21
52.64752597115298
 31
0.0
  0
LINE
  5
D07
  8
0
 62
     0
 10
-5.3228725547648974
 20
54.235025971152979
 30
0.0
 11
-6.0102802190187941
 21
53.838150971152977
 31
0.0
  0
LINE
  5
D08
  8
0
 62
     0
 10
-8.7599110402883618
 20
50.66315125564909
 30
0.0
 11
-9.4473187045422584
 21
50.266276255649089
 31
0.0
  0
LINE
  5
D09
  8
0
 62
     0
 10
-6.6976880475266656
 20
51.853776255649088
 30
0.0
 11
-7.385095711780564
 21
51.456901255649093
 31
0.0
  0
LINE
  5
D0A
  8
0
 62
     0
 10
-4.6354650547649721
 20
53.044401255649092
 30
0.0
 11
-5.3228727190188687
 21
52.64752625564909
 31
0.0
  0
LINE
  5
D0B
  8
0
 62
     0
 10
-2.5732420620032772
 20
54.235026255649089
 30
0.0
 11
-3.2606497262571739
 21
53.83815125564908
 31
0.0
  0
LINE
  5
D0C
  8
0
 62
     0
 10
-8.0725035402883023
 20
49.472526540145211
 30
0.0
 11
-8.7599112045421972
 21
49.075651540145209
 31
0.0
  0
LINE
  5
D0D
  8
0
 62
     0
 10
-6.010280547526607
 20
50.663151540145208
 30
0.0
 11
-6.6976882117805037
 21
50.266276540145213
 31
0.0
  0
LINE
  5
D0E
  8
0
 62
     0
 10
-3.9480575547649122
 20
51.853776540145198
 30
0.0
 11
-4.6354652190188101
 21
51.456901540145203
 31
0.0
  0
LINE
  5
D0F
  8
0
 62
     0
 10
-1.885834562003218
 20
53.044401540145202
 30
0.0
 11
-2.5732422262571149
 21
52.647526540145201
 31
0.0
  0
LINE
  5
D10
  8
0
 62
     0
 10
0.1763884307584762
 20
54.235026540145192
 30
0.0
 11
-0.5110192334954214
 21
53.838151540145198
 31
0.0
  0
LINE
  5
D11
  8
0
 62
     0
 10
-7.3850960402883192
 20
48.281901824641331
 30
0.0
 11
-7.5190606095748711
 21
48.204557344501872
 31
0.0
  0
LINE
  5
D12
  8
0
 62
     0
 10
-5.3228730475266239
 20
49.472526824641328
 30
0.0
 11
-6.0102807117805233
 21
49.075651824641326
 31
0.0
  0
LINE
  5
D13
  8
0
 62
     0
 10
-3.26065005476493
 20
50.663151824641332
 30
0.0
 11
-3.948057719018828
 21
50.266276824641331
 31
0.0
  0
LINE
  5
D14
  8
0
 62
     0
 10
-1.198427062003236
 20
51.853776824641329
 30
0.0
 11
-1.8858347262571331
 21
51.456901824641321
 31
0.0
  0
LINE
  5
D15
  8
0
 62
     0
 10
0.8637959307584582
 20
53.044401824641326
 30
0.0
 11
0.17638826650456
 21
52.647526824641318
 31
0.0
  0
LINE
  5
D16
  8
0
 62
     0
 10
2.4856672374818332
 20
53.980789660169002
 30
0.0
 11
2.2386112592662539
 21
53.838151824641322
 31
0.0
  0
LINE
  5
D17
  8
0
 62
     0
 10
-4.6354655475266826
 20
48.281902109137363
 30
0.0
 11
-5.322873211780581
 21
47.885027109137361
 31
0.0
  0
LINE
  5
D18
  8
0
 62
     0
 10
-2.5732425547649891
 20
49.47252710913736
 30
0.0
 11
-3.2606502190188862
 21
49.075652109137359
 31
0.0
  0
LINE
  5
D19
  8
0
 62
     0
 10
-0.5110195620032947
 20
50.66315210913735
 30
0.0
 11
-1.198427226257192
 21
50.266277109137363
 31
0.0
  0
LINE
  5
D1A
  8
0
 62
     0
 10
1.5512034307583991
 20
51.853777109137347
 30
0.0
 11
0.8637957665045021
 21
51.456902109137353
 31
0.0
  0
LINE
  5
D1B
  8
0
 62
     0
 10
3.6134264235200941
 20
53.044402109137351
 30
0.0
 11
2.9260187592661961
 21
52.64752710913735
 31
0.0
  0
LINE
  5
D1C
  8
0
 62
     0
 10
-1.885835054764909
 20
48.281902393633509
 30
0.0
 11
-2.5732427190188059
 21
47.885027393633507
 31
0.0
  0
LINE
  5
D1D
  8
0
 62
     0
 10
0.1763879379967852
 20
49.472527393633513
 30
0.0
 11
-0.5110197262571128
 21
49.075652393633511
 31
0.0
  0
LINE
  5
D1E
  8
0
 62
     0
 10
2.2386109307584792
 20
50.66315239363351
 30
0.0
 11
1.551203266504581
 21
50.266277393633509
 31
0.0
  0
LINE
  5
D1F
  8
0
 62
     0
 10
4.300833923520174
 20
51.8537773936335
 30
0.0
 11
3.613426259266276
 21
51.456902393633499
 31
0.0
  0
LINE
  5
D20
  8
0
 62
     0
 10
0.8637954379967425
 20
48.281902678129597
 30
0.0
 11
0.1763877737428445
 21
47.885027678129603
 31
0.0
  0
LINE
  5
D21
  8
0
 62
     0
 10
2.926018430758436
 20
49.472527678129588
 30
0.0
 11
2.2386107665045381
 21
49.075652678129593
 31
0.0
  0
LINE
  5
D22
  8
0
 62
     0
 10
4.8579296636260656
 20
50.58791714847618
 30
0.0
 11
4.300833759266232
 21
50.26627767812959
 31
0.0
  0
LINE
  5
D23
  8
0
 62
     0
 10
3.613512656816515
 20
53.04447351765738
 30
0.0
 11
3.613512656816515
 21
53.275870365105881
 31
0.0
  0
LINE
  5
D24
  8
0
 62
     0
 10
3.613512656816515
 20
50.663223517657379
 30
0.0
 11
3.613512656816515
 21
51.456973517657389
 31
0.0
  0
LINE
  5
D25
  8
0
 62
     0
 10
3.613512656816515
 20
48.89040937801667
 30
0.0
 11
3.613512656816515
 21
49.075723517657387
 31
0.0
  0
LINE
  5
D26
  8
0
 62
     0
 10
2.2386976568166168
 20
53.04447351765738
 30
0.0
 11
2.2386976568166168
 21
53.838223517657383
 31
0.0
  0
LINE
  5
D27
  8
0
 62
     0
 10
2.2386976568166168
 20
50.663223517657372
 30
0.0
 11
2.2386976568166168
 21
51.456973517657381
 31
0.0
  0
LINE
  5
D28
  8
0
 62
     0
 10
2.2386976568166168
 20
48.28197351765737
 30
0.0
 11
2.2386976568166168
 21
49.07572351765738
 31
0.0
  0
LINE
  5
D29
  8
0
 62
     0
 10
0.8638826568166049
 20
53.04447351765738
 30
0.0
 11
0.8638826568166049
 21
53.838223517657383
 31
0.0
  0
LINE
  5
D2A
  8
0
 62
     0
 10
0.8638826568166047
 20
50.663223517657372
 30
0.0
 11
0.8638826568166047
 21
51.456973517657381
 31
0.0
  0
LINE
  5
D2B
  8
0
 62
     0
 10
0.8638826568166047
 20
48.28197351765737
 30
0.0
 11
0.8638826568166047
 21
49.07572351765738
 31
0.0
  0
LINE
  5
D2C
  8
0
 62
     0
 10
-0.5109323431834073
 20
53.04447351765738
 30
0.0
 11
-0.5109323431834073
 21
53.838223517657383
 31
0.0
  0
LINE
  5
D2D
  8
0
 62
     0
 10
-0.5109323431834074
 20
50.663223517657372
 30
0.0
 11
-0.5109323431834074
 21
51.456973517657381
 31
0.0
  0
LINE
  5
D2E
  8
0
 62
     0
 10
-0.5109323431834075
 20
48.28197351765737
 30
0.0
 11
-0.5109323431834075
 21
49.07572351765738
 31
0.0
  0
LINE
  5
D2F
  8
0
 62
     0
 10
-1.8857473431834191
 20
53.04447351765738
 30
0.0
 11
-1.8857473431834191
 21
53.838223517657383
 31
0.0
  0
LINE
  5
D30
  8
0
 62
     0
 10
-1.8857473431834191
 20
50.663223517657372
 30
0.0
 11
-1.8857473431834191
 21
51.456973517657381
 31
0.0
  0
LINE
  5
D31
  8
0
 62
     0
 10
-1.8857473431834191
 20
48.28197351765737
 30
0.0
 11
-1.8857473431834191
 21
49.07572351765738
 31
0.0
  0
LINE
  5
D32
  8
0
 62
     0
 10
-3.2605623431834321
 20
53.04447351765738
 30
0.0
 11
-3.2605623431834321
 21
53.838223517657383
 31
0.0
  0
LINE
  5
D33
  8
0
 62
     0
 10
-3.2605623431834321
 20
50.663223517657372
 30
0.0
 11
-3.2605623431834321
 21
51.456973517657381
 31
0.0
  0
LINE
  5
D34
  8
0
 62
     0
 10
-3.2605623431834321
 20
48.28197351765737
 30
0.0
 11
-3.2605623431834321
 21
49.07572351765738
 31
0.0
  0
LINE
  5
D35
  8
0
 62
     0
 10
-4.6353773431834444
 20
53.04447351765738
 30
0.0
 11
-4.6353773431834444
 21
53.838223517657383
 31
0.0
  0
LINE
  5
D36
  8
0
 62
     0
 10
-4.6353773431834444
 20
50.663223517657372
 30
0.0
 11
-4.6353773431834444
 21
51.456973517657381
 31
0.0
  0
LINE
  5
D37
  8
0
 62
     0
 10
-4.6353773431834444
 20
48.28197351765737
 30
0.0
 11
-4.6353773431834444
 21
49.07572351765738
 31
0.0
  0
LINE
  5
D38
  8
0
 62
     0
 10
-6.0101923431834559
 20
53.04447351765738
 30
0.0
 11
-6.0101923431834559
 21
53.838223517657383
 31
0.0
  0
LINE
  5
D39
  8
0
 62
     0
 10
-6.0101923431834559
 20
50.663223517657372
 30
0.0
 11
-6.0101923431834559
 21
51.456973517657381
 31
0.0
  0
LINE
  5
D3A
  8
0
 62
     0
 10
-6.0101923431834559
 20
48.28197351765737
 30
0.0
 11
-6.0101923431834559
 21
49.07572351765738
 31
0.0
  0
LINE
  5
D3B
  8
0
 62
     0
 10
-7.3850073431834691
 20
53.04447351765738
 30
0.0
 11
-7.3850073431834691
 21
53.838223517657383
 31
0.0
  0
LINE
  5
D3C
  8
0
 62
     0
 10
-7.3850073431834691
 20
50.663223517657372
 30
0.0
 11
-7.3850073431834691
 21
51.456973517657381
 31
0.0
  0
LINE
  5
D3D
  8
0
 62
     0
 10
-7.3850073431834691
 20
48.28197351765737
 30
0.0
 11
-7.3850073431834691
 21
49.07572351765738
 31
0.0
  0
LINE
  5
D3E
  8
0
 62
     0
 10
-8.7598223431834814
 20
53.04447351765738
 30
0.0
 11
-8.7598223431834814
 21
53.148049786262732
 31
0.0
  0
LINE
  5
D3F
  8
0
 62
     0
 10
-8.7598223431834814
 20
50.663223517657379
 30
0.0
 11
-8.7598223431834814
 21
51.456973517657389
 31
0.0
  0
LINE
  5
D40
  8
0
 62
     0
 10
-8.7598223431834814
 20
49.018229956859791
 30
0.0
 11
-8.7598223431834814
 21
49.075723517657387
 31
0.0
  0
ENDBLK
  5
D42
  8
0
  0
BLOCK
  8
0
  2
*U37
 70
     1
 10
0.0
 20
0.0
 30
0.0
  3
*U37
  1

  0
TEXT
  5
D7D
  8
0
 62
     2
 10
42.874999999999822
 20
-20.150000000000091
 30
0.0
 40
3.5
  1
94.5
  7
ISO
  0
ENDBLK
  5
D7F
  8
0
  0
BLOCK
  8
0
  2
*U38
 70
     1
 10
0.0
 20
0.0
 30
0.0
  3
*U38
  1

  0
TEXT
  5
D81
  8
0
 62
     2
 10
23.550000000000001
 20
-10.150000000000089
 30
0.0
 40
3.5
  1
52
  7
ISO
  0
ENDBLK
  5
D83
  8
0
  0
BLOCK
  8
0
  2
*U39
 70
     1
 10
0.0
 20
0.0
 30
0.0
  3
*U39
  1

  0
TEXT
  5
E64
  8
0
 10
270.93920250063343
 20
387.08892739371998
 30
0.0
 40
3.0
  1
22
 50
90.0
  7
BYGG-014203$0$ISO
  0
ENDBLK
  5
E66
  8
0
  0
BLOCK
  8
0
  2
*U40
 70
     1
 10
0.0
 20
0.0
 30
0.0
  3
*U40
  1

  0
TEXT
  5
E68
  8
0
 10
243.50583563664401
 20
408.3346351471406
 30
0.0
 40
3.0
  1
29
  7
BYGG-014203$0$ISO
  0
ENDBLK
  5
E6A
  8
0
  0
BLOCK
  8
0
  2
*U41
 70
     1
 10
0.0
 20
0.0
 30
0.0
  3
*U41
  1

  0
TEXT
  5
E96
  8
0
 10
390.1780776668399
 20
317.40913201481749
 30
0.0
 40
3.0
  1
50
  7
BYGG-014880$0$ISO
  0
ENDBLK
  5
E98
  8
0
  0
BLOCK
  8
0
  2
*U42
 70
     1
 10
0.0
 20
0.0
 30
0.0
  3
*U42
  1

  0
TEXT
  5
E9A
  8
0
 10
429.15372879532379
 20
337.94481986764117
 30
0.0
 40
3.0
  1
30
 50
90.0
  7
BYGG-014880$0$ISO
  0
ENDBLK
  5
E9C
  8
0
  0
BLOCK
  8
0
  2
*U43
 70
     1
 10
0.0
 20
0.0
 30
0.0
  3
*U43
  1

  0
TEXT
  5
E9E
  8
0
 10
356.23499454358489
 20
348.85591238732621
 30
0.0
 40
3.0
  1
52
 50
90.0
  7
BYGG-014880$0$ISO
  0
ENDBLK
  5
EA0
  8
0
  0
BLOCK
  8
0
  2
*U44
 70
     1
 10
0.0
 20
0.0
 30
0.0
  3
*U44
  1

  0
LINE
  5
F23
  8
0
 10
373.77925876920199
 20
376.74600097000342
 30
0.0
 11
373.77925876920199
 21
357.38541808598251
 31
0.0
  0
LINE
  5
F24
  8
0
 10
373.77925876920199
 20
357.38541808598251
 30
0.0
 11
416.89144436663122
 21
357.38541808598251
 31
0.0
  0
LINE
  5
F25
  8
0
 10
372.77925876920199
 20
376.74600097000342
 30
0.0
 11
372.77925876920199
 21
356.38541808598239
 31
0.0
  0
LINE
  5
F26
  8
0
 10
372.77925876920199
 20
356.38541808598239
 30
0.0
 11
416.89144436663122
 21
356.38541808598239
 31
0.0
  0
ENDBLK
  5
F28
  8
0
  0
BLOCK
  8
0
  2
*U45
 70
     1
 10
0.0
 20
0.0
 30
0.0
  3
*U45
  1

  0
TEXT
  5
107C
  8
0
 10
81.417346958671715
 20
29.082626421487749
 30
0.0
 40
3.0
  1
59.5
 50
90.0
  7
BYGG-014878$0$ISO
  0
ENDBLK
  5
107E
  8
0
  0
BLOCK
  8
0
  2
*U46
 70
     1
 10
0.0
 20
0.0
 30
0.0
  3
*U46
  1

  0
TEXT
  5
1080
  8
0
 10
33.58786785760504
 20
-7.5905416883964838
 30
0.0
 40
3.0
  1
70.5
  7
BYGG-014878$0$ISO
  0
ENDBLK
  5
1082
  8
0
  0
BLOCK
  8
0
  2
*U47
 70
     1
 10
0.0
 20
0.0
 30
0.0
  3
*U47
  1

  0
TEXT
  5
10DA
  8
0
 62
     2
 10
53.274999999999942
 20
-10.150000000000089
 30
0.0
 40
3.5
  1
5
  7
ISO
  0
ENDBLK
  5
10DC
  8
0
  0
BLOCK
  8
0
  2
*U48
 70
     1
 10
0.0
 20
0.0
 30
0.0
  3
*U48
  1

  0
TEXT
  5
10DE
  8
0
 62
     2
 10
71.549999999999784
 20
-10.15000000000015
 30
0.0
 40
3.5
  1
37.5
  7
ISO
  0
ENDBLK
  5
10E0
  8
0
  0
BLOCK
  8
0
  2
*U49
 70
     1
 10
0.0
 20
0.0
 30
0.0
  3
*U49
  1

  0
TEXT
  5
10E2
  8
0
 10
-9.6368689551858822
 20
31.748818897637818
 30
0.0
 40
3.0
  1
50
 50
90.000000000000028
  7
BYGG-014880$0$ISO
  0
ENDBLK
  5
10E4
  8
0
  0
BLOCK
  8
0
  2
*U50
 70
     1
 10
0.0
 20
0.0
 30
0.0
  3
*U50
  1

  0
TEXT
  5
10E6
  8
0
 10
17.101181102362109
 20
70.724470026121878
 30
0.0
 40
3.0
  1
30
 50
180.0
  7
BYGG-014880$0$ISO
  0
ENDBLK
  5
10E8
  8
0
  0
BLOCK
  8
0
  2
*U51
 70
     1
 10
0.0
 20
0.0
 30
0.0
  3
*U51
  1

  0
TEXT
  5
10EA
  8
0
 10
28.190088582677109
 20
-2.194264225617149
 30
0.0
 40
3.0
  1
52
 50
180.0
  7
BYGG-014880$0$ISO
  0
ENDBLK
  5
10EC
  8
0
  0
BLOCK
  8
0
  2
*U52
 70
     1
 10
0.0
 20
0.0
 30
0.0
  3
*U52
  1

  0
TEXT
  5
10EE
  8
0
 10
15.08265293328907
 20
42.267373530097309
 30
0.0
 40
3.0
  1
59.5
 50
270.0
  7
BYGG-014878$0$ISO
  0
ENDBLK
  5
10F0
  8
0
  0
BLOCK
  8
0
  2
*U53
 70
     1
 10
0.0
 20
0.0
 30
0.0
  3
*U53
  1

  0
TEXT
  5
10F2
  8
0
 10
62.912132034355743
 20
-3.7405416399816671
 30
0.0
 40
3.0
  1
70.5
 50
180.0
  7
BYGG-014878$0$ISO
  0
ENDBLK
  5
10F4
  8
0
  0
BLOCK
  8
0
  2
*U54
 70
     1
 10
0.0
 20
0.0
 30
0.0
  3
*U54
  1

  0
TEXT
  5
10F6
  8
0
 10
85.919018723546444
 20
69.611472082175865
 30
0.0
 40
3.0
  1
22
 50
180.0
  7
BYGG-014203$0$ISO
  0
ENDBLK
  5
10F8
  8
0
  0
BLOCK
  8
0
  2
*U55
 70
     1
 10
0.0
 20
0.0
 30
0.0
  3
*U55
  1

  0
TEXT
  5
10FA
  8
0
 10
100.8601398627939
 20
42.178105218186552
 30
0.0
 40
3.0
  1
29
 50
90.000000000000028
  7
BYGG-014203$0$ISO
  0
ENDBLK
  5
10FC
  8
0
  0
BLOCK
  8
0
  2
*U56
 70
     1
 10
0.0
 20
0.0
 30
0.0
  3
*U56
  1

  0
TEXT
  5
15BE
  8
SAPA_MATT
 62
     2
 10
42.874999999999822
 20
-20.150000000000091
 30
0.0
 40
3.5
  1
94.5
  7
ISO
  0
ENDBLK
  5
15C0
  8
0
  0
BLOCK
  8
0
  2
*U57
 70
     1
 10
0.0
 20
0.0
 30
0.0
  3
*U57
  1

  0
TEXT
  5
15C2
  8
SAPA_MATT
 62
     2
 10
23.550000000000001
 20
-10.150000000000089
 30
0.0
 40
3.5
  1
52
  7
ISO
  0
ENDBLK
  5
15C4
  8
0
  0
ENDSEC
  0
SECTION
  2
ENTITIES
  0
INSERT
  5
71E
  8
SAPA_ANSLUTNING
  6
CONTINUOUS
  2
*X34
 10
0.0
 20
0.0
 30
0.0
1001
ACAD
1000
HATCH
1002
{
1070
    19
1000
HEX
1040
0.25
1040
1.5707963267948959
1000
ASC_BOUNDS
1070
     1
1070
     1
1070
     9
1005
725
1005
726
1005
727
1005
71F
1005
720
1005
721
1005
722
1005
723
1005
724
1000
ASC_SEEDPOINT
1011
-1.1461165174070509
1021
0.0
1031
0.0
1021
15.742329235971621
1031
0.0
1000
R14_HATCH_DATA
1000
71E
1011
1.0
1021
0.0
1031
0.0
1021
0.0
1031
0.0
1011
0.0
1021
0.0
1031
0.0
1021
1.0
1031
0.0
1011
0.0
1021
0.0
1031
0.0
1021
0.0
1031
1.0
1040
0.0
1010
0.0
1020
0.0
1030
1.0
1000
HEX
1070
     0
1070
     1
1071
        1
1071
        7
1070
     1
1070
     1
1071
        9
1040
0.8779034025747575
1040
13.3279824873282
1040
0.0
1040
2.3288004586214011
1040
13.3279824873282
1040
0.0
1040
2.3288004586214011
1040
11.92488253224349
1040
1.003947838497945
1040
4.5035016193100432
1040
11.90824329404256
1040
0.0
1040
4.5035016193101001
1040
19.02488253224362
1040
0.0
1040
-9.4964983806899568
1040
19.02488253224362
1040
0.0
1040
-9.4964983806899568
1040
9.0248825322436232
1040
0.0
1040
-0.4964983806899567
1040
9.0248825322436232
1040
0.0
1040
-0.4964983806899569
1040
12.174722457901339
1040
0.0
1071
        9
1005
724
1005
723
1005
722
1005
721
1005
720
1005
71F
1005
727
1005
726
1005
725
1070
     0
1070
     1
1040
1.5707963267948959
1040
0.25
1070
     0
1070
     3
1040
1.5707963267948959
1040
537.04173265681652
1040
-37.443026482342653
1040
-1.374814999999999
1040
0.0000000000000001
1070
     2
1040
0.79375
1040
-1.587499999999999
1040
3.6651914291880909
1040
537.04173265681652
1040
-37.443026482342653
1040
0.6874074999999995
1040
-1.190624715503902
1070
     2
1040
0.7937499999999995
1040
-1.587499999999999
1040
2.6179938779914931
1040
537.04173265681652
1040
-36.649276482342657
1040
-0.6874075000000002
1040
-1.190624715503902
1070
     2
1040
0.79375
1040
-1.587499999999999
1040
0.039264581650172
1071
        1
1040
-1.1461165174070509
1040
15.742329235971621
1040
0.0
1002
}
  0
LINE
  5
71F
  8
SAPA_ANSLUTNING
 10
2.3288004586214011
 20
11.92488253224349
 30
0.0
 11
2.3288004586214011
 21
13.3279824873282
 31
0.0
1001
ACAD
1000
ASC_BOUNDS
1002
{
1070
    19
1005
71E
1002
}
  0
LINE
  5
720
  8
SAPA_ANSLUTNING
 10
2.3288004586214011
 20
13.3279824873282
 30
0.0
 11
0.8779034025747591
 21
13.3279824873282
 31
0.0
1001
ACAD
1000
ASC_BOUNDS
1002
{
1070
    19
1005
71E
1002
}
  0
LINE
  5
721
  8
SAPA_ANSLUTNING
 10
0.8779034025747591
 20
13.3279824873282
 30
0.0
 11
-0.4964983806899568
 21
12.174722457901339
 31
0.0
1001
ACAD
1000
ASC_BOUNDS
1002
{
1070
    19
1005
71E
1002
}
  0
LINE
  5
722
  8
SAPA_ANSLUTNING
 10
-0.4964983806899568
 20
12.174722457901339
 30
0.0
 11
-0.4964983806899568
 21
9.0248825322436232
 31
0.0
1001
ACAD
1000
ASC_BOUNDS
1002
{
1070
    19
1005
71E
1002
}
  0
LINE
  5
723
  8
SAPA_ANSLUTNING
 10
-0.4964983806899568
 20
9.0248825322436232
 30
0.0
 11
-9.4964983806899568
 21
9.0248825322436232
 31
0.0
1001
ACAD
1000
ASC_BOUNDS
1002
{
1070
    19
1005
71E
1002
}
  0
LINE
  5
724
  8
SAPA_ANSLUTNING
 10
-9.4964983806899568
 20
9.0248825322436232
 30
0.0
 11
-9.4964983806899568
 21
19.02488253224362
 31
0.0
1001
ACAD
1000
ASC_BOUNDS
1002
{
1070
    19
1005
71E
1002
}
  0
LINE
  5
725
  8
SAPA_ANSLUTNING
 10
-9.4964983806899568
 20
19.02488253224362
 30
0.0
 11
4.5035016193101001
 21
19.02488253224362
 31
0.0
1001
ACAD
1000
ASC_BOUNDS
1002
{
1070
    19
1005
71E
1002
}
  0
LINE
  5
726
  8
SAPA_ANSLUTNING
 10
4.5035016193101001
 20
19.02488253224362
 30
0.0
 11
4.5035016193100432
 21
11.90824329404256
 31
0.0
1001
ACAD
1000
ASC_BOUNDS
1002
{
1070
    19
1005
71E
1002
}
  0
ARC
  5
727
  8
SAPA_ANSLUTNING
 10
3.4161182590306112
 20
11.91227866875033
 30
0.0
 40
1.0873908480678049
 50
179.335874165192
 51
359.78737132961243
1001
ACAD
1000
ASC_BOUNDS
1002
{
1070
    19
1005
71E
1002
}
  0
INSERT
  5
728
  8
SAPA_ANSLUTNING
  6
CONTINUOUS
  2
*X35
 10
0.0
 20
0.0
 30
0.0
1001
ACAD
1000
HATCH
1002
{
1070
    19
1000
ANSI37
1040
0.5
1040
1.5707963267948959
1000
R14_HATCH_DATA
1000
728
1011
1.0
1021
0.0
1031
0.0
1021
0.0
1031
0.0
1011
0.0
1021
0.0
1031
0.0
1021
1.0
1031
0.0
1011
0.0
1021
0.0
1031
0.0
1021
0.0
1031
1.0
1040
0.0
1010
0.0
1020
0.0
1030
1.0
1000
ANSI37
1070
     0
1070
     0
1071
        1
1071
        7
1070
     1
1070
     1
1071
       16
1040
-9.9953398554510482
1040
59.024533882652001
1040
0.0
1040
-9.9953398554510482
1040
51.083139871561222
1040
0.0
1040
-9.9095945093715159
1040
51.083139871561222
1040
-0.167892009687238
1040
-9.446171588165555
1040
52.42435939503639
1040
-0.1053277233169264
1040
-7.7385647418544181
1040
53.849721371886631
1040
-0.0677080186897229
1040
-5.4875009926619782
1040
54.67259950590676
1040
-0.0538647880861766
1040
-2.4972352327992549
1040
54.995676950731877
1040
-0.0538647880861769
1040
0.4930305270635245
1040
54.67259950590676
1040
-0.0157110904928575
1040
1.034681553269365
1040
54.536212543847
1040
0.0
1040
1.1242640687123631
1040
54.85000000000025
1040
-0.1989123673799612
1040
0.9121320343558637
1040
54.937867965644386
1040
0.0
1040
0.0878679656443637
1040
55.762132034356107
1040
-0.19891236737974
1040
0.0000000000002274
1040
55.974264068712159
1040
0.0
1040
0.0000000000002274
1040
58.550000000000068
1040
-0.2543709654409035
1040
0.136989748149972
1040
58.801848481813522
1040
0.0
1040
0.0035016193104411
1040
59.024882532244078
1040
-0.2032017886952708
1071
        0
1070
     0
1070
     1
1040
1.5707963267948959
1040
0.5
1070
     0
1070
     2
1040
2.3561944901923439
1040
537.04173265681652
1040
-37.443026482342653
1040
-1.122532015133644
1040
-1.1225320151336431
1070
     0
1040
3.926990816987241
1040
537.04173265681652
1040
-37.443026482342653
1040
1.1225320151336431
1040
-1.122532015133644
1070
     0
1040
0.1183068881037046
1071
        1
1040
-7.08091955451681
1040
56.4892049027643
1040
0.0
1002
}
  0
INSERT
  5
729
  8
SAPA_ANSLUTNING
  6
CONTINUOUS
  2
*X36
 10
0.0
 20
0.0
 30
0.0
1001
ACAD
1000
HATCH
1002
{
1070
    19
1000
HEX
1040
0.25
1040
1.5707963267948959
1000
ASC_BOUNDS
1070
     1
1070
     1
1070
     1
1005
72A
1000
ASC_SEEDPOINT
1011
-2.6381712529517349
1021
0.0
1031
0.0
1021
50.274046825284238
1031
0.0
1000
R14_HATCH_DATA
1000
729
1011
1.0
1021
0.0
1031
0.0
1021
0.0
1031
0.0
1011
0.0
1021
0.0
1031
0.0
1021
1.0
1031
0.0
1011
0.0
1021
0.0
1031
0.0
1021
0.0
1031
1.0
1040
0.0
1010
0.0
1020
0.0
1030
1.0
1000
HEX
1070
     0
1070
     1
1071
        1
1071
        7
1070
     1
1070
     1
1071
       16
1040
-2.4972352327992549
1040
47.170602792390703
1040
0.0538647880861873
1040
0.4930305270639792
1040
47.493680237215813
1040
0.0677080186897085
1040
2.7440942762559639
1040
48.316558371235828
1040
0.1053277233169232
1040
4.4517011225669867
1040
49.741920348086069
1040
0.167892009687237
1040
4.9151240437729484
1040
51.083139871561222
1040
0.1678920096872347
1040
4.4517011225669867
1040
52.424359395036497
1040
0.1053277233169209
1040
2.7440942762559639
1040
53.849721371886631
1040
0.06770801868971
1040
0.4930305270639792
1040
54.67259950590676
1040
0.0538647880861852
1040
-2.4972352327992549
1040
54.995676950731877
1040
0.053864788086187
1040
-5.4875009926625458
1040
54.672599505906653
1040
0.0677080186897101
1040
-7.7385647418545309
1040
53.849721371886631
1040
0.10532772331692
1040
-9.446171588165555
1040
52.424359395036497
1040
0.1678920096872431
1040
-9.9095945093715159
1040
51.083139871561222
1040
0.1678920096872415
1040
-9.446171588165555
1040
49.741920348086069
1040
0.1053277233169233
1040
-7.7385647418545309
1040
48.316558371235828
1040
0.0677080186897123
1040
-5.4875009926624321
1040
47.493680237215813
1040
0.0538647880861899
1071
        1
1005
72A
1070
     0
1070
     1
1040
1.5707963267948959
1040
0.25
1070
     0
1070
     3
1040
1.5707963267948959
1040
537.04173265681652
1040
-37.443026482342653
1040
-1.374814999999999
1040
0.0000000000000001
1070
     2
1040
0.79375
1040
-1.587499999999999
1040
3.6651914291880909
1040
537.04173265681652
1040
-37.443026482342653
1040
0.6874074999999995
1040
-1.190624715503902
1070
     2
1040
0.7937499999999995
1040
-1.587499999999999
1040
2.6179938779914931
1040
537.04173265681652
1040
-36.649276482342657
1040
-0.6874075000000002
1040
-1.190624715503902
1070
     2
1040
0.79375
1040
-1.587499999999999
1040
0.039264581650172
1071
        1
1040
-2.6381712529517349
1040
50.274046825284238
1040
0.0
1002
}
  0
POLYLINE
  5
72A
  8
SAPA_ANSLUTNING
 66
     1
 10
0.0
 20
0.0
 30
0.0
 70
     1
1001
ACAD
1000
ASC_BOUNDS
1002
{
1070
    19
1005
729
1002
}
  0
VERTEX
  5
D43
  8
SAPA_ANSLUTNING
 10
4.9151240437729484
 20
51.083139871561222
 30
0.0
 42
0.1678920096872347
  0
VERTEX
  5
D44
  8
SAPA_ANSLUTNING
 10
4.4517011225669867
 20
52.424359395036497
 30
0.0
 42
0.1053277233169209
  0
VERTEX
  5
D45
  8
SAPA_ANSLUTNING
 10
2.7440942762559639
 20
53.849721371886631
 30
0.0
 42
0.0677080186897101
  0
VERTEX
  5
D46
  8
SAPA_ANSLUTNING
 10
0.4930305270639792
 20
54.67259950590676
 30
0.0
 42
0.0538647880861852
  0
VERTEX
  5
D47
  8
SAPA_ANSLUTNING
 10
-2.4972352327992549
 20
54.995676950731877
 30
0.0
 42
0.053864788086187
  0
VERTEX
  5
D48
  8
SAPA_ANSLUTNING
 10
-5.4875009926625458
 20
54.672599505906653
 30
0.0
 42
0.0677080186897101
  0
VERTEX
  5
D49
  8
SAPA_ANSLUTNING
 10
-7.7385647418545309
 20
53.849721371886631
 30
0.0
 42
0.10532772331692
  0
VERTEX
  5
D4A
  8
SAPA_ANSLUTNING
 10
-9.446171588165555
 20
52.424359395036497
 30
0.0
 42
0.167892009687243
  0
VERTEX
  5
D4B
  8
SAPA_ANSLUTNING
 10
-9.9095945093715159
 20
51.083139871561222
 30
0.0
 42
0.1678920096872415
  0
VERTEX
  5
D4C
  8
SAPA_ANSLUTNING
 10
-9.446171588165555
 20
49.741920348086069
 30
0.0
 42
0.1053277233169233
  0
VERTEX
  5
D4D
  8
SAPA_ANSLUTNING
 10
-7.7385647418545309
 20
48.316558371235828
 30
0.0
 42
0.0677080186897123
  0
VERTEX
  5
D4E
  8
SAPA_ANSLUTNING
 10
-5.4875009926624321
 20
47.493680237215813
 30
0.0
 42
0.0538647880861899
  0
VERTEX
  5
D4F
  8
SAPA_ANSLUTNING
 10
-2.4972352327992549
 20
47.170602792390703
 30
0.0
 42
0.0538647880861873
  0
VERTEX
  5
D50
  8
SAPA_ANSLUTNING
 10
0.4930305270639792
 20
47.493680237215813
 30
0.0
 42
0.0677080186897085
  0
VERTEX
  5
D51
  8
SAPA_ANSLUTNING
 10
2.7440942762559639
 20
48.316558371235828
 30
0.0
 42
0.1053277233169232
  0
VERTEX
  5
D52
  8
SAPA_ANSLUTNING
 10
4.4517011225669867
 20
49.741920348086069
 30
0.0
 42
0.167892009687237
  0
SEQEND
  5
D53
  8
SAPA_ANSLUTNING
  0
ARC
  5
72B
  8
SAPA_ANSLUTNING
 10
-4.9963303515483508
 20
70.818378558050313
 30
0.0
 40
12.809561594665579
 50
247.0255689067402
 51
292.97443109325991
  0
POLYLINE
  5
72C
  8
SAPA_ANSLUTNING
 66
     1
 10
0.0
 20
0.0
 30
0.0
  0
VERTEX
  5
D54
  8
SAPA_ANSLUTNING
 10
2.513624358961692
 20
19.963726575791839
 30
0.0
 42
0.9999999999999998
  0
VERTEX
  5
D55
  8
SAPA_ANSLUTNING
 10
2.513624358961692
 20
23.963726575791839
 30
0.0
  0
VERTEX
  5
D56
  8
SAPA_ANSLUTNING
 10
-7.9429860874870988
 20
23.963726575791611
 30
0.0
 42
-0.9999989466455052
  0
VERTEX
  5
D57
  8
SAPA_ANSLUTNING
 10
-7.9429903009072973
 20
27.963726575787291
 30
0.0
  0
VERTEX
  5
D58
  8
SAPA_ANSLUTNING
 10
-1.94298937331979
 20
27.963726575787291
 30
0.0
 42
0.9999999999999998
  0
VERTEX
  5
D59
  8
SAPA_ANSLUTNING
 10
-1.94298937331979
 20
31.963726575787291
 30
0.0
  0
VERTEX
  5
D5A
  8
SAPA_ANSLUTNING
 10
-7.9429929326855131
 20
31.96372657578706
 30
0.0
 42
-0.9999974985601646
  0
VERTEX
  5
D5B
  8
SAPA_ANSLUTNING
 10
-7.9429929326855131
 20
35.963726575774558
 30
0.0
  0
VERTEX
  5
D5C
  8
SAPA_ANSLUTNING
 10
-1.94298937331979
 20
35.963726575774558
 30
0.0
 42
0.9999999999999998
  0
VERTEX
  5
D5D
  8
SAPA_ANSLUTNING
 10
-1.94298937331979
 20
39.963726575774558
 30
0.0
  0
VERTEX
  5
D5E
  8
SAPA_ANSLUTNING
 10
-7.9429903009072973
 20
39.963726575774558
 30
0.0
 42
-0.9999989466455052
  0
VERTEX
  5
D5F
  8
SAPA_ANSLUTNING
 10
-7.9429860874870988
 20
43.963726575770238
 30
0.0
  0
VERTEX
  5
D60
  8
SAPA_ANSLUTNING
 10
2.513624358961692
 20
43.963726575770011
 30
0.0
 42
0.9999999999999998
  0
VERTEX
  5
D61
  8
SAPA_ANSLUTNING
 10
2.513624358961692
 20
47.963726575770011
 30
0.0
  0
SEQEND
  5
D62
  8
SAPA_ANSLUTNING
  0
LINE
  5
72D
  8
SAPA_ANSLUTNING
 10
-9.9953398554510482
 20
-8.0636585861094545
 30
0.0
 11
-9.9953398554510482
 21
74.573577187519845
 31
0.0
  0
POLYLINE
  5
72F
  8
SAPA_LIGHT
 66
     1
 10
0.0
 20
0.0
 30
0.0
 70
     1
  0
VERTEX
  5
D63
  8
SAPA_LIGHT
 10
77.499999999999602
 20
17.25000000000011
 30
0.0
  0
VERTEX
  5
D64
  8
SAPA_LIGHT
 10
77.499999999999602
 20
23.25000000000011
 30
0.0
  0
VERTEX
  5
D65
  8
SAPA_LIGHT
 10
110.4156750223829
 20
23.25000000000011
 30
0.0
  0
VERTEX
  5
D66
  8
SAPA_LIGHT
 10
110.4156750223829
 20
17.25000000000011
 30
0.0
  0
SEQEND
  5
D67
  8
SAPA_LIGHT
  0
LINE
  5
730
  8
SAPA_LIGHT
 10
-9.9953398554510482
 20
-8.0636585861094545
 30
0.0
 11
-9.9953398554510482
 21
74.573577187519845
 31
0.0
  0
TEXT
  5
732
  8
SAPA_ARTIKELNR
 10
76.892613528881895
 20
62.13225394902792
 30
0.0
 40
3.5
  1
42077
  7
ISO
  0
TEXT
  5
733
  8
SAPA_ARTIKELNR
 10
8.3754493301507296
 20
61.53039775091986
 30
0.0
 40
3.5
  1
68902
  7
ISO
  0
TEXT
  5
8C8
  8
SAPA_ARTIKELNR
 10
39.891391635935122
 20
70.959477912639727
 30
0.0
 40
3.5
  1
68810
  7
ISO
  0
LINE
  5
8CB
  8
SAPA_LIGHT
 10
51.997382039350377
 20
8.8500000000001364
 30
0.0
 11
0.0000000000001705
 21
8.8500000000002501
 31
0.0
  0
POLYLINE
  5
906
  8
SAPA_LIGHT
 66
     1
 10
0.0
 20
0.0
 30
0.0
  0
VERTEX
  5
D68
  8
SAPA_LIGHT
 10
94.499999999999829
 20
17.25000000000011
 30
0.0
  0
VERTEX
  5
D69
  8
SAPA_LIGHT
 10
94.499999999999602
 20
8.8499999999999091
 30
0.0
  0
VERTEX
  5
D6A
  8
SAPA_LIGHT
 10
56.999999999999709
 20
8.8500000000001364
 30
0.0
  0
VERTEX
  5
D6B
  8
SAPA_LIGHT
 10
56.999999999999709
 20
14.300000000000059
 30
0.0
  0
VERTEX
  5
D6C
  8
SAPA_LIGHT
 10
41.499999999999652
 20
14.300000000000059
 30
0.0
  0
VERTEX
  5
D6D
  8
SAPA_LIGHT
 10
41.499999999999652
 20
58.850000000000023
 30
0.0
  0
VERTEX
  5
D6E
  8
SAPA_LIGHT
 10
23.999999999999659
 20
58.850000000000023
 30
0.0
  0
VERTEX
  5
D6F
  8
SAPA_LIGHT
 10
23.999999999999549
 20
68.349999999999795
 30
0.0
  0
VERTEX
  5
D70
  8
SAPA_LIGHT
 10
67.01517248927604
 20
68.349999999999795
 30
0.0
  0
VERTEX
  5
D71
  8
SAPA_LIGHT
 10
72.500000723858932
 20
58.850000000000023
 30
0.0
  0
VERTEX
  5
D72
  8
SAPA_LIGHT
 10
94.501113847886984
 20
58.850000000000023
 30
0.0
  0
VERTEX
  5
D73
  8
SAPA_LIGHT
 10
94.500000000002103
 20
23.250000000000231
 30
0.0
  0
SEQEND
  5
D74
  8
SAPA_LIGHT
  0
POLYLINE
  5
907
  8
SAPA_LIGHT
 66
     1
 10
0.0
 20
0.0
 30
0.0
 70
     1
  0
VERTEX
  5
D75
  8
SAPA_LIGHT
 10
52.000000000000171
 20
13.350000000000019
 30
0.0
  0
VERTEX
  5
D76
  8
SAPA_LIGHT
 10
52.000000000000171
 20
8.8500000000000227
 30
0.0
  0
VERTEX
  5
D77
  8
SAPA_LIGHT
 10
0.0000000000001705
 20
8.8500000000002501
 30
0.0
  0
VERTEX
  5
D78
  8
SAPA_LIGHT
 10
0.0000000000002274
 20
58.850000000000023
 30
0.0
  0
VERTEX
  5
D79
  8
SAPA_LIGHT
 10
30.00000000000006
 20
58.850000000000023
 30
0.0
  0
VERTEX
  5
D7A
  8
SAPA_LIGHT
 10
30.00000000000006
 20
13.350000000000019
 30
0.0
  0
SEQEND
  5
D7B
  8
SAPA_LIGHT
  0
POLYLINE
  5
BB4
  8
SAPA_PROFIL
 66
     1
 10
0.0
 20
0.0
 30
0.0
  0
VERTEX
  5
12AA
  8
SAPA_PROFIL
 10
75.378736921551706
 20
42.528444819366428
 30
0.0
  0
VERTEX
  5
12AB
  8
SAPA_PROFIL
 10
92.500000000002046
 20
41.847404885508119
 30
0.0
 42
0.4142135623730951
  0
VERTEX
  5
12AC
  8
SAPA_PROFIL
 10
93.000000000002046
 20
42.347404885508119
 30
0.0
  0
VERTEX
  5
12AD
  8
SAPA_PROFIL
 10
93.00000000000199
 20
54.147018368516846
 30
0.0
 42
0.4076767287637263
  0
VERTEX
  5
12AE
  8
SAPA_PROFIL
 10
90.067103649185071
 20
57.146268200906427
 30
0.0
  0
VERTEX
  5
12AF
  8
SAPA_PROFIL
 10
75.378736921551706
 20
57.300707423017172
 30
0.0
 42
0.4182129759575463
  0
VERTEX
  5
12B0
  8
SAPA_PROFIL
 10
74.867575809496202
 20
56.805195702159999
 30
0.0
  0
VERTEX
  5
12B1
  8
SAPA_PROFIL
 10
74.854748207970474
 20
54.330547946040667
 30
0.0
  0
VERTEX
  5
12B2
  8
SAPA_PROFIL
 10
73.200059610346671
 20
52.704489989847097
 30
0.0
  0
VERTEX
  5
12B3
  8
SAPA_PROFIL
 10
68.650983576058479
 20
52.704489989847097
 30
0.0
 42
-0.4293387945586749
  0
VERTEX
  5
12B4
  8
SAPA_PROFIL
 10
68.354257054973971
 20
53.022601125836452
 30
0.0
  0
VERTEX
  5
12B5
  8
SAPA_PROFIL
 10
68.426896731101692
 20
54.104056851106918
 30
0.0
 42
-0.4883397947196161
  0
VERTEX
  5
12B6
  8
SAPA_PROFIL
 10
69.988618557110044
 20
53.8834339169087
 30
0.0
  0
VERTEX
  5
12B7
  8
SAPA_PROFIL
 10
72.68769983314445
 20
53.8834339169087
 30
0.0
  0
VERTEX
  5
12B8
  8
SAPA_PROFIL
 10
73.659131479520553
 20
54.838057137106553
 30
0.0
  0
VERTEX
  5
12B9
  8
SAPA_PROFIL
 10
73.659131479520553
 20
57.337183279991621
 30
0.0
  0
VERTEX
  5
12BA
  8
SAPA_PROFIL
 10
73.185355813005685
 20
57.337183279991621
 30
0.0
  0
VERTEX
  5
12BB
  8
SAPA_PROFIL
 10
73.185355813005685
 20
58.849999999999852
 30
0.0
  0
VERTEX
  5
12BC
  8
SAPA_PROFIL
 10
94.202640706694126
 20
58.850000000000023
 30
0.0
 42
-0.4116378201539302
  0
VERTEX
  5
12BD
  8
SAPA_PROFIL
 10
94.500000000002004
 20
58.550011522329669
 30
0.0
  0
VERTEX
  5
12BE
  8
SAPA_PROFIL
 10
94.500000000002046
 20
30.147404885508141
 30
0.0
 42
-0.414213562373095
  0
VERTEX
  5
12BF
  8
SAPA_PROFIL
 10
94.200000000002035
 20
29.84740488550807
 30
0.0
  0
VERTEX
  5
12C0
  8
SAPA_PROFIL
 10
92.990000000002055
 20
29.847404885508119
 30
0.0
 42
-0.4142135623731037
  0
VERTEX
  5
12C1
  8
SAPA_PROFIL
 10
92.000000000002046
 20
30.837404885508079
 30
0.0
  0
VERTEX
  5
12C2
  8
SAPA_PROFIL
 10
92.000000000002046
 20
30.84740488550813
 30
0.0
  0
VERTEX
  5
12C3
  8
SAPA_PROFIL
 10
93.250000000002046
 20
30.84740488550813
 30
0.0
  0
VERTEX
  5
12C4
  8
SAPA_PROFIL
 10
93.250000000002046
 20
32.347404885508134
 30
0.0
 42
0.4142135623730951
  0
VERTEX
  5
12C5
  8
SAPA_PROFIL
 10
92.750000000002046
 20
32.847404885508134
 30
0.0
  0
VERTEX
  5
12C6
  8
SAPA_PROFIL
 10
84.750000000002046
 20
32.847404885508134
 30
0.0
 42
0.4142135623730951
  0
VERTEX
  5
12C7
  8
SAPA_PROFIL
 10
84.250000000002046
 20
32.347404885508134
 30
0.0
  0
VERTEX
  5
12C8
  8
SAPA_PROFIL
 10
84.250000000002046
 20
30.84740488550813
 30
0.0
  0
VERTEX
  5
12C9
  8
SAPA_PROFIL
 10
85.500000000002046
 20
30.84740488550813
 30
0.0
  0
VERTEX
  5
12CA
  8
SAPA_PROFIL
 10
85.500000000002046
 20
30.837404885508079
 30
0.0
 42
-0.414213562373095
  0
VERTEX
  5
12CB
  8
SAPA_PROFIL
 10
84.510000000002037
 20
29.84740488550807
 30
0.0
  0
VERTEX
  5
12CC
  8
SAPA_PROFIL
 10
84.000000000002046
 20
29.847404885508119
 30
0.0
 42
-0.4142135623730953
  0
VERTEX
  5
12CD
  8
SAPA_PROFIL
 10
83.000000000002046
 20
30.84740488550813
 30
0.0
  0
VERTEX
  5
12CE
  8
SAPA_PROFIL
 10
83.000000000002046
 20
32.347404885508134
 30
0.0
 42
-0.4142135623730951
  0
VERTEX
  5
12CF
  8
SAPA_PROFIL
 10
84.700000000002035
 20
34.047404885508122
 30
0.0
  0
VERTEX
  5
12D0
  8
SAPA_PROFIL
 10
92.500000000002046
 20
34.047404885508172
 30
0.0
 42
0.414213562373095
  0
VERTEX
  5
12D1
  8
SAPA_PROFIL
 10
93.000000000002046
 20
34.547404885508172
 30
0.0
  0
VERTEX
  5
12D2
  8
SAPA_PROFIL
 10
93.000000000002046
 20
40.047404885508172
 30
0.0
 42
0.4142135623730951
  0
VERTEX
  5
12D3
  8
SAPA_PROFIL
 10
92.500000000002046
 20
40.547404885508172
 30
0.0
  0
VERTEX
  5
12D4
  8
SAPA_PROFIL
 10
75.378736921551706
 20
41.218614531974481
 30
0.0
  0
VERTEX
  5
12D5
  8
SAPA_PROFIL
 10
69.97579015780201
 20
41.875552982703823
 30
0.0
 42
0.4666505291506209
  0
VERTEX
  5
12D6
  8
SAPA_PROFIL
 10
69.695988591883236
 20
41.613721451659273
 30
0.0
  0
VERTEX
  5
12D7
  8
SAPA_PROFIL
 10
69.735531485801573
 20
40.89106535810032
 30
0.0
 42
-0.7332303362618522
  0
VERTEX
  5
12D8
  8
SAPA_PROFIL
 10
69.199455463149263
 20
40.690890769530142
 30
0.0
  0
VERTEX
  5
12D9
  8
SAPA_PROFIL
 10
68.428545345644864
 20
42.800998109067848
 30
0.0
 42
-0.668178637919333
  0
VERTEX
  5
12DA
  8
SAPA_PROFIL
 10
68.701711540839142
 20
43.283345961158652
 30
0.0
  0
VERTEX
  5
12DB
  8
SAPA_PROFIL
 10
75.378736921551706
 20
42.528444819366428
 30
0.0
  0
VERTEX
  5
12DC
  8
SAPA_PROFIL
 10
75.378736921551706
 20
42.537978271529532
 30
0.0
  0
SEQEND
  5
12DD
  8
SAPA_PROFIL
  0
POLYLINE
  5
BB5
  8
SAPA_PROFIL
 66
     1
 10
0.0
 20
0.0
 30
0.0
 70
     1
  0
VERTEX
  5
12DE
  8
SAPA_PROFIL
 10
60.399999999999629
 20
10.64999999999992
 30
0.0
 42
-0.4142135623730951
  0
VERTEX
  5
12DF
  8
SAPA_PROFIL
 10
59.899999999999629
 20
11.14999999999992
 30
0.0
  0
VERTEX
  5
12E0
  8
SAPA_PROFIL
 10
59.89999999999975
 20
23.400000000000031
 30
0.0
 42
-0.4142135623730927
  0
VERTEX
  5
12E1
  8
SAPA_PROFIL
 10
60.39999999999975
 20
23.900000000000041
 30
0.0
  0
VERTEX
  5
12E2
  8
SAPA_PROFIL
 10
65.299999999999841
 20
23.899999999999981
 30
0.0
 42
-0.4142135623730943
  0
VERTEX
  5
12E3
  8
SAPA_PROFIL
 10
65.799999999999841
 20
23.399999999999981
 30
0.0
  0
VERTEX
  5
12E4
  8
SAPA_PROFIL
 10
65.799999999999727
 20
11.150000000000199
 30
0.0
 42
-0.4142135623730951
  0
VERTEX
  5
12E5
  8
SAPA_PROFIL
 10
65.299999999999713
 20
10.650000000000199
 30
0.0
  0
SEQEND
  5
12E6
  8
SAPA_PROFIL
  0
POLYLINE
  5
BB6
  8
SAPA_PROFIL
 66
     1
 10
0.0
 20
0.0
 30
0.0
 70
     1
  0
VERTEX
  5
12E7
  8
SAPA_PROFIL
 10
43.199999999999811
 20
31.55155457377646
 30
0.0
 42
0.2914734195861744
  0
VERTEX
  5
12E8
  8
SAPA_PROFIL
 10
43.48869086912952
 20
31.098400680258131
 30
0.0
  0
VERTEX
  5
12E9
  8
SAPA_PROFIL
 10
46.608323244567032
 20
29.643692212963291
 30
0.0
 42
0.1095178116832386
  0
VERTEX
  5
12EA
  8
SAPA_PROFIL
 10
47.03094150630772
 20
29.549999999999962
 30
0.0
  0
VERTEX
  5
12EB
  8
SAPA_PROFIL
 10
51.199999999999818
 20
29.549999999999962
 30
0.0
 42
-0.4142135623730951
  0
VERTEX
  5
12EC
  8
SAPA_PROFIL
 10
51.699999999999818
 20
29.049999999999962
 30
0.0
  0
VERTEX
  5
12ED
  8
SAPA_PROFIL
 10
51.699999999999818
 20
27.587939479458949
 30
0.0
 42
0.2914734195861007
  0
VERTEX
  5
12EE
  8
SAPA_PROFIL
 10
51.988690869129528
 20
27.13478558594062
 30
0.0
  0
VERTEX
  5
12EF
  8
SAPA_PROFIL
 10
55.394038072179683
 20
25.54684610648161
 30
0.0
 42
0.1095178116832193
  0
VERTEX
  5
12F0
  8
SAPA_PROFIL
 10
55.605347203049973
 20
25.49999999999994
 30
0.0
  0
VERTEX
  5
12F1
  8
SAPA_PROFIL
 10
65.299999999999841
 20
25.5
 30
0.0
 42
0.4142135623731019
  0
VERTEX
  5
12F2
  8
SAPA_PROFIL
 10
65.799999999999841
 20
26.0
 30
0.0
  0
VERTEX
  5
12F3
  8
SAPA_PROFIL
 10
65.799999999999841
 20
30.049999999999951
 30
0.0
 42
-0.4142135623730951
  0
VERTEX
  5
12F4
  8
SAPA_PROFIL
 10
66.299999999999841
 20
30.549999999999962
 30
0.0
  0
VERTEX
  5
12F5
  8
SAPA_PROFIL
 10
70.099999999999795
 20
30.549999999999962
 30
0.0
 42
0.4142135623730951
  0
VERTEX
  5
12F6
  8
SAPA_PROFIL
 10
70.599999999999795
 20
31.049999999999951
 30
0.0
  0
VERTEX
  5
12F7
  8
SAPA_PROFIL
 10
70.599999999999795
 20
36.649999999999977
 30
0.0
 42
0.4142135623730951
  0
VERTEX
  5
12F8
  8
SAPA_PROFIL
 10
70.099999999999795
 20
37.149999999999977
 30
0.0
  0
VERTEX
  5
12F9
  8
SAPA_PROFIL
 10
66.299999999999841
 20
37.149999999999977
 30
0.0
 42
-0.4142135623730951
  0
VERTEX
  5
12FA
  8
SAPA_PROFIL
 10
65.799999999999841
 20
37.649999999999977
 30
0.0
  0
VERTEX
  5
12FB
  8
SAPA_PROFIL
 10
65.799999999999841
 20
58.14999999999997
 30
0.0
 42
-0.4142135623730951
  0
VERTEX
  5
12FC
  8
SAPA_PROFIL
 10
66.299999999999841
 20
58.649999999999977
 30
0.0
  0
VERTEX
  5
12FD
  8
SAPA_PROFIL
 10
69.786453999999821
 20
58.650000000000091
 30
0.0
 42
0.5773499999999932
  0
VERTEX
  5
12FE
  8
SAPA_PROFIL
 10
70.046261999999842
 20
59.099999999999909
 30
0.0
  0
VERTEX
  5
12FF
  8
SAPA_PROFIL
 10
66.149146999999743
 20
65.850000000000023
 30
0.0
 42
0.267948999999997
  0
VERTEX
  5
1300
  8
SAPA_PROFIL
 10
65.283121999999693
 20
66.350000000000023
 30
0.0
  0
VERTEX
  5
1301
  8
SAPA_PROFIL
 10
47.999999999999773
 20
66.349999999999895
 30
0.0
 42
0.4142140000000792
  0
VERTEX
  5
1302
  8
SAPA_PROFIL
 10
47.499999999999773
 20
65.849999999999909
 30
0.0
  0
VERTEX
  5
1303
  8
SAPA_PROFIL
 10
47.499999999999773
 20
56.154999999999973
 30
0.0
 42
0.4142139999998795
  0
VERTEX
  5
1304
  8
SAPA_PROFIL
 10
47.999999999999893
 20
55.654999999999752
 30
0.0
  0
VERTEX
  5
1305
  8
SAPA_PROFIL
 10
48.699999999999818
 20
55.654999999999973
 30
0.0
 42
-0.4142139999999463
  0
VERTEX
  5
1306
  8
SAPA_PROFIL
 10
49.199999999999818
 20
55.154999999999973
 30
0.0
  0
VERTEX
  5
1307
  8
SAPA_PROFIL
 10
49.199999999999818
 20
40.754999999999932
 30
0.0
 42
-0.4142139999998796
  0
VERTEX
  5
1308
  8
SAPA_PROFIL
 10
48.699999999999697
 20
40.254999999999711
 30
0.0
  0
VERTEX
  5
1309
  8
SAPA_PROFIL
 10
48.499999999999773
 20
40.254999999999932
 30
0.0
 42
0.4142139999999461
  0
VERTEX
  5
130A
  8
SAPA_PROFIL
 10
48.0
 20
39.754999999999939
 30
0.0
  0
VERTEX
  5
130B
  8
SAPA_PROFIL
 10
47.999999999999773
 20
37.349999999999973
 30
0.0
 42
-0.4142135623730951
  0
VERTEX
  5
130C
  8
SAPA_PROFIL
 10
47.499999999999773
 20
36.849999999999973
 30
0.0
  0
VERTEX
  5
130D
  8
SAPA_PROFIL
 10
43.699999999999818
 20
36.849999999999973
 30
0.0
 42
0.4142135623730951
  0
VERTEX
  5
130E
  8
SAPA_PROFIL
 10
43.199999999999811
 20
36.349999999999973
 30
0.0
  0
SEQEND
  5
130F
  8
SAPA_PROFIL
  0
POLYLINE
  5
BB7
  8
SAPA_PROFIL
 66
     1
 10
0.0
 20
0.0
 30
0.0
 70
     1
  0
VERTEX
  5
1310
  8
SAPA_PROFIL
 10
70.199999999999804
 20
28.849999999999909
 30
0.0
  0
VERTEX
  5
1311
  8
SAPA_PROFIL
 10
67.799999999999841
 20
28.849999999999909
 30
0.0
 42
0.4142135623730951
  0
VERTEX
  5
1312
  8
SAPA_PROFIL
 10
67.499999999999886
 20
28.549999999999951
 30
0.0
  0
VERTEX
  5
1313
  8
SAPA_PROFIL
 10
67.499999999999886
 20
20.50000065621288
 30
0.0
 42
-0.1316523369912118
  0
VERTEX
  5
1314
  8
SAPA_PROFIL
 10
67.459807715851184
 20
20.350000820265961
 30
0.0
  0
VERTEX
  5
1315
  8
SAPA_PROFIL
 10
67.199999999999804
 20
19.8999999999998
 30
0.0
  0
VERTEX
  5
1316
  8
SAPA_PROFIL
 10
67.459807590851369
 20
19.450000262265519
 30
0.0
 42
-0.1316525489352833
  0
VERTEX
  5
1317
  8
SAPA_PROFIL
 10
67.499999999999773
 20
19.300000209812591
 30
0.0
  0
VERTEX
  5
1318
  8
SAPA_PROFIL
 10
67.499999999999773
 20
11.14999999999997
 30
0.0
 42
0.4142140000001461
  0
VERTEX
  5
1319
  8
SAPA_PROFIL
 10
67.799999999999841
 20
10.849999999999911
 30
0.0
  0
VERTEX
  5
131A
  8
SAPA_PROFIL
 10
70.199999999999804
 20
10.849999999999961
 30
0.0
 42
0.4142140000000906
  0
VERTEX
  5
131B
  8
SAPA_PROFIL
 10
70.499999999999773
 20
11.14999999999997
 30
0.0
  0
VERTEX
  5
131C
  8
SAPA_PROFIL
 10
70.499999999999773
 20
12.55000004467666
 30
0.0
 42
-0.5877030000000079
  0
VERTEX
  5
131D
  8
SAPA_PROFIL
 10
70.957960999999713
 20
12.805046044676599
 30
0.0
  0
VERTEX
  5
131E
  8
SAPA_PROFIL
 10
72.405306999999766
 20
11.908647044676631
 30
0.0
 42
-0.2596809999998896
  0
VERTEX
  5
131F
  8
SAPA_PROFIL
 10
72.499999999999659
 20
11.738616044676631
 30
0.0
  0
VERTEX
  5
1320
  8
SAPA_PROFIL
 10
72.499999999999773
 20
10.938082999999949
 30
0.0
 42
0.4023939999998733
  0
VERTEX
  5
1321
  8
SAPA_PROFIL
 10
72.787846999999829
 20
10.638329000000001
 30
0.0
  0
VERTEX
  5
1322
  8
SAPA_PROFIL
 10
87.260905999999764
 20
10.05152999999995
 30
0.0
 42
0.4373280000000294
  0
VERTEX
  5
1323
  8
SAPA_PROFIL
 10
87.799999999999713
 20
10.55000000000001
 30
0.0
  0
VERTEX
  5
1324
  8
SAPA_PROFIL
 10
87.799999999999855
 20
11.38139999999993
 30
0.0
 42
0.363970000000061
  0
VERTEX
  5
1325
  8
SAPA_PROFIL
 10
87.386824999999817
 20
11.87380400000001
 30
0.0
  0
VERTEX
  5
1326
  8
SAPA_PROFIL
 10
86.213175999999734
 20
12.080749999999959
 30
0.0
 42
-0.8391000000000017
  0
VERTEX
  5
1327
  8
SAPA_PROFIL
 10
86.213175999999734
 20
13.065556999999901
 30
0.0
  0
VERTEX
  5
1328
  8
SAPA_PROFIL
 10
87.783248999999856
 20
13.342403999999931
 30
0.0
 42
-0.0436610000000063
  0
VERTEX
  5
1329
  8
SAPA_PROFIL
 10
87.870072999999834
 20
13.349999999999961
 30
0.0
  0
VERTEX
  5
132A
  8
SAPA_PROFIL
 10
88.867544999999836
 20
13.349999999999961
 30
0.0
 42
-0.2896899999999917
  0
VERTEX
  5
132B
  8
SAPA_PROFIL
 10
89.771052999999824
 20
12.778570999999941
 30
0.0
 42
-0.5507599999998717
  0
VERTEX
  5
132C
  8
SAPA_PROFIL
 10
89.499999999999773
 20
12.349999999999911
 30
0.0
  0
VERTEX
  5
132D
  8
SAPA_PROFIL
 10
89.299999999999827
 20
12.350000000000019
 30
0.0
 42
0.4142140000000907
  0
VERTEX
  5
132E
  8
SAPA_PROFIL
 10
88.999999999999773
 20
12.05000000000001
 30
0.0
  0
VERTEX
  5
132F
  8
SAPA_PROFIL
 10
88.999999999999773
 20
10.55000000000001
 30
0.0
 42
0.4142139999999794
  0
VERTEX
  5
1330
  8
SAPA_PROFIL
 10
89.499999999999886
 20
10.049999999999949
 30
0.0
  0
VERTEX
  5
1331
  8
SAPA_PROFIL
 10
92.799999999999855
 20
10.05000000000001
 30
0.0
 42
0.4142140000000128
  0
VERTEX
  5
1332
  8
SAPA_PROFIL
 10
93.299999999999727
 20
10.55000000000001
 30
0.0
  0
VERTEX
  5
1333
  8
SAPA_PROFIL
 10
93.299999999999841
 20
12.05000000000001
 30
0.0
 42
0.414213999999813
  0
VERTEX
  5
1334
  8
SAPA_PROFIL
 10
92.999999999999773
 20
12.349999999999961
 30
0.0
  0
VERTEX
  5
1335
  8
SAPA_PROFIL
 10
92.799999999999855
 20
12.349999999999961
 30
0.0
 42
-0.5507599999999765
  0
VERTEX
  5
1336
  8
SAPA_PROFIL
 10
92.528947999999787
 20
12.778570999999999
 30
0.0
 42
-0.2896899999999603
  0
VERTEX
  5
1337
  8
SAPA_PROFIL
 10
93.432455999999775
 20
13.350000000000019
 30
0.0
  0
VERTEX
  5
1338
  8
SAPA_PROFIL
 10
94.199999999999818
 20
13.349999999999961
 30
0.0
 42
-0.414213999999813
  0
VERTEX
  5
1339
  8
SAPA_PROFIL
 10
94.499999999999886
 20
13.05000000000001
 30
0.0
  0
VERTEX
  5
133A
  8
SAPA_PROFIL
 10
94.499999999999773
 20
9.4742640687118751
 30
0.0
 42
-0.1989123673795536
  0
VERTEX
  5
133B
  8
SAPA_PROFIL
 10
94.41213203435575
 20
9.2621320343558864
 30
0.0
  0
VERTEX
  5
133C
  8
SAPA_PROFIL
 10
94.087867965643795
 20
8.9378679656439886
 30
0.0
 42
-0.198912367379658
  0
VERTEX
  5
133D
  8
SAPA_PROFIL
 10
93.875735931287863
 20
8.8499999999999641
 30
0.0
  0
VERTEX
  5
133E
  8
SAPA_PROFIL
 10
57.499999999999773
 20
8.8499999999999641
 30
0.0
 42
-0.4142139999999794
  0
VERTEX
  5
133F
  8
SAPA_PROFIL
 10
56.999999999999773
 20
9.3499999999999641
 30
0.0
  0
VERTEX
  5
1340
  8
SAPA_PROFIL
 10
56.999999999999879
 20
10.349999999999961
 30
0.0
 42
-0.3056149748443016
  0
VERTEX
  5
1341
  8
SAPA_PROFIL
 10
57.312499912451919
 20
10.813512491727289
 30
0.0
 42
0.3056147706310184
  0
VERTEX
  5
1342
  8
SAPA_PROFIL
 10
57.499999999999773
 20
11.09161997040826
 30
0.0
  0
VERTEX
  5
1343
  8
SAPA_PROFIL
 10
57.499999999999773
 20
13.80000000000007
 30
0.0
 42
0.4142135623730951
  0
VERTEX
  5
1344
  8
SAPA_PROFIL
 10
56.999999999999773
 20
14.300000000000059
 30
0.0
  0
VERTEX
  5
1345
  8
SAPA_PROFIL
 10
53.837169999999787
 20
14.30000000000001
 30
0.0
  0
VERTEX
  5
1346
  8
SAPA_PROFIL
 10
50.231494999999768
 20
15.145702999999971
 30
0.0
 42
-0.3482370000000332
  0
VERTEX
  5
1347
  8
SAPA_PROFIL
 10
49.999999999999773
 20
15.437776999999979
 30
0.0
  0
VERTEX
  5
1348
  8
SAPA_PROFIL
 10
49.999999999999773
 20
15.599999999999961
 30
0.0
 42
-0.4142140000000907
  0
VERTEX
  5
1349
  8
SAPA_PROFIL
 10
50.299999999999841
 20
15.899999999999981
 30
0.0
  0
VERTEX
  5
134A
  8
SAPA_PROFIL
 10
57.699999999999811
 20
15.89999999999992
 30
0.0
 42
0.4142135623730951
  0
VERTEX
  5
134B
  8
SAPA_PROFIL
 10
58.199999999999818
 20
16.39999999999992
 30
0.0
  0
VERTEX
  5
134C
  8
SAPA_PROFIL
 10
58.199999999999818
 20
23.39999999999992
 30
0.0
 42
0.4142140000000462
  0
VERTEX
  5
134D
  8
SAPA_PROFIL
 10
57.699999999999811
 20
23.89999999999992
 30
0.0
  0
VERTEX
  5
134E
  8
SAPA_PROFIL
 10
54.267766999999822
 20
23.899999999999981
 30
0.0
 42
0.1989120000000332
  0
VERTEX
  5
134F
  8
SAPA_PROFIL
 10
53.914213999999788
 20
23.75355299999995
 30
0.0
  0
VERTEX
  5
1350
  8
SAPA_PROFIL
 10
51.280330999999812
 20
21.119669999999932
 30
0.0
 42
-1.000556671979917
  0
VERTEX
  5
1351
  8
SAPA_PROFIL
 10
50.220260603768679
 20
22.180919947328452
 30
0.0
  0
VERTEX
  5
1352
  8
SAPA_PROFIL
 10
52.376955372403813
 20
24.337614715963579
 30
0.0
 42
0.5205670505516917
  0
VERTEX
  5
1353
  8
SAPA_PROFIL
 10
52.234711112680877
 20
25.144322000075189
 30
0.0
  0
VERTEX
  5
1354
  8
SAPA_PROFIL
 10
41.788690869129482
 20
30.015381236885329
 30
0.0
 42
-0.2914734195861185
  0
VERTEX
  5
1355
  8
SAPA_PROFIL
 10
41.499999999999773
 20
30.468535130403669
 30
0.0
  0
VERTEX
  5
1356
  8
SAPA_PROFIL
 10
41.499999999999773
 20
41.049999999999891
 30
0.0
 42
-0.4142139999999796
  0
VERTEX
  5
1357
  8
SAPA_PROFIL
 10
41.799999999999841
 20
41.349999999999973
 30
0.0
  0
VERTEX
  5
1358
  8
SAPA_PROFIL
 10
42.699999999999697
 20
41.349999999999973
 30
0.0
 42
-0.414213999999813
  0
VERTEX
  5
1359
  8
SAPA_PROFIL
 10
42.999999999999773
 20
41.049999999999891
 30
0.0
  0
VERTEX
  5
135A
  8
SAPA_PROFIL
 10
42.999999999999893
 20
39.049999999999962
 30
0.0
 42
0.4142139999998961
  0
VERTEX
  5
135B
  8
SAPA_PROFIL
 10
43.199999999999811
 20
38.849999999999973
 30
0.0
  0
VERTEX
  5
135C
  8
SAPA_PROFIL
 10
45.999999999999773
 20
38.849999999999973
 30
0.0
 42
0.5773502691898261
  0
VERTEX
  5
135D
  8
SAPA_PROFIL
 10
46.173205080756702
 20
39.14999999999992
 30
0.0
  0
VERTEX
  5
135E
  8
SAPA_PROFIL
 10
46.040192378864496
 20
39.380384757729303
 30
0.0
 42
-0.1316524975874119
  0
VERTEX
  5
135F
  8
SAPA_PROFIL
 10
45.999999999999773
 20
39.53038475772928
 30
0.0
  0
VERTEX
  5
1360
  8
SAPA_PROFIL
 10
45.999999999999879
 20
41.454999999999927
 30
0.0
 42
-0.4142139999999461
  0
VERTEX
  5
1361
  8
SAPA_PROFIL
 10
46.499999999999773
 20
41.95499999999992
 30
0.0
  0
VERTEX
  5
1362
  8
SAPA_PROFIL
 10
47.199999999999697
 20
41.954999999999806
 30
0.0
 42
0.4142140000000906
  0
VERTEX
  5
1363
  8
SAPA_PROFIL
 10
47.499999999999773
 20
42.254999999999939
 30
0.0
  0
VERTEX
  5
1364
  8
SAPA_PROFIL
 10
47.499999999999879
 20
47.355000209812481
 30
0.0
 42
-0.1316525489352833
  0
VERTEX
  5
1365
  8
SAPA_PROFIL
 10
47.540192409148283
 20
47.505000262265632
 30
0.0
  0
VERTEX
  5
1366
  8
SAPA_PROFIL
 10
47.799999999999841
 20
47.95499999999992
 30
0.0
  0
VERTEX
  5
1367
  8
SAPA_PROFIL
 10
47.540192284148468
 20
48.405000820266082
 30
0.0
 42
-0.1316523369912119
  0
VERTEX
  5
1368
  8
SAPA_PROFIL
 10
47.499999999999773
 20
48.555000656212989
 30
0.0
  0
VERTEX
  5
1369
  8
SAPA_PROFIL
 10
47.499999999999773
 20
53.654999999999973
 30
0.0
 42
0.414213999999813
  0
VERTEX
  5
136A
  8
SAPA_PROFIL
 10
47.199999999999811
 20
53.954999999999927
 30
0.0
  0
VERTEX
  5
136B
  8
SAPA_PROFIL
 10
46.499999999999879
 20
53.954999999999927
 30
0.0
 42
-0.4142139999999461
  0
VERTEX
  5
136C
  8
SAPA_PROFIL
 10
45.999999999999773
 20
54.45499999999992
 30
0.0
  0
VERTEX
  5
136D
  8
SAPA_PROFIL
 10
45.999999999999879
 20
58.169615242270531
 30
0.0
 42
-0.1316524975873767
  0
VERTEX
  5
136E
  8
SAPA_PROFIL
 10
46.040192378864496
 20
58.319615242270629
 30
0.0
  0
VERTEX
  5
136F
  8
SAPA_PROFIL
 10
46.173205080756702
 20
58.549999999999947
 30
0.0
 42
0.5773502691894598
  0
VERTEX
  5
1370
  8
SAPA_PROFIL
 10
45.999999999999773
 20
58.849999999999902
 30
0.0
  0
VERTEX
  5
1371
  8
SAPA_PROFIL
 10
43.199999999999811
 20
58.849999999999802
 30
0.0
 42
0.4142139999998128
  0
VERTEX
  5
1372
  8
SAPA_PROFIL
 10
42.999999999999773
 20
58.649999999999977
 30
0.0
  0
VERTEX
  5
1373
  8
SAPA_PROFIL
 10
42.999999999999773
 20
56.649999999999856
 30
0.0
 42
-0.414213999999813
  0
VERTEX
  5
1374
  8
SAPA_PROFIL
 10
42.699999999999811
 20
56.349999999999902
 30
0.0
  0
VERTEX
  5
1375
  8
SAPA_PROFIL
 10
41.799999999999841
 20
56.349999999999902
 30
0.0
 42
-0.4142139999998128
  0
VERTEX
  5
1376
  8
SAPA_PROFIL
 10
41.499999999999773
 20
56.649999999999977
 30
0.0
  0
VERTEX
  5
1377
  8
SAPA_PROFIL
 10
41.499999999999879
 20
60.349999999999909
 30
0.0
 42
-0.4142139999999461
  0
VERTEX
  5
1378
  8
SAPA_PROFIL
 10
41.999999999999773
 20
60.849999999999909
 30
0.0
  0
VERTEX
  5
1379
  8
SAPA_PROFIL
 10
45.499999999999773
 20
60.849999999999909
 30
0.0
 42
0.4142140000000794
  0
VERTEX
  5
137A
  8
SAPA_PROFIL
 10
45.999999999999773
 20
61.349999999999902
 30
0.0
  0
VERTEX
  5
137B
  8
SAPA_PROFIL
 10
45.999999999999773
 20
65.877191000000039
 30
0.0
 42
0.397937999999963
  0
VERTEX
  5
137C
  8
SAPA_PROFIL
 10
45.527928999999851
 20
66.376409999999964
 30
0.0
  0
VERTEX
  5
137D
  8
SAPA_PROFIL
 10
31.699999999999822
 20
67.149999999999977
 30
0.0
 42
0.4142140000000127
  0
VERTEX
  5
137E
  8
SAPA_PROFIL
 10
30.699999999999822
 20
66.149999999999977
 30
0.0
  0
VERTEX
  5
137F
  8
SAPA_PROFIL
 10
30.699999999999822
 20
64.850000000000023
 30
0.0
 42
-0.424142000000003
  0
VERTEX
  5
1380
  8
SAPA_PROFIL
 10
29.666227999999819
 20
63.850570999999938
 30
0.0
 42
-0.2988660000000183
  0
VERTEX
  5
1381
  8
SAPA_PROFIL
 10
28.728947999999829
 20
64.421428999999989
 30
0.0
 42
-0.5507599999996211
  0
VERTEX
  5
1382
  8
SAPA_PROFIL
 10
28.999999999999769
 20
64.849999999999909
 30
0.0
  0
VERTEX
  5
1383
  8
SAPA_PROFIL
 10
29.299999999999841
 20
64.849999999999909
 30
0.0
 42
0.414213999999813
  0
VERTEX
  5
1384
  8
SAPA_PROFIL
 10
29.499999999999769
 20
65.049999999999955
 30
0.0
  0
VERTEX
  5
1385
  8
SAPA_PROFIL
 10
29.499999999999879
 20
65.350000000000023
 30
0.0
 42
0.4142139999999796
  0
VERTEX
  5
1386
  8
SAPA_PROFIL
 10
27.699999999999822
 20
67.149999999999977
 30
0.0
  0
VERTEX
  5
1387
  8
SAPA_PROFIL
 10
26.99999999999989
 20
67.149999999999864
 30
0.0
 42
0.414213999999998
  0
VERTEX
  5
1388
  8
SAPA_PROFIL
 10
25.199999999999822
 20
65.349999999999909
 30
0.0
  0
VERTEX
  5
1389
  8
SAPA_PROFIL
 10
25.199999999999822
 20
65.049999999999955
 30
0.0
 42
0.4142139999998128
  0
VERTEX
  5
138A
  8
SAPA_PROFIL
 10
25.39999999999975
 20
64.849999999999909
 30
0.0
  0
VERTEX
  5
138B
  8
SAPA_PROFIL
 10
25.699999999999822
 20
64.850000000000023
 30
0.0
 42
-0.5507599999999805
  0
VERTEX
  5
138C
  8
SAPA_PROFIL
 10
25.97105299999976
 20
64.421429000000103
 30
0.0
 42
-0.2988660000000331
  0
VERTEX
  5
138D
  8
SAPA_PROFIL
 10
25.033772999999879
 20
63.850570999999938
 30
0.0
 42
-0.4241420000000235
  0
VERTEX
  5
138E
  8
SAPA_PROFIL
 10
23.999999999999769
 20
64.849999999999909
 30
0.0
  0
VERTEX
  5
138F
  8
SAPA_PROFIL
 10
23.999999999999769
 20
65.349999999999909
 30
0.0
 42
-0.4142140000000127
  0
VERTEX
  5
1390
  8
SAPA_PROFIL
 10
26.999999999999769
 20
68.349999999999909
 30
0.0
  0
VERTEX
  5
1391
  8
SAPA_PROFIL
 10
65.283121999999935
 20
68.349999999999909
 30
0.0
 42
-0.2679489999999819
  0
VERTEX
  5
1392
  8
SAPA_PROFIL
 10
67.881197999999813
 20
66.849999999999909
 30
0.0
  0
VERTEX
  5
1393
  8
SAPA_PROFIL
 10
72.366025999999806
 20
59.082050999999979
 30
0.0
 42
-0.1316520000000068
  0
VERTEX
  5
1394
  8
SAPA_PROFIL
 10
72.499999999999773
 20
58.582050999999979
 30
0.0
  0
VERTEX
  5
1395
  8
SAPA_PROFIL
 10
72.499999999999773
 20
55.961383999999953
 30
0.0
 42
-0.2596809999999468
  0
VERTEX
  5
1396
  8
SAPA_PROFIL
 10
72.405306999999766
 20
55.791352999999958
 30
0.0
  0
VERTEX
  5
1397
  8
SAPA_PROFIL
 10
70.957960999999841
 20
54.894953999999991
 30
0.0
 42
-0.5877030000000416
  0
VERTEX
  5
1398
  8
SAPA_PROFIL
 10
70.499999999999773
 20
55.149999999999856
 30
0.0
  0
VERTEX
  5
1399
  8
SAPA_PROFIL
 10
70.499999999999773
 20
56.549999999999947
 30
0.0
 42
0.414213999999924
  0
VERTEX
  5
139A
  8
SAPA_PROFIL
 10
70.199999999999704
 20
56.849999999999909
 30
0.0
  0
VERTEX
  5
139B
  8
SAPA_PROFIL
 10
67.799999999999841
 20
56.849999999999909
 30
0.0
 42
0.4142139999998128
  0
VERTEX
  5
139C
  8
SAPA_PROFIL
 10
67.499999999999773
 20
56.549999999999841
 30
0.0
  0
VERTEX
  5
139D
  8
SAPA_PROFIL
 10
67.499999999999773
 20
46.949999999999932
 30
0.0
  0
VERTEX
  5
139E
  8
SAPA_PROFIL
 10
67.499999999999773
 20
44.949999999999932
 30
0.0
  0
VERTEX
  5
139F
  8
SAPA_PROFIL
 10
67.499999999999773
 20
39.149999999999977
 30
0.0
 42
0.4142135623731505
  0
VERTEX
  5
13A0
  8
SAPA_PROFIL
 10
67.799999999999841
 20
38.85000000000008
 30
0.0
  0
VERTEX
  5
13A1
  8
SAPA_PROFIL
 10
70.199999999999804
 20
38.849999999999973
 30
0.0
 42
0.4142135623730951
  0
VERTEX
  5
13A2
  8
SAPA_PROFIL
 10
70.499999999999886
 20
39.149999999999977
 30
0.0
  0
VERTEX
  5
13A3
  8
SAPA_PROFIL
 10
70.499999999999773
 20
40.549999999999891
 30
0.0
 42
-0.5877030000001193
  0
VERTEX
  5
13A4
  8
SAPA_PROFIL
 10
70.957960999999841
 20
40.805046999999938
 30
0.0
  0
VERTEX
  5
13A5
  8
SAPA_PROFIL
 10
72.205306999999834
 20
40.012515999999948
 30
0.0
 42
-0.2596809999999468
  0
VERTEX
  5
13A6
  8
SAPA_PROFIL
 10
72.299999999999841
 20
39.842484999999961
 30
0.0
  0
VERTEX
  5
13A7
  8
SAPA_PROFIL
 10
72.299999721540644
 20
27.85751573378235
 30
0.0
 42
-0.2596809999999508
  0
VERTEX
  5
13A8
  8
SAPA_PROFIL
 10
72.205306721540637
 20
27.687485733782349
 30
0.0
  0
VERTEX
  5
13A9
  8
SAPA_PROFIL
 10
70.957960721540644
 20
26.894953733782359
 30
0.0
 42
-0.5877030000000664
  0
VERTEX
  5
13AA
  8
SAPA_PROFIL
 10
70.499999721540348
 20
27.150000733782349
 30
0.0
  0
VERTEX
  5
13AB
  8
SAPA_PROFIL
 10
70.499999999999773
 20
28.549999999999951
 30
0.0
 42
0.4142135623730951
  0
SEQEND
  5
13AC
  8
SAPA_PROFIL
  0
POLYLINE
  5
BB8
  8
SAPA_PROFIL
 66
     1
 10
0.0
 20
0.0
 30
0.0
 70
     1
  0
VERTEX
  5
13AD
  8
SAPA_PROFIL
 10
27.99999999999994
 20
56.750000000000057
 30
0.0
  0
VERTEX
  5
13AE
  8
SAPA_PROFIL
 10
27.99999999999989
 20
55.150000000000041
 30
0.0
 42
0.4142135623731506
  0
VERTEX
  5
13AF
  8
SAPA_PROFIL
 10
28.299999999999901
 20
54.85000000000008
 30
0.0
  0
VERTEX
  5
13B0
  8
SAPA_PROFIL
 10
28.875735931287981
 20
54.85000000000008
 30
0.0
 42
0.198912367379658
  0
VERTEX
  5
13B1
  8
SAPA_PROFIL
 10
29.087867965643969
 20
54.937867965644102
 30
0.0
  0
VERTEX
  5
13B2
  8
SAPA_PROFIL
 10
29.912132034355871
 20
55.762132034355943
 30
0.0
 42
0.198912367379658
  0
VERTEX
  5
13B3
  8
SAPA_PROFIL
 10
29.99999999999995
 20
55.974264068711989
 30
0.0
  0
VERTEX
  5
13B4
  8
SAPA_PROFIL
 10
29.99999999999989
 20
58.550000000000011
 30
0.0
 42
0.4142135623730951
  0
VERTEX
  5
13B5
  8
SAPA_PROFIL
 10
29.699999999999928
 20
58.849999999999973
 30
0.0
  0
VERTEX
  5
13B6
  8
SAPA_PROFIL
 10
0.2999999999998977
 20
58.85000000000008
 30
0.0
 42
0.4142135623730397
  0
VERTEX
  5
13B7
  8
SAPA_PROFIL
 10
-0.0000000000001137
 20
58.550000000000011
 30
0.0
  0
VERTEX
  5
13B8
  8
SAPA_PROFIL
 10
-0.0000000000001137
 20
55.974264068711989
 30
0.0
 42
0.1989123673796784
  0
VERTEX
  5
13B9
  8
SAPA_PROFIL
 10
0.0878679656439658
 20
55.762132034356057
 30
0.0
  0
VERTEX
  5
13BA
  8
SAPA_PROFIL
 10
0.9121320343558637
 20
54.937867965644102
 30
0.0
 42
0.198912367379658
  0
VERTEX
  5
13BB
  8
SAPA_PROFIL
 10
1.1242640687117951
 20
54.85000000000008
 30
0.0
  0
VERTEX
  5
13BC
  8
SAPA_PROFIL
 10
1.6999999999999309
 20
54.85000000000008
 30
0.0
 42
0.4142135623730951
  0
VERTEX
  5
13BD
  8
SAPA_PROFIL
 10
1.9999999999999429
 20
55.150000000000041
 30
0.0
  0
VERTEX
  5
13BE
  8
SAPA_PROFIL
 10
1.9999999999998861
 20
56.750000000000057
 30
0.0
 42
-0.4142135623731505
  0
VERTEX
  5
13BF
  8
SAPA_PROFIL
 10
2.2999999999998968
 20
57.050000000000011
 30
0.0
  0
VERTEX
  5
13C0
  8
SAPA_PROFIL
 10
4.7499999999998863
 20
57.050000000000011
 30
0.0
 42
-0.4142135623730951
  0
VERTEX
  5
13C1
  8
SAPA_PROFIL
 10
5.0499999999998968
 20
56.750000000000057
 30
0.0
  0
VERTEX
  5
13C2
  8
SAPA_PROFIL
 10
5.0499999999998968
 20
38.650000000000041
 30
0.0
 42
-0.4142135623730951
  0
VERTEX
  5
13C3
  8
SAPA_PROFIL
 10
4.7499999999998863
 20
38.35000000000008
 30
0.0
  0
VERTEX
  5
13C4
  8
SAPA_PROFIL
 10
2.2999999999998968
 20
38.35000000000008
 30
0.0
 42
-0.4142135623731506
  0
VERTEX
  5
13C5
  8
SAPA_PROFIL
 10
1.9999999999998861
 20
38.650000000000041
 30
0.0
  0
VERTEX
  5
13C6
  8
SAPA_PROFIL
 10
1.9999999999998861
 20
40.550000000000011
 30
0.0
 42
0.4142135623730951
  0
VERTEX
  5
13C7
  8
SAPA_PROFIL
 10
1.6999999999999309
 20
40.849999999999959
 30
0.0
  0
VERTEX
  5
13C8
  8
SAPA_PROFIL
 10
1.1242640687117951
 20
40.849999999999959
 30
0.0
 42
0.198912367379658
  0
VERTEX
  5
13C9
  8
SAPA_PROFIL
 10
0.9121320343558637
 20
40.762132034355943
 30
0.0
  0
VERTEX
  5
13CA
  8
SAPA_PROFIL
 10
0.2878679656438976
 20
40.137867965644027
 30
0.0
 42
0.1989123673796375
  0
VERTEX
  5
13CB
  8
SAPA_PROFIL
 10
0.1999999999999318
 20
39.925735931288102
 30
0.0
  0
VERTEX
  5
13CC
  8
SAPA_PROFIL
 10
0.1999999999998749
 20
34.449999999999989
 30
0.0
 42
0.1316524975874007
  0
VERTEX
  5
13CD
  8
SAPA_PROFIL
 10
0.240192378864549
 20
34.300000000000011
 30
0.0
  0
VERTEX
  5
13CE
  8
SAPA_PROFIL
 10
0.4999999999998864
 20
33.85000000000008
 30
0.0
  0
VERTEX
  5
13CF
  8
SAPA_PROFIL
 10
0.240192378864549
 20
33.39999999999992
 30
0.0
 42
0.1316524975873894
  0
VERTEX
  5
13D0
  8
SAPA_PROFIL
 10
0.1999999999999318
 20
33.249999999999943
 30
0.0
  0
VERTEX
  5
13D1
  8
SAPA_PROFIL
 10
0.1999999999998749
 20
27.77426406871195
 30
0.0
 42
0.1989123673796437
  0
VERTEX
  5
13D2
  8
SAPA_PROFIL
 10
0.2878679656439544
 20
27.562132034356011
 30
0.0
  0
VERTEX
  5
13D3
  8
SAPA_PROFIL
 10
0.9121320343558068
 20
26.937867965644099
 30
0.0
 42
0.198912367379658
  0
VERTEX
  5
13D4
  8
SAPA_PROFIL
 10
1.1242640687117951
 20
26.85000000000008
 30
0.0
  0
VERTEX
  5
13D5
  8
SAPA_PROFIL
 10
1.6999999999999309
 20
26.85000000000008
 30
0.0
 42
0.4142135623730951
  0
VERTEX
  5
13D6
  8
SAPA_PROFIL
 10
1.9999999999998861
 20
27.150000000000031
 30
0.0
  0
VERTEX
  5
13D7
  8
SAPA_PROFIL
 10
1.9999999999998861
 20
29.050000000000011
 30
0.0
 42
-0.4142135623730397
  0
VERTEX
  5
13D8
  8
SAPA_PROFIL
 10
2.2999999999998968
 20
29.35000000000008
 30
0.0
  0
VERTEX
  5
13D9
  8
SAPA_PROFIL
 10
4.7499999999998863
 20
29.349999999999969
 30
0.0
 42
-0.4142135623730951
  0
VERTEX
  5
13DA
  8
SAPA_PROFIL
 10
5.0499999999998968
 20
29.050000000000011
 30
0.0
  0
VERTEX
  5
13DB
  8
SAPA_PROFIL
 10
5.0499999999999536
 20
10.94999999999999
 30
0.0
 42
-0.4142135623730951
  0
VERTEX
  5
13DC
  8
SAPA_PROFIL
 10
4.7499999999999432
 20
10.650000000000031
 30
0.0
  0
VERTEX
  5
13DD
  8
SAPA_PROFIL
 10
2.2999999999999541
 20
10.650000000000031
 30
0.0
 42
-0.4142135623731506
  0
VERTEX
  5
13DE
  8
SAPA_PROFIL
 10
1.9999999999999429
 20
10.94999999999999
 30
0.0
  0
VERTEX
  5
13DF
  8
SAPA_PROFIL
 10
2.0
 20
12.55000000000001
 30
0.0
 42
0.4142135623730951
  0
VERTEX
  5
13E0
  8
SAPA_PROFIL
 10
1.699999999999988
 20
12.849999999999961
 30
0.0
  0
VERTEX
  5
13E1
  8
SAPA_PROFIL
 10
1.1242640687118519
 20
12.849999999999961
 30
0.0
 42
0.198912367379658
  0
VERTEX
  5
13E2
  8
SAPA_PROFIL
 10
0.9121320343559204
 20
12.76213203435594
 30
0.0
  0
VERTEX
  5
13E3
  8
SAPA_PROFIL
 10
0.0878679656439658
 20
11.93786796564399
 30
0.0
 42
0.198912367379658
  0
VERTEX
  5
13E4
  8
SAPA_PROFIL
 10
-0.0000000000000568
 20
11.72573593128805
 30
0.0
  0
VERTEX
  5
13E5
  8
SAPA_PROFIL
 10
-0.0000000000000568
 20
9.1500000000000341
 30
0.0
 42
0.4142135623730395
  0
VERTEX
  5
13E6
  8
SAPA_PROFIL
 10
0.2999999999999545
 20
8.8499999999999641
 30
0.0
  0
VERTEX
  5
13E7
  8
SAPA_PROFIL
 10
51.699999999999989
 20
8.8500000000000796
 30
0.0
 42
0.4142135623730951
  0
VERTEX
  5
13E8
  8
SAPA_PROFIL
 10
51.999999999999943
 20
9.1500000000000341
 30
0.0
  0
VERTEX
  5
13E9
  8
SAPA_PROFIL
 10
52.0
 20
13.05000000000001
 30
0.0
 42
0.4142135623730951
  0
VERTEX
  5
13EA
  8
SAPA_PROFIL
 10
51.699999999999989
 20
13.349999999999961
 30
0.0
  0
VERTEX
  5
13EB
  8
SAPA_PROFIL
 10
50.432455532032982
 20
13.35000000000019
 30
0.0
 42
0.2896898633026685
  0
VERTEX
  5
13EC
  8
SAPA_PROFIL
 10
49.528947629128417
 20
12.778571428571521
 30
0.0
 42
0.5507604245863847
  0
VERTEX
  5
13ED
  8
SAPA_PROFIL
 10
49.799999999999947
 20
12.349999999999961
 30
0.0
  0
VERTEX
  5
13EE
  8
SAPA_PROFIL
 10
50.449999999999989
 20
12.349999999999961
 30
0.0
 42
-0.4142135623730951
  0
VERTEX
  5
13EF
  8
SAPA_PROFIL
 10
50.749999999999943
 20
12.05000000000001
 30
0.0
  0
VERTEX
  5
13F0
  8
SAPA_PROFIL
 10
50.75
 20
10.650000000000031
 30
0.0
 42
-0.4142135623730951
  0
VERTEX
  5
13F1
  8
SAPA_PROFIL
 10
50.449999999999989
 20
10.349999999999961
 30
0.0
  0
VERTEX
  5
13F2
  8
SAPA_PROFIL
 10
42.049999999999947
 20
10.35000000000008
 30
0.0
 42
-0.4142135623731506
  0
VERTEX
  5
13F3
  8
SAPA_PROFIL
 10
41.749999999999943
 20
10.650000000000031
 30
0.0
  0
VERTEX
  5
13F4
  8
SAPA_PROFIL
 10
41.749999999999943
 20
12.05000000000001
 30
0.0
 42
-0.4142135623731505
  0
VERTEX
  5
13F5
  8
SAPA_PROFIL
 10
42.049999999999947
 20
12.349999999999961
 30
0.0
  0
VERTEX
  5
13F6
  8
SAPA_PROFIL
 10
42.699999999999982
 20
12.34999999999917
 30
0.0
 42
0.5507604245863315
  0
VERTEX
  5
13F7
  8
SAPA_PROFIL
 10
42.971052370871973
 20
12.77857142857175
 30
0.0
 42
0.2896898633026716
  0
VERTEX
  5
13F8
  8
SAPA_PROFIL
 10
42.067544467966911
 20
13.349999999999961
 30
0.0
  0
VERTEX
  5
13F9
  8
SAPA_PROFIL
 10
40.799999999999947
 20
13.349999999999961
 30
0.0
 42
0.4142135623731505
  0
VERTEX
  5
13FA
  8
SAPA_PROFIL
 10
40.499999999999943
 20
13.05000000000001
 30
0.0
  0
VERTEX
  5
13FB
  8
SAPA_PROFIL
 10
40.499999999999993
 20
10.94999999999999
 30
0.0
 42
-0.4142135623730951
  0
VERTEX
  5
13FC
  8
SAPA_PROFIL
 10
40.199999999999982
 20
10.650000000000031
 30
0.0
  0
VERTEX
  5
13FD
  8
SAPA_PROFIL
 10
30.299999999999962
 20
10.650000000000031
 30
0.0
 42
-0.4142135623731506
  0
VERTEX
  5
13FE
  8
SAPA_PROFIL
 10
29.99999999999995
 20
10.94999999999999
 30
0.0
  0
VERTEX
  5
13FF
  8
SAPA_PROFIL
 10
30.0
 20
11.682924642791759
 30
0.0
 42
0.2596812337301998
  0
VERTEX
  5
1400
  8
SAPA_PROFIL
 10
29.857960207127629
 20
11.937970860101871
 30
0.0
  0
VERTEX
  5
1401
  8
SAPA_PROFIL
 10
28.457960207127659
 20
12.805046217310119
 30
0.0
 42
0.5877032589249726
  0
VERTEX
  5
1402
  8
SAPA_PROFIL
 10
27.99999999999994
 20
12.55000000000001
 30
0.0
  0
VERTEX
  5
1403
  8
SAPA_PROFIL
 10
28.0
 20
10.94999999999999
 30
0.0
 42
-0.4142135623730951
  0
VERTEX
  5
1404
  8
SAPA_PROFIL
 10
27.699999999999989
 20
10.650000000000031
 30
0.0
  0
VERTEX
  5
1405
  8
SAPA_PROFIL
 10
25.24999999999995
 20
10.650000000000031
 30
0.0
 42
-0.4142135623730951
  0
VERTEX
  5
1406
  8
SAPA_PROFIL
 10
24.949999999999989
 20
10.94999999999999
 30
0.0
  0
VERTEX
  5
1407
  8
SAPA_PROFIL
 10
24.949999999999989
 20
20.75000000000006
 30
0.0
 42
-0.4142135623730951
  0
VERTEX
  5
1408
  8
SAPA_PROFIL
 10
25.24999999999995
 20
21.050000000000011
 30
0.0
  0
VERTEX
  5
1409
  8
SAPA_PROFIL
 10
29.699999999999989
 20
21.050000000000011
 30
0.0
 42
0.4142135623730951
  0
VERTEX
  5
140A
  8
SAPA_PROFIL
 10
30.0
 20
21.349999999999969
 30
0.0
  0
VERTEX
  5
140B
  8
SAPA_PROFIL
 10
29.99999999999995
 20
22.782055052822951
 30
0.0
 42
0.2608609300995157
  0
VERTEX
  5
140C
  8
SAPA_PROFIL
 10
29.85683151449706
 20
23.037796868059608
 30
0.0
  0
VERTEX
  5
140D
  8
SAPA_PROFIL
 10
29.25683151449698
 20
23.405741815236698
 30
0.0
 42
0.5862177598302742
  0
VERTEX
  5
140E
  8
SAPA_PROFIL
 10
28.799999999999951
 20
23.150000000000031
 30
0.0
  0
VERTEX
  5
140F
  8
SAPA_PROFIL
 10
28.799999999999951
 20
22.75000000000006
 30
0.0
 42
-0.4142135623730951
  0
VERTEX
  5
1410
  8
SAPA_PROFIL
 10
28.49999999999994
 20
22.450000000000099
 30
0.0
  0
VERTEX
  5
1411
  8
SAPA_PROFIL
 10
25.24999999999995
 20
22.449999999999989
 30
0.0
 42
-0.4142135623730951
  0
VERTEX
  5
1412
  8
SAPA_PROFIL
 10
24.949999999999928
 20
22.75000000000006
 30
0.0
  0
VERTEX
  5
1413
  8
SAPA_PROFIL
 10
24.949999999999928
 20
29.050000000000011
 30
0.0
 42
-0.4142135623730951
  0
VERTEX
  5
1414
  8
SAPA_PROFIL
 10
25.24999999999989
 20
29.349999999999969
 30
0.0
  0
VERTEX
  5
1415
  8
SAPA_PROFIL
 10
27.699999999999928
 20
29.35000000000008
 30
0.0
 42
-0.4142135623730951
  0
VERTEX
  5
1416
  8
SAPA_PROFIL
 10
27.99999999999994
 20
29.050000000000011
 30
0.0
  0
VERTEX
  5
1417
  8
SAPA_PROFIL
 10
27.99999999999989
 20
27.150000000000031
 30
0.0
 42
0.5920056181179108
  0
VERTEX
  5
1418
  8
SAPA_PROFIL
 10
28.461203502526701
 20
26.896991243682979
 30
0.0
  0
VERTEX
  5
1419
  8
SAPA_PROFIL
 10
29.661203502526689
 20
27.661566374789398
 30
0.0
 42
0.2562769736732622
  0
VERTEX
  5
141A
  8
SAPA_PROFIL
 10
29.799999999999901
 20
27.91457513110646
 30
0.0
  0
VERTEX
  5
141B
  8
SAPA_PROFIL
 10
29.799999999999901
 20
33.249999999999943
 30
0.0
 42
0.1316524975874008
  0
VERTEX
  5
141C
  8
SAPA_PROFIL
 10
29.75980762113522
 20
33.39999999999992
 30
0.0
  0
VERTEX
  5
141D
  8
SAPA_PROFIL
 10
29.499999999999879
 20
33.85000000000008
 30
0.0
  0
VERTEX
  5
141E
  8
SAPA_PROFIL
 10
29.75980762113522
 20
34.300000000000011
 30
0.0
 42
0.1316524975874008
  0
VERTEX
  5
141F
  8
SAPA_PROFIL
 10
29.799999999999901
 20
34.449999999999989
 30
0.0
  0
VERTEX
  5
1420
  8
SAPA_PROFIL
 10
29.799999999999901
 20
39.925735931288102
 30
0.0
 42
0.1989123673796436
  0
VERTEX
  5
1421
  8
SAPA_PROFIL
 10
29.712132034355822
 20
40.137867965644027
 30
0.0
  0
VERTEX
  5
1422
  8
SAPA_PROFIL
 10
29.087867965643909
 20
40.762132034355943
 30
0.0
 42
0.198912367379658
  0
VERTEX
  5
1423
  8
SAPA_PROFIL
 10
28.875735931287981
 20
40.849999999999959
 30
0.0
  0
VERTEX
  5
1424
  8
SAPA_PROFIL
 10
28.299999999999901
 20
40.849999999999959
 30
0.0
 42
0.4142135623731505
  0
VERTEX
  5
1425
  8
SAPA_PROFIL
 10
27.99999999999989
 20
40.550000000000011
 30
0.0
  0
VERTEX
  5
1426
  8
SAPA_PROFIL
 10
27.99999999999989
 20
38.650000000000041
 30
0.0
 42
-0.4142135623730951
  0
VERTEX
  5
1427
  8
SAPA_PROFIL
 10
27.699999999999928
 20
38.35000000000008
 30
0.0
  0
VERTEX
  5
1428
  8
SAPA_PROFIL
 10
25.24999999999989
 20
38.35000000000008
 30
0.0
 42
-0.4142135623730951
  0
VERTEX
  5
1429
  8
SAPA_PROFIL
 10
24.949999999999928
 20
38.650000000000041
 30
0.0
  0
VERTEX
  5
142A
  8
SAPA_PROFIL
 10
24.949999999999928
 20
56.750000000000057
 30
0.0
 42
-0.4142135623730951
  0
VERTEX
  5
142B
  8
SAPA_PROFIL
 10
25.24999999999989
 20
57.050000000000011
 30
0.0
  0
VERTEX
  5
142C
  8
SAPA_PROFIL
 10
27.699999999999928
 20
57.050000000000011
 30
0.0
 42
-0.4142135623730951
  0
SEQEND
  5
142D
  8
SAPA_PROFIL
  0
POLYLINE
  5
BB9
  8
SAPA_PROFIL
 66
     1
 10
0.0
 20
0.0
 30
0.0
 70
     1
  0
VERTEX
  5
142E
  8
SAPA_PROFIL
 10
6.7999999999999536
 20
10.94999999999999
 30
0.0
 42
0.4142135623730951
  0
VERTEX
  5
142F
  8
SAPA_PROFIL
 10
7.099999999999965
 20
10.650000000000031
 30
0.0
  0
VERTEX
  5
1430
  8
SAPA_PROFIL
 10
22.899999999999981
 20
10.650000000000031
 30
0.0
 42
0.4142135623730951
  0
VERTEX
  5
1431
  8
SAPA_PROFIL
 10
23.199999999999989
 20
10.94999999999999
 30
0.0
  0
VERTEX
  5
1432
  8
SAPA_PROFIL
 10
23.199999999999928
 20
31.650000000000041
 30
0.0
 42
-0.4142135623730951
  0
VERTEX
  5
1433
  8
SAPA_PROFIL
 10
23.799999999999901
 20
32.250000000000057
 30
0.0
 42
-0.4142135623730951
  0
VERTEX
  5
1434
  8
SAPA_PROFIL
 10
24.39999999999992
 20
31.650000000000041
 30
0.0
  0
VERTEX
  5
1435
  8
SAPA_PROFIL
 10
24.39999999999992
 20
31.60000000000008
 30
0.0
 42
0.4142135623730951
  0
VERTEX
  5
1436
  8
SAPA_PROFIL
 10
24.89999999999992
 20
31.10000000000008
 30
0.0
  0
VERTEX
  5
1437
  8
SAPA_PROFIL
 10
25.49999999999989
 20
31.10000000000008
 30
0.0
 42
0.3635303702822669
  0
VERTEX
  5
1438
  8
SAPA_PROFIL
 10
28.20747603380466
 20
33.36825989748337
 30
0.0
  0
VERTEX
  5
1439
  8
SAPA_PROFIL
 10
27.937867965643989
 20
33.637867965644148
 30
0.0
 42
-0.4142135623730951
  0
VERTEX
  5
143A
  8
SAPA_PROFIL
 10
27.937867965643932
 20
34.062132034356011
 30
0.0
  0
VERTEX
  5
143B
  8
SAPA_PROFIL
 10
28.20747603380466
 20
34.33174010251679
 30
0.0
 42
0.3635303702822669
  0
VERTEX
  5
143C
  8
SAPA_PROFIL
 10
25.49999999999989
 20
36.60000000000008
 30
0.0
  0
VERTEX
  5
143D
  8
SAPA_PROFIL
 10
24.89999999999992
 20
36.60000000000008
 30
0.0
 42
0.4142135623730951
  0
VERTEX
  5
143E
  8
SAPA_PROFIL
 10
24.39999999999992
 20
36.10000000000008
 30
0.0
  0
VERTEX
  5
143F
  8
SAPA_PROFIL
 10
24.39999999999992
 20
36.050000000000011
 30
0.0
 42
-0.4142135623730951
  0
VERTEX
  5
1440
  8
SAPA_PROFIL
 10
23.799999999999901
 20
35.449999999999989
 30
0.0
 42
-0.4142135623730951
  0
VERTEX
  5
1441
  8
SAPA_PROFIL
 10
23.199999999999928
 20
36.050000000000011
 30
0.0
  0
VERTEX
  5
1442
  8
SAPA_PROFIL
 10
23.199999999999928
 20
56.750000000000057
 30
0.0
 42
0.4142135623730951
  0
VERTEX
  5
1443
  8
SAPA_PROFIL
 10
22.89999999999992
 20
57.050000000000011
 30
0.0
  0
VERTEX
  5
1444
  8
SAPA_PROFIL
 10
7.0999999999999091
 20
57.050000000000011
 30
0.0
 42
0.4142135623730951
  0
VERTEX
  5
1445
  8
SAPA_PROFIL
 10
6.7999999999998968
 20
56.750000000000057
 30
0.0
  0
VERTEX
  5
1446
  8
SAPA_PROFIL
 10
6.7999999999998968
 20
36.050000000000011
 30
0.0
 42
-0.4142135623730951
  0
VERTEX
  5
1447
  8
SAPA_PROFIL
 10
6.1999999999998741
 20
35.449999999999989
 30
0.0
 42
-0.4142135623730951
  0
VERTEX
  5
1448
  8
SAPA_PROFIL
 10
5.5999999999998522
 20
36.050000000000011
 30
0.0
  0
VERTEX
  5
1449
  8
SAPA_PROFIL
 10
5.5999999999999091
 20
36.10000000000008
 30
0.0
 42
0.4142135623730951
  0
VERTEX
  5
144A
  8
SAPA_PROFIL
 10
5.0999999999999091
 20
36.60000000000008
 30
0.0
  0
VERTEX
  5
144B
  8
SAPA_PROFIL
 10
4.4999999999998863
 20
36.60000000000008
 30
0.0
 42
0.3635303702822669
  0
VERTEX
  5
144C
  8
SAPA_PROFIL
 10
1.7925239661951189
 20
34.33174010251679
 30
0.0
  0
VERTEX
  5
144D
  8
SAPA_PROFIL
 10
2.06213203435584
 20
34.062132034356011
 30
0.0
 42
-0.4142135623730951
  0
VERTEX
  5
144E
  8
SAPA_PROFIL
 10
2.0621320343558969
 20
33.637867965644148
 30
0.0
  0
VERTEX
  5
144F
  8
SAPA_PROFIL
 10
1.7925239661951189
 20
33.36825989748337
 30
0.0
 42
0.3635303702822669
  0
VERTEX
  5
1450
  8
SAPA_PROFIL
 10
4.4999999999998863
 20
31.10000000000008
 30
0.0
  0
VERTEX
  5
1451
  8
SAPA_PROFIL
 10
5.0999999999999091
 20
31.10000000000008
 30
0.0
 42
0.4142135623730951
  0
VERTEX
  5
1452
  8
SAPA_PROFIL
 10
5.5999999999999091
 20
31.60000000000008
 30
0.0
  0
VERTEX
  5
1453
  8
SAPA_PROFIL
 10
5.5999999999999091
 20
31.650000000000041
 30
0.0
 42
-0.4142135623730951
  0
VERTEX
  5
1454
  8
SAPA_PROFIL
 10
6.1999999999998741
 20
32.250000000000057
 30
0.0
 42
-0.4142135623730951
  0
VERTEX
  5
1455
  8
SAPA_PROFIL
 10
6.7999999999998968
 20
31.650000000000041
 30
0.0
  0
SEQEND
  5
1456
  8
SAPA_PROFIL
  0
POLYLINE
  5
BBF
  8
SAPA_GLAS
 66
     1
 10
0.0
 20
0.0
 30
0.0
  0
VERTEX
  5
145C
  8
SAPA_GLAS
 10
106.2999999999998
 20
17.25000000000011
 30
0.0
  0
VERTEX
  5
145D
  8
SAPA_GLAS
 10
77.499999999999716
 20
17.25000000000011
 30
0.0
  0
VERTEX
  5
145E
  8
SAPA_GLAS
 10
77.499999999999716
 20
23.25000000000011
 30
0.0
  0
VERTEX
  5
145F
  8
SAPA_GLAS
 10
106.2999999999998
 20
23.250000000000341
 30
0.0
  0
SEQEND
  5
1460
  8
SAPA_GLAS
  0
CIRCLE
  5
BCE
  8
SAPA_FOGBAND
 10
27.334356206632609
 20
63.20008046615294
 30
0.0000000195376815
 40
0.25
  0
POLYLINE
  5
BCF
  8
SAPA_FOGBAND
 66
     1
 10
0.0
 20
0.0
 30
0.0000000195376815
 70
     1
  0
VERTEX
  5
1505
  8
SAPA_FOGBAND
 10
24.627934078006209
 20
63.833987747273788
 30
0.0000000195376815
  0
VERTEX
  5
1506
  8
SAPA_FOGBAND
 10
25.78435620663242
 20
63.732813920768422
 30
0.0000000195376815
  0
VERTEX
  5
1507
  8
SAPA_FOGBAND
 10
25.78435620663242
 20
64.800080466152849
 30
0.0000000195376815
  0
VERTEX
  5
1508
  8
SAPA_FOGBAND
 10
25.382592397612491
 20
64.907732754327981
 30
0.0000000195376815
 42
-0.4995370695832079
  0
VERTEX
  5
1509
  8
SAPA_FOGBAND
 10
25.263238728858251
 20
65.204449599762256
 30
0.0000000195376815
  0
VERTEX
  5
150A
  8
SAPA_FOGBAND
 10
25.969274704092751
 20
66.257107494351203
 30
0.0000000195376815
 42
-0.250021237196914
  0
VERTEX
  5
150B
  8
SAPA_FOGBAND
 10
26.79976906882769
 20
66.70008046615294
 30
0.0000000195376815
  0
VERTEX
  5
150C
  8
SAPA_FOGBAND
 10
27.868943344437529
 20
66.70008046615294
 30
0.0000000195376815
 42
-0.250021237196914
  0
VERTEX
  5
150D
  8
SAPA_FOGBAND
 10
28.699437709172908
 20
66.257107494351203
 30
0.0000000195376815
  0
VERTEX
  5
150E
  8
SAPA_FOGBAND
 10
29.40547368440696
 20
65.204449599762256
 30
0.0000000195376815
 42
-0.4995370695831766
  0
VERTEX
  5
150F
  8
SAPA_FOGBAND
 10
29.286120015653179
 20
64.907732754327981
 30
0.0000000195376815
  0
VERTEX
  5
1510
  8
SAPA_FOGBAND
 10
28.884356206632791
 20
64.800080466152849
 30
0.0000000195376815
  0
VERTEX
  5
1511
  8
SAPA_FOGBAND
 10
28.884356206632791
 20
63.732813920768422
 30
0.0000000195376815
  0
VERTEX
  5
1512
  8
SAPA_FOGBAND
 10
29.566925058082798
 20
63.792530957346337
 30
0.0000000195376815
 42
-0.4400105308918379
  0
VERTEX
  5
1513
  8
SAPA_FOGBAND
 10
29.784356206632431
 20
63.59329201772789
 30
0.0000000195376815
  0
VERTEX
  5
1514
  8
SAPA_FOGBAND
 10
29.784356206632431
 20
63.558296552317643
 30
0.0000000195376815
 42
-0.3888787318529988
  0
VERTEX
  5
1515
  8
SAPA_FOGBAND
 10
29.236649652281471
 20
62.960579733462502
 30
0.0000000195376815
  0
VERTEX
  5
1516
  8
SAPA_FOGBAND
 10
28.402342137155419
 20
62.887587283994662
 30
0.0000000195376815
 42
0.2668174844056302
  0
VERTEX
  5
1517
  8
SAPA_FOGBAND
 10
28.238870439192969
 20
62.773637031339142
 30
0.0000000195376815
 42
-0.6341045221175712
  0
VERTEX
  5
1518
  8
SAPA_FOGBAND
 10
26.42984197407225
 20
62.773637031339142
 30
0.0000000195376815
 42
0.2668174844056113
  0
VERTEX
  5
1519
  8
SAPA_FOGBAND
 10
26.2663702761098
 20
62.887587283994662
 30
0.0000000195376815
  0
VERTEX
  5
151A
  8
SAPA_FOGBAND
 10
25.436649652281289
 20
62.960178432473192
 30
0.0000000195376815
 42
0.3932191662530252
  0
VERTEX
  5
151B
  8
SAPA_FOGBAND
 10
24.68435620663297
 20
62.316611324843052
 30
0.0000000195376815
 42
0.5936677432385475
  0
VERTEX
  5
151C
  8
SAPA_FOGBAND
 10
28.117158695890449
 20
59.546411535050083
 30
0.0000000195376815
 42
-1.0000000000000131
  0
VERTEX
  5
151D
  8
SAPA_FOGBAND
 10
28.601201587234868
 20
59.191866080504717
 30
0.0000000195376815
 42
-0.6273677588277283
  0
VERTEX
  5
151E
  8
SAPA_FOGBAND
 10
24.084356206632609
 20
62.316611324843052
 30
0.0000000195376815
  0
VERTEX
  5
151F
  8
SAPA_FOGBAND
 10
24.084356206632609
 20
63.335890398228003
 30
0.0000000195376815
 42
-0.4400105308918419
  0
SEQEND
  5
1520
  8
SAPA_FOGBAND
  0
POLYLINE
  5
BD0
  8
SAPA_FOGBAND
 66
     1
 10
0.0
 20
0.0
 30
0.0000000195376815
 70
     1
  0
VERTEX
  5
1521
  8
SAPA_FOGBAND
 10
28.134356206632791
 20
64.048608603576668
 30
0.0000000195376815
 42
-0.6341370759941026
  0
VERTEX
  5
1522
  8
SAPA_FOGBAND
 10
27.97071984299658
 20
63.971469681992858
 30
0.0000000195376815
 42
0.3592455179659193
  0
VERTEX
  5
1523
  8
SAPA_FOGBAND
 10
26.69799257026909
 20
63.971469681992858
 30
0.0000000195376815
 42
-0.6341370759941019
  0
VERTEX
  5
1524
  8
SAPA_FOGBAND
 10
26.534356206632431
 20
64.048608603576668
 30
0.0000000195376815
  0
VERTEX
  5
1525
  8
SAPA_FOGBAND
 10
26.534356206632431
 20
65.400080466152758
 30
0.0000000195376815
 42
-0.4142135623730951
  0
VERTEX
  5
1526
  8
SAPA_FOGBAND
 10
27.03435620663242
 20
65.900080466152758
 30
0.0000000195376815
  0
VERTEX
  5
1527
  8
SAPA_FOGBAND
 10
27.634356206632791
 20
65.900080466152758
 30
0.0000000195376815
 42
-0.4142135623730951
  0
VERTEX
  5
1528
  8
SAPA_FOGBAND
 10
28.134356206632791
 20
65.400080466152758
 30
0.0000000195376815
  0
SEQEND
  5
1529
  8
SAPA_FOGBAND
  0
CIRCLE
  5
BD1
  8
SAPA_FOGBAND
 10
32.316112603553741
 20
27.351663373581921
 30
0.0
 40
0.3
  0
POLYLINE
  5
BD2
  8
SAPA_FOGBAND
 66
     1
 10
0.0
 20
0.0
 30
0.0
 70
     1
  0
VERTEX
  5
152A
  8
SAPA_FOGBAND
 10
28.507464886158122
 20
24.17052093756752
 30
0.0
  0
VERTEX
  5
152B
  8
SAPA_FOGBAND
 10
30.42091715487993
 20
24.17052093756752
 30
0.0
 42
0.4142135623730951
  0
VERTEX
  5
152C
  8
SAPA_FOGBAND
 10
30.92091715487993
 20
24.67052093756752
 30
0.0
  0
VERTEX
  5
152D
  8
SAPA_FOGBAND
 10
30.92091715487993
 20
25.47052093756724
 30
0.0
 42
0.4142135623730951
  0
VERTEX
  5
152E
  8
SAPA_FOGBAND
 10
30.42091715487993
 20
25.970520937567251
 30
0.0
  0
VERTEX
  5
152F
  8
SAPA_FOGBAND
 10
28.344813342813609
 20
25.970520937567251
 30
0.0
 42
0.2216946626429447
  0
VERTEX
  5
1530
  8
SAPA_FOGBAND
 10
27.885186676941771
 20
25.75619350337934
 30
0.0
  0
VERTEX
  5
1531
  8
SAPA_FOGBAND
 10
27.525049629649288
 20
25.32699888344246
 30
0.0
 42
0.4400105308918337
  0
VERTEX
  5
1532
  8
SAPA_FOGBAND
 10
27.612214312590709
 20
24.66491738450873
 30
0.0
  0
VERTEX
  5
1533
  8
SAPA_FOGBAND
 10
28.163319024347292
 20
24.279029710993878
 30
0.0
 42
0.153914721059829
  0
SEQEND
  5
1534
  8
SAPA_FOGBAND
  0
POLYLINE
  5
BD3
  8
SAPA_FOGBAND
 66
     1
 10
0.0
 20
0.0
 30
0.0
 70
     1
  0
VERTEX
  5
1535
  8
SAPA_FOGBAND
 10
42.005446441552401
 20
27.984575675469731
 30
0.0
 42
-0.1579553886371987
  0
VERTEX
  5
1536
  8
SAPA_FOGBAND
 10
45.269274485668461
 20
27.837516169005429
 30
0.0
 42
-1.0
  0
VERTEX
  5
1537
  8
SAPA_FOGBAND
 10
44.006651496729198
 20
24.466198446244341
 30
0.0
 42
-0.1276248526686838
  0
VERTEX
  5
1538
  8
SAPA_FOGBAND
 10
42.23899898825163
 20
25.707510867929841
 30
0.0
  0
VERTEX
  5
1539
  8
SAPA_FOGBAND
 10
41.329652464682901
 20
26.77689954050232
 30
0.0
 42
-0.5691506674918112
  0
VERTEX
  5
153A
  8
SAPA_FOGBAND
 10
41.719888220401003
 20
27.915590735139411
 30
0.0
 42
0.0156300267407041
  0
SEQEND
  5
153B
  8
SAPA_FOGBAND
  0
POLYLINE
  5
BD4
  8
SAPA_FOGBAND
 66
     1
 10
0.0
 20
0.0
 30
0.0
 70
     1
  0
VERTEX
  5
153C
  8
SAPA_FOGBAND
 10
30.702595000999171
 20
20.775087299857208
 30
0.0
 42
0.3888787318529789
  0
VERTEX
  5
153D
  8
SAPA_FOGBAND
 10
31.988951195910769
 20
21.762143124367189
 30
0.0
  0
VERTEX
  5
153E
  8
SAPA_FOGBAND
 10
32.1154661307013
 20
22.479644973953562
 30
0.0
 42
1.0
  0
VERTEX
  5
153F
  8
SAPA_FOGBAND
 10
32.219655037301777
 20
23.070529625760859
 30
0.0
  0
VERTEX
  5
1540
  8
SAPA_FOGBAND
 10
32.327058507551442
 20
23.679644973953831
 30
0.0
 42
0.9999999999999067
  0
VERTEX
  5
1541
  8
SAPA_FOGBAND
 10
32.431247414151471
 20
24.270529625761132
 30
0.0
  0
VERTEX
  5
1542
  8
SAPA_FOGBAND
 10
32.492032020812871
 20
24.615256260429991
 30
0.0
 42
-0.3345953195020691
  0
VERTEX
  5
1543
  8
SAPA_FOGBAND
 10
34.692730245173948
 20
26.667440554683481
 30
0.0
  0
VERTEX
  5
1544
  8
SAPA_FOGBAND
 10
38.706537650185851
 20
27.02054832760064
 30
0.0
 42
-0.2564696513213821
  0
VERTEX
  5
1545
  8
SAPA_FOGBAND
 10
41.161031848892769
 20
25.894616161658629
 30
0.0
  0
VERTEX
  5
1546
  8
SAPA_FOGBAND
 10
41.705731577523572
 20
25.254050981440059
 30
0.0
 42
0.1276248526686853
  0
VERTEX
  5
1547
  8
SAPA_FOGBAND
 10
43.761141471102633
 20
23.810664444596341
 30
0.0
 42
1.0
  0
VERTEX
  5
1548
  8
SAPA_FOGBAND
 10
45.514784511295488
 20
28.493050170653309
 30
0.0
 42
0.1579553886371977
  0
VERTEX
  5
1549
  8
SAPA_FOGBAND
 10
41.819884838710891
 20
28.659532630801781
 30
0.0
 42
-0.0604483959424258
  0
VERTEX
  5
154A
  8
SAPA_FOGBAND
 10
38.429772777725589
 20
28.558440096348701
 30
0.0
  0
VERTEX
  5
154B
  8
SAPA_FOGBAND
 10
33.272206021358102
 20
28.770520937567429
 30
0.0
 42
-0.3286126757704555
  0
VERTEX
  5
154C
  8
SAPA_FOGBAND
 10
31.839561914888581
 20
29.826076493123079
 30
0.0
 42
0.2704382184496639
  0
VERTEX
  5
154D
  8
SAPA_FOGBAND
 10
30.721053389752232
 20
30.739752768263092
 30
0.0
  0
VERTEX
  5
154E
  8
SAPA_FOGBAND
 10
30.92091715487993
 20
26.870520937567331
 30
0.0
  0
VERTEX
  5
154F
  8
SAPA_FOGBAND
 10
29.720917154880109
 20
26.870520937567331
 30
0.0
  0
VERTEX
  5
1550
  8
SAPA_FOGBAND
 10
28.659852749330518
 20
26.816049174527961
 30
0.0
  0
VERTEX
  5
1551
  8
SAPA_FOGBAND
 10
28.660821759188249
 20
27.365895083333051
 30
0.0
 42
0.6068148963145658
  0
VERTEX
  5
1552
  8
SAPA_FOGBAND
 10
28.14123067836579
 20
27.481085652708089
 30
0.0
  0
VERTEX
  5
1553
  8
SAPA_FOGBAND
 10
26.764904992475628
 20
25.665672842687631
 30
0.0
 42
0.4400105308918406
  0
VERTEX
  5
1554
  8
SAPA_FOGBAND
 10
26.965626246562241
 20
24.141043551449229
 30
0.0
  0
VERTEX
  5
1555
  8
SAPA_FOGBAND
 10
28.982589170784991
 20
22.617842170033558
 30
0.0
 42
0.5205670505516999
  0
VERTEX
  5
1556
  8
SAPA_FOGBAND
 10
29.444439849576948
 20
22.785942069789598
 30
0.0
  0
VERTEX
  5
1557
  8
SAPA_FOGBAND
 10
29.471035480611931
 20
23.53078118122221
 30
0.0
  0
VERTEX
  5
1558
  8
SAPA_FOGBAND
 10
30.76094828946032
 20
23.331270237768191
 30
0.0
  0
SEQEND
  5
1559
  8
SAPA_FOGBAND
  0
POLYLINE
  5
BD5
  8
SAPA_FOGBAND
 62
     2
 66
     1
 10
0.0
 20
0.0
 30
0.0
  0
VERTEX
  5
155A
  8
SAPA_FOGBAND
 62
     2
 10
92.561592376852218
 20
13.35000000000011
 30
0.0
  0
VERTEX
  5
155B
  8
SAPA_FOGBAND
 62
     2
 10
92.369233956859858
 20
12.25908118984737
 30
0.0
  0
VERTEX
  5
155C
  8
SAPA_FOGBAND
 62
     2
 10
92.801030516761486
 20
12.143381650327431
 30
0.0
 42
-0.4430158954262519
  0
VERTEX
  5
155D
  8
SAPA_FOGBAND
 62
     2
 10
92.936507564305558
 20
11.87990522222046
 30
0.0
  0
VERTEX
  5
155E
  8
SAPA_FOGBAND
 62
     2
 10
92.459559371086613
 20
10.609417474302269
 30
0.0
 42
-0.3125358528825162
  0
VERTEX
  5
155F
  8
SAPA_FOGBAND
 62
     2
 10
92.085077657957214
 20
10.35000000000057
 30
0.0
  0
VERTEX
  5
1560
  8
SAPA_FOGBAND
 62
     2
 10
90.21492234204689
 20
10.35000000000011
 30
0.0
 42
-0.3125358528825104
  0
VERTEX
  5
1561
  8
SAPA_FOGBAND
 62
     2
 10
89.840440628917491
 20
10.609417474302269
 30
0.0
  0
VERTEX
  5
1562
  8
SAPA_FOGBAND
 62
     2
 10
89.363492435698305
 20
11.87990522222046
 30
0.0
 42
-0.4430158954262519
  0
VERTEX
  5
1563
  8
SAPA_FOGBAND
 62
     2
 10
89.498969483242405
 20
12.143381650327321
 30
0.0
  0
VERTEX
  5
1564
  8
SAPA_FOGBAND
 62
     2
 10
89.930766043144246
 20
12.25908118984737
 30
0.0
  0
VERTEX
  5
1565
  8
SAPA_FOGBAND
 62
     2
 10
89.74162218680172
 20
13.3317693036149
 30
0.0
  0
SEQEND
  5
1566
  8
SAPA_FOGBAND
 62
     2
  0
POLYLINE
  5
BD6
  8
SAPA_FOGBAND
 62
     2
 66
     1
 10
0.0
 20
0.0
 30
0.0
 70
     1
  0
VERTEX
  5
1567
  8
SAPA_FOGBAND
 62
     2
 10
92.550000000001901
 20
13.35000000000011
 30
0.0
 42
0.285714285714282
  0
VERTEX
  5
1568
  8
SAPA_FOGBAND
 62
     2
 10
89.750000000001961
 20
13.35000000000011
 30
0.0
  0
VERTEX
  5
1569
  8
SAPA_FOGBAND
 62
     2
 10
87.676219830614073
 20
13.35000000000057
 30
0.0
 42
-0.3882600129940275
  0
VERTEX
  5
156A
  8
SAPA_FOGBAND
 62
     2
 10
87.377418333272686
 20
13.62321072628013
 30
0.0
  0
VERTEX
  5
156B
  8
SAPA_FOGBAND
 62
     2
 10
86.911208409346187
 20
16.923210726280221
 30
0.0
 42
-0.4406523138893894
  0
VERTEX
  5
156C
  8
SAPA_FOGBAND
 62
     2
 10
87.210009906688029
 20
17.25000000000011
 30
0.0
  0
VERTEX
  5
156D
  8
SAPA_FOGBAND
 62
     2
 10
88.919801903608359
 20
17.25000000000011
 30
0.0
 42
-0.3394542588634375
  0
VERTEX
  5
156E
  8
SAPA_FOGBAND
 62
     2
 10
89.209579651494906
 20
17.027645713531111
 30
0.0
  0
VERTEX
  5
156F
  8
SAPA_FOGBAND
 62
     2
 10
89.411959379426335
 20
16.810059931363519
 30
0.0
 42
0.3394542588633663
  0
VERTEX
  5
1570
  8
SAPA_FOGBAND
 62
     2
 10
89.701737127313109
 20
16.58770564489453
 30
0.0
  0
VERTEX
  5
1571
  8
SAPA_FOGBAND
 62
     2
 10
92.598262872690967
 20
16.58770564489453
 30
0.0
 42
0.3394542588634373
  0
VERTEX
  5
1572
  8
SAPA_FOGBAND
 62
     2
 10
92.888040620577513
 20
16.810059931363519
 30
0.0
  0
VERTEX
  5
1573
  8
SAPA_FOGBAND
 62
     2
 10
93.090420348508957
 20
17.027645713531111
 30
0.0
 42
-0.3394542588633662
  0
VERTEX
  5
1574
  8
SAPA_FOGBAND
 62
     2
 10
93.380198096395716
 20
17.25000000000011
 30
0.0
  0
VERTEX
  5
1575
  8
SAPA_FOGBAND
 62
     2
 10
95.089990093315805
 20
17.25000000000011
 30
0.0
 42
-0.4406523138893994
  0
VERTEX
  5
1576
  8
SAPA_FOGBAND
 62
     2
 10
95.388791590657448
 20
16.923210726280221
 30
0.0
  0
VERTEX
  5
1577
  8
SAPA_FOGBAND
 62
     2
 10
94.92258166673119
 20
13.62321072628013
 30
0.0
 42
-0.3882600129940462
  0
VERTEX
  5
1578
  8
SAPA_FOGBAND
 62
     2
 10
94.623780169389789
 20
13.35000000000011
 30
0.0
  0
VERTEX
  5
1579
  8
SAPA_FOGBAND
 62
     2
 10
92.561592376852218
 20
13.35000000000011
 30
0.0
  0
SEQEND
  5
157A
  8
SAPA_FOGBAND
 62
     2
  0
POLYLINE
  5
BD7
  8
SAPA_FOGBAND
 66
     1
 10
0.0
 20
0.0
 30
0.0
 70
     1
  0
VERTEX
  5
157B
  8
SAPA_FOGBAND
 10
83.993397840349118
 20
29.839251262205039
 30
0.0
  0
VERTEX
  5
157C
  8
SAPA_FOGBAND
 10
85.193397840349164
 20
29.839251262205039
 30
0.0
 42
0.4142135623730951
  0
VERTEX
  5
157D
  8
SAPA_FOGBAND
 10
85.493397840349132
 20
30.13925126220499
 30
0.0
  0
VERTEX
  5
157E
  8
SAPA_FOGBAND
 10
85.493397840349132
 20
31.039251262205081
 30
0.0
  0
VERTEX
  5
157F
  8
SAPA_FOGBAND
 10
85.143397840349209
 20
31.039251262205081
 30
0.0
 42
-0.6681786379192988
  0
VERTEX
  5
1580
  8
SAPA_FOGBAND
 10
84.931265805993178
 20
31.551383296561092
 30
0.0
  0
VERTEX
  5
1581
  8
SAPA_FOGBAND
 10
85.784819196586511
 20
32.404936687154191
 30
0.0
 42
-0.1989123673796552
  0
VERTEX
  5
1582
  8
SAPA_FOGBAND
 10
86.350504621535663
 20
32.639251262204994
 30
0.0
  0
VERTEX
  5
1583
  8
SAPA_FOGBAND
 10
86.513199743955454
 20
32.639251262204994
 30
0.0
 42
-0.3394542588633746
  0
VERTEX
  5
1584
  8
SAPA_FOGBAND
 10
86.802977491842228
 20
32.416896975735767
 30
0.0
  0
VERTEX
  5
1585
  8
SAPA_FOGBAND
 10
87.166126735232126
 20
31.061605548674269
 30
0.0
 42
0.3394542588633746
  0
VERTEX
  5
1586
  8
SAPA_FOGBAND
 10
87.4559044831189
 20
30.839251262205039
 30
0.0
  0
VERTEX
  5
1587
  8
SAPA_FOGBAND
 10
90.030891197579365
 20
30.839251262205039
 30
0.0
 42
0.3394542588633746
  0
VERTEX
  5
1588
  8
SAPA_FOGBAND
 10
90.320668945466139
 20
31.061605548674269
 30
0.0
  0
VERTEX
  5
1589
  8
SAPA_FOGBAND
 10
90.683818188856264
 20
32.416896975735767
 30
0.0
 42
-0.3394542588633744
  0
VERTEX
  5
158A
  8
SAPA_FOGBAND
 10
90.973595936742825
 20
32.639251262204994
 30
0.0
  0
VERTEX
  5
158B
  8
SAPA_FOGBAND
 10
91.136291059162829
 20
32.639251262204994
 30
0.0
 42
-0.1989123673796526
  0
VERTEX
  5
158C
  8
SAPA_FOGBAND
 10
91.701976484111981
 20
32.404936687154191
 30
0.0
  0
VERTEX
  5
158D
  8
SAPA_FOGBAND
 10
92.555529874705314
 20
31.551383296561092
 30
0.0
 42
-0.6681786379193474
  0
VERTEX
  5
158E
  8
SAPA_FOGBAND
 10
92.343397840349269
 20
31.039251262205081
 30
0.0
  0
VERTEX
  5
158F
  8
SAPA_FOGBAND
 10
91.993397840349132
 20
31.039251262205081
 30
0.0
  0
VERTEX
  5
1590
  8
SAPA_FOGBAND
 10
91.993397840349132
 20
30.13925126220499
 30
0.0
 42
0.4142135623730951
  0
VERTEX
  5
1591
  8
SAPA_FOGBAND
 10
92.293397840349314
 20
29.839251262205039
 30
0.0
  0
VERTEX
  5
1592
  8
SAPA_FOGBAND
 10
94.393397840349223
 20
29.839251262205039
 30
0.0
 42
0.4142135623730951
  0
VERTEX
  5
1593
  8
SAPA_FOGBAND
 10
94.693397840349178
 20
30.13925126220499
 30
0.0
  0
VERTEX
  5
1594
  8
SAPA_FOGBAND
 10
94.693397840349178
 20
31.539251262205092
 30
0.0
 42
-0.7754026414786132
  0
VERTEX
  5
1595
  8
SAPA_FOGBAND
 10
95.256189835756857
 20
31.683959130510971
 30
0.0
 42
0.1086822875051356
  0
VERTEX
  5
1596
  8
SAPA_FOGBAND
 10
99.406237994347691
 20
23.755876740374219
 30
0.0
 42
-0.8680589103334746
  0
VERTEX
  5
1597
  8
SAPA_FOGBAND
 10
98.931313964583936
 20
23.399036837712291
 30
0.0
  0
VERTEX
  5
1598
  8
SAPA_FOGBAND
 10
94.961278567432316
 20
26.226837158856259
 30
0.0
 42
0.1989123673796536
  0
VERTEX
  5
1599
  8
SAPA_FOGBAND
 10
94.254171786245649
 20
26.519730377669589
 30
0.0
  0
VERTEX
  5
159A
  8
SAPA_FOGBAND
 10
91.420852821825903
 20
26.519730377669589
 30
0.0
 42
0.577350269189628
  0
VERTEX
  5
159B
  8
SAPA_FOGBAND
 10
91.161045200690694
 20
26.069730377669771
 30
0.0
  0
VERTEX
  5
159C
  8
SAPA_FOGBAND
 10
93.299173897102435
 20
23.764976274315469
 30
0.0
 42
-0.8769764629927301
  0
VERTEX
  5
159D
  8
SAPA_FOGBAND
 10
92.827234241611166
 20
23.402844239959329
 30
0.0
  0
VERTEX
  5
159E
  8
SAPA_FOGBAND
 10
88.861006246706367
 20
26.226837158856259
 30
0.0
 42
0.198912367379658
  0
VERTEX
  5
159F
  8
SAPA_FOGBAND
 10
88.153899465519714
 20
26.519730377669589
 30
0.0
  0
VERTEX
  5
15A0
  8
SAPA_FOGBAND
 10
85.921625103298254
 20
26.519730377669589
 30
0.0
 42
0.5773502691896441
  0
VERTEX
  5
15A1
  8
SAPA_FOGBAND
 10
85.661817482162803
 20
26.069730377669771
 30
0.0
  0
VERTEX
  5
15A2
  8
SAPA_FOGBAND
 10
87.799444603692066
 20
23.76584502749586
 30
0.0
 42
-0.87697646299276
  0
VERTEX
  5
15A3
  8
SAPA_FOGBAND
 10
87.327504948200783
 20
23.40371299313972
 30
0.0
  0
VERTEX
  5
15A4
  8
SAPA_FOGBAND
 10
83.286291059162679
 20
26.30269180616995
 30
0.0
 42
-0.198912367379658
  0
VERTEX
  5
15A5
  8
SAPA_FOGBAND
 10
82.993397840349132
 20
27.009798587356389
 30
0.0
  0
VERTEX
  5
15A6
  8
SAPA_FOGBAND
 10
82.993397840349132
 20
28.839251262205039
 30
0.0
  0
VERTEX
  5
15A7
  8
SAPA_FOGBAND
 10
82.993397840349132
 20
28.829319471891839
 30
0.0
  0
SEQEND
  5
15A8
  8
SAPA_FOGBAND
  0
DIMENSION
  5
BE0
  8
SAPA_MATT
  2
*D33
 10
94.499999999999716
 20
-21.150000000000091
 30
0.0
 11
47.249999999999822
 21
-18.400000000000091
 31
0.0
 70
     0
 13
-0.0000000000000568
 23
-11.150000000000089
 33
0.0
 14
94.499999999999716
 24
-11.150000000000089
 34
0.0
1001
ACAD
1000
DSTYLE
1002
{
1070
    40
1040
1.0
1002
}
  0
DIMENSION
  5
BE1
  8
SAPA_MATT
  2
*D32
 10
94.499999999999716
 20
-11.15000000000015
 30
0.0
 11
75.749999999999773
 21
-8.4000000000001478
 31
0.0
 70
     0
 13
56.999999999999829
 23
9.8500000000000227
 33
0.0
 14
94.499999999999716
 24
9.8500000000000227
 34
0.0
 50
180.0
1001
ACAD
1000
DSTYLE
1002
{
1070
   287
1070
     4
1070
    40
1040
1.0
1070
   279
1070
     1
1002
}
  0
DIMENSION
  5
BE2
  8
SAPA_MATT
  2
*D31
 10
56.999999999999829
 20
-11.150000000000089
 30
0.0
 11
54.499999999999943
 21
-8.4000000000000892
 31
0.0
 70
     0
 13
52.000000000000057
 23
9.1499999999998636
 33
0.0
 14
56.999999999999829
 24
9.8500000000000227
 34
0.0
 50
180.0
1001
ACAD
1000
DSTYLE
1002
{
1070
   287
1070
     4
1070
    40
1040
1.0
1070
   279
1070
     1
1002
}
  0
DIMENSION
  5
BE3
  8
SAPA_MATT
  2
*D30
 10
-0.0000000000000581
 20
-11.150000000000089
 30
0.0
 11
26.0
 21
-8.4000000000000892
 31
0.0
 70
     0
 13
52.000000000000057
 23
9.1499999999998636
 33
0.0
 14
-0.0000000000000568
 24
9.1499999999999773
 34
0.0
 50
180.0
1001
ACAD
1000
DSTYLE
1002
{
1070
    40
1040
1.0
1002
}
  0
VIEWPORT
  5
C4
 67
     1
  8
0
 10
143.06236603067589
 20
116.00969601843509
 30
0.0
 40
369.98580003443811
 41
256.8421457311839
 68
     1
 69
     1
1001
ACAD
1000
MVIEW
1002
{
1070
    16
1010
0.0
1020
0.0
1030
0.0
1010
0.0
1020
0.0
1030
1.0
1040
0.0
1040
256.8421457311839
1040
99.112914085388169
1040
143.07606935501099
1040
50.0
1040
0.0
1040
0.0
1070
     0
1070
     0
1070
     1
1070
     1
1070
     0
1070
     0
1070
     0
1070
     0
1040
0.0
1040
0.0
1040
0.0
1040
10.0
1040
10.0
1040
10.0
1040
10.0
1070
     0
1002
{
1002
}
1002
}
  0
ENDSEC
  0
EOF
