  0
SECTION
  2
HEADER
  9
$ACADVER
  1
AC1009
  9
$INSBASE
 10
0.0
 20
0.0
 30
0.0
  9
$EXTMIN
 10
-94.75055527878726
 20
20.380533666343009
 30
-0.2
  9
$EXTMAX
 10
61.750000071155
 20
270.00325607780201
 30
0.0000000048844772
  9
$LIMMIN
 10
0.0
 20
0.0
  9
$LIMMAX
 10
790.0
 20
790.0
  9
$ORTHOMODE
 70
     0
  9
$REGENMODE
 70
     1
  9
$FILLMODE
 70
     1
  9
$QTEXTMODE
 70
     0
  9
$MIRRTEXT
 70
     1
  9
$DRAGMODE
 70
     2
  9
$LTSCALE
 40
4.0
  9
$OSMODE
 70
   167
  9
$ATTMODE
 70
     1
  9
$TEXTSIZE
 40
3.5
  9
$TRACEWID
 40
0.05
  9
$TEXTSTYLE
  7
ISO
  9
$CLAYER
  8
0
  9
$CELTYPE
  6
BYLAYER
  9
$CECOLOR
 62
   256
  9
$DIMSCALE
 40
0.0
  9
$DIMASZ
 40
3.0
  9
$DIMEXO
 40
1.5
  9
$DIMDLI
 40
10.0
  9
$DIMRND
 40
0.0
  9
$DIMDLE
 40
0.0
  9
$DIMEXE
 40
1.5
  9
$DIMTP
 40
0.0
  9
$DIMTM
 40
0.0
  9
$DIMTXT
 40
3.0
  9
$DIMCEN
 40
-5.0
  9
$DIMTSZ
 40
0.0
  9
$DIMTOL
 70
     0
  9
$DIMLIM
 70
     0
  9
$DIMTIH
 70
     0
  9
$DIMTOH
 70
     0
  9
$DIMSE1
 70
     0
  9
$DIMSE2
 70
     0
  9
$DIMTAD
 70
     1
  9
$DIMZIN
 70
     8
  9
$DIMBLK
  1

  9
$DIMASO
 70
     1
  9
$DIMSHO
 70
     1
  9
$DIMPOST
  1

  9
$DIMAPOST
  1

  9
$DIMALT
 70
     0
  9
$DIMALTD
 70
     0
  9
$DIMALTF
 40
25.399999999999999
  9
$DIMLFAC
 40
-1.0
  9
$DIMTOFL
 70
     1
  9
$DIMTVP
 40
0.0
  9
$DIMTIX
 70
     0
  9
$DIMSOXD
 70
     0
  9
$DIMSAH
 70
     0
  9
$DIMBLK1
  1

  9
$DIMBLK2
  1

  9
$DIMSTYLE
  2
MASKIN
  9
$DIMCLRD
 70
   256
  9
$DIMCLRE
 70
   256
  9
$DIMCLRT
 70
     2
  9
$DIMTFAC
 40
1.0
  9
$DIMGAP
 40
1.0
  9
$LUNITS
 70
     2
  9
$LUPREC
 70
     8
  9
$SKETCHINC
 40
0.1
  9
$FILLETRAD
 40
0.0
  9
$AUNITS
 70
     0
  9
$AUPREC
 70
     8
  9
$MENU
  1
ACAD
  9
$ELEVATION
 40
0.0
  9
$PELEVATION
 40
0.0
  9
$THICKNESS
 40
0.0
  9
$LIMCHECK
 70
     0
  9
$BLIPMODE
 70
     0
  9
$CHAMFERA
 40
0.0
  9
$CHAMFERB
 40
0.0
  9
$SKPOLY
 70
     0
  9
$TDCREATE
 40
2458299.4382186462
  9
$TDUPDATE
 40
2458303.4277758221
  9
$TDINDWG
 40
0.0839169792
  9
$TDUSRTIMER
 40
0.0839167477
  9
$USRTIMER
 70
     1
  9
$ANGBASE
 50
0.0
  9
$ANGDIR
 70
     0
  9
$PDMODE
 70
     0
  9
$PDSIZE
 40
0.0
  9
$PLINEWID
 40
0.0
  9
$COORDS
 70
     1
  9
$SPLFRAME
 70
     0
  9
$SPLINETYPE
 70
     6
  9
$SPLINESEGS
 70
     8
  9
$ATTDIA
 70
     1
  9
$ATTREQ
 70
     1
  9
$HANDLING
 70
     1
  9
$HANDSEED
  5
2402
  9
$SURFTAB1
 70
     6
  9
$SURFTAB2
 70
     6
  9
$SURFTYPE
 70
     6
  9
$SURFU
 70
     6
  9
$SURFV
 70
     6
  9
$UCSNAME
  2

  9
$UCSORG
 10
0.0
 20
0.0
 30
0.0
  9
$UCSXDIR
 10
1.0
 20
0.0
 30
0.0
  9
$UCSYDIR
 10
0.0
 20
1.0
 30
0.0
  9
$PUCSNAME
  2

  9
$PUCSORG
 10
0.0
 20
0.0
 30
0.0
  9
$PUCSXDIR
 10
1.0
 20
0.0
 30
0.0
  9
$PUCSYDIR
 10
0.0
 20
1.0
 30
0.0
  9
$USERI1
 70
     0
  9
$USERI2
 70
     0
  9
$USERI3
 70
     0
  9
$USERI4
 70
     0
  9
$USERI5
 70
     0
  9
$USERR1
 40
0.0
  9
$USERR2
 40
0.0
  9
$USERR3
 40
0.0
  9
$USERR4
 40
0.0
  9
$USERR5
 40
0.0
  9
$WORLDVIEW
 70
     1
  9
$SHADEDGE
 70
     3
  9
$SHADEDIF
 70
    70
  9
$TILEMODE
 70
     1
  9
$MAXACTVP
 70
    32
  9
$PLIMCHECK
 70
     0
  9
$PEXTMIN
 10
1.0000000000000000E+020
 20
1.0000000000000000E+020
 30
1.0000000000000000E+020
  9
$PEXTMAX
 10
-1.0000000000000000E+020
 20
-1.0000000000000000E+020
 30
-1.0000000000000000E+020
  9
$PLIMMIN
 10
-5.069427490234375
 20
-5.8737497329711914
  9
$PLIMMAX
 10
291.89889526367187
 20
204.0995779037475
  9
$UNITMODE
 70
     0
  9
$VISRETAIN
 70
     1
  9
$PLINEGEN
 70
     0
  9
$PSLTSCALE
 70
     1
  0
ENDSEC
  0
SECTION
  2
TABLES
  0
TABLE
  2
VPORT
 70
     1
  0
VPORT
  2
*ACTIVE
 70
     0
 10
0.0
 20
0.0
 11
1.0
 21
1.0
 12
-16.510016485770329
 22
274.95488126155777
 13
0.0
 23
0.0
 14
1.0
 24
1.0
 15
0.0
 25
0.0
 16
0.0
 26
0.0
 36
1.0
 17
0.0
 27
0.0
 37
0.0
 40
354.95525405820888
 41
1.7265193370165739
 42
50.0
 43
0.0
 44
0.0
 50
0.0
 51
0.0
 71
     0
 72
   100
 73
     1
 74
     1
 75
     0
 76
     0
 77
     0
 78
     0
  0
ENDTAB
  0
TABLE
  2
LTYPE
 70
     1
  0
LTYPE
  2
CONTINUOUS
 70
     0
  3
Solid line
 72
    65
 73
     0
 40
0.0
  0
ENDTAB
  0
TABLE
  2
LAYER
 70
    23
  0
LAYER
  2
0
 70
     0
 62
     7
  6
CONTINUOUS
  0
LAYER
  2
DEFPOINTS
 70
     0
 62
     7
  6
CONTINUOUS
  0
LAYER
  2
SAPA_ARTIKELNR
 70
     0
 62
     4
  6
CONTINUOUS
  0
LAYER
  2
SAPA_ANSLUTNING
 70
     0
 62
     6
  6
CONTINUOUS
  0
LAYER
  2
SAPA_GLAS
 70
     0
 62
     4
  6
CONTINUOUS
  0
LAYER
  2
SAPA_FOGBAND
 70
     0
 62
     2
  6
CONTINUOUS
  0
LAYER
  2
SAPA_PROFIL
 70
     0
 62
     7
  6
CONTINUOUS
  0
LAYER
  2
SAPA_MATT
 70
     0
 62
     1
  6
CONTINUOUS
  0
ENDTAB
  0
TABLE
  2
STYLE
 70
     2
  0
STYLE
  2
STANDARD
 70
     0
 40
0.0
 41
1.0
 50
0.0
 71
     0
 42
0.2
  3
txt
  4

  0
STYLE
  2
ISO
 70
     0
 40
0.0
 41
1.0
 50
0.0
 71
     0
 42
3.5
  3
txt
  4

  0
ENDTAB
  0
TABLE
  2
VIEW
 70
     0
  0
ENDTAB
  0
TABLE
  2
UCS
 70
     0
  0
ENDTAB
  0
TABLE
  2
APPID
 70
    22
  0
APPID
  2
ACAD
 70
     0
  0
APPID
  2
ACAD_DSTYLE_DIMTEXT_FILL
 70
     0
  0
APPID
  2
ACAD_DSTYLE_DIMEXT_LENGTH
 70
     0
  0
APPID
  2
ACAD_DSTYLE_DIMEXT_ENABLED
 70
     0
  0
APPID
  2
ACAD_DSTYLE_DIM_LINETYPE
 70
     0
  0
APPID
  2
ACAD_DSTYLE_DIM_EXT1_LINETYPE
 70
     0
  0
APPID
  2
ACAD_DSTYLE_DIM_EXT2_LINETYPE
 70
     0
  0
APPID
  2
ACAD_DSTYLE_DIMJOGGED_JOGA
 70
     0
  0
APPID
  2
ACAD_DSTYLE_DIMARC_LENGTH_
 70
     0
  0
APPID
  2
ACAD_PSEXT
 70
     0
  0
APPID
  2
ACAD_MLEADERVER
 70
     0
  0
APPID
  2
ACAD_NAV_VCDISPLAY
 70
     0
  0
APPID
  2
GENIUS_GENODEF_13
 70
     0
  0
APPID
  2
RC_PROFILE
 70
     0
  0
APPID
  2
ACAECLAYERSTANDARD
 70
     0
  0
APPID
  2
GENIUS_GENOBJ-N-FIL_13
 70
     0
  0
APPID
  2
GENIUS_GENREC_14
 70
     0
  0
APPID
  2
GENIUS_GENOBJ-N-REC_13
 70
     0
  0
APPID
  2
ACCMTRANSPARENCY
 70
     0
  0
APPID
  2
GRADIENTCOLOR1ACI
 70
     0
  0
APPID
  2
GRADIENTCOLOR2ACI
 70
     0
  0
APPID
  2
ACAD_EXEMPT_FROM_CAD_STANDARDS
 70
     0
  0
ENDTAB
  0
TABLE
  2
DIMSTYLE
 70
     2
  0
DIMSTYLE
  2
STANDARD
 70
     0
  3

  4

  5

  6

  7

 40
1.0
 41
0.18
 42
0.0625
 43
0.38
 44
0.18
 45
0.0
 46
0.0
 47
0.0
 48
0.0
140
0.18
141
0.09
142
0.0
143
25.399999999999999
144
1.0
145
0.0
146
1.0
147
0.09
 71
     0
 72
     0
 73
     1
 74
     1
 75
     0
 76
     0
 77
     0
 78
     0
170
     0
171
     2
172
     0
173
     0
174
     0
175
     0
176
     0
177
     0
178
     0
  0
DIMSTYLE
  2
MASKIN
 70
     0
  3

  4

  5

  6

  7

 40
0.0
 41
3.0
 42
1.5
 43
10.0
 44
1.5
 45
0.0
 46
0.0
 47
0.0
 48
0.0
140
3.0
141
-5.0
142
0.0
143
25.399999999999999
144
-1.0
145
0.0
146
1.0
147
1.0
 71
     0
 72
     0
 73
     0
 74
     0
 75
     0
 76
     0
 77
     1
 78
     8
170
     0
171
     0
172
     1
173
     0
174
     0
175
     0
176
   256
177
   256
178
     2
  0
ENDTAB
  0
ENDSEC
  0
SECTION
  2
BLOCKS
  0
BLOCK
  8
0
  2
$MODEL_SPACE
 70
     0
 10
0.0
 20
0.0
 30
0.0
  3
$MODEL_SPACE
  1

  0
ENDBLK
  5
37
  8
0
  0
BLOCK
 67
     1
  8
0
  2
$PAPER_SPACE
 70
     0
 10
0.0
 20
0.0
 30
0.0
  3
$PAPER_SPACE
  1

  0
ENDBLK
  5
35
 67
     1
  8
0
  0
BLOCK
  8
0
  2
*D8
 70
     1
 10
0.0
 20
0.0
 30
0.0
  3
*D8
  1

  0
LINE
  5
21FA
  8
SAPA_MATT
 10
-12.75055527878726
 20
65.000000071509248
 30
0.0
 11
-90.75055527878726
 21
65.000000071509263
 31
0.0
  0
LINE
  5
21FB
  8
SAPA_MATT
 10
-12.75055527878726
 20
215.00000007150771
 30
0.0
 11
-90.750555278787218
 21
215.00000007150771
 31
0.0
  0
LINE
  5
21FC
  8
SAPA_MATT
 10
-89.25055527878726
 20
68.000000071509263
 30
0.0
 11
-89.250555278787246
 21
212.00000007150771
 31
0.0
  0
SOLID
  5
21FD
  8
SAPA_MATT
 10
-89.75055527878726
 20
68.000000071509263
 30
0.0
 11
-88.750555278787274
 21
68.000000071509263
 31
0.0
 12
-89.25055527878726
 22
65.000000071509263
 32
0.0
 13
-89.25055527878726
 23
65.000000071509263
 33
0.0
  0
SOLID
  5
21FE
  8
SAPA_MATT
 10
-89.750555278787232
 20
212.00000007150771
 30
0.0
 11
-88.750555278787232
 21
212.00000007150771
 31
0.0
 12
-89.250555278787246
 22
215.00000007150771
 32
0.0
 13
-89.250555278787246
 23
215.00000007150771
 33
0.0
  0
INSERT
  5
21FF
  8
0
  2
*U20
 10
0.0
 20
0.0
 30
0.0
  0
POINT
  5
2200
  8
DEFPOINTS
 62
     0
 10
-11.25055527878726
 20
65.000000071509248
 30
0.0
  0
POINT
  5
2201
  8
DEFPOINTS
 62
     0
 10
-11.25055527878726
 20
215.00000007150771
 30
0.0
  0
POINT
  5
2202
  8
DEFPOINTS
 62
     0
 10
-89.250555278787246
 20
215.00000007150771
 30
0.0
  0
ENDBLK
  5
216E
  8
0
  0
BLOCK
  8
0
  2
*D9
 70
     1
 10
0.0
 20
0.0
 30
0.0
  3
*D9
  1

  0
LINE
  5
2364
  8
SAPA_MATT
 10
-14.08255181678828
 20
147.0000000002739
 30
0.0
 11
-78.750555278787246
 21
147.00000000027401
 31
0.0
  0
LINE
  5
2365
  8
SAPA_MATT
 10
-12.75055527878726
 20
64.999999999994984
 30
0.0
 11
-78.75055527878726
 21
64.999999999995012
 31
0.0
  0
LINE
  5
2366
  8
SAPA_MATT
 10
-77.250555278787246
 20
144.00000000027401
 30
0.0
 11
-77.25055527878726
 21
67.999999999995012
 31
0.0
  0
TEXT
  8
SAPA_MATT
  40
3
  5
237D
  62
2
  72
0
  71
0
 10
-84.9900
 20
96.3323
 30
0.000000
  1
82
  7
ISO
  0
SOLID
  5
2368
  8
SAPA_MATT
 10
-77.750555278787246
 20
144.00000000027401
 30
0.0
 11
-76.750555278787246
 21
144.00000000027401
 31
0.0
 12
-77.250555278787246
 22
147.00000000027401
 32
0.0
 13
-77.250555278787246
 23
147.00000000027401
 33
0.0
  0
SOLID
  5
2369
  8
SAPA_MATT
 10
-77.75055527878726
 20
67.999999999995012
 30
0.0
 11
-76.75055527878726
 21
67.999999999995012
 31
0.0
 12
-77.25055527878726
 22
64.999999999995012
 32
0.0
 13
-77.25055527878726
 23
64.999999999995012
 33
0.0
  0
POINT
  5
236A
  8
DEFPOINTS
 62
     0
 10
-12.58255181678828
 20
147.0000000002739
 30
0.0
  0
POINT
  5
236B
  8
DEFPOINTS
 62
     0
 10
-11.25055527878726
 20
64.999999999994984
 30
0.0
  0
POINT
  5
236C
  8
DEFPOINTS
 62
     0
 10
-77.25055527878726
 20
64.999999999995012
 30
0.0
  0
ENDBLK
  5
217A
  8
0
  0
BLOCK
  8
0
  2
*D10
 70
     1
 10
0.0
 20
0.0
 30
0.0
  3
*D10
  1

  0
LINE
  5
235B
  8
SAPA_MATT
 10
-29.74999992884139
 20
207.00000014334731
 30
0.0
 11
-78.750555278787246
 21
207.00000014334731
 31
0.0
  0
LINE
  5
235C
  8
SAPA_MATT
 10
-15.250555278779981
 20
147.00000014336069
 30
0.0
 11
-78.75055527878726
 21
147.00000014336069
 31
0.0
  0
LINE
  5
235D
  8
SAPA_MATT
  6
CONTINUOUS
 10
-77.250555278787246
 20
204.00000014334731
 30
0.0
 11
-77.25055527878726
 21
150.00000014336069
 31
0.0
  0
SOLID
  5
235E
  8
SAPA_MATT
 10
-77.750555278787246
 20
204.00000014334731
 30
0.0
 11
-76.750555278787246
 21
204.00000014334731
 31
0.0
 12
-77.250555278787246
 22
207.00000014334731
 32
0.0
 13
-77.250555278787246
 23
207.00000014334731
 33
0.0
  0
SOLID
  5
235F
  8
SAPA_MATT
 10
-77.75055527878726
 20
150.00000014336069
 30
0.0
 11
-76.75055527878726
 21
150.00000014336069
 31
0.0
 12
-77.25055527878726
 22
147.00000014336069
 32
0.0
 13
-77.25055527878726
 23
147.00000014336069
 33
0.0
  0
TEXT
  8
SAPA_MATT
  40
3
  5
237E
  62
2
  72
0
  71
0
 10
-85.7506
 20
171.690
 30
0.000000
  1
60
  7
ISO
  0
POINT
  5
2361
  8
DEFPOINTS
 62
     0
 10
-28.24999992884139
 20
207.00000014334731
 30
0.0
  0
POINT
  5
2362
  8
DEFPOINTS
 62
     0
 10
-13.750555278779981
 20
147.00000014336069
 30
0.0
  0
POINT
  5
2363
  8
DEFPOINTS
 62
     0
 10
-77.25055527878726
 20
147.00000014336069
 30
0.0
  0
ENDBLK
  5
2186
  8
0
  0
BLOCK
  8
0
  2
*D11
 70
     1
 10
0.0
 20
0.0
 30
0.0
  3
*D11
  1

  0
LINE
  5
21DD
  8
SAPA_MATT
 10
-12.75055527878726
 20
215.00000014302279
 30
0.0
 11
-78.750555278787232
 21
215.00000014302279
 31
0.0
  0
LINE
  5
21DE
  8
SAPA_MATT
 10
-29.74999992884139
 20
207.00000014334731
 30
0.0
 11
-78.750555278787232
 21
207.00000014334731
 31
0.0
  0
LINE
  5
21DF
  8
SAPA_MATT
 10
-77.250555278787232
 20
218.00000014302279
 30
0.0
 11
-77.250555278787232
 21
221.00000014302279
 31
0.0
  0
LINE
  5
21E0
  8
SAPA_MATT
 10
-77.250555278787232
 20
204.00000014334731
 30
0.0
 11
-77.250555278787232
 21
201.00000014334731
 31
0.0
  0
LINE
  5
21E1
  8
SAPA_MATT
 10
-77.250555278787232
 20
215.00000014302279
 30
0.0
 11
-77.250555278787232
 21
207.00000014334731
 31
0.0
  0
SOLID
  5
21E2
  8
SAPA_MATT
 10
-77.750555278787232
 20
218.00000014302279
 30
0.0
 11
-76.750555278787232
 21
218.00000014302279
 31
0.0
 12
-77.250555278787232
 22
215.00000014302279
 32
0.0
 13
-77.250555278787232
 23
215.00000014302279
 33
0.0
  0
SOLID
  5
21E3
  8
SAPA_MATT
 10
-77.750555278787232
 20
204.00000014334731
 30
0.0
 11
-76.750555278787232
 21
204.00000014334731
 31
0.0
 12
-77.250555278787232
 22
207.00000014334731
 32
0.0
 13
-77.250555278787232
 23
207.00000014334731
 33
0.0
  0
INSERT
  5
21E4
  8
0
  2
*U19
 10
0.0
 20
0.0
 30
0.0
  0
POINT
  5
21E5
  8
DEFPOINTS
 62
     0
 10
-11.25055527878726
 20
215.00000014302279
 30
0.0
  0
POINT
  5
21E6
  8
DEFPOINTS
 62
     0
 10
-28.24999992884139
 20
207.00000014334731
 30
0.0
  0
POINT
  5
21E7
  8
DEFPOINTS
 62
     0
 10
-77.250555278787232
 20
207.00000014334731
 30
0.0
  0
ENDBLK
  5
2192
  8
0
  0
BLOCK
  8
0
  2
*D12
 70
     1
 10
0.0
 20
0.0
 30
0.0
  3
*D12
  1

  0
LINE
  5
21D4
  8
SAPA_MATT
 10
-44.750555278787722
 20
206.95000000050979
 30
0.0
 11
-44.750555278787722
 21
257.99999992826611
 31
0.0
  0
LINE
  5
21D5
  8
SAPA_MATT
 10
46.749444721210921
 20
216.19999999998819
 30
0.0
 11
46.749444721210921
 21
257.99999992826611
 31
0.0
  0
LINE
  5
21D6
  8
SAPA_MATT
 10
-41.750555278787708
 20
256.49999992826611
 30
0.0
 11
43.749444721210921
 21
256.49999992826611
 31
0.0
  0
SOLID
  5
21D7
  8
SAPA_MATT
 10
-41.750555278787708
 20
256.99999992826611
 30
0.0
 11
-41.750555278787708
 21
255.99999992826611
 31
0.0
 12
-44.750555278787722
 22
256.49999992826611
 32
0.0
 13
-44.750555278787722
 23
256.49999992826611
 33
0.0
  0
SOLID
  5
21D8
  8
SAPA_MATT
 10
43.749444721210921
 20
256.99999992826611
 30
0.0
 11
43.749444721210921
 21
255.99999992826611
 31
0.0
 12
46.749444721210921
 22
256.49999992826611
 32
0.0
 13
46.749444721210921
 23
256.49999992826611
 33
0.0
  0
INSERT
  5
21D9
  8
0
  2
*U18
 10
0.0
 20
0.0
 30
0.0
  0
POINT
  5
21DA
  8
DEFPOINTS
 62
     0
 10
-44.750555278787722
 20
205.45000000050979
 30
0.0
  0
POINT
  5
21DB
  8
DEFPOINTS
 62
     0
 10
46.749444721210921
 20
214.69999999998819
 30
0.0
  0
POINT
  5
21DC
  8
DEFPOINTS
 62
     0
 10
46.749444721210921
 20
256.49999992826611
 30
0.0
  0
ENDBLK
  5
21A0
  8
0
  0
BLOCK
  8
0
  2
*D13
 70
     1
 10
0.0
 20
0.0
 30
0.0
  3
*D13
  1

  0
LINE
  5
21CB
  8
SAPA_MATT
 10
46.749444721210921
 20
216.19999999998819
 30
0.0
 11
46.749444721210921
 21
245.99999992826611
 31
0.0
  0
LINE
  5
21CC
  8
SAPA_MATT
 10
-13.25055527878726
 20
214.49999999999341
 30
0.0
 11
-13.25055527878726
 21
245.99999992826611
 31
0.0
  0
LINE
  5
21CD
  8
SAPA_MATT
 10
43.749444721210921
 20
244.49999992826611
 30
0.0
 11
-10.25055527878726
 21
244.49999992826611
 31
0.0
  0
SOLID
  5
21CE
  8
SAPA_MATT
 10
43.749444721210921
 20
244.99999992826611
 30
0.0
 11
43.749444721210921
 21
243.99999992826611
 31
0.0
 12
46.749444721210921
 22
244.49999992826611
 32
0.0
 13
46.749444721210921
 23
244.49999992826611
 33
0.0
  0
SOLID
  5
21CF
  8
SAPA_MATT
 10
-10.25055527878726
 20
244.99999992826611
 30
0.0
 11
-10.25055527878726
 21
243.99999992826611
 31
0.0
 12
-13.25055527878726
 22
244.49999992826611
 32
0.0
 13
-13.25055527878726
 23
244.49999992826611
 33
0.0
  0
INSERT
  5
21D0
  8
0
  2
*U17
 10
0.0
 20
0.0
 30
0.0
  0
POINT
  5
21D1
  8
DEFPOINTS
 62
     0
 10
46.749444721210921
 20
214.69999999998819
 30
0.0
  0
POINT
  5
21D2
  8
DEFPOINTS
 62
     0
 10
-13.25055527878726
 20
212.99999999999341
 30
0.0
  0
POINT
  5
21D3
  8
DEFPOINTS
 62
     0
 10
-13.25055527878726
 20
244.49999992826611
 30
0.0
  0
ENDBLK
  5
21AC
  8
0
  0
BLOCK
  8
0
  2
*D14
 70
     1
 10
0.0
 20
0.0
 30
0.0
  3
*D14
  1

  0
LINE
  5
2352
  8
SAPA_MATT
 10
-13.25055527878726
 20
214.49999999999321
 30
0.0
 11
-13.25055527878726
 21
246.00000000001339
 31
0.0
  0
LINE
  5
2353
  8
SAPA_MATT
 10
-44.750555278787722
 20
206.95000000050979
 30
0.0
 11
-44.750555278787722
 21
246.00000000001339
 31
0.0
  0
LINE
  5
2354
  8
SAPA_MATT
 10
-16.25055527878726
 20
244.50000000001339
 30
0.0
 11
-41.750555278787708
 21
244.50000000001339
 31
0.0
  0
SOLID
  5
2355
  8
SAPA_MATT
 10
-16.25055527878726
 20
245.00000000001339
 30
0.0
 11
-16.25055527878726
 21
244.00000000001339
 31
0.0
 12
-13.25055527878726
 22
244.50000000001339
 32
0.0
 13
-13.25055527878726
 23
244.50000000001339
 33
0.0
  0
SOLID
  5
2356
  8
SAPA_MATT
 10
-41.750555278787708
 20
245.00000000001339
 30
0.0
 11
-41.750555278787708
 21
244.00000000001339
 31
0.0
 12
-44.750555278787722
 22
244.50000000001339
 32
0.0
 13
-44.750555278787722
 23
244.50000000001339
 33
0.0
  0
TEXT
  8
SAPA_MATT
  40
3
  5
237F
  62
2
  72
0
  71
0
 10
-35.0006
 20
241.690
 30
0.000000
  1
31.5
  7
ISO
  0
POINT
  5
2358
  8
DEFPOINTS
 62
     0
 10
-13.25055527878726
 20
212.99999999999321
 30
0.0
  0
POINT
  5
2359
  8
DEFPOINTS
 62
     0
 10
-44.750555278787722
 20
205.45000000050979
 30
0.0
  0
POINT
  5
235A
  8
DEFPOINTS
 62
     0
 10
-44.750555278787722
 20
244.50000000001339
 30
0.0
  0
ENDBLK
  5
21B8
  8
0
  0
BLOCK
  8
0
  2
*X15
 70
     1
 10
0.0
 20
0.0
 30
0.0
  3
*X15
  1

  0
LINE
  5
225D
  8
0
 62
     0
 10
-12.602274982379569
 20
214.84085822244401
 30
0.0
 11
-12.398891655627059
 21
214.63747489569141
 31
0.0
  0
LINE
  5
225E
  8
0
 62
     0
 10
-12.484032271911399
 20
215.84514752710939
 30
0.0
 11
-11.606886008517961
 21
214.96800126371599
 31
0.0
  0
LINE
  5
225F
  8
0
 62
     0
 10
-12.40370016345879
 20
216.8873474337905
 30
0.0
 11
-10.51635286758569
 21
215.0000001379174
 31
0.0
  0
LINE
  5
2260
  8
0
 62
     0
 10
-12.365503446455699
 20
217.97168273192099
 30
0.0
 11
-9.393820844646612
 21
215.000000130112
 31
0.0
  0
LINE
  5
2261
  8
0
 62
     0
 10
-12.37478430577268
 20
219.10349560637169
 30
0.0
 11
-8.2712888217075147
 21
215.00000012230649
 31
0.0
  0
LINE
  5
2262
  8
0
 62
     0
 10
-12.43845731152309
 20
220.28970062725571
 30
0.0
 11
-7.1487567987684377
 21
215.00000011450101
 31
0.0
  0
LINE
  5
2263
  8
0
 62
     0
 10
-12.56573827503308
 20
221.53951360589929
 30
0.0
 11
-6.0262247758293546
 21
215.00000010669561
 31
0.0
  0
LINE
  5
2264
  8
0
 62
     0
 10
-12.769381001523261
 20
222.8656883475231
 30
0.0
 11
-4.9036927528902856
 21
215.00000009889021
 31
0.0
  0
LINE
  5
2265
  8
0
 62
     0
 10
-13.06793771327235
 20
224.2867770744059
 30
0.0
 11
-3.781160729951182
 21
215.0000000910847
 31
0.0
  0
LINE
  5
2266
  8
0
 62
     0
 10
-3.0247765351559428
 20
215.3661479114231
 30
0.0
 11
-2.6586287070121202
 21
215.0000000832793
 31
0.0
  0
LINE
  5
2267
  8
0
 62
     0
 10
-12.65862869487642
 20
225.0000000711436
 30
0.0
 11
-6.3333619601972231
 21
218.67473333646441
 31
0.0
  0
LINE
  5
2268
  8
0
 62
     0
 10
-1.570369798632945
 20
215.03427319003379
 30
0.0
 11
-1.5360966840730219
 21
215.00000007547379
 31
0.0
  0
LINE
  5
2269
  8
0
 62
     0
 10
-11.536096679742769
 20
225.0000000711436
 30
0.0
 11
-6.5344057875734469
 21
219.9983091789743
 31
0.0
  0
LINE
  5
226A
  8
0
 62
     0
 10
-10.41356466460914
 20
225.0000000711436
 30
0.0
 11
-6.4194767989965982
 21
221.0059122055311
 31
0.0
  0
LINE
  5
226B
  8
0
 62
     0
 10
-9.2910326494754898
 20
225.0000000711436
 30
0.0
 11
-6.1372023978054102
 21
221.84616981947349
 31
0.0
  0
LINE
  5
226C
  8
0
 62
     0
 10
-8.1685006343418607
 20
225.0000000711436
 30
0.0
 11
-5.7364304031934017
 21
222.56792983999509
 31
0.0
  0
LINE
  5
226D
  8
0
 62
     0
 10
-7.0459686192082174
 20
225.0000000711436
 30
0.0
 11
-5.238969719733773
 21
223.1930011716691
 31
0.0
  0
LINE
  5
226E
  8
0
 62
     0
 10
-5.9234366040745812
 20
225.0000000711436
 30
0.0
 11
-4.6548669665114266
 21
223.7314304335805
 31
0.0
  0
LINE
  5
226F
  8
0
 62
     0
 10
-4.8009045889409228
 20
225.0000000711436
 30
0.0
 11
-3.98711872014163
 21
224.1862142023443
 31
0.0
  0
LINE
  5
2270
  8
0
 62
     0
 10
-3.678372573807287
 20
225.0000000711436
 30
0.0
 11
-3.2328373012258629
 21
224.55446479856221
 31
0.0
  0
LINE
  5
2271
  8
0
 62
     0
 10
-2.5558405586736579
 20
225.0000000711436
 30
0.0
 11
-2.3821291894092118
 21
224.82628870187921
 31
0.0
  0
LINE
  5
2272
  8
0
 62
     0
 10
-1.4333085435399999
 20
225.0000000711436
 30
0.0
 11
-1.413478167729195
 21
224.98016969533279
 31
0.0
  0
LINE
  5
2273
  8
0
 62
     0
 10
-1.9240365703765709
 20
215.00000007817141
 30
0.0
 11
-1.8535909928488641
 21
215.0704456556991
 31
0.0
  0
LINE
  5
2274
  8
0
 62
     0
 10
-3.0465685777047891
 20
215.00000008597681
 30
0.0
 11
-2.766905857260368
 21
215.2796628064213
 31
0.0
  0
LINE
  5
2275
  8
0
 62
     0
 10
-4.1691005850330072
 20
215.00000009378229
 30
0.0
 11
-3.5736679390841881
 21
215.595432739731
 31
0.0
  0
LINE
  5
2276
  8
0
 62
     0
 10
-5.2916325923611964
 20
215.00000010158769
 30
0.0
 11
-4.2893708154354471
 21
216.00226187851339
 31
0.0
  0
LINE
  5
2277
  8
0
 62
     0
 10
-6.4141645996894141
 20
215.00000010939311
 30
0.0
 11
-4.9205441466456534
 21
216.49362056243689
 31
0.0
  0
LINE
  5
2278
  8
0
 62
     0
 10
-7.5366966070176167
 20
215.00000011719851
 30
0.0
 11
-5.467500206839631
 21
217.0691965173765
 31
0.0
  0
LINE
  5
2279
  8
0
 62
     0
 10
-8.659228614345821
 20
215.00000012500399
 30
0.0
 11
-5.9244525763169804
 21
217.7347761630329
 31
0.0
  0
LINE
  5
227A
  8
0
 62
     0
 10
-9.7817606216740245
 20
215.00000013280939
 30
0.0
 11
-6.2771300805242731
 21
218.50463067395921
 31
0.0
  0
LINE
  5
227B
  8
0
 62
     0
 10
-10.90429262900223
 20
215.0000001406149
 30
0.0
 11
-6.4950357922678563
 21
219.40925697734929
 31
0.0
  0
LINE
  5
227C
  8
0
 62
     0
 10
-2.1491608104287532
 20
224.87766397432199
 30
0.0
 11
-2.0268247136071258
 21
225.0000000711436
 31
0.0
  0
LINE
  5
227D
  8
0
 62
     0
 10
-12.36835293708169
 20
214.65847184766909
 30
0.0
 11
-6.50353706915726
 21
220.52328771559351
 31
0.0
  0
LINE
  5
227E
  8
0
 62
     0
 10
-3.930909252742921
 20
224.21844754714149
 30
0.0
 11
-3.1493567287407549
 21
225.0000000711436
 31
0.0
  0
LINE
  5
227F
  8
0
 62
     0
 10
-12.504387258972359
 20
215.644969540912
 30
0.0
 11
-5.9751515359898368
 21
222.17420526389449
 31
0.0
  0
LINE
  5
2280
  8
0
 62
     0
 10
-12.404856457213009
 20
216.86703235780499
 30
0.0
 11
-4.2718887438744133
 21
225.0000000711436
 31
0.0
  0
LINE
  5
2281
  8
0
 62
     0
 10
-12.36475959115627
 20
218.0296612389954
 30
0.0
 11
-5.3944207590080557
 21
225.0000000711436
 31
0.0
  0
LINE
  5
2282
  8
0
 62
     0
 10
-12.37595108121215
 20
219.1410017640732
 30
0.0
 11
-6.5169527741416848
 21
225.0000000711436
 31
0.0
  0
LINE
  5
2283
  8
0
 62
     0
 10
-12.432239206912991
 20
220.20724565350599
 30
0.0
 11
-7.6394847892753432
 21
225.0000000711436
 31
0.0
  0
LINE
  5
2284
  8
0
 62
     0
 10
-12.52879062614987
 20
221.23322624940269
 30
0.0
 11
-8.7620168044089723
 21
225.0000000711436
 31
0.0
  0
LINE
  5
2285
  8
0
 62
     0
 10
-12.661751019292421
 20
222.22279787139379
 30
0.0
 11
-9.8845488195426299
 21
225.0000000711436
 31
0.0
  0
LINE
  5
2286
  8
0
 62
     0
 10
-12.827993004687629
 20
223.17908790113231
 30
0.0
 11
-11.00708083467627
 21
225.0000000711436
 31
0.0
  0
LINE
  5
2287
  8
0
 62
     0
 10
-13.02494270271225
 20
224.10467021824121
 30
0.0
 11
-12.129612849809909
 21
225.0000000711436
 31
0.0
  0
ENDBLK
  5
2289
  8
0
  0
BLOCK
  8
0
  2
*X16
 70
     1
 10
0.0
 20
0.0
 30
0.0
  3
*X16
  1

  0
LINE
  5
228B
  8
0
 62
     0
 10
4.1673894712811821
 20
218.47810465968331
 30
0.0
 11
4.5063830584806066
 21
218.67382269850651
 31
0.0
  0
LINE
  5
228C
  8
0
 62
     0
 10
2.1051664785194868
 20
217.2874796596833
 30
0.0
 11
2.7925741427733879
 21
217.68435465968329
 31
0.0
  0
LINE
  5
228D
  8
0
 62
     0
 10
0.0429434857577935
 20
216.0968546596834
 30
0.0
 11
0.7303511500116944
 21
216.49372965968331
 31
0.0
  0
LINE
  5
228E
  8
0
 62
     0
 10
-1.7584318626965381
 20
215.05683011734169
 30
0.0
 11
-1.33187184275
 21
215.3031046596833
 31
0.0
  0
LINE
  5
228F
  8
0
 62
     0
 10
3.4799819712811861
 20
219.66872937518721
 30
0.0
 11
4.1673896355350868
 21
220.06560437518721
 31
0.0
  0
LINE
  5
2290
  8
0
 62
     0
 10
1.417758978519492
 20
218.4781043751872
 30
0.0
 11
2.1051666427733919
 21
218.87497937518719
 31
0.0
  0
LINE
  5
2291
  8
0
 62
     0
 10
-0.6444640142422023
 20
217.28747937518719
 30
0.0
 11
0.0429436500116984
 21
217.68435437518721
 31
0.0
  0
LINE
  5
2292
  8
0
 62
     0
 10
-2.7066870070038962
 20
216.09685437518729
 30
0.0
 11
-2.0192793427499951
 21
216.49372937518731
 31
0.0
  0
LINE
  5
2293
  8
0
 62
     0
 10
2.7925744712811751
 20
220.85935409069111
 30
0.0
 11
3.4799821355350748
 21
221.25622909069111
 31
0.0
  0
LINE
  5
2294
  8
0
 62
     0
 10
0.7303514785194807
 20
219.6687290906911
 30
0.0
 11
1.4177591427733811
 21
220.0656040906911
 31
0.0
  0
LINE
  5
2295
  8
0
 62
     0
 10
-1.3318715142422131
 20
218.47810409069109
 30
0.0
 11
-0.6444638499883131
 21
218.87497909069111
 31
0.0
  0
LINE
  5
2296
  8
0
 62
     0
 10
-3.3940945070039081
 20
217.28747909069111
 30
0.0
 11
-2.706686842750007
 21
217.68435409069119
 31
0.0
  0
LINE
  5
2297
  8
0
 62
     0
 10
-4.8609872614663914
 20
216.44056816402991
 30
0.0
 11
-4.7689098355117006
 21
216.4937290906912
 31
0.0
  0
LINE
  5
2298
  8
0
 62
     0
 10
2.1051669712811938
 20
222.04997880619501
 30
0.0
 11
2.792574635535094
 21
222.44685380619501
 31
0.0
  0
LINE
  5
2299
  8
0
 62
     0
 10
0.0429439785195003
 20
220.85935380619509
 30
0.0
 11
0.730351642773401
 21
221.256228806195
 31
0.0
  0
LINE
  5
229A
  8
0
 62
     0
 10
-2.0192790142421941
 20
219.66872880619511
 30
0.0
 11
-1.331871349988293
 21
220.06560380619501
 31
0.0
  0
LINE
  5
229B
  8
0
 62
     0
 10
-4.0815020070038877
 20
218.47810380619509
 30
0.0
 11
-3.394094342749987
 21
218.87497880619509
 31
0.0
  0
LINE
  5
229C
  8
0
 62
     0
 10
-5.7797727805675967
 20
217.4976067179212
 30
0.0
 11
-5.456317335511681
 21
217.68435380619511
 31
0.0
  0
LINE
  5
229D
  8
0
 62
     0
 10
1.4177594712811701
 20
223.24060352169889
 30
0.0
 11
2.105167135535071
 21
223.63747852169891
 31
0.0
  0
LINE
  5
229E
  8
0
 62
     0
 10
-0.6444635214805237
 20
222.0499785216989
 30
0.0
 11
0.0429441427733779
 21
222.4468535216989
 31
0.0
  0
LINE
  5
229F
  8
0
 62
     0
 10
-2.7066865142422181
 20
220.85935352169889
 30
0.0
 11
-2.0192788499883161
 21
221.25622852169889
 31
0.0
  0
LINE
  5
22A0
  8
0
 62
     0
 10
-4.7689095070039116
 20
219.66872852169899
 30
0.0
 11
-4.0815018427500096
 21
220.06560352169899
 31
0.0
  0
LINE
  5
22A1
  8
0
 62
     0
 10
-6.3565279409837254
 20
218.7521165914703
 30
0.0
 11
-6.143724835511704
 21
218.87497852169901
 31
0.0
  0
LINE
  5
22A2
  8
0
 62
     0
 10
0.7303519712811957
 20
224.43122823720279
 30
0.0
 11
1.125642085963187
 21
224.6594490913225
 31
0.0
  0
LINE
  5
22A3
  8
0
 62
     0
 10
-1.3318710214804981
 20
223.24060323720289
 30
0.0
 11
-0.6444633572265981
 21
223.63747823720291
 31
0.0
  0
LINE
  5
22A4
  8
0
 62
     0
 10
-3.3940940142421931
 20
222.04997823720291
 30
0.0
 11
-2.7066863499882921
 21
222.4468532372029
 31
0.0
  0
LINE
  5
22A5
  8
0
 62
     0
 10
-5.4563170070038867
 20
220.8593532372029
 30
0.0
 11
-4.7689093427499856
 21
221.25622823720289
 31
0.0
  0
LINE
  5
22A6
  8
0
 62
     0
 10
-2.0192785214805071
 20
224.43122795270679
 30
0.0
 11
-1.331870857226606
 21
224.8281029527067
 31
0.0
  0
LINE
  5
22A7
  8
0
 62
     0
 10
-4.0815015142422011
 20
223.24060295270681
 30
0.0
 11
-3.3940938499883009
 21
223.63747795270669
 31
0.0
  0
LINE
  5
22A8
  8
0
 62
     0
 10
-5.9960827970484161
 20
222.13521893369321
 30
0.0
 11
-5.4563168427499953
 21
222.44685295270679
 31
0.0
  0
LINE
  5
22A9
  8
0
 62
     0
 10
-1.331900587182175
 20
215.30309584030459
 30
0.0
 11
-0.8084319768877424
 21
215.0008710972387
 31
0.0
  0
LINE
  5
22AA
  8
0
 62
     0
 10
-3.394123579943868
 20
216.49372084030449
 30
0.0
 11
-2.7067159156899678
 21
216.0968458403045
 31
0.0
  0
LINE
  5
22AB
  8
0
 62
     0
 10
-5.4563465727055611
 20
217.6843458403045
 30
0.0
 11
-4.76893890845166
 21
217.28747084030451
 31
0.0
  0
LINE
  5
22AC
  8
0
 62
     0
 10
-0.644493087182168
 20
216.49372055580841
 30
0.0
 11
0.0429145770717319
 21
216.09684555580839
 31
0.0
  0
LINE
  5
22AD
  8
0
 62
     0
 10
-2.7067160799438601
 20
217.68434555580839
 30
0.0
 11
-2.0193084156899608
 21
217.2874705558084
 31
0.0
  0
LINE
  5
22AE
  8
0
 62
     0
 10
-4.7689390727055532
 20
218.8749705558084
 30
0.0
 11
-4.081531408451653
 21
218.47809555580841
 31
0.0
  0
LINE
  5
22AF
  8
0
 62
     0
 10
-6.5331315133067642
 20
219.8935275362918
 30
0.0
 11
-6.1437544012133456
 21
219.66872055580839
 31
0.0
  0
LINE
  5
22B0
  8
0
 62
     0
 10
2.1051374055795251
 20
216.49372027131241
 30
0.0
 11
2.6851249545031721
 21
216.15886430381471
 31
0.0
  0
LINE
  5
22B1
  8
0
 62
     0
 10
0.0429144128178329
 20
217.6843452713124
 30
0.0
 11
0.7303220770717327
 21
217.2874702713124
 31
0.0
  0
LINE
  5
22B2
  8
0
 62
     0
 10
-2.0193085799438588
 20
218.87497027131241
 30
0.0
 11
-1.3319009156899599
 21
218.4780952713123
 31
0.0
  0
LINE
  5
22B3
  8
0
 62
     0
 10
-4.0815315727055523
 20
220.0655952713123
 30
0.0
 11
-3.394123908451653
 21
219.66872027131231
 31
0.0
  0
LINE
  5
22B4
  8
0
 62
     0
 10
-6.1437545654672441
 20
221.25622027131229
 30
0.0
 11
-5.4563469012133448
 21
220.85934527131229
 31
0.0
  0
LINE
  5
22B5
  8
0
 62
     0
 10
2.7925449055795331
 20
217.68434498681631
 30
0.0
 11
3.4799525698334319
 21
217.28746998681629
 31
0.0
  0
LINE
  5
22B6
  8
0
 62
     0
 10
0.7303219128178405
 20
218.8749699868163
 30
0.0
 11
1.41772957707174
 21
218.47809498681619
 31
0.0
  0
LINE
  5
22B7
  8
0
 62
     0
 10
-1.331901079943852
 20
220.06559498681619
 30
0.0
 11
-0.6444934156899529
 21
219.6687199868162
 31
0.0
  0
LINE
  5
22B8
  8
0
 62
     0
 10
-3.3941240727055448
 20
221.25621998681621
 30
0.0
 11
-2.7067164084516451
 21
220.85934498681621
 31
0.0
  0
LINE
  5
22B9
  8
0
 62
     0
 10
-5.456347065467237
 20
222.44684498681619
 30
0.0
 11
-4.7689394012133377
 21
222.04996998681619
 31
0.0
  0
LINE
  5
22BA
  8
0
 62
     0
 10
3.4799524055795281
 20
218.87496970232019
 30
0.0
 11
4.1673600698334274
 21
218.47809470232019
 31
0.0
  0
LINE
  5
22BB
  8
0
 62
     0
 10
1.417729412817835
 20
220.0655947023202
 30
0.0
 11
2.1051370770717339
 21
219.6687197023202
 31
0.0
  0
LINE
  5
22BC
  8
0
 62
     0
 10
-0.6444935799438573
 20
221.2562197023201
 30
0.0
 11
0.0429140843100417
 21
220.85934470232019
 31
0.0
  0
LINE
  5
22BD
  8
0
 62
     0
 10
-2.7067165727055489
 20
222.44684470232011
 30
0.0
 11
-2.0193089084516509
 21
222.0499697023202
 31
0.0
  0
LINE
  5
22BE
  8
0
 62
     0
 10
-4.7689395654672424
 20
223.63746970232009
 30
0.0
 11
-4.0815319012133431
 21
223.2405947023201
 31
0.0
  0
LINE
  5
22BF
  8
0
 62
     0
 10
4.1673599055795343
 20
220.06559441782409
 30
0.0
 11
4.701090747194578
 21
219.75744477274279
 31
0.0
  0
LINE
  5
22C0
  8
0
 62
     0
 10
2.1051369128178412
 20
221.25621941782401
 30
0.0
 11
2.7925445770717392
 21
220.85934441782399
 31
0.0
  0
LINE
  5
22C1
  8
0
 62
     0
 10
0.0429139200561486
 20
222.446844417824
 30
0.0
 11
0.7303215843100466
 21
222.049969417824
 31
0.0
  0
LINE
  5
22C2
  8
0
 62
     0
 10
-2.0193090727055441
 20
223.63746941782401
 30
0.0
 11
-1.3319014084516461
 21
223.24059441782401
 31
0.0
  0
LINE
  5
22C3
  8
0
 62
     0
 10
-3.448482641187943
 20
224.46260316230601
 30
0.0
 11
-3.3941244012133391
 21
224.431219417824
 31
0.0
  0
LINE
  5
22C4
  8
0
 62
     0
 10
2.7925444128178429
 20
222.446844133328
 30
0.0
 11
3.4799520770717409
 21
222.04996913332801
 31
0.0
  0
LINE
  5
22C5
  8
0
 62
     0
 10
0.7303214200561508
 20
223.6374691333279
 30
0.0
 11
1.4177290843100481
 21
223.2405941333279
 31
0.0
  0
LINE
  5
22C6
  8
0
 62
     0
 10
-1.3319015727055421
 20
224.82809413332791
 30
0.0
 11
-0.6444939084516448
 21
224.43121913332789
 31
0.0
  0
LINE
  5
22C7
  8
0
 62
     0
 10
3.4799588114815738
 20
221.2562501434025
 30
0.0
 11
3.4799588114815738
 21
222.05000014340251
 31
0.0
  0
LINE
  5
22C8
  8
0
 62
     0
 10
3.4799588114815738
 20
218.8750001434025
 30
0.0
 11
3.4799588114815738
 21
219.66875014340249
 31
0.0
  0
LINE
  5
22C9
  8
0
 62
     0
 10
3.4799588114815738
 20
216.8809765822246
 30
0.0
 11
3.4799588114815738
 21
217.2875001434025
 31
0.0
  0
LINE
  5
22CA
  8
0
 62
     0
 10
2.1051438114815761
 20
223.63750014340249
 30
0.0
 11
2.1051438114815761
 21
224.2179199639836
 31
0.0
  0
LINE
  5
22CB
  8
0
 62
     0
 10
2.1051438114815761
 20
221.2562501434025
 30
0.0
 11
2.1051438114815761
 21
222.05000014340251
 31
0.0
  0
LINE
  5
22CC
  8
0
 62
     0
 10
2.1051438114815761
 20
218.8750001434025
 30
0.0
 11
2.1051438114815761
 21
219.66875014340249
 31
0.0
  0
LINE
  5
22CD
  8
0
 62
     0
 10
2.1051438114815761
 20
216.49375014340251
 30
0.0
 11
2.1051438114815761
 21
217.2875001434025
 31
0.0
  0
LINE
  5
22CE
  8
0
 62
     0
 10
0.7303288114815789
 20
223.63750014340249
 30
0.0
 11
0.7303288114815789
 21
224.43125014340251
 31
0.0
  0
LINE
  5
22CF
  8
0
 62
     0
 10
0.7303288114815789
 20
221.2562501434025
 30
0.0
 11
0.7303288114815789
 21
222.05000014340251
 31
0.0
  0
LINE
  5
22D0
  8
0
 62
     0
 10
0.7303288114815788
 20
218.8750001434025
 30
0.0
 11
0.7303288114815788
 21
219.66875014340249
 31
0.0
  0
LINE
  5
22D1
  8
0
 62
     0
 10
0.7303288114815786
 20
216.49375014340251
 30
0.0
 11
0.7303288114815786
 21
217.2875001434025
 31
0.0
  0
LINE
  5
22D2
  8
0
 62
     0
 10
-0.6444861885184192
 20
223.63750014340249
 30
0.0
 11
-0.6444861885184192
 21
224.43125014340251
 31
0.0
  0
LINE
  5
22D3
  8
0
 62
     0
 10
-0.6444861885184193
 20
221.2562501434025
 30
0.0
 11
-0.6444861885184193
 21
222.05000014340251
 31
0.0
  0
LINE
  5
22D4
  8
0
 62
     0
 10
-0.6444861885184193
 20
218.8750001434025
 30
0.0
 11
-0.6444861885184193
 21
219.66875014340249
 31
0.0
  0
LINE
  5
22D5
  8
0
 62
     0
 10
-0.6444861885184194
 20
216.49375014340251
 30
0.0
 11
-0.6444861885184194
 21
217.2875001434025
 31
0.0
  0
LINE
  5
22D6
  8
0
 62
     0
 10
-2.0193011885184169
 20
223.63750014340249
 30
0.0
 11
-2.0193011885184169
 21
224.43125014340251
 31
0.0
  0
LINE
  5
22D7
  8
0
 62
     0
 10
-2.0193011885184169
 20
221.2562501434025
 30
0.0
 11
-2.0193011885184169
 21
222.05000014340251
 31
0.0
  0
LINE
  5
22D8
  8
0
 62
     0
 10
-2.0193011885184169
 20
218.8750001434025
 30
0.0
 11
-2.0193011885184169
 21
219.66875014340249
 31
0.0
  0
LINE
  5
22D9
  8
0
 62
     0
 10
-2.0193011885184169
 20
216.49375014340251
 30
0.0
 11
-2.0193011885184169
 21
217.2875001434025
 31
0.0
  0
LINE
  5
22DA
  8
0
 62
     0
 10
-3.394116188518423
 20
223.63750014340249
 30
0.0
 11
-3.394116188518423
 21
224.43125014340251
 31
0.0
  0
LINE
  5
22DB
  8
0
 62
     0
 10
-3.394116188518423
 20
221.2562501434025
 30
0.0
 11
-3.394116188518423
 21
222.05000014340251
 31
0.0
  0
LINE
  5
22DC
  8
0
 62
     0
 10
-3.394116188518423
 20
218.8750001434025
 30
0.0
 11
-3.394116188518423
 21
219.66875014340249
 31
0.0
  0
LINE
  5
22DD
  8
0
 62
     0
 10
-3.394116188518423
 20
216.49375014340251
 30
0.0
 11
-3.394116188518423
 21
217.2875001434025
 31
0.0
  0
LINE
  5
22DE
  8
0
 62
     0
 10
-4.7689311885184198
 20
223.63750014340249
 30
0.0
 11
-4.7689311885184198
 21
223.63839592925541
 31
0.0
  0
LINE
  5
22DF
  8
0
 62
     0
 10
-4.7689311885184198
 20
221.2562501434025
 30
0.0
 11
-4.7689311885184198
 21
222.05000014340251
 31
0.0
  0
LINE
  5
22E0
  8
0
 62
     0
 10
-4.7689311885184198
 20
218.8750001434025
 30
0.0
 11
-4.7689311885184198
 21
219.66875014340249
 31
0.0
  0
LINE
  5
22E1
  8
0
 62
     0
 10
-4.7689311885184198
 20
216.49375014340251
 30
0.0
 11
-4.7689311885184198
 21
217.2875001434025
 31
0.0
  0
LINE
  5
22E2
  8
0
 62
     0
 10
-6.1437461885184179
 20
221.2562501434025
 30
0.0
 11
-6.1437461885184179
 21
221.8314514632103
 31
0.0
  0
LINE
  5
22E3
  8
0
 62
     0
 10
-6.1437461885184179
 20
218.8750001434025
 30
0.0
 11
-6.1437461885184179
 21
219.66875014340249
 31
0.0
  0
ENDBLK
  5
22E5
  8
0
  0
BLOCK
  8
0
  2
*U17
 70
     1
 10
0.0
 20
0.0
 30
0.0
  3
*U17
  1

  0
TEXT
  5
236E
  8
SAPA_MATT
 62
     2
 10
14.649444721211831
 20
245.49999992826611
 30
0.0
 40
3.0
  1
60
  7
ISO
  0
ENDBLK
  5
2370
  8
0
  0
BLOCK
  8
0
  2
*U18
 70
     1
 10
0.0
 20
0.0
 30
0.0
  3
*U18
  1

  0
TEXT
  5
2372
  8
SAPA_MATT
 62
     2
 10
-2.3005552787883961
 20
257.49999992826611
 30
0.0
 40
3.0
  1
91.5
  7
ISO
  0
ENDBLK
  5
2374
  8
0
  0
BLOCK
  8
0
  2
*U19
 70
     1
 10
0.0
 20
0.0
 30
0.0
  3
*U19
  1

  0
TEXT
  5
2376
  8
SAPA_MATT
 62
     2
 10
-78.25055527878726
 20
209.95000014318509
 30
0.0
 40
3.0
  1
8
 50
90.0
  7
ISO
  0
ENDBLK
  5
2378
  8
0
  0
BLOCK
  8
0
  2
*U20
 70
     1
 10
0.0
 20
0.0
 30
0.0
  3
*U20
  1

  0
TEXT
  5
237A
  8
SAPA_MATT
 62
     2
 10
-90.250555278787246
 20
137.15000007150849
 30
0.0
 40
3.0
  1
150
 50
90.0
  7
ISO
  0
ENDBLK
  5
237C
  8
0
  0
ENDSEC
  0
SECTION
  2
ENTITIES
  0
POINT
  5
1787
  8
SAPA_FOGBAND
 10
-8.2505552787908982
 20
67.300000143024363
 30
0.0
 50
90.000000059636591
  0
POINT
  5
1788
  8
SAPA_FOGBAND
 10
-8.2505552787908982
 20
70.000000143024181
 30
0.0
 50
90.000000059636591
  0
POINT
  5
17A6
  8
SAPA_FOGBAND
 10
-8.2505552787908982
 20
67.300000143027546
 30
0.0
 50
90.0
  0
POINT
  5
17A7
  8
SAPA_FOGBAND
 10
-8.2505552787908982
 20
70.000000143024181
 30
0.0
 50
90.0
  0
LINE
  5
17B1
  8
SAPA_FOGBAND
 10
-8.1619547700095154
 20
68.600432674574449
 30
0.0
 11
-8.1619547700131534
 21
72.199009532425634
 31
0.0
  0
LINE
  5
17B2
  8
SAPA_FOGBAND
 10
-8.1619547700131534
 20
72.199009532425634
 30
0.0
 11
-8.3119547700109706
 21
72.199009532425634
 31
0.0
  0
LINE
  5
17B3
  8
SAPA_FOGBAND
 10
-8.3119547700109706
 20
72.199009532425634
 30
0.0
 11
-8.3119547700109706
 21
68.600432674574449
 31
0.0
  0
TEXT
  5
17C5
  8
SAPA_ARTIKELNR
 10
12.339950950756471
 20
59.609108100461071
 30
0.0000000048844772
 40
3.5
  1
D9K025
  7
ISO
  0
INSERT
  5
17CB
  8
SAPA_ANSLUTNING
  6
CONTINUOUS
  2
*X15
 10
0.0
 20
0.0
 30
0.0
1001
ACAD
1000
HATCH
1002
{
1070
    19
1000
ANSI37
1040
0.25
1040
1.5707963267948959
1000
R14_HATCH_DATA
1000
17CB
1011
1.0
1021
0.0
1031
0.0
1021
0.0
1031
0.0
1011
0.0
1021
0.0
1031
0.0
1021
1.0
1031
0.0
1011
0.0
1021
0.0
1031
0.0
1021
0.0
1031
1.0
1040
0.0
1010
0.0
1020
0.0
1030
1.0
1000
ANSI37
1070
     0
1070
     0
1071
        1
1071
        1
1071
        6
1070
     3
1040
-0.9133486921743951
1040
220.0000000711436
1040
5.6210574168242138
1040
0.0000000000000003
1040
0.8895123513655372
1040
1.5707963267948959
1040
2.144309431217978
1070
     0
1070
     3
1040
-0.9133486921743951
1040
220.0000000711436
1040
5.6210574168242138
1040
0.0000000000000003
1040
0.8895123513655372
1040
2.144309431217978
1040
4.7123889803846888
1070
     0
1070
     1
1040
-0.9133486921753046
1040
225.0000000711436
1040
-13.24999992885045
1040
225.0000000711436
1070
     2
1040
-37.898292048725352
1040
218.3282584951796
1040
25.535278343560961
1040
-0.2643433246173932
1040
0.153886542787264
1070
     0
1070
     2
1040
-11.25055527878771
1040
213.00000014302279
1040
1.9999999999999349
1040
3.926990816987201
1040
4.7123889803848034
1070
     0
1070
     1
1040
-11.25055527878726
1040
215.00000014302259
1040
-0.9133486921746225
1040
215.0000000711436
1071
        0
1070
     0
1070
     1
1040
1.5707963267948959
1040
0.25
1070
     0
1070
     2
1040
0.7853981633974481
1040
-43.26375118851842
1040
76.000000143402531
1040
0.5612660075668221
1040
-0.5612660075668221
1070
     0
1040
5.4977871437821371
1040
-43.26375118851842
1040
76.000000143402531
1040
-0.5612660075668221
1040
-0.5612660075668221
1070
     0
1071
        1
1040
-9.6703646417911386
1040
218.998676490392
1040
0.0
1002
}
  0
LINE
  5
17CC
  8
SAPA_ANSLUTNING
 10
61.750000071155
 20
65.000000143388888
 30
0.0
 11
61.750000071155
 21
225.0000000711436
 31
0.0
  0
LINE
  5
17CD
  8
SAPA_ANSLUTNING
 10
-13.24999992885045
 20
225.0000000711436
 30
0.0
 11
-13.24999992885045
 21
270.00325607780201
 31
0.0
  0
LINE
  5
17CE
  8
SAPA_ANSLUTNING
 10
61.750000071155
 20
225.0000000711436
 30
0.0
 11
-13.24999992885045
 21
225.0000000711436
 31
0.0
  0
INSERT
  5
17CF
  8
SAPA_ANSLUTNING
  6
CONTINUOUS
  2
*X16
 10
0.0
 20
0.0
 30
0.0
1001
ACAD
1000
HATCH
1002
{
1070
    19
1000
HEX
1040
0.25
1040
1.5707963267948959
1000
ASC_BOUNDS
1070
     1
1070
     1
1070
     1
1005
17D0
1000
ASC_SEEDPOINT
1011
-1.031686381231111
1021
0.0
1031
0.0
1021
220.24211008121819
1031
0.0
1000
R14_HATCH_DATA
1000
17CF
1011
1.0
1021
0.0
1031
0.0
1021
0.0
1031
0.0
1011
0.0
1021
0.0
1031
0.0
1021
1.0
1031
0.0
1011
0.0
1021
0.0
1031
0.0
1021
0.0
1031
1.0
1040
0.0
1010
0.0
1020
0.0
1030
1.0
1000
HEX
1070
     0
1070
     1
1071
        1
1071
        5
1071
        1
1070
     3
1040
-0.9133486921743951
1040
220.0000000711436
1040
5.6210574168242138
1040
0.0000000000000003
1040
0.8895123513655372
1040
0.0
1040
6.2831853071795862
1070
     1
1071
        1
1005
17D0
1070
     0
1070
     1
1040
1.5707963267948959
1040
0.25
1070
     0
1070
     3
1040
1.5707963267948959
1040
-43.26375118851842
1040
76.000000143402531
1040
1.374814999999999
1040
-0.0000000000000001
1070
     2
1040
0.79375
1040
-1.587499999999999
1040
5.7595865315812871
1040
-43.26375118851842
1040
76.000000143402531
1040
-0.6874074999999998
1040
-1.190624715503902
1070
     2
1040
0.7937499999999993
1040
-1.5874999999999979
1040
0.5235987755982992
1040
-43.26375118851842
1040
76.793750143402349
1040
0.6874075
1040
-1.190624715503902
1070
     2
1040
0.79375
1040
-1.587499999999999
1040
0.0591690278051155
1071
        1
1040
-1.031686381231111
1040
220.24211008121819
1040
0.0
1002
}
  0
POLYLINE
  5
17D0
  8
SAPA_ANSLUTNING
 10
4.7077087246498186
 20
220.0000000711436
 30
0.0
 66
     1
 70
     8
  0
VERTEX
  8
SAPA_ANSLUTNING
  5
2380
 10
4.70771
 20
220.000
 30
0.000000
  70
    32
  0
VERTEX
  8
SAPA_ANSLUTNING
  5
2381
 10
4.70094
 20
220.245
 30
0.000000
  70
    32
  0
VERTEX
  8
SAPA_ANSLUTNING
  5
2382
 10
4.68064
 20
220.490
 30
0.000000
  70
    32
  0
VERTEX
  8
SAPA_ANSLUTNING
  5
2383
 10
4.64687
 20
220.734
 30
0.000000
  70
    32
  0
VERTEX
  8
SAPA_ANSLUTNING
  5
2384
 10
4.59970
 20
220.975
 30
0.000000
  70
    32
  0
VERTEX
  8
SAPA_ANSLUTNING
  5
2385
 10
4.53925
 20
221.215
 30
0.000000
  70
    32
  0
VERTEX
  8
SAPA_ANSLUTNING
  5
2386
 10
4.46567
 20
221.451
 30
0.000000
  70
    32
  0
VERTEX
  8
SAPA_ANSLUTNING
  5
2387
 10
4.37912
 20
221.684
 30
0.000000
  70
    32
  0
VERTEX
  8
SAPA_ANSLUTNING
  5
2388
 10
4.27983
 20
221.913
 30
0.000000
  70
    32
  0
VERTEX
  8
SAPA_ANSLUTNING
  5
2389
 10
4.16803
 20
222.138
 30
0.000000
  70
    32
  0
VERTEX
  8
SAPA_ANSLUTNING
  5
238A
 10
4.04398
 20
222.357
 30
0.000000
  70
    32
  0
VERTEX
  8
SAPA_ANSLUTNING
  5
238B
 10
3.90799
 20
222.571
 30
0.000000
  70
    32
  0
VERTEX
  8
SAPA_ANSLUTNING
  5
238C
 10
3.76039
 20
222.778
 30
0.000000
  70
    32
  0
VERTEX
  8
SAPA_ANSLUTNING
  5
238D
 10
3.60153
 20
222.978
 30
0.000000
  70
    32
  0
VERTEX
  8
SAPA_ANSLUTNING
  5
238E
 10
3.43179
 20
223.172
 30
0.000000
  70
    32
  0
VERTEX
  8
SAPA_ANSLUTNING
  5
238F
 10
3.25158
 20
223.358
 30
0.000000
  70
    32
  0
VERTEX
  8
SAPA_ANSLUTNING
  5
2390
 10
3.06134
 20
223.536
 30
0.000000
  70
    32
  0
VERTEX
  8
SAPA_ANSLUTNING
  5
2391
 10
2.86152
 20
223.705
 30
0.000000
  70
    32
  0
VERTEX
  8
SAPA_ANSLUTNING
  5
2392
 10
2.65261
 20
223.865
 30
0.000000
  70
    32
  0
VERTEX
  8
SAPA_ANSLUTNING
  5
2393
 10
2.43511
 20
224.016
 30
0.000000
  70
    32
  0
VERTEX
  8
SAPA_ANSLUTNING
  5
2394
 10
2.20954
 20
224.157
 30
0.000000
  70
    32
  0
VERTEX
  8
SAPA_ANSLUTNING
  5
2395
 10
1.97645
 20
224.289
 30
0.000000
  70
    32
  0
VERTEX
  8
SAPA_ANSLUTNING
  5
2396
 10
1.73640
 20
224.410
 30
0.000000
  70
    32
  0
VERTEX
  8
SAPA_ANSLUTNING
  5
2397
 10
1.48996
 20
224.520
 30
0.000000
  70
    32
  0
VERTEX
  8
SAPA_ANSLUTNING
  5
2398
 10
1.23774
 20
224.619
 30
0.000000
  70
    32
  0
VERTEX
  8
SAPA_ANSLUTNING
  5
2399
 10
0.980329
 20
224.708
 30
0.000000
  70
    32
  0
VERTEX
  8
SAPA_ANSLUTNING
  5
239A
 10
0.718358
 20
224.785
 30
0.000000
  70
    32
  0
VERTEX
  8
SAPA_ANSLUTNING
  5
239B
 10
0.452457
 20
224.850
 30
0.000000
  70
    32
  0
VERTEX
  8
SAPA_ANSLUTNING
  5
239C
 10
0.183265
 20
224.904
 30
0.000000
  70
    32
  0
VERTEX
  8
SAPA_ANSLUTNING
  5
239D
 10
-0.0885683
 20
224.946
 30
0.000000
  70
    32
  0
VERTEX
  8
SAPA_ANSLUTNING
  5
239E
 10
-0.362389
 20
224.976
 30
0.000000
  70
    32
  0
VERTEX
  8
SAPA_ANSLUTNING
  5
239F
 10
-0.637536
 20
224.994
 30
0.000000
  70
    32
  0
VERTEX
  8
SAPA_ANSLUTNING
  5
23A0
 10
-0.913349
 20
225.000
 30
0.000000
  70
    32
  0
VERTEX
  8
SAPA_ANSLUTNING
  5
23A1
 10
-1.18916
 20
224.994
 30
0.000000
  70
    32
  0
VERTEX
  8
SAPA_ANSLUTNING
  5
23A2
 10
-1.46431
 20
224.976
 30
0.000000
  70
    32
  0
VERTEX
  8
SAPA_ANSLUTNING
  5
23A3
 10
-1.73813
 20
224.946
 30
0.000000
  70
    32
  0
VERTEX
  8
SAPA_ANSLUTNING
  5
23A4
 10
-2.00996
 20
224.904
 30
0.000000
  70
    32
  0
VERTEX
  8
SAPA_ANSLUTNING
  5
23A5
 10
-2.27915
 20
224.850
 30
0.000000
  70
    32
  0
VERTEX
  8
SAPA_ANSLUTNING
  5
23A6
 10
-2.54506
 20
224.785
 30
0.000000
  70
    32
  0
VERTEX
  8
SAPA_ANSLUTNING
  5
23A7
 10
-2.80703
 20
224.708
 30
0.000000
  70
    32
  0
VERTEX
  8
SAPA_ANSLUTNING
  5
23A8
 10
-3.06443
 20
224.619
 30
0.000000
  70
    32
  0
VERTEX
  8
SAPA_ANSLUTNING
  5
23A9
 10
-3.31666
 20
224.520
 30
0.000000
  70
    32
  0
VERTEX
  8
SAPA_ANSLUTNING
  5
23AA
 10
-3.56310
 20
224.410
 30
0.000000
  70
    32
  0
VERTEX
  8
SAPA_ANSLUTNING
  5
23AB
 10
-3.80315
 20
224.289
 30
0.000000
  70
    32
  0
VERTEX
  8
SAPA_ANSLUTNING
  5
23AC
 10
-4.03624
 20
224.157
 30
0.000000
  70
    32
  0
VERTEX
  8
SAPA_ANSLUTNING
  5
23AD
 10
-4.26181
 20
224.016
 30
0.000000
  70
    32
  0
VERTEX
  8
SAPA_ANSLUTNING
  5
23AE
 10
-4.47931
 20
223.865
 30
0.000000
  70
    32
  0
VERTEX
  8
SAPA_ANSLUTNING
  5
23AF
 10
-4.68822
 20
223.705
 30
0.000000
  70
    32
  0
VERTEX
  8
SAPA_ANSLUTNING
  5
23B0
 10
-4.88804
 20
223.536
 30
0.000000
  70
    32
  0
VERTEX
  8
SAPA_ANSLUTNING
  5
23B1
 10
-5.07828
 20
223.358
 30
0.000000
  70
    32
  0
VERTEX
  8
SAPA_ANSLUTNING
  5
23B2
 10
-5.25848
 20
223.172
 30
0.000000
  70
    32
  0
VERTEX
  8
SAPA_ANSLUTNING
  5
23B3
 10
-5.42822
 20
222.978
 30
0.000000
  70
    32
  0
VERTEX
  8
SAPA_ANSLUTNING
  5
23B4
 10
-5.58709
 20
222.778
 30
0.000000
  70
    32
  0
VERTEX
  8
SAPA_ANSLUTNING
  5
23B5
 10
-5.73469
 20
222.571
 30
0.000000
  70
    32
  0
VERTEX
  8
SAPA_ANSLUTNING
  5
23B6
 10
-5.87068
 20
222.357
 30
0.000000
  70
    32
  0
VERTEX
  8
SAPA_ANSLUTNING
  5
23B7
 10
-5.99472
 20
222.138
 30
0.000000
  70
    32
  0
VERTEX
  8
SAPA_ANSLUTNING
  5
23B8
 10
-6.10653
 20
221.913
 30
0.000000
  70
    32
  0
VERTEX
  8
SAPA_ANSLUTNING
  5
23B9
 10
-6.20582
 20
221.684
 30
0.000000
  70
    32
  0
VERTEX
  8
SAPA_ANSLUTNING
  5
23BA
 10
-6.29237
 20
221.451
 30
0.000000
  70
    32
  0
VERTEX
  8
SAPA_ANSLUTNING
  5
23BB
 10
-6.36595
 20
221.215
 30
0.000000
  70
    32
  0
VERTEX
  8
SAPA_ANSLUTNING
  5
23BC
 10
-6.42640
 20
220.975
 30
0.000000
  70
    32
  0
VERTEX
  8
SAPA_ANSLUTNING
  5
23BD
 10
-6.47357
 20
220.734
 30
0.000000
  70
    32
  0
VERTEX
  8
SAPA_ANSLUTNING
  5
23BE
 10
-6.50734
 20
220.490
 30
0.000000
  70
    32
  0
VERTEX
  8
SAPA_ANSLUTNING
  5
23BF
 10
-6.52764
 20
220.245
 30
0.000000
  70
    32
  0
VERTEX
  8
SAPA_ANSLUTNING
  5
23C0
 10
-6.53441
 20
220.000
 30
0.000000
  70
    32
  0
VERTEX
  8
SAPA_ANSLUTNING
  5
23C1
 10
-6.52764
 20
219.755
 30
0.000000
  70
    32
  0
VERTEX
  8
SAPA_ANSLUTNING
  5
23C2
 10
-6.50734
 20
219.510
 30
0.000000
  70
    32
  0
VERTEX
  8
SAPA_ANSLUTNING
  5
23C3
 10
-6.47357
 20
219.266
 30
0.000000
  70
    32
  0
VERTEX
  8
SAPA_ANSLUTNING
  5
23C4
 10
-6.42640
 20
219.025
 30
0.000000
  70
    32
  0
VERTEX
  8
SAPA_ANSLUTNING
  5
23C5
 10
-6.36595
 20
218.785
 30
0.000000
  70
    32
  0
VERTEX
  8
SAPA_ANSLUTNING
  5
23C6
 10
-6.29237
 20
218.549
 30
0.000000
  70
    32
  0
VERTEX
  8
SAPA_ANSLUTNING
  5
23C7
 10
-6.20582
 20
218.316
 30
0.000000
  70
    32
  0
VERTEX
  8
SAPA_ANSLUTNING
  5
23C8
 10
-6.10653
 20
218.087
 30
0.000000
  70
    32
  0
VERTEX
  8
SAPA_ANSLUTNING
  5
23C9
 10
-5.99472
 20
217.862
 30
0.000000
  70
    32
  0
VERTEX
  8
SAPA_ANSLUTNING
  5
23CA
 10
-5.87068
 20
217.643
 30
0.000000
  70
    32
  0
VERTEX
  8
SAPA_ANSLUTNING
  5
23CB
 10
-5.73469
 20
217.429
 30
0.000000
  70
    32
  0
VERTEX
  8
SAPA_ANSLUTNING
  5
23CC
 10
-5.58709
 20
217.222
 30
0.000000
  70
    32
  0
VERTEX
  8
SAPA_ANSLUTNING
  5
23CD
 10
-5.42822
 20
217.022
 30
0.000000
  70
    32
  0
VERTEX
  8
SAPA_ANSLUTNING
  5
23CE
 10
-5.25848
 20
216.828
 30
0.000000
  70
    32
  0
VERTEX
  8
SAPA_ANSLUTNING
  5
23CF
 10
-5.07828
 20
216.642
 30
0.000000
  70
    32
  0
VERTEX
  8
SAPA_ANSLUTNING
  5
23D0
 10
-4.88804
 20
216.464
 30
0.000000
  70
    32
  0
VERTEX
  8
SAPA_ANSLUTNING
  5
23D1
 10
-4.68822
 20
216.295
 30
0.000000
  70
    32
  0
VERTEX
  8
SAPA_ANSLUTNING
  5
23D2
 10
-4.47931
 20
216.135
 30
0.000000
  70
    32
  0
VERTEX
  8
SAPA_ANSLUTNING
  5
23D3
 10
-4.26181
 20
215.984
 30
0.000000
  70
    32
  0
VERTEX
  8
SAPA_ANSLUTNING
  5
23D4
 10
-4.03624
 20
215.843
 30
0.000000
  70
    32
  0
VERTEX
  8
SAPA_ANSLUTNING
  5
23D5
 10
-3.80315
 20
215.711
 30
0.000000
  70
    32
  0
VERTEX
  8
SAPA_ANSLUTNING
  5
23D6
 10
-3.56310
 20
215.590
 30
0.000000
  70
    32
  0
VERTEX
  8
SAPA_ANSLUTNING
  5
23D7
 10
-3.31666
 20
215.480
 30
0.000000
  70
    32
  0
VERTEX
  8
SAPA_ANSLUTNING
  5
23D8
 10
-3.06443
 20
215.381
 30
0.000000
  70
    32
  0
VERTEX
  8
SAPA_ANSLUTNING
  5
23D9
 10
-2.80703
 20
215.292
 30
0.000000
  70
    32
  0
VERTEX
  8
SAPA_ANSLUTNING
  5
23DA
 10
-2.54506
 20
215.215
 30
0.000000
  70
    32
  0
VERTEX
  8
SAPA_ANSLUTNING
  5
23DB
 10
-2.27915
 20
215.150
 30
0.000000
  70
    32
  0
VERTEX
  8
SAPA_ANSLUTNING
  5
23DC
 10
-2.00996
 20
215.096
 30
0.000000
  70
    32
  0
VERTEX
  8
SAPA_ANSLUTNING
  5
23DD
 10
-1.73813
 20
215.054
 30
0.000000
  70
    32
  0
VERTEX
  8
SAPA_ANSLUTNING
  5
23DE
 10
-1.46431
 20
215.024
 30
0.000000
  70
    32
  0
VERTEX
  8
SAPA_ANSLUTNING
  5
23DF
 10
-1.18916
 20
215.006
 30
0.000000
  70
    32
  0
VERTEX
  8
SAPA_ANSLUTNING
  5
23E0
 10
-0.913349
 20
215.000
 30
0.000000
  70
    32
  0
VERTEX
  8
SAPA_ANSLUTNING
  5
23E1
 10
-0.637536
 20
215.006
 30
0.000000
  70
    32
  0
VERTEX
  8
SAPA_ANSLUTNING
  5
23E2
 10
-0.362389
 20
215.024
 30
0.000000
  70
    32
  0
VERTEX
  8
SAPA_ANSLUTNING
  5
23E3
 10
-0.0885683
 20
215.054
 30
0.000000
  70
    32
  0
VERTEX
  8
SAPA_ANSLUTNING
  5
23E4
 10
0.183265
 20
215.096
 30
0.000000
  70
    32
  0
VERTEX
  8
SAPA_ANSLUTNING
  5
23E5
 10
0.452457
 20
215.150
 30
0.000000
  70
    32
  0
VERTEX
  8
SAPA_ANSLUTNING
  5
23E6
 10
0.718358
 20
215.215
 30
0.000000
  70
    32
  0
VERTEX
  8
SAPA_ANSLUTNING
  5
23E7
 10
0.980329
 20
215.292
 30
0.000000
  70
    32
  0
VERTEX
  8
SAPA_ANSLUTNING
  5
23E8
 10
1.23774
 20
215.381
 30
0.000000
  70
    32
  0
VERTEX
  8
SAPA_ANSLUTNING
  5
23E9
 10
1.48996
 20
215.480
 30
0.000000
  70
    32
  0
VERTEX
  8
SAPA_ANSLUTNING
  5
23EA
 10
1.73640
 20
215.590
 30
0.000000
  70
    32
  0
VERTEX
  8
SAPA_ANSLUTNING
  5
23EB
 10
1.97645
 20
215.711
 30
0.000000
  70
    32
  0
VERTEX
  8
SAPA_ANSLUTNING
  5
23EC
 10
2.20954
 20
215.843
 30
0.000000
  70
    32
  0
VERTEX
  8
SAPA_ANSLUTNING
  5
23ED
 10
2.43511
 20
215.984
 30
0.000000
  70
    32
  0
VERTEX
  8
SAPA_ANSLUTNING
  5
23EE
 10
2.65261
 20
216.135
 30
0.000000
  70
    32
  0
VERTEX
  8
SAPA_ANSLUTNING
  5
23EF
 10
2.86152
 20
216.295
 30
0.000000
  70
    32
  0
VERTEX
  8
SAPA_ANSLUTNING
  5
23F0
 10
3.06134
 20
216.464
 30
0.000000
  70
    32
  0
VERTEX
  8
SAPA_ANSLUTNING
  5
23F1
 10
3.25158
 20
216.642
 30
0.000000
  70
    32
  0
VERTEX
  8
SAPA_ANSLUTNING
  5
23F2
 10
3.43179
 20
216.828
 30
0.000000
  70
    32
  0
VERTEX
  8
SAPA_ANSLUTNING
  5
23F3
 10
3.60153
 20
217.022
 30
0.000000
  70
    32
  0
VERTEX
  8
SAPA_ANSLUTNING
  5
23F4
 10
3.76039
 20
217.222
 30
0.000000
  70
    32
  0
VERTEX
  8
SAPA_ANSLUTNING
  5
23F5
 10
3.90799
 20
217.429
 30
0.000000
  70
    32
  0
VERTEX
  8
SAPA_ANSLUTNING
  5
23F6
 10
4.04398
 20
217.643
 30
0.000000
  70
    32
  0
VERTEX
  8
SAPA_ANSLUTNING
  5
23F7
 10
4.16803
 20
217.862
 30
0.000000
  70
    32
  0
VERTEX
  8
SAPA_ANSLUTNING
  5
23F8
 10
4.27983
 20
218.087
 30
0.000000
  70
    32
  0
VERTEX
  8
SAPA_ANSLUTNING
  5
23F9
 10
4.37912
 20
218.316
 30
0.000000
  70
    32
  0
VERTEX
  8
SAPA_ANSLUTNING
  5
23FA
 10
4.46567
 20
218.549
 30
0.000000
  70
    32
  0
VERTEX
  8
SAPA_ANSLUTNING
  5
23FB
 10
4.53925
 20
218.785
 30
0.000000
  70
    32
  0
VERTEX
  8
SAPA_ANSLUTNING
  5
23FC
 10
4.59970
 20
219.025
 30
0.000000
  70
    32
  0
VERTEX
  8
SAPA_ANSLUTNING
  5
23FD
 10
4.64687
 20
219.266
 30
0.000000
  70
    32
  0
VERTEX
  8
SAPA_ANSLUTNING
  5
23FE
 10
4.68064
 20
219.510
 30
0.000000
  70
    32
  0
VERTEX
  8
SAPA_ANSLUTNING
  5
23FF
 10
4.70094
 20
219.755
 30
0.000000
  70
    32
  0
VERTEX
  8
SAPA_ANSLUTNING
  5
2400
 10
4.70771
 20
220.000
 30
0.000000
  70
    32
  0
SEQEND
  8
SAPA_ANSLUTNING
  5
2401
  0
POLYLINE
  5
17D1
  8
SAPA_ANSLUTNING
 66
     1
 10
0.0
 20
0.0
 30
0.0
  0
VERTEX
  5
22E6
  8
SAPA_ANSLUTNING
 10
3.102069661696305
 20
216.50107161448449
 30
0.0
 42
0.8812634091771133
  0
VERTEX
  5
22E7
  8
SAPA_ANSLUTNING
 10
7.0388376899165896
 20
217.0000000711436
 30
0.0
  0
VERTEX
  5
22E8
  8
SAPA_ANSLUTNING
 10
7.0388376899165896
 20
223.0000000711436
 30
0.0
 42
-0.9999999999999998
  0
VERTEX
  5
22E9
  8
SAPA_ANSLUTNING
 10
11.038837689916591
 20
223.0000000711436
 30
0.0
  0
VERTEX
  5
22EA
  8
SAPA_ANSLUTNING
 10
11.038837689916591
 20
217.0000000711436
 30
0.0
 42
0.9999999999999998
  0
VERTEX
  5
22EB
  8
SAPA_ANSLUTNING
 10
15.038837689916591
 20
217.0000000711436
 30
0.0
  0
VERTEX
  5
22EC
  8
SAPA_ANSLUTNING
 10
15.038837689916591
 20
223.0000000711436
 30
0.0
 42
-0.9999999999999998
  0
VERTEX
  5
22ED
  8
SAPA_ANSLUTNING
 10
19.038837689916591
 20
223.0000000711436
 30
0.0
  0
VERTEX
  5
22EE
  8
SAPA_ANSLUTNING
 10
19.038837689916591
 20
217.0000000711436
 30
0.0
 42
0.9999999999999998
  0
VERTEX
  5
22EF
  8
SAPA_ANSLUTNING
 10
23.038837689916591
 20
217.0000000711436
 30
0.0
  0
VERTEX
  5
22F0
  8
SAPA_ANSLUTNING
 10
23.038837689916591
 20
223.0000000711436
 30
0.0
 42
-0.9999999999999998
  0
VERTEX
  5
22F1
  8
SAPA_ANSLUTNING
 10
27.038837689916591
 20
223.0000000711436
 30
0.0
  0
VERTEX
  5
22F2
  8
SAPA_ANSLUTNING
 10
27.038837689916591
 20
217.0000000711436
 30
0.0
 42
0.9999999999999998
  0
VERTEX
  5
22F3
  8
SAPA_ANSLUTNING
 10
31.038837689916591
 20
217.0000000711436
 30
0.0
  0
VERTEX
  5
22F4
  8
SAPA_ANSLUTNING
 10
31.038837689916591
 20
223.0000000711436
 30
0.0
 42
-0.9999999999999998
  0
VERTEX
  5
22F5
  8
SAPA_ANSLUTNING
 10
35.038837689916591
 20
223.0000000711436
 30
0.0
  0
VERTEX
  5
22F6
  8
SAPA_ANSLUTNING
 10
35.038837689916591
 20
217.0000000711436
 30
0.0
 42
0.9999999999999998
  0
VERTEX
  5
22F7
  8
SAPA_ANSLUTNING
 10
39.038837689916591
 20
217.0000000711436
 30
0.0
  0
VERTEX
  5
22F8
  8
SAPA_ANSLUTNING
 10
39.038837689916591
 20
223.0000000711436
 30
0.0
 42
-0.9999999999999998
  0
VERTEX
  5
22F9
  8
SAPA_ANSLUTNING
 10
43.038837689916591
 20
223.0000000711436
 30
0.0
  0
VERTEX
  5
22FA
  8
SAPA_ANSLUTNING
 10
43.038837689916591
 20
217.0000000711436
 30
0.0
 42
0.9999999999999998
  0
VERTEX
  5
22FB
  8
SAPA_ANSLUTNING
 10
47.038837689916591
 20
217.0000000711436
 30
0.0
  0
VERTEX
  5
22FC
  8
SAPA_ANSLUTNING
 10
47.038837689916591
 20
223.0000000711436
 30
0.0
 42
-0.9999999999999998
  0
VERTEX
  5
22FD
  8
SAPA_ANSLUTNING
 10
51.038837689916591
 20
223.0000000711436
 30
0.0
  0
VERTEX
  5
22FE
  8
SAPA_ANSLUTNING
 10
51.038837689916591
 20
217.0000000711436
 30
0.0
 42
0.9999999999999998
  0
VERTEX
  5
22FF
  8
SAPA_ANSLUTNING
 10
55.038837689916591
 20
217.0000000711436
 30
0.0
  0
VERTEX
  5
2300
  8
SAPA_ANSLUTNING
 10
55.038837689916591
 20
223.0000000711436
 30
0.0
 42
-0.9999999999999998
  0
VERTEX
  5
2301
  8
SAPA_ANSLUTNING
 10
59.038837689916591
 20
223.0000000711436
 30
0.0
  0
VERTEX
  5
2302
  8
SAPA_ANSLUTNING
 10
59.038837689916591
 20
217.0000000711436
 30
0.0
 42
0.5251735434384823
  0
VERTEX
  5
2303
  8
SAPA_ANSLUTNING
 10
61.750000071155
 20
215.1307092784871
 30
0.0
 42
0.5251735434384823
  0
SEQEND
  5
2304
  8
SAPA_ANSLUTNING
  0
LINE
  5
17D2
  8
SAPA_ANSLUTNING
 10
-13.24999992885045
 20
65.000000143388888
 30
0.0
 11
-13.24999992885045
 21
20.380533666343009
 31
0.0
  0
LINE
  5
17D3
  8
SAPA_ANSLUTNING
 10
-13.24999992885045
 20
65.000000143388888
 30
0.0
 11
61.750000071155
 21
65.000000143388888
 31
0.0
  0
POLYLINE
  5
17D4
  8
SAPA_ANSLUTNING
 66
     1
 10
0.0
 20
0.0
 30
0.0
  0
VERTEX
  5
2305
  8
SAPA_ANSLUTNING
 10
59.750000071149543
 20
65.43676817160906
 30
0.0
  0
VERTEX
  5
2306
  8
SAPA_ANSLUTNING
 10
48.750000071149543
 20
65.43676817160906
 30
0.0
 42
-0.9999999999999998
  0
VERTEX
  5
2307
  8
SAPA_ANSLUTNING
 10
48.750000071149543
 20
69.436768171609174
 30
0.0
  0
VERTEX
  5
2308
  8
SAPA_ANSLUTNING
 10
59.750000071149543
 20
69.436768171609174
 30
0.0
 42
0.9999999999999998
  0
VERTEX
  5
2309
  8
SAPA_ANSLUTNING
 10
59.750000071149543
 20
73.436768171609174
 30
0.0
  0
VERTEX
  5
230A
  8
SAPA_ANSLUTNING
 10
48.750000071149543
 20
73.436768171609174
 30
0.0
 42
-0.9999999999999998
  0
VERTEX
  5
230B
  8
SAPA_ANSLUTNING
 10
48.750000071149543
 20
77.436768171609174
 30
0.0
  0
VERTEX
  5
230C
  8
SAPA_ANSLUTNING
 10
59.750000071149543
 20
77.436768171609174
 30
0.0
 42
0.9999999999999998
  0
VERTEX
  5
230D
  8
SAPA_ANSLUTNING
 10
59.750000071149543
 20
81.436768171609174
 30
0.0
  0
VERTEX
  5
230E
  8
SAPA_ANSLUTNING
 10
48.750000071149543
 20
81.436768171609174
 30
0.0
 42
-0.9999999999999998
  0
VERTEX
  5
230F
  8
SAPA_ANSLUTNING
 10
48.750000071149543
 20
85.436768171609174
 30
0.0
  0
VERTEX
  5
2310
  8
SAPA_ANSLUTNING
 10
59.750000071149543
 20
85.436768171609174
 30
0.0
 42
0.9999999999999998
  0
VERTEX
  5
2311
  8
SAPA_ANSLUTNING
 10
59.750000071149543
 20
89.436768171609174
 30
0.0
  0
VERTEX
  5
2312
  8
SAPA_ANSLUTNING
 10
48.750000071149543
 20
89.436768171609174
 30
0.0
 42
-0.9999999999999998
  0
VERTEX
  5
2313
  8
SAPA_ANSLUTNING
 10
48.750000071149543
 20
93.436768171609174
 30
0.0
  0
VERTEX
  5
2314
  8
SAPA_ANSLUTNING
 10
59.750000071149543
 20
93.436768171609174
 30
0.0
 42
0.9999999999999998
  0
VERTEX
  5
2315
  8
SAPA_ANSLUTNING
 10
59.750000071149543
 20
97.436768171609174
 30
0.0
  0
VERTEX
  5
2316
  8
SAPA_ANSLUTNING
 10
48.750000071149543
 20
97.436768171609174
 30
0.0
 42
-0.9999999999999998
  0
VERTEX
  5
2317
  8
SAPA_ANSLUTNING
 10
48.750000071149543
 20
101.4367681716092
 30
0.0
  0
VERTEX
  5
2318
  8
SAPA_ANSLUTNING
 10
59.750000071149543
 20
101.4367681716092
 30
0.0
 42
0.9999999999999998
  0
VERTEX
  5
2319
  8
SAPA_ANSLUTNING
 10
59.750000071149543
 20
105.4367681716092
 30
0.0
  0
VERTEX
  5
231A
  8
SAPA_ANSLUTNING
 10
48.750000071149543
 20
105.4367681716092
 30
0.0
 42
-0.9999999999999998
  0
VERTEX
  5
231B
  8
SAPA_ANSLUTNING
 10
48.750000071149543
 20
109.4367681716091
 30
0.0
  0
VERTEX
  5
231C
  8
SAPA_ANSLUTNING
 10
59.750000071149543
 20
109.4367681716091
 30
0.0
 42
0.9999999999999998
  0
VERTEX
  5
231D
  8
SAPA_ANSLUTNING
 10
59.750000071149543
 20
113.4367681716091
 30
0.0
  0
VERTEX
  5
231E
  8
SAPA_ANSLUTNING
 10
48.750000071149543
 20
113.4367681716091
 30
0.0
 42
-0.9999999999999998
  0
VERTEX
  5
231F
  8
SAPA_ANSLUTNING
 10
48.750000071149543
 20
117.4367681716091
 30
0.0
  0
VERTEX
  5
2320
  8
SAPA_ANSLUTNING
 10
59.750000071149543
 20
117.4367681716091
 30
0.0
 42
0.9999999999999998
  0
VERTEX
  5
2321
  8
SAPA_ANSLUTNING
 10
59.750000071149543
 20
121.4367681716091
 30
0.0
  0
VERTEX
  5
2322
  8
SAPA_ANSLUTNING
 10
48.750000071149543
 20
121.4367681716091
 30
0.0
 42
-0.9999999999999998
  0
VERTEX
  5
2323
  8
SAPA_ANSLUTNING
 10
48.750000071149543
 20
125.4367681716092
 30
0.0
  0
VERTEX
  5
2324
  8
SAPA_ANSLUTNING
 10
59.750000071149543
 20
125.4367681716092
 30
0.0
 42
0.9999999999999998
  0
VERTEX
  5
2325
  8
SAPA_ANSLUTNING
 10
59.750000071149543
 20
129.4367681716092
 30
0.0
  0
VERTEX
  5
2326
  8
SAPA_ANSLUTNING
 10
48.750000071149543
 20
129.4367681716092
 30
0.0
 42
-0.9999999999999998
  0
VERTEX
  5
2327
  8
SAPA_ANSLUTNING
 10
48.750000071149543
 20
133.43676817160909
 30
0.0
  0
VERTEX
  5
2328
  8
SAPA_ANSLUTNING
 10
59.750000071149543
 20
133.43676817160909
 30
0.0
 42
0.9999999999999429
  0
VERTEX
  5
2329
  8
SAPA_ANSLUTNING
 10
59.750000071149991
 20
137.43676817160869
 30
0.0
  0
VERTEX
  5
232A
  8
SAPA_ANSLUTNING
 10
48.750000071149543
 20
137.43676817160909
 30
0.0
 42
-0.9999999999999998
  0
VERTEX
  5
232B
  8
SAPA_ANSLUTNING
 10
48.750000071149543
 20
141.43676817160909
 30
0.0
  0
VERTEX
  5
232C
  8
SAPA_ANSLUTNING
 10
59.750000071149543
 20
141.43676817160889
 30
0.0
 42
0.9999999999999998
  0
VERTEX
  5
232D
  8
SAPA_ANSLUTNING
 10
59.750000071149543
 20
145.43676817160889
 30
0.0
  0
VERTEX
  5
232E
  8
SAPA_ANSLUTNING
 10
48.750000071149543
 20
145.43676817160889
 30
0.0
 42
-0.9999999999999998
  0
VERTEX
  5
232F
  8
SAPA_ANSLUTNING
 10
48.750000071149543
 20
149.43676817160889
 30
0.0
  0
VERTEX
  5
2330
  8
SAPA_ANSLUTNING
 10
59.750000071149543
 20
149.43676817160889
 30
0.0
 42
0.9999999999999998
  0
VERTEX
  5
2331
  8
SAPA_ANSLUTNING
 10
59.750000071149543
 20
153.43676817160889
 30
0.0
  0
VERTEX
  5
2332
  8
SAPA_ANSLUTNING
 10
48.750000071149543
 20
153.43676817160889
 30
0.0
 42
-0.9999999999999998
  0
VERTEX
  5
2333
  8
SAPA_ANSLUTNING
 10
48.750000071149543
 20
157.43676817160889
 30
0.0
  0
VERTEX
  5
2334
  8
SAPA_ANSLUTNING
 10
59.750000071149543
 20
157.43676817160889
 30
0.0
 42
0.9999999999999998
  0
VERTEX
  5
2335
  8
SAPA_ANSLUTNING
 10
59.750000071149543
 20
161.43676817160889
 30
0.0
  0
VERTEX
  5
2336
  8
SAPA_ANSLUTNING
 10
48.750000071149543
 20
161.43676817160889
 30
0.0
 42
-0.9999999999999998
  0
VERTEX
  5
2337
  8
SAPA_ANSLUTNING
 10
48.750000071149543
 20
165.43676817160889
 30
0.0
  0
VERTEX
  5
2338
  8
SAPA_ANSLUTNING
 10
59.750000071149543
 20
165.43676817160889
 30
0.0
 42
0.9999999999999998
  0
VERTEX
  5
2339
  8
SAPA_ANSLUTNING
 10
59.750000071149543
 20
169.43676817160889
 30
0.0
  0
VERTEX
  5
233A
  8
SAPA_ANSLUTNING
 10
48.750000071149543
 20
169.43676817160889
 30
0.0
 42
-0.9999999999999998
  0
VERTEX
  5
233B
  8
SAPA_ANSLUTNING
 10
48.750000071149543
 20
173.43676817160889
 30
0.0
  0
VERTEX
  5
233C
  8
SAPA_ANSLUTNING
 10
59.750000071149543
 20
173.43676817160889
 30
0.0
 42
0.9999999999999998
  0
VERTEX
  5
233D
  8
SAPA_ANSLUTNING
 10
59.750000071149543
 20
177.43676817160889
 30
0.0
  0
VERTEX
  5
233E
  8
SAPA_ANSLUTNING
 10
48.750000071149543
 20
177.43676817160889
 30
0.0
 42
-0.9999999999999998
  0
VERTEX
  5
233F
  8
SAPA_ANSLUTNING
 10
48.750000071149543
 20
181.43676817160889
 30
0.0
  0
VERTEX
  5
2340
  8
SAPA_ANSLUTNING
 10
59.750000071149543
 20
181.43676817160889
 30
0.0
 42
0.9999999999999998
  0
VERTEX
  5
2341
  8
SAPA_ANSLUTNING
 10
59.750000071149543
 20
185.43676817160889
 30
0.0
  0
VERTEX
  5
2342
  8
SAPA_ANSLUTNING
 10
48.750000071149543
 20
185.43676817160889
 30
0.0
 42
-0.9999999999999998
  0
VERTEX
  5
2343
  8
SAPA_ANSLUTNING
 10
48.750000071149543
 20
189.43676817160889
 30
0.0
  0
VERTEX
  5
2344
  8
SAPA_ANSLUTNING
 10
59.750000071149543
 20
189.43676817160889
 30
0.0
 42
0.9999999999999998
  0
VERTEX
  5
2345
  8
SAPA_ANSLUTNING
 10
59.750000071149543
 20
193.43676817160889
 30
0.0
  0
VERTEX
  5
2346
  8
SAPA_ANSLUTNING
 10
48.750000071149543
 20
193.43676817160889
 30
0.0
 42
-0.9999999999999998
  0
VERTEX
  5
2347
  8
SAPA_ANSLUTNING
 10
48.750000071149543
 20
197.43676817160889
 30
0.0
  0
VERTEX
  5
2348
  8
SAPA_ANSLUTNING
 10
59.750000071149543
 20
197.43676817160889
 30
0.0
 42
0.9999999999999998
  0
VERTEX
  5
2349
  8
SAPA_ANSLUTNING
 10
59.750000071149543
 20
201.43676817160889
 30
0.0
  0
VERTEX
  5
234A
  8
SAPA_ANSLUTNING
 10
48.750000071149543
 20
201.43676817160889
 30
0.0
 42
-0.9999999999999998
  0
VERTEX
  5
234B
  8
SAPA_ANSLUTNING
 10
48.750000071149543
 20
205.43676817160889
 30
0.0
  0
VERTEX
  5
234C
  8
SAPA_ANSLUTNING
 10
59.750000071149543
 20
205.43676817160889
 30
0.0
 42
0.9999999999999998
  0
VERTEX
  5
234D
  8
SAPA_ANSLUTNING
 10
59.750000071149543
 20
209.43676817160889
 30
0.0
  0
VERTEX
  5
234E
  8
SAPA_ANSLUTNING
 10
48.750000071149543
 20
209.43676817160889
 30
0.0
 42
-0.9999999999999998
  0
VERTEX
  5
234F
  8
SAPA_ANSLUTNING
 10
48.750000071149543
 20
213.43676817160889
 30
0.0
  0
VERTEX
  5
2350
  8
SAPA_ANSLUTNING
 10
59.750000071149543
 20
213.43676817160889
 30
0.0
  0
SEQEND
  5
2351
  8
SAPA_ANSLUTNING
  0
ARC
  5
17D5
  8
SAPA_ANSLUTNING
 10
-37.898292048726262
 20
218.32825849517889
 30
0.0
 40
25.53527834356208
 50
351.18295057442919
 51
15.145756843036761
  0
TEXT
  5
17D9
  8
SAPA_ARTIKELNR
 10
-17.964784352782999
 20
72.962445230964704
 30
0.0000000048844772
 40
3.5
  1
D9A050
 50
90.0
  7
ISO
  0
LINE
  5
1C08
  8
SAPA_GLAS
 10
-43.125288431229158
 20
205.25000014353719
 30
0.0
 11
-43.125288431229158
 21
204.50000014352389
 31
0.0
  0
LINE
  5
1C09
  8
SAPA_GLAS
 10
-30.32528843121807
 20
204.50000014352389
 30
0.0
 11
-30.32528843121716
 21
205.25000014352301
 31
0.0
  0
LINE
  5
1C0B
  8
SAPA_GLAS
 10
-43.125288431229158
 20
151.7500001431724
 30
0.0
 11
-43.125288431229158
 21
152.50000014318559
 31
0.0
  0
LINE
  5
1C0C
  8
SAPA_GLAS
 10
-30.32528843121807
 20
152.50000014318559
 30
0.0
 11
-30.32528843121716
 21
151.7500001431865
 31
0.0
  0
TEXT
  5
1C0E
  8
SAPA_ARTIKELNR
 10
-60.953725948568973
 20
147.7794604980524
 30
0.0000000048844772
 40
3.5
  1
D9V005
  7
ISO
  0
LINE
  5
1C11
  8
SAPA_FOGBAND
 10
-8.1613994200567959
 20
145.6004326752381
 30
0.0
 11
-8.1613994200595243
 21
150.5966360034144
 31
0.0
  0
LINE
  5
1C12
  8
SAPA_FOGBAND
 10
-8.3113994200582511
 20
150.5966360034144
 30
0.0
 11
-8.3113994200582511
 21
145.6004326752381
 31
0.0
  0
LINE
  5
1C16
  8
SAPA_FOGBAND
 10
-8.1613994200567959
 20
211.39956761147181
 30
0.0
 11
-8.1613994200595243
 21
206.50089852094331
 31
0.0
  0
LINE
  5
1C17
  8
SAPA_FOGBAND
 10
-8.3113994200582511
 20
206.50089852094331
 30
0.0
 11
-8.3113994200582511
 21
211.39956761147181
 31
0.0
  0
TEXT
  5
1C2D
  8
SAPA_ARTIKELNR
 10
-35.215564063857791
 20
210.45312270575641
 30
0.0000000048844772
 40
3.5
  1
D9V007
  7
ISO
  0
LINE
  5
1C30
  8
SAPA_FOGBAND
 10
0.3386005799477516
 20
211.3995676114682
 30
0.0
 11
0.3386005799450231
 21
206.5008985209397
 31
0.0
  0
LINE
  5
1C31
  8
SAPA_FOGBAND
 10
0.1886005799462964
 20
206.5008985209397
 30
0.0
 11
0.1886005799462964
 21
211.3995676114682
 31
0.0
  0
LINE
  5
1C35
  8
SAPA_FOGBAND
 10
0.3386005799522991
 20
145.6004326752593
 30
0.0
 11
0.3386005799495706
 21
150.59663600343561
 31
0.0
  0
LINE
  5
1C36
  8
SAPA_FOGBAND
 10
0.1886005799508439
 20
150.59663600343561
 30
0.0
 11
0.1886005799508439
 21
145.6004326752593
 31
0.0
  0
LINE
  5
1D1F
  8
SAPA_FOGBAND
 10
25.152606114185119
 20
164.0300214157314
 30
0.0
 11
27.552606114153829
 21
163.15649285350349
 31
0.0
  0
ARC
  5
1D20
  8
SAPA_FOGBAND
 10
27.45000007115614
 20
162.8745850672675
 30
0.0
 40
0.3000000000002299
 50
0.0000000000162844
 51
70.000000000016954
  0
LINE
  5
1D21
  8
SAPA_FOGBAND
 10
27.750000071156361
 20
162.87458506726759
 30
0.0
 11
27.750000071156361
 21
159.80965411964499
 31
0.0
  0
ARC
  5
1D22
  8
SAPA_FOGBAND
 10
27.450000071156602
 20
159.80965411964499
 30
0.0
 40
0.2999999999997698
 50
285.00000000001421
 51
0.0000000000108563
  0
LINE
  5
1D23
  8
SAPA_FOGBAND
 10
27.527645784687369
 20
159.5198763717585
 30
0.0
 11
25.127645784718201
 21
158.8767983099319
 31
0.0
  0
ARC
  5
1D24
  8
SAPA_FOGBAND
 10
25.050000071187469
 20
159.16657605781879
 30
0.0
 40
0.3000000000001815
 50
179.99999999998369
 51
284.99999999998522
  0
LINE
  5
1D25
  8
SAPA_FOGBAND
 10
24.750000071187291
 20
159.1665760578189
 30
0.0
 11
24.750000071187291
 21
163.74811362949549
 31
0.0
  0
ARC
  5
1D26
  8
SAPA_FOGBAND
 10
25.050000071187409
 20
163.74811362949549
 30
0.0
 40
0.3000000000001215
 50
70.000000000006978
 51
180.0000000000054
  0
LINE
  5
1D29
  8
SAPA_FOGBAND
 10
0.1136005799501163
 20
145.6004326752593
 30
0.0
 11
0.0036031947686297
 21
150.34726667024569
 31
0.0
  0
LINE
  5
1D2A
  8
SAPA_FOGBAND
 10
0.0036031947686297
 20
150.34726667024569
 30
0.0
 11
-2.4344901456540811
 21
150.34669017137111
 31
0.0
  0
LINE
  5
1D2B
  8
SAPA_FOGBAND
 10
-2.4344901456540811
 20
150.34669017137111
 30
0.0
 11
-1.309089023189471
 21
145.6004326752593
 31
0.0
  0
LINE
  5
1D2C
  8
SAPA_FOGBAND
 10
1.8362901830926139
 20
145.6004326752593
 30
0.0
 11
2.961736780408728
 21
150.34685988583831
 31
0.0
  0
LINE
  5
1D2D
  8
SAPA_FOGBAND
 10
2.961736780408728
 20
150.34685988583831
 30
0.0
 11
0.5235987338603536
 21
150.34729602665831
 31
0.0
  0
LINE
  5
1D2E
  8
SAPA_FOGBAND
 10
0.5235987338603536
 20
150.34729602665831
 30
0.0
 11
0.4136005799530267
 21
145.6004326752593
 31
0.0
  0
LINE
  5
1D2F
  8
SAPA_FOGBAND
 10
-2.8863994200462448
 20
144.80043267525821
 30
0.0
 11
-2.8863994200462448
 21
145.6004326752593
 31
0.0
  0
LINE
  5
1D30
  8
SAPA_FOGBAND
 10
-2.8863994200462448
 20
145.6004326752593
 30
0.0
 11
3.4136005799502982
 21
145.6004326752593
 31
0.0
  0
LINE
  5
1D31
  8
SAPA_FOGBAND
 10
3.4136005799502982
 20
145.6004326752593
 30
0.0
 11
3.4136005799502982
 21
144.80043267525821
 31
0.0
  0
LINE
  5
1D32
  8
SAPA_FOGBAND
 10
3.4136005799502982
 20
144.80043267525821
 30
0.0
 11
-2.8863994200462448
 21
144.80043267525821
 31
0.0
  0
LINE
  5
1D33
  8
SAPA_FOGBAND
 10
0.1136005799455688
 20
211.3995676114682
 30
0.0
 11
0.0036031947640822
 21
206.75026785412959
 31
0.0
  0
LINE
  5
1D34
  8
SAPA_FOGBAND
 10
0.0036031947640822
 20
206.75026785412959
 30
0.0
 11
-2.4344901456586281
 21
206.75084435300411
 31
0.0
  0
LINE
  5
1D35
  8
SAPA_FOGBAND
 10
-2.4344901456586281
 20
206.75084435300411
 30
0.0
 11
-1.3090890231940191
 21
211.3995676114682
 31
0.0
  0
LINE
  5
1D36
  8
SAPA_FOGBAND
 10
1.8362901830880669
 20
211.3995676114682
 30
0.0
 11
2.9617367804041801
 21
206.75067463853699
 31
0.0
  0
LINE
  5
1D37
  8
SAPA_FOGBAND
 10
2.9617367804041801
 20
206.75067463853699
 30
0.0
 11
0.5235987338558062
 21
206.75023849771699
 31
0.0
  0
LINE
  5
1D38
  8
SAPA_FOGBAND
 10
0.5235987338558062
 20
206.75023849771699
 30
0.0
 11
0.4136005799484792
 21
211.3995676114682
 31
0.0
  0
LINE
  5
1D39
  8
SAPA_FOGBAND
 10
-2.8863994200507932
 20
212.19956761146929
 30
0.0
 11
-2.8863994200507932
 21
211.3995676114682
 31
0.0
  0
LINE
  5
1D3A
  8
SAPA_FOGBAND
 10
-2.8863994200507932
 20
211.3995676114682
 30
0.0
 11
3.4136005799457498
 21
211.3995676114682
 31
0.0
  0
LINE
  5
1D3B
  8
SAPA_FOGBAND
 10
3.4136005799457498
 20
211.3995676114682
 30
0.0
 11
3.4136005799457498
 21
212.19956761146929
 31
0.0
  0
LINE
  5
1D3C
  8
SAPA_FOGBAND
 10
3.4136005799457498
 20
212.19956761146929
 30
0.0
 11
-2.8863994200507932
 21
212.19956761146929
 31
0.0
  0
LINE
  5
1D3D
  8
SAPA_GLAS
 10
-62.32528843121716
 20
196.50000014350761
 30
0.0
 11
-30.32528843121716
 21
196.50000014350761
 31
0.0
  0
LINE
  5
1D3E
  8
SAPA_GLAS
 10
-30.32528843121716
 20
196.50000014350761
 30
0.0
 11
-30.32528843121716
 21
204.50000014350761
 31
0.0
  0
LINE
  5
1D3F
  8
SAPA_GLAS
 10
-30.32528843121716
 20
204.50000014350761
 30
0.0
 11
-62.32528843121716
 21
204.50000014350761
 31
0.0
  0
LINE
  5
1D40
  8
SAPA_GLAS
 10
-40.32528843121716
 20
196.50000014350761
 30
0.0
 11
-40.32528843121716
 21
181.50000014350749
 31
0.0
  0
LINE
  5
1D41
  8
SAPA_GLAS
 10
-40.32528843121716
 20
181.50000014350749
 30
0.0
 11
-30.32528843121716
 21
181.50000014350749
 31
0.0
  0
LINE
  5
1D42
  8
SAPA_GLAS
 10
-30.32528843121716
 20
181.50000014350749
 30
0.0
 11
-30.32528843121716
 21
196.50000014350761
 31
0.0
  0
LINE
  5
1D43
  8
SAPA_GLAS
 10
-30.32528843121716
 20
196.50000014350761
 30
0.0
 11
-40.32528843121716
 21
196.50000014350761
 31
0.0
  0
LINE
  5
1D44
  8
SAPA_GLAS
 10
-62.32528843121716
 20
175.50000014350749
 30
0.0
 11
-30.32528843121716
 21
175.50000014350749
 31
0.0
  0
LINE
  5
1D45
  8
SAPA_GLAS
 10
-30.32528843121716
 20
175.50000014350749
 30
0.0
 11
-30.32528843121716
 21
181.50000014350749
 31
0.0
  0
LINE
  5
1D46
  8
SAPA_GLAS
 10
-30.32528843121716
 20
181.50000014350749
 30
0.0
 11
-62.32528843121716
 21
181.50000014350749
 31
0.0
  0
LINE
  5
1D47
  8
SAPA_GLAS
 10
-40.32528843121716
 20
175.5000001433468
 30
0.0
 11
-40.32528843121716
 21
160.5000001433468
 31
0.0
  0
LINE
  5
1D48
  8
SAPA_GLAS
 10
-40.32528843121716
 20
160.5000001433468
 30
0.0
 11
-30.32528843121716
 21
160.5000001433468
 31
0.0
  0
LINE
  5
1D49
  8
SAPA_GLAS
 10
-30.32528843121716
 20
160.5000001433468
 30
0.0
 11
-30.32528843121716
 21
175.5000001433468
 31
0.0
  0
LINE
  5
1D4A
  8
SAPA_GLAS
 10
-30.32528843121716
 20
175.5000001433468
 30
0.0
 11
-40.32528843121716
 21
175.5000001433468
 31
0.0
  0
LINE
  5
1D4B
  8
SAPA_GLAS
 10
-62.32528843121716
 20
152.5000001433466
 30
0.0
 11
-30.32528843121716
 21
152.5000001433466
 31
0.0
  0
LINE
  5
1D4C
  8
SAPA_GLAS
 10
-30.32528843121716
 20
152.5000001433466
 30
0.0
 11
-30.32528843121716
 21
160.5000001433466
 31
0.0
  0
LINE
  5
1D4D
  8
SAPA_GLAS
 10
-30.32528843121716
 20
160.5000001433466
 30
0.0
 11
-62.32528843121716
 21
160.5000001433466
 31
0.0
  0
LINE
  5
1D4E
  8
SAPA_PROFIL
 10
-17.54999992882972
 20
157.5000001440348
 30
0.0
 11
-19.949999928838452
 21
157.500000144013
 31
0.0
  0
ARC
  5
1D4F
  8
SAPA_PROFIL
 10
-19.949999928840992
 20
157.2000001440145
 30
0.0
 40
0.2999999999985334
 50
89.999999999514174
 51
179.99999999805669
  0
LINE
  5
1D50
  8
SAPA_PROFIL
 10
-20.249999928839539
 20
157.20000014402461
 30
0.0
 11
-20.249999928839539
 21
153.000000144013
 31
0.0
  0
ARC
  5
1D51
  8
SAPA_PROFIL
 10
-23.24999992883955
 20
153.00000014402389
 30
0.0
 40
3.0000000000000102
 50
269.99999999979133
 51
359.9999999997915
  0
LINE
  5
1D52
  8
SAPA_PROFIL
 10
-23.249999928850482
 20
150.00000014402389
 30
0.0
 11
-28.249999928839571
 21
150.00000014402389
 31
0.0
  0
ARC
  5
1D53
  8
SAPA_PROFIL
 10
-28.249999928879841
 20
280.00000014403582
 30
0.0
 40
130.0000000000118
 50
263.6007970145584
 51
270.00000000001768
  0
ARC
  5
1D54
  8
SAPA_PROFIL
 10
-42.649999928100598
 20
151.6049846650649
 30
0.0
 40
0.8000000006978995
 50
183.15197052778379
 51
263.60079696657158
  0
ARC
  5
1D55
  8
SAPA_PROFIL
 10
-43.648487135788038
 20
151.55000014474709
 30
0.0
 40
0.1999999999971168
 50
3.1519705751423222
 51
90.000000000046796
  0
LINE
  5
1D56
  8
SAPA_PROFIL
 10
-43.648487135788201
 20
151.75000014474421
 30
0.0
 11
-44.549999928849751
 21
151.7500001447479
 31
0.0
  0
ARC
  5
1D57
  8
SAPA_PROFIL
 10
-44.549999928849758
 20
151.55000014474709
 30
0.0
 40
0.2000000000007276
 50
89.999999999997968
 51
180.00000000312659
  0
LINE
  5
1D58
  8
SAPA_PROFIL
 10
-44.749999928850478
 20
151.5500001447362
 30
0.0
 11
-44.749999928857761
 21
151.3239410762653
 31
0.0
  0
ARC
  5
1D59
  8
SAPA_PROFIL
 10
-42.749999928857932
 20
151.3239410762873
 30
0.0
 40
1.999999999999829
 50
180.00000000063019
 51
263.49549990599252
  0
ARC
  5
1D5A
  8
SAPA_PROFIL
 10
-28.249999928855051
 20
278.50000014404043
 30
0.0
 40
130.00000000001819
 50
263.4954999059878
 51
275.88924174844072
  0
ARC
  5
1D5B
  8
SAPA_PROFIL
 10
-15.937308404868871
 20
159.13334806906019
 30
0.0
 40
9.9999999993756905
 50
275.8892417492446
 51
286.70910753330469
  0
ARC
  5
1D5C
  8
SAPA_PROFIL
 10
-20.249999928876829
 20
173.5000001437121
 30
0.0
 40
24.999999999887311
 50
286.70910753265861
 51
289.46295094641027
  0
ARC
  5
1D5D
  8
SAPA_PROFIL
 10
-8.5880961391652821
 20
140.5000001438282
 30
0.0
 40
10.0000000000102
 50
89.999999999957524
 51
109.46295094641241
  0
LINE
  5
1D5E
  8
SAPA_PROFIL
 10
-8.5880961391578694
 20
150.50000014383841
 30
0.0
 11
-1.2499999288286281
 21
150.50000014383841
 31
0.0
  0
ARC
  5
1D5F
  8
SAPA_PROFIL
 10
-1.2499999288286281
 20
155.50000014383841
 30
0.0
 40
5.0
 50
270.0
 51
0.0
  0
LINE
  5
1D60
  8
SAPA_PROFIL
 10
3.750000071171371
 20
155.50000014383841
 30
0.0
 11
3.7500000711604571
 21
158.25613110273841
 31
0.0
  0
ARC
  5
1D61
  8
SAPA_PROFIL
 10
3.450000071139347
 20
158.25613110273849
 30
0.0
 40
0.3000000000211092
 50
359.99999999998369
 51
54.379930240085692
  0
ARC
  5
1D62
  8
SAPA_PROFIL
 10
3.7994447211823181
 20
158.743869184663
 30
0.0
 40
0.2999999999813973
 50
180.00000000507529
 51
234.37993024868021
  0
LINE
  5
1D63
  8
SAPA_PROFIL
 10
3.4994447212009159
 20
158.7438691846364
 30
0.0
 11
3.4994447212009159
 21
159.70000014368631
 31
0.0
  0
ARC
  5
1D64
  8
SAPA_PROFIL
 10
3.7994447211997882
 20
159.7000001436858
 30
0.0
 40
0.2999999999988718
 50
109.4663590003027
 51
179.99999999990769
  0
LINE
  5
1D65
  8
SAPA_PROFIL
 10
3.699468721195216
 20
159.98285134029351
 30
0.0
 11
3.699468721195216
 21
162.2858105813211
 31
0.0
  0
ARC
  5
1D66
  8
SAPA_PROFIL
 10
2.6994687211954931
 20
162.28581058132019
 30
0.0
 40
0.9999999999997232
 50
0.0000000000521102
 51
135.000000000048
  0
LINE
  5
1D67
  8
SAPA_PROFIL
 10
1.992361940008549
 20
162.99291736250601
 30
0.0
 11
0.6873126868392774
 21
161.6878681093367
 31
0.0
  0
ARC
  5
1D68
  8
SAPA_PROFIL
 10
0.8994447211974467
 20
161.4757360749806
 30
0.0
 40
0.3000000000016167
 50
135.0000000002868
 51
180.000000000304
  0
LINE
  5
1D69
  8
SAPA_PROFIL
 10
0.5994447211958232
 20
161.47573607497901
 30
0.0
 11
0.5994447211958232
 21
160.8892306282323
 31
0.0
  0
ARC
  5
1D6A
  8
SAPA_PROFIL
 10
0.8994447211987061
 20
160.8892306282321
 30
0.0
 40
0.3000000000028831
 50
179.9999999999674
 51
209.99999999996481
  0
LINE
  5
1D6B
  8
SAPA_PROFIL
 10
0.6396371000607815
 20
160.73923062823081
 30
0.0
 11
1.4994447211972779
 21
159.25000014369289
 31
0.0
  0
LINE
  5
1D6C
  8
SAPA_PROFIL
 10
1.4994447211972779
 20
159.25000014369289
 30
0.0
 11
1.4994567211958829
 21
158.8000001436921
 31
0.0
  0
ARC
  5
1D6D
  8
SAPA_PROFIL
 10
1.1994567211966161
 20
158.8000001436921
 30
0.0
 40
0.2999999999992671
 50
269.99999999999898
 51
0.0
  0
LINE
  5
1D6E
  8
SAPA_PROFIL
 10
1.199456721196611
 20
158.50000014369289
 30
0.0
 11
-2.400555278804176
 21
158.50000014368919
 31
0.0
  0
ARC
  5
1D6F
  8
SAPA_PROFIL
 10
-2.400555278804176
 20
158.80000014368849
 30
0.0
 40
0.2999999999992724
 50
180.0
 51
270.0
  0
LINE
  5
1D70
  8
SAPA_PROFIL
 10
-2.7005552788034488
 20
158.80000014368849
 30
0.0
 11
-2.7005552788034488
 21
159.25000014368919
 31
0.0
  0
LINE
  5
1D71
  8
SAPA_PROFIL
 10
-2.7005552788034488
 20
159.25000014368919
 30
0.0
 11
-1.840730541234961
 21
160.73926027476409
 31
0.0
  0
ARC
  5
1D72
  8
SAPA_PROFIL
 10
-2.1005381623713228
 20
160.88926027476521
 30
0.0
 40
0.300000000001478
 50
329.99999999990467
 51
359.9963531324633
  0
LINE
  5
1D73
  8
SAPA_PROFIL
 10
-1.800538162977545
 20
160.88924117981151
 30
0.0
 11
-1.8005357911699771
 21
161.0000001436965
 31
0.0
  0
LINE
  5
1D74
  8
SAPA_PROFIL
 10
-1.8005357911699771
 20
161.0000001436965
 30
0.0
 11
-6.6994635038920469
 21
161.000000143682
 31
0.0
  0
LINE
  5
1D75
  8
SAPA_PROFIL
 10
-6.6994635038920469
 20
161.000000143682
 30
0.0
 11
-6.699461694745195
 21
160.8892411798079
 31
0.0
  0
ARC
  5
1D76
  8
SAPA_PROFIL
 10
-6.399461695351417
 20
160.8892602747616
 30
0.0
 40
0.3000000000014735
 50
180.0036468675367
 51
210.0000000000953
  0
LINE
  5
1D77
  8
SAPA_PROFIL
 10
-6.6592693164877801
 20
160.7392602747604
 30
0.0
 11
-5.7994445789192923
 21
159.25000014368561
 31
0.0
  0
LINE
  5
1D78
  8
SAPA_PROFIL
 10
-5.7994445789192923
 20
159.25000014368561
 30
0.0
 11
-5.7994445789192923
 21
158.80000014368491
 31
0.0
  0
ARC
  5
1D79
  8
SAPA_PROFIL
 10
-6.0994445789185638
 20
158.80000014368491
 30
0.0
 40
0.2999999999992724
 50
270.0
 51
0.0
  0
LINE
  5
1D7A
  8
SAPA_PROFIL
 10
-6.0994445789185638
 20
158.50000014368561
 30
0.0
 11
-9.6994565789193512
 21
158.50000014368561
 31
0.0
  0
ARC
  5
1D7B
  8
SAPA_PROFIL
 10
-9.6994565789193583
 20
158.80000014368491
 30
0.0
 40
0.2999999999992724
 50
180.0
 51
270.00000000000102
  0
LINE
  5
1D7C
  8
SAPA_PROFIL
 10
-9.9994565789186254
 20
158.80000014368491
 30
0.0
 11
-9.9994445789200181
 21
159.25000014368561
 31
0.0
  0
LINE
  5
1D7D
  8
SAPA_PROFIL
 10
-9.9994445789200181
 20
159.25000014368561
 30
0.0
 11
-9.139636957785342
 21
160.7392306282272
 31
0.0
  0
ARC
  5
1D7E
  8
SAPA_PROFIL
 10
-9.3994445789164782
 20
160.8892306282267
 30
0.0
 40
0.2999999999960995
 50
329.9999999996877
 51
359.99999999968509
  0
LINE
  5
1D7F
  8
SAPA_PROFIL
 10
-9.0994445789203837
 20
160.88923062822499
 30
0.0
 11
-9.0994445789203837
 21
161.47573607497179
 31
0.0
  0
ARC
  5
1D80
  8
SAPA_PROFIL
 10
-9.399444578922008
 20
161.47573607497341
 30
0.0
 40
0.3000000000016243
 50
359.99999999969612
 51
44.99999999971309
  0
LINE
  5
1D81
  8
SAPA_PROFIL
 10
-9.1873125445638362
 20
161.6878681093294
 30
0.0
 11
-10.492361797733111
 21
162.9929173624987
 31
0.0
  0
ARC
  5
1D82
  8
SAPA_PROFIL
 10
-11.1994685789193
 20
162.2858105813111
 30
0.0
 40
1.000000000000475
 50
45.00000000005614
 51
180.0000000000521
  0
LINE
  5
1D83
  8
SAPA_PROFIL
 10
-12.199468578919779
 20
162.28581058131019
 30
0.0
 11
-12.199468578919779
 21
159.98285134030081
 31
0.0
  0
ARC
  5
1D84
  8
SAPA_PROFIL
 10
-12.29944457892123
 20
159.70000014368759
 30
0.0
 40
0.3000000000030367
 50
359.9999999997558
 51
70.533641000610004
  0
LINE
  5
1D85
  8
SAPA_PROFIL
 10
-11.999444578918199
 20
159.70000014368631
 30
0.0
 11
-11.99944457892002
 21
158.7438691846364
 31
0.0
  0
ARC
  5
1D86
  8
SAPA_PROFIL
 10
-12.29944457891559
 20
158.74386918464421
 30
0.0
 40
0.299999999995574
 50
305.62006975527453
 51
359.99999999850178
  0
ARC
  5
1D87
  8
SAPA_PROFIL
 10
-11.94999992887875
 20
158.25613110269379
 30
0.0
 40
0.3000000000244499
 50
125.62006975212471
 51
179.9999999921834
  0
LINE
  5
1D88
  8
SAPA_PROFIL
 10
-12.249999928903209
 20
158.2561311027348
 30
0.0
 11
-12.249999928857729
 21
157.500000144013
 31
0.0
  0
ARC
  5
1D89
  8
SAPA_PROFIL
 10
-11.24999992885409
 20
157.50000014401661
 30
0.0
 40
1.0000000000036371
 50
180.00000000020839
 51
269.99999999979161
  0
LINE
  5
1D8A
  8
SAPA_PROFIL
 10
-11.249999928857729
 20
156.500000144013
 30
0.0
 11
-8.7499999287012997
 21
156.50000014383841
 31
0.0
  0
ARC
  5
1D8B
  8
SAPA_PROFIL
 10
-8.7499999288504569
 20
154.50000014383841
 30
0.0
 40
2.0
 50
270.0
 51
89.999999995726967
  0
LINE
  5
1D8C
  8
SAPA_PROFIL
 10
-8.7499999288504569
 20
152.50000014383841
 30
0.0
 11
-16.74999992885046
 21
152.50000014383841
 31
0.0
  0
ARC
  5
1D8D
  8
SAPA_PROFIL
 10
-16.749999928854091
 20
154.5000001438348
 30
0.0
 40
1.999999999996362
 50
179.9999999996873
 51
270.00000000010419
  0
LINE
  5
1D8E
  8
SAPA_PROFIL
 10
-18.74999992885046
 20
154.50000014384571
 30
0.0
 11
-18.749999928828629
 21
156.200000144021
 31
0.0
  0
ARC
  5
1D8F
  8
SAPA_PROFIL
 10
-18.449999928830081
 20
156.2000001440145
 30
0.0
 40
0.2999999999985441
 50
89.999999998123911
 51
179.99999999875149
  0
LINE
  5
1D90
  8
SAPA_PROFIL
 10
-18.449999928820262
 20
156.500000144013
 30
0.0
 11
-17.54999992882972
 21
156.50000014402389
 31
0.0
  0
ARC
  5
1D91
  8
SAPA_PROFIL
 10
-17.54999992882426
 20
156.8000001440287
 30
0.0
 40
0.3000000000047294
 50
269.99999999895778
 51
359.99999999895778
  0
LINE
  5
1D92
  8
SAPA_PROFIL
 10
-17.24999992881953
 20
156.80000014402319
 30
0.0
 11
-17.24999992881953
 21
157.20000014402461
 31
0.0
  0
ARC
  5
1D93
  8
SAPA_PROFIL
 10
-17.54999992882972
 20
157.20000014402461
 30
0.0
 40
0.3000000000101863
 50
0.0
 51
90.0
  0
LINE
  5
1D94
  8
SAPA_PROFIL
 10
-17.54999992882972
 20
157.5000001440344
 30
0.0
 11
-19.949999928838452
 21
157.50000014401249
 31
0.0
  0
ARC
  5
1D95
  8
SAPA_PROFIL
 10
-19.949999928840992
 20
157.20000014401401
 30
0.0
 40
0.2999999999985334
 50
89.999999999514174
 51
179.99999999805669
  0
LINE
  5
1D96
  8
SAPA_PROFIL
 10
-20.249999928839539
 20
157.20000014402419
 30
0.0
 11
-20.249999928839539
 21
153.0000001440126
 31
0.0
  0
ARC
  5
1D97
  8
SAPA_PROFIL
 10
-23.24999992883955
 20
153.00000014402349
 30
0.0
 40
3.0000000000000102
 50
269.99999999979133
 51
359.9999999997915
  0
LINE
  5
1D98
  8
SAPA_PROFIL
 10
-23.249999928850482
 20
150.00000014402349
 30
0.0
 11
-28.249999928839571
 21
150.00000014402349
 31
0.0
  0
ARC
  5
1D99
  8
SAPA_PROFIL
 10
-28.249999928879841
 20
280.00000014403531
 30
0.0
 40
130.0000000000118
 50
263.6007970145584
 51
270.00000000001768
  0
ARC
  5
1D9A
  8
SAPA_PROFIL
 10
-42.649999928100598
 20
151.60498466506451
 30
0.0
 40
0.8000000006978995
 50
183.15197052778379
 51
263.60079696657158
  0
ARC
  5
1D9B
  8
SAPA_PROFIL
 10
-43.648487135788038
 20
151.55000014474669
 30
0.0
 40
0.1999999999971168
 50
3.1519705751423222
 51
90.000000000046796
  0
LINE
  5
1D9C
  8
SAPA_PROFIL
 10
-43.648487135788201
 20
151.75000014474381
 30
0.0
 11
-44.549999928849751
 21
151.75000014474739
 31
0.0
  0
ARC
  5
1D9D
  8
SAPA_PROFIL
 10
-44.549999928849758
 20
151.55000014474669
 30
0.0
 40
0.2000000000007276
 50
89.999999999997968
 51
180.00000000312659
  0
LINE
  5
1D9E
  8
SAPA_PROFIL
 10
-44.749999928850478
 20
151.5500001447358
 30
0.0
 11
-44.749999928857761
 21
151.3239410762649
 31
0.0
  0
ARC
  5
1D9F
  8
SAPA_PROFIL
 10
-42.749999928857932
 20
151.3239410762869
 30
0.0
 40
1.999999999999829
 50
180.00000000063019
 51
263.49549990599252
  0
ARC
  5
1DA0
  8
SAPA_PROFIL
 10
-28.249999928855051
 20
278.50000014403997
 30
0.0
 40
130.00000000001819
 50
263.4954999059878
 51
275.88924174844072
  0
ARC
  5
1DA1
  8
SAPA_PROFIL
 10
-15.937308404868871
 20
159.13334806905979
 30
0.0
 40
9.9999999993756905
 50
275.8892417492446
 51
286.70910753330469
  0
ARC
  5
1DA2
  8
SAPA_PROFIL
 10
-20.249999928876829
 20
173.50000014371159
 30
0.0
 40
24.999999999887311
 50
286.70910753265861
 51
289.46295094641027
  0
ARC
  5
1DA3
  8
SAPA_PROFIL
 10
-8.5880961391652821
 20
140.50000014382769
 30
0.0
 40
10.0000000000102
 50
89.999999999957524
 51
109.46295094641241
  0
LINE
  5
1DA4
  8
SAPA_PROFIL
 10
-8.5880961391578694
 20
150.50000014383789
 30
0.0
 11
-1.2499999288286281
 21
150.50000014383789
 31
0.0
  0
ARC
  5
1DA5
  8
SAPA_PROFIL
 10
-1.2499999288286281
 20
155.50000014383789
 30
0.0
 40
5.0
 50
270.0
 51
0.0
  0
LINE
  5
1DA6
  8
SAPA_PROFIL
 10
3.750000071171371
 20
155.50000014383789
 30
0.0
 11
3.7500000711604571
 21
158.25613110273801
 31
0.0
  0
ARC
  5
1DA7
  8
SAPA_PROFIL
 10
3.450000071139347
 20
158.25613110273801
 30
0.0
 40
0.3000000000211092
 50
359.99999999998369
 51
54.379930240085692
  0
ARC
  5
1DA8
  8
SAPA_PROFIL
 10
3.7994447211823181
 20
158.74386918466249
 30
0.0
 40
0.2999999999813973
 50
180.00000000507529
 51
234.37993024868021
  0
LINE
  5
1DA9
  8
SAPA_PROFIL
 10
3.4994447212009159
 20
158.74386918463591
 30
0.0
 11
3.4994447212009159
 21
159.70000014368591
 31
0.0
  0
ARC
  5
1DAA
  8
SAPA_PROFIL
 10
3.7994447211997882
 20
159.7000001436854
 30
0.0
 40
0.2999999999988718
 50
109.4663590003027
 51
179.99999999990769
  0
LINE
  5
1DAB
  8
SAPA_PROFIL
 10
3.699468721195216
 20
159.98285134029311
 30
0.0
 11
3.699468721195216
 21
162.28581058132059
 31
0.0
  0
ARC
  5
1DAC
  8
SAPA_PROFIL
 10
2.6994687211954931
 20
162.28581058131971
 30
0.0
 40
0.9999999999997232
 50
0.0000000000521102
 51
135.000000000048
  0
LINE
  5
1DAD
  8
SAPA_PROFIL
 10
1.992361940008549
 20
162.99291736250549
 30
0.0
 11
0.6873126868392774
 21
161.68786810933619
 31
0.0
  0
ARC
  5
1DAE
  8
SAPA_PROFIL
 10
0.8994447211974467
 20
161.4757360749802
 30
0.0
 40
0.3000000000016167
 50
135.0000000002868
 51
180.000000000304
  0
LINE
  5
1DAF
  8
SAPA_PROFIL
 10
0.5994447211958232
 20
161.47573607497861
 30
0.0
 11
0.5994447211958232
 21
160.8892306282319
 31
0.0
  0
ARC
  5
1DB0
  8
SAPA_PROFIL
 10
0.8994447211987061
 20
160.8892306282317
 30
0.0
 40
0.3000000000028831
 50
179.9999999999674
 51
209.99999999996481
  0
LINE
  5
1DB1
  8
SAPA_PROFIL
 10
0.6396371000607815
 20
160.73923062823039
 30
0.0
 11
1.4994447211972779
 21
159.2500001436924
 31
0.0
  0
LINE
  5
1DB2
  8
SAPA_PROFIL
 10
1.4994447211972779
 20
159.2500001436924
 30
0.0
 11
1.4994567211958829
 21
158.8000001436917
 31
0.0
  0
ARC
  5
1DB3
  8
SAPA_PROFIL
 10
1.1994567211966161
 20
158.8000001436917
 30
0.0
 40
0.2999999999992671
 50
269.99999999999898
 51
0.0
  0
LINE
  5
1DB4
  8
SAPA_PROFIL
 10
1.199456721196611
 20
158.5000001436924
 30
0.0
 11
-2.400555278804176
 21
158.50000014368879
 31
0.0
  0
ARC
  5
1DB5
  8
SAPA_PROFIL
 10
-2.400555278804176
 20
158.80000014368801
 30
0.0
 40
0.2999999999992724
 50
180.0
 51
270.0
  0
LINE
  5
1DB6
  8
SAPA_PROFIL
 10
-2.7005552788034488
 20
158.80000014368801
 30
0.0
 11
-2.7005552788034488
 21
159.25000014368879
 31
0.0
  0
LINE
  5
1DB7
  8
SAPA_PROFIL
 10
-2.7005552788034488
 20
159.25000014368879
 30
0.0
 11
-1.840730541234961
 21
160.73926027476361
 31
0.0
  0
ARC
  5
1DB8
  8
SAPA_PROFIL
 10
-2.1005381623713228
 20
160.88926027476481
 30
0.0
 40
0.300000000001478
 50
329.99999999990467
 51
359.9963531324633
  0
LINE
  5
1DB9
  8
SAPA_PROFIL
 10
-1.800538162977545
 20
160.88924117981099
 30
0.0
 11
-1.8005357911699771
 21
161.00000014369601
 31
0.0
  0
LINE
  5
1DBA
  8
SAPA_PROFIL
 10
-1.8005357911699771
 20
161.00000014369601
 30
0.0
 11
-6.6994635038920469
 21
161.00000014368149
 31
0.0
  0
LINE
  5
1DBB
  8
SAPA_PROFIL
 10
-6.6994635038920469
 20
161.00000014368149
 30
0.0
 11
-6.699461694745195
 21
160.88924117980741
 31
0.0
  0
ARC
  5
1DBC
  8
SAPA_PROFIL
 10
-6.399461695351417
 20
160.88926027476111
 30
0.0
 40
0.3000000000014735
 50
180.0036468675367
 51
210.0000000000953
  0
LINE
  5
1DBD
  8
SAPA_PROFIL
 10
-6.6592693164877801
 20
160.73926027476
 30
0.0
 11
-5.7994445789192923
 21
159.2500001436851
 31
0.0
  0
LINE
  5
1DBE
  8
SAPA_PROFIL
 10
-5.7994445789192923
 20
159.2500001436851
 30
0.0
 11
-5.7994445789192923
 21
158.8000001436844
 31
0.0
  0
ARC
  5
1DBF
  8
SAPA_PROFIL
 10
-6.0994445789185638
 20
158.8000001436844
 30
0.0
 40
0.2999999999992724
 50
270.0
 51
0.0
  0
LINE
  5
1DC0
  8
SAPA_PROFIL
 10
-6.0994445789185638
 20
158.5000001436851
 30
0.0
 11
-9.6994565789193512
 21
158.5000001436851
 31
0.0
  0
ARC
  5
1DC1
  8
SAPA_PROFIL
 10
-9.6994565789193583
 20
158.8000001436844
 30
0.0
 40
0.2999999999992724
 50
180.0
 51
270.00000000000102
  0
LINE
  5
1DC2
  8
SAPA_PROFIL
 10
-9.9994565789186254
 20
158.8000001436844
 30
0.0
 11
-9.9994445789200181
 21
159.2500001436851
 31
0.0
  0
LINE
  5
1DC3
  8
SAPA_PROFIL
 10
-9.9994445789200181
 20
159.2500001436851
 30
0.0
 11
-9.139636957785342
 21
160.73923062822681
 31
0.0
  0
ARC
  5
1DC4
  8
SAPA_PROFIL
 10
-9.3994445789164782
 20
160.88923062822619
 30
0.0
 40
0.2999999999960995
 50
329.9999999996877
 51
359.99999999968509
  0
LINE
  5
1DC5
  8
SAPA_PROFIL
 10
-9.0994445789203837
 20
160.8892306282246
 30
0.0
 11
-9.0994445789203837
 21
161.47573607497131
 31
0.0
  0
ARC
  5
1DC6
  8
SAPA_PROFIL
 10
-9.399444578922008
 20
161.4757360749729
 30
0.0
 40
0.3000000000016243
 50
359.99999999969612
 51
44.99999999971309
  0
LINE
  5
1DC7
  8
SAPA_PROFIL
 10
-9.1873125445638362
 20
161.687868109329
 30
0.0
 11
-10.492361797733111
 21
162.99291736249819
 31
0.0
  0
ARC
  5
1DC8
  8
SAPA_PROFIL
 10
-11.1994685789193
 20
162.28581058131061
 30
0.0
 40
1.000000000000475
 50
45.00000000005614
 51
180.0000000000521
  0
LINE
  5
1DC9
  8
SAPA_PROFIL
 10
-12.199468578919779
 20
162.2858105813097
 30
0.0
 11
-12.199468578919779
 21
159.98285134030041
 31
0.0
  0
ARC
  5
1DCA
  8
SAPA_PROFIL
 10
-12.29944457892123
 20
159.70000014368711
 30
0.0
 40
0.3000000000030367
 50
359.9999999997558
 51
70.533641000610004
  0
LINE
  5
1DCB
  8
SAPA_PROFIL
 10
-11.999444578918199
 20
159.70000014368591
 30
0.0
 11
-11.99944457892002
 21
158.74386918463591
 31
0.0
  0
ARC
  5
1DCC
  8
SAPA_PROFIL
 10
-12.29944457891559
 20
158.74386918464381
 30
0.0
 40
0.299999999995574
 50
305.62006975527453
 51
359.99999999850178
  0
ARC
  5
1DCD
  8
SAPA_PROFIL
 10
-11.94999992887875
 20
158.25613110269339
 30
0.0
 40
0.3000000000244499
 50
125.62006975212471
 51
179.9999999921834
  0
LINE
  5
1DCE
  8
SAPA_PROFIL
 10
-12.249999928903209
 20
158.25613110273429
 30
0.0
 11
-12.249999928857729
 21
157.50000014401249
 31
0.0
  0
ARC
  5
1DCF
  8
SAPA_PROFIL
 10
-11.24999992885409
 20
157.50000014401621
 30
0.0
 40
1.0000000000036371
 50
180.00000000020839
 51
269.99999999979161
  0
LINE
  5
1DD0
  8
SAPA_PROFIL
 10
-11.249999928857729
 20
156.50000014401249
 30
0.0
 11
-8.7499999287012997
 21
156.50000014383789
 31
0.0
  0
ARC
  5
1DD1
  8
SAPA_PROFIL
 10
-8.7499999288504569
 20
154.50000014383789
 30
0.0
 40
2.0
 50
270.0
 51
89.999999995726967
  0
LINE
  5
1DD2
  8
SAPA_PROFIL
 10
-8.7499999288504569
 20
152.50000014383789
 30
0.0
 11
-16.74999992885046
 21
152.50000014383789
 31
0.0
  0
ARC
  5
1DD3
  8
SAPA_PROFIL
 10
-16.749999928854091
 20
154.50000014383431
 30
0.0
 40
1.999999999996362
 50
179.9999999996873
 51
270.00000000010419
  0
LINE
  5
1DD4
  8
SAPA_PROFIL
 10
-18.74999992885046
 20
154.5000001438452
 30
0.0
 11
-18.749999928828629
 21
156.20000014402061
 31
0.0
  0
ARC
  5
1DD5
  8
SAPA_PROFIL
 10
-18.449999928830081
 20
156.20000014401401
 30
0.0
 40
0.2999999999985441
 50
89.999999998123911
 51
179.99999999875149
  0
LINE
  5
1DD6
  8
SAPA_PROFIL
 10
-18.449999928820262
 20
156.50000014401249
 30
0.0
 11
-17.54999992882972
 21
156.50000014402349
 31
0.0
  0
ARC
  5
1DD7
  8
SAPA_PROFIL
 10
-17.54999992882426
 20
156.80000014402819
 30
0.0
 40
0.3000000000047294
 50
269.99999999895778
 51
359.99999999895778
  0
LINE
  5
1DD8
  8
SAPA_PROFIL
 10
-17.24999992881953
 20
156.8000001440227
 30
0.0
 11
-17.24999992881953
 21
157.20000014402419
 31
0.0
  0
ARC
  5
1DD9
  8
SAPA_PROFIL
 10
-17.54999992882972
 20
157.20000014402419
 30
0.0
 40
0.3000000000101863
 50
0.0
 51
90.0
  0
ARC
  5
1DDA
  8
SAPA_PROFIL
 62
     4
 10
1.640952638545738
 20
161.58657762703331
 30
-0.2
 40
1.3416252492690091
 50
180.79556996070579
 51
208.0244187565267
  0
LINE
  5
1DDB
  8
SAPA_PROFIL
 62
     4
 10
0.4566363981709856
 20
160.95621792633801
 30
-0.2
 11
1.4494567212002489
 21
159.2366026840636
 31
-0.2
  0
LINE
  5
1DDC
  8
SAPA_PROFIL
 62
     4
 10
1.4494567212002489
 20
159.2366026840636
 30
-0.2
 11
1.4494567212002489
 21
158.80000014368531
 31
-0.2
  0
ARC
  5
1DDD
  8
SAPA_PROFIL
 62
     4
 10
1.1994567212002489
 20
158.80000014368531
 30
-0.2
 40
0.25
 50
270.0
 51
0.0
  0
LINE
  5
1DDE
  8
SAPA_PROFIL
 62
     4
 10
1.1994567212002489
 20
158.55000014368531
 30
-0.2
 11
-2.4005552787996289
 21
158.55000014368531
 31
-0.2
  0
ARC
  5
1DDF
  8
SAPA_PROFIL
 62
     4
 10
-2.4005552787996329
 20
158.80000014368531
 30
-0.2
 40
0.25
 50
180.0
 51
270.00000000000091
  0
LINE
  5
1DE0
  8
SAPA_PROFIL
 62
     4
 10
-2.6505552787996289
 20
158.80000014368531
 30
-0.2
 11
-2.6505436360641852
 21
159.2366020652639
 31
-0.2
  0
LINE
  5
1DE1
  8
SAPA_PROFIL
 62
     4
 10
-2.6505436360641852
 20
159.2366020652639
 30
-0.2
 11
-1.6577229557740329
 21
160.95621792633119
 31
-0.2
  0
ARC
  5
1DE2
  8
SAPA_PROFIL
 62
     4
 10
-2.7779480602677991
 20
161.57019067649091
 30
-0.2
 40
1.2774454284535031
 50
331.27374261807108
 51
359.54293099292539
  0
LINE
  5
1DE3
  8
SAPA_PROFIL
 62
     4
 10
-1.5005432787995681
 20
161.5600001436855
 30
-0.2
 11
-1.5005432787995681
 21
195.44000014368521
 31
-0.2
  0
ARC
  5
1DE4
  8
SAPA_PROFIL
 62
     4
 10
-2.7779480602677951
 20
195.4298096108798
 30
-0.2
 40
1.2774454284534991
 50
0.4570690070745979
 51
28.726257381929031
  0
LINE
  5
1DE5
  8
SAPA_PROFIL
 62
     4
 10
-1.6577229557740329
 20
196.0437823610396
 30
-0.2
 11
-2.6505436360641852
 21
197.76339822210679
 31
-0.2
  0
LINE
  5
1DE6
  8
SAPA_PROFIL
 62
     4
 10
-2.6505436360641852
 20
197.76339822210679
 30
-0.2
 11
-2.6505552787996289
 21
198.2000001436854
 31
-0.2
  0
ARC
  5
1DE7
  8
SAPA_PROFIL
 62
     4
 10
-2.400555278799632
 20
198.2000001436854
 30
-0.2
 40
0.2499999999999964
 50
89.999999999999204
 51
180.0
  0
LINE
  5
1DE8
  8
SAPA_PROFIL
 62
     4
 10
-2.4005552787996289
 20
198.4500001436854
 30
-0.2
 11
1.1994567212002489
 21
198.4500001436854
 31
-0.2
  0
ARC
  5
1DE9
  8
SAPA_PROFIL
 62
     4
 10
1.1994567212002489
 20
198.2000001436854
 30
-0.2
 40
0.25
 50
0.0
 51
90.000000000000057
  0
LINE
  5
1DEA
  8
SAPA_PROFIL
 62
     4
 10
1.4494567212002489
 20
198.2000001436854
 30
-0.2
 11
1.4494567212002489
 21
197.76339760330711
 31
-0.2
  0
LINE
  5
1DEB
  8
SAPA_PROFIL
 62
     4
 10
1.4494567212002489
 20
197.76339760330711
 30
-0.2
 11
0.4566363981709856
 21
196.0437823610327
 31
-0.2
  0
ARC
  5
1DEC
  8
SAPA_PROFIL
 62
     4
 10
1.6409526385466771
 20
195.4134226603372
 30
-0.2
 40
1.341625249269941
 50
151.97558124348359
 51
179.20443003930441
  0
LINE
  5
1DED
  8
SAPA_PROFIL
 62
     4
 10
0.2994567212006132
 20
195.43205095125401
 30
-0.2
 11
0.2994567212006132
 21
161.56794933611619
 31
-0.2
  0
ARC
  5
1DEE
  8
SAPA_PROFIL
 62
     4
 10
-5.6579486615739842
 20
161.58657762703331
 30
-0.2
 40
1.3416252492690099
 50
180.79556996070579
 51
208.02441875652659
  0
LINE
  5
1DEF
  8
SAPA_PROFIL
 62
     4
 10
-6.842264901948738
 20
160.95621792633801
 30
-0.2
 11
-5.8494445789194742
 21
159.2366026840636
 31
-0.2
  0
LINE
  5
1DF0
  8
SAPA_PROFIL
 62
     4
 10
-5.8494445789194742
 20
159.2366026840636
 30
-0.2
 11
-5.8494445789194742
 21
158.80000014368531
 31
-0.2
  0
ARC
  5
1DF1
  8
SAPA_PROFIL
 62
     4
 10
-6.0994445789194742
 20
158.80000014368531
 30
-0.2
 40
0.25
 50
270.0
 51
0.0
  0
LINE
  5
1DF2
  8
SAPA_PROFIL
 62
     4
 10
-6.0994445789194742
 20
158.55000014368531
 30
-0.2
 11
-9.6994565789193512
 21
158.55000014368531
 31
-0.2
  0
ARC
  5
1DF3
  8
SAPA_PROFIL
 62
     4
 10
-9.6994565789193565
 20
158.80000014368531
 30
-0.2
 40
0.25
 50
180.0
 51
270.0000000000008
  0
LINE
  5
1DF4
  8
SAPA_PROFIL
 62
     4
 10
-9.9494565789193512
 20
158.80000014368531
 30
-0.2
 11
-9.9494449361839088
 21
159.2366020652639
 31
-0.2
  0
LINE
  5
1DF5
  8
SAPA_PROFIL
 62
     4
 10
-9.9494449361839088
 20
159.2366020652639
 30
-0.2
 11
-8.9566242558937574
 21
160.95621792633119
 31
-0.2
  0
ARC
  5
1DF6
  8
SAPA_PROFIL
 62
     4
 10
-10.07684936038752
 20
161.57019067649091
 30
-0.2
 40
1.2774454284535031
 50
331.27374261807108
 51
359.54293099292539
  0
LINE
  5
1DF7
  8
SAPA_PROFIL
 62
     4
 10
-8.7994445789192923
 20
161.5600001436855
 30
-0.2
 11
-8.7994445789192923
 21
195.44000014368521
 31
-0.2
  0
ARC
  5
1DF8
  8
SAPA_PROFIL
 62
     4
 10
-10.07684936038752
 20
195.4298096108798
 30
-0.2
 40
1.2774454284535
 50
0.4570690070745977
 51
28.72625738192902
  0
LINE
  5
1DF9
  8
SAPA_PROFIL
 62
     4
 10
-8.9566242558937574
 20
196.0437823610396
 30
-0.2
 11
-9.9494449361839088
 21
197.76339822210679
 31
-0.2
  0
LINE
  5
1DFA
  8
SAPA_PROFIL
 62
     4
 10
-9.9494449361839088
 20
197.76339822210679
 30
-0.2
 11
-9.9494565789193512
 21
198.2000001436854
 31
-0.2
  0
ARC
  5
1DFB
  8
SAPA_PROFIL
 62
     4
 10
-9.6994565789193565
 20
198.2000001436854
 30
-0.2
 40
0.2499999999999964
 50
89.999999999999204
 51
180.0
  0
LINE
  5
1DFC
  8
SAPA_PROFIL
 62
     4
 10
-9.6994565789193512
 20
198.4500001436854
 30
-0.2
 11
-6.0994445789194742
 21
198.4500001436854
 31
-0.2
  0
ARC
  5
1DFD
  8
SAPA_PROFIL
 62
     4
 10
-6.0994445789194742
 20
198.2000001436854
 30
-0.2
 40
0.25
 50
0.0
 51
90.0
  0
LINE
  5
1DFE
  8
SAPA_PROFIL
 62
     4
 10
-5.8494445789194742
 20
198.2000001436854
 30
-0.2
 11
-5.8494445789194742
 21
197.76339760330711
 31
-0.2
  0
LINE
  5
1DFF
  8
SAPA_PROFIL
 62
     4
 10
-5.8494445789194742
 20
197.76339760330711
 30
-0.2
 11
-6.842264901948738
 21
196.0437823610327
 31
-0.2
  0
ARC
  5
1E00
  8
SAPA_PROFIL
 62
     4
 10
-5.6579486615730463
 20
195.4134226603372
 30
-0.2
 40
1.341625249269941
 50
151.9755812434835
 51
179.20443003930441
  0
LINE
  5
1E01
  8
SAPA_PROFIL
 62
     4
 10
-6.9994445789191104
 20
195.43205095125401
 30
-0.2
 11
-6.9994445789191104
 21
161.56794933611619
 31
-0.2
  0
LINE
  5
1E02
  8
SAPA_PROFIL
 10
-36.24999992885958
 20
236.00000014335819
 30
0.0
 11
-36.24999992885958
 21
235.21146116874661
 31
0.0
  0
ARC
  5
1E03
  8
SAPA_PROFIL
 10
-46.249999928887902
 20
235.2114611686558
 30
0.0
 40
10.00000000002832
 50
346.78979035294628
 51
0.0000000005202879
  0
ARC
  5
1E04
  8
SAPA_PROFIL
 10
12.1622918985602
 20
221.50000014302259
 30
0.0
 40
49.999999999908503
 50
166.78979035199271
 51
192.42579191066551
  0
ARC
  5
1E05
  8
SAPA_PROFIL
 10
-33.736757328148457
 20
211.38677711259641
 30
0.0
 40
3.0000000001322711
 50
192.42579191070669
 51
272.36434044995849
  0
ARC
  5
1E06
  8
SAPA_PROFIL
 10
-28.249999928811789
 20
78.500000144157156
 30
0.0
 40
129.99999999918691
 50
84.11075825159304
 51
92.364340450064944
  0
ARC
  5
1E07
  8
SAPA_PROFIL
 10
-15.937308404929681
 20
197.86665221771381
 30
0.0
 40
9.9999999999710525
 50
73.290892467377233
 51
84.110758251438
  0
ARC
  5
1E08
  8
SAPA_PROFIL
 10
-20.249999928876061
 20
183.500000143558
 30
0.0
 40
24.999999999989871
 50
70.537049053670231
 51
73.290892467422523
  0
ARC
  5
1E09
  8
SAPA_PROFIL
 10
-8.5880961391546808
 20
216.50000014353779
 30
0.0
 40
10.000000000001391
 50
250.53704905351631
 51
269.99999999997129
  0
LINE
  5
1E0A
  8
SAPA_PROFIL
 10
-8.5880961391596884
 20
206.50000014353651
 30
0.0
 11
-1.2499999288304471
 21
206.50000014353651
 31
0.0
  0
ARC
  5
1E0B
  8
SAPA_PROFIL
 10
-1.2499999288304471
 20
201.5000001435364
 30
0.0
 40
5.0
 50
0.0
 51
90.0
  0
LINE
  5
1E0C
  8
SAPA_PROFIL
 10
3.750000071169552
 20
201.5000001435364
 30
0.0
 11
3.7500000711586381
 21
198.7438691846364
 31
0.0
  0
ARC
  5
1E0D
  8
SAPA_PROFIL
 10
3.4500000711393439
 20
198.7438691846327
 30
0.0
 40
0.3000000000192937
 50
305.6200697605924
 51
0.0000000006948028
  0
ARC
  5
1E0E
  8
SAPA_PROFIL
 10
3.799444721187776
 20
198.2561311027055
 30
0.0
 40
0.2999999999886691
 50
125.6200697511798
 51
179.999999994409
  0
LINE
  5
1E0F
  8
SAPA_PROFIL
 10
3.4994447211990969
 20
198.2561311027348
 30
0.0
 11
3.4994447211990969
 21
197.30000014368491
 31
0.0
  0
ARC
  5
1E10
  8
SAPA_PROFIL
 10
3.799444721199936
 20
197.30000014368571
 30
0.0
 40
0.3000000000008387
 50
180.000000000152
 51
250.53364100090459
  0
LINE
  5
1E11
  8
SAPA_PROFIL
 10
3.6994687212006729
 20
197.01714894707399
 30
0.0
 11
3.6994687212006729
 21
194.71418970606101
 31
0.0
  0
ARC
  5
1E12
  8
SAPA_PROFIL
 10
2.699468721200196
 20
194.7141897060601
 30
0.0
 40
1.0000000000004761
 50
225.00000000005619
 51
0.0000000000521102
  0
LINE
  5
1E13
  8
SAPA_PROFIL
 10
1.992361940014006
 20
194.00708292487249
 30
0.0
 11
0.6873126868447345
 21
195.31213217804179
 31
0.0
  0
ARC
  5
1E14
  8
SAPA_PROFIL
 10
0.8994447212029035
 20
195.52426421239781
 30
0.0
 40
0.3000000000016166
 50
179.999999999696
 51
224.9999999997132
  0
LINE
  5
1E15
  8
SAPA_PROFIL
 10
0.5994447212012802
 20
195.5242642123994
 30
0.0
 11
0.5994447212012802
 21
196.1107696591462
 31
0.0
  0
ARC
  5
1E16
  8
SAPA_PROFIL
 10
0.8994447211973746
 20
196.11076965914449
 30
0.0
 40
0.2999999999960945
 50
149.9999999996877
 51
179.99999999968509
  0
LINE
  5
1E17
  8
SAPA_PROFIL
 10
0.6396371000662385
 20
196.26076965914399
 30
0.0
 11
1.4994447212009161
 21
197.75000014368561
 31
0.0
  0
LINE
  5
1E18
  8
SAPA_PROFIL
 10
1.4994447212009161
 20
197.75000014368561
 30
0.0
 11
1.4994567211995209
 21
198.20000014368631
 31
0.0
  0
ARC
  5
1E19
  8
SAPA_PROFIL
 10
1.199456721200254
 20
198.20000014368631
 30
0.0
 40
0.2999999999992671
 50
0.0
 51
90.000000000001023
  0
LINE
  5
1E1A
  8
SAPA_PROFIL
 10
1.1994567212002489
 20
198.50000014368561
 30
0.0
 11
-2.400555278800538
 21
198.50000014368561
 31
0.0
  0
ARC
  5
1E1B
  8
SAPA_PROFIL
 10
-2.400555278800538
 20
198.20000014368631
 30
0.0
 40
0.2999999999992724
 50
90.0
 51
180.0
  0
LINE
  5
1E1C
  8
SAPA_PROFIL
 10
-2.7005552787998108
 20
198.20000014368631
 30
0.0
 11
-2.7005552787998108
 21
197.75000014368561
 31
0.0
  0
LINE
  5
1E1D
  8
SAPA_PROFIL
 10
-2.7005552787998108
 20
197.75000014368561
 30
0.0
 11
-1.8407305412313231
 21
196.2607400126108
 31
0.0
  0
ARC
  5
1E1E
  8
SAPA_PROFIL
 10
-2.1005381623676862
 20
196.1107400126096
 30
0.0
 40
0.3000000000014784
 50
0.0036468675366608
 51
30.00000000009522
  0
LINE
  5
1E1F
  8
SAPA_PROFIL
 10
-1.800538162973907
 20
196.1107591075633
 30
0.0
 11
-1.800531278799326
 21
196.00000014367831
 31
0.0
  0
LINE
  5
1E20
  8
SAPA_PROFIL
 10
-1.800531278799326
 20
196.00000014367831
 30
0.0
 11
-4.2499999288595509
 21
196.00000014368561
 31
0.0
  0
LINE
  5
1E21
  8
SAPA_PROFIL
 10
-4.2499999288595509
 20
196.00000014368561
 30
0.0
 11
-6.6994685789197774
 21
196.00260214368609
 31
0.0
  0
LINE
  5
1E22
  8
SAPA_PROFIL
 10
-6.6994685789197774
 20
196.00260214368609
 30
0.0
 11
-6.699461694745195
 21
196.1107591075633
 31
0.0
  0
ARC
  5
1E23
  8
SAPA_PROFIL
 10
-6.399461695351417
 20
196.1107400126096
 30
0.0
 40
0.3000000000014735
 50
149.9999999999047
 51
179.9963531324633
  0
LINE
  5
1E24
  8
SAPA_PROFIL
 10
-6.6592693164877801
 20
196.2607400126108
 30
0.0
 11
-5.7994445789192923
 21
197.75000014368561
 31
0.0
  0
LINE
  5
1E25
  8
SAPA_PROFIL
 10
-5.7994445789192923
 20
197.75000014368561
 30
0.0
 11
-5.7994445789192923
 21
198.20000014368631
 31
0.0
  0
ARC
  5
1E26
  8
SAPA_PROFIL
 10
-6.0994445789185638
 20
198.20000014368631
 30
0.0
 40
0.2999999999992724
 50
0.0
 51
90.0
  0
LINE
  5
1E27
  8
SAPA_PROFIL
 10
-6.0994445789185638
 20
198.50000014368561
 30
0.0
 11
-9.6994565789193512
 21
198.50000014368561
 31
0.0
  0
ARC
  5
1E28
  8
SAPA_PROFIL
 10
-9.6994565789193583
 20
198.20000014368631
 30
0.0
 40
0.2999999999992724
 50
89.999999999998977
 51
180.0
  0
LINE
  5
1E29
  8
SAPA_PROFIL
 10
-9.9994565789186254
 20
198.20000014368631
 30
0.0
 11
-9.9994445789200181
 21
197.75000014368561
 31
0.0
  0
LINE
  5
1E2A
  8
SAPA_PROFIL
 10
-9.9994445789200181
 20
197.75000014368561
 30
0.0
 11
-9.139636957785342
 21
196.26076965914399
 31
0.0
  0
ARC
  5
1E2B
  8
SAPA_PROFIL
 10
-9.3994445789164782
 20
196.11076965914449
 30
0.0
 40
0.2999999999960995
 50
0.0000000003148325
 51
30.000000000312252
  0
LINE
  5
1E2C
  8
SAPA_PROFIL
 10
-9.0994445789203837
 20
196.1107696591462
 30
0.0
 11
-9.0994445789203837
 21
195.5242642123994
 31
0.0
  0
ARC
  5
1E2D
  8
SAPA_PROFIL
 10
-9.399444578922008
 20
195.52426421239781
 30
0.0
 40
0.3000000000016243
 50
315.00000000028689
 51
0.0000000003039762
  0
LINE
  5
1E2E
  8
SAPA_PROFIL
 10
-9.1873125445638362
 20
195.31213217804179
 30
0.0
 11
-10.492361797733111
 21
194.00708292487249
 31
0.0
  0
ARC
  5
1E2F
  8
SAPA_PROFIL
 10
-11.1994685789193
 20
194.7141897060601
 30
0.0
 40
1.000000000000475
 50
179.9999999999479
 51
314.9999999999439
  0
LINE
  5
1E30
  8
SAPA_PROFIL
 10
-12.199468578919779
 20
194.71418970606101
 30
0.0
 11
-12.199468578919779
 21
197.01714894707399
 31
0.0
  0
ARC
  5
1E31
  8
SAPA_PROFIL
 10
-12.299444578920211
 20
197.3000001436846
 30
0.0
 40
0.3000000000001792
 50
289.46635899937712
 51
0.0000000000597096
  0
LINE
  5
1E32
  8
SAPA_PROFIL
 10
-11.99944457892002
 20
197.30000014368491
 30
0.0
 11
-11.99944457892002
 21
198.2561311027348
 31
0.0
  0
ARC
  5
1E33
  8
SAPA_PROFIL
 10
-12.299444578914571
 20
198.2561311027261
 30
0.0
 40
0.2999999999945544
 50
0.0000000016501566
 51
54.379930245254698
  0
ARC
  5
1E34
  8
SAPA_PROFIL
 10
-11.949999928880571
 20
198.74386918467729
 30
0.0
 40
0.3000000000244478
 50
180.00000000781651
 51
234.3799302478759
  0
LINE
  5
1E35
  8
SAPA_PROFIL
 10
-12.249999928905019
 20
198.7438691846364
 30
0.0
 11
-12.24999992885955
 21
199.50000014335819
 31
0.0
  0
ARC
  5
1E36
  8
SAPA_PROFIL
 10
-11.24999992885955
 20
199.50000014335819
 30
0.0
 40
1.0000000000000011
 50
90.000000004064688
 51
180.0
  0
LINE
  5
1E37
  8
SAPA_PROFIL
 10
-11.249999928930491
 20
200.50000014335819
 30
0.0
 11
-8.7499999287012997
 21
200.50000014353651
 31
0.0
  0
ARC
  5
1E38
  8
SAPA_PROFIL
 10
-8.7499999288504569
 20
202.50000014353651
 30
0.0
 40
2.0
 50
270.00000000427298
 51
90.0
  0
LINE
  5
1E39
  8
SAPA_PROFIL
 10
-8.7499999288504569
 20
204.50000014353651
 30
0.0
 11
-16.74999992885046
 21
204.50000014353651
 31
0.0
  0
ARC
  5
1E3A
  8
SAPA_PROFIL
 10
-16.749999928852269
 20
202.5000001435383
 30
0.0
 40
1.999999999998181
 50
89.999999999947889
 51
180.00000000036479
  0
LINE
  5
1E3B
  8
SAPA_PROFIL
 10
-18.74999992885046
 20
202.50000014352551
 30
0.0
 11
-18.749999928832271
 21
200.80000014334649
 31
0.0
  0
ARC
  5
1E3C
  8
SAPA_PROFIL
 10
-18.449999928831271
 20
200.8000001433592
 30
0.0
 40
0.300000000000999
 50
180.0000000024155
 51
270.00000000210201
  0
LINE
  5
1E3D
  8
SAPA_PROFIL
 10
-18.449999928820262
 20
200.50000014335819
 30
0.0
 11
-17.54999992882972
 21
200.50000014335089
 31
0.0
  0
ARC
  5
1E3E
  8
SAPA_PROFIL
 10
-17.549999928826079
 20
200.2000001433444
 30
0.0
 40
0.3000000000065484
 50
0.0000000006948028
 51
90.000000000694115
  0
LINE
  5
1E3F
  8
SAPA_PROFIL
 10
-17.24999992881953
 20
200.20000014334801
 30
0.0
 11
-17.24999992881953
 21
199.80000014334649
 31
0.0
  0
ARC
  5
1E40
  8
SAPA_PROFIL
 10
-17.54999992882972
 20
199.80000014334649
 30
0.0
 40
0.3000000000101863
 50
270.0
 51
0.0
  0
LINE
  5
1E41
  8
SAPA_PROFIL
 10
-17.54999992882972
 20
199.50000014333631
 30
0.0
 11
-19.949999928840271
 21
199.5000001433545
 31
0.0
  0
ARC
  5
1E42
  8
SAPA_PROFIL
 10
-19.949999928839361
 20
199.8000001433565
 30
0.0
 40
0.3000000000020009
 50
180.00000000191071
 51
269.99999999982629
  0
LINE
  5
1E43
  8
SAPA_PROFIL
 10
-20.249999928841358
 20
199.80000014334649
 30
0.0
 11
-20.249999928841358
 21
204.00000014335819
 31
0.0
  0
ARC
  5
1E44
  8
SAPA_PROFIL
 10
-23.24999992884047
 20
204.00000014334819
 30
0.0
 40
2.9999999999991038
 50
0.0000000001916136
 51
90.000000000191335
  0
LINE
  5
1E45
  8
SAPA_PROFIL
 10
-23.249999928850482
 20
207.00000014334731
 30
0.0
 11
-28.24999992884139
 21
207.00000014334731
 31
0.0
  0
ARC
  5
1E46
  8
SAPA_PROFIL
 10
-28.249999928847249
 20
77.000000143300156
 30
0.0
 40
130.00000000004709
 50
89.999999999997414
 51
96.399202985455105
  0
ARC
  5
1E47
  8
SAPA_PROFIL
 10
-42.649999928103689
 20
205.39501562230561
 30
0.0
 40
0.8000000006948486
 50
96.39920303336126
 51
176.8480294721532
  0
ARC
  5
1E48
  8
SAPA_PROFIL
 10
-43.648487135790852
 20
205.4500001426232
 30
0.0
 40
0.1999999999998849
 50
270.00000000024022
 51
356.8480294251541
  0
LINE
  5
1E49
  8
SAPA_PROFIL
 10
-43.64848713579002
 20
205.25000014262329
 30
0.0
 11
-44.549999928849751
 21
205.25000014262329
 31
0.0
  0
ARC
  5
1E4A
  8
SAPA_PROFIL
 10
-44.549999928847939
 20
205.4500001426222
 30
0.0
 40
0.1999999999989086
 50
179.9999999963523
 51
269.99999999948091
  0
LINE
  5
1E4B
  8
SAPA_PROFIL
 10
-44.749999928846847
 20
205.45000014263499
 30
0.0
 11
-44.749999928859573
 21
205.67605921110589
 31
0.0
  0
ARC
  5
1E4C
  8
SAPA_PROFIL
 10
-42.749999928857711
 20
205.67605921108569
 30
0.0
 40
2.0000000000018678
 50
96.504500094059665
 51
179.9999999994219
  0
ARC
  5
1E4D
  8
SAPA_PROFIL
 10
-28.24999992975572
 20
78.500000147749802
 30
0.0
 40
129.99999999552941
 50
96.180341495190291
 51
96.504500093839042
  0
ARC
  5
1E4E
  8
SAPA_PROFIL
 10
-42.353230752478019
 20
208.7386229875888
 30
0.0
 40
1.0000000001072931
 50
276.18034150012039
 51
344.90404966718739
  0
ARC
  5
1E4F
  8
SAPA_PROFIL
 10
-89.662291756413325
 20
221.5000001433589
 30
0.0
 40
49.999999999963222
 50
344.90404965994452
 51
13.21020964757531
  0
ARC
  5
1E50
  8
SAPA_PROFIL
 10
-31.249999928859889
 20
235.21146116865751
 30
0.0
 40
9.9999999999996945
 50
180.00000000005241
 51
193.21020964720941
  0
LINE
  5
1E51
  8
SAPA_PROFIL
 10
-41.24999992885958
 20
235.21146116864841
 30
0.0
 11
-41.24999992885958
 21
236.00000014335819
 31
0.0
  0
ARC
  5
1E52
  8
SAPA_PROFIL
 10
-40.24999992885958
 20
236.00000014335819
 30
0.0
 40
1.0
 50
90.0
 51
180.0
  0
LINE
  5
1E53
  8
SAPA_PROFIL
 10
-40.24999992885958
 20
237.00000014335819
 30
0.0
 11
-37.24999992885958
 21
237.00000014335819
 31
0.0
  0
ARC
  5
1E54
  8
SAPA_PROFIL
 10
-37.24999992885958
 20
236.00000014335819
 30
0.0
 40
1.0
 50
0.0
 51
90.0
  0
LINE
  5
1E55
  8
SAPA_FOGBAND
 10
8.1746676647996992
 20
204.40359619858421
 30
0.0
 11
6.9581739274237862
 21
204.7443915585591
 31
0.0
  0
ARC
  5
1E56
  8
SAPA_FOGBAND
 10
6.5535340373432049
 20
203.30000014368741
 30
0.0
 40
1.4999999999997931
 50
74.350018403397442
 51
122.7354386881395
  0
ARC
  5
1E57
  8
SAPA_FOGBAND
 10
11.1189197588951
 20
199.4651633419314
 30
0.0
 40
7.4082647908884773
 50
136.5310343779835
 51
186.568105310194
  0
ARC
  5
1E58
  8
SAPA_FOGBAND
 10
4.0500000719815583
 20
198.5437419843017
 30
0.0
 40
0.3000000008174798
 50
165.71309662749539
 51
239.4999999999765
  0
LINE
  5
1E59
  8
SAPA_FOGBAND
 10
3.8977385626783412
 20
198.28525323546501
 30
0.0
 11
4.6851568821932679
 21
197.8214283985167
 31
0.0
  0
ARC
  5
1E5A
  8
SAPA_FOGBAND
 10
4.4313877007130653
 20
197.39061381829609
 30
0.0
 40
0.4999999999997707
 50
10.000000000006439
 51
59.500000000004292
  0
LINE
  5
1E5B
  8
SAPA_FOGBAND
 10
4.9237915772189353
 20
197.47743790712951
 30
0.0
 11
3.7500000711640951
 21
190.38334167250829
 31
0.0
  0
ARC
  5
1E5C
  8
SAPA_FOGBAND
 10
4.242403947670061
 20
190.4701657613418
 30
0.0
 40
0.4999999999998767
 50
190.00000000001091
 51
251.50000000001131
  0
LINE
  5
1E5D
  8
SAPA_FOGBAND
 10
4.0837516194676482
 20
189.99600393373879
 30
0.0
 11
10.60384379628044
 21
188.79712811929491
 31
0.0
  0
ARC
  5
1E5E
  8
SAPA_FOGBAND
 10
10.35000007115635
 20
188.03846919512989
 30
0.0
 40
0.800000000000116
 50
0.0000000000020356
 51
71.500000000001393
  0
LINE
  5
1E5F
  8
SAPA_FOGBAND
 10
11.15000007115645
 20
188.03846919512989
 30
0.0
 11
11.15000007115645
 21
168.96153109224451
 31
0.0
  0
ARC
  5
1E60
  8
SAPA_FOGBAND
 10
10.350000071156339
 20
168.96153109224451
 30
0.0
 40
0.800000000000109
 50
288.49999999999898
 51
359.99999999999801
  0
LINE
  5
1E61
  8
SAPA_FOGBAND
 10
10.60384379628044
 20
168.20287216807941
 30
0.0
 11
4.032096714712452
 21
167.0039963536355
 31
0.0
  0
ARC
  5
1E62
  8
SAPA_FOGBAND
 10
4.1907490429148577
 20
166.52983452603249
 30
0.0
 40
0.499999999999873
 50
108.49999999998801
 51
169.99999999998889
  0
LINE
  5
1E63
  8
SAPA_FOGBAND
 10
3.698345166408898
 20
166.616658614866
 30
0.0
 11
4.9237915772193901
 21
159.52256238024481
 31
0.0
  0
ARC
  5
1E64
  8
SAPA_FOGBAND
 10
4.4313877007130209
 20
159.60938646907809
 30
0.0
 40
0.5000000000002235
 50
300.5000000000316
 51
350.0000000000291
  0
LINE
  5
1E65
  8
SAPA_FOGBAND
 10
4.6851568821937226
 20
159.17857188885731
 30
0.0
 11
3.8977385626783412
 21
158.71474705190889
 31
0.0
  0
ARC
  5
1E66
  8
SAPA_FOGBAND
 10
4.0500000719812279
 20
158.45625830307239
 30
0.0
 40
0.3000000008171104
 50
120.4999999999913
 51
194.28690337247789
  0
ARC
  5
1E67
  8
SAPA_FOGBAND
 10
11.11891975889505
 20
157.534836945443
 30
0.0
 40
7.4082647908884258
 50
173.43189468980569
 51
223.4689656220167
  0
ARC
  5
1E68
  8
SAPA_FOGBAND
 10
6.5535340373432076
 20
153.70000014368699
 30
0.0
 40
1.4999999999998179
 50
237.264561311861
 51
285.64998159660212
  0
LINE
  5
1E69
  8
SAPA_FOGBAND
 10
6.9581739274237862
 20
152.2556087288153
 30
0.0
 11
8.1746676647996992
 21
152.59640408879019
 31
0.0
  0
ARC
  5
1E6A
  8
SAPA_FOGBAND
 10
8.2286196501437416
 20
152.40381856680719
 30
0.0
 40
0.2000000000000762
 50
342.64998159658558
 51
105.6499815965838
  0
LINE
  5
1E6B
  8
SAPA_FOGBAND
 10
8.4195198164782141
 20
152.34417691614681
 30
0.0
 11
7.568199738487464
 21
149.61928344500799
 31
0.0
  0
ARC
  5
1E6C
  8
SAPA_FOGBAND
 10
7.9500000711564489
 20
149.5000001436874
 30
0.0
 40
0.4000000000001171
 50
162.64998159661451
 51
328.64998159661388
  0
LINE
  5
1E6D
  8
SAPA_FOGBAND
 10
8.2916020598670457
 20
149.29189420597999
 30
0.0
 11
11.52613809436548
 21
154.6013243650286
 31
0.0
  0
ARC
  5
1E6E
  8
SAPA_FOGBAND
 10
15.79616295324651
 20
152.0000001436868
 30
0.0
 40
5.0000000000001661
 50
89.999999999997627
 51
148.64998159660701
  0
LINE
  5
1E6F
  8
SAPA_FOGBAND
 10
15.79616295324672
 20
157.000000143687
 30
0.0
 11
20.179371751894219
 21
157.000000143687
 31
0.0
  0
ARC
  5
1E70
  8
SAPA_FOGBAND
 10
20.179371751894632
 20
152.00000014368709
 30
0.0
 40
4.999999999999857
 50
36.999981596614077
 51
90.000000000004633
  0
LINE
  5
1E71
  8
SAPA_FOGBAND
 10
24.172550268644731
 20
155.0090739768398
 30
0.0
 11
28.550682219481359
 21
149.19909276037191
 31
0.0
  0
ARC
  5
1E72
  8
SAPA_FOGBAND
 10
28.950000071156431
 20
149.500000143687
 30
0.0
 40
0.4999999999999304
 50
216.9999815965939
 51
33.499999999979927
  0
LINE
  5
1E73
  8
SAPA_FOGBAND
 10
29.366942982190039
 20
149.7759686363429
 30
0.0
 11
24.98479896180266
 21
156.3966660458336
 31
0.0
  0
ARC
  5
1E74
  8
SAPA_FOGBAND
 10
25.401741872836141
 20
156.6726345384896
 30
0.0
 40
0.4999999999999191
 50
105.00000000000681
 51
213.50000000000679
  0
LINE
  5
1E75
  8
SAPA_FOGBAND
 10
25.272332350284842
 20
157.15559745163409
 30
0.0
 11
29.079409593707851
 21
158.17570072453191
 31
0.0
  0
ARC
  5
1E76
  8
SAPA_FOGBAND
 10
28.950000071156609
 20
158.65866363767651
 30
0.0
 40
0.5000000000000345
 50
284.99999999999642
 51
359.99999999999682
  0
LINE
  5
1E77
  8
SAPA_FOGBAND
 10
29.450000071156641
 20
158.6586636376764
 30
0.0
 11
29.450000071156641
 21
163.9248963745822
 31
0.0
  0
ARC
  5
1E78
  8
SAPA_FOGBAND
 10
28.95000007115673
 20
163.92489637458209
 30
0.0
 40
0.4999999999999112
 50
0.0000000000162844
 51
70.000000000016982
  0
LINE
  5
1E79
  8
SAPA_FOGBAND
 10
29.12101014281939
 20
164.394742684975
 30
0.0
 11
25.078989999493611
 21
165.86591770345009
 31
0.0
  0
ARC
  5
1E7A
  8
SAPA_FOGBAND
 10
25.250000071156599
 20
166.3357640138432
 30
0.0
 40
0.5000000000002233
 50
179.99999999999019
 51
249.9999999999911
  0
LINE
  5
1E7B
  8
SAPA_FOGBAND
 10
24.750000071156371
 20
166.33576401384329
 30
0.0
 11
24.750000071156371
 21
168.8093598693936
 31
0.0
  0
ARC
  5
1E7C
  8
SAPA_FOGBAND
 10
24.250000071156421
 20
168.80935986939369
 30
0.0
 40
0.4999999999999432
 50
359.99999999998698
 51
15.499999999987359
  0
LINE
  5
1E7D
  8
SAPA_FOGBAND
 10
24.731815297760701
 20
168.94297905743269
 30
0.0
 11
24.460910935193851
 21
169.9198286308638
 31
0.0
  0
ARC
  5
1E7E
  8
SAPA_FOGBAND
 10
24.750000071156371
 20
170.0000001436872
 30
0.0
 40
0.2999999999999262
 50
90.000000000000668
 51
195.49999999999949
  0
LINE
  5
1E7F
  8
SAPA_FOGBAND
 10
24.750000071156371
 20
170.3000001436871
 30
0.0
 11
26.450000071156179
 21
170.3000001436871
 31
0.0
  0
ARC
  5
1E80
  8
SAPA_FOGBAND
 10
26.450000071156179
 20
170.10000014368691
 30
0.0
 40
0.2000000000002728
 50
0.0
 51
90.0
  0
LINE
  5
1E81
  8
SAPA_FOGBAND
 10
26.650000071156459
 20
170.10000014368691
 30
0.0
 11
26.650000071156459
 21
169.3000001436871
 31
0.0
  0
ARC
  5
1E82
  8
SAPA_FOGBAND
 10
26.850000071156511
 20
169.30000014368699
 30
0.0
 40
0.2000000000000561
 50
179.99999999997561
 51
314.99999999996908
  0
LINE
  5
1E83
  8
SAPA_FOGBAND
 10
26.991421427393789
 20
169.15857878744961
 30
0.0
 11
29.303553461749971
 21
171.4707108218058
 31
0.0
  0
ARC
  5
1E84
  8
SAPA_FOGBAND
 10
28.950000071156602
 20
171.82426421239899
 30
0.0
 40
0.5000000000000318
 50
315.00000000001239
 51
0.0000000000130276
  0
LINE
  5
1E85
  8
SAPA_FOGBAND
 10
29.450000071156641
 20
171.8242642123991
 30
0.0
 11
29.450000071156641
 21
185.17573607497519
 31
0.0
  0
ARC
  5
1E86
  8
SAPA_FOGBAND
 10
28.950000071156921
 20
185.17573607497451
 30
0.0
 40
0.4999999999997194
 50
0.0000000000781653
 51
45.00000000007801
  0
LINE
  5
1E87
  8
SAPA_FOGBAND
 10
29.303553461749519
 20
185.5292894655681
 30
0.0
 11
26.991421427393789
 21
187.84142149992431
 31
0.0
  0
ARC
  5
1E88
  8
SAPA_FOGBAND
 10
26.850000071156419
 20
187.70000014368711
 30
0.0
 40
0.1999999999999493
 50
44.999999999959698
 51
179.9999999999674
  0
LINE
  5
1E89
  8
SAPA_FOGBAND
 10
26.650000071156459
 20
187.70000014368719
 30
0.0
 11
26.650000071156459
 21
186.90000014368749
 31
0.0
  0
ARC
  5
1E8A
  8
SAPA_FOGBAND
 10
26.450000071156179
 20
186.90000014368749
 30
0.0
 40
0.2000000000002728
 50
270.0
 51
0.0
  0
LINE
  5
1E8B
  8
SAPA_FOGBAND
 10
26.450000071156179
 20
186.70000014368719
 30
0.0
 11
24.750000071156371
 21
186.70000014368719
 31
0.0
  0
ARC
  5
1E8C
  8
SAPA_FOGBAND
 10
24.750000071156371
 20
187.0000001436872
 30
0.0
 40
0.2999999999999261
 50
164.50000000000031
 51
270.0
  0
LINE
  5
1E8D
  8
SAPA_FOGBAND
 10
24.460910935193851
 20
187.0801716565106
 30
0.0
 11
24.731815297760701
 21
188.05702122994171
 31
0.0
  0
ARC
  5
1E8E
  8
SAPA_FOGBAND
 10
24.250000071156411
 20
188.19064041798069
 30
0.0
 40
0.4999999999999501
 50
344.5000000000129
 51
0.0000000000130276
  0
LINE
  5
1E8F
  8
SAPA_FOGBAND
 10
24.750000071156371
 20
188.1906404179808
 30
0.0
 11
24.750000071156371
 21
190.664236273531
 31
0.0
  0
ARC
  5
1E90
  8
SAPA_FOGBAND
 10
25.250000071156268
 20
190.66423627353089
 30
0.0
 40
0.4999999999999077
 50
109.99999999998261
 51
179.99999999998369
  0
LINE
  5
1E91
  8
SAPA_FOGBAND
 10
25.078989999493611
 20
191.1340825839238
 30
0.0
 11
29.12101014281939
 21
192.60525760239901
 31
0.0
  0
ARC
  5
1E92
  8
SAPA_FOGBAND
 10
28.950000071156168
 20
193.0751039127918
 30
0.0
 40
0.5000000000000086
 50
290.00000000004599
 51
0.0000000000455964
  0
LINE
  5
1E93
  8
SAPA_FOGBAND
 10
29.450000071156179
 20
193.0751039127922
 30
0.0
 11
29.450000071156641
 21
198.3413366496975
 31
0.0
  0
ARC
  5
1E94
  8
SAPA_FOGBAND
 10
28.950000071156609
 20
198.34133664969741
 30
0.0
 40
0.5000000000000249
 50
0.0000000000032569
 51
75.000000000003638
  0
LINE
  5
1E95
  8
SAPA_FOGBAND
 10
29.079409593707851
 20
198.82429956284199
 30
0.0
 11
25.272332350284842
 21
199.84440283574031
 31
0.0
  0
ARC
  5
1E96
  8
SAPA_FOGBAND
 10
25.401741872836141
 20
200.32736574888469
 30
0.0
 40
0.4999999999999119
 50
146.49999999999321
 51
254.99999999999309
  0
LINE
  5
1E97
  8
SAPA_FOGBAND
 10
24.98479896180266
 20
200.60333424154081
 30
0.0
 11
25.919429181492209
 21
202.01540647046389
 31
0.0
  0
ARC
  5
1E98
  8
SAPA_FOGBAND
 10
21.75000007115591
 20
204.77509139702431
 30
0.0
 40
5.0000000000004503
 50
326.50000000000159
 51
0.0000000000016284
  0
LINE
  5
1E99
  8
SAPA_FOGBAND
 10
26.750000071156371
 20
204.7750913970244
 30
0.0
 11
26.750000071156371
 21
208.0116420702129
 31
0.0
  0
ARC
  5
1E9A
  8
SAPA_FOGBAND
 10
26.2500000711563
 20
208.0116420702129
 30
0.0
 40
0.500000000000064
 50
0.0000000000032569
 51
176.5000184033963
  0
LINE
  5
1E9B
  8
SAPA_FOGBAND
 10
25.75093266214094
 20
208.0421661796799
 30
0.0
 11
25.54619755052795
 21
204.69475904901631
 31
0.0
  0
ARC
  5
1E9C
  8
SAPA_FOGBAND
 10
20.555523460374879
 20
205.000000143687
 30
0.0
 40
5.000000000000095
 50
270.0000000000021
 51
356.50001840339303
  0
LINE
  5
1E9D
  8
SAPA_FOGBAND
 10
20.55552346037507
 20
200.000000143687
 30
0.0
 11
15.79616295324626
 21
200.000000143687
 31
0.0
  0
ARC
  5
1E9E
  8
SAPA_FOGBAND
 10
15.796162953246681
 20
205.000000143687
 30
0.0
 40
4.9999999999999707
 50
211.3500184033856
 51
269.99999999999523
  0
LINE
  5
1E9F
  8
SAPA_FOGBAND
 10
11.52613809436548
 20
202.3986759223458
 30
0.0
 11
8.2916020598670457
 21
207.70810608139439
 31
0.0
  0
ARC
  5
1EA0
  8
SAPA_FOGBAND
 10
7.950000071156448
 20
207.500000143687
 30
0.0
 40
0.400000000000118
 50
31.35001840338597
 51
197.35001840338549
  0
LINE
  5
1EA1
  8
SAPA_FOGBAND
 10
7.568199738487464
 20
207.38071684236641
 30
0.0
 11
8.4195198164782141
 21
204.65582337122709
 31
0.0
  0
ARC
  5
1EA2
  8
SAPA_FOGBAND
 10
8.2286196501438642
 20
204.5961817205669
 30
0.0
 40
0.1999999999998843
 50
254.3500184033648
 51
17.350018403362661
  0
LINE
  5
1EA3
  8
SAPA_FOGBAND
 10
25.152606114185119
 20
192.96997887164301
 30
0.0
 11
27.552606114153829
 21
193.8435074338708
 31
0.0
  0
ARC
  5
1EA4
  8
SAPA_FOGBAND
 10
27.45000007115614
 20
194.12541522010679
 30
0.0
 40
0.3000000000002299
 50
289.999999999983
 51
359.99999999998369
  0
LINE
  5
1EA5
  8
SAPA_FOGBAND
 10
27.750000071156361
 20
194.12541522010679
 30
0.0
 11
27.750000071156361
 21
197.1903461677293
 31
0.0
  0
ARC
  5
1EA6
  8
SAPA_FOGBAND
 10
27.450000071156602
 20
197.19034616772939
 30
0.0
 40
0.2999999999997698
 50
359.99999999998909
 51
74.999999999985889
  0
LINE
  5
1EA7
  8
SAPA_FOGBAND
 10
27.527645784687369
 20
197.48012391561591
 30
0.0
 11
25.127645784718201
 21
198.12320197744251
 31
0.0
  0
ARC
  5
1EA8
  8
SAPA_FOGBAND
 10
25.050000071187469
 20
197.8334242295555
 30
0.0
 40
0.3000000000001815
 50
75.000000000014822
 51
180.0000000000162
  0
LINE
  5
1EA9
  8
SAPA_FOGBAND
 10
24.750000071187291
 20
197.83342422955539
 30
0.0
 11
24.750000071187291
 21
193.25188665787891
 31
0.0
  0
ARC
  5
1EAA
  8
SAPA_FOGBAND
 10
25.050000071187409
 20
193.25188665787891
 30
0.0
 40
0.3000000000001215
 50
179.99999999999449
 51
289.99999999999301
  0
ARC
  5
1EAB
  8
SAPA_FOGBAND
 10
27.650000071170101
 20
179.750000143671
 30
0.0
 40
0.4999999999863576
 50
270.0
 51
0.0
  0
LINE
  5
1EAC
  8
SAPA_FOGBAND
 10
28.150000071156459
 20
179.750000143671
 30
0.0
 11
28.150000071156459
 21
184.500000143676
 31
0.0
  0
ARC
  5
1EAD
  8
SAPA_FOGBAND
 10
27.650000071146
 20
184.500000143676
 30
0.0
 40
0.5000000000104592
 50
0.0
 51
90.0
  0
LINE
  5
1EAE
  8
SAPA_FOGBAND
 10
27.650000071146
 20
185.00000014368649
 30
0.0
 11
24.950000071147539
 21
185.00000014368649
 31
0.0
  0
ARC
  5
1EAF
  8
SAPA_FOGBAND
 10
24.950000071147539
 20
184.50000014368919
 30
0.0
 40
0.4999999999972716
 50
90.0
 51
180.0
  0
LINE
  5
1EB0
  8
SAPA_FOGBAND
 10
24.450000071150271
 20
184.50000014368919
 30
0.0
 11
24.450000071150271
 21
179.7500001436801
 31
0.0
  0
ARC
  5
1EB1
  8
SAPA_FOGBAND
 10
24.95000007114573
 20
179.7500001436801
 30
0.0
 40
0.4999999999954526
 50
180.0
 51
270.0
  0
LINE
  5
1EB2
  8
SAPA_FOGBAND
 10
24.95000007114573
 20
179.2500001436847
 30
0.0
 11
27.650000071170101
 21
179.2500001436847
 31
0.0
  0
ARC
  5
1EB3
  8
SAPA_FOGBAND
 10
27.650000071146451
 20
172.50000014369789
 30
0.0
 40
0.5000000000100046
 50
270.0000000000004
 51
0.0
  0
LINE
  5
1EB4
  8
SAPA_FOGBAND
 10
28.150000071156459
 20
172.50000014369789
 30
0.0
 11
28.150000071156459
 21
177.25000014370329
 31
0.0
  0
ARC
  5
1EB5
  8
SAPA_FOGBAND
 10
27.650000071170101
 20
177.25000014370329
 30
0.0
 40
0.4999999999863576
 50
0.0
 51
90.0
  0
LINE
  5
1EB6
  8
SAPA_FOGBAND
 10
27.650000071170101
 20
177.7500001436897
 30
0.0
 11
24.95000007114573
 21
177.7500001436897
 31
0.0
  0
ARC
  5
1EB7
  8
SAPA_FOGBAND
 10
24.95000007114573
 20
177.25000014369419
 30
0.0
 40
0.4999999999954526
 50
90.0
 51
180.0
  0
LINE
  5
1EB8
  8
SAPA_FOGBAND
 10
24.450000071150271
 20
177.25000014369419
 30
0.0
 11
24.450000071150271
 21
172.5000001436851
 31
0.0
  0
ARC
  5
1EB9
  8
SAPA_FOGBAND
 10
24.950000071147539
 20
172.5000001436851
 30
0.0
 40
0.4999999999972716
 50
180.0
 51
270.0
  0
LINE
  5
1EBA
  8
SAPA_FOGBAND
 10
24.950000071147539
 20
172.0000001436878
 30
0.0
 11
27.650000071146451
 21
172.0000001436878
 31
0.0
  0
LINE
  5
1EBB
  8
SAPA_FOGBAND
 10
9.9935656061163627
 20
166.0934676462457
 30
0.0
 11
4.5805564172658251
 21
166.23613121539799
 31
0.0
  0
ARC
  5
1EBC
  8
SAPA_FOGBAND
 10
4.6118433102741898
 20
166.03859354727911
 30
0.0
 40
0.1999999999999357
 50
99.000000000095568
 51
170.00000000009791
  0
LINE
  5
1EBD
  8
SAPA_FOGBAND
 10
4.4148817596717427
 20
166.07332318281209
 30
0.0
 11
5.7116377796289717
 21
159.38364383811131
 31
0.0
  0
ARC
  5
1EBE
  8
SAPA_FOGBAND
 10
4.4313877007129552
 20
159.609386469078
 30
0.0
 40
1.3000000000000991
 50
300.50000000001143
 51
350.00000000001239
  0
LINE
  5
1EBF
  8
SAPA_FOGBAND
 10
5.0911875725621476
 20
158.48926856050409
 30
0.0
 11
4.7847275045512561
 21
158.3087497847109
 31
0.0
  0
ARC
  5
1EC0
  8
SAPA_FOGBAND
 10
4.8862351771435604
 20
158.13642395262309
 30
0.0
 40
0.1999999999996296
 50
120.5000000001168
 51
197.8204012577194
  0
ARC
  5
1EC1
  8
SAPA_FOGBAND
 10
10.19892019863331
 20
157.22908891470101
 30
0.0
 40
5.5677574240903356
 50
171.2589325733787
 51
222.32818345898789
  0
ARC
  5
1EC2
  8
SAPA_FOGBAND
 10
6.2847293967207669
 20
153.82511058898129
 30
0.0
 40
0.4000000000000476
 50
239.66001609239169
 51
295.6499815966028
  0
LINE
  5
1EC3
  8
SAPA_FOGBAND
 10
6.4578783135100357
 20
153.464528486521
 30
0.0
 11
7.4105033838070531
 21
153.92197215303389
 31
0.0
  0
ARC
  5
1EC4
  8
SAPA_FOGBAND
 10
6.9776310918346418
 20
154.82342740918469
 30
0.0
 40
0.9999999999996736
 50
295.6499815965667
 51
328.6499815965667
  0
LINE
  5
1EC5
  8
SAPA_FOGBAND
 10
7.8316360636101763
 20
154.30316256491591
 30
0.0
 11
11.0040050429327
 21
159.51054667033301
 31
0.0
  0
ARC
  5
1EC6
  8
SAPA_FOGBAND
 10
10.150000071156629
 20
160.0308115146012
 30
0.0
 40
0.9999999999998239
 50
328.64998159661189
 51
0.0000000000032569
  0
LINE
  5
1EC7
  8
SAPA_FOGBAND
 10
11.15000007115645
 20
160.0308115146012
 30
0.0
 11
11.15000007115645
 21
165.10577930565071
 31
0.0
  0
ARC
  5
1EC8
  8
SAPA_FOGBAND
 10
10.150000071156571
 20
165.10577930565071
 30
0.0
 40
0.9999999999998792
 50
0.0
 51
99.000000000000114
  0
ARC
  5
1EC9
  8
SAPA_FOGBAND
 10
20.750000071145902
 20
161.00000014665329
 30
0.0
 40
1.800000000000181
 50
270.00000000000011
 51
0.0
  0
LINE
  5
1ECA
  8
SAPA_FOGBAND
 10
22.550000071146091
 20
161.00000014665329
 30
0.0
 11
22.550000071146091
 21
169.39647170028411
 31
0.0
  0
ARC
  5
1ECB
  8
SAPA_FOGBAND
 10
22.050000071145931
 20
169.3964717002842
 30
0.0
 40
0.5000000000001528
 50
359.99999999998369
 51
108.4999999999828
  0
LINE
  5
1ECC
  8
SAPA_FOGBAND
 10
21.891347742943481
 20
169.87063352788749
 30
0.0
 11
13.39134774295394
 21
167.02657331212359
 31
0.0
  0
ARC
  5
1ECD
  8
SAPA_FOGBAND
 10
13.550000071156751
 20
166.55241148452041
 30
0.0
 40
0.5000000000002175
 50
108.5000000000238
 51
180.00000000002271
  0
LINE
  5
1ECE
  8
SAPA_FOGBAND
 10
13.050000071156539
 20
166.55241148452021
 30
0.0
 11
13.050000071156539
 21
161.00000014665329
 31
0.0
  0
ARC
  5
1ECF
  8
SAPA_FOGBAND
 10
14.850000071156501
 20
161.00000014665309
 30
0.0
 40
1.7999999999999541
 50
179.99999999999281
 51
269.99999999999278
  0
LINE
  5
1ED0
  8
SAPA_FOGBAND
 10
14.85000007115627
 20
159.20000014665311
 30
0.0
 11
20.750000071145902
 21
159.20000014665311
 31
0.0
  0
LINE
  5
1ED1
  8
SAPA_FOGBAND
 10
13.708652399359149
 20
169.24172659461919
 30
0.0
 11
22.208652399349148
 21
172.0857868103835
 31
0.0
  0
ARC
  5
1ED2
  8
SAPA_FOGBAND
 10
22.050000071146741
 20
172.559948637986
 30
0.0
 40
0.4999999999993343
 50
288.50000000000881
 51
0.0000000000097707
  0
LINE
  5
1ED3
  8
SAPA_FOGBAND
 10
22.550000071146091
 20
172.559948637986
 30
0.0
 11
22.550000071146091
 21
177.0000001436897
 31
0.0
  0
ARC
  5
1ED4
  8
SAPA_FOGBAND
 10
22.050000071146091
 20
177.0000001436897
 30
0.0
 40
0.5
 50
0.0
 51
90.0
  0
LINE
  5
1ED5
  8
SAPA_FOGBAND
 10
22.050000071146091
 20
177.5000001436897
 30
0.0
 11
13.550000071156539
 21
177.5000001436897
 31
0.0
  0
ARC
  5
1ED6
  8
SAPA_FOGBAND
 10
13.55000007115655
 20
177.0000001436897
 30
0.0
 40
0.5
 50
90.000000000000398
 51
180.0
  0
LINE
  5
1ED7
  8
SAPA_FOGBAND
 10
13.050000071156539
 20
177.0000001436897
 30
0.0
 11
13.050000071156539
 21
169.71588842222221
 31
0.0
  0
ARC
  5
1ED8
  8
SAPA_FOGBAND
 10
13.55000007115653
 20
169.71588842222221
 30
0.0
 40
0.4999999999999876
 50
180.00000000000969
 51
288.50000000000898
  0
ARC
  5
1ED9
  8
SAPA_FOGBAND
 10
22.050000071146091
 20
180.00000014368419
 30
0.0
 40
0.5
 50
270.0
 51
0.0
  0
LINE
  5
1EDA
  8
SAPA_FOGBAND
 10
22.550000071146091
 20
180.00000014368419
 30
0.0
 11
22.550000071146091
 21
184.44005164938829
 31
0.0
  0
ARC
  5
1EDB
  8
SAPA_FOGBAND
 10
22.050000071147061
 20
184.44005164938821
 30
0.0
 40
0.4999999999990266
 50
0.0000000000162844
 51
71.500000000017707
  0
LINE
  5
1EDC
  8
SAPA_FOGBAND
 10
22.208652399349148
 20
184.9142134769904
 30
0.0
 11
13.708652399359149
 21
187.7582736927547
 31
0.0
  0
ARC
  5
1EDD
  8
SAPA_FOGBAND
 10
13.55000007115653
 20
187.28411186515169
 30
0.0
 40
0.4999999999999937
 50
71.499999999991175
 51
179.99999999999019
  0
LINE
  5
1EDE
  8
SAPA_FOGBAND
 10
13.050000071156539
 20
187.28411186515169
 30
0.0
 11
13.050000071156539
 21
180.00000014368419
 31
0.0
  0
ARC
  5
1EDF
  8
SAPA_FOGBAND
 10
13.550000071156539
 20
180.00000014368419
 30
0.0
 40
0.5
 50
180.0
 51
270.0
  0
LINE
  5
1EE0
  8
SAPA_FOGBAND
 10
13.550000071156539
 20
179.50000014368419
 30
0.0
 11
22.050000071146091
 21
179.50000014368419
 31
0.0
  0
ARC
  5
1EE1
  8
SAPA_FOGBAND
 10
22.050000071146101
 20
187.6035285870899
 30
0.0
 40
0.4999999999999937
 50
251.49999999999119
 51
359.99999999999022
  0
LINE
  5
1EE2
  8
SAPA_FOGBAND
 10
22.550000071146091
 20
187.60352858708981
 30
0.0
 11
22.550000071146091
 21
196.00000014072111
 31
0.0
  0
ARC
  5
1EE3
  8
SAPA_FOGBAND
 10
20.750000071145909
 20
196.00000014072111
 30
0.0
 40
1.8000000000001779
 50
0.0
 51
90.000000000000114
  0
LINE
  5
1EE4
  8
SAPA_FOGBAND
 10
20.750000071145902
 20
197.80000014072129
 30
0.0
 11
14.85000007115627
 21
197.80000014072129
 31
0.0
  0
ARC
  5
1EE5
  8
SAPA_FOGBAND
 10
14.850000071156501
 20
196.00000014072131
 30
0.0
 40
1.7999999999999541
 50
90.000000000007219
 51
180.00000000000719
  0
LINE
  5
1EE6
  8
SAPA_FOGBAND
 10
13.050000071156539
 20
196.00000014072111
 30
0.0
 11
13.050000071156539
 21
190.44758880285411
 31
0.0
  0
ARC
  5
1EE7
  8
SAPA_FOGBAND
 10
13.55000007115674
 20
190.44758880285389
 30
0.0
 40
0.5000000000002008
 50
179.99999999997391
 51
251.4999999999757
  0
LINE
  5
1EE8
  8
SAPA_FOGBAND
 10
13.39134774295394
 20
189.9734269752507
 30
0.0
 11
21.891347742943481
 21
187.1293667594868
 31
0.0
  0
ARC
  5
1EE9
  8
SAPA_FOGBAND
 10
6.284729396720766
 20
203.17488969839309
 30
0.0
 40
0.4000000000000225
 50
64.350018403395225
 51
120.3399839076101
  0
ARC
  5
1EEA
  8
SAPA_FOGBAND
 10
10.198920198633109
 20
199.77091137267291
 30
0.0
 40
5.5677574240905221
 50
137.67181654100699
 51
188.7410674266159
  0
ARC
  5
1EEB
  8
SAPA_FOGBAND
 10
4.886235177143341
 20
198.86357633475151
 30
0.0
 40
0.1999999999997614
 50
162.1795987423788
 51
239.4999999999784
  0
LINE
  5
1EEC
  8
SAPA_FOGBAND
 10
4.7847275045512561
 20
198.69125050266339
 30
0.0
 11
5.0911875725621476
 21
198.51073172686981
 31
0.0
  0
ARC
  5
1EED
  8
SAPA_FOGBAND
 10
4.4313877007134037
 20
197.39061381829609
 30
0.0
 40
1.2999999999997081
 50
10.00000000000213
 51
59.500000000001201
  0
LINE
  5
1EEE
  8
SAPA_FOGBAND
 10
5.7116377796289717
 20
197.61635644926309
 30
0.0
 11
4.4665366644269389
 21
190.9266771045618
 31
0.0
  0
ARC
  5
1EEF
  8
SAPA_FOGBAND
 10
4.6634982150290707
 20
190.9614067400951
 30
0.0
 40
0.1999999999996792
 50
189.99999999998991
 51
260.99999999998471
  0
LINE
  5
1EF0
  8
SAPA_FOGBAND
 10
4.6322113220210213
 20
190.76386907197639
 30
0.0
 11
9.9935656061163627
 21
190.90653264112871
 31
0.0
  0
ARC
  5
1EF1
  8
SAPA_FOGBAND
 10
10.150000071156571
 20
191.89422098172369
 30
0.0
 40
0.9999999999998749
 50
260.99999999999989
 51
0.0
  0
LINE
  5
1EF2
  8
SAPA_FOGBAND
 10
11.15000007115645
 20
191.89422098172369
 30
0.0
 11
11.15000007115645
 21
196.96918877277309
 31
0.0
  0
ARC
  5
1EF3
  8
SAPA_FOGBAND
 10
10.150000071156629
 20
196.96918877277321
 30
0.0
 40
0.9999999999998223
 50
359.99999999999682
 51
31.350018403388152
  0
LINE
  5
1EF4
  8
SAPA_FOGBAND
 10
11.0040050429327
 20
197.48945361704131
 30
0.0
 11
7.8316360636101763
 21
202.69683772245801
 31
0.0
  0
ARC
  5
1EF5
  8
SAPA_FOGBAND
 10
6.9776310918338886
 20
202.17657287818949
 30
0.0
 40
1.0000000000001841
 50
31.350018403398408
 51
64.350018403399375
  0
LINE
  5
1EF6
  8
SAPA_FOGBAND
 10
7.4105033838070531
 20
203.07802813434051
 30
0.0
 11
6.4578783135100357
 21
203.5354718008534
 31
0.0
  0
LINE
  5
1EF7
  8
SAPA_FOGBAND
 10
-8.3863994200589786
 20
211.39956761147181
 30
0.0
 11
-8.4963968052404653
 21
206.7502678541332
 31
0.0
  0
LINE
  5
1EF8
  8
SAPA_FOGBAND
 10
-8.4963968052404653
 20
206.7502678541332
 30
0.0
 11
-10.934490145663171
 21
206.75084435300781
 31
0.0
  0
LINE
  5
1EF9
  8
SAPA_FOGBAND
 10
-10.934490145663171
 20
206.75084435300781
 30
0.0
 11
-9.8090890231985668
 21
211.39956761147181
 31
0.0
  0
LINE
  5
1EFA
  8
SAPA_FOGBAND
 10
-6.6637098169164801
 20
211.39956761147181
 30
0.0
 11
-5.538263219600366
 21
206.75067463854069
 31
0.0
  0
LINE
  5
1EFB
  8
SAPA_FOGBAND
 10
-5.538263219600366
 20
206.75067463854069
 30
0.0
 11
-7.9764012661487413
 21
206.7502384977206
 31
0.0
  0
LINE
  5
1EFC
  8
SAPA_FOGBAND
 10
-7.9764012661487413
 20
206.7502384977206
 30
0.0
 11
-8.0863994200560683
 21
211.39956761147181
 31
0.0
  0
LINE
  5
1EFD
  8
SAPA_FOGBAND
 10
-11.386399420055341
 20
212.19956761147299
 30
0.0
 11
-11.386399420055341
 21
211.39956761147181
 31
0.0
  0
LINE
  5
1EFE
  8
SAPA_FOGBAND
 10
-11.386399420055341
 20
211.39956761147181
 30
0.0
 11
-5.0863994200587959
 21
211.39956761147181
 31
0.0
  0
LINE
  5
1EFF
  8
SAPA_FOGBAND
 10
-5.0863994200587959
 20
211.39956761147181
 30
0.0
 11
-5.0863994200587959
 21
212.19956761147299
 31
0.0
  0
LINE
  5
1F00
  8
SAPA_FOGBAND
 10
-5.0863994200587959
 20
212.19956761147299
 30
0.0
 11
-11.386399420055341
 21
212.19956761147299
 31
0.0
  0
LINE
  5
1F01
  8
SAPA_FOGBAND
 10
-8.3863994200589786
 20
145.6004326752381
 30
0.0
 11
-8.4963968052404653
 21
150.3472666702246
 31
0.0
  0
LINE
  5
1F02
  8
SAPA_FOGBAND
 10
-8.4963968052404653
 20
150.3472666702246
 30
0.0
 11
-10.934490145663171
 21
150.34669017134999
 31
0.0
  0
LINE
  5
1F03
  8
SAPA_FOGBAND
 10
-10.934490145663171
 20
150.34669017134999
 30
0.0
 11
-9.8090890231985668
 21
145.6004326752381
 31
0.0
  0
LINE
  5
1F04
  8
SAPA_FOGBAND
 10
-6.6637098169164801
 20
145.6004326752381
 30
0.0
 11
-5.538263219600366
 21
150.34685988581711
 31
0.0
  0
LINE
  5
1F05
  8
SAPA_FOGBAND
 10
-5.538263219600366
 20
150.34685988581711
 30
0.0
 11
-7.9764012661487413
 21
150.3472960266372
 31
0.0
  0
LINE
  5
1F06
  8
SAPA_FOGBAND
 10
-7.9764012661487413
 20
150.3472960266372
 30
0.0
 11
-8.0863994200560683
 21
145.6004326752381
 31
0.0
  0
LINE
  5
1F07
  8
SAPA_FOGBAND
 10
-11.386399420055341
 20
144.800432675237
 30
0.0
 11
-11.386399420055341
 21
145.6004326752381
 31
0.0
  0
LINE
  5
1F08
  8
SAPA_FOGBAND
 10
-11.386399420055341
 20
145.6004326752381
 30
0.0
 11
-5.0863994200587959
 21
145.6004326752381
 31
0.0
  0
LINE
  5
1F09
  8
SAPA_FOGBAND
 10
-5.0863994200587959
 20
145.6004326752381
 30
0.0
 11
-5.0863994200587959
 21
144.800432675237
 31
0.0
  0
LINE
  5
1F0A
  8
SAPA_FOGBAND
 10
-5.0863994200587959
 20
144.800432675237
 30
0.0
 11
-11.386399420055341
 21
144.800432675237
 31
0.0
  0
LINE
  5
1F0B
  8
SAPA_GLAS
 10
-42.988543069993419
 20
151.7500001428331
 30
0.0
 11
-42.238543069640912
 21
152.50000014318559
 31
0.0
1001
ACAD
1010
0.0
1020
0.0
1030
0.0
  0
LINE
  5
1F0C
  8
SAPA_GLAS
 10
-41.866011054858561
 20
151.7500001428343
 30
0.0
 11
-41.116011054507268
 21
152.50000014318559
 31
0.0
1001
ACAD
1010
0.0
1020
0.0
1030
0.0
  0
LINE
  5
1F0D
  8
SAPA_GLAS
 10
-40.743479039723702
 20
151.75000014283549
 30
0.0
 11
-39.993479039373632
 21
152.50000014318559
 31
0.0
1001
ACAD
1010
0.0
1020
0.0
1030
0.0
  0
LINE
  5
1F0E
  8
SAPA_GLAS
 10
-39.620947024588837
 20
151.75000014283671
 30
0.0
 11
-38.870947024239989
 21
152.50000014318559
 31
0.0
1001
ACAD
1010
0.0
1020
0.0
1030
0.0
  0
LINE
  5
1F0F
  8
SAPA_GLAS
 10
-38.498415009453993
 20
151.75000014283791
 30
0.0
 11
-37.748415009106353
 21
152.50000014318559
 31
0.0
1001
ACAD
1010
0.0
1020
0.0
1030
0.0
  0
LINE
  5
1F10
  8
SAPA_GLAS
 10
-37.375882994319127
 20
151.75000014283921
 30
0.0
 11
-36.625882993972702
 21
152.50000014318559
 31
0.0
1001
ACAD
1010
0.0
1020
0.0
1030
0.0
  0
LINE
  5
1F11
  8
SAPA_GLAS
 10
-36.253350979184269
 20
151.75000014284041
 30
0.0
 11
-35.503350978839059
 21
152.50000014318559
 31
0.0
1001
ACAD
1010
0.0
1020
0.0
1030
0.0
  0
LINE
  5
1F12
  8
SAPA_GLAS
 10
-35.130818964049411
 20
151.7500001428416
 30
0.0
 11
-34.380818963705408
 21
152.50000014318559
 31
0.0
1001
ACAD
1010
0.0
1020
0.0
1030
0.0
  0
LINE
  5
1F13
  8
SAPA_GLAS
 10
-34.008286948914552
 20
151.75000014284279
 30
0.0
 11
-33.258286948571772
 21
152.50000014318559
 31
0.0
1001
ACAD
1010
0.0
1020
0.0
1030
0.0
  0
LINE
  5
1F14
  8
SAPA_GLAS
 10
-32.885754933779687
 20
151.75000014284399
 30
0.0
 11
-32.135754933438122
 21
152.50000014318559
 31
0.0
1001
ACAD
1010
0.0
1020
0.0
1030
0.0
  0
LINE
  5
1F15
  8
SAPA_GLAS
 10
-31.763222918644828
 20
151.75000014284521
 30
0.0
 11
-31.013222918304479
 21
152.50000014318559
 31
0.0
1001
ACAD
1010
0.0
1020
0.0
1030
0.0
  0
LINE
  5
1F16
  8
SAPA_GLAS
 10
-30.64069090350997
 20
151.75000014284649
 30
0.0
 11
-30.325288431217551
 21
152.06540261513891
 31
0.0
1001
ACAD
1010
0.0
1020
0.0
1030
0.0
  0
LINE
  5
1F17
  8
SAPA_GLAS
 10
-42.044533263449452
 20
151.7500001428341
 30
0.0
 11
-42.794533263800943
 21
152.50000014318559
 31
0.0
1001
ACAD
1010
0.0
1020
0.0
1030
0.0
  0
LINE
  5
1F18
  8
SAPA_GLAS
 10
-40.922001248317031
 20
151.75000014283529
 30
0.0
 11
-41.6720012486673
 21
152.50000014318559
 31
0.0
1001
ACAD
1010
0.0
1020
0.0
1030
0.0
  0
LINE
  5
1F19
  8
SAPA_GLAS
 10
-39.79946923318461
 20
151.75000014283651
 30
0.0
 11
-40.54946923353365
 21
152.50000014318559
 31
0.0
1001
ACAD
1010
0.0
1020
0.0
1030
0.0
  0
LINE
  5
1F1A
  8
SAPA_GLAS
 10
-38.676937218052203
 20
151.75000014283779
 30
0.0
 11
-39.426937218400013
 21
152.50000014318559
 31
0.0
1001
ACAD
1010
0.0
1020
0.0
1030
0.0
  0
LINE
  5
1F1B
  8
SAPA_GLAS
 10
-37.554405202919739
 20
151.75000014283901
 30
0.0
 11
-38.304405203266363
 21
152.50000014318559
 31
0.0
1001
ACAD
1010
0.0
1020
0.0
1030
0.0
  0
LINE
  5
1F1C
  8
SAPA_GLAS
 10
-36.431873187787318
 20
151.75000014284021
 30
0.0
 11
-37.181873188132727
 21
152.50000014318559
 31
0.0
1001
ACAD
1010
0.0
1020
0.0
1030
0.0
  0
LINE
  5
1F1D
  8
SAPA_GLAS
 10
-35.309341172654896
 20
151.7500001428414
 30
0.0
 11
-36.059341172999069
 21
152.50000014318559
 31
0.0
1001
ACAD
1010
0.0
1020
0.0
1030
0.0
  0
LINE
  5
1F1E
  8
SAPA_GLAS
 10
-34.186809157522468
 20
151.75000014284259
 30
0.0
 11
-34.93680915786544
 21
152.50000014318559
 31
0.0
1001
ACAD
1010
0.0
1020
0.0
1030
0.0
  0
LINE
  5
1F1F
  8
SAPA_GLAS
 10
-33.064277142390047
 20
151.75000014284379
 30
0.0
 11
-33.814277142731783
 21
152.50000014318559
 31
0.0
1001
ACAD
1010
0.0
1020
0.0
1030
0.0
  0
LINE
  5
1F20
  8
SAPA_GLAS
 10
-31.941745127257612
 20
151.7500001428451
 30
0.0
 11
-32.691745127598153
 21
152.50000014318559
 31
0.0
1001
ACAD
1010
0.0
1020
0.0
1030
0.0
  0
LINE
  5
1F21
  8
SAPA_GLAS
 10
-30.81921311212519
 20
151.75000014284629
 30
0.0
 11
-31.569213112464499
 21
152.50000014318559
 31
0.0
1001
ACAD
1010
0.0
1020
0.0
1030
0.0
  0
LINE
  5
1F22
  8
SAPA_GLAS
 10
-30.325288431217931
 20
152.37860747707259
 30
0.0
 11
-30.446681097330849
 21
152.50000014318559
 31
0.0
1001
ACAD
1010
0.0
1020
0.0
1030
0.0
  0
LINE
  5
1F23
  8
SAPA_GLAS
 10
-42.997547780583837
 20
204.50000014352389
 30
0.0
 11
-42.247547780232118
 21
205.2500001438757
 31
0.0
1001
ACAD
1010
0.0
1020
0.0
1030
0.0
  0
LINE
  5
1F24
  8
SAPA_GLAS
 10
-41.8750157654502
 20
204.50000014352389
 30
0.0
 11
-41.125015765099711
 21
205.25000014387439
 31
0.0
1001
ACAD
1010
0.0
1020
0.0
1030
0.0
  0
LINE
  5
1F25
  8
SAPA_GLAS
 10
-40.75248375031655
 20
204.50000014352389
 30
0.0
 11
-40.002483749967283
 21
205.25000014387319
 31
0.0
1001
ACAD
1010
0.0
1020
0.0
1030
0.0
  0
LINE
  5
1F26
  8
SAPA_GLAS
 10
-39.629951735182921
 20
204.50000014352389
 30
0.0
 11
-38.879951734834862
 21
205.250000143872
 31
0.0
1001
ACAD
1010
0.0
1020
0.0
1030
0.0
  0
LINE
  5
1F27
  8
SAPA_GLAS
 10
-38.50741972004927
 20
204.50000014352389
 30
0.0
 11
-37.757419719702433
 21
205.25000014387081
 31
0.0
1001
ACAD
1010
0.0
1020
0.0
1030
0.0
  0
LINE
  5
1F28
  8
SAPA_GLAS
 10
-37.384887704915627
 20
204.50000014352389
 30
0.0
 11
-36.634887704569998
 21
205.25000014386961
 31
0.0
1001
ACAD
1010
0.0
1020
0.0
1030
0.0
  0
LINE
  5
1F29
  8
SAPA_GLAS
 10
-36.262355689781991
 20
204.50000014352389
 30
0.0
 11
-35.512355689437562
 21
205.25000014386839
 31
0.0
1001
ACAD
1010
0.0
1020
0.0
1030
0.0
  0
LINE
  5
1F2A
  8
SAPA_GLAS
 10
-35.139823674648341
 20
204.50000014352389
 30
0.0
 11
-34.389823674305148
 21
205.2500001438672
 31
0.0
1001
ACAD
1010
0.0
1020
0.0
1030
0.0
  0
LINE
  5
1F2B
  8
SAPA_GLAS
 10
-34.017291659514697
 20
204.50000014352389
 30
0.0
 11
-33.267291659172713
 21
205.25000014386589
 31
0.0
1001
ACAD
1010
0.0
1020
0.0
1030
0.0
  0
LINE
  5
1F2C
  8
SAPA_GLAS
 10
-32.894759644381061
 20
204.50000014352389
 30
0.0
 11
-32.144759644040292
 21
205.2500001438647
 31
0.0
1001
ACAD
1010
0.0
1020
0.0
1030
0.0
  0
LINE
  5
1F2D
  8
SAPA_GLAS
 10
-31.7722276292474
 20
204.50000014352389
 30
0.0
 11
-31.022227628907849
 21
205.2500001438635
 31
0.0
1001
ACAD
1010
0.0
1020
0.0
1030
0.0
  0
LINE
  5
1F2E
  8
SAPA_GLAS
 10
-30.64969561411376
 20
204.50000014352389
 30
0.0
 11
-30.325288431217668
 21
204.82440732641999
 31
0.0
1001
ACAD
1010
0.0
1020
0.0
1030
0.0
  0
LINE
  5
1F2F
  8
SAPA_GLAS
 10
-42.035528552857983
 20
204.50000014352389
 30
0.0
 11
-42.785528553210263
 21
205.25000014387621
 31
0.0
1001
ACAD
1010
0.0
1020
0.0
1030
0.0
  0
LINE
  5
1F30
  8
SAPA_GLAS
 10
-40.912996537724332
 20
204.50000014352389
 30
0.0
 11
-41.662996538075411
 21
205.25000014387501
 31
0.0
1001
ACAD
1010
0.0
1020
0.0
1030
0.0
  0
LINE
  5
1F31
  8
SAPA_GLAS
 10
-39.790464522590689
 20
204.50000014352389
 30
0.0
 11
-40.540464522940539
 21
205.25000014387379
 31
0.0
1001
ACAD
1010
0.0
1020
0.0
1030
0.0
  0
LINE
  5
1F32
  8
SAPA_GLAS
 10
-38.667932507457053
 20
204.50000014352389
 30
0.0
 11
-39.417932507805702
 21
205.2500001438726
 31
0.0
1001
ACAD
1010
0.0
1020
0.0
1030
0.0
  0
LINE
  5
1F33
  8
SAPA_GLAS
 10
-37.545400492323409
 20
204.50000014352389
 30
0.0
 11
-38.295400492670836
 21
205.2500001438714
 31
0.0
1001
ACAD
1010
0.0
1020
0.0
1030
0.0
  0
LINE
  5
1F34
  8
SAPA_GLAS
 10
-36.422868477189773
 20
204.50000014352389
 30
0.0
 11
-37.172868477535978
 21
205.2500001438701
 31
0.0
1001
ACAD
1010
0.0
1020
0.0
1030
0.0
  0
LINE
  5
1F35
  8
SAPA_GLAS
 10
-35.300336462056123
 20
204.50000014352389
 30
0.0
 11
-36.050336462401113
 21
205.2500001438689
 31
0.0
1001
ACAD
1010
0.0
1020
0.0
1030
0.0
  0
LINE
  5
1F36
  8
SAPA_GLAS
 10
-34.17780444692248
 20
204.50000014352389
 30
0.0
 11
-34.927804447266247
 21
205.25000014386771
 31
0.0
1001
ACAD
1010
0.0
1020
0.0
1030
0.0
  0
LINE
  5
1F37
  8
SAPA_GLAS
 10
-33.055272431788829
 20
204.50000014352389
 30
0.0
 11
-33.80527243213141
 21
205.25000014386649
 31
0.0
1001
ACAD
1010
0.0
1020
0.0
1030
0.0
  0
LINE
  5
1F38
  8
SAPA_GLAS
 10
-31.932740416655189
 20
204.50000014352389
 30
0.0
 11
-32.682740416996538
 21
205.25000014386529
 31
0.0
1001
ACAD
1010
0.0
1020
0.0
1030
0.0
  0
LINE
  5
1F39
  8
SAPA_GLAS
 10
-30.81020840152155
 20
204.50000014352389
 30
0.0
 11
-31.560208401861679
 21
205.25000014386401
 31
0.0
1001
ACAD
1010
0.0
1020
0.0
1030
0.0
  0
LINE
  5
1F3A
  8
SAPA_GLAS
 10
-30.32528843121732
 20
205.1376121883533
 30
0.0
 11
-30.437676386726821
 21
205.25000014386279
 31
0.0
1001
ACAD
1010
0.0
1020
0.0
1030
0.0
  0
ARC
  5
1F3B
  8
SAPA_PROFIL
 62
     4
 10
-22.307948661573651
 20
195.4134226600049
 30
0.0
 40
1.3416252492694889
 50
151.97558124339349
 51
179.20443003921429
  0
LINE
  5
1F3C
  8
SAPA_PROFIL
 62
     4
 10
-23.492264901947951
 20
196.0437823607021
 30
0.0
 11
-22.499444578919562
 21
197.76339760297651
 31
0.0
  0
LINE
  5
1F3D
  8
SAPA_PROFIL
 62
     4
 10
-22.499444578919562
 20
197.76339760297651
 30
0.0
 11
-22.499444578919562
 21
198.2000001433548
 31
0.0
  0
ARC
  5
1F3E
  8
SAPA_PROFIL
 62
     4
 10
-22.749444578919562
 20
198.2000001433548
 30
0.0
 40
0.25
 50
0.0
 51
90.0
  0
LINE
  5
1F3F
  8
SAPA_PROFIL
 62
     4
 10
-22.749444578919562
 20
198.4500001433548
 30
0.0
 11
-26.34945657891857
 21
198.4500001433548
 31
0.0
  0
ARC
  5
1F40
  8
SAPA_PROFIL
 62
     4
 10
-26.34945657891857
 20
198.2000001433548
 30
0.0
 40
0.25
 50
89.999999999999204
 51
180.0
  0
LINE
  5
1F41
  8
SAPA_PROFIL
 62
     4
 10
-26.599456578918559
 20
198.2000001433548
 30
0.0
 11
-26.599444936184032
 21
197.76339822177621
 31
0.0
  0
LINE
  5
1F42
  8
SAPA_PROFIL
 62
     4
 10
-26.599444936184032
 20
197.76339822177621
 30
0.0
 11
-25.606624255893419
 21
196.043782360709
 31
0.0
  0
ARC
  5
1F43
  8
SAPA_PROFIL
 62
     4
 10
-26.726849360386961
 20
195.42980961054829
 30
0.0
 40
1.2774454284537411
 50
0.4570690071153063
 51
28.726257381969621
  0
LINE
  5
1F44
  8
SAPA_PROFIL
 62
     4
 10
-25.449444578918499
 20
195.44000014335461
 30
0.0
 11
-25.449444578918499
 21
161.5600001433549
 31
0.0
  0
ARC
  5
1F45
  8
SAPA_PROFIL
 62
     4
 10
-26.726849360386961
 20
161.57019067616119
 30
0.0
 40
1.2774454284537351
 50
331.27374261803033
 51
359.54293099288469
  0
LINE
  5
1F46
  8
SAPA_PROFIL
 62
     4
 10
-25.606624255893419
 20
160.95621792600059
 30
0.0
 11
-26.599444936184032
 21
159.23660206493329
 31
0.0
  0
LINE
  5
1F47
  8
SAPA_PROFIL
 62
     4
 10
-26.599444936184032
 20
159.23660206493329
 30
0.0
 11
-26.599456578918559
 21
158.80000014335471
 31
0.0
  0
ARC
  5
1F48
  8
SAPA_PROFIL
 62
     4
 10
-26.34945657891857
 20
158.80000014335471
 30
0.0
 40
0.2499999999999964
 50
180.0
 51
270.0000000000008
  0
LINE
  5
1F49
  8
SAPA_PROFIL
 62
     4
 10
-26.34945657891857
 20
158.55000014335471
 30
0.0
 11
-22.749444578919562
 21
158.55000014335471
 31
0.0
  0
ARC
  5
1F4A
  8
SAPA_PROFIL
 62
     4
 10
-22.749444578919562
 20
158.80000014335471
 30
0.0
 40
0.25
 50
270.0
 51
0.0
  0
LINE
  5
1F4B
  8
SAPA_PROFIL
 62
     4
 10
-22.499444578919562
 20
158.80000014335471
 30
0.0
 11
-22.499444578919562
 21
159.236602683733
 31
0.0
  0
LINE
  5
1F4C
  8
SAPA_PROFIL
 62
     4
 10
-22.499444578919562
 20
159.236602683733
 30
0.0
 11
-23.492264901947951
 21
160.95621792600741
 31
0.0
  0
ARC
  5
1F4D
  8
SAPA_PROFIL
 62
     4
 10
-22.307948661572709
 20
161.58657762670489
 30
0.0
 40
1.3416252492704219
 50
180.79556996077531
 51
208.02441875659619
  0
LINE
  5
1F4E
  8
SAPA_PROFIL
 62
     4
 10
-23.64944457891923
 20
161.5679493357861
 30
0.0
 11
-23.64944457891923
 21
195.43205095092389
 31
0.0
  0
ARC
  5
1F4F
  8
SAPA_PROFIL
 10
-20.625288431228888
 20
198.74386918431159
 30
0.0
 40
0.2999999999994784
 50
305.6200697590757
 51
359.99999999993491
  0
ARC
  5
1F50
  8
SAPA_PROFIL
 10
-20.275843781169542
 20
198.25613110240329
 30
0.0
 40
0.2999999999994074
 50
125.6200697565029
 51
180.00000000018451
  0
LINE
  5
1F51
  8
SAPA_PROFIL
 10
-20.575843781168938
 20
198.25613110240241
 30
0.0
 11
-20.575843781168938
 21
197.30000014336699
 31
0.0
  0
ARC
  5
1F52
  8
SAPA_PROFIL
 10
-20.27584378116417
 20
197.30000014336099
 30
0.0
 40
0.300000000004772
 50
179.99999999885461
 51
242.87190750653571
  0
ARC
  5
1F53
  8
SAPA_PROFIL
 10
-20.54943257891928
 20
196.76600653876559
 30
0.0
 40
0.3000000000001489
 50
0.0000000000488533
 51
62.871907506686632
  0
LINE
  5
1F54
  8
SAPA_PROFIL
 10
-20.249432578919141
 20
196.76600653876579
 30
0.0
 11
-20.249432578919141
 21
194.5884581838086
 31
0.0
  0
ARC
  5
1F55
  8
SAPA_PROFIL
 10
-20.549432578919951
 20
194.58845818380971
 30
0.0
 40
0.3000000000008143
 50
340.00000000001512
 51
359.99999999977751
  0
LINE
  5
1F56
  8
SAPA_PROFIL
 10
-20.267524792683389
 20
194.4858521408118
 30
0.0
 11
-20.787038860358511
 21
193.05849897076681
 31
0.0
  0
ARC
  5
1F57
  8
SAPA_PROFIL
 10
-21.06894664659908
 20
193.16110501377111
 30
0.0
 40
0.3000000000067881
 50
249.99999999976211
 51
339.99999999911898
  0
LINE
  5
1F58
  8
SAPA_PROFIL
 10
-21.171552689600269
 20
192.8791972275294
 30
0.0
 11
-21.359491213750289
 21
192.94760125620039
 31
0.0
  0
ARC
  5
1F59
  8
SAPA_PROFIL
 10
-21.256885170759851
 20
193.2295090424318
 30
0.0
 40
0.2999999999934195
 50
160.00000000103751
 51
250.0000000010194
  0
LINE
  5
1F5A
  8
SAPA_PROFIL
 10
-21.538792956991301
 20
193.3321150854222
 30
0.0
 11
-21.16257079932598
 21
194.3657769682909
 31
0.0
  0
ARC
  5
1F5B
  8
SAPA_PROFIL
 10
-21.444478585562731
 20
194.46838301128361
 30
0.0
 40
0.2999999999992395
 50
340.00000000094531
 51
70.000000002193602
  0
LINE
  5
1F5C
  8
SAPA_PROFIL
 10
-21.341872542576091
 20
194.75029079752261
 30
0.0
 11
-23.152062621915121
 21
195.40914610475869
 31
0.0
  0
ARC
  5
1F5D
  8
SAPA_PROFIL
 10
-23.049456578918718
 20
195.69105389099479
 30
0.0
 40
0.2999999999998422
 50
180.00000000002709
 51
250.0000000002521
  0
LINE
  5
1F5E
  8
SAPA_PROFIL
 10
-23.349456578918559
 20
195.6910538909946
 30
0.0
 11
-23.349456578918559
 21
196.11076965881421
 31
0.0
  0
ARC
  5
1F5F
  8
SAPA_PROFIL
 10
-23.049456578919081
 20
196.11076965881341
 30
0.0
 40
0.2999999999994891
 50
149.99999999986139
 51
179.9999999998588
  0
LINE
  5
1F60
  8
SAPA_PROFIL
 10
-23.309264200053601
 20
196.26076965881381
 30
0.0
 11
-22.449456578918898
 21
197.75000014335501
 31
0.0
  0
LINE
  5
1F61
  8
SAPA_PROFIL
 10
-22.449456578918898
 20
197.75000014335501
 30
0.0
 11
-22.44944457891847
 21
198.2000001433548
 31
0.0
  0
ARC
  5
1F62
  8
SAPA_PROFIL
 10
-22.74944457891911
 20
198.20000014335429
 30
0.0
 40
0.3000000000006331
 50
0.0000000000868503
 51
90.000000000087525
  0
LINE
  5
1F63
  8
SAPA_PROFIL
 10
-22.749444578919562
 20
198.50000014335501
 30
0.0
 11
-26.34945657891857
 21
198.50000014335501
 31
0.0
  0
ARC
  5
1F64
  8
SAPA_PROFIL
 10
-26.349456578919021
 20
198.20000014335429
 30
0.0
 40
0.3000000000006366
 50
89.999999999913143
 51
179.99999999991309
  0
LINE
  5
1F65
  8
SAPA_PROFIL
 10
-26.649456578919661
 20
198.2000001433548
 30
0.0
 11
-26.649456578919661
 21
197.75000014335501
 31
0.0
  0
LINE
  5
1F66
  8
SAPA_PROFIL
 10
-26.649456578919661
 20
197.75000014335501
 30
0.0
 11
-25.789631841349351
 21
196.26074001228059
 31
0.0
  0
ARC
  5
1F67
  8
SAPA_PROFIL
 10
-26.049439462485768
 20
196.11074001228309
 30
0.0
 40
0.2999999999997129
 50
0.0036468669287298
 51
29.999999999487599
  0
LINE
  5
1F68
  8
SAPA_PROFIL
 10
-25.749439463093751
 20
196.1107591072336
 30
0.0
 11
-25.749432413301999
 21
196.0000001433568
 31
0.0
  0
LINE
  5
1F69
  8
SAPA_PROFIL
 10
-25.749432413301999
 20
196.0000001433568
 30
0.0
 11
-27.825288431218521
 21
196.0000001433568
 31
0.0
  0
ARC
  5
1F6A
  8
SAPA_PROFIL
 10
-27.825288431218521
 20
196.5000001433568
 30
0.0
 40
0.5
 50
180.0
 51
270.0
  0
LINE
  5
1F6B
  8
SAPA_PROFIL
 10
-28.325288431218532
 20
196.5000001433568
 30
0.0
 11
-28.325288431218532
 21
201.75000014302211
 31
0.0
  0
ARC
  5
1F6C
  8
SAPA_PROFIL
 10
-27.825288431218521
 20
201.75000014302211
 30
0.0
 40
0.5
 50
90.0
 51
180.0
  0
LINE
  5
1F6D
  8
SAPA_PROFIL
 10
-27.825288431218521
 20
202.25000014302211
 30
0.0
 11
-27.325288427635119
 21
202.25000014302211
 31
0.0
  0
ARC
  5
1F6E
  8
SAPA_PROFIL
 10
-27.325288427635119
 20
201.75000014302211
 30
0.0
 40
0.5
 50
0.0
 51
90.0
  0
LINE
  5
1F6F
  8
SAPA_PROFIL
 10
-26.825288427635119
 20
201.75000014302211
 30
0.0
 11
-26.825288427629658
 21
200.75000014261471
 31
0.0
  0
LINE
  5
1F70
  8
SAPA_PROFIL
 10
-26.825288427629658
 20
200.75000014261471
 30
0.0
 11
-23.625288427175999
 21
200.75000014261059
 31
0.0
  0
LINE
  5
1F71
  8
SAPA_PROFIL
 10
-23.625288427175999
 20
200.75000014261059
 30
0.0
 11
-23.625288427183278
 21
205.2500001435165
 31
0.0
  0
LINE
  5
1F72
  8
SAPA_PROFIL
 10
-23.625288427183278
 20
205.2500001435165
 30
0.0
 11
-43.125288431228711
 21
205.25000014353779
 31
0.0
  0
ARC
  5
1F73
  8
SAPA_PROFIL
 10
-43.125288431228981
 20
205.4500001435388
 30
0.0
 40
0.2000000000009834
 50
164.3980832556245
 51
270.00000000007742
  0
ARC
  5
1F74
  8
SAPA_PROFIL
 10
-42.354765575270598
 20
205.23483851023701
 30
0.0
 40
1.0000000000005671
 50
96.24358845850638
 51
164.39808325546409
  0
ARC
  5
1F75
  8
SAPA_PROFIL
 10
-28.32528843104231
 20
77.000000138902493
 30
0.0
 40
130.00000000411961
 50
90.000000000087283
 51
96.243588458588974
  0
LINE
  5
1F76
  8
SAPA_PROFIL
 10
-28.325288431240349
 20
207.00000014302219
 30
0.0
 11
-23.325288431320391
 21
207.00000014316041
 31
0.0
  0
ARC
  5
1F77
  8
SAPA_PROFIL
 10
-23.325288431229421
 20
204.00000014316041
 30
0.0
 40
3.0
 50
0.0
 51
90.000000001737476
  0
LINE
  5
1F78
  8
SAPA_PROFIL
 10
-20.32528843122941
 20
204.00000014316041
 30
0.0
 11
-20.32528843122941
 21
198.74386918431131
 31
0.0
  0
ARC
  5
1F79
  8
SAPA_PROFIL
 10
-20.625288431228888
 20
158.2561311023984
 30
0.0
 40
0.2999999999994784
 50
0.0000000000651378
 51
54.379930240924317
  0
ARC
  5
1F7A
  8
SAPA_PROFIL
 10
-20.275843781169542
 20
158.74386918430659
 30
0.0
 40
0.2999999999994074
 50
179.9999999998154
 51
234.37993024349711
  0
LINE
  5
1F7B
  8
SAPA_PROFIL
 10
-20.575843781168938
 20
158.74386918430761
 30
0.0
 11
-20.575843781168938
 21
159.700000143343
 31
0.0
  0
ARC
  5
1F7C
  8
SAPA_PROFIL
 10
-20.275843781164539
 20
159.70000014334869
 30
0.0
 40
0.300000000004399
 50
117.1280924934207
 51
180.00000000110191
  0
ARC
  5
1F7D
  8
SAPA_PROFIL
 10
-20.54943257891928
 20
160.233993747944
 30
0.0
 40
0.3000000000001489
 50
297.12809249331337
 51
359.99999999995123
  0
LINE
  5
1F7E
  8
SAPA_PROFIL
 10
-20.249432578919141
 20
160.23399374794371
 30
0.0
 11
-20.249432578919141
 21
162.41154210290091
 31
0.0
  0
ARC
  5
1F7F
  8
SAPA_PROFIL
 10
-20.549432578918669
 20
162.4115421028996
 30
0.0
 40
0.2999999999995246
 50
0.0000000002659792
 51
20.000000000028361
  0
LINE
  5
1F80
  8
SAPA_PROFIL
 10
-20.267524792683389
 20
162.5141481458972
 30
0.0
 11
-20.787038860358511
 21
163.94150131594279
 31
0.0
  0
ARC
  5
1F81
  8
SAPA_PROFIL
 10
-21.06894664659908
 20
163.8388952729384
 30
0.0
 40
0.3000000000067881
 50
20.00000000088103
 51
110.0000000002379
  0
LINE
  5
1F82
  8
SAPA_PROFIL
 10
-21.171552689600269
 20
164.1208030591801
 30
0.0
 11
-21.359491213750289
 21
164.05239903050909
 31
0.0
  0
ARC
  5
1F83
  8
SAPA_PROFIL
 10
-21.256885170760079
 20
163.77049124427791
 30
0.0
 40
0.2999999999931281
 50
109.99999999895449
 51
199.9999999989366
  0
LINE
  5
1F84
  8
SAPA_PROFIL
 10
-21.538792956991301
 20
163.66788520128779
 30
0.0
 11
-21.16257079932598
 21
162.63422331841821
 31
0.0
  0
ARC
  5
1F85
  8
SAPA_PROFIL
 10
-21.4444785855625
 20
162.53161727542559
 30
0.0
 40
0.2999999999989481
 50
289.99999999778038
 51
19.999999999028759
  0
LINE
  5
1F86
  8
SAPA_PROFIL
 10
-21.341872542576091
 20
162.2497094891869
 30
0.0
 11
-23.152062621915121
 21
161.59085418195119
 31
0.0
  0
ARC
  5
1F87
  8
SAPA_PROFIL
 10
-23.049456578918392
 20
161.308946395715
 30
0.0
 40
0.3000000000001664
 50
109.999999999791
 51
180.0000000000162
  0
LINE
  5
1F88
  8
SAPA_PROFIL
 10
-23.349456578918559
 20
161.30894639571491
 30
0.0
 11
-23.349456578918559
 21
160.8892306278953
 31
0.0
  0
ARC
  5
1F89
  8
SAPA_PROFIL
 10
-23.049456578919081
 20
160.8892306278961
 30
0.0
 40
0.2999999999994891
 50
180.00000000014111
 51
210.0000000001385
  0
LINE
  5
1F8A
  8
SAPA_PROFIL
 10
-23.309264200053601
 20
160.73923062789569
 30
0.0
 11
-22.449456578918898
 21
159.25000014335501
 31
0.0
  0
LINE
  5
1F8B
  8
SAPA_PROFIL
 10
-22.449456578918898
 20
159.25000014335501
 30
0.0
 11
-22.44944457891847
 21
158.80000014335471
 31
0.0
  0
ARC
  5
1F8C
  8
SAPA_PROFIL
 10
-22.74944457891888
 20
158.80000014335539
 30
0.0
 40
0.3000000000004057
 50
269.99999999986909
 51
359.99999999986971
  0
LINE
  5
1F8D
  8
SAPA_PROFIL
 10
-22.749444578919562
 20
158.50000014335501
 30
0.0
 11
-26.34945657891857
 21
158.50000014335501
 31
0.0
  0
ARC
  5
1F8E
  8
SAPA_PROFIL
 10
-26.349456578919249
 20
158.80000014335539
 30
0.0
 40
0.3000000000004093
 50
180.0000000001302
 51
270.00000000013029
  0
LINE
  5
1F8F
  8
SAPA_PROFIL
 10
-26.649456578919661
 20
158.80000014335471
 30
0.0
 11
-26.649456578919661
 21
159.25000014335501
 31
0.0
  0
LINE
  5
1F90
  8
SAPA_PROFIL
 10
-26.649456578919661
 20
159.25000014335501
 30
0.0
 11
-25.789631841349351
 21
160.73926027442889
 31
0.0
  0
ARC
  5
1F91
  8
SAPA_PROFIL
 10
-26.049439462485768
 20
160.88926027442639
 30
0.0
 40
0.2999999999997129
 50
330.00000000051239
 51
359.9963531330713
  0
LINE
  5
1F92
  8
SAPA_PROFIL
 10
-25.749439463093751
 20
160.8892411794759
 30
0.0
 11
-25.749432413301999
 21
161.00000014335319
 31
0.0
  0
LINE
  5
1F93
  8
SAPA_PROFIL
 10
-25.749432413301999
 20
161.00000014335319
 30
0.0
 11
-27.825288431218521
 21
161.00000014335319
 31
0.0
  0
ARC
  5
1F94
  8
SAPA_PROFIL
 10
-27.825288431218521
 20
160.50000014335319
 30
0.0
 40
0.5
 50
90.0
 51
180.0
  0
LINE
  5
1F95
  8
SAPA_PROFIL
 10
-28.325288431218532
 20
160.50000014335319
 30
0.0
 11
-28.325288431218532
 21
155.25000014368791
 31
0.0
  0
ARC
  5
1F96
  8
SAPA_PROFIL
 10
-27.825288431218521
 20
155.25000014368791
 30
0.0
 40
0.5
 50
180.0
 51
270.0
  0
LINE
  5
1F97
  8
SAPA_PROFIL
 10
-27.825288431218521
 20
154.75000014368791
 30
0.0
 11
-27.325288427635119
 21
154.75000014368791
 31
0.0
  0
ARC
  5
1F98
  8
SAPA_PROFIL
 10
-27.325288427635119
 20
155.25000014368791
 30
0.0
 40
0.5
 50
270.0
 51
0.0
  0
LINE
  5
1F99
  8
SAPA_PROFIL
 10
-26.825288427635119
 20
155.25000014368791
 30
0.0
 11
-26.825288427629658
 21
156.25000014409491
 31
0.0
  0
LINE
  5
1F9A
  8
SAPA_PROFIL
 10
-26.825288427629658
 20
156.25000014409491
 30
0.0
 11
-23.625288427175999
 21
156.25000014409889
 31
0.0
  0
LINE
  5
1F9B
  8
SAPA_PROFIL
 10
-23.625288427175999
 20
156.25000014409889
 30
0.0
 11
-23.625288427183278
 21
151.75000014319309
 31
0.0
  0
LINE
  5
1F9C
  8
SAPA_PROFIL
 10
-23.625288427183278
 20
151.75000014319309
 30
0.0
 11
-43.125288431228711
 21
151.75000014317169
 31
0.0
  0
ARC
  5
1F9D
  8
SAPA_PROFIL
 10
-43.125288431228981
 20
151.55000014317071
 30
0.0
 40
0.2000000000009834
 50
89.99999999992265
 51
195.60191674437539
  0
ARC
  5
1F9E
  8
SAPA_PROFIL
 10
-42.354765575270598
 20
151.7651617764725
 30
0.0
 40
1.0000000000005671
 50
195.6019167445358
 51
263.75641154149361
  0
ARC
  5
1F9F
  8
SAPA_PROFIL
 10
-28.32528843104231
 20
280.0000001478071
 30
0.0
 40
130.00000000411961
 50
263.75641154141101
 51
269.99999999991269
  0
LINE
  5
1FA0
  8
SAPA_PROFIL
 10
-28.325288431240349
 20
150.0000001436874
 30
0.0
 11
-23.325288431320391
 21
150.00000014354961
 31
0.0
  0
ARC
  5
1FA1
  8
SAPA_PROFIL
 10
-23.325288431229421
 20
153.00000014354961
 30
0.0
 40
3.0
 50
269.99999999826252
 51
0.0
  0
LINE
  5
1FA2
  8
SAPA_PROFIL
 10
-20.32528843122941
 20
153.00000014354961
 30
0.0
 11
-20.32528843122941
 21
158.25613110239871
 31
0.0
  0
LINE
  5
1FA3
  8
SAPA_PROFIL
 10
-13.25055527878726
 20
66.000000143375246
 30
0.0
 11
-13.25055527878362
 21
71.000000143375246
 31
0.0
  0
ARC
  5
1FA4
  8
SAPA_PROFIL
 10
-12.25055527878362
 20
71.000000143375246
 30
0.0
 40
1.0
 50
90.0
 51
180.0
  0
LINE
  5
1FA5
  8
SAPA_PROFIL
 10
-12.25055527878362
 20
72.000000143375246
 30
0.0
 11
-2.2505552787845309
 21
72.00000014336797
 31
0.0
  0
ARC
  5
1FA6
  8
SAPA_PROFIL
 10
-2.2505552787808929
 20
71.000000143371608
 30
0.0
 40
0.999999999996362
 50
0.0000000002084408
 51
90.000000000208431
  0
LINE
  5
1FA7
  8
SAPA_PROFIL
 10
-1.2505552787845311
 20
71.000000143375246
 30
0.0
 11
-1.2505552787845311
 21
69.250000143338866
 31
0.0
  0
ARC
  5
1FA8
  8
SAPA_PROFIL
 10
-0.5005552787808938
 20
69.250000143338866
 30
0.0
 40
0.750000000003638
 50
180.0
 51
0.0
  0
LINE
  5
1FA9
  8
SAPA_PROFIL
 10
0.2494447212227442
 20
69.250000143338866
 30
0.0
 11
0.2494447212263822
 21
71.00000014336797
 31
0.0
  0
ARC
  5
1FAA
  8
SAPA_PROFIL
 10
-2.2505552787790739
 20
71.000000143369789
 30
0.0
 40
2.5000000000054561
 50
359.99999999995828
 51
89.999999999958305
  0
LINE
  5
1FAB
  8
SAPA_PROFIL
 10
-2.2505552787772549
 20
73.500000143375246
 30
0.0
 11
-12.050555278782889
 21
73.500000143375246
 31
0.0
  0
ARC
  5
1FAC
  8
SAPA_PROFIL
 10
-12.050555278782889
 20
74.500000143375246
 30
0.0
 40
1.0
 50
180.0
 51
270.0
  0
LINE
  5
1FAD
  8
SAPA_PROFIL
 10
-13.050555278782889
 20
74.500000143375246
 30
0.0
 11
-13.050555278782889
 21
130.75000014266951
 31
0.0
  0
ARC
  5
1FAE
  8
SAPA_PROFIL
 10
-12.550555278782889
 20
130.75000014266951
 30
0.0
 40
0.5
 50
90.0
 51
180.0
  0
LINE
  5
1FAF
  8
SAPA_PROFIL
 10
-12.550555278782889
 20
131.25000014266939
 30
0.0
 11
5.2494447212200148
 21
131.25000014267221
 31
0.0
  0
ARC
  5
1FB0
  8
SAPA_PROFIL
 10
5.2494447212194837
 20
131.5500001426729
 30
0.0
 40
0.3000000000006935
 50
270.00000000010141
 51
69.999999999950347
  0
LINE
  5
1FB1
  8
SAPA_PROFIL
 10
5.3520507642176653
 20
131.8319079289092
 30
0.0
 11
-0.947949235781607
 21
134.12492040479381
 31
0.0
  0
ARC
  5
1FB2
  8
SAPA_PROFIL
 10
-1.050555278778653
 20
133.84301261855759
 30
0.0
 40
0.3000000000001413
 50
70.000000000142805
 51
170.000000000238
  0
LINE
  5
1FB3
  8
SAPA_PROFIL
 10
-1.3459976046826789
 20
133.8951070718565
 30
0.0
 11
-1.4750567911789849
 21
133.16317605384279
 31
0.0
  0
ARC
  5
1FB4
  8
SAPA_PROFIL
 10
-1.967460667684849
 20
133.25000014267661
 30
0.0
 40
0.4999999999998205
 50
270.00000000001819
 51
349.99999999995811
  0
LINE
  5
1FB5
  8
SAPA_PROFIL
 10
-1.96746066768469
 20
132.7500001426767
 30
0.0
 11
-12.75055527878362
 21
132.75000014266951
 31
0.0
  0
ARC
  5
1FB6
  8
SAPA_PROFIL
 10
-12.75055527878362
 20
133.25000014266951
 30
0.0
 40
0.5
 50
180.0
 51
270.0
  0
LINE
  5
1FB7
  8
SAPA_PROFIL
 10
-13.25055527878362
 20
133.25000014266951
 30
0.0
 11
-13.25055527877635
 21
146.50000014336069
 31
0.0
  0
ARC
  5
1FB8
  8
SAPA_PROFIL
 10
-13.75055527877816
 20
146.5000001433589
 30
0.0
 40
0.500000000001819
 50
0.0000000002084408
 51
90.000000000208431
  0
ARC
  5
1FB9
  8
SAPA_PROFIL
 10
-13.750555278779981
 20
146.00000014336069
 30
0.0
 40
1.0
 50
90.0
 51
180.0
  0
LINE
  5
1FBA
  8
SAPA_PROFIL
 10
-14.750555278779981
 20
146.00000014336069
 30
0.0
 11
-14.75055527878362
 21
66.500000143375246
 31
0.0
  0
ARC
  5
1FBB
  8
SAPA_PROFIL
 10
-13.75055527878362
 20
66.500000143375246
 30
0.0
 40
1.0
 50
180.0
 51
270.0
  0
ARC
  5
1FBC
  8
SAPA_PROFIL
 10
-13.750555278785439
 20
66.000000143373427
 30
0.0
 40
0.499999999998181
 50
270.00000000020839
 51
0.0000000002084408
  0
LINE
  5
1FBD
  8
SAPA_FOGBAND
 10
-8.3869547700116982
 20
68.600432674574449
 30
0.0
 11
-8.4969521551931848
 21
71.949640199235773
 31
0.0
  0
LINE
  5
1FBE
  8
SAPA_FOGBAND
 10
-8.4969521551931848
 20
71.949640199235773
 30
0.0
 11
-10.93504549561589
 21
71.949063700361634
 31
0.0
  0
LINE
  5
1FBF
  8
SAPA_FOGBAND
 10
-10.93504549561589
 20
71.949063700361634
 30
0.0
 11
-9.8096443731512863
 21
68.600432674574449
 31
0.0
  0
LINE
  5
1FC0
  8
SAPA_FOGBAND
 10
-6.6642651668691988
 20
68.600432674574449
 30
0.0
 11
-5.5388185695530856
 21
71.949233414828754
 31
0.0
  0
LINE
  5
1FC1
  8
SAPA_FOGBAND
 10
-5.5388185695530856
 20
71.949233414828754
 30
0.0
 11
-7.9769566161023704
 21
71.949669555648825
 31
0.0
  0
LINE
  5
1FC2
  8
SAPA_FOGBAND
 10
-7.9769566161023704
 20
71.949669555648825
 30
0.0
 11
-8.0869547700087878
 21
68.600432674574449
 31
0.0
  0
LINE
  5
1FC3
  8
SAPA_FOGBAND
 10
-11.38695477000806
 20
67.800432674574253
 30
0.0
 11
-11.38695477000806
 21
68.600432674574449
 31
0.0
  0
LINE
  5
1FC4
  8
SAPA_FOGBAND
 10
-11.38695477000806
 20
68.600432674574449
 30
0.0
 11
-5.0869547700124249
 21
68.600432674574449
 31
0.0
  0
LINE
  5
1FC5
  8
SAPA_FOGBAND
 10
-5.0869547700124249
 20
68.600432674574449
 30
0.0
 11
-5.0869547700124249
 21
67.800432674574253
 31
0.0
  0
LINE
  5
1FC6
  8
SAPA_FOGBAND
 10
-5.0869547700124249
 20
67.800432674574253
 30
0.0
 11
-11.38695477000806
 21
67.800432674574253
 31
0.0
  0
LINE
  5
1FC7
  8
SAPA_PROFIL
 62
     4
 10
3.4017096535960709
 20
137.50000007463291
 30
-0.2
 11
-10.798290346406469
 21
137.50000007463291
 31
-0.2
1001
RC_PROFILE
1002
{
1000
Region
1002
}
  0
ARC
  5
1FC8
  8
SAPA_PROFIL
 62
     4
 10
-10.798290346406469
 20
138.00000007463291
 30
-0.2
 40
0.5
 50
180.00000000020839
 51
270.0
1001
RC_PROFILE
1002
{
1000
Region
1002
}
  0
LINE
  5
1FC9
  8
SAPA_PROFIL
 62
     4
 10
-11.298290346406469
 20
138.00000007463109
 30
-0.2
 11
-11.29829034640829
 21
142.0000000752523
 31
-0.2
1001
RC_PROFILE
1002
{
1000
Region
1002
}
  0
ARC
  5
1FCA
  8
SAPA_PROFIL
 62
     4
 10
-10.79829034640829
 20
142.0000000752523
 30
-0.2
 40
0.5
 50
90.0
 51
180.0
1001
RC_PROFILE
1002
{
1000
Region
1002
}
  0
LINE
  5
1FCB
  8
SAPA_PROFIL
 62
     4
 10
-10.79829034640829
 20
142.5000000752523
 30
-0.2
 11
3.4017096535942519
 21
142.50000007525949
 31
-0.2
1001
RC_PROFILE
1002
{
1000
Region
1002
}
  0
ARC
  5
1FCC
  8
SAPA_PROFIL
 62
     4
 10
3.4017096535957299
 20
142.00000007525921
 30
-0.2
 40
0.5000000000003411
 50
0.0000000000390827
 51
90.000000000169351
1001
RC_PROFILE
1002
{
1000
Region
1002
}
  0
LINE
  5
1FCD
  8
SAPA_PROFIL
 62
     4
 10
3.9017096535960709
 20
142.00000007525949
 30
-0.2
 11
3.9017096535960709
 21
138.00000007463291
 31
-0.2
1001
RC_PROFILE
1002
{
1000
Region
1002
}
  0
ARC
  5
1FCE
  8
SAPA_PROFIL
 62
     4
 10
3.4017096535960709
 20
138.00000007463291
 30
-0.2
 40
0.5
 50
270.0
 51
0.0
1001
RC_PROFILE
1002
{
1000
Region
1002
}
  0
ARC
  5
1FCF
  8
SAPA_PROFIL
 62
     4
 10
28.965183210005371
 20
150.92274014464991
 30
0.0
 40
1.2000000000004389
 50
0.0000000000841363
 51
30.000000000105089
1001
GENIUS_GENOBJ-N-FIL_13
1002
{
1000
OWNER
1000
GEN
1002
}
1001
GENIUS_GENODEF_13
1002
{
1000
HIER
1070
     0
1002
}
1002
{
1000
MANEDIT
1070
     0
1002
}
1002
{
1000
NOSEL
1070
     0
1002
}
1002
{
1000
BEHIND
1070
     0
1002
}
1002
{
1000
OTHER
1070
     0
1002
}
1002
{
1000
REACTOR
1002
}
  0
LINE
  5
1FD0
  8
SAPA_PROFIL
 62
     4
 10
30.004413694545971
 20
151.522740144652
 30
0.0
 11
28.999444363948669
 21
153.26339808529539
 31
0.0
1001
GENIUS_GENOBJ-N-FIL_13
1002
{
1000
OWNER
1000
GEN
1002
}
1001
GENIUS_GENODEF_13
1002
{
1000
HIER
1070
     0
1002
}
1002
{
1000
MANEDIT
1070
     0
1002
}
1002
{
1000
NOSEL
1070
     0
1002
}
1002
{
1000
BEHIND
1070
     0
1002
}
1002
{
1000
OTHER
1070
     0
1002
}
1002
{
1000
REACTOR
1002
}
  0
LINE
  5
1FD1
  8
SAPA_PROFIL
 62
     4
 10
28.999444363948669
 20
153.26339808529539
 30
0.0
 11
28.999432721214141
 21
153.70000000687401
 31
0.0
1001
GENIUS_GENOBJ-N-FIL_13
1002
{
1000
OWNER
1000
GEN
1002
}
1001
GENIUS_GENODEF_13
1002
{
1000
HIER
1070
     0
1002
}
1002
{
1000
MANEDIT
1070
     0
1002
}
1002
{
1000
NOSEL
1070
     0
1002
}
1002
{
1000
BEHIND
1070
     0
1002
}
1002
{
1000
OTHER
1070
     0
1002
}
1002
{
1000
REACTOR
1002
}
  0
ARC
  5
1FD2
  8
SAPA_PROFIL
 62
     4
 10
29.249432721214131
 20
153.70000000687401
 30
0.0
 40
0.2499999999999964
 50
89.999999999999204
 51
180.0
1001
GENIUS_GENOBJ-N-FIL_13
1002
{
1000
OWNER
1000
GEN
1002
}
1001
GENIUS_GENODEF_13
1002
{
1000
HIER
1070
     0
1002
}
1002
{
1000
MANEDIT
1070
     0
1002
}
1002
{
1000
NOSEL
1070
     0
1002
}
1002
{
1000
BEHIND
1070
     0
1002
}
1002
{
1000
OTHER
1070
     0
1002
}
1002
{
1000
REACTOR
1002
}
  0
LINE
  5
1FD3
  8
SAPA_PROFIL
 62
     4
 10
29.249432721214141
 20
153.95000000687401
 30
0.0
 11
32.849444721213104
 21
153.95000000687401
 31
0.0
1001
GENIUS_GENOBJ-N-FIL_13
1002
{
1000
OWNER
1000
GEN
1002
}
1001
GENIUS_GENODEF_13
1002
{
1000
HIER
1070
     0
1002
}
1002
{
1000
MANEDIT
1070
     0
1002
}
1002
{
1000
NOSEL
1070
     0
1002
}
1002
{
1000
BEHIND
1070
     0
1002
}
1002
{
1000
OTHER
1070
     0
1002
}
1002
{
1000
REACTOR
1002
}
  0
ARC
  5
1FD4
  8
SAPA_PROFIL
 62
     4
 10
32.849444721213104
 20
153.70000000687401
 30
0.0
 40
0.25
 50
0.0
 51
90.0
1001
GENIUS_GENOBJ-N-FIL_13
1002
{
1000
OWNER
1000
GEN
1002
}
1001
GENIUS_GENODEF_13
1002
{
1000
HIER
1070
     0
1002
}
1002
{
1000
MANEDIT
1070
     0
1002
}
1002
{
1000
NOSEL
1070
     0
1002
}
1002
{
1000
BEHIND
1070
     0
1002
}
1002
{
1000
OTHER
1070
     0
1002
}
1002
{
1000
REACTOR
1002
}
  0
LINE
  5
1FD5
  8
SAPA_PROFIL
 62
     4
 10
33.099444721213111
 20
153.70000000687401
 30
0.0
 11
33.099444721213111
 21
153.26339746649521
 31
0.0
1001
GENIUS_GENOBJ-N-FIL_13
1002
{
1000
OWNER
1000
GEN
1002
}
1001
GENIUS_GENODEF_13
1002
{
1000
HIER
1070
     0
1002
}
1002
{
1000
MANEDIT
1070
     0
1002
}
1002
{
1000
NOSEL
1070
     0
1002
}
1002
{
1000
BEHIND
1070
     0
1002
}
1002
{
1000
OTHER
1070
     0
1002
}
1002
{
1000
REACTOR
1002
}
  0
LINE
  5
1FD6
  8
SAPA_PROFIL
 62
     4
 10
33.099444721213111
 20
153.26339746649521
 30
0.0
 11
32.125952725463087
 21
151.57725986909441
 31
0.0
1001
GENIUS_GENOBJ-N-FIL_13
1002
{
1000
OWNER
1000
GEN
1002
}
1001
GENIUS_GENODEF_13
1002
{
1000
HIER
1070
     0
1002
}
1002
{
1000
MANEDIT
1070
     0
1002
}
1002
{
1000
NOSEL
1070
     0
1002
}
1002
{
1000
BEHIND
1070
     0
1002
}
1002
{
1000
OTHER
1070
     0
1002
}
1002
{
1000
REACTOR
1002
}
  0
ARC
  5
1FD7
  8
SAPA_PROFIL
 62
     4
 10
33.165183210004678
 20
150.9772598690956
 30
0.0
 40
1.1999999999995941
 50
150.00000000005809
 51
180.00000000005559
1001
GENIUS_GENOBJ-N-FIL_13
1002
{
1000
OWNER
1000
GEN
1002
}
1001
GENIUS_GENODEF_13
1002
{
1000
HIER
1070
     0
1002
}
1002
{
1000
MANEDIT
1070
     0
1002
}
1002
{
1000
NOSEL
1070
     0
1002
}
1002
{
1000
BEHIND
1070
     0
1002
}
1002
{
1000
OTHER
1070
     0
1002
}
1002
{
1000
REACTOR
1002
}
  0
LINE
  5
1FD8
  8
SAPA_PROFIL
 62
     4
 10
31.96518321000508
 20
150.9772598690945
 30
0.0
 11
31.96518321000508
 21
129.02274028080339
 31
0.0
1001
GENIUS_GENOBJ-N-FIL_13
1002
{
1000
OWNER
1000
GEN
1002
}
1001
GENIUS_GENODEF_13
1002
{
1000
HIER
1070
     0
1002
}
1002
{
1000
MANEDIT
1070
     0
1002
}
1002
{
1000
NOSEL
1070
     0
1002
}
1002
{
1000
BEHIND
1070
     0
1002
}
1002
{
1000
OTHER
1070
     0
1002
}
1002
{
1000
REACTOR
1002
}
  0
ARC
  5
1FD9
  8
SAPA_PROFIL
 62
     4
 10
33.165183210004678
 20
129.0227402808022
 30
0.0
 40
1.1999999999995969
 50
179.99999999994429
 51
209.99999999994191
1001
GENIUS_GENOBJ-N-FIL_13
1002
{
1000
OWNER
1000
GEN
1002
}
1001
GENIUS_GENODEF_13
1002
{
1000
HIER
1070
     0
1002
}
1002
{
1000
MANEDIT
1070
     0
1002
}
1002
{
1000
NOSEL
1070
     0
1002
}
1002
{
1000
BEHIND
1070
     0
1002
}
1002
{
1000
OTHER
1070
     0
1002
}
1002
{
1000
REACTOR
1002
}
  0
LINE
  5
1FDA
  8
SAPA_PROFIL
 62
     4
 10
32.125952725463087
 20
128.42274028080351
 30
0.0
 11
33.099444721213111
 21
126.73660268340259
 31
0.0
1001
GENIUS_GENOBJ-N-FIL_13
1002
{
1000
OWNER
1000
GEN
1002
}
1001
GENIUS_GENODEF_13
1002
{
1000
HIER
1070
     0
1002
}
1002
{
1000
MANEDIT
1070
     0
1002
}
1002
{
1000
NOSEL
1070
     0
1002
}
1002
{
1000
BEHIND
1070
     0
1002
}
1002
{
1000
OTHER
1070
     0
1002
}
1002
{
1000
REACTOR
1002
}
  0
LINE
  5
1FDB
  8
SAPA_PROFIL
 62
     4
 10
33.099444721213111
 20
126.73660268340259
 30
0.0
 11
33.099444721213111
 21
126.30000014302431
 31
0.0
1001
GENIUS_GENOBJ-N-FIL_13
1002
{
1000
OWNER
1000
GEN
1002
}
1001
GENIUS_GENODEF_13
1002
{
1000
HIER
1070
     0
1002
}
1002
{
1000
MANEDIT
1070
     0
1002
}
1002
{
1000
NOSEL
1070
     0
1002
}
1002
{
1000
BEHIND
1070
     0
1002
}
1002
{
1000
OTHER
1070
     0
1002
}
1002
{
1000
REACTOR
1002
}
  0
ARC
  5
1FDC
  8
SAPA_PROFIL
 62
     4
 10
32.849444721213104
 20
126.30000014302431
 30
0.0
 40
0.25
 50
270.0
 51
0.0
1001
GENIUS_GENOBJ-N-FIL_13
1002
{
1000
OWNER
1000
GEN
1002
}
1001
GENIUS_GENODEF_13
1002
{
1000
HIER
1070
     0
1002
}
1002
{
1000
MANEDIT
1070
     0
1002
}
1002
{
1000
NOSEL
1070
     0
1002
}
1002
{
1000
BEHIND
1070
     0
1002
}
1002
{
1000
OTHER
1070
     0
1002
}
1002
{
1000
REACTOR
1002
}
  0
LINE
  5
1FDD
  8
SAPA_PROFIL
 62
     4
 10
32.849444721213104
 20
126.05000014302431
 30
0.0
 11
29.249432721214141
 21
126.05000014302431
 31
0.0
1001
GENIUS_GENOBJ-N-FIL_13
1002
{
1000
OWNER
1000
GEN
1002
}
1001
GENIUS_GENODEF_13
1002
{
1000
HIER
1070
     0
1002
}
1002
{
1000
MANEDIT
1070
     0
1002
}
1002
{
1000
NOSEL
1070
     0
1002
}
1002
{
1000
BEHIND
1070
     0
1002
}
1002
{
1000
OTHER
1070
     0
1002
}
1002
{
1000
REACTOR
1002
}
  0
ARC
  5
1FDE
  8
SAPA_PROFIL
 62
     4
 10
29.249432721214131
 20
126.30000014302431
 30
0.0
 40
0.25
 50
180.0
 51
270.0000000000008
1001
GENIUS_GENOBJ-N-FIL_13
1002
{
1000
OWNER
1000
GEN
1002
}
1001
GENIUS_GENODEF_13
1002
{
1000
HIER
1070
     0
1002
}
1002
{
1000
MANEDIT
1070
     0
1002
}
1002
{
1000
NOSEL
1070
     0
1002
}
1002
{
1000
BEHIND
1070
     0
1002
}
1002
{
1000
OTHER
1070
     0
1002
}
1002
{
1000
REACTOR
1002
}
  0
LINE
  5
1FDF
  8
SAPA_PROFIL
 62
     4
 10
28.999432721214141
 20
126.30000014302431
 30
0.0
 11
28.999444363948669
 21
126.73660206460249
 31
0.0
1001
GENIUS_GENOBJ-N-FIL_13
1002
{
1000
OWNER
1000
GEN
1002
}
1001
GENIUS_GENODEF_13
1002
{
1000
HIER
1070
     0
1002
}
1002
{
1000
MANEDIT
1070
     0
1002
}
1002
{
1000
NOSEL
1070
     0
1002
}
1002
{
1000
BEHIND
1070
     0
1002
}
1002
{
1000
OTHER
1070
     0
1002
}
1002
{
1000
REACTOR
1002
}
  0
LINE
  5
1FE0
  8
SAPA_PROFIL
 62
     4
 10
28.999444363948669
 20
126.73660206460249
 30
0.0
 11
30.004413694545971
 21
128.47726000524631
 31
0.0
1001
GENIUS_GENOBJ-N-FIL_13
1002
{
1000
OWNER
1000
GEN
1002
}
1001
GENIUS_GENODEF_13
1002
{
1000
HIER
1070
     0
1002
}
1002
{
1000
MANEDIT
1070
     0
1002
}
1002
{
1000
NOSEL
1070
     0
1002
}
1002
{
1000
BEHIND
1070
     0
1002
}
1002
{
1000
OTHER
1070
     0
1002
}
1002
{
1000
REACTOR
1002
}
  0
ARC
  5
1FE1
  8
SAPA_PROFIL
 62
     4
 10
28.965183210005371
 20
129.07726000524841
 30
0.0
 40
1.2000000000004361
 50
329.99999999989478
 51
359.99999999991587
1001
GENIUS_GENOBJ-N-FIL_13
1002
{
1000
OWNER
1000
GEN
1002
}
1001
GENIUS_GENODEF_13
1002
{
1000
HIER
1070
     0
1002
}
1002
{
1000
MANEDIT
1070
     0
1002
}
1002
{
1000
NOSEL
1070
     0
1002
}
1002
{
1000
BEHIND
1070
     0
1002
}
1002
{
1000
OTHER
1070
     0
1002
}
1002
{
1000
REACTOR
1002
}
  0
LINE
  5
1FE2
  8
SAPA_PROFIL
 62
     4
 10
30.165183210005811
 20
129.07726000524659
 30
0.0
 11
30.165183210003988
 21
131.8000001427751
 31
0.0
1001
GENIUS_GENOBJ-N-FIL_13
1002
{
1000
OWNER
1000
GEN
1002
}
1001
GENIUS_GENODEF_13
1002
{
1000
HIER
1070
     0
1002
}
1002
{
1000
MANEDIT
1070
     0
1002
}
1002
{
1000
NOSEL
1070
     0
1002
}
1002
{
1000
BEHIND
1070
     0
1002
}
1002
{
1000
OTHER
1070
     0
1002
}
1002
{
1000
REACTOR
1002
}
  0
ARC
  5
1FE3
  8
SAPA_PROFIL
 62
     4
 10
28.965183210004401
 20
131.80000014277451
 30
0.0
 40
1.1999999999995901
 50
0.0000000000325689
 51
90.000000000227985
1001
GENIUS_GENOBJ-N-FIL_13
1002
{
1000
OWNER
1000
GEN
1002
}
1001
GENIUS_GENODEF_13
1002
{
1000
HIER
1070
     0
1002
}
1002
{
1000
MANEDIT
1070
     0
1002
}
1002
{
1000
NOSEL
1070
     0
1002
}
1002
{
1000
BEHIND
1070
     0
1002
}
1002
{
1000
OTHER
1070
     0
1002
}
1002
{
1000
REACTOR
1002
}
  0
LINE
  5
1FE4
  8
SAPA_PROFIL
 62
     4
 10
28.965183209999619
 20
133.00000014277401
 30
0.0
 11
3.1674481830784771
 21
133.00000014268491
 31
0.0
1001
GENIUS_GENOBJ-N-FIL_13
1002
{
1000
OWNER
1000
GEN
1002
}
1001
GENIUS_GENODEF_13
1002
{
1000
HIER
1070
     0
1002
}
1002
{
1000
MANEDIT
1070
     0
1002
}
1002
{
1000
NOSEL
1070
     0
1002
}
1002
{
1000
BEHIND
1070
     0
1002
}
1002
{
1000
OTHER
1070
     0
1002
}
1002
{
1000
REACTOR
1002
}
  0
ARC
  5
1FE5
  8
SAPA_PROFIL
 62
     4
 10
3.1674481830784771
 20
133.50000014268491
 30
0.0
 40
0.5
 50
180.0
 51
270.0
1001
GENIUS_GENOBJ-N-FIL_13
1002
{
1000
OWNER
1000
GEN
1002
}
1001
GENIUS_GENODEF_13
1002
{
1000
HIER
1070
     0
1002
}
1002
{
1000
MANEDIT
1070
     0
1002
}
1002
{
1000
NOSEL
1070
     0
1002
}
1002
{
1000
BEHIND
1070
     0
1002
}
1002
{
1000
OTHER
1070
     0
1002
}
1002
{
1000
REACTOR
1002
}
  0
LINE
  5
1FE6
  8
SAPA_PROFIL
 62
     4
 10
2.6674481830784771
 20
133.50000014268491
 30
0.0
 11
2.6674481830784771
 21
133.7000001426847
 31
0.0
1001
GENIUS_GENOBJ-N-FIL_13
1002
{
1000
OWNER
1000
GEN
1002
}
1001
GENIUS_GENODEF_13
1002
{
1000
HIER
1070
     0
1002
}
1002
{
1000
MANEDIT
1070
     0
1002
}
1002
{
1000
NOSEL
1070
     0
1002
}
1002
{
1000
BEHIND
1070
     0
1002
}
1002
{
1000
OTHER
1070
     0
1002
}
1002
{
1000
REACTOR
1002
}
  0
ARC
  5
1FE7
  8
SAPA_PROFIL
 62
     4
 10
2.9674481830782038
 20
133.70000014268521
 30
0.0
 40
0.2999999999997271
 50
90.000000000086857
 51
180.0000000000868
1001
GENIUS_GENOBJ-N-FIL_13
1002
{
1000
OWNER
1000
GEN
1002
}
1001
GENIUS_GENODEF_13
1002
{
1000
HIER
1070
     0
1002
}
1002
{
1000
MANEDIT
1070
     0
1002
}
1002
{
1000
NOSEL
1070
     0
1002
}
1002
{
1000
BEHIND
1070
     0
1002
}
1002
{
1000
OTHER
1070
     0
1002
}
1002
{
1000
REACTOR
1002
}
  0
LINE
  5
1FE8
  8
SAPA_PROFIL
 62
     4
 10
2.967448183077749
 20
134.00000014268491
 30
0.0
 11
3.6174481830810228
 21
134.00000014268491
 31
0.0
1001
GENIUS_GENOBJ-N-FIL_13
1002
{
1000
OWNER
1000
GEN
1002
}
1001
GENIUS_GENODEF_13
1002
{
1000
HIER
1070
     0
1002
}
1002
{
1000
MANEDIT
1070
     0
1002
}
1002
{
1000
NOSEL
1070
     0
1002
}
1002
{
1000
BEHIND
1070
     0
1002
}
1002
{
1000
OTHER
1070
     0
1002
}
1002
{
1000
REACTOR
1002
}
  0
ARC
  5
1FE9
  8
SAPA_PROFIL
 62
     4
 10
3.6174481830801142
 20
134.30000014268509
 30
0.0
 40
0.3000000000001819
 50
270.00000000017371
 51
0.0000000001737007
1001
GENIUS_GENOBJ-N-FIL_13
1002
{
1000
OWNER
1000
GEN
1002
}
1001
GENIUS_GENODEF_13
1002
{
1000
HIER
1070
     0
1002
}
1002
{
1000
MANEDIT
1070
     0
1002
}
1002
{
1000
NOSEL
1070
     0
1002
}
1002
{
1000
BEHIND
1070
     0
1002
}
1002
{
1000
OTHER
1070
     0
1002
}
1002
{
1000
REACTOR
1002
}
  0
LINE
  5
1FEA
  8
SAPA_PROFIL
 62
     4
 10
3.9174481830802961
 20
134.300000142686
 30
0.0
 11
3.9174481830802961
 21
135.200000142682
 31
0.0
1001
GENIUS_GENOBJ-N-FIL_13
1002
{
1000
OWNER
1000
GEN
1002
}
1001
GENIUS_GENODEF_13
1002
{
1000
HIER
1070
     0
1002
}
1002
{
1000
MANEDIT
1070
     0
1002
}
1002
{
1000
NOSEL
1070
     0
1002
}
1002
{
1000
BEHIND
1070
     0
1002
}
1002
{
1000
OTHER
1070
     0
1002
}
1002
{
1000
REACTOR
1002
}
  0
ARC
  5
1FEB
  8
SAPA_PROFIL
 62
     4
 10
3.4174481830802961
 20
135.200000142682
 30
0.0
 40
0.5
 50
0.0
 51
90.0
1001
GENIUS_GENOBJ-N-FIL_13
1002
{
1000
OWNER
1000
GEN
1002
}
1001
GENIUS_GENODEF_13
1002
{
1000
HIER
1070
     0
1002
}
1002
{
1000
MANEDIT
1070
     0
1002
}
1002
{
1000
NOSEL
1070
     0
1002
}
1002
{
1000
BEHIND
1070
     0
1002
}
1002
{
1000
OTHER
1070
     0
1002
}
1002
{
1000
REACTOR
1002
}
  0
LINE
  5
1FEC
  8
SAPA_PROFIL
 62
     4
 10
3.4174481830802961
 20
135.700000142682
 30
0.0
 11
-2.582551816921522
 21
135.700000142682
 31
0.0
1001
GENIUS_GENOBJ-N-FIL_13
1002
{
1000
OWNER
1000
GEN
1002
}
1001
GENIUS_GENODEF_13
1002
{
1000
HIER
1070
     0
1002
}
1002
{
1000
MANEDIT
1070
     0
1002
}
1002
{
1000
NOSEL
1070
     0
1002
}
1002
{
1000
BEHIND
1070
     0
1002
}
1002
{
1000
OTHER
1070
     0
1002
}
1002
{
1000
REACTOR
1002
}
  0
ARC
  5
1FED
  8
SAPA_PROFIL
 62
     4
 10
-2.582551816921522
 20
135.200000142682
 30
0.0
 40
0.5
 50
90.0
 51
180.0
1001
GENIUS_GENOBJ-N-FIL_13
1002
{
1000
OWNER
1000
GEN
1002
}
1001
GENIUS_GENODEF_13
1002
{
1000
HIER
1070
     0
1002
}
1002
{
1000
MANEDIT
1070
     0
1002
}
1002
{
1000
NOSEL
1070
     0
1002
}
1002
{
1000
BEHIND
1070
     0
1002
}
1002
{
1000
OTHER
1070
     0
1002
}
1002
{
1000
REACTOR
1002
}
  0
LINE
  5
1FEE
  8
SAPA_PROFIL
 62
     4
 10
-3.082551816921522
 20
135.200000142682
 30
0.0
 11
-3.082551816921522
 21
134.3000001426833
 31
0.0
1001
GENIUS_GENOBJ-N-FIL_13
1002
{
1000
OWNER
1000
GEN
1002
}
1001
GENIUS_GENODEF_13
1002
{
1000
HIER
1070
     0
1002
}
1002
{
1000
MANEDIT
1070
     0
1002
}
1002
{
1000
NOSEL
1070
     0
1002
}
1002
{
1000
BEHIND
1070
     0
1002
}
1002
{
1000
OTHER
1070
     0
1002
}
1002
{
1000
REACTOR
1002
}
  0
ARC
  5
1FEF
  8
SAPA_PROFIL
 62
     4
 10
-2.7825518169221359
 20
134.30000014268339
 30
0.0
 40
0.2999999999993861
 50
180.00000000002171
 51
269.99999999963092
1001
GENIUS_GENOBJ-N-FIL_13
1002
{
1000
OWNER
1000
GEN
1002
}
1001
GENIUS_GENODEF_13
1002
{
1000
HIER
1070
     0
1002
}
1002
{
1000
MANEDIT
1070
     0
1002
}
1002
{
1000
NOSEL
1070
     0
1002
}
1002
{
1000
BEHIND
1070
     0
1002
}
1002
{
1000
OTHER
1070
     0
1002
}
1002
{
1000
REACTOR
1002
}
  0
LINE
  5
1FF0
  8
SAPA_PROFIL
 62
     4
 10
-2.7825518169240691
 20
134.000000142684
 30
0.0
 11
-2.1325518169207949
 21
134.0000001426794
 31
0.0
1001
GENIUS_GENOBJ-N-FIL_13
1002
{
1000
OWNER
1000
GEN
1002
}
1001
GENIUS_GENODEF_13
1002
{
1000
HIER
1070
     0
1002
}
1002
{
1000
MANEDIT
1070
     0
1002
}
1002
{
1000
NOSEL
1070
     0
1002
}
1002
{
1000
BEHIND
1070
     0
1002
}
1002
{
1000
OTHER
1070
     0
1002
}
1002
{
1000
REACTOR
1002
}
  0
ARC
  5
1FF1
  8
SAPA_PROFIL
 62
     4
 10
-2.1325518169230691
 20
133.7000001426797
 30
0.0
 40
0.2999999999997271
 50
359.99999999956577
 51
89.999999999565759
1001
GENIUS_GENOBJ-N-FIL_13
1002
{
1000
OWNER
1000
GEN
1002
}
1001
GENIUS_GENODEF_13
1002
{
1000
HIER
1070
     0
1002
}
1002
{
1000
MANEDIT
1070
     0
1002
}
1002
{
1000
NOSEL
1070
     0
1002
}
1002
{
1000
BEHIND
1070
     0
1002
}
1002
{
1000
OTHER
1070
     0
1002
}
1002
{
1000
REACTOR
1002
}
  0
LINE
  5
1FF2
  8
SAPA_PROFIL
 62
     4
 10
-1.832551816923341
 20
133.70000014267751
 30
0.0
 11
-1.83255181692516
 21
133.50000014268491
 31
0.0
1001
GENIUS_GENOBJ-N-FIL_13
1002
{
1000
OWNER
1000
GEN
1002
}
1001
GENIUS_GENODEF_13
1002
{
1000
HIER
1070
     0
1002
}
1002
{
1000
MANEDIT
1070
     0
1002
}
1002
{
1000
NOSEL
1070
     0
1002
}
1002
{
1000
BEHIND
1070
     0
1002
}
1002
{
1000
OTHER
1070
     0
1002
}
1002
{
1000
REACTOR
1002
}
  0
ARC
  5
1FF3
  8
SAPA_PROFIL
 62
     4
 10
-2.33255181692516
 20
133.50000014268491
 30
0.0
 40
0.5
 50
270.0
 51
0.0
1001
GENIUS_GENOBJ-N-FIL_13
1002
{
1000
OWNER
1000
GEN
1002
}
1001
GENIUS_GENODEF_13
1002
{
1000
HIER
1070
     0
1002
}
1002
{
1000
MANEDIT
1070
     0
1002
}
1002
{
1000
NOSEL
1070
     0
1002
}
1002
{
1000
BEHIND
1070
     0
1002
}
1002
{
1000
OTHER
1070
     0
1002
}
1002
{
1000
REACTOR
1002
}
  0
LINE
  5
1FF4
  8
SAPA_PROFIL
 62
     4
 10
-2.33255181692516
 20
133.00000014268491
 30
0.0
 11
-5.33255181692516
 21
133.00000014268491
 31
0.0
1001
GENIUS_GENOBJ-N-FIL_13
1002
{
1000
OWNER
1000
GEN
1002
}
1001
GENIUS_GENODEF_13
1002
{
1000
HIER
1070
     0
1002
}
1002
{
1000
MANEDIT
1070
     0
1002
}
1002
{
1000
NOSEL
1070
     0
1002
}
1002
{
1000
BEHIND
1070
     0
1002
}
1002
{
1000
OTHER
1070
     0
1002
}
1002
{
1000
REACTOR
1002
}
  0
ARC
  5
1FF5
  8
SAPA_PROFIL
 62
     4
 10
-5.33255181692516
 20
133.50000014268491
 30
0.0
 40
0.5
 50
180.0
 51
270.0
1001
GENIUS_GENOBJ-N-FIL_13
1002
{
1000
OWNER
1000
GEN
1002
}
1001
GENIUS_GENODEF_13
1002
{
1000
HIER
1070
     0
1002
}
1002
{
1000
MANEDIT
1070
     0
1002
}
1002
{
1000
NOSEL
1070
     0
1002
}
1002
{
1000
BEHIND
1070
     0
1002
}
1002
{
1000
OTHER
1070
     0
1002
}
1002
{
1000
REACTOR
1002
}
  0
LINE
  5
1FF6
  8
SAPA_PROFIL
 62
     4
 10
-5.83255181692516
 20
133.50000014268491
 30
0.0
 11
-5.83255181692516
 21
133.7000001426847
 31
0.0
1001
GENIUS_GENOBJ-N-FIL_13
1002
{
1000
OWNER
1000
GEN
1002
}
1001
GENIUS_GENODEF_13
1002
{
1000
HIER
1070
     0
1002
}
1002
{
1000
MANEDIT
1070
     0
1002
}
1002
{
1000
NOSEL
1070
     0
1002
}
1002
{
1000
BEHIND
1070
     0
1002
}
1002
{
1000
OTHER
1070
     0
1002
}
1002
{
1000
REACTOR
1002
}
  0
ARC
  5
1FF7
  8
SAPA_PROFIL
 62
     4
 10
-5.5325518169245242
 20
133.7000001426843
 30
0.0
 40
0.3000000000006366
 50
89.999999999913143
 51
179.99999999991309
1001
GENIUS_GENOBJ-N-FIL_13
1002
{
1000
OWNER
1000
GEN
1002
}
1001
GENIUS_GENODEF_13
1002
{
1000
HIER
1070
     0
1002
}
1002
{
1000
MANEDIT
1070
     0
1002
}
1002
{
1000
NOSEL
1070
     0
1002
}
1002
{
1000
BEHIND
1070
     0
1002
}
1002
{
1000
OTHER
1070
     0
1002
}
1002
{
1000
REACTOR
1002
}
  0
LINE
  5
1FF8
  8
SAPA_PROFIL
 62
     4
 10
-5.5325518169240686
 20
134.00000014268491
 30
0.0
 11
-4.8825518169244333
 21
134.00000014268491
 31
0.0
1001
GENIUS_GENOBJ-N-FIL_13
1002
{
1000
OWNER
1000
GEN
1002
}
1001
GENIUS_GENODEF_13
1002
{
1000
HIER
1070
     0
1002
}
1002
{
1000
MANEDIT
1070
     0
1002
}
1002
{
1000
NOSEL
1070
     0
1002
}
1002
{
1000
BEHIND
1070
     0
1002
}
1002
{
1000
OTHER
1070
     0
1002
}
1002
{
1000
REACTOR
1002
}
  0
ARC
  5
1FF9
  8
SAPA_PROFIL
 62
     4
 10
-4.8825518169253419
 20
134.30000014268509
 30
0.0
 40
0.3000000000001819
 50
270.00000000017371
 51
0.0000000001737007
1001
GENIUS_GENOBJ-N-FIL_13
1002
{
1000
OWNER
1000
GEN
1002
}
1001
GENIUS_GENODEF_13
1002
{
1000
HIER
1070
     0
1002
}
1002
{
1000
MANEDIT
1070
     0
1002
}
1002
{
1000
NOSEL
1070
     0
1002
}
1002
{
1000
BEHIND
1070
     0
1002
}
1002
{
1000
OTHER
1070
     0
1002
}
1002
{
1000
REACTOR
1002
}
  0
LINE
  5
1FFA
  8
SAPA_PROFIL
 62
     4
 10
-4.58255181692516
 20
134.300000142686
 30
0.0
 11
-4.58255181692516
 21
135.200000142682
 31
0.0
1001
GENIUS_GENOBJ-N-FIL_13
1002
{
1000
OWNER
1000
GEN
1002
}
1001
GENIUS_GENODEF_13
1002
{
1000
HIER
1070
     0
1002
}
1002
{
1000
MANEDIT
1070
     0
1002
}
1002
{
1000
NOSEL
1070
     0
1002
}
1002
{
1000
BEHIND
1070
     0
1002
}
1002
{
1000
OTHER
1070
     0
1002
}
1002
{
1000
REACTOR
1002
}
  0
ARC
  5
1FFB
  8
SAPA_PROFIL
 62
     4
 10
-5.08255181692516
 20
135.200000142682
 30
0.0
 40
0.5
 50
0.0
 51
90.0
1001
GENIUS_GENOBJ-N-FIL_13
1002
{
1000
OWNER
1000
GEN
1002
}
1001
GENIUS_GENODEF_13
1002
{
1000
HIER
1070
     0
1002
}
1002
{
1000
MANEDIT
1070
     0
1002
}
1002
{
1000
NOSEL
1070
     0
1002
}
1002
{
1000
BEHIND
1070
     0
1002
}
1002
{
1000
OTHER
1070
     0
1002
}
1002
{
1000
REACTOR
1002
}
  0
LINE
  5
1FFC
  8
SAPA_PROFIL
 62
     4
 10
-5.08255181692516
 20
135.700000142682
 30
0.0
 11
-11.082551816925159
 21
135.700000142682
 31
0.0
1001
GENIUS_GENOBJ-N-FIL_13
1002
{
1000
OWNER
1000
GEN
1002
}
1001
GENIUS_GENODEF_13
1002
{
1000
HIER
1070
     0
1002
}
1002
{
1000
MANEDIT
1070
     0
1002
}
1002
{
1000
NOSEL
1070
     0
1002
}
1002
{
1000
BEHIND
1070
     0
1002
}
1002
{
1000
OTHER
1070
     0
1002
}
1002
{
1000
REACTOR
1002
}
  0
ARC
  5
1FFD
  8
SAPA_PROFIL
 62
     4
 10
-11.082551816925159
 20
135.200000142682
 30
0.0
 40
0.5
 50
90.0
 51
180.0
1001
GENIUS_GENOBJ-N-FIL_13
1002
{
1000
OWNER
1000
GEN
1002
}
1001
GENIUS_GENODEF_13
1002
{
1000
HIER
1070
     0
1002
}
1002
{
1000
MANEDIT
1070
     0
1002
}
1002
{
1000
NOSEL
1070
     0
1002
}
1002
{
1000
BEHIND
1070
     0
1002
}
1002
{
1000
OTHER
1070
     0
1002
}
1002
{
1000
REACTOR
1002
}
  0
LINE
  5
1FFE
  8
SAPA_PROFIL
 62
     4
 10
-11.582551816925159
 20
135.200000142682
 30
0.0
 11
-11.582551816925159
 21
134.300000142686
 31
0.0
1001
GENIUS_GENOBJ-N-FIL_13
1002
{
1000
OWNER
1000
GEN
1002
}
1001
GENIUS_GENODEF_13
1002
{
1000
HIER
1070
     0
1002
}
1002
{
1000
MANEDIT
1070
     0
1002
}
1002
{
1000
NOSEL
1070
     0
1002
}
1002
{
1000
BEHIND
1070
     0
1002
}
1002
{
1000
OTHER
1070
     0
1002
}
1002
{
1000
REACTOR
1002
}
  0
ARC
  5
1FFF
  8
SAPA_PROFIL
 62
     4
 10
-11.282551816924069
 20
134.300000142686
 30
0.0
 40
0.3000000000010914
 50
180.0
 51
270.0
1001
GENIUS_GENOBJ-N-FIL_13
1002
{
1000
OWNER
1000
GEN
1002
}
1001
GENIUS_GENODEF_13
1002
{
1000
HIER
1070
     0
1002
}
1002
{
1000
MANEDIT
1070
     0
1002
}
1002
{
1000
NOSEL
1070
     0
1002
}
1002
{
1000
BEHIND
1070
     0
1002
}
1002
{
1000
OTHER
1070
     0
1002
}
1002
{
1000
REACTOR
1002
}
  0
LINE
  5
2000
  8
SAPA_PROFIL
 62
     4
 10
-11.282551816924069
 20
134.00000014268491
 30
0.0
 11
-10.63255181692443
 21
134.00000014268491
 31
0.0
1001
GENIUS_GENOBJ-N-FIL_13
1002
{
1000
OWNER
1000
GEN
1002
}
1001
GENIUS_GENODEF_13
1002
{
1000
HIER
1070
     0
1002
}
1002
{
1000
MANEDIT
1070
     0
1002
}
1002
{
1000
NOSEL
1070
     0
1002
}
1002
{
1000
BEHIND
1070
     0
1002
}
1002
{
1000
OTHER
1070
     0
1002
}
1002
{
1000
REACTOR
1002
}
  0
ARC
  5
2001
  8
SAPA_PROFIL
 62
     4
 10
-10.63255181692489
 20
133.70000014268521
 30
0.0
 40
0.2999999999997271
 50
359.99999999991309
 51
89.999999999913143
1001
GENIUS_GENOBJ-N-FIL_13
1002
{
1000
OWNER
1000
GEN
1002
}
1001
GENIUS_GENODEF_13
1002
{
1000
HIER
1070
     0
1002
}
1002
{
1000
MANEDIT
1070
     0
1002
}
1002
{
1000
NOSEL
1070
     0
1002
}
1002
{
1000
BEHIND
1070
     0
1002
}
1002
{
1000
OTHER
1070
     0
1002
}
1002
{
1000
REACTOR
1002
}
  0
LINE
  5
2002
  8
SAPA_PROFIL
 62
     4
 10
-10.332551816925159
 20
133.7000001426847
 30
0.0
 11
-10.332551816925159
 21
133.50000014268491
 31
0.0
1001
GENIUS_GENOBJ-N-FIL_13
1002
{
1000
OWNER
1000
GEN
1002
}
1001
GENIUS_GENODEF_13
1002
{
1000
HIER
1070
     0
1002
}
1002
{
1000
MANEDIT
1070
     0
1002
}
1002
{
1000
NOSEL
1070
     0
1002
}
1002
{
1000
BEHIND
1070
     0
1002
}
1002
{
1000
OTHER
1070
     0
1002
}
1002
{
1000
REACTOR
1002
}
  0
ARC
  5
2003
  8
SAPA_PROFIL
 62
     4
 10
-10.832551816925159
 20
133.50000014268491
 30
0.0
 40
0.5
 50
270.0
 51
0.0
1001
GENIUS_GENOBJ-N-FIL_13
1002
{
1000
OWNER
1000
GEN
1002
}
1001
GENIUS_GENODEF_13
1002
{
1000
HIER
1070
     0
1002
}
1002
{
1000
MANEDIT
1070
     0
1002
}
1002
{
1000
NOSEL
1070
     0
1002
}
1002
{
1000
BEHIND
1070
     0
1002
}
1002
{
1000
OTHER
1070
     0
1002
}
1002
{
1000
REACTOR
1002
}
  0
LINE
  5
2004
  8
SAPA_PROFIL
 62
     4
 10
-10.832551816925159
 20
133.00000014268491
 30
0.0
 11
-12.582551816925159
 21
133.00000014268579
 31
0.0
1001
GENIUS_GENOBJ-N-FIL_13
1002
{
1000
OWNER
1000
GEN
1002
}
1001
GENIUS_GENODEF_13
1002
{
1000
HIER
1070
     0
1002
}
1002
{
1000
MANEDIT
1070
     0
1002
}
1002
{
1000
NOSEL
1070
     0
1002
}
1002
{
1000
BEHIND
1070
     0
1002
}
1002
{
1000
OTHER
1070
     0
1002
}
1002
{
1000
REACTOR
1002
}
  0
ARC
  5
2005
  8
SAPA_PROFIL
 62
     4
 10
-12.58255181675792
 20
133.50000014285311
 30
0.0
 40
0.5000000001672335
 50
179.99999998091459
 51
269.99999998083649
1001
GENIUS_GENOBJ-N-FIL_13
1002
{
1000
OWNER
1000
GEN
1002
}
1001
GENIUS_GENODEF_13
1002
{
1000
HIER
1070
     0
1002
}
1002
{
1000
MANEDIT
1070
     0
1002
}
1002
{
1000
NOSEL
1070
     0
1002
}
1002
{
1000
BEHIND
1070
     0
1002
}
1002
{
1000
OTHER
1070
     0
1002
}
1002
{
1000
REACTOR
1002
}
  0
LINE
  5
2006
  8
SAPA_PROFIL
 62
     4
 10
-13.082551816925159
 20
133.50000014301961
 30
0.0
 11
-13.082551816925159
 21
146.50000014302691
 31
0.0
1001
GENIUS_GENOBJ-N-FIL_13
1002
{
1000
OWNER
1000
GEN
1002
}
1001
GENIUS_GENODEF_13
1002
{
1000
HIER
1070
     0
1002
}
1002
{
1000
MANEDIT
1070
     0
1002
}
1002
{
1000
NOSEL
1070
     0
1002
}
1002
{
1000
BEHIND
1070
     0
1002
}
1002
{
1000
OTHER
1070
     0
1002
}
1002
{
1000
REACTOR
1002
}
  0
ARC
  5
2007
  8
SAPA_PROFIL
 62
     4
 10
-12.582551816787941
 20
146.50000014316609
 30
0.0
 40
0.5000000001372201
 50
90.000000015932685
 51
180.0000000159587
1001
GENIUS_GENOBJ-N-FIL_13
1002
{
1000
OWNER
1000
GEN
1002
}
1001
GENIUS_GENODEF_13
1002
{
1000
HIER
1070
     0
1002
}
1002
{
1000
MANEDIT
1070
     0
1002
}
1002
{
1000
NOSEL
1070
     0
1002
}
1002
{
1000
BEHIND
1070
     0
1002
}
1002
{
1000
OTHER
1070
     0
1002
}
1002
{
1000
REACTOR
1002
}
  0
LINE
  5
2008
  8
SAPA_PROFIL
 62
     4
 10
-12.58255181692698
 20
147.0000001433034
 30
0.0
 11
-10.83255181692698
 21
147.0000001433034
 31
0.0
1001
GENIUS_GENOBJ-N-FIL_13
1002
{
1000
OWNER
1000
GEN
1002
}
1001
GENIUS_GENODEF_13
1002
{
1000
HIER
1070
     0
1002
}
1002
{
1000
MANEDIT
1070
     0
1002
}
1002
{
1000
NOSEL
1070
     0
1002
}
1002
{
1000
BEHIND
1070
     0
1002
}
1002
{
1000
OTHER
1070
     0
1002
}
1002
{
1000
REACTOR
1002
}
  0
ARC
  5
2009
  8
SAPA_PROFIL
 62
     4
 10
-10.83255181692698
 20
146.5000001433034
 30
0.0
 40
0.5
 50
0.0
 51
90.0
1001
GENIUS_GENOBJ-N-FIL_13
1002
{
1000
OWNER
1000
GEN
1002
}
1001
GENIUS_GENODEF_13
1002
{
1000
HIER
1070
     0
1002
}
1002
{
1000
MANEDIT
1070
     0
1002
}
1002
{
1000
NOSEL
1070
     0
1002
}
1002
{
1000
BEHIND
1070
     0
1002
}
1002
{
1000
OTHER
1070
     0
1002
}
1002
{
1000
REACTOR
1002
}
  0
LINE
  5
200A
  8
SAPA_PROFIL
 62
     4
 10
-10.33255181692698
 20
146.5000001433034
 30
0.0
 11
-10.33255181692698
 21
146.30000014330349
 31
0.0
1001
GENIUS_GENOBJ-N-FIL_13
1002
{
1000
OWNER
1000
GEN
1002
}
1001
GENIUS_GENODEF_13
1002
{
1000
HIER
1070
     0
1002
}
1002
{
1000
MANEDIT
1070
     0
1002
}
1002
{
1000
NOSEL
1070
     0
1002
}
1002
{
1000
BEHIND
1070
     0
1002
}
1002
{
1000
OTHER
1070
     0
1002
}
1002
{
1000
REACTOR
1002
}
  0
ARC
  5
200B
  8
SAPA_PROFIL
 62
     4
 10
-10.6325518169267
 20
146.30000014330309
 30
0.0
 40
0.2999999999997271
 50
270.0000000000868
 51
0.0000000000868503
1001
GENIUS_GENOBJ-N-FIL_13
1002
{
1000
OWNER
1000
GEN
1002
}
1001
GENIUS_GENODEF_13
1002
{
1000
HIER
1070
     0
1002
}
1002
{
1000
MANEDIT
1070
     0
1002
}
1002
{
1000
NOSEL
1070
     0
1002
}
1002
{
1000
BEHIND
1070
     0
1002
}
1002
{
1000
OTHER
1070
     0
1002
}
1002
{
1000
REACTOR
1002
}
  0
LINE
  5
200C
  8
SAPA_PROFIL
 62
     4
 10
-10.632551816926251
 20
146.0000001433034
 30
0.0
 11
-11.28255181692589
 21
146.0000001433034
 31
0.0
1001
GENIUS_GENOBJ-N-FIL_13
1002
{
1000
OWNER
1000
GEN
1002
}
1001
GENIUS_GENODEF_13
1002
{
1000
HIER
1070
     0
1002
}
1002
{
1000
MANEDIT
1070
     0
1002
}
1002
{
1000
NOSEL
1070
     0
1002
}
1002
{
1000
BEHIND
1070
     0
1002
}
1002
{
1000
OTHER
1070
     0
1002
}
1002
{
1000
REACTOR
1002
}
  0
ARC
  5
200D
  8
SAPA_PROFIL
 62
     4
 10
-11.2825518169268
 20
145.70000014330321
 30
0.0
 40
0.3000000000001819
 50
89.999999999826301
 51
179.99999999982629
1001
GENIUS_GENOBJ-N-FIL_13
1002
{
1000
OWNER
1000
GEN
1002
}
1001
GENIUS_GENODEF_13
1002
{
1000
HIER
1070
     0
1002
}
1002
{
1000
MANEDIT
1070
     0
1002
}
1002
{
1000
NOSEL
1070
     0
1002
}
1002
{
1000
BEHIND
1070
     0
1002
}
1002
{
1000
OTHER
1070
     0
1002
}
1002
{
1000
REACTOR
1002
}
  0
LINE
  5
200E
  8
SAPA_PROFIL
 62
     4
 10
-11.58255181692698
 20
145.70000014330409
 30
0.0
 11
-11.58255181692698
 21
144.80000014330631
 31
0.0
1001
GENIUS_GENOBJ-N-FIL_13
1002
{
1000
OWNER
1000
GEN
1002
}
1001
GENIUS_GENODEF_13
1002
{
1000
HIER
1070
     0
1002
}
1002
{
1000
MANEDIT
1070
     0
1002
}
1002
{
1000
NOSEL
1070
     0
1002
}
1002
{
1000
BEHIND
1070
     0
1002
}
1002
{
1000
OTHER
1070
     0
1002
}
1002
{
1000
REACTOR
1002
}
  0
ARC
  5
200F
  8
SAPA_PROFIL
 62
     4
 10
-11.08255181692698
 20
144.80000014330631
 30
0.0
 40
0.5
 50
180.0
 51
270.0
1001
GENIUS_GENOBJ-N-FIL_13
1002
{
1000
OWNER
1000
GEN
1002
}
1001
GENIUS_GENODEF_13
1002
{
1000
HIER
1070
     0
1002
}
1002
{
1000
MANEDIT
1070
     0
1002
}
1002
{
1000
NOSEL
1070
     0
1002
}
1002
{
1000
BEHIND
1070
     0
1002
}
1002
{
1000
OTHER
1070
     0
1002
}
1002
{
1000
REACTOR
1002
}
  0
LINE
  5
2010
  8
SAPA_PROFIL
 62
     4
 10
-11.08255181692698
 20
144.30000014330631
 30
0.0
 11
-5.082551816926979
 21
144.30000014330631
 31
0.0
1001
GENIUS_GENOBJ-N-FIL_13
1002
{
1000
OWNER
1000
GEN
1002
}
1001
GENIUS_GENODEF_13
1002
{
1000
HIER
1070
     0
1002
}
1002
{
1000
MANEDIT
1070
     0
1002
}
1002
{
1000
NOSEL
1070
     0
1002
}
1002
{
1000
BEHIND
1070
     0
1002
}
1002
{
1000
OTHER
1070
     0
1002
}
1002
{
1000
REACTOR
1002
}
  0
ARC
  5
2011
  8
SAPA_PROFIL
 62
     4
 10
-5.082551816926979
 20
144.80000014330631
 30
0.0
 40
0.5
 50
270.0
 51
0.0
1001
GENIUS_GENOBJ-N-FIL_13
1002
{
1000
OWNER
1000
GEN
1002
}
1001
GENIUS_GENODEF_13
1002
{
1000
HIER
1070
     0
1002
}
1002
{
1000
MANEDIT
1070
     0
1002
}
1002
{
1000
NOSEL
1070
     0
1002
}
1002
{
1000
BEHIND
1070
     0
1002
}
1002
{
1000
OTHER
1070
     0
1002
}
1002
{
1000
REACTOR
1002
}
  0
LINE
  5
2012
  8
SAPA_PROFIL
 62
     4
 10
-4.582551816926979
 20
144.80000014330631
 30
0.0
 11
-4.582551816926979
 21
145.70000014330409
 31
0.0
1001
GENIUS_GENOBJ-N-FIL_13
1002
{
1000
OWNER
1000
GEN
1002
}
1001
GENIUS_GENODEF_13
1002
{
1000
HIER
1070
     0
1002
}
1002
{
1000
MANEDIT
1070
     0
1002
}
1002
{
1000
NOSEL
1070
     0
1002
}
1002
{
1000
BEHIND
1070
     0
1002
}
1002
{
1000
OTHER
1070
     0
1002
}
1002
{
1000
REACTOR
1002
}
  0
ARC
  5
2013
  8
SAPA_PROFIL
 62
     4
 10
-4.8825518169262523
 20
145.70000014330409
 30
0.0
 40
0.2999999999992724
 50
0.0
 51
90.0
1001
GENIUS_GENOBJ-N-FIL_13
1002
{
1000
OWNER
1000
GEN
1002
}
1001
GENIUS_GENODEF_13
1002
{
1000
HIER
1070
     0
1002
}
1002
{
1000
MANEDIT
1070
     0
1002
}
1002
{
1000
NOSEL
1070
     0
1002
}
1002
{
1000
BEHIND
1070
     0
1002
}
1002
{
1000
OTHER
1070
     0
1002
}
1002
{
1000
REACTOR
1002
}
  0
LINE
  5
2014
  8
SAPA_PROFIL
 62
     4
 10
-4.8825518169262523
 20
146.0000001433034
 30
0.0
 11
-5.5325518169258876
 21
146.0000001433034
 31
0.0
1001
GENIUS_GENOBJ-N-FIL_13
1002
{
1000
OWNER
1000
GEN
1002
}
1001
GENIUS_GENODEF_13
1002
{
1000
HIER
1070
     0
1002
}
1002
{
1000
MANEDIT
1070
     0
1002
}
1002
{
1000
NOSEL
1070
     0
1002
}
1002
{
1000
BEHIND
1070
     0
1002
}
1002
{
1000
OTHER
1070
     0
1002
}
1002
{
1000
REACTOR
1002
}
  0
ARC
  5
2015
  8
SAPA_PROFIL
 62
     4
 10
-5.5325518169263432
 20
146.300000143304
 30
0.0
 40
0.3000000000006366
 50
180.0000000000868
 51
270.0000000000868
1001
GENIUS_GENOBJ-N-FIL_13
1002
{
1000
OWNER
1000
GEN
1002
}
1001
GENIUS_GENODEF_13
1002
{
1000
HIER
1070
     0
1002
}
1002
{
1000
MANEDIT
1070
     0
1002
}
1002
{
1000
NOSEL
1070
     0
1002
}
1002
{
1000
BEHIND
1070
     0
1002
}
1002
{
1000
OTHER
1070
     0
1002
}
1002
{
1000
REACTOR
1002
}
  0
LINE
  5
2016
  8
SAPA_PROFIL
 62
     4
 10
-5.832551816926979
 20
146.30000014330349
 30
0.0
 11
-5.832551816926979
 21
146.5000001433034
 31
0.0
1001
GENIUS_GENOBJ-N-FIL_13
1002
{
1000
OWNER
1000
GEN
1002
}
1001
GENIUS_GENODEF_13
1002
{
1000
HIER
1070
     0
1002
}
1002
{
1000
MANEDIT
1070
     0
1002
}
1002
{
1000
NOSEL
1070
     0
1002
}
1002
{
1000
BEHIND
1070
     0
1002
}
1002
{
1000
OTHER
1070
     0
1002
}
1002
{
1000
REACTOR
1002
}
  0
ARC
  5
2017
  8
SAPA_PROFIL
 62
     4
 10
-5.332551816926979
 20
146.5000001433034
 30
0.0
 40
0.5
 50
90.0
 51
180.0
1001
GENIUS_GENOBJ-N-FIL_13
1002
{
1000
OWNER
1000
GEN
1002
}
1001
GENIUS_GENODEF_13
1002
{
1000
HIER
1070
     0
1002
}
1002
{
1000
MANEDIT
1070
     0
1002
}
1002
{
1000
NOSEL
1070
     0
1002
}
1002
{
1000
BEHIND
1070
     0
1002
}
1002
{
1000
OTHER
1070
     0
1002
}
1002
{
1000
REACTOR
1002
}
  0
LINE
  5
2018
  8
SAPA_PROFIL
 62
     4
 10
-5.332551816926979
 20
147.0000001433034
 30
0.0
 11
-2.332551816926979
 21
147.0000001433034
 31
0.0
1001
GENIUS_GENOBJ-N-FIL_13
1002
{
1000
OWNER
1000
GEN
1002
}
1001
GENIUS_GENODEF_13
1002
{
1000
HIER
1070
     0
1002
}
1002
{
1000
MANEDIT
1070
     0
1002
}
1002
{
1000
NOSEL
1070
     0
1002
}
1002
{
1000
BEHIND
1070
     0
1002
}
1002
{
1000
OTHER
1070
     0
1002
}
1002
{
1000
REACTOR
1002
}
  0
ARC
  5
2019
  8
SAPA_PROFIL
 62
     4
 10
-2.332551816926979
 20
146.5000001433034
 30
0.0
 40
0.5
 50
0.0
 51
90.0
1001
GENIUS_GENOBJ-N-FIL_13
1002
{
1000
OWNER
1000
GEN
1002
}
1001
GENIUS_GENODEF_13
1002
{
1000
HIER
1070
     0
1002
}
1002
{
1000
MANEDIT
1070
     0
1002
}
1002
{
1000
NOSEL
1070
     0
1002
}
1002
{
1000
BEHIND
1070
     0
1002
}
1002
{
1000
OTHER
1070
     0
1002
}
1002
{
1000
REACTOR
1002
}
  0
LINE
  5
201A
  8
SAPA_PROFIL
 62
     4
 10
-1.832551816926979
 20
146.5000001433034
 30
0.0
 11
-1.83255181692516
 21
146.3000001433108
 31
0.0
1001
GENIUS_GENOBJ-N-FIL_13
1002
{
1000
OWNER
1000
GEN
1002
}
1001
GENIUS_GENODEF_13
1002
{
1000
HIER
1070
     0
1002
}
1002
{
1000
MANEDIT
1070
     0
1002
}
1002
{
1000
NOSEL
1070
     0
1002
}
1002
{
1000
BEHIND
1070
     0
1002
}
1002
{
1000
OTHER
1070
     0
1002
}
1002
{
1000
REACTOR
1002
}
  0
ARC
  5
201B
  8
SAPA_PROFIL
 62
     4
 10
-2.1325518169250008
 20
146.30000014330869
 30
0.0
 40
0.2999999999998408
 50
270.000000000456
 51
0.0000000004125391
1001
GENIUS_GENOBJ-N-FIL_13
1002
{
1000
OWNER
1000
GEN
1002
}
1001
GENIUS_GENODEF_13
1002
{
1000
HIER
1070
     0
1002
}
1002
{
1000
MANEDIT
1070
     0
1002
}
1002
{
1000
NOSEL
1070
     0
1002
}
1002
{
1000
BEHIND
1070
     0
1002
}
1002
{
1000
OTHER
1070
     0
1002
}
1002
{
1000
REACTOR
1002
}
  0
LINE
  5
201C
  8
SAPA_PROFIL
 62
     4
 10
-2.1325518169226139
 20
146.0000001433088
 30
0.0
 11
-2.7825518169240691
 21
146.0000001433061
 31
0.0
1001
GENIUS_GENOBJ-N-FIL_13
1002
{
1000
OWNER
1000
GEN
1002
}
1001
GENIUS_GENODEF_13
1002
{
1000
HIER
1070
     0
1002
}
1002
{
1000
MANEDIT
1070
     0
1002
}
1002
{
1000
NOSEL
1070
     0
1002
}
1002
{
1000
BEHIND
1070
     0
1002
}
1002
{
1000
OTHER
1070
     0
1002
}
1002
{
1000
REACTOR
1002
}
  0
ARC
  5
201D
  8
SAPA_PROFIL
 62
     4
 10
-2.7825518169227048
 20
145.70000014330549
 30
0.0
 40
0.3000000000006366
 50
90.000000000260556
 51
180.0000000000868
1001
GENIUS_GENOBJ-N-FIL_13
1002
{
1000
OWNER
1000
GEN
1002
}
1001
GENIUS_GENODEF_13
1002
{
1000
HIER
1070
     0
1002
}
1002
{
1000
MANEDIT
1070
     0
1002
}
1002
{
1000
NOSEL
1070
     0
1002
}
1002
{
1000
BEHIND
1070
     0
1002
}
1002
{
1000
OTHER
1070
     0
1002
}
1002
{
1000
REACTOR
1002
}
  0
LINE
  5
201E
  8
SAPA_PROFIL
 62
     4
 10
-3.082551816923341
 20
145.700000143305
 30
0.0
 11
-3.082551816923341
 21
144.80000014330631
 31
0.0
1001
GENIUS_GENOBJ-N-FIL_13
1002
{
1000
OWNER
1000
GEN
1002
}
1001
GENIUS_GENODEF_13
1002
{
1000
HIER
1070
     0
1002
}
1002
{
1000
MANEDIT
1070
     0
1002
}
1002
{
1000
NOSEL
1070
     0
1002
}
1002
{
1000
BEHIND
1070
     0
1002
}
1002
{
1000
OTHER
1070
     0
1002
}
1002
{
1000
REACTOR
1002
}
  0
ARC
  5
201F
  8
SAPA_PROFIL
 62
     4
 10
-2.582551816923341
 20
144.80000014330631
 30
0.0
 40
0.5
 50
180.0
 51
270.0
1001
GENIUS_GENOBJ-N-FIL_13
1002
{
1000
OWNER
1000
GEN
1002
}
1001
GENIUS_GENODEF_13
1002
{
1000
HIER
1070
     0
1002
}
1002
{
1000
MANEDIT
1070
     0
1002
}
1002
{
1000
NOSEL
1070
     0
1002
}
1002
{
1000
BEHIND
1070
     0
1002
}
1002
{
1000
OTHER
1070
     0
1002
}
1002
{
1000
REACTOR
1002
}
  0
LINE
  5
2020
  8
SAPA_PROFIL
 62
     4
 10
-2.582551816923341
 20
144.30000014330631
 30
0.0
 11
3.4174481830784771
 21
144.30000014331361
 31
0.0
1001
GENIUS_GENOBJ-N-FIL_13
1002
{
1000
OWNER
1000
GEN
1002
}
1001
GENIUS_GENODEF_13
1002
{
1000
HIER
1070
     0
1002
}
1002
{
1000
MANEDIT
1070
     0
1002
}
1002
{
1000
NOSEL
1070
     0
1002
}
1002
{
1000
BEHIND
1070
     0
1002
}
1002
{
1000
OTHER
1070
     0
1002
}
1002
{
1000
REACTOR
1002
}
  0
ARC
  5
2021
  8
SAPA_PROFIL
 62
     4
 10
3.4174481830784771
 20
144.8000001433135
 30
0.0
 40
0.5
 50
270.0
 51
0.0
1001
GENIUS_GENOBJ-N-FIL_13
1002
{
1000
OWNER
1000
GEN
1002
}
1001
GENIUS_GENODEF_13
1002
{
1000
HIER
1070
     0
1002
}
1002
{
1000
MANEDIT
1070
     0
1002
}
1002
{
1000
NOSEL
1070
     0
1002
}
1002
{
1000
BEHIND
1070
     0
1002
}
1002
{
1000
OTHER
1070
     0
1002
}
1002
{
1000
REACTOR
1002
}
  0
LINE
  5
2022
  8
SAPA_PROFIL
 62
     4
 10
3.9174481830784771
 20
144.8000001433135
 30
0.0
 11
3.9174481830784771
 21
145.70000014331049
 31
0.0
1001
GENIUS_GENOBJ-N-FIL_13
1002
{
1000
OWNER
1000
GEN
1002
}
1001
GENIUS_GENODEF_13
1002
{
1000
HIER
1070
     0
1002
}
1002
{
1000
MANEDIT
1070
     0
1002
}
1002
{
1000
NOSEL
1070
     0
1002
}
1002
{
1000
BEHIND
1070
     0
1002
}
1002
{
1000
OTHER
1070
     0
1002
}
1002
{
1000
REACTOR
1002
}
  0
ARC
  5
2023
  8
SAPA_PROFIL
 62
     4
 10
3.617448183078749
 20
145.70000014331089
 30
0.0
 40
0.2999999999997271
 50
359.99999999991309
 51
89.999999999913143
1001
GENIUS_GENOBJ-N-FIL_13
1002
{
1000
OWNER
1000
GEN
1002
}
1001
GENIUS_GENODEF_13
1002
{
1000
HIER
1070
     0
1002
}
1002
{
1000
MANEDIT
1070
     0
1002
}
1002
{
1000
NOSEL
1070
     0
1002
}
1002
{
1000
BEHIND
1070
     0
1002
}
1002
{
1000
OTHER
1070
     0
1002
}
1002
{
1000
REACTOR
1002
}
  0
LINE
  5
2024
  8
SAPA_PROFIL
 62
     4
 10
3.6174481830792038
 20
146.00000014331059
 30
0.0
 11
2.9674481830759301
 21
146.00000014331059
 31
0.0
1001
GENIUS_GENOBJ-N-FIL_13
1002
{
1000
OWNER
1000
GEN
1002
}
1001
GENIUS_GENODEF_13
1002
{
1000
HIER
1070
     0
1002
}
1002
{
1000
MANEDIT
1070
     0
1002
}
1002
{
1000
NOSEL
1070
     0
1002
}
1002
{
1000
BEHIND
1070
     0
1002
}
1002
{
1000
OTHER
1070
     0
1002
}
1002
{
1000
REACTOR
1002
}
  0
ARC
  5
2025
  8
SAPA_PROFIL
 62
     4
 10
2.9674481830763848
 20
146.3000001433104
 30
0.0
 40
0.2999999999997271
 50
179.99999999991309
 51
269.99999999991309
1001
GENIUS_GENOBJ-N-FIL_13
1002
{
1000
OWNER
1000
GEN
1002
}
1001
GENIUS_GENODEF_13
1002
{
1000
HIER
1070
     0
1002
}
1002
{
1000
MANEDIT
1070
     0
1002
}
1002
{
1000
NOSEL
1070
     0
1002
}
1002
{
1000
BEHIND
1070
     0
1002
}
1002
{
1000
OTHER
1070
     0
1002
}
1002
{
1000
REACTOR
1002
}
  0
LINE
  5
2026
  8
SAPA_PROFIL
 62
     4
 10
2.6674481830766581
 20
146.3000001433108
 30
0.0
 11
2.6674481830766581
 21
146.5000001433107
 31
0.0
1001
GENIUS_GENOBJ-N-FIL_13
1002
{
1000
OWNER
1000
GEN
1002
}
1001
GENIUS_GENODEF_13
1002
{
1000
HIER
1070
     0
1002
}
1002
{
1000
MANEDIT
1070
     0
1002
}
1002
{
1000
NOSEL
1070
     0
1002
}
1002
{
1000
BEHIND
1070
     0
1002
}
1002
{
1000
OTHER
1070
     0
1002
}
1002
{
1000
REACTOR
1002
}
  0
ARC
  5
2027
  8
SAPA_PROFIL
 62
     4
 10
3.1674481830766581
 20
146.5000001433107
 30
0.0
 40
0.5
 50
90.0
 51
180.0
1001
GENIUS_GENOBJ-N-FIL_13
1002
{
1000
OWNER
1000
GEN
1002
}
1001
GENIUS_GENODEF_13
1002
{
1000
HIER
1070
     0
1002
}
1002
{
1000
MANEDIT
1070
     0
1002
}
1002
{
1000
NOSEL
1070
     0
1002
}
1002
{
1000
BEHIND
1070
     0
1002
}
1002
{
1000
OTHER
1070
     0
1002
}
1002
{
1000
REACTOR
1002
}
  0
LINE
  5
2028
  8
SAPA_PROFIL
 62
     4
 10
3.1674481830766581
 20
147.00000014331059
 30
0.0
 11
28.965183209999619
 21
147.00000014322879
 31
0.0
1001
GENIUS_GENOBJ-N-FIL_13
1002
{
1000
OWNER
1000
GEN
1002
}
1001
GENIUS_GENODEF_13
1002
{
1000
HIER
1070
     0
1002
}
1002
{
1000
MANEDIT
1070
     0
1002
}
1002
{
1000
NOSEL
1070
     0
1002
}
1002
{
1000
BEHIND
1070
     0
1002
}
1002
{
1000
OTHER
1070
     0
1002
}
1002
{
1000
REACTOR
1002
}
  0
ARC
  5
2029
  8
SAPA_PROFIL
 62
     4
 10
28.965183210003939
 20
148.20000014322881
 30
0.0
 40
1.200000000000045
 50
269.99999999979372
 51
359.99999999998909
1001
GENIUS_GENOBJ-N-FIL_13
1002
{
1000
OWNER
1000
GEN
1002
}
1001
GENIUS_GENODEF_13
1002
{
1000
HIER
1070
     0
1002
}
1002
{
1000
MANEDIT
1070
     0
1002
}
1002
{
1000
NOSEL
1070
     0
1002
}
1002
{
1000
BEHIND
1070
     0
1002
}
1002
{
1000
OTHER
1070
     0
1002
}
1002
{
1000
REACTOR
1002
}
  0
LINE
  5
202A
  8
SAPA_PROFIL
 62
     4
 10
30.165183210003988
 20
148.20000014322861
 30
0.0
 11
30.165183210003988
 21
150.92848149330871
 31
0.0
1001
GENIUS_GENOBJ-N-FIL_13
1002
{
1000
OWNER
1000
GEN
1002
}
1001
GENIUS_GENODEF_13
1002
{
1000
HIER
1070
     0
1002
}
1002
{
1000
MANEDIT
1070
     0
1002
}
1002
{
1000
NOSEL
1070
     0
1002
}
1002
{
1000
BEHIND
1070
     0
1002
}
1002
{
1000
OTHER
1070
     0
1002
}
1002
{
1000
REACTOR
1002
}
  0
LINE
  5
202B
  8
SAPA_PROFIL
 62
     4
 10
5.2017096535935252
 20
143.3000000752634
 30
0.0
 11
5.2017096535989822
 21
135.80000007470491
 31
0.0
  0
ARC
  5
202C
  8
SAPA_PROFIL
 62
     4
 10
6.2017096535989822
 20
135.80000007470491
 30
0.0
 40
1.0
 50
180.0
 51
270.0
  0
LINE
  5
202D
  8
SAPA_PROFIL
 62
     4
 10
6.2017096535989822
 20
134.80000007470491
 30
0.0
 11
29.349444680522311
 21
134.80000007468951
 31
0.0
  0
ARC
  5
202E
  8
SAPA_PROFIL
 62
     4
 10
29.349444680521859
 20
135.60000007468921
 30
0.0
 40
0.7999999999997272
 50
270.00000000003263
 51
0.0000000000325689
  0
LINE
  5
202F
  8
SAPA_PROFIL
 62
     4
 10
30.14944468052159
 20
135.6000000746896
 30
0.0
 11
30.14944468052159
 21
144.4000000752082
 31
0.0
  0
ARC
  5
2030
  8
SAPA_PROFIL
 62
     4
 10
29.349444680521401
 20
144.4000000752082
 30
0.0
 40
0.8000000000001818
 50
0.0
 51
90.000000000065128
  0
LINE
  5
2031
  8
SAPA_PROFIL
 62
     4
 10
29.349444680520492
 20
145.20000007520841
 30
0.0
 11
6.2017096535935252
 21
145.20000007518479
 31
0.0
  0
ARC
  5
2032
  8
SAPA_PROFIL
 62
     4
 10
6.2017096535950031
 20
144.2000000751851
 30
0.0
 40
0.9999999999996589
 50
90.000000000084668
 51
179.9999999999674
  0
LINE
  5
2033
  8
SAPA_PROFIL
 62
     4
 10
5.2017096535953442
 20
144.2000000751857
 30
0.0
 11
5.2017096535935252
 21
143.3000000752634
 31
0.0
  0
LINE
  5
2034
  8
SAPA_PROFIL
 10
44.44944472121346
 20
100.0000001430092
 30
0.0
 11
32.24944472121274
 21
100.0000001430096
 31
0.0
  0
LINE
  5
2035
  8
SAPA_PROFIL
 10
32.24944472121274
 20
100.0000001430096
 30
0.0
 11
32.24944472121274
 21
68.000000143009174
 31
0.0
  0
LINE
  5
2036
  8
SAPA_PROFIL
 10
32.24944472121274
 20
68.000000143009174
 30
0.0
 11
44.44944472121346
 21
68.000000143009174
 31
0.0
  0
LINE
  5
2037
  8
SAPA_PROFIL
 10
44.44944472121346
 20
68.000000143009174
 30
0.0
 11
44.44944472121346
 21
100.0000001430092
 31
0.0
  0
ARC
  5
2038
  8
SAPA_PROFIL
 10
33.849444721213104
 20
103.0000001430096
 30
0.0
 40
1.0
 50
180.0
 51
270.0
  0
LINE
  5
2039
  8
SAPA_PROFIL
 10
33.849444721213104
 20
102.0000001430096
 30
0.0
 11
42.849444721213104
 21
102.0000001430096
 31
0.0
  0
ARC
  5
203A
  8
SAPA_PROFIL
 10
42.849444721213104
 20
103.0000001430096
 30
0.0
 40
1.0
 50
270.0
 51
0.0
  0
LINE
  5
203B
  8
SAPA_PROFIL
 10
43.849444721213104
 20
103.0000001430096
 30
0.0
 11
43.849444721213104
 21
105.5000001784112
 31
0.0
  0
LINE
  5
203C
  8
SAPA_PROFIL
 10
43.849444721213104
 20
105.5000001784112
 30
0.0
 11
44.44944472121346
 21
105.5000001784112
 31
0.0
  0
LINE
  5
203D
  8
SAPA_PROFIL
 10
44.44944472121346
 20
105.5000001784112
 30
0.0
 11
44.44944472121346
 21
123.0000001784112
 31
0.0
  0
LINE
  5
203E
  8
SAPA_PROFIL
 10
44.44944472121346
 20
123.0000001784112
 30
0.0
 11
32.24944472121274
 21
123.0000001784112
 31
0.0
  0
LINE
  5
203F
  8
SAPA_PROFIL
 10
32.24944472121274
 20
123.0000001784112
 30
0.0
 11
32.24944472121274
 21
105.5000001784112
 31
0.0
  0
LINE
  5
2040
  8
SAPA_PROFIL
 10
32.24944472121274
 20
105.5000001784112
 30
0.0
 11
32.849444721213104
 21
105.5000001784112
 31
0.0
  0
LINE
  5
2041
  8
SAPA_PROFIL
 10
32.849444721213104
 20
105.5000001784112
 30
0.0
 11
32.849444721213104
 21
103.0000001430096
 31
0.0
  0
ARC
  5
2042
  8
SAPA_PROFIL
 10
46.749444721210963
 20
126.0000001430234
 30
0.0
 40
0.2000000000001592
 50
90.000000000533305
 51
270.00000000050881
  0
LINE
  5
2043
  8
SAPA_PROFIL
 10
46.749444721209102
 20
126.2000001430235
 30
0.0
 11
46.749468721209951
 21
129.7858105806506
 31
0.0
  0
ARC
  5
2044
  8
SAPA_PROFIL
 10
45.749468721209801
 20
129.78581058065049
 30
0.0
 40
1.000000000000149
 50
0.0000000000065138
 51
134.99999999998931
  0
LINE
  5
2045
  8
SAPA_PROFIL
 10
45.042361940023277
 20
130.4929173618373
 30
0.0
 11
43.737312686854011
 21
129.1878681086682
 31
0.0
  0
ARC
  5
2046
  8
SAPA_PROFIL
 10
43.949444721210241
 20
128.97573607431301
 30
0.0
 40
0.2999999999996879
 50
135.00000000013341
 51
180.000000000152
  0
LINE
  5
2047
  8
SAPA_PROFIL
 10
43.64944472121055
 20
128.97573607431221
 30
0.0
 11
43.64944472120964
 21
128.3892306275649
 31
0.0
  0
ARC
  5
2048
  8
SAPA_PROFIL
 10
43.949444721209588
 20
128.3892306275674
 30
0.0
 40
0.2999999999999474
 50
180.00000000046131
 51
210.00000000045901
  0
LINE
  5
2049
  8
SAPA_PROFIL
 10
43.689637100075508
 20
128.23923062756529
 30
0.0
 11
44.549444721210193
 21
126.7500001430241
 31
0.0
  0
LINE
  5
204A
  8
SAPA_PROFIL
 10
44.549444721210193
 20
126.7500001430241
 30
0.0
 11
44.549456721209701
 21
126.30000014302431
 31
0.0
  0
ARC
  5
204B
  8
SAPA_PROFIL
 10
44.249456721209519
 20
126.30000014302431
 30
0.0
 40
0.3000000000001819
 50
270.0
 51
0.0
  0
LINE
  5
204C
  8
SAPA_PROFIL
 10
44.249456721209519
 20
126.0000001430242
 30
0.0
 11
40.64944472121055
 21
126.00000014302439
 31
0.0
  0
ARC
  5
204D
  8
SAPA_PROFIL
 10
40.649444721209981
 20
126.3000001430249
 30
0.0
 40
0.300000000000523
 50
180.00000000010851
 51
270.00000000010863
  0
LINE
  5
204E
  8
SAPA_PROFIL
 10
40.349444721209473
 20
126.30000014302431
 30
0.0
 11
40.349444721209473
 21
126.7500001430241
 31
0.0
  0
LINE
  5
204F
  8
SAPA_PROFIL
 10
40.349444721209473
 20
126.7500001430241
 30
0.0
 11
41.209269458778863
 21
128.23926027409831
 31
0.0
  0
ARC
  5
2050
  8
SAPA_PROFIL
 10
40.949461837643177
 20
128.3892602740975
 30
0.0
 40
0.2999999999998768
 50
330.0000000001732
 51
359.99635313271853
  0
LINE
  5
2051
  8
SAPA_PROFIL
 10
41.249461837035369
 20
128.38924117914499
 30
0.0
 11
41.24946888682711
 21
128.50000014302421
 31
0.0
  0
LINE
  5
2052
  8
SAPA_PROFIL
 10
41.24946888682711
 20
128.50000014302421
 30
0.0
 11
39.62775688472243
 21
128.5000001430237
 31
0.0
  0
ARC
  5
2053
  8
SAPA_PROFIL
 10
39.627756884722587
 20
127.5000001430241
 30
0.0
 40
0.9999999999996447
 50
90.000000000008953
 51
150.0000000000118
  0
LINE
  5
2054
  8
SAPA_PROFIL
 10
38.761731480938352
 20
128.0000001430237
 30
0.0
 11
37.89570607715428
 21
126.5000001430242
 31
0.0
  0
ARC
  5
2055
  8
SAPA_PROFIL
 10
37.029680673370038
 20
127.0000001430238
 30
0.0
 40
0.999999999999646
 50
270.00000000000898
 51
330.00000000001182
  0
LINE
  5
2056
  8
SAPA_PROFIL
 10
37.029680673370201
 20
126.0000001430242
 30
0.0
 11
36.469208769053473
 21
126.0000001430242
 31
0.0
  0
ARC
  5
2057
  8
SAPA_PROFIL
 10
36.469208769053623
 20
127.0000001430238
 30
0.0
 40
0.9999999999996447
 50
209.9999999999882
 51
269.99999999999102
  0
LINE
  5
2058
  8
SAPA_PROFIL
 10
35.603183365269388
 20
126.5000001430242
 30
0.0
 11
34.737157961484399
 21
128.0000001430235
 31
0.0
  0
ARC
  5
2059
  8
SAPA_PROFIL
 10
33.871132557699092
 20
127.5000001430233
 30
0.0
 40
1.0000000000008229
 50
29.999999999982151
 51
89.999999999981682
  0
LINE
  5
205A
  8
SAPA_PROFIL
 10
33.871132557699411
 20
128.50000014302421
 30
0.0
 11
32.249420555596551
 21
128.50000014302421
 31
0.0
  0
LINE
  5
205B
  8
SAPA_PROFIL
 10
32.249420555596551
 20
128.50000014302421
 30
0.0
 11
32.249427605387382
 21
128.38924117914499
 31
0.0
  0
ARC
  5
205C
  8
SAPA_PROFIL
 10
32.549427604778877
 20
128.3892602740975
 30
0.0
 40
0.2999999999991979
 50
180.00364686729239
 51
209.99999999986369
  0
LINE
  5
205D
  8
SAPA_PROFIL
 10
32.289619983643888
 20
128.23926027409851
 30
0.0
 11
33.149444721212383
 21
126.7500001430241
 31
0.0
  0
LINE
  5
205E
  8
SAPA_PROFIL
 10
33.149444721212383
 20
126.7500001430241
 30
0.0
 11
33.149444721213293
 21
126.30000014302431
 31
0.0
  0
ARC
  5
205F
  8
SAPA_PROFIL
 10
32.849444721213104
 20
126.30000014302431
 30
0.0
 40
0.3000000000001819
 50
270.0
 51
0.0
  0
LINE
  5
2060
  8
SAPA_PROFIL
 10
32.849444721213104
 20
126.0000001430242
 30
0.0
 11
29.249432721214141
 21
126.00000014302439
 31
0.0
  0
ARC
  5
2061
  8
SAPA_PROFIL
 10
29.249432721213569
 20
126.3000001430249
 30
0.0
 40
0.300000000000523
 50
180.00000000010851
 51
270.00000000010863
  0
LINE
  5
2062
  8
SAPA_PROFIL
 10
28.94943272121305
 20
126.30000014302431
 30
0.0
 11
28.949444721213471
 21
126.7500001430241
 31
0.0
  0
LINE
  5
2063
  8
SAPA_PROFIL
 10
28.949444721213471
 20
126.7500001430241
 30
0.0
 11
29.809252342349058
 21
128.23923062756509
 31
0.0
  0
ARC
  5
2064
  8
SAPA_PROFIL
 10
29.549444721213639
 20
128.3892306275639
 30
0.0
 40
0.2999999999994613
 50
330.0000000002089
 51
0.0000000002062696
  0
LINE
  5
2065
  8
SAPA_PROFIL
 10
29.849444721213111
 20
128.3892306275649
 30
0.0
 11
29.84944472121402
 21
128.97573607431221
 31
0.0
  0
ARC
  5
2066
  8
SAPA_PROFIL
 10
29.5494447212136
 20
128.97573607431201
 30
0.0
 40
0.3000000000004199
 50
0.000000000037997
 51
45.00000000005614
  0
LINE
  5
2067
  8
SAPA_PROFIL
 10
29.761576755569649
 20
129.1878681086684
 30
0.0
 11
28.45652750240038
 21
130.4929173618375
 31
0.0
  0
ARC
  5
2068
  8
SAPA_PROFIL
 10
27.749420721213909
 20
129.7858105806506
 30
0.0
 40
1.0000000000001881
 50
45.000000000017273
 51
180.0
  0
LINE
  5
2069
  8
SAPA_PROFIL
 10
26.74942072121371
 20
129.7858105806506
 30
0.0
 11
26.74944472121274
 21
126.2000001430233
 31
0.0
  0
ARC
  5
206A
  8
SAPA_PROFIL
 10
26.74944472121274
 20
126.0000001430238
 30
0.0
 40
0.199999999999477
 50
270.0
 51
90.0
  0
LINE
  5
206B
  8
SAPA_PROFIL
 10
26.74944472121274
 20
125.80000014302431
 30
0.0
 11
26.74944472121274
 21
124.5000001134742
 31
0.0
  0
ARC
  5
206C
  8
SAPA_PROFIL
 10
27.749444721068809
 20
124.5000001136186
 30
0.0
 40
0.9999999998560724
 50
180.00000000827251
 51
270.00000000845489
  0
LINE
  5
206D
  8
SAPA_PROFIL
 10
27.749444721216381
 20
123.5000001137625
 30
0.0
 11
28.74944472121274
 21
123.5000001137625
 31
0.0
  0
ARC
  5
206E
  8
SAPA_PROFIL
 10
28.74944472121274
 20
122.5000001137625
 30
0.0
 40
1.0
 50
0.0
 51
90.0
  0
LINE
  5
206F
  8
SAPA_PROFIL
 10
29.74944472121274
 20
122.5000001137625
 30
0.0
 11
29.74944472121274
 21
116.3870704038011
 31
0.0
  0
ARC
  5
2070
  8
SAPA_PROFIL
 10
28.74944472121323
 20
116.38707040380039
 30
0.0
 40
0.9999999999995132
 50
295.00000000030542
 51
0.0000000000382684
  0
LINE
  5
2071
  8
SAPA_PROFIL
 10
29.17206298295855
 20
115.4807626167664
 30
0.0
 11
25.32682645945874
 21
113.68769937841989
 31
0.0
  0
ARC
  5
2072
  8
SAPA_PROFIL
 10
25.74944472120379
 20
112.7813915913851
 30
0.0
 40
1.0000000000001521
 50
115.0000000002707
 51
180.00000000000321
  0
LINE
  5
2073
  8
SAPA_PROFIL
 10
24.749444721203648
 20
112.781391591385
 30
0.0
 11
24.749444721203648
 21
109.73264611805661
 31
0.0
  0
ARC
  5
2074
  8
SAPA_PROFIL
 10
24.949444721204259
 20
109.7326461180571
 30
0.0
 40
0.2000000000006139
 50
180.0000000001466
 51
299.10990894054697
  0
ARC
  5
2075
  8
SAPA_PROFIL
 10
26.749444721235651
 20
106.50000014301931
 30
0.0
 40
3.5000000000050062
 50
94.917100336035674
 51
119.1099089403769
  0
LINE
  5
2076
  8
SAPA_PROFIL
 10
26.44944472120438
 20
109.98711929785421
 30
0.0
 11
26.44944472120438
 21
111.2500001430241
 31
0.0
  0
ARC
  5
2077
  8
SAPA_PROFIL
 10
26.949444721204369
 20
111.2500001430241
 30
0.0
 40
0.5
 50
90.0
 51
180.0
  0
LINE
  5
2078
  8
SAPA_PROFIL
 10
26.949444721204369
 20
111.7500001430242
 30
0.0
 11
29.24944472121274
 21
111.7500001430242
 31
0.0
  0
ARC
  5
2079
  8
SAPA_PROFIL
 10
29.24944472121274
 20
111.2500001430241
 30
0.0
 40
0.5
 50
0.0
 51
90.0
  0
LINE
  5
207A
  8
SAPA_PROFIL
 10
29.74944472121274
 20
111.2500001430241
 30
0.0
 11
29.74944472121274
 21
108.3027757807924
 31
0.0
  0
ARC
  5
207B
  8
SAPA_PROFIL
 10
26.749444721234489
 20
106.5000001430242
 30
0.0
 40
3.5000000000000382
 50
328.99728086543371
 51
31.002719134566291
  0
LINE
  5
207C
  8
SAPA_PROFIL
 10
29.74944472121274
 20
104.6972245052559
 30
0.0
 11
29.74944472121274
 21
98.302775780792444
 31
0.0
  0
ARC
  5
207D
  8
SAPA_PROFIL
 10
26.749444721234489
 20
96.500000143024195
 30
0.0
 40
3.5000000000000382
 50
328.99728086543371
 51
31.002719134566291
  0
LINE
  5
207E
  8
SAPA_PROFIL
 10
29.74944472121274
 20
94.697224505255917
 30
0.0
 11
29.74944472121274
 21
91.750000143024167
 31
0.0
  0
ARC
  5
207F
  8
SAPA_PROFIL
 10
29.24944472121274
 20
91.750000143024167
 30
0.0
 40
0.5
 50
270.0
 51
0.0
  0
LINE
  5
2080
  8
SAPA_PROFIL
 10
29.24944472121274
 20
91.250000143024181
 30
0.0
 11
26.949444721204369
 21
91.250000143024181
 31
0.0
  0
ARC
  5
2081
  8
SAPA_PROFIL
 10
26.949444721204369
 20
91.750000143024167
 30
0.0
 40
0.5
 50
180.0
 51
270.0
  0
LINE
  5
2082
  8
SAPA_PROFIL
 10
26.44944472120438
 20
91.750000143024167
 30
0.0
 11
26.44944472120255
 21
93.012880988194411
 31
0.0
  0
ARC
  5
2083
  8
SAPA_PROFIL
 10
26.749444721236859
 20
96.500000143025503
 30
0.0
 40
3.5000000000014988
 50
240.8900910595685
 51
265.08289966390959
  0
ARC
  5
2084
  8
SAPA_PROFIL
 10
24.949444721204461
 20
93.267354167991982
 30
0.0
 40
0.2000000000008094
 50
60.89009105955035
 51
179.99999999995109
  0
LINE
  5
2085
  8
SAPA_PROFIL
 10
24.749444721203648
 20
93.267354167992139
 30
0.0
 11
24.749444721203648
 21
90.218608694663317
 31
0.0
  0
ARC
  5
2086
  8
SAPA_PROFIL
 10
25.749444721203719
 20
90.218608694664312
 30
0.0
 40
1.0000000000000671
 50
180.00000000005701
 51
244.99999999978951
  0
LINE
  5
2087
  8
SAPA_PROFIL
 10
25.326826459459649
 20
89.312300907629137
 30
0.0
 11
29.172062982957641
 21
87.519237669282134
 31
0.0
  0
ARC
  5
2088
  8
SAPA_PROFIL
 10
28.749444721212601
 20
86.612929882247329
 30
0.0
 40
1.0000000000001521
 50
359.99999999999682
 51
64.999999999729241
  0
LINE
  5
2089
  8
SAPA_PROFIL
 10
29.74944472121274
 20
86.612929882247286
 30
0.0
 11
29.74944472121274
 21
70.300000143024363
 31
0.0
  0
LINE
  5
208A
  8
SAPA_PROFIL
 10
29.74944472121274
 20
70.300000143024363
 30
0.0
 11
28.24944472121274
 21
70.300000143024363
 31
0.0
  0
LINE
  5
208B
  8
SAPA_PROFIL
 10
28.24944472121274
 20
70.300000143024363
 30
0.0
 11
28.24944472121274
 21
69.500000143024181
 31
0.0
  0
LINE
  5
208C
  8
SAPA_PROFIL
 10
28.24944472121274
 20
69.500000143024181
 30
0.0
 11
29.74944472121274
 21
69.500000143024181
 31
0.0
  0
LINE
  5
208D
  8
SAPA_PROFIL
 10
29.74944472121274
 20
69.500000143024181
 30
0.0
 11
29.74944472121274
 21
67.800000143024363
 31
0.0
  0
LINE
  5
208E
  8
SAPA_PROFIL
 10
29.74944472121274
 20
67.800000143024363
 30
0.0
 11
5.1494447212141941
 21
67.500000143024181
 31
0.0
  0
LINE
  5
208F
  8
SAPA_PROFIL
 10
5.1494447212141941
 20
67.500000143024181
 30
0.0
 11
5.1494447212141941
 21
69.200000143024454
 31
0.0
  0
LINE
  5
2090
  8
SAPA_PROFIL
 10
5.1494447212141941
 20
69.200000143024454
 30
0.0
 11
7.1494447212141941
 21
69.200000143024454
 31
0.0
  0
LINE
  5
2091
  8
SAPA_PROFIL
 10
7.1494447212141941
 20
69.200000143024454
 30
0.0
 11
7.1494447212141941
 21
70.000000143024181
 31
0.0
  0
LINE
  5
2092
  8
SAPA_PROFIL
 10
7.1494447212141941
 20
70.000000143024181
 30
0.0
 11
2.9994447212218338
 21
70.000000143024181
 31
0.0
  0
ARC
  5
2093
  8
SAPA_PROFIL
 10
2.9994447212218338
 20
69.500000143024181
 30
0.0
 40
0.5
 50
90.0
 51
180.0
  0
LINE
  5
2094
  8
SAPA_PROFIL
 10
2.4994447212218338
 20
69.500000143024181
 30
0.0
 11
2.4994447212109199
 21
69.000000143042371
 31
0.0
  0
LINE
  5
2095
  8
SAPA_PROFIL
 10
2.4994447212109199
 20
69.000000143042371
 30
0.0
 11
3.749444721185454
 21
69.000000143020998
 31
0.0
  0
LINE
  5
2096
  8
SAPA_PROFIL
 10
3.749444721185454
 20
69.000000143020998
 30
0.0
 11
3.7494447212209252
 21
67.600000143042493
 31
0.0
  0
ARC
  5
2097
  8
SAPA_PROFIL
 10
3.4494447212344541
 20
67.600000143048575
 30
0.0
 40
0.2999999999864711
 50
269.99999999738139
 51
359.99999999884119
  0
LINE
  5
2098
  8
SAPA_PROFIL
 10
3.4494447212207429
 20
67.300000143062107
 30
0.0
 11
-2.9505552787834399
 21
67.300000143034595
 31
0.0
  0
ARC
  5
2099
  8
SAPA_PROFIL
 10
-2.9505552787660911
 20
67.600000143024843
 30
0.0
 40
0.2999999999902485
 50
179.99999999814631
 51
269.9999999966866
  0
LINE
  5
209A
  8
SAPA_PROFIL
 10
-3.250555278756337
 20
67.600000143034549
 30
0.0
 11
-3.250555278749061
 21
69.000000143020998
 31
0.0
  0
LINE
  5
209B
  8
SAPA_PROFIL
 10
-3.250555278749061
 20
69.000000143020998
 30
0.0
 11
-2.0005552787745269
 21
69.000000143042371
 31
0.0
  0
LINE
  5
209C
  8
SAPA_PROFIL
 10
-2.0005552787745269
 20
69.000000143042371
 30
0.0
 11
-2.0005552787872598
 21
69.500000143024181
 31
0.0
  0
ARC
  5
209D
  8
SAPA_PROFIL
 10
-2.5005552787872598
 20
69.500000143024181
 30
0.0
 40
0.5
 50
0.0
 51
90.0
  0
LINE
  5
209E
  8
SAPA_PROFIL
 10
-2.5005552787872598
 20
70.000000143024181
 30
0.0
 11
-5.5005552787872602
 21
70.000000143024636
 31
0.0
  0
ARC
  5
209F
  8
SAPA_PROFIL
 10
-5.5005552787945362
 20
69.500000143024636
 30
0.0
 40
0.5
 50
89.999999999166235
 51
180.0
  0
LINE
  5
20A0
  8
SAPA_PROFIL
 10
-6.0005552787945362
 20
69.500000143024636
 30
0.0
 11
-6.0005552787945362
 21
69.000000143024636
 31
0.0
  0
LINE
  5
20A1
  8
SAPA_PROFIL
 10
-6.0005552787945362
 20
69.000000143024636
 30
0.0
 11
-4.5505552787974457
 21
69.00000014302509
 31
0.0
  0
LINE
  5
20A2
  8
SAPA_PROFIL
 10
-4.5505552787974457
 20
69.00000014302509
 30
0.0
 11
-4.5505552787974457
 21
67.15000014303223
 31
0.0
  0
ARC
  5
20A3
  8
SAPA_PROFIL
 10
-4.8505552787840989
 20
67.150000143048473
 30
0.0
 40
0.2999999999866532
 50
269.9999999968951
 51
359.9999999968951
  0
LINE
  5
20A4
  8
SAPA_PROFIL
 10
-4.8505552788003561
 20
66.850000143061834
 30
0.0
 11
-7.090747657656947
 21
66.85000014303273
 31
0.0
  0
LINE
  5
20A5
  8
SAPA_PROFIL
 10
-7.090747657656947
 20
66.85000014303273
 30
0.0
 11
-7.3505552787858051
 21
67.300000143027546
 31
0.0
  0
LINE
  5
20A6
  8
SAPA_PROFIL
 10
-7.3505552787858051
 20
67.300000143027546
 30
0.0
 11
-9.1505552787959914
 21
67.300000143027546
 31
0.0
  0
LINE
  5
20A7
  8
SAPA_PROFIL
 10
-9.1505552787959914
 20
67.300000143027546
 30
0.0
 11
-9.4103628999248485
 21
66.85000014303273
 31
0.0
  0
LINE
  5
20A8
  8
SAPA_PROFIL
 10
-9.4103628999248485
 20
66.85000014303273
 30
0.0
 11
-11.65055527878053
 21
66.850000143032943
 31
0.0
  0
ARC
  5
20A9
  8
SAPA_PROFIL
 10
-11.650555278769071
 20
67.150000143019128
 30
0.0
 40
0.29999999998617
 50
179.99999999710681
 51
269.99999999781153
  0
LINE
  5
20AA
  8
SAPA_PROFIL
 10
-11.950555278755241
 20
67.150000143034276
 30
0.0
 11
-11.95055527878435
 21
69.00000014302509
 31
0.0
  0
LINE
  5
20AB
  8
SAPA_PROFIL
 10
-11.95055527878435
 20
69.00000014302509
 30
0.0
 11
-10.50055527878726
 21
69.000000143024636
 31
0.0
  0
LINE
  5
20AC
  8
SAPA_PROFIL
 10
-10.50055527878726
 20
69.000000143024636
 30
0.0
 11
-10.50055527878726
 21
69.500000143024636
 31
0.0
  0
ARC
  5
20AD
  8
SAPA_PROFIL
 10
-11.00055527878726
 20
69.500000143024636
 30
0.0
 40
0.5
 50
0.0
 51
90.0
  0
LINE
  5
20AE
  8
SAPA_PROFIL
 10
-11.00055527878726
 20
70.000000143024636
 30
0.0
 11
-12.75055527878726
 21
70.000000143024181
 31
0.0
  0
ARC
  5
20AF
  8
SAPA_PROFIL
 10
-12.75055527878726
 20
69.500000143024181
 30
0.0
 40
0.5
 50
90.0
 51
180.0
  0
LINE
  5
20B0
  8
SAPA_PROFIL
 10
-13.25055527878726
 20
69.500000143024181
 30
0.0
 11
-13.25055527878726
 21
67.000000143024181
 31
0.0
  0
ARC
  5
20B1
  8
SAPA_PROFIL
 10
-11.25055527878726
 20
67.000000143024181
 30
0.0
 40
2.0
 50
180.0
 51
270.0
  0
LINE
  5
20B2
  8
SAPA_PROFIL
 10
-11.25055527878726
 20
65.000000143024181
 30
0.0
 11
46.44944472120892
 21
65.000000143024181
 31
0.0
  0
ARC
  5
20B3
  8
SAPA_PROFIL
 10
46.44944472120892
 20
65.300000143024363
 30
0.0
 40
0.3000000000001819
 50
270.0
 51
0.0
  0
LINE
  5
20B4
  8
SAPA_PROFIL
 10
46.749444721209102
 20
65.300000143024363
 30
0.0
 11
46.74944472121274
 21
125.8000001430232
 31
0.0
  0
LINE
  5
20B5
  8
SAPA_PROFIL
 10
44.44944472121346
 20
180.00000014303731
 30
0.0
 11
32.24944472121274
 21
180.00000014303731
 31
0.0
  0
LINE
  5
20B6
  8
SAPA_PROFIL
 10
32.24944472121274
 20
180.00000014303731
 30
0.0
 11
32.24944472121274
 21
212.0000001430374
 31
0.0
  0
LINE
  5
20B7
  8
SAPA_PROFIL
 10
32.24944472121274
 20
212.0000001430374
 30
0.0
 11
44.44944472121346
 21
212.0000001430374
 31
0.0
  0
LINE
  5
20B8
  8
SAPA_PROFIL
 10
44.44944472121346
 20
212.0000001430374
 30
0.0
 11
44.44944472121346
 21
180.00000014303731
 31
0.0
  0
ARC
  5
20B9
  8
SAPA_PROFIL
 10
33.849444721213104
 20
177.00000014303731
 30
0.0
 40
1.0
 50
90.0
 51
180.0
  0
LINE
  5
20BA
  8
SAPA_PROFIL
 10
33.849444721213104
 20
178.00000014303731
 30
0.0
 11
42.849444721213104
 21
178.00000014303731
 31
0.0
  0
ARC
  5
20BB
  8
SAPA_PROFIL
 10
42.849444721213104
 20
177.00000014303731
 30
0.0
 40
1.0
 50
0.0
 51
90.0
  0
LINE
  5
20BC
  8
SAPA_PROFIL
 10
43.849444721213104
 20
177.00000014303731
 30
0.0
 11
43.849444721213104
 21
174.50000010763529
 31
0.0
  0
LINE
  5
20BD
  8
SAPA_PROFIL
 10
43.849444721213104
 20
174.50000010763529
 30
0.0
 11
44.44944472121346
 21
174.50000010763529
 31
0.0
  0
LINE
  5
20BE
  8
SAPA_PROFIL
 10
44.44944472121346
 20
174.50000010763529
 30
0.0
 11
44.44944472121346
 21
157.00000010763529
 31
0.0
  0
LINE
  5
20BF
  8
SAPA_PROFIL
 10
44.44944472121346
 20
157.00000010763529
 30
0.0
 11
32.24944472121274
 21
157.00000010763529
 31
0.0
  0
LINE
  5
20C0
  8
SAPA_PROFIL
 10
32.24944472121274
 20
157.00000010763529
 30
0.0
 11
32.24944472121274
 21
174.50000010763529
 31
0.0
  0
LINE
  5
20C1
  8
SAPA_PROFIL
 10
32.24944472121274
 20
174.50000010763529
 30
0.0
 11
32.849444721213104
 21
174.50000010763529
 31
0.0
  0
LINE
  5
20C2
  8
SAPA_PROFIL
 10
32.849444721213104
 20
174.50000010763529
 30
0.0
 11
32.849444721213104
 21
177.00000014303731
 31
0.0
  0
LINE
  5
20C3
  8
SAPA_PROFIL
 10
26.44944472120438
 20
188.25000014302279
 30
0.0
 11
26.44944472120438
 21
186.9871192978523
 31
0.0
  0
ARC
  5
20C4
  8
SAPA_PROFIL
 10
26.749444721235719
 20
183.50000014302211
 30
0.0
 40
3.500000000000381
 50
94.917100336043305
 51
119.1099089404203
  0
ARC
  5
20C5
  8
SAPA_PROFIL
 10
24.94944472120444
 20
186.73264611805499
 30
0.0
 40
0.200000000000795
 50
180.0000000000407
 51
299.10990894045892
  0
LINE
  5
20C6
  8
SAPA_PROFIL
 10
24.749444721203648
 20
186.73264611805479
 30
0.0
 11
24.749444721203648
 21
189.7813915913832
 31
0.0
  0
ARC
  5
20C7
  8
SAPA_PROFIL
 10
25.749444721204078
 20
189.7813915913824
 30
0.0
 40
1.000000000000433
 50
115.00000000022401
 51
179.999999999956
  0
LINE
  5
20C8
  8
SAPA_PROFIL
 10
25.326826459459649
 20
190.68769937841779
 30
0.0
 11
29.17206298295855
 21
192.48076261676511
 31
0.0
  0
ARC
  5
20C9
  8
SAPA_PROFIL
 10
28.749444721213219
 20
193.3870704037991
 30
0.0
 40
0.9999999999995273
 50
295.00000000030559
 51
0.0000000000374542
  0
LINE
  5
20CA
  8
SAPA_PROFIL
 10
29.74944472121274
 20
193.3870704037997
 30
0.0
 11
29.74944472121274
 21
209.70000014302269
 31
0.0
  0
LINE
  5
20CB
  8
SAPA_PROFIL
 10
29.74944472121274
 20
209.70000014302269
 30
0.0
 11
28.24944472121274
 21
209.70000014302269
 31
0.0
  0
LINE
  5
20CC
  8
SAPA_PROFIL
 10
28.24944472121274
 20
209.70000014302269
 30
0.0
 11
28.24944472121274
 21
210.50000014302231
 31
0.0
  0
LINE
  5
20CD
  8
SAPA_PROFIL
 10
28.24944472121274
 20
210.50000014302231
 30
0.0
 11
29.74944472121274
 21
210.50000014302231
 31
0.0
  0
LINE
  5
20CE
  8
SAPA_PROFIL
 10
29.74944472121274
 20
210.50000014302231
 30
0.0
 11
29.74944472121274
 21
212.20000014302261
 31
0.0
  0
LINE
  5
20CF
  8
SAPA_PROFIL
 10
29.74944472121274
 20
212.20000014302261
 30
0.0
 11
5.1494447212141941
 21
212.50000014302231
 31
0.0
  0
LINE
  5
20D0
  8
SAPA_PROFIL
 10
5.1494447212141941
 20
212.50000014302231
 30
0.0
 11
5.1494447212141941
 21
210.80000014302249
 31
0.0
  0
LINE
  5
20D1
  8
SAPA_PROFIL
 10
5.1494447212141941
 20
210.80000014302249
 30
0.0
 11
7.1494447212141941
 21
210.80000014302249
 31
0.0
  0
LINE
  5
20D2
  8
SAPA_PROFIL
 10
7.1494447212141941
 20
210.80000014302249
 30
0.0
 11
7.1494447212141941
 21
210.00000014302239
 31
0.0
  0
LINE
  5
20D3
  8
SAPA_PROFIL
 10
7.1494447212141941
 20
210.00000014302239
 30
0.0
 11
2.9994447212218338
 21
210.00000014302239
 31
0.0
  0
ARC
  5
20D4
  8
SAPA_PROFIL
 10
2.9994447212218081
 20
210.50000014302231
 30
0.0
 40
0.4999999999999716
 50
179.9999999999967
 51
270.00000000000313
  0
LINE
  5
20D5
  8
SAPA_PROFIL
 10
2.4994447212218338
 20
210.50000014302231
 30
0.0
 11
2.4994447212109199
 21
211.0000001430046
 31
0.0
  0
LINE
  5
20D6
  8
SAPA_PROFIL
 10
2.4994447212109199
 20
211.0000001430046
 30
0.0
 11
3.749444721185454
 21
211.000000143026
 31
0.0
  0
LINE
  5
20D7
  8
SAPA_PROFIL
 10
3.749444721185454
 20
211.000000143026
 30
0.0
 11
3.7494447212200148
 21
212.40000014300469
 31
0.0
  0
ARC
  5
20D8
  8
SAPA_PROFIL
 10
3.4494447212343302
 20
212.40000014299869
 30
0.0
 40
0.299999999985685
 50
0.0000000011399108
 51
90.000000002594987
  0
LINE
  5
20D9
  8
SAPA_PROFIL
 10
3.4494447212207429
 20
212.70000014298441
 30
0.0
 11
-2.950555278784349
 21
212.7000001430122
 31
0.0
  0
ARC
  5
20DA
  8
SAPA_PROFIL
 10
-2.9505552787666569
 20
212.40000014302251
 30
0.0
 40
0.2999999999896659
 50
90.000000003379014
 51
180.00000000192159
  0
LINE
  5
20DB
  8
SAPA_PROFIL
 10
-3.250555278756337
 20
212.40000014301251
 30
0.0
 11
-3.250555278749061
 21
211.000000143026
 31
0.0
  0
LINE
  5
20DC
  8
SAPA_PROFIL
 10
-3.250555278749061
 20
211.000000143026
 30
0.0
 11
-2.0005552787745269
 21
211.0000001430046
 31
0.0
  0
LINE
  5
20DD
  8
SAPA_PROFIL
 10
-2.0005552787745269
 20
211.0000001430046
 30
0.0
 11
-2.0005552787872598
 21
210.50000014302231
 31
0.0
  0
ARC
  5
20DE
  8
SAPA_PROFIL
 10
-2.5005552787872629
 20
210.50000014302231
 30
0.0
 40
0.5000000000000036
 50
270.0000000000004
 51
0.0
  0
LINE
  5
20DF
  8
SAPA_PROFIL
 10
-2.5005552787872598
 20
210.00000014302239
 30
0.0
 11
-5.5005552787872602
 21
210.00000014302239
 31
0.0
  0
ARC
  5
20E0
  8
SAPA_PROFIL
 10
-5.5005552787945433
 20
210.50000014302231
 30
0.0
 40
0.5
 50
180.0
 51
270.00000000083458
  0
LINE
  5
20E1
  8
SAPA_PROFIL
 10
-6.0005552787945362
 20
210.50000014302231
 30
0.0
 11
-6.0005552787945362
 21
211.00000014302239
 31
0.0
  0
LINE
  5
20E2
  8
SAPA_PROFIL
 10
-6.0005552787945362
 20
211.00000014302239
 30
0.0
 11
-4.5505552787974457
 21
211.00000014302191
 31
0.0
  0
LINE
  5
20E3
  8
SAPA_PROFIL
 10
-4.5505552787974457
 20
211.00000014302191
 30
0.0
 11
-4.5505552787974457
 21
212.8500001430146
 31
0.0
  0
ARC
  5
20E4
  8
SAPA_PROFIL
 10
-4.8505552787842197
 20
212.8500001429984
 30
0.0
 40
0.2999999999867739
 50
0.0000000030831873
 51
90.000000003081809
  0
LINE
  5
20E5
  8
SAPA_PROFIL
 10
-4.8505552788003561
 20
213.15000014298519
 30
0.0
 11
-7.090747657656947
 21
213.15000014301381
 31
0.0
  0
LINE
  5
20E6
  8
SAPA_PROFIL
 10
-7.090747657656947
 20
213.15000014301381
 30
0.0
 11
-7.3505552787858051
 21
212.70000014301939
 31
0.0
  0
LINE
  5
20E7
  8
SAPA_PROFIL
 10
-7.3505552787858051
 20
212.70000014301939
 30
0.0
 11
-9.1505552787959914
 21
212.70000014301939
 31
0.0
  0
LINE
  5
20E8
  8
SAPA_PROFIL
 10
-9.1505552787959914
 20
212.70000014301939
 30
0.0
 11
-9.4103628999248485
 21
213.15000014301381
 31
0.0
  0
LINE
  5
20E9
  8
SAPA_PROFIL
 10
-9.4103628999248485
 20
213.15000014301381
 30
0.0
 11
-11.650555278781439
 21
213.15000014301381
 31
0.0
  0
ARC
  5
20EA
  8
SAPA_PROFIL
 10
-11.650555278769611
 20
212.85000014302821
 30
0.0
 40
0.29999999998563
 50
90.000000002259483
 51
180.0000000029529
  0
LINE
  5
20EB
  8
SAPA_PROFIL
 10
-11.950555278755241
 20
212.85000014301269
 30
0.0
 11
-11.95055527878435
 21
211.00000014302191
 31
0.0
  0
LINE
  5
20EC
  8
SAPA_PROFIL
 10
-11.95055527878435
 20
211.00000014302191
 30
0.0
 11
-10.50055527878726
 21
211.00000014302239
 31
0.0
  0
LINE
  5
20ED
  8
SAPA_PROFIL
 10
-10.50055527878726
 20
211.00000014302239
 30
0.0
 11
-10.50055527878726
 21
210.50000014302231
 31
0.0
  0
ARC
  5
20EE
  8
SAPA_PROFIL
 10
-11.000555278787241
 20
210.50000014302231
 30
0.0
 40
0.4999999999999858
 50
269.99999999999841
 51
0.0
  0
LINE
  5
20EF
  8
SAPA_PROFIL
 10
-11.00055527878726
 20
210.00000014302239
 30
0.0
 11
-12.75055527878726
 21
210.00000014302239
 31
0.0
  0
ARC
  5
20F0
  8
SAPA_PROFIL
 10
-12.75055527878725
 20
210.50000014302231
 30
0.0
 40
0.5
 50
180.0
 51
269.9999999999992
  0
LINE
  5
20F1
  8
SAPA_PROFIL
 10
-13.25055527878726
 20
210.50000014302231
 30
0.0
 11
-13.25055527878726
 21
213.00000014302239
 31
0.0
  0
ARC
  5
20F2
  8
SAPA_PROFIL
 10
-11.250555278787351
 20
213.0000001430225
 30
0.0
 40
1.9999999999999041
 50
89.999999999997257
 51
180.00000000000239
  0
LINE
  5
20F3
  8
SAPA_PROFIL
 10
-11.25055527878726
 20
215.00000014302239
 30
0.0
 11
46.449444721213467
 21
215.00000014302279
 31
0.0
  0
ARC
  5
20F4
  8
SAPA_PROFIL
 10
46.449444721203449
 20
214.70000014301721
 30
0.0
 40
0.3000000000056389
 50
0.0000000001737007
 51
89.999999998086565
  0
LINE
  5
20F5
  8
SAPA_PROFIL
 10
46.749444721209102
 20
214.70000014301809
 30
0.0
 11
46.74944472121274
 21
154.20000014302349
 31
0.0
  0
ARC
  5
20F6
  8
SAPA_PROFIL
 10
46.749444721210928
 20
154.0000001430235
 30
0.0
 40
0.2000000000000455
 50
89.999999999480934
 51
269.99999999947693
  0
LINE
  5
20F7
  8
SAPA_PROFIL
 10
46.749444721209102
 20
153.8000001430234
 30
0.0
 11
46.749468721209951
 21
150.21418970539639
 31
0.0
  0
ARC
  5
20F8
  8
SAPA_PROFIL
 10
45.749468721209837
 20
150.21418970539639
 30
0.0
 40
1.000000000000099
 50
225.00000000000401
 51
0.0
  0
LINE
  5
20F9
  8
SAPA_PROFIL
 10
45.042361940023277
 20
149.5070829242097
 30
0.0
 11
43.737312686854011
 21
150.81213217737849
 31
0.0
  0
ARC
  5
20FA
  8
SAPA_PROFIL
 10
43.949444721210533
 20
151.02426421173391
 30
0.0
 40
0.2999999999999692
 50
179.99999999982629
 51
224.9999999998436
  0
LINE
  5
20FB
  8
SAPA_PROFIL
 10
43.64944472121055
 20
151.02426421173479
 30
0.0
 11
43.64944472121055
 21
151.6107696584815
 31
0.0
  0
ARC
  5
20FC
  8
SAPA_PROFIL
 10
43.949444721210888
 20
151.61076965848099
 30
0.0
 40
0.3000000000003382
 50
149.9999999999049
 51
179.99999999990229
  0
LINE
  5
20FD
  8
SAPA_PROFIL
 10
43.689637100075508
 20
151.76076965848159
 30
0.0
 11
44.549444721210193
 21
153.25000014302279
 31
0.0
  0
LINE
  5
20FE
  8
SAPA_PROFIL
 10
44.549444721210193
 20
153.25000014302279
 30
0.0
 11
44.549456721210618
 21
153.70000014302261
 31
0.0
  0
ARC
  5
20FF
  8
SAPA_PROFIL
 10
44.249456721209981
 20
153.70000014302221
 30
0.0
 40
0.3000000000006295
 50
0.0000000000868503
 51
90.000000000088207
  0
LINE
  5
2100
  8
SAPA_PROFIL
 10
44.249456721209519
 20
154.00000014302279
 30
0.0
 11
40.64944472121055
 21
154.00000014302231
 31
0.0
  0
ARC
  5
2101
  8
SAPA_PROFIL
 10
40.649444721209868
 20
153.7000001430219
 30
0.0
 40
0.3000000000004093
 50
89.999999999869729
 51
179.99999999986969
  0
LINE
  5
2102
  8
SAPA_PROFIL
 10
40.349444721209473
 20
153.70000014302261
 30
0.0
 11
40.349444721209473
 21
153.25000014302231
 31
0.0
  0
LINE
  5
2103
  8
SAPA_PROFIL
 10
40.349444721209473
 20
153.25000014302231
 30
0.0
 11
41.209269458779772
 21
151.7607400119484
 31
0.0
  0
ARC
  5
2104
  8
SAPA_PROFIL
 10
40.949461837643341
 20
151.6107400119509
 30
0.0
 40
0.2999999999997129
 50
0.0036468669287298
 51
29.999999999487599
  0
LINE
  5
2105
  8
SAPA_PROFIL
 10
41.249461837035369
 20
151.61075910690141
 30
0.0
 11
41.24946888682711
 21
151.50000014302279
 31
0.0
  0
LINE
  5
2106
  8
SAPA_PROFIL
 10
41.24946888682711
 20
151.50000014302279
 30
0.0
 11
39.62775688472243
 21
151.50000014302319
 31
0.0
  0
ARC
  5
2107
  8
SAPA_PROFIL
 10
39.627756884722601
 20
152.5000001430229
 30
0.0
 40
0.9999999999996589
 50
209.99999999998849
 51
269.99999999999022
  0
LINE
  5
2108
  8
SAPA_PROFIL
 10
38.761731480938352
 20
152.0000001430233
 30
0.0
 11
37.89570607715428
 21
153.50000014302279
 31
0.0
  0
ARC
  5
2109
  8
SAPA_PROFIL
 10
37.029680673370017
 20
153.0000001430231
 30
0.0
 40
0.9999999999996857
 50
29.999999999989711
 51
89.999999999989825
  0
LINE
  5
210A
  8
SAPA_PROFIL
 10
37.029680673370201
 20
154.00000014302279
 30
0.0
 11
36.469208769053473
 21
154.00000014302279
 31
0.0
  0
ARC
  5
210B
  8
SAPA_PROFIL
 10
36.469208769053637
 20
153.0000001430231
 30
0.0
 40
0.9999999999996873
 50
90.000000000010175
 51
150.00000000001029
  0
LINE
  5
210C
  8
SAPA_PROFIL
 10
35.603183365269388
 20
153.50000014302279
 30
0.0
 11
34.73715796148349
 21
152.0000001430233
 31
0.0
  0
ARC
  5
210D
  8
SAPA_PROFIL
 10
33.871132557698857
 20
152.5000001430227
 30
0.0
 40
0.999999999999884
 50
270.00000000003178
 51
330.00000000003382
  0
LINE
  5
210E
  8
SAPA_PROFIL
 10
33.871132557699411
 20
151.50000014302279
 30
0.0
 11
32.249420555596551
 21
151.50000014302279
 31
0.0
  0
LINE
  5
210F
  8
SAPA_PROFIL
 10
32.249420555596551
 20
151.50000014302279
 30
0.0
 11
32.249427605386479
 21
151.61075910690141
 31
0.0
  0
ARC
  5
2110
  8
SAPA_PROFIL
 10
32.549427604779403
 20
151.61074001194751
 30
0.0
 40
0.3000000000006262
 50
149.99999999986139
 51
179.9963531324199
  0
LINE
  5
2111
  8
SAPA_PROFIL
 10
32.289619983643888
 20
151.7607400119484
 30
0.0
 11
33.149444721212383
 21
153.25000014302231
 31
0.0
  0
LINE
  5
2112
  8
SAPA_PROFIL
 10
33.149444721212383
 20
153.25000014302231
 30
0.0
 11
33.149444721214202
 21
153.70000014302261
 31
0.0
  0
ARC
  5
2113
  8
SAPA_PROFIL
 10
32.849444721213793
 20
153.7000001430219
 30
0.0
 40
0.3000000000004093
 50
0.0000000001302755
 51
90.000000000130271
  0
LINE
  5
2114
  8
SAPA_PROFIL
 10
32.849444721213104
 20
154.00000014302231
 30
0.0
 11
29.249432721214141
 21
154.00000014302279
 31
0.0
  0
ARC
  5
2115
  8
SAPA_PROFIL
 10
29.249432721213669
 20
153.70000014302221
 30
0.0
 40
0.3000000000006366
 50
89.999999999911793
 51
179.99999999991309
  0
LINE
  5
2116
  8
SAPA_PROFIL
 10
28.94943272121305
 20
153.70000014302261
 30
0.0
 11
28.949444721213471
 21
153.25000014302279
 31
0.0
  0
LINE
  5
2117
  8
SAPA_PROFIL
 10
28.949444721213471
 20
153.25000014302279
 30
0.0
 11
29.809252342348149
 21
151.76076965848159
 31
0.0
  0
ARC
  5
2118
  8
SAPA_PROFIL
 10
29.549444721212758
 20
151.61076965848099
 30
0.0
 40
0.3000000000003431
 50
0.0000000000977066
 51
30.000000000095049
  0
LINE
  5
2119
  8
SAPA_PROFIL
 10
29.849444721213111
 20
151.6107696584815
 30
0.0
 11
29.849444721213111
 21
151.02426421173479
 31
0.0
  0
ARC
  5
211A
  8
SAPA_PROFIL
 10
29.549444721213131
 20
151.02426421173391
 30
0.0
 40
0.2999999999999758
 50
315.00000000015638
 51
0.0000000001737007
  0
LINE
  5
211B
  8
SAPA_PROFIL
 10
29.761576755569649
 20
150.81213217737849
 30
0.0
 11
28.45652750240038
 21
149.5070829242097
 31
0.0
  0
ARC
  5
211C
  8
SAPA_PROFIL
 10
27.749420721213809
 20
150.21418970539639
 30
0.0
 40
1.0000000000000979
 50
180.0
 51
314.99999999999591
  0
LINE
  5
211D
  8
SAPA_PROFIL
 10
26.74942072121371
 20
150.21418970539639
 30
0.0
 11
26.74944472121274
 21
153.8000001430234
 31
0.0
  0
ARC
  5
211E
  8
SAPA_PROFIL
 10
26.74944472121274
 20
154.00000014302299
 30
0.0
 40
0.1999999999995907
 50
270.0
 51
90.0
  0
LINE
  5
211F
  8
SAPA_PROFIL
 10
26.74944472121274
 20
154.20000014302261
 30
0.0
 11
26.74944472121274
 21
155.5000001725723
 31
0.0
  0
ARC
  5
2120
  8
SAPA_PROFIL
 10
27.749444721068901
 20
155.50000017242829
 30
0.0
 40
0.9999999998561612
 50
89.999999991550197
 51
179.99999999174861
  0
LINE
  5
2121
  8
SAPA_PROFIL
 10
27.749444721216381
 20
156.50000017228439
 30
0.0
 11
28.74944472121274
 21
156.50000017228439
 31
0.0
  0
ARC
  5
2122
  8
SAPA_PROFIL
 10
28.74944472121274
 20
157.50000017228439
 30
0.0
 40
1.0
 50
270.0
 51
0.0
  0
LINE
  5
2123
  8
SAPA_PROFIL
 10
29.74944472121274
 20
157.50000017228439
 30
0.0
 11
29.74944472121274
 21
163.6129298822454
 31
0.0
  0
ARC
  5
2124
  8
SAPA_PROFIL
 10
28.749444721213219
 20
163.61292988224611
 30
0.0
 40
0.9999999999995239
 50
359.99999999996248
 51
64.999999999694339
  0
LINE
  5
2125
  8
SAPA_PROFIL
 10
29.17206298295855
 20
164.51923766927999
 30
0.0
 11
25.326826459459649
 21
166.3123009076273
 31
0.0
  0
ARC
  5
2126
  8
SAPA_PROFIL
 10
25.749444721204071
 20
167.21860869466269
 30
0.0
 40
1.0000000000004261
 50
180.00000000004391
 51
244.99999999977649
  0
LINE
  5
2127
  8
SAPA_PROFIL
 10
24.749444721203648
 20
167.2186086946619
 30
0.0
 11
24.749444721203648
 21
170.26735416799031
 31
0.0
  0
ARC
  5
2128
  8
SAPA_PROFIL
 10
24.949444721204429
 20
170.26735416799019
 30
0.0
 40
0.2000000000007844
 50
60.890091059535322
 51
179.9999999999674
  0
ARC
  5
2129
  8
SAPA_PROFIL
 10
26.749444721235719
 20
173.50000014302299
 30
0.0
 40
3.500000000000409
 50
240.8900910595799
 51
265.08289966395671
  0
LINE
  5
212A
  8
SAPA_PROFIL
 10
26.44944472120438
 20
170.01288098819279
 30
0.0
 11
26.44944472120438
 21
168.75000014302279
 31
0.0
  0
ARC
  5
212B
  8
SAPA_PROFIL
 10
26.949444721204369
 20
168.75000014302279
 30
0.0
 40
0.5
 50
180.0
 51
270.0
  0
LINE
  5
212C
  8
SAPA_PROFIL
 10
26.949444721204369
 20
168.25000014302279
 30
0.0
 11
29.24944472121274
 21
168.25000014302279
 31
0.0
  0
ARC
  5
212D
  8
SAPA_PROFIL
 10
29.249444721212729
 20
168.75000014302279
 30
0.0
 40
0.5
 50
270.0000000000004
 51
0.0
  0
LINE
  5
212E
  8
SAPA_PROFIL
 10
29.74944472121274
 20
168.75000014302279
 30
0.0
 11
29.74944472121274
 21
171.6972245052541
 31
0.0
  0
ARC
  5
212F
  8
SAPA_PROFIL
 10
26.749444721234699
 20
173.50000014302259
 30
0.0
 40
3.4999999999999729
 50
328.99728086542871
 51
31.002719134571279
  0
LINE
  5
2130
  8
SAPA_PROFIL
 10
29.74944472121274
 20
175.30277578079099
 30
0.0
 11
29.74944472121274
 21
181.6972245052541
 31
0.0
  0
ARC
  5
2131
  8
SAPA_PROFIL
 10
26.749444721234699
 20
183.50000014302259
 30
0.0
 40
3.4999999999999729
 50
328.99728086542871
 51
31.002719134571279
  0
LINE
  5
2132
  8
SAPA_PROFIL
 10
29.74944472121274
 20
185.30277578079111
 30
0.0
 11
29.74944472121274
 21
188.25000014302279
 31
0.0
  0
ARC
  5
2133
  8
SAPA_PROFIL
 10
29.24944472121274
 20
188.25000014302279
 30
0.0
 40
0.5
 50
0.0
 51
90.0
  0
LINE
  5
2134
  8
SAPA_PROFIL
 10
29.24944472121274
 20
188.75000014302279
 30
0.0
 11
26.949444721204369
 21
188.75000014302279
 31
0.0
  0
ARC
  5
2135
  8
SAPA_PROFIL
 10
26.949444721204369
 20
188.25000014302279
 30
0.0
 40
0.5
 50
90.0
 51
180.0
  0
ARC
  5
2136
  8
SAPA_PROFIL
 62
     4
 10
40.999444753717022
 20
151.6241669902835
 30
0.0
 40
0.3000000000003311
 50
0.0000000000977066
 51
30.000000000095731
  0
LINE
  5
2137
  8
SAPA_PROFIL
 62
     4
 10
41.259252374852387
 20
151.7741669902841
 30
0.0
 11
40.399444721210557
 21
153.26339753112941
 31
0.0
  0
LINE
  5
2138
  8
SAPA_PROFIL
 62
     4
 10
40.399444721210557
 20
153.26339753112941
 30
0.0
 11
40.399444721210557
 21
153.7000000715077
 31
0.0
  0
ARC
  5
2139
  8
SAPA_PROFIL
 62
     4
 10
40.64944472121055
 20
153.7000000715077
 30
0.0
 40
0.25
 50
90.0
 51
180.0
  0
LINE
  5
213A
  8
SAPA_PROFIL
 62
     4
 10
40.64944472121055
 20
153.9500000715077
 30
0.0
 11
44.249456721209519
 21
153.9500000715081
 31
0.0
  0
ARC
  5
213B
  8
SAPA_PROFIL
 62
     4
 10
44.249456721209533
 20
153.7000000715081
 30
0.0
 40
0.25
 50
0.0
 51
90.000000000001606
  0
LINE
  5
213C
  8
SAPA_PROFIL
 62
     4
 10
44.499456721209533
 20
153.7000000715081
 30
0.0
 11
44.499445078474992
 21
153.26339814992949
 31
0.0
  0
LINE
  5
213D
  8
SAPA_PROFIL
 62
     4
 10
44.499445078474992
 20
153.26339814992949
 30
0.0
 11
43.639637132581584
 21
151.77416710289179
 31
0.0
  0
ARC
  5
213E
  8
SAPA_PROFIL
 62
     4
 10
43.899444753716871
 20
151.62416710289131
 30
0.0
 40
0.3000000000002551
 50
149.99999999990149
 51
179.99999999990769
  0
LINE
  5
213F
  8
SAPA_PROFIL
 62
     4
 10
43.599444753716618
 20
151.6241671028917
 30
0.0
 11
43.599444753716618
 21
128.3758331116403
 31
0.0
  0
ARC
  5
2140
  8
SAPA_PROFIL
 62
     4
 10
43.899444753716871
 20
128.37583311164079
 30
0.0
 40
0.3000000000002529
 50
180.0000000000922
 51
210.00000000009851
  0
LINE
  5
2141
  8
SAPA_PROFIL
 62
     4
 10
43.639637132581584
 20
128.22583311164021
 30
0.0
 11
44.499445078474992
 21
126.73660206460249
 31
0.0
  0
LINE
  5
2142
  8
SAPA_PROFIL
 62
     4
 10
44.499445078474992
 20
126.73660206460249
 30
0.0
 11
44.499456721209533
 21
126.30000014302431
 31
0.0
  0
ARC
  5
2143
  8
SAPA_PROFIL
 62
     4
 10
44.249456721209533
 20
126.30000014302431
 30
0.0
 40
0.2499999999999929
 50
269.99999999999841
 51
0.0
  0
LINE
  5
2144
  8
SAPA_PROFIL
 62
     4
 10
44.249456721209519
 20
126.05000014302431
 30
0.0
 11
40.64944472121055
 21
126.05000014302431
 31
0.0
  0
ARC
  5
2145
  8
SAPA_PROFIL
 62
     4
 10
40.64944472121055
 20
126.30000014302431
 30
0.0
 40
0.25
 50
180.0
 51
270.0
  0
LINE
  5
2146
  8
SAPA_PROFIL
 62
     4
 10
40.399444721210557
 20
126.30000014302431
 30
0.0
 11
40.399444721210557
 21
126.73660268340259
 31
0.0
  0
LINE
  5
2147
  8
SAPA_PROFIL
 62
     4
 10
40.399444721210557
 20
126.73660268340259
 30
0.0
 11
41.259252374852387
 21
128.22583322424791
 31
0.0
  0
ARC
  5
2148
  8
SAPA_PROFIL
 62
     4
 10
40.999444753717007
 20
128.37583322424851
 30
0.0
 40
0.3000000000003431
 50
329.9999999999049
 51
359.99999999990229
  0
LINE
  5
2149
  8
SAPA_PROFIL
 62
     4
 10
41.299444753717353
 20
128.375833224248
 30
0.0
 11
41.299444753717353
 21
151.62416699028401
 31
0.0
  0
DIMENSION
  5
2165
  8
SAPA_MATT
  2
*D14
 10
-44.750555278787722
 20
244.50000000001339
 30
0.0
 11
-29.000555278787491
 21
247.00000000001339
 31
0.0
 70
     0
 13
-13.25055527878726
 23
212.99999999999321
 33
0.0
 14
-44.750555278787722
 24
205.45000000050979
 34
0.0
 50
180.0
1001
ACAD
1000
DSTYLE
1002
{
1070
   287
1070
     4
1070
    40
1040
1.0
1070
   279
1070
     1
1002
}
  0
DIMENSION
  5
2166
  8
SAPA_MATT
  2
*D13
 10
-13.25055527878726
 20
244.49999992826611
 30
0.0
 11
16.74944472121183
 21
246.99999992826611
 31
0.0
 70
     0
 13
46.749444721210921
 23
214.69999999998819
 33
0.0
 14
-13.25055527878726
 24
212.99999999999341
 34
0.0
 50
180.0
1001
ACAD
1000
DSTYLE
1002
{
1070
    40
1040
1.0
1002
}
  0
DIMENSION
  5
2167
  8
SAPA_MATT
  2
*D12
 10
46.749444721210921
 20
256.49999992826611
 30
0.0
 11
0.999444721211603
 21
258.99999992826611
 31
0.0
 70
     0
 13
-44.750555278787722
 23
205.45000000050979
 33
0.0
 14
46.749444721210921
 24
214.69999999998819
 34
0.0
 50
180.0
1001
ACAD
1000
DSTYLE
1002
{
1070
    40
1040
1.0
1002
}
  0
DIMENSION
  5
2168
  8
SAPA_MATT
  2
*D11
 10
-77.250555278787232
 20
207.00000014334731
 30
0.0
 11
-77.25055527878726
 21
211.00000014318499
 31
0.0
 70
   128
 13
-11.25055527878726
 23
215.00000014302279
 33
0.0
 14
-28.24999992884139
 24
207.00000014334731
 34
0.0
 50
270.0
1001
ACAD
1000
DSTYLE
1002
{
1070
    40
1040
1.0
1002
}
  0
DIMENSION
  5
2169
  8
SAPA_MATT
  2
*D10
 10
-77.25055527878726
 20
147.00000014336069
 30
0.0
 11
-79.750555278787274
 21
177.00000014335399
 31
0.0
 70
     0
 13
-28.24999992884139
 23
207.00000014334731
 33
0.0
 14
-13.750555278779981
 24
147.00000014336069
 34
0.0
 50
270.0
1001
ACAD
1000
DSTYLE
1002
{
1070
   287
1070
     4
1070
   271
1070
     5
1070
   345
1005
13
1070
    40
1040
1.0
1070
   279
1070
     1
1002
}
  0
DIMENSION
  5
216A
  8
SAPA_MATT
  2
*D9
 10
-77.25055527878726
 20
64.999999999995012
 30
0.0
 11
-76.490042129977383
 21
101.6422647784714
 31
0.0
 70
   128
 13
-12.58255181678828
 23
147.0000000002739
 33
0.0
 14
-11.25055527878726
 24
64.999999999994984
 34
0.0
 50
270.0
1001
ACAD
1000
DSTYLE
1002
{
1070
   287
1070
     4
1070
    40
1040
1.0
1070
   279
1070
     1
1002
}
  0
DIMENSION
  5
216B
  8
SAPA_MATT
  2
*D8
 10
-89.250555278787246
 20
215.00000007150771
 30
0.0
 11
-89.25055527878726
 21
140.00000007150851
 31
0.0
 70
   128
 13
-11.25055527878726
 23
65.000000071509248
 33
0.0
 14
-11.25055527878726
 24
215.00000007150771
 34
0.0
 50
90.0
1001
ACAD
1000
DSTYLE
1002
{
1070
    40
1040
1.0
1002
}
  0
VIEWPORT
  5
C4
 67
     1
  8
0
 10
160.5543545598442
 20
116.00969601843509
 30
0.0
 40
404.96977709277462
 41
256.8421457311839
 68
     1
 69
     1
1001
ACAD
1000
MVIEW
1002
{
1070
    16
1010
0.0
1020
0.0
1030
0.0
1010
0.0
1020
0.0
1030
1.0
1040
0.0
1040
256.8421457311839
1040
160.5543545598442
1040
116.00969601843509
1040
50.0
1040
0.0
1040
0.0
1070
     0
1070
   100
1070
     1
1070
     1
1070
     0
1070
     0
1070
     0
1070
     0
1040
0.0
1040
0.0
1040
0.0
1040
10.0
1040
10.0
1040
10.0
1040
10.0
1070
     0
1002
{
1002
}
1002
}
  0
ENDSEC
  0
EOF
