  0
SECTION
  2
HEADER
  9
$ACADVER
  1
AC1009
  9
$INSBASE
 10
0.0
 20
0.0
 30
0.0
  9
$EXTMIN
 10
-57.869466405531853
 20
7.4994446500581944
 30
-0.2
  9
$EXTMAX
 10
191.753256005927
 20
140.00000000000071
 30
0.0000000048844772
  9
$LIMMIN
 10
0.0
 20
0.0
  9
$LIMMAX
 10
790.0
 20
790.0
  9
$ORTHOMODE
 70
     0
  9
$REGENMODE
 70
     1
  9
$FILLMODE
 70
     1
  9
$QTEXTMODE
 70
     0
  9
$MIRRTEXT
 70
     1
  9
$DRAGMODE
 70
     2
  9
$LTSCALE
 40
4.0
  9
$OSMODE
 70
   167
  9
$ATTMODE
 70
     1
  9
$TEXTSIZE
 40
3.5
  9
$TRACEWID
 40
0.05
  9
$TEXTSTYLE
  7
ISO
  9
$CLAYER
  8
0
  9
$CELTYPE
  6
BYLAYER
  9
$CECOLOR
 62
   256
  9
$DIMSCALE
 40
0.0
  9
$DIMASZ
 40
3.0
  9
$DIMEXO
 40
1.5
  9
$DIMDLI
 40
10.0
  9
$DIMRND
 40
0.0
  9
$DIMDLE
 40
0.0
  9
$DIMEXE
 40
1.5
  9
$DIMTP
 40
0.0
  9
$DIMTM
 40
0.0
  9
$DIMTXT
 40
3.0
  9
$DIMCEN
 40
-5.0
  9
$DIMTSZ
 40
0.0
  9
$DIMTOL
 70
     0
  9
$DIMLIM
 70
     0
  9
$DIMTIH
 70
     0
  9
$DIMTOH
 70
     0
  9
$DIMSE1
 70
     0
  9
$DIMSE2
 70
     0
  9
$DIMTAD
 70
     1
  9
$DIMZIN
 70
     8
  9
$DIMBLK
  1

  9
$DIMASO
 70
     1
  9
$DIMSHO
 70
     1
  9
$DIMPOST
  1

  9
$DIMAPOST
  1

  9
$DIMALT
 70
     0
  9
$DIMALTD
 70
     0
  9
$DIMALTF
 40
25.399999999999999
  9
$DIMLFAC
 40
-1.0
  9
$DIMTOFL
 70
     1
  9
$DIMTVP
 40
0.0
  9
$DIMTIX
 70
     0
  9
$DIMSOXD
 70
     0
  9
$DIMSAH
 70
     0
  9
$DIMBLK1
  1

  9
$DIMBLK2
  1

  9
$DIMSTYLE
  2
MASKIN
  9
$DIMCLRD
 70
   256
  9
$DIMCLRE
 70
   256
  9
$DIMCLRT
 70
     2
  9
$DIMTFAC
 40
1.0
  9
$DIMGAP
 40
1.0
  9
$LUNITS
 70
     2
  9
$LUPREC
 70
     8
  9
$SKETCHINC
 40
0.1
  9
$FILLETRAD
 40
0.0
  9
$AUNITS
 70
     0
  9
$AUPREC
 70
     8
  9
$MENU
  1
ACAD
  9
$ELEVATION
 40
0.0
  9
$PELEVATION
 40
0.0
  9
$THICKNESS
 40
0.0
  9
$LIMCHECK
 70
     0
  9
$BLIPMODE
 70
     0
  9
$CHAMFERA
 40
0.0
  9
$CHAMFERB
 40
0.0
  9
$SKPOLY
 70
     0
  9
$TDCREATE
 40
2458299.4382186462
  9
$TDUPDATE
 40
2458302.6335743871
  9
$TDINDWG
 40
0.0187934722
  9
$TDUSRTIMER
 40
0.0187932407
  9
$USRTIMER
 70
     1
  9
$ANGBASE
 50
0.0
  9
$ANGDIR
 70
     0
  9
$PDMODE
 70
     0
  9
$PDSIZE
 40
0.0
  9
$PLINEWID
 40
0.0
  9
$COORDS
 70
     1
  9
$SPLFRAME
 70
     0
  9
$SPLINETYPE
 70
     6
  9
$SPLINESEGS
 70
     8
  9
$ATTDIA
 70
     1
  9
$ATTREQ
 70
     1
  9
$HANDLING
 70
     1
  9
$HANDSEED
  5
1636
  9
$SURFTAB1
 70
     6
  9
$SURFTAB2
 70
     6
  9
$SURFTYPE
 70
     6
  9
$SURFU
 70
     6
  9
$SURFV
 70
     6
  9
$UCSNAME
  2

  9
$UCSORG
 10
0.0
 20
0.0
 30
0.0
  9
$UCSXDIR
 10
1.0
 20
0.0
 30
0.0
  9
$UCSYDIR
 10
0.0
 20
1.0
 30
0.0
  9
$PUCSNAME
  2

  9
$PUCSORG
 10
0.0
 20
0.0
 30
0.0
  9
$PUCSXDIR
 10
1.0
 20
0.0
 30
0.0
  9
$PUCSYDIR
 10
0.0
 20
1.0
 30
0.0
  9
$USERI1
 70
     0
  9
$USERI2
 70
     0
  9
$USERI3
 70
     0
  9
$USERI4
 70
     0
  9
$USERI5
 70
     0
  9
$USERR1
 40
0.0
  9
$USERR2
 40
0.0
  9
$USERR3
 40
0.0
  9
$USERR4
 40
0.0
  9
$USERR5
 40
0.0
  9
$WORLDVIEW
 70
     1
  9
$SHADEDGE
 70
     3
  9
$SHADEDIF
 70
    70
  9
$TILEMODE
 70
     1
  9
$MAXACTVP
 70
    32
  9
$PLIMCHECK
 70
     0
  9
$PEXTMIN
 10
1.0000000000000000E+020
 20
1.0000000000000000E+020
 30
1.0000000000000000E+020
  9
$PEXTMAX
 10
-1.0000000000000000E+020
 20
-1.0000000000000000E+020
 30
-1.0000000000000000E+020
  9
$PLIMMIN
 10
-5.069427490234375
 20
-5.8737497329711914
  9
$PLIMMAX
 10
291.89889526367187
 20
204.0995779037475
  9
$UNITMODE
 70
     0
  9
$VISRETAIN
 70
     1
  9
$PLINEGEN
 70
     0
  9
$PSLTSCALE
 70
     1
  0
ENDSEC
  0
SECTION
  2
TABLES
  0
TABLE
  2
VPORT
 70
     1
  0
VPORT
  2
*ACTIVE
 70
     0
 10
0.0
 20
0.0
 11
1.0
 21
1.0
 12
66.963146592499669
 22
142.6576338939397
 13
0.0
 23
0.0
 14
1.0
 24
1.0
 15
0.0
 25
0.0
 16
0.0
 26
0.0
 36
1.0
 17
0.0
 27
0.0
 37
0.0
 40
188.47132296092499
 41
1.7265193370165739
 42
50.0
 43
0.0
 44
0.0
 50
0.0
 51
0.0
 71
     0
 72
   100
 73
     1
 74
     1
 75
     0
 76
     0
 77
     0
 78
     0
  0
ENDTAB
  0
TABLE
  2
LTYPE
 70
     1
  0
LTYPE
  2
CONTINUOUS
 70
     0
  3
Solid line
 72
    65
 73
     0
 40
0.0
  0
ENDTAB
  0
TABLE
  2
LAYER
 70
    23
  0
LAYER
  2
0
 70
     0
 62
     7
  6
CONTINUOUS
  0
LAYER
  2
DEFPOINTS
 70
     0
 62
     7
  6
CONTINUOUS
  0
LAYER
  2
SAPA_ARTIKELNR
 70
     0
 62
     4
  6
CONTINUOUS
  0
LAYER
  2
SAPA_ANSLUTNING
 70
     0
 62
     6
  6
CONTINUOUS
  0
LAYER
  2
SAPA_GLAS
 70
     0
 62
     4
  6
CONTINUOUS
  0
LAYER
  2
SAPA_FOGBAND
 70
     0
 62
     2
  6
CONTINUOUS
  0
LAYER
  2
SAPA_PROFIL
 70
     0
 62
     7
  6
CONTINUOUS
  0
LAYER
  2
SAPA_MATT
 70
     0
 62
     1
  6
CONTINUOUS
  0
ENDTAB
  0
TABLE
  2
STYLE
 70
     2
  0
STYLE
  2
STANDARD
 70
     0
 40
0.0
 41
1.0
 50
0.0
 71
     0
 42
0.2
  3
txt
  4

  0
STYLE
  2
ISO
 70
     0
 40
0.0
 41
1.0
 50
0.0
 71
     0
 42
3.5
  3
txt
  4

  0
ENDTAB
  0
TABLE
  2
VIEW
 70
     0
  0
ENDTAB
  0
TABLE
  2
UCS
 70
     0
  0
ENDTAB
  0
TABLE
  2
APPID
 70
    21
  0
APPID
  2
ACAD
 70
     0
  0
APPID
  2
ACAD_DSTYLE_DIMTEXT_FILL
 70
     0
  0
APPID
  2
ACAD_DSTYLE_DIMEXT_LENGTH
 70
     0
  0
APPID
  2
ACAD_DSTYLE_DIMEXT_ENABLED
 70
     0
  0
APPID
  2
ACAD_DSTYLE_DIM_LINETYPE
 70
     0
  0
APPID
  2
ACAD_DSTYLE_DIM_EXT1_LINETYPE
 70
     0
  0
APPID
  2
ACAD_DSTYLE_DIM_EXT2_LINETYPE
 70
     0
  0
APPID
  2
ACAD_DSTYLE_DIMJOGGED_JOGA
 70
     0
  0
APPID
  2
ACAD_DSTYLE_DIMARC_LENGTH_
 70
     0
  0
APPID
  2
ACAD_PSEXT
 70
     0
  0
APPID
  2
ACAD_MLEADERVER
 70
     0
  0
APPID
  2
ACAD_NAV_VCDISPLAY
 70
     0
  0
APPID
  2
GENIUS_GENODEF_13
 70
     0
  0
APPID
  2
RC_PROFILE
 70
     0
  0
APPID
  2
ACAECLAYERSTANDARD
 70
     0
  0
APPID
  2
GENIUS_GENOBJ-N-FIL_13
 70
     0
  0
APPID
  2
GENIUS_GENREC_14
 70
     0
  0
APPID
  2
GENIUS_GENOBJ-N-REC_13
 70
     0
  0
APPID
  2
ACCMTRANSPARENCY
 70
     0
  0
APPID
  2
GRADIENTCOLOR1ACI
 70
     0
  0
APPID
  2
GRADIENTCOLOR2ACI
 70
     0
  0
ENDTAB
  0
TABLE
  2
DIMSTYLE
 70
     2
  0
DIMSTYLE
  2
STANDARD
 70
     0
  3

  4

  5

  6

  7

 40
1.0
 41
0.18
 42
0.0625
 43
0.38
 44
0.18
 45
0.0
 46
0.0
 47
0.0
 48
0.0
140
0.18
141
0.09
142
0.0
143
25.399999999999999
144
1.0
145
0.0
146
1.0
147
0.09
 71
     0
 72
     0
 73
     1
 74
     1
 75
     0
 76
     0
 77
     0
 78
     0
170
     0
171
     2
172
     0
173
     0
174
     0
175
     0
176
     0
177
     0
178
     0
  0
DIMSTYLE
  2
MASKIN
 70
     0
  3

  4

  5

  6

  7

 40
0.0
 41
3.0
 42
1.5
 43
10.0
 44
1.5
 45
0.0
 46
0.0
 47
0.0
 48
0.0
140
3.0
141
-5.0
142
0.0
143
25.399999999999999
144
-1.0
145
0.0
146
1.0
147
1.0
 71
     0
 72
     0
 73
     0
 74
     0
 75
     0
 76
     0
 77
     1
 78
     8
170
     0
171
     0
172
     1
173
     0
174
     0
175
     0
176
   256
177
   256
178
     2
  0
ENDTAB
  0
ENDSEC
  0
SECTION
  2
BLOCKS
  0
BLOCK
  8
0
  2
$MODEL_SPACE
 70
     0
 10
0.0
 20
0.0
 30
0.0
  3
$MODEL_SPACE
  1

  0
ENDBLK
  5
37
  8
0
  0
BLOCK
 67
     1
  8
0
  2
$PAPER_SPACE
 70
     0
 10
0.0
 20
0.0
 30
0.0
  3
$PAPER_SPACE
  1

  0
ENDBLK
  5
35
 67
     1
  8
0
  0
BLOCK
  8
0
  2
*D8
 70
     1
 10
0.0
 20
0.0
 30
0.0
  3
*D8
  1

  0
LINE
  5
142B
  8
SAPA_MATT
 10
128.70000007166431
 20
59.99944465005774
 30
0.0
 11
179.7499999994206
 21
59.999444650057718
 31
0.0
  0
LINE
  5
142C
  8
SAPA_MATT
 10
137.9500000711426
 20
124.9994446500563
 30
0.0
 11
179.7499999994206
 21
124.9994446500563
 31
0.0
  0
LINE
  5
142D
  8
SAPA_MATT
 10
178.2499999994206
 20
62.999444650057718
 30
0.0
 11
178.2499999994206
 21
121.9994446500563
 31
0.0
  0
SOLID
  5
142E
  8
SAPA_MATT
 10
177.7499999994206
 20
62.999444650057718
 30
0.0
 11
178.7499999994206
 21
62.999444650057718
 31
0.0
 12
178.2499999994206
 22
59.999444650057718
 32
0.0
 13
178.2499999994206
 23
59.999444650057718
 33
0.0
  0
SOLID
  5
142F
  8
SAPA_MATT
 10
177.7499999994206
 20
121.9994446500563
 30
0.0
 11
178.7499999994206
 21
121.9994446500563
 31
0.0
 12
178.2499999994206
 22
124.9994446500563
 32
0.0
 13
178.2499999994206
 23
124.9994446500563
 33
0.0
  0
INSERT
  5
1430
  8
0
  2
*U20
 10
0.0
 20
0.0
 30
0.0
  0
POINT
  5
1431
  8
DEFPOINTS
 62
     0
 10
127.20000007166431
 20
59.99944465005774
 30
0.0
  0
POINT
  5
1432
  8
DEFPOINTS
 62
     0
 10
136.4500000711426
 20
124.9994446500563
 30
0.0
  0
POINT
  5
1433
  8
DEFPOINTS
 62
     0
 10
178.2499999994206
 20
124.9994446500563
 30
0.0
  0
ENDBLK
  5
139B
  8
0
  0
BLOCK
  8
0
  2
*D9
 70
     1
 10
0.0
 20
0.0
 30
0.0
  3
*D9
  1

  0
LINE
  5
1422
  8
SAPA_MATT
 10
137.9500000711426
 20
124.9994446500563
 30
0.0
 11
167.7499999994206
 21
124.9994446500563
 31
0.0
  0
LINE
  5
1423
  8
SAPA_MATT
 10
136.25000007114781
 20
64.999444650058194
 30
0.0
 11
167.7499999994206
 21
64.99944465005818
 31
0.0
  0
LINE
  5
1424
  8
SAPA_MATT
 10
166.2499999994206
 20
121.9994446500563
 30
0.0
 11
166.2499999994206
 21
67.99944465005818
 31
0.0
  0
SOLID
  5
1425
  8
SAPA_MATT
 10
165.7499999994206
 20
121.9994446500563
 30
0.0
 11
166.7499999994206
 21
121.9994446500563
 31
0.0
 12
166.2499999994206
 22
124.9994446500563
 32
0.0
 13
166.2499999994206
 23
124.9994446500563
 33
0.0
  0
SOLID
  5
1426
  8
SAPA_MATT
 10
165.7499999994206
 20
67.99944465005818
 30
0.0
 11
166.7499999994206
 21
67.99944465005818
 31
0.0
 12
166.2499999994206
 22
64.99944465005818
 32
0.0
 13
166.2499999994206
 23
64.99944465005818
 33
0.0
  0
INSERT
  5
1427
  8
0
  2
*U19
 10
0.0
 20
0.0
 30
0.0
  0
POINT
  5
1428
  8
DEFPOINTS
 62
     0
 10
136.4500000711426
 20
124.9994446500563
 30
0.0
  0
POINT
  5
1429
  8
DEFPOINTS
 62
     0
 10
134.75000007114781
 20
64.999444650058194
 30
0.0
  0
POINT
  5
142A
  8
DEFPOINTS
 62
     0
 10
166.2499999994206
 20
64.99944465005818
 30
0.0
  0
ENDBLK
  5
13A7
  8
0
  0
BLOCK
  8
0
  2
*D10
 70
     1
 10
0.0
 20
0.0
 30
0.0
  3
*D10
  1

  0
LINE
  5
1596
  8
SAPA_MATT
 10
136.2500000711477
 20
64.999444650058194
 30
0.0
 11
167.7500000711681
 21
64.99944465005818
 31
0.0
  0
LINE
  5
1597
  8
SAPA_MATT
 10
128.70000007166431
 20
59.99944465005774
 30
0.0
 11
167.75000007116799
 21
59.999444650057733
 31
0.0
  0
LINE
  5
1598
  8
SAPA_MATT
 10
166.2500000711681
 20
67.99944465005818
 30
0.0
 11
166.2500000711681
 21
70.99944465005818
 31
0.0
  0
LINE
  5
1599
  8
SAPA_MATT
 10
166.2500000711681
 20
56.999444650057733
 30
0.0
 11
166.2500000711681
 21
53.999444650057733
 31
0.0
  0
LINE
  5
159A
  8
SAPA_MATT
 10
166.2500000711681
 20
64.99944465005818
 30
0.0
 11
166.2500000711681
 21
59.999444650057733
 31
0.0
  0
SOLID
  5
159B
  8
SAPA_MATT
 10
165.7500000711681
 20
67.99944465005818
 30
0.0
 11
166.7500000711681
 21
67.99944465005818
 31
0.0
 12
166.2500000711681
 22
64.99944465005818
 32
0.0
 13
166.2500000711681
 23
64.99944465005818
 33
0.0
  0
SOLID
  5
159C
  8
SAPA_MATT
 10
165.75000007116799
 20
56.999444650057733
 30
0.0
 11
166.75000007116799
 21
56.999444650057733
 31
0.0
 12
166.2500000711681
 22
59.999444650057733
 32
0.0
 13
166.2500000711681
 23
59.999444650057733
 33
0.0
  0
TEXT
  8
SAPA_MATT
  40
3
  5
15B1
  62
2
  72
0
  71
0
 10
157.750
 20
57.1894
 30
0.000000
  1
5
  7
ISO
  0
POINT
  5
159E
  8
DEFPOINTS
 62
     0
 10
134.7500000711477
 20
64.999444650058194
 30
0.0
  0
POINT
  5
159F
  8
DEFPOINTS
 62
     0
 10
127.20000007166431
 20
59.99944465005774
 30
0.0
  0
POINT
  5
15A0
  8
DEFPOINTS
 62
     0
 10
166.2500000711681
 20
59.999444650057733
 30
0.0
  0
ENDBLK
  5
13B3
  8
0
  0
BLOCK
  8
0
  2
*D11
 70
     1
 10
0.0
 20
0.0
 30
0.0
  3
*D11
  1

  0
LINE
  5
140E
  8
SAPA_MATT
 10
136.75000007114781
 20
65.499444650058194
 30
0.0
 11
136.75000007114781
 21
7.4994446500581944
 31
0.0
  0
LINE
  5
140F
  8
SAPA_MATT
 10
-13.24999992885045
 20
65.499444650058194
 30
0.0
 11
-13.24999992885046
 21
7.4994446500581944
 31
0.0
  0
LINE
  5
1410
  8
SAPA_MATT
 10
133.75000007114781
 20
8.9994446500581944
 30
0.0
 11
-10.24999992885046
 21
8.9994446500581944
 31
0.0
  0
SOLID
  5
1411
  8
SAPA_MATT
 10
133.75000007114781
 20
9.4994446500581944
 30
0.0
 11
133.75000007114781
 21
8.4994446500581944
 31
0.0
 12
136.75000007114781
 22
8.9994446500581944
 32
0.0
 13
136.75000007114781
 23
8.9994446500581944
 33
0.0
  0
SOLID
  5
1412
  8
SAPA_MATT
 10
-10.24999992885046
 20
9.4994446500581944
 30
0.0
 11
-10.24999992885046
 21
8.4994446500581944
 31
0.0
 12
-13.24999992885046
 22
8.9994446500581944
 32
0.0
 13
-13.24999992885046
 23
8.9994446500581944
 33
0.0
  0
INSERT
  5
1413
  8
0
  2
*U18
 10
0.0
 20
0.0
 30
0.0
  0
POINT
  5
1414
  8
DEFPOINTS
 62
     0
 10
136.75000007114781
 20
66.999444650058194
 30
0.0
  0
POINT
  5
1415
  8
DEFPOINTS
 62
     0
 10
-13.24999992885045
 20
66.999444650058194
 30
0.0
  0
POINT
  5
1416
  8
DEFPOINTS
 62
     0
 10
-13.24999992885046
 20
8.9994446500581944
 30
0.0
  0
ENDBLK
  5
13C1
  8
0
  0
BLOCK
  8
0
  2
*D12
 70
     1
 10
0.0
 20
0.0
 30
0.0
  3
*D12
  1

  0
LINE
  5
158D
  8
SAPA_MATT
 10
68.750000071428644
 20
64.1674481120574
 30
0.0
 11
68.750000071428644
 21
19.499444650058191
 31
0.0
  0
LINE
  5
158E
  8
SAPA_MATT
 10
-13.24999992885045
 20
65.499444650058194
 30
0.0
 11
-13.24999992885046
 21
19.499444650058191
 31
0.0
  0
LINE
  5
158F
  8
SAPA_MATT
 10
65.750000071428644
 20
20.999444650058191
 30
0.0
 11
-10.24999992885046
 21
20.999444650058191
 31
0.0
  0
TEXT
  8
SAPA_MATT
  40
3
  5
15B2
  62
2
  72
0
  71
0
 10
17.3923
 20
18.9500
 30
0.000000
  1
82
  7
ISO
  0
SOLID
  5
1591
  8
SAPA_MATT
 10
65.750000071428644
 20
21.499444650058201
 30
0.0
 11
65.750000071428644
 21
20.499444650058201
 31
0.0
 12
68.750000071428644
 22
20.999444650058191
 32
0.0
 13
68.750000071428644
 23
20.999444650058191
 33
0.0
  0
SOLID
  5
1592
  8
SAPA_MATT
 10
-10.24999992885046
 20
21.499444650058201
 30
0.0
 11
-10.24999992885046
 21
20.499444650058201
 31
0.0
 12
-13.24999992885046
 22
20.999444650058191
 32
0.0
 13
-13.24999992885046
 23
20.999444650058191
 33
0.0
  0
POINT
  5
1593
  8
DEFPOINTS
 62
     0
 10
68.750000071428644
 20
65.6674481120574
 30
0.0
  0
POINT
  5
1594
  8
DEFPOINTS
 62
     0
 10
-13.24999992885045
 20
66.999444650058194
 30
0.0
  0
POINT
  5
1595
  8
DEFPOINTS
 62
     0
 10
-13.24999992885046
 20
20.999444650058191
 30
0.0
  0
ENDBLK
  5
13CD
  8
0
  0
BLOCK
  8
0
  2
*D13
 70
     1
 10
0.0
 20
0.0
 30
0.0
  3
*D13
  1

  0
LINE
  5
1584
  8
SAPA_MATT
 10
131.7500000711477
 20
63.999444650056382
 30
0.0
 11
131.7500000711477
 21
19.499444650058191
 31
0.0
  0
LINE
  5
1585
  8
SAPA_MATT
 10
68.750000071428644
 20
64.1674481120574
 30
0.0
 11
68.750000071428644
 21
19.499444650058191
 31
0.0
  0
LINE
  5
1586
  8
SAPA_MATT
 10
128.7500000711477
 20
20.999444650058191
 30
0.0
 11
71.750000071428644
 21
20.999444650058191
 31
0.0
  0
SOLID
  5
1587
  8
SAPA_MATT
 10
128.7500000711477
 20
21.499444650058201
 30
0.0
 11
128.7500000711477
 21
20.499444650058201
 31
0.0
 12
131.7500000711477
 22
20.999444650058191
 32
0.0
 13
131.7500000711477
 23
20.999444650058191
 33
0.0
  0
SOLID
  5
1588
  8
SAPA_MATT
 10
71.750000071428644
 20
21.499444650058201
 30
0.0
 11
71.750000071428644
 21
20.499444650058201
 31
0.0
 12
68.750000071428644
 22
20.999444650058191
 32
0.0
 13
68.750000071428644
 23
20.999444650058191
 33
0.0
  0
TEXT
  8
SAPA_MATT
  40
3
  5
15B3
  62
2
  72
0
  71
0
 10
94.2500
 20
18.1894
 30
0.000000
  1
63
  7
ISO
  0
POINT
  5
158A
  8
DEFPOINTS
 62
     0
 10
131.7500000711477
 20
65.499444650056375
 30
0.0
  0
POINT
  5
158B
  8
DEFPOINTS
 62
     0
 10
68.750000071428644
 20
65.6674481120574
 30
0.0
  0
POINT
  5
158C
  8
DEFPOINTS
 62
     0
 10
68.750000071428644
 20
20.999444650058191
 30
0.0
  0
ENDBLK
  5
13D9
  8
0
  0
BLOCK
  8
0
  2
*D14
 70
     1
 10
0.0
 20
0.0
 30
0.0
  3
*D14
  1

  0
LINE
  5
13F1
  8
SAPA_MATT
 10
136.75000007114781
 20
65.499444650058194
 30
0.0
 11
136.75000007114781
 21
19.499444650058191
 31
0.0
  0
LINE
  5
13F2
  8
SAPA_MATT
 10
131.75000007113391
 20
63.999444650056382
 30
0.0
 11
131.75000007113391
 21
19.499444650058191
 31
0.0
  0
LINE
  5
13F3
  8
SAPA_MATT
 10
139.75000007114781
 20
20.999444650058191
 30
0.0
 11
142.75000007114781
 21
20.999444650058191
 31
0.0
  0
LINE
  5
13F4
  8
SAPA_MATT
 10
128.75000007113391
 20
20.999444650058191
 30
0.0
 11
125.7500000711339
 21
20.999444650058191
 31
0.0
  0
LINE
  5
13F5
  8
SAPA_MATT
 10
136.75000007114781
 20
20.999444650058191
 30
0.0
 11
131.75000007113391
 21
20.999444650058191
 31
0.0
  0
SOLID
  5
13F6
  8
SAPA_MATT
 10
139.75000007114781
 20
21.499444650058201
 30
0.0
 11
139.75000007114781
 21
20.499444650058201
 31
0.0
 12
136.75000007114781
 22
20.999444650058191
 32
0.0
 13
136.75000007114781
 23
20.999444650058191
 33
0.0
  0
SOLID
  5
13F7
  8
SAPA_MATT
 10
128.75000007113391
 20
21.499444650058201
 30
0.0
 11
128.75000007113391
 21
20.499444650058201
 31
0.0
 12
131.75000007113391
 22
20.999444650058191
 32
0.0
 13
131.75000007113391
 23
20.999444650058191
 33
0.0
  0
INSERT
  5
13F8
  8
0
  2
*U17
 10
0.0
 20
0.0
 30
0.0
  0
POINT
  5
13F9
  8
DEFPOINTS
 62
     0
 10
136.75000007114781
 20
66.999444650058194
 30
0.0
  0
POINT
  5
13FA
  8
DEFPOINTS
 62
     0
 10
131.75000007113391
 20
65.499444650056375
 30
0.0
  0
POINT
  5
13FB
  8
DEFPOINTS
 62
     0
 10
131.75000007113391
 20
20.999444650058191
 30
0.0
  0
ENDBLK
  5
13E5
  8
0
  0
BLOCK
  8
0
  2
*X15
 70
     1
 10
0.0
 20
0.0
 30
0.0
  3
*X15
  1

  0
LINE
  5
148E
  8
0
 62
     0
 10
136.79522041322929
 20
76.582373814363365
 30
0.0
 11
136.75000000482791
 21
76.537153405961988
 31
0.0
  0
LINE
  5
148F
  8
0
 62
     0
 10
136.98148753969761
 20
75.646108925697988
 30
0.0
 11
136.75000001263331
 21
75.414621398633784
 31
0.0
  0
LINE
  5
1490
  8
0
 62
     0
 10
137.27875232595011
 20
74.820841696816956
 30
0.0
 11
136.75000002043879
 21
74.292089391305595
 31
0.0
  0
LINE
  5
1491
  8
0
 62
     0
 10
137.66916171149481
 20
74.088719067227913
 30
0.0
 11
136.75000002824419
 21
73.169557383977406
 31
0.0
  0
LINE
  5
1492
  8
0
 62
     0
 10
138.14481478816779
 20
73.441840128767325
 30
0.0
 11
136.7500000360497
 21
72.047025376649216
 31
0.0
  0
LINE
  5
1493
  8
0
 62
     0
 10
138.7043036963795
 20
72.878797021845386
 30
0.0
 11
136.7500000438551
 21
70.924493369321013
 31
0.0
  0
LINE
  5
1494
  8
0
 62
     0
 10
139.3521758028497
 20
72.404137113181918
 30
0.0
 11
136.75000005166061
 21
69.801961361992824
 31
0.0
  0
LINE
  5
1495
  8
0
 62
     0
 10
140.10075448227991
 20
72.030183777478456
 30
0.0
 11
136.750000059466
 21
68.679429354664634
 31
0.0
  0
LINE
  5
1496
  8
0
 62
     0
 10
140.97638578987599
 20
71.783283069940978
 30
0.0
 11
136.75000006727149
 21
67.556897347336445
 31
0.0
  0
LINE
  5
1497
  8
0
 62
     0
 10
142.0407394999244
 20
71.725104764855672
 30
0.0
 11
136.62843571591469
 21
66.312800980846049
 31
0.0
  0
LINE
  5
1498
  8
0
 62
     0
 10
146.74999999926871
 20
76.434365264200025
 30
0.0
 11
146.6736361575351
 21
76.358001422466373
 31
0.0
  0
LINE
  5
1499
  8
0
 62
     0
 10
143.51608663740919
 20
72.077919887206917
 30
0.0
 11
137.15757113263109
 21
65.719404382428749
 31
0.0
  0
LINE
  5
149A
  8
0
 62
     0
 10
146.74999999926871
 20
75.31183324906641
 30
0.0
 11
146.18999014117071
 21
74.751823390968383
 31
0.0
  0
LINE
  5
149B
  8
0
 62
     0
 10
146.74999999926871
 20
74.189301233932767
 30
0.0
 11
138.3919431583171
 21
65.831244392981048
 31
0.0
  0
LINE
  5
149C
  8
0
 62
     0
 10
146.74999999926879
 20
73.066769218799124
 30
0.0
 11
139.5650594375098
 21
65.881828657040131
 31
0.0
  0
LINE
  5
149D
  8
0
 62
     0
 10
146.74999999926871
 20
71.944237203665466
 30
0.0
 11
140.68552710069639
 21
65.879764305093076
 31
0.0
  0
LINE
  5
149E
  8
0
 62
     0
 10
146.74999999926879
 20
70.821705188531837
 30
0.0
 11
141.7598513061732
 21
65.831556495436303
 31
0.0
  0
LINE
  5
149F
  8
0
 62
     0
 10
146.74999999926871
 20
69.699173173398179
 30
0.0
 11
142.7930870015563
 21
65.742260175685743
 31
0.0
  0
LINE
  5
14A0
  8
0
 62
     0
 10
146.74999999926879
 20
68.57664115826455
 30
0.0
 11
143.78925042885371
 21
65.615891587849433
 31
0.0
  0
LINE
  5
14A1
  8
0
 62
     0
 10
146.74999999926871
 20
67.454109143130893
 30
0.0
 11
144.75159058244611
 21
65.455699726308239
 31
0.0
  0
LINE
  5
14A2
  8
0
 62
     0
 10
146.74999999926879
 20
66.331577127997264
 30
0.0
 11
145.6827748454472
 21
65.264351974175639
 31
0.0
  0
LINE
  5
14A3
  8
0
 62
     0
 10
146.74999999926871
 20
65.209045112863606
 30
0.0
 11
146.58501980963649
 21
65.04406492323136
 31
0.0
  0
LINE
  5
14A4
  8
0
 62
     0
 10
136.47034128829739
 20
65.979431857698984
 30
0.0
 11
136.77707360170939
 21
65.67269954428707
 31
0.0
  0
LINE
  5
14A5
  8
0
 62
     0
 10
136.74276971707189
 20
66.829535444058195
 30
0.0
 11
137.78821368851499
 21
65.784091472615046
 31
0.0
  0
LINE
  5
14A6
  8
0
 62
     0
 10
136.75000006457401
 20
67.944837111689736
 30
0.0
 11
138.83798918106299
 21
65.856847995200724
 31
0.0
  0
LINE
  5
14A7
  8
0
 62
     0
 10
136.7500000567685
 20
69.067369134628834
 30
0.0
 11
139.930808684764
 21
65.88656050663333
 31
0.0
  0
LINE
  5
14A8
  8
0
 62
     0
 10
136.7500000489631
 20
70.189901157567917
 30
0.0
 11
141.07226922784861
 21
65.867631978682425
 31
0.0
  0
LINE
  5
14A9
  8
0
 62
     0
 10
136.75000004115759
 20
71.312433180507043
 30
0.0
 11
142.26965153751371
 21
65.79278168415091
 31
0.0
  0
LINE
  5
14AA
  8
0
 62
     0
 10
136.75000003335219
 20
72.434965203446126
 30
0.0
 11
143.5327212642635
 21
65.652243972534833
 31
0.0
  0
LINE
  5
14AB
  8
0
 62
     0
 10
136.75000002554671
 20
73.557497226385237
 30
0.0
 11
144.87510562995121
 21
65.432391621980742
 31
0.0
  0
LINE
  5
14AC
  8
0
 62
     0
 10
136.75000001774131
 20
74.680029249324306
 30
0.0
 11
146.31685135033521
 21
65.113177916730393
 31
0.0
  0
LINE
  5
14AD
  8
0
 62
     0
 10
140.71528951161611
 20
71.837271770583143
 30
0.0
 11
146.74999999926871
 21
65.802561282930455
 31
0.0
  0
LINE
  5
14AE
  8
0
 62
     0
 10
136.7500000099358
 20
75.802561272263404
 30
0.0
 11
137.01216748122769
 21
75.540393800971444
 31
0.0
  0
LINE
  5
14AF
  8
0
 62
     0
 10
141.9547829969143
 20
71.720310300418561
 30
0.0
 11
146.74999999926871
 21
66.925093298064112
 31
0.0
  0
LINE
  5
14B0
  8
0
 62
     0
 10
136.75000000213041
 20
76.925093295202501
 30
0.0
 11
136.76437511705001
 21
76.910718180282828
 31
0.0
  0
LINE
  5
14B1
  8
0
 62
     0
 10
142.92469794820471
 20
71.872927364261855
 30
0.0
 11
146.74999999926871
 21
68.04762531319777
 31
0.0
  0
LINE
  5
14B2
  8
0
 62
     0
 10
143.7401224553837
 20
72.180034872216496
 30
0.0
 11
146.74999999926871
 21
69.170157328331413
 31
0.0
  0
LINE
  5
14B3
  8
0
 62
     0
 10
144.4424909673302
 20
72.60019837540365
 30
0.0
 11
146.74999999926879
 21
70.292689343465057
 31
0.0
  0
LINE
  5
14B4
  8
0
 62
     0
 10
145.05074311282331
 20
73.114478245044154
 30
0.0
 11
146.74999999926879
 21
71.415221358598671
 31
0.0
  0
LINE
  5
14B5
  8
0
 62
     0
 10
145.5733866468785
 20
73.714366726122606
 30
0.0
 11
146.74999999926879
 21
72.537753373732329
 31
0.0
  0
LINE
  5
14B6
  8
0
 62
     0
 10
146.01229313222609
 20
74.397992255908676
 30
0.0
 11
146.74999999926879
 21
73.660285388865944
 31
0.0
  0
LINE
  5
14B7
  8
0
 62
     0
 10
146.36341578923529
 20
75.169401614033063
 30
0.0
 11
146.74999999926871
 21
74.78281740399963
 31
0.0
  0
LINE
  5
14B8
  8
0
 62
     0
 10
146.61518585014269
 20
76.040163568259317
 30
0.0
 11
146.74999999926879
 21
75.905349419133245
 31
0.0
  0
LINE
  5
14B9
  8
0
 62
     0
 10
146.74279904953869
 20
77.035082383996965
 30
0.0
 11
146.74999999926879
 21
77.027881434266888
 31
0.0
  0
ENDBLK
  5
14BB
  8
0
  0
BLOCK
  8
0
  2
*X16
 70
     1
 10
0.0
 20
0.0
 30
0.0
  3
*X16
  1

  0
LINE
  5
14BD
  8
0
 62
     0
 10
140.22810515680061
 20
72.069598354657231
 30
0.0
 11
140.29131346244901
 21
71.960118357813812
 31
0.0
  0
LINE
  5
14BE
  8
0
 62
     0
 10
139.0374801568006
 20
74.131821347418921
 30
0.0
 11
139.43435515680059
 21
73.444413683165024
 31
0.0
  0
LINE
  5
14BF
  8
0
 62
     0
 10
137.8468551568007
 20
76.194044340180611
 30
0.0
 11
138.24373015680061
 21
75.506636675926714
 31
0.0
  0
LINE
  5
14C0
  8
0
 62
     0
 10
136.78797143577521
 20
78.028084744304223
 30
0.0
 11
137.05310515680071
 21
77.568859668688404
 31
0.0
  0
LINE
  5
14C1
  8
0
 62
     0
 10
141.41872987230451
 20
72.757005854657223
 30
0.0
 11
141.8156048723045
 21
72.069598190403326
 31
0.0
  0
LINE
  5
14C2
  8
0
 62
     0
 10
140.22810487230461
 20
74.819228847418913
 30
0.0
 11
140.62497987230449
 21
74.131821183165016
 31
0.0
  0
LINE
  5
14C3
  8
0
 62
     0
 10
139.0374798723046
 20
76.881451840180603
 30
0.0
 11
139.4343548723046
 21
76.194044175926706
 31
0.0
  0
LINE
  5
14C4
  8
0
 62
     0
 10
137.84685487230459
 20
78.943674832942293
 30
0.0
 11
138.24372987230461
 21
78.256267168688396
 31
0.0
  0
LINE
  5
14C5
  8
0
 62
     0
 10
142.60935458780841
 20
73.444413354657215
 30
0.0
 11
143.00622958780841
 21
72.757005690403304
 31
0.0
  0
LINE
  5
14C6
  8
0
 62
     0
 10
141.4187295878084
 20
75.506636347418905
 30
0.0
 11
141.81560458780839
 21
74.819228683165008
 31
0.0
  0
LINE
  5
14C7
  8
0
 62
     0
 10
140.22810458780839
 20
77.568859340180595
 30
0.0
 11
140.62497958780841
 21
76.881451675926684
 31
0.0
  0
LINE
  5
14C8
  8
0
 62
     0
 10
139.03747958780849
 20
79.631082332942285
 30
0.0
 11
139.43435458780851
 21
78.943674668688388
 31
0.0
  0
LINE
  5
14C9
  8
0
 62
     0
 10
138.12616471508599
 20
81.209525994190784
 30
0.0
 11
138.2437295878085
 21
81.005897661450078
 31
0.0
  0
LINE
  5
14CA
  8
0
 62
     0
 10
143.79997930331231
 20
74.131820854657235
 30
0.0
 11
144.19685430331231
 21
73.444413190403338
 31
0.0
  0
LINE
  5
14CB
  8
0
 62
     0
 10
142.6093543033123
 20
76.194043847418925
 30
0.0
 11
143.0062293033123
 21
75.506636183165028
 31
0.0
  0
LINE
  5
14CC
  8
0
 62
     0
 10
141.4187293033124
 20
78.256266840180615
 30
0.0
 11
141.81560430331231
 21
77.568859175926718
 31
0.0
  0
LINE
  5
14CD
  8
0
 62
     0
 10
140.22810430331239
 20
80.318489832942305
 30
0.0
 11
140.62497930331239
 21
79.631082168688408
 31
0.0
  0
LINE
  5
14CE
  8
0
 62
     0
 10
139.16983206819941
 20
82.151471112397346
 30
0.0
 11
139.4343543033124
 21
81.693305161450084
 31
0.0
  0
LINE
  5
14CF
  8
0
 62
     0
 10
144.99060401881621
 20
74.819228354657241
 30
0.0
 11
145.38747901881621
 21
74.131820690403345
 31
0.0
  0
LINE
  5
14D0
  8
0
 62
     0
 10
143.7999790188162
 20
76.881451347418931
 30
0.0
 11
144.1968540188162
 21
76.194043683165035
 31
0.0
  0
LINE
  5
14D1
  8
0
 62
     0
 10
142.60935401881619
 20
78.943674340180621
 30
0.0
 11
143.00622901881621
 21
78.256266675926724
 31
0.0
  0
LINE
  5
14D2
  8
0
 62
     0
 10
141.41872901881621
 20
81.005897332942311
 30
0.0
 11
141.8156040188162
 21
80.318489668688414
 31
0.0
  0
LINE
  5
14D3
  8
0
 62
     0
 10
140.41048074424521
 20
82.752234571142978
 30
0.0
 11
140.62497901881619
 21
82.380712661450104
 31
0.0
  0
LINE
  5
14D4
  8
0
 62
     0
 10
146.18122873432009
 20
75.506635854657219
 30
0.0
 11
146.3683067456754
 21
75.182607234010931
 31
0.0
  0
LINE
  5
14D5
  8
0
 62
     0
 10
144.9906037343201
 20
77.568858847418895
 30
0.0
 11
145.3874787343201
 21
76.881451183165012
 31
0.0
  0
LINE
  5
14D6
  8
0
 62
     0
 10
143.79997873432009
 20
79.631081840180599
 30
0.0
 11
144.1968537343202
 21
78.943674175926702
 31
0.0
  0
LINE
  5
14D7
  8
0
 62
     0
 10
142.60935373432019
 20
81.693304832942289
 30
0.0
 11
143.00622873432019
 21
81.005897168688392
 31
0.0
  0
LINE
  5
14D8
  8
0
 62
     0
 10
146.18122844982409
 20
78.256266347418915
 30
0.0
 11
146.57810344982411
 21
77.568858683165004
 31
0.0
  0
LINE
  5
14D9
  8
0
 62
     0
 10
144.99060344982411
 20
80.318489340180605
 30
0.0
 11
145.3874784498241
 21
79.631081675926708
 31
0.0
  0
LINE
  5
14DA
  8
0
 62
     0
 10
143.7999784498241
 20
82.380712332942295
 30
0.0
 11
144.19685344982409
 21
81.693304668688398
 31
0.0
  0
LINE
  5
14DB
  8
0
 62
     0
 10
137.05309519943731
 20
77.568888413120604
 30
0.0
 11
136.75628926938029
 21
77.054805462274217
 31
0.0
  0
LINE
  5
14DC
  8
0
 62
     0
 10
138.24372019943729
 20
79.631111405882294
 30
0.0
 11
137.8468451994373
 21
78.943703741628397
 31
0.0
  0
LINE
  5
14DD
  8
0
 62
     0
 10
139.4343451994373
 20
81.693334398643984
 30
0.0
 11
139.03747019943731
 21
81.005926734390087
 31
0.0
  0
LINE
  5
14DE
  8
0
 62
     0
 10
138.24371991494121
 20
76.881480913120612
 30
0.0
 11
137.8468449149413
 21
76.194073248866715
 31
0.0
  0
LINE
  5
14DF
  8
0
 62
     0
 10
139.43434491494119
 20
78.943703905882302
 30
0.0
 11
139.0374699149412
 21
78.256296241628405
 31
0.0
  0
LINE
  5
14E0
  8
0
 62
     0
 10
140.6249699149412
 20
81.005926898643992
 30
0.0
 11
140.22809491494121
 21
80.318519234390095
 31
0.0
  0
LINE
  5
14E1
  8
0
 62
     0
 10
141.75183141880169
 20
82.957708276423759
 30
0.0
 11
141.41871991494119
 21
82.380742227151785
 31
0.0
  0
LINE
  5
14E2
  8
0
 62
     0
 10
138.2437196304451
 20
74.131850420358901
 30
0.0
 11
137.96983913276469
 21
73.657475483174082
 31
0.0
  0
LINE
  5
14E3
  8
0
 62
     0
 10
139.43434463044511
 20
76.194073413120591
 30
0.0
 11
139.03746963044509
 21
75.506665748866695
 31
0.0
  0
LINE
  5
14E4
  8
0
 62
     0
 10
140.62496963044509
 20
78.256296405882281
 30
0.0
 11
140.2280946304451
 21
77.568888741628385
 31
0.0
  0
LINE
  5
14E5
  8
0
 62
     0
 10
141.8155946304451
 20
80.318519398643971
 30
0.0
 11
141.41871963044511
 21
79.631111734390075
 31
0.0
  0
LINE
  5
14E6
  8
0
 62
     0
 10
143.00621963044509
 20
82.380742391405661
 30
0.0
 11
142.60934463044509
 21
81.693334727151765
 31
0.0
  0
LINE
  5
14E7
  8
0
 62
     0
 10
139.43434434594911
 20
73.444442920358924
 30
0.0
 11
139.03746934594909
 21
72.757035256105027
 31
0.0
  0
LINE
  5
14E8
  8
0
 62
     0
 10
140.6249693459491
 20
75.506665913120614
 30
0.0
 11
140.22809434594899
 21
74.819258248866717
 31
0.0
  0
LINE
  5
14E9
  8
0
 62
     0
 10
141.81559434594899
 20
77.568888905882304
 30
0.0
 11
141.418719345949
 21
76.881481241628407
 31
0.0
  0
LINE
  5
14EA
  8
0
 62
     0
 10
143.00621934594901
 20
79.631111898643994
 30
0.0
 11
142.60934434594901
 21
78.943704234390097
 31
0.0
  0
LINE
  5
14EB
  8
0
 62
     0
 10
144.19684434594899
 20
81.693334891405684
 30
0.0
 11
143.79996934594899
 21
81.005927227151787
 31
0.0
  0
LINE
  5
14EC
  8
0
 62
     0
 10
140.62496906145299
 20
72.757035420358903
 30
0.0
 11
140.22809406145299
 21
72.069627756105021
 31
0.0
  0
LINE
  5
14ED
  8
0
 62
     0
 10
141.81559406145291
 20
74.819258413120608
 30
0.0
 11
141.418719061453
 21
74.131850748866711
 31
0.0
  0
LINE
  5
14EE
  8
0
 62
     0
 10
143.0062190614529
 20
76.881481405882283
 30
0.0
 11
142.6093440614529
 21
76.194073741628401
 31
0.0
  0
LINE
  5
14EF
  8
0
 62
     0
 10
144.19684406145291
 20
78.943704398643987
 30
0.0
 11
143.79996906145291
 21
78.256296734390091
 31
0.0
  0
LINE
  5
14F0
  8
0
 62
     0
 10
145.38746906145289
 20
81.005927391405677
 30
0.0
 11
144.9905940614529
 21
80.318519727151795
 31
0.0
  0
LINE
  5
14F1
  8
0
 62
     0
 10
141.81559377695689
 20
72.069627920358897
 30
0.0
 11
141.6124208753136
 21
71.717722131991565
 31
0.0
  0
LINE
  5
14F2
  8
0
 62
     0
 10
143.00621877695681
 20
74.131850913120573
 30
0.0
 11
142.60934377695691
 21
73.444443248866691
 31
0.0
  0
LINE
  5
14F3
  8
0
 62
     0
 10
144.1968437769568
 20
76.194073905882277
 30
0.0
 11
143.7999687769568
 21
75.50666624162838
 31
0.0
  0
LINE
  5
14F4
  8
0
 62
     0
 10
145.38746877695681
 20
78.256296898643967
 30
0.0
 11
144.99059377695681
 21
77.56888923439007
 31
0.0
  0
LINE
  5
14F5
  8
0
 62
     0
 10
146.25899468985941
 20
79.76582405990402
 30
0.0
 11
146.1812187769568
 21
79.63111222715176
 31
0.0
  0
LINE
  5
14F6
  8
0
 62
     0
 10
144.1968434924608
 20
73.444443413120609
 30
0.0
 11
143.79996849246069
 21
72.757035748866713
 31
0.0
  0
LINE
  5
14F7
  8
0
 62
     0
 10
145.3874684924607
 20
75.506666405882299
 30
0.0
 11
144.9905934924607
 21
74.819258741628403
 31
0.0
  0
LINE
  5
14F8
  8
0
 62
     0
 10
146.57809349246071
 20
77.568889398643989
 30
0.0
 11
146.18121849246069
 21
76.881481734390093
 31
0.0
  0
LINE
  5
14F9
  8
0
 62
     0
 10
143.00625007152749
 20
72.757029999980219
 30
0.0
 11
143.80000007152751
 21
72.757029999980219
 31
0.0
  0
LINE
  5
14FA
  8
0
 62
     0
 10
140.6250000715275
 20
72.757029999980219
 30
0.0
 11
141.41875007152751
 21
72.757029999980219
 31
0.0
  0
LINE
  5
14FB
  8
0
 62
     0
 10
138.85076881892761
 20
72.757029999980219
 30
0.0
 11
139.03750007152749
 21
72.757029999980219
 31
0.0
  0
LINE
  5
14FC
  8
0
 62
     0
 10
145.38750007152751
 20
74.131844999980217
 30
0.0
 11
145.8577275365966
 21
74.131844999980217
 31
0.0
  0
LINE
  5
14FD
  8
0
 62
     0
 10
143.00625007152749
 20
74.131844999980217
 30
0.0
 11
143.80000007152751
 21
74.131844999980217
 31
0.0
  0
LINE
  5
14FE
  8
0
 62
     0
 10
140.6250000715275
 20
74.131844999980217
 30
0.0
 11
141.41875007152751
 21
74.131844999980217
 31
0.0
  0
LINE
  5
14FF
  8
0
 62
     0
 10
138.2437500715275
 20
74.131844999980217
 30
0.0
 11
139.03750007152749
 21
74.131844999980217
 31
0.0
  0
LINE
  5
1500
  8
0
 62
     0
 10
145.38750007152751
 20
75.506659999980229
 30
0.0
 11
146.1812500715275
 21
75.506659999980229
 31
0.0
  0
LINE
  5
1501
  8
0
 62
     0
 10
143.00625007152749
 20
75.506659999980229
 30
0.0
 11
143.80000007152751
 21
75.506659999980229
 31
0.0
  0
LINE
  5
1502
  8
0
 62
     0
 10
140.6250000715275
 20
75.506659999980229
 30
0.0
 11
141.41875007152751
 21
75.506659999980229
 31
0.0
  0
LINE
  5
1503
  8
0
 62
     0
 10
138.2437500715275
 20
75.506659999980229
 30
0.0
 11
139.03750007152749
 21
75.506659999980229
 31
0.0
  0
LINE
  5
1504
  8
0
 62
     0
 10
145.38750007152751
 20
76.881474999980213
 30
0.0
 11
146.1812500715275
 21
76.881474999980213
 31
0.0
  0
LINE
  5
1505
  8
0
 62
     0
 10
143.00625007152749
 20
76.881474999980213
 30
0.0
 11
143.80000007152751
 21
76.881474999980213
 31
0.0
  0
LINE
  5
1506
  8
0
 62
     0
 10
140.6250000715275
 20
76.881474999980213
 30
0.0
 11
141.41875007152751
 21
76.881474999980213
 31
0.0
  0
LINE
  5
1507
  8
0
 62
     0
 10
138.2437500715275
 20
76.881474999980213
 30
0.0
 11
139.03750007152749
 21
76.881474999980213
 31
0.0
  0
LINE
  5
1508
  8
0
 62
     0
 10
145.38750007152751
 20
78.256289999980226
 30
0.0
 11
146.1812500715275
 21
78.256289999980226
 31
0.0
  0
LINE
  5
1509
  8
0
 62
     0
 10
143.00625007152749
 20
78.256289999980226
 30
0.0
 11
143.80000007152751
 21
78.256289999980226
 31
0.0
  0
LINE
  5
150A
  8
0
 62
     0
 10
140.6250000715275
 20
78.256289999980226
 30
0.0
 11
141.41875007152751
 21
78.256289999980226
 31
0.0
  0
LINE
  5
150B
  8
0
 62
     0
 10
138.2437500715275
 20
78.256289999980226
 30
0.0
 11
139.03750007152749
 21
78.256289999980226
 31
0.0
  0
LINE
  5
150C
  8
0
 62
     0
 10
145.38750007152751
 20
79.631104999980224
 30
0.0
 11
146.1812500715275
 21
79.631104999980224
 31
0.0
  0
LINE
  5
150D
  8
0
 62
     0
 10
143.00625007152749
 20
79.631104999980224
 30
0.0
 11
143.80000007152751
 21
79.631104999980224
 31
0.0
  0
LINE
  5
150E
  8
0
 62
     0
 10
140.6250000715275
 20
79.631104999980224
 30
0.0
 11
141.41875007152751
 21
79.631104999980224
 31
0.0
  0
LINE
  5
150F
  8
0
 62
     0
 10
138.2437500715275
 20
79.631104999980224
 30
0.0
 11
139.03750007152749
 21
79.631104999980224
 31
0.0
  0
LINE
  5
1510
  8
0
 62
     0
 10
145.38750007152751
 20
81.005919999980208
 30
0.0
 11
145.53777225327161
 21
81.005919999980208
 31
0.0
  0
LINE
  5
1511
  8
0
 62
     0
 10
143.00625007152749
 20
81.005919999980208
 30
0.0
 11
143.80000007152751
 21
81.005919999980208
 31
0.0
  0
LINE
  5
1512
  8
0
 62
     0
 10
140.6250000715275
 20
81.005919999980208
 30
0.0
 11
141.41875007152751
 21
81.005919999980208
 31
0.0
  0
LINE
  5
1513
  8
0
 62
     0
 10
138.2437500715275
 20
81.005919999980208
 30
0.0
 11
139.03750007152749
 21
81.005919999980208
 31
0.0
  0
LINE
  5
1514
  8
0
 62
     0
 10
143.00625007152749
 20
82.380734999980206
 30
0.0
 11
143.80000007152751
 21
82.380734999980206
 31
0.0
  0
LINE
  5
1515
  8
0
 62
     0
 10
140.6250000715275
 20
82.380734999980206
 30
0.0
 11
141.41875007152751
 21
82.380734999980206
 31
0.0
  0
ENDBLK
  5
1517
  8
0
  0
BLOCK
  8
0
  2
*U17
 70
     1
 10
0.0
 20
0.0
 30
0.0
  3
*U17
  1

  0
TEXT
  5
15A2
  8
SAPA_MATT
 62
     2
 10
133.20000007114089
 20
21.999444650058191
 30
0.0
 40
3.0
  1
5
  7
ISO
  0
ENDBLK
  5
15A4
  8
0
  0
BLOCK
  8
0
  2
*U18
 70
     1
 10
0.0
 20
0.0
 30
0.0
  3
*U18
  1

  0
TEXT
  5
15A6
  8
SAPA_MATT
 62
     2
 10
58.900000071148632
 20
9.9994446500581944
 30
0.0
 40
3.0
  1
150
  7
ISO
  0
ENDBLK
  5
15A8
  8
0
  0
BLOCK
  8
0
  2
*U19
 70
     1
 10
0.0
 20
0.0
 30
0.0
  3
*U19
  1

  0
TEXT
  5
15AA
  8
SAPA_MATT
 62
     2
 10
165.2499999994206
 20
92.899444650057305
 30
0.0
 40
3.0
  1
60
 50
90.0
  7
ISO
  0
ENDBLK
  5
15AC
  8
0
  0
BLOCK
  8
0
  2
*U20
 70
     1
 10
0.0
 20
0.0
 30
0.0
  3
*U20
  1

  0
TEXT
  5
15AE
  8
SAPA_MATT
 62
     2
 10
177.2499999994206
 20
90.399444650057077
 30
0.0
 40
3.0
  1
65
 50
90.0
  7
ISO
  0
ENDBLK
  5
15B0
  8
0
  0
ENDSEC
  0
SECTION
  2
ENTITIES
  0
LINE
  5
EC4
  8
SAPA_GLAS
 10
73.500000071298018
 20
60.199444650058688
 30
0.0
 11
74.250000071311092
 21
60.199444650058688
 31
0.0
  0
LINE
  5
EC5
  8
SAPA_GLAS
 10
74.250000071311092
 20
72.99944465006979
 30
0.0
 11
73.500000071312002
 21
72.999444650070473
 31
0.0
  0
LINE
  5
EC7
  8
SAPA_GLAS
 10
127.0000000716627
 20
60.199444650058688
 30
0.0
 11
126.25000007164959
 21
60.199444650058688
 31
0.0
  0
LINE
  5
EC8
  8
SAPA_GLAS
 10
126.25000007164959
 20
72.99944465006979
 30
0.0
 11
127.0000000716487
 21
72.999444650070473
 31
0.0
  0
LINE
  5
ECE
  8
SAPA_GLAS
 10
131.75000007113391
 20
65.499444650056375
 30
0.0
 11
128.32526777297241
 21
65.499444650056375
 31
0.0
  0
LINE
  5
ED0
  8
SAPA_GLAS
 10
68.250000071097816
 20
65.167448111918929
 30
0.0
 11
72.202063573397822
 21
65.167448111918929
 31
0.0
  0
TEXT
  5
ED1
  8
SAPA_ARTIKELNR
 10
-14.904549363083669
 20
89.437483755357562
 30
0.0000000048844772
 40
3.5
  1
D9K025
 50
90.0
  7
ISO
  0
TEXT
  5
ED2
  8
SAPA_ARTIKELNR
 10
67.453692312147268
 20
46.676457868231637
 30
0.0000000048844772
 40
3.5
  1
D9V005
 50
90.0
  7
ISO
  0
INSERT
  5
EDA
  8
SAPA_ANSLUTNING
  6
CONTINUOUS
  2
*X15
 10
0.0
 20
0.0
 30
0.0
1001
ACAD
1000
HATCH
1002
{
1070
    19
1000
ANSI37
1040
0.25
1040
0.0
1000
R14_HATCH_DATA
1000
EDA
1011
1.0
1021
0.0
1031
0.0
1021
0.0
1031
0.0
1011
0.0
1021
0.0
1031
0.0
1021
1.0
1031
0.0
1011
0.0
1021
0.0
1031
0.0
1021
0.0
1031
1.0
1040
0.0
1010
0.0
1020
0.0
1030
1.0
1000
ANSI37
1070
     0
1070
     0
1071
        1
1071
        1
1071
        6
1070
     3
1040
141.74999999926871
1040
77.336651236671059
1040
0.0
1040
5.6210574168242138
1040
0.8895123513655372
1040
1.5707963267948959
1040
2.144309431217978
1070
     1
1070
     3
1040
141.74999999926871
1040
77.336651236671059
1040
0.0
1040
5.6210574168242138
1040
0.8895123513655372
1040
2.144309431217978
1040
4.7123889803846888
1070
     1
1070
     1
1040
146.74999999926871
1040
77.336651236670363
1040
146.74999999926871
1040
64.999999999995225
1070
     2
1040
140.0782584233047
1040
40.35170788012033
1040
25.535278343560961
1040
1.3064530021775029
1040
1.7246828695821601
1070
     1
1070
     2
1040
134.75000007114781
1040
66.999444650057967
1040
1.9999999999999349
1040
5.4977871437820971
1040
6.283185307179699
1070
     1
1070
     1
1040
136.7500000711477
1040
66.999444650058194
1040
136.7499999992686
1040
77.336651236670832
1071
        0
1070
     0
1070
     1
1040
0.0
1040
0.25
1070
     0
1070
     2
1040
5.4977871437821371
1040
-2.2499999284724481
1040
124.9999999999802
1040
-0.5612660075668221
1040
-0.5612660075668221
1070
     0
1040
3.926990816987241
1040
-2.2499999284724481
1040
124.9999999999802
1040
-0.5612660075668221
1040
0.5612660075668221
1070
     0
1071
        1
1040
140.74867641851711
1040
68.579635287054316
1040
0.0
1002
}
  0
LINE
  5
EDB
  8
SAPA_ANSLUTNING
 10
-13.24999992848598
 20
140.00000000000071
 30
0.0
 11
146.74999999926871
 21
140.00000000000071
 31
0.0
  0
LINE
  5
EDC
  8
SAPA_ANSLUTNING
 10
146.74999999926871
 20
64.999999999995225
 30
0.0
 11
191.753256005927
 21
64.999999999995225
 31
0.0
  0
LINE
  5
EDD
  8
SAPA_ANSLUTNING
 10
146.74999999926871
 20
140.00000000000071
 30
0.0
 11
146.74999999926871
 21
64.999999999995225
 31
0.0
  0
INSERT
  5
EDE
  8
SAPA_ANSLUTNING
  6
CONTINUOUS
  2
*X16
 10
0.0
 20
0.0
 30
0.0
1001
ACAD
1000
HATCH
1002
{
1070
    19
1000
HEX
1040
0.25
1040
0.0
1000
ASC_BOUNDS
1070
     1
1070
     1
1070
     1
1005
EDF
1000
ASC_SEEDPOINT
1011
141.99211000934329
1021
0.0
1031
0.0
1021
77.218313547614343
1031
0.0
1000
R14_HATCH_DATA
1000
EDE
1011
1.0
1021
0.0
1031
0.0
1021
0.0
1031
0.0
1011
0.0
1021
0.0
1031
0.0
1021
1.0
1031
0.0
1011
0.0
1021
0.0
1031
0.0
1021
0.0
1031
1.0
1040
0.0
1010
0.0
1020
0.0
1030
1.0
1000
HEX
1070
     0
1070
     1
1071
        1
1071
        5
1071
        1
1070
     3
1040
141.74999999926871
1040
77.336651236671059
1040
0.0
1040
5.6210574168242138
1040
0.8895123513655372
1040
0.0
1040
6.2831853071795862
1070
     0
1071
        1
1005
EDF
1070
     0
1070
     1
1040
0.0
1040
0.25
1070
     0
1070
     3
1040
0.0
1040
-2.2499999284724481
1040
124.9999999999802
1040
0.0
1040
-1.374814999999999
1070
     2
1040
0.79375
1040
-1.587499999999999
1040
4.1887902047863914
1040
-2.2499999284724481
1040
124.9999999999802
1040
-1.190624715503902
1040
0.6874074999999996
1070
     2
1040
0.7937499999999993
1040
-1.5874999999999979
1040
5.2359877559829879
1040
-1.4562499284725161
1040
124.9999999999802
1040
-1.190624715503902
1040
-0.6874075000000001
1070
     2
1040
0.79375
1040
-1.587499999999999
1040
0.0591690278051155
1071
        1
1040
141.99211000934329
1040
77.218313547614343
1040
0.0
1002
}
  0
POLYLINE
  5
EDF
  8
SAPA_ANSLUTNING
 10
141.74999999926871
 20
82.957708653495274
 30
0.0
 66
     1
 70
     8
  0
VERTEX
  8
SAPA_ANSLUTNING
  5
15B4
 10
141.750
 20
82.9577
 30
0.000000
  70
    32
  0
VERTEX
  8
SAPA_ANSLUTNING
  5
15B5
 10
141.995
 20
82.9509
 30
0.000000
  70
    32
  0
VERTEX
  8
SAPA_ANSLUTNING
  5
15B6
 10
142.240
 20
82.9306
 30
0.000000
  70
    32
  0
VERTEX
  8
SAPA_ANSLUTNING
  5
15B7
 10
142.484
 20
82.8969
 30
0.000000
  70
    32
  0
VERTEX
  8
SAPA_ANSLUTNING
  5
15B8
 10
142.725
 20
82.8497
 30
0.000000
  70
    32
  0
VERTEX
  8
SAPA_ANSLUTNING
  5
15B9
 10
142.965
 20
82.7893
 30
0.000000
  70
    32
  0
VERTEX
  8
SAPA_ANSLUTNING
  5
15BA
 10
143.201
 20
82.7157
 30
0.000000
  70
    32
  0
VERTEX
  8
SAPA_ANSLUTNING
  5
15BB
 10
143.434
 20
82.6291
 30
0.000000
  70
    32
  0
VERTEX
  8
SAPA_ANSLUTNING
  5
15BC
 10
143.663
 20
82.5298
 30
0.000000
  70
    32
  0
VERTEX
  8
SAPA_ANSLUTNING
  5
15BD
 10
143.888
 20
82.4180
 30
0.000000
  70
    32
  0
VERTEX
  8
SAPA_ANSLUTNING
  5
15BE
 10
144.107
 20
82.2940
 30
0.000000
  70
    32
  0
VERTEX
  8
SAPA_ANSLUTNING
  5
15BF
 10
144.321
 20
82.1580
 30
0.000000
  70
    32
  0
VERTEX
  8
SAPA_ANSLUTNING
  5
15C0
 10
144.528
 20
82.0104
 30
0.000000
  70
    32
  0
VERTEX
  8
SAPA_ANSLUTNING
  5
15C1
 10
144.728
 20
81.8515
 30
0.000000
  70
    32
  0
VERTEX
  8
SAPA_ANSLUTNING
  5
15C2
 10
144.922
 20
81.6818
 30
0.000000
  70
    32
  0
VERTEX
  8
SAPA_ANSLUTNING
  5
15C3
 10
145.108
 20
81.5016
 30
0.000000
  70
    32
  0
VERTEX
  8
SAPA_ANSLUTNING
  5
15C4
 10
145.286
 20
81.3113
 30
0.000000
  70
    32
  0
VERTEX
  8
SAPA_ANSLUTNING
  5
15C5
 10
145.455
 20
81.1115
 30
0.000000
  70
    32
  0
VERTEX
  8
SAPA_ANSLUTNING
  5
15C6
 10
145.615
 20
80.9026
 30
0.000000
  70
    32
  0
VERTEX
  8
SAPA_ANSLUTNING
  5
15C7
 10
145.766
 20
80.6851
 30
0.000000
  70
    32
  0
VERTEX
  8
SAPA_ANSLUTNING
  5
15C8
 10
145.907
 20
80.4595
 30
0.000000
  70
    32
  0
VERTEX
  8
SAPA_ANSLUTNING
  5
15C9
 10
146.039
 20
80.2265
 30
0.000000
  70
    32
  0
VERTEX
  8
SAPA_ANSLUTNING
  5
15CA
 10
146.160
 20
79.9864
 30
0.000000
  70
    32
  0
VERTEX
  8
SAPA_ANSLUTNING
  5
15CB
 10
146.270
 20
79.7400
 30
0.000000
  70
    32
  0
VERTEX
  8
SAPA_ANSLUTNING
  5
15CC
 10
146.369
 20
79.4877
 30
0.000000
  70
    32
  0
VERTEX
  8
SAPA_ANSLUTNING
  5
15CD
 10
146.458
 20
79.2303
 30
0.000000
  70
    32
  0
VERTEX
  8
SAPA_ANSLUTNING
  5
15CE
 10
146.535
 20
78.9684
 30
0.000000
  70
    32
  0
VERTEX
  8
SAPA_ANSLUTNING
  5
15CF
 10
146.600
 20
78.7025
 30
0.000000
  70
    32
  0
VERTEX
  8
SAPA_ANSLUTNING
  5
15D0
 10
146.654
 20
78.4333
 30
0.000000
  70
    32
  0
VERTEX
  8
SAPA_ANSLUTNING
  5
15D1
 10
146.696
 20
78.1614
 30
0.000000
  70
    32
  0
VERTEX
  8
SAPA_ANSLUTNING
  5
15D2
 10
146.726
 20
77.8876
 30
0.000000
  70
    32
  0
VERTEX
  8
SAPA_ANSLUTNING
  5
15D3
 10
146.744
 20
77.6125
 30
0.000000
  70
    32
  0
VERTEX
  8
SAPA_ANSLUTNING
  5
15D4
 10
146.750
 20
77.3367
 30
0.000000
  70
    32
  0
VERTEX
  8
SAPA_ANSLUTNING
  5
15D5
 10
146.744
 20
77.0608
 30
0.000000
  70
    32
  0
VERTEX
  8
SAPA_ANSLUTNING
  5
15D6
 10
146.726
 20
76.7857
 30
0.000000
  70
    32
  0
VERTEX
  8
SAPA_ANSLUTNING
  5
15D7
 10
146.696
 20
76.5119
 30
0.000000
  70
    32
  0
VERTEX
  8
SAPA_ANSLUTNING
  5
15D8
 10
146.654
 20
76.2400
 30
0.000000
  70
    32
  0
VERTEX
  8
SAPA_ANSLUTNING
  5
15D9
 10
146.600
 20
75.9708
 30
0.000000
  70
    32
  0
VERTEX
  8
SAPA_ANSLUTNING
  5
15DA
 10
146.535
 20
75.7049
 30
0.000000
  70
    32
  0
VERTEX
  8
SAPA_ANSLUTNING
  5
15DB
 10
146.458
 20
75.4430
 30
0.000000
  70
    32
  0
VERTEX
  8
SAPA_ANSLUTNING
  5
15DC
 10
146.369
 20
75.1856
 30
0.000000
  70
    32
  0
VERTEX
  8
SAPA_ANSLUTNING
  5
15DD
 10
146.270
 20
74.9333
 30
0.000000
  70
    32
  0
VERTEX
  8
SAPA_ANSLUTNING
  5
15DE
 10
146.160
 20
74.6869
 30
0.000000
  70
    32
  0
VERTEX
  8
SAPA_ANSLUTNING
  5
15DF
 10
146.039
 20
74.4469
 30
0.000000
  70
    32
  0
VERTEX
  8
SAPA_ANSLUTNING
  5
15E0
 10
145.907
 20
74.2138
 30
0.000000
  70
    32
  0
VERTEX
  8
SAPA_ANSLUTNING
  5
15E1
 10
145.766
 20
73.9882
 30
0.000000
  70
    32
  0
VERTEX
  8
SAPA_ANSLUTNING
  5
15E2
 10
145.615
 20
73.7707
 30
0.000000
  70
    32
  0
VERTEX
  8
SAPA_ANSLUTNING
  5
15E3
 10
145.455
 20
73.5618
 30
0.000000
  70
    32
  0
VERTEX
  8
SAPA_ANSLUTNING
  5
15E4
 10
145.286
 20
73.3620
 30
0.000000
  70
    32
  0
VERTEX
  8
SAPA_ANSLUTNING
  5
15E5
 10
145.108
 20
73.1717
 30
0.000000
  70
    32
  0
VERTEX
  8
SAPA_ANSLUTNING
  5
15E6
 10
144.922
 20
72.9915
 30
0.000000
  70
    32
  0
VERTEX
  8
SAPA_ANSLUTNING
  5
15E7
 10
144.728
 20
72.8218
 30
0.000000
  70
    32
  0
VERTEX
  8
SAPA_ANSLUTNING
  5
15E8
 10
144.528
 20
72.6629
 30
0.000000
  70
    32
  0
VERTEX
  8
SAPA_ANSLUTNING
  5
15E9
 10
144.321
 20
72.5153
 30
0.000000
  70
    32
  0
VERTEX
  8
SAPA_ANSLUTNING
  5
15EA
 10
144.107
 20
72.3793
 30
0.000000
  70
    32
  0
VERTEX
  8
SAPA_ANSLUTNING
  5
15EB
 10
143.888
 20
72.2553
 30
0.000000
  70
    32
  0
VERTEX
  8
SAPA_ANSLUTNING
  5
15EC
 10
143.663
 20
72.1435
 30
0.000000
  70
    32
  0
VERTEX
  8
SAPA_ANSLUTNING
  5
15ED
 10
143.434
 20
72.0442
 30
0.000000
  70
    32
  0
VERTEX
  8
SAPA_ANSLUTNING
  5
15EE
 10
143.201
 20
71.9576
 30
0.000000
  70
    32
  0
VERTEX
  8
SAPA_ANSLUTNING
  5
15EF
 10
142.965
 20
71.8840
 30
0.000000
  70
    32
  0
VERTEX
  8
SAPA_ANSLUTNING
  5
15F0
 10
142.725
 20
71.8236
 30
0.000000
  70
    32
  0
VERTEX
  8
SAPA_ANSLUTNING
  5
15F1
 10
142.484
 20
71.7764
 30
0.000000
  70
    32
  0
VERTEX
  8
SAPA_ANSLUTNING
  5
15F2
 10
142.240
 20
71.7427
 30
0.000000
  70
    32
  0
VERTEX
  8
SAPA_ANSLUTNING
  5
15F3
 10
141.995
 20
71.7224
 30
0.000000
  70
    32
  0
VERTEX
  8
SAPA_ANSLUTNING
  5
15F4
 10
141.750
 20
71.7156
 30
0.000000
  70
    32
  0
VERTEX
  8
SAPA_ANSLUTNING
  5
15F5
 10
141.505
 20
71.7224
 30
0.000000
  70
    32
  0
VERTEX
  8
SAPA_ANSLUTNING
  5
15F6
 10
141.260
 20
71.7427
 30
0.000000
  70
    32
  0
VERTEX
  8
SAPA_ANSLUTNING
  5
15F7
 10
141.016
 20
71.7764
 30
0.000000
  70
    32
  0
VERTEX
  8
SAPA_ANSLUTNING
  5
15F8
 10
140.775
 20
71.8236
 30
0.000000
  70
    32
  0
VERTEX
  8
SAPA_ANSLUTNING
  5
15F9
 10
140.535
 20
71.8840
 30
0.000000
  70
    32
  0
VERTEX
  8
SAPA_ANSLUTNING
  5
15FA
 10
140.299
 20
71.9576
 30
0.000000
  70
    32
  0
VERTEX
  8
SAPA_ANSLUTNING
  5
15FB
 10
140.066
 20
72.0442
 30
0.000000
  70
    32
  0
VERTEX
  8
SAPA_ANSLUTNING
  5
15FC
 10
139.837
 20
72.1435
 30
0.000000
  70
    32
  0
VERTEX
  8
SAPA_ANSLUTNING
  5
15FD
 10
139.612
 20
72.2553
 30
0.000000
  70
    32
  0
VERTEX
  8
SAPA_ANSLUTNING
  5
15FE
 10
139.393
 20
72.3793
 30
0.000000
  70
    32
  0
VERTEX
  8
SAPA_ANSLUTNING
  5
15FF
 10
139.179
 20
72.5153
 30
0.000000
  70
    32
  0
VERTEX
  8
SAPA_ANSLUTNING
  5
1600
 10
138.972
 20
72.6629
 30
0.000000
  70
    32
  0
VERTEX
  8
SAPA_ANSLUTNING
  5
1601
 10
138.772
 20
72.8218
 30
0.000000
  70
    32
  0
VERTEX
  8
SAPA_ANSLUTNING
  5
1602
 10
138.578
 20
72.9915
 30
0.000000
  70
    32
  0
VERTEX
  8
SAPA_ANSLUTNING
  5
1603
 10
138.392
 20
73.1717
 30
0.000000
  70
    32
  0
VERTEX
  8
SAPA_ANSLUTNING
  5
1604
 10
138.214
 20
73.3620
 30
0.000000
  70
    32
  0
VERTEX
  8
SAPA_ANSLUTNING
  5
1605
 10
138.045
 20
73.5618
 30
0.000000
  70
    32
  0
VERTEX
  8
SAPA_ANSLUTNING
  5
1606
 10
137.885
 20
73.7707
 30
0.000000
  70
    32
  0
VERTEX
  8
SAPA_ANSLUTNING
  5
1607
 10
137.734
 20
73.9882
 30
0.000000
  70
    32
  0
VERTEX
  8
SAPA_ANSLUTNING
  5
1608
 10
137.593
 20
74.2138
 30
0.000000
  70
    32
  0
VERTEX
  8
SAPA_ANSLUTNING
  5
1609
 10
137.461
 20
74.4469
 30
0.000000
  70
    32
  0
VERTEX
  8
SAPA_ANSLUTNING
  5
160A
 10
137.340
 20
74.6869
 30
0.000000
  70
    32
  0
VERTEX
  8
SAPA_ANSLUTNING
  5
160B
 10
137.230
 20
74.9333
 30
0.000000
  70
    32
  0
VERTEX
  8
SAPA_ANSLUTNING
  5
160C
 10
137.131
 20
75.1856
 30
0.000000
  70
    32
  0
VERTEX
  8
SAPA_ANSLUTNING
  5
160D
 10
137.042
 20
75.4430
 30
0.000000
  70
    32
  0
VERTEX
  8
SAPA_ANSLUTNING
  5
160E
 10
136.965
 20
75.7049
 30
0.000000
  70
    32
  0
VERTEX
  8
SAPA_ANSLUTNING
  5
160F
 10
136.900
 20
75.9708
 30
0.000000
  70
    32
  0
VERTEX
  8
SAPA_ANSLUTNING
  5
1610
 10
136.846
 20
76.2400
 30
0.000000
  70
    32
  0
VERTEX
  8
SAPA_ANSLUTNING
  5
1611
 10
136.804
 20
76.5119
 30
0.000000
  70
    32
  0
VERTEX
  8
SAPA_ANSLUTNING
  5
1612
 10
136.774
 20
76.7857
 30
0.000000
  70
    32
  0
VERTEX
  8
SAPA_ANSLUTNING
  5
1613
 10
136.756
 20
77.0608
 30
0.000000
  70
    32
  0
VERTEX
  8
SAPA_ANSLUTNING
  5
1614
 10
136.750
 20
77.3367
 30
0.000000
  70
    32
  0
VERTEX
  8
SAPA_ANSLUTNING
  5
1615
 10
136.756
 20
77.6125
 30
0.000000
  70
    32
  0
VERTEX
  8
SAPA_ANSLUTNING
  5
1616
 10
136.774
 20
77.8876
 30
0.000000
  70
    32
  0
VERTEX
  8
SAPA_ANSLUTNING
  5
1617
 10
136.804
 20
78.1614
 30
0.000000
  70
    32
  0
VERTEX
  8
SAPA_ANSLUTNING
  5
1618
 10
136.846
 20
78.4333
 30
0.000000
  70
    32
  0
VERTEX
  8
SAPA_ANSLUTNING
  5
1619
 10
136.900
 20
78.7025
 30
0.000000
  70
    32
  0
VERTEX
  8
SAPA_ANSLUTNING
  5
161A
 10
136.965
 20
78.9684
 30
0.000000
  70
    32
  0
VERTEX
  8
SAPA_ANSLUTNING
  5
161B
 10
137.042
 20
79.2303
 30
0.000000
  70
    32
  0
VERTEX
  8
SAPA_ANSLUTNING
  5
161C
 10
137.131
 20
79.4877
 30
0.000000
  70
    32
  0
VERTEX
  8
SAPA_ANSLUTNING
  5
161D
 10
137.230
 20
79.7400
 30
0.000000
  70
    32
  0
VERTEX
  8
SAPA_ANSLUTNING
  5
161E
 10
137.340
 20
79.9864
 30
0.000000
  70
    32
  0
VERTEX
  8
SAPA_ANSLUTNING
  5
161F
 10
137.461
 20
80.2265
 30
0.000000
  70
    32
  0
VERTEX
  8
SAPA_ANSLUTNING
  5
1620
 10
137.593
 20
80.4595
 30
0.000000
  70
    32
  0
VERTEX
  8
SAPA_ANSLUTNING
  5
1621
 10
137.734
 20
80.6851
 30
0.000000
  70
    32
  0
VERTEX
  8
SAPA_ANSLUTNING
  5
1622
 10
137.885
 20
80.9026
 30
0.000000
  70
    32
  0
VERTEX
  8
SAPA_ANSLUTNING
  5
1623
 10
138.045
 20
81.1115
 30
0.000000
  70
    32
  0
VERTEX
  8
SAPA_ANSLUTNING
  5
1624
 10
138.214
 20
81.3113
 30
0.000000
  70
    32
  0
VERTEX
  8
SAPA_ANSLUTNING
  5
1625
 10
138.392
 20
81.5016
 30
0.000000
  70
    32
  0
VERTEX
  8
SAPA_ANSLUTNING
  5
1626
 10
138.578
 20
81.6818
 30
0.000000
  70
    32
  0
VERTEX
  8
SAPA_ANSLUTNING
  5
1627
 10
138.772
 20
81.8515
 30
0.000000
  70
    32
  0
VERTEX
  8
SAPA_ANSLUTNING
  5
1628
 10
138.972
 20
82.0104
 30
0.000000
  70
    32
  0
VERTEX
  8
SAPA_ANSLUTNING
  5
1629
 10
139.179
 20
82.1580
 30
0.000000
  70
    32
  0
VERTEX
  8
SAPA_ANSLUTNING
  5
162A
 10
139.393
 20
82.2940
 30
0.000000
  70
    32
  0
VERTEX
  8
SAPA_ANSLUTNING
  5
162B
 10
139.612
 20
82.4180
 30
0.000000
  70
    32
  0
VERTEX
  8
SAPA_ANSLUTNING
  5
162C
 10
139.837
 20
82.5298
 30
0.000000
  70
    32
  0
VERTEX
  8
SAPA_ANSLUTNING
  5
162D
 10
140.066
 20
82.6291
 30
0.000000
  70
    32
  0
VERTEX
  8
SAPA_ANSLUTNING
  5
162E
 10
140.299
 20
82.7157
 30
0.000000
  70
    32
  0
VERTEX
  8
SAPA_ANSLUTNING
  5
162F
 10
140.535
 20
82.7893
 30
0.000000
  70
    32
  0
VERTEX
  8
SAPA_ANSLUTNING
  5
1630
 10
140.775
 20
82.8497
 30
0.000000
  70
    32
  0
VERTEX
  8
SAPA_ANSLUTNING
  5
1631
 10
141.016
 20
82.8969
 30
0.000000
  70
    32
  0
VERTEX
  8
SAPA_ANSLUTNING
  5
1632
 10
141.260
 20
82.9306
 30
0.000000
  70
    32
  0
VERTEX
  8
SAPA_ANSLUTNING
  5
1633
 10
141.505
 20
82.9509
 30
0.000000
  70
    32
  0
VERTEX
  8
SAPA_ANSLUTNING
  5
1634
 10
141.750
 20
82.9577
 30
0.000000
  70
    32
  0
SEQEND
  8
SAPA_ANSLUTNING
  5
1635
  0
POLYLINE
  5
EE0
  8
SAPA_ANSLUTNING
 66
     1
 10
0.0
 20
0.0
 30
0.0
  0
VERTEX
  5
1518
  8
SAPA_ANSLUTNING
 10
138.25107154260959
 20
81.35206959054176
 30
0.0
 42
-0.8812634091771133
  0
VERTEX
  5
1519
  8
SAPA_ANSLUTNING
 10
138.74999999926871
 20
85.288837618762045
 30
0.0
  0
VERTEX
  5
151A
  8
SAPA_ANSLUTNING
 10
144.74999999926871
 20
85.288837618762045
 30
0.0
 42
0.9999999999999998
  0
VERTEX
  5
151B
  8
SAPA_ANSLUTNING
 10
144.74999999926871
 20
89.288837618762045
 30
0.0
  0
VERTEX
  5
151C
  8
SAPA_ANSLUTNING
 10
138.74999999926871
 20
89.288837618762045
 30
0.0
 42
-0.9999999999999998
  0
VERTEX
  5
151D
  8
SAPA_ANSLUTNING
 10
138.74999999926871
 20
93.288837618762045
 30
0.0
  0
VERTEX
  5
151E
  8
SAPA_ANSLUTNING
 10
144.74999999926871
 20
93.288837618762045
 30
0.0
 42
0.9999999999999998
  0
VERTEX
  5
151F
  8
SAPA_ANSLUTNING
 10
144.74999999926871
 20
97.288837618762045
 30
0.0
  0
VERTEX
  5
1520
  8
SAPA_ANSLUTNING
 10
138.74999999926871
 20
97.288837618762045
 30
0.0
 42
-0.9999999999999998
  0
VERTEX
  5
1521
  8
SAPA_ANSLUTNING
 10
138.74999999926871
 20
101.288837618762
 30
0.0
  0
VERTEX
  5
1522
  8
SAPA_ANSLUTNING
 10
144.74999999926871
 20
101.288837618762
 30
0.0
 42
0.9999999999999998
  0
VERTEX
  5
1523
  8
SAPA_ANSLUTNING
 10
144.74999999926871
 20
105.288837618762
 30
0.0
  0
VERTEX
  5
1524
  8
SAPA_ANSLUTNING
 10
138.74999999926871
 20
105.288837618762
 30
0.0
 42
-0.9999999999999998
  0
VERTEX
  5
1525
  8
SAPA_ANSLUTNING
 10
138.74999999926871
 20
109.288837618762
 30
0.0
  0
VERTEX
  5
1526
  8
SAPA_ANSLUTNING
 10
144.74999999926871
 20
109.288837618762
 30
0.0
 42
0.9999999999999998
  0
VERTEX
  5
1527
  8
SAPA_ANSLUTNING
 10
144.74999999926871
 20
113.288837618762
 30
0.0
  0
VERTEX
  5
1528
  8
SAPA_ANSLUTNING
 10
138.74999999926871
 20
113.288837618762
 30
0.0
 42
-0.9999999999999998
  0
VERTEX
  5
1529
  8
SAPA_ANSLUTNING
 10
138.74999999926871
 20
117.288837618762
 30
0.0
  0
VERTEX
  5
152A
  8
SAPA_ANSLUTNING
 10
144.74999999926871
 20
117.288837618762
 30
0.0
 42
0.9999999999999998
  0
VERTEX
  5
152B
  8
SAPA_ANSLUTNING
 10
144.74999999926871
 20
121.288837618762
 30
0.0
  0
VERTEX
  5
152C
  8
SAPA_ANSLUTNING
 10
138.74999999926871
 20
121.288837618762
 30
0.0
 42
-0.9999999999999998
  0
VERTEX
  5
152D
  8
SAPA_ANSLUTNING
 10
138.74999999926871
 20
125.288837618762
 30
0.0
  0
VERTEX
  5
152E
  8
SAPA_ANSLUTNING
 10
144.74999999926871
 20
125.288837618762
 30
0.0
 42
0.9999999999999998
  0
VERTEX
  5
152F
  8
SAPA_ANSLUTNING
 10
144.74999999926871
 20
129.28883761876199
 30
0.0
  0
VERTEX
  5
1530
  8
SAPA_ANSLUTNING
 10
138.74999999926871
 20
129.28883761876199
 30
0.0
 42
-0.9999999999999998
  0
VERTEX
  5
1531
  8
SAPA_ANSLUTNING
 10
138.74999999926871
 20
133.28883761876199
 30
0.0
  0
VERTEX
  5
1532
  8
SAPA_ANSLUTNING
 10
144.74999999926871
 20
133.28883761876199
 30
0.0
 42
0.9999999999999998
  0
VERTEX
  5
1533
  8
SAPA_ANSLUTNING
 10
144.74999999926871
 20
137.28883761876199
 30
0.0
  0
VERTEX
  5
1534
  8
SAPA_ANSLUTNING
 10
138.74999999926871
 20
137.28883761876199
 30
0.0
 42
-0.5251735434384823
  0
VERTEX
  5
1535
  8
SAPA_ANSLUTNING
 10
136.8807092066121
 20
140.00000000000071
 30
0.0
 42
-0.5251735434384823
  0
SEQEND
  5
1536
  8
SAPA_ANSLUTNING
  0
LINE
  5
EE1
  8
SAPA_ANSLUTNING
 10
-13.24999992848598
 20
64.999999999995225
 30
0.0
 11
-57.869466405531853
 21
64.999999999995225
 31
0.0
  0
LINE
  5
EE2
  8
SAPA_ANSLUTNING
 10
-13.24999992848598
 20
64.999999999995225
 30
0.0
 11
-13.24999992848598
 21
140.00000000000071
 31
0.0
  0
POLYLINE
  5
EE3
  8
SAPA_ANSLUTNING
 66
     1
 10
0.0
 20
0.0
 30
0.0
  0
VERTEX
  5
1537
  8
SAPA_ANSLUTNING
 10
-12.8132319002658
 20
137.9999999999952
 30
0.0
  0
VERTEX
  5
1538
  8
SAPA_ANSLUTNING
 10
-12.8132319002658
 20
126.9999999999952
 30
0.0
 42
0.9999999999999998
  0
VERTEX
  5
1539
  8
SAPA_ANSLUTNING
 10
-8.8132319002658051
 20
126.9999999999952
 30
0.0
  0
VERTEX
  5
153A
  8
SAPA_ANSLUTNING
 10
-8.8132319002658051
 20
137.9999999999952
 30
0.0
 42
-0.9999999999999998
  0
VERTEX
  5
153B
  8
SAPA_ANSLUTNING
 10
-4.8132319002658051
 20
137.9999999999952
 30
0.0
  0
VERTEX
  5
153C
  8
SAPA_ANSLUTNING
 10
-4.8132319002658051
 20
126.9999999999952
 30
0.0
 42
0.9999999999999998
  0
VERTEX
  5
153D
  8
SAPA_ANSLUTNING
 10
-0.8132319002658051
 20
126.9999999999952
 30
0.0
  0
VERTEX
  5
153E
  8
SAPA_ANSLUTNING
 10
-0.8132319002658051
 20
137.9999999999952
 30
0.0
 42
-0.9999999999999998
  0
VERTEX
  5
153F
  8
SAPA_ANSLUTNING
 10
3.1867680997341941
 20
137.9999999999952
 30
0.0
  0
VERTEX
  5
1540
  8
SAPA_ANSLUTNING
 10
3.1867680997341941
 20
126.9999999999952
 30
0.0
 42
0.9999999999999998
  0
VERTEX
  5
1541
  8
SAPA_ANSLUTNING
 10
7.1867680997341941
 20
126.9999999999952
 30
0.0
  0
VERTEX
  5
1542
  8
SAPA_ANSLUTNING
 10
7.1867680997341941
 20
137.9999999999952
 30
0.0
 42
-0.9999999999999998
  0
VERTEX
  5
1543
  8
SAPA_ANSLUTNING
 10
11.18676809973419
 20
137.9999999999952
 30
0.0
  0
VERTEX
  5
1544
  8
SAPA_ANSLUTNING
 10
11.18676809973419
 20
126.9999999999952
 30
0.0
 42
0.9999999999999998
  0
VERTEX
  5
1545
  8
SAPA_ANSLUTNING
 10
15.18676809973419
 20
126.9999999999952
 30
0.0
  0
VERTEX
  5
1546
  8
SAPA_ANSLUTNING
 10
15.18676809973419
 20
137.9999999999952
 30
0.0
 42
-0.9999999999999998
  0
VERTEX
  5
1547
  8
SAPA_ANSLUTNING
 10
19.186768099734191
 20
137.9999999999952
 30
0.0
  0
VERTEX
  5
1548
  8
SAPA_ANSLUTNING
 10
19.186768099734191
 20
126.9999999999952
 30
0.0
 42
0.9999999999999998
  0
VERTEX
  5
1549
  8
SAPA_ANSLUTNING
 10
23.186768099734191
 20
126.9999999999952
 30
0.0
  0
VERTEX
  5
154A
  8
SAPA_ANSLUTNING
 10
23.186768099734191
 20
137.9999999999952
 30
0.0
 42
-0.9999999999999998
  0
VERTEX
  5
154B
  8
SAPA_ANSLUTNING
 10
27.186768099734199
 20
137.9999999999952
 30
0.0
  0
VERTEX
  5
154C
  8
SAPA_ANSLUTNING
 10
27.186768099734199
 20
126.9999999999952
 30
0.0
 42
0.9999999999999998
  0
VERTEX
  5
154D
  8
SAPA_ANSLUTNING
 10
31.186768099734199
 20
126.9999999999952
 30
0.0
  0
VERTEX
  5
154E
  8
SAPA_ANSLUTNING
 10
31.186768099734199
 20
137.9999999999952
 30
0.0
 42
-0.9999999999999998
  0
VERTEX
  5
154F
  8
SAPA_ANSLUTNING
 10
35.186768099734202
 20
137.9999999999952
 30
0.0
  0
VERTEX
  5
1550
  8
SAPA_ANSLUTNING
 10
35.186768099734202
 20
126.9999999999952
 30
0.0
 42
0.9999999999999998
  0
VERTEX
  5
1551
  8
SAPA_ANSLUTNING
 10
39.186768099734188
 20
126.9999999999952
 30
0.0
  0
VERTEX
  5
1552
  8
SAPA_ANSLUTNING
 10
39.186768099734188
 20
137.9999999999952
 30
0.0
 42
-0.9999999999999998
  0
VERTEX
  5
1553
  8
SAPA_ANSLUTNING
 10
43.186768099734188
 20
137.9999999999952
 30
0.0
  0
VERTEX
  5
1554
  8
SAPA_ANSLUTNING
 10
43.186768099734188
 20
126.9999999999952
 30
0.0
 42
0.9999999999999998
  0
VERTEX
  5
1555
  8
SAPA_ANSLUTNING
 10
47.186768099734188
 20
126.9999999999952
 30
0.0
  0
VERTEX
  5
1556
  8
SAPA_ANSLUTNING
 10
47.186768099734188
 20
137.9999999999952
 30
0.0
 42
-0.9999999999999998
  0
VERTEX
  5
1557
  8
SAPA_ANSLUTNING
 10
51.186768099734188
 20
137.9999999999952
 30
0.0
  0
VERTEX
  5
1558
  8
SAPA_ANSLUTNING
 10
51.186768099734188
 20
126.9999999999952
 30
0.0
 42
0.9999999999999998
  0
VERTEX
  5
1559
  8
SAPA_ANSLUTNING
 10
55.186768099734202
 20
126.9999999999952
 30
0.0
  0
VERTEX
  5
155A
  8
SAPA_ANSLUTNING
 10
55.186768099734202
 20
137.9999999999952
 30
0.0
 42
-0.9999999999999429
  0
VERTEX
  5
155B
  8
SAPA_ANSLUTNING
 10
59.186768099733968
 20
137.9999999999954
 30
0.0
  0
VERTEX
  5
155C
  8
SAPA_ANSLUTNING
 10
59.186768099734188
 20
126.9999999999952
 30
0.0
 42
0.9999999999999998
  0
VERTEX
  5
155D
  8
SAPA_ANSLUTNING
 10
63.186768099734188
 20
126.9999999999952
 30
0.0
  0
VERTEX
  5
155E
  8
SAPA_ANSLUTNING
 10
63.186768099734081
 20
137.9999999999952
 30
0.0
 42
-0.9999999999999998
  0
VERTEX
  5
155F
  8
SAPA_ANSLUTNING
 10
67.186768099734081
 20
137.9999999999952
 30
0.0
  0
VERTEX
  5
1560
  8
SAPA_ANSLUTNING
 10
67.186768099734081
 20
126.9999999999952
 30
0.0
 42
0.9999999999999998
  0
VERTEX
  5
1561
  8
SAPA_ANSLUTNING
 10
71.186768099734081
 20
126.9999999999952
 30
0.0
  0
VERTEX
  5
1562
  8
SAPA_ANSLUTNING
 10
71.186768099734081
 20
137.9999999999952
 30
0.0
 42
-0.9999999999999998
  0
VERTEX
  5
1563
  8
SAPA_ANSLUTNING
 10
75.186768099734081
 20
137.9999999999952
 30
0.0
  0
VERTEX
  5
1564
  8
SAPA_ANSLUTNING
 10
75.186768099734081
 20
126.9999999999952
 30
0.0
 42
0.9999999999999998
  0
VERTEX
  5
1565
  8
SAPA_ANSLUTNING
 10
79.186768099734081
 20
126.9999999999952
 30
0.0
  0
VERTEX
  5
1566
  8
SAPA_ANSLUTNING
 10
79.186768099734081
 20
137.9999999999952
 30
0.0
 42
-0.9999999999999998
  0
VERTEX
  5
1567
  8
SAPA_ANSLUTNING
 10
83.186768099734095
 20
137.9999999999952
 30
0.0
  0
VERTEX
  5
1568
  8
SAPA_ANSLUTNING
 10
83.186768099734095
 20
126.9999999999952
 30
0.0
 42
0.9999999999999998
  0
VERTEX
  5
1569
  8
SAPA_ANSLUTNING
 10
87.186768099734067
 20
126.9999999999952
 30
0.0
  0
VERTEX
  5
156A
  8
SAPA_ANSLUTNING
 10
87.186768099734067
 20
137.9999999999952
 30
0.0
 42
-0.9999999999999998
  0
VERTEX
  5
156B
  8
SAPA_ANSLUTNING
 10
91.186768099734081
 20
137.9999999999952
 30
0.0
  0
VERTEX
  5
156C
  8
SAPA_ANSLUTNING
 10
91.186768099734081
 20
126.9999999999952
 30
0.0
 42
0.9999999999999998
  0
VERTEX
  5
156D
  8
SAPA_ANSLUTNING
 10
95.186768099734081
 20
126.9999999999952
 30
0.0
  0
VERTEX
  5
156E
  8
SAPA_ANSLUTNING
 10
95.186768099734081
 20
137.9999999999952
 30
0.0
 42
-0.9999999999999998
  0
VERTEX
  5
156F
  8
SAPA_ANSLUTNING
 10
99.186768099734081
 20
137.9999999999952
 30
0.0
  0
VERTEX
  5
1570
  8
SAPA_ANSLUTNING
 10
99.186768099734081
 20
126.9999999999952
 30
0.0
 42
0.9999999999999998
  0
VERTEX
  5
1571
  8
SAPA_ANSLUTNING
 10
103.1867680997341
 20
126.9999999999952
 30
0.0
  0
VERTEX
  5
1572
  8
SAPA_ANSLUTNING
 10
103.1867680997341
 20
137.9999999999952
 30
0.0
 42
-0.9999999999999998
  0
VERTEX
  5
1573
  8
SAPA_ANSLUTNING
 10
107.1867680997341
 20
137.9999999999952
 30
0.0
  0
VERTEX
  5
1574
  8
SAPA_ANSLUTNING
 10
107.1867680997341
 20
126.9999999999952
 30
0.0
 42
0.9999999999999998
  0
VERTEX
  5
1575
  8
SAPA_ANSLUTNING
 10
111.1867680997341
 20
126.9999999999952
 30
0.0
  0
VERTEX
  5
1576
  8
SAPA_ANSLUTNING
 10
111.1867680997341
 20
137.9999999999952
 30
0.0
 42
-0.9999999999999998
  0
VERTEX
  5
1577
  8
SAPA_ANSLUTNING
 10
115.1867680997341
 20
137.9999999999952
 30
0.0
  0
VERTEX
  5
1578
  8
SAPA_ANSLUTNING
 10
115.1867680997341
 20
126.9999999999952
 30
0.0
 42
0.9999999999999998
  0
VERTEX
  5
1579
  8
SAPA_ANSLUTNING
 10
119.186768099734
 20
126.9999999999952
 30
0.0
  0
VERTEX
  5
157A
  8
SAPA_ANSLUTNING
 10
119.186768099734
 20
137.9999999999952
 30
0.0
 42
-0.9999999999999998
  0
VERTEX
  5
157B
  8
SAPA_ANSLUTNING
 10
123.1867680997341
 20
137.9999999999952
 30
0.0
  0
VERTEX
  5
157C
  8
SAPA_ANSLUTNING
 10
123.1867680997341
 20
126.9999999999952
 30
0.0
 42
0.9999999999999998
  0
VERTEX
  5
157D
  8
SAPA_ANSLUTNING
 10
127.1867680997341
 20
126.9999999999952
 30
0.0
  0
VERTEX
  5
157E
  8
SAPA_ANSLUTNING
 10
127.1867680997341
 20
137.9999999999952
 30
0.0
 42
-0.9999999999999998
  0
VERTEX
  5
157F
  8
SAPA_ANSLUTNING
 10
131.18676809973411
 20
137.9999999999952
 30
0.0
  0
VERTEX
  5
1580
  8
SAPA_ANSLUTNING
 10
131.18676809973411
 20
126.9999999999952
 30
0.0
 42
0.9999999999999998
  0
VERTEX
  5
1581
  8
SAPA_ANSLUTNING
 10
135.18676809973411
 20
126.9999999999952
 30
0.0
  0
VERTEX
  5
1582
  8
SAPA_ANSLUTNING
 10
135.18676809973411
 20
137.9999999999952
 30
0.0
  0
SEQEND
  5
1583
  8
SAPA_ANSLUTNING
  0
ARC
  5
EE4
  8
SAPA_ANSLUTNING
 10
140.07825842330411
 20
40.351707880119193
 30
0.0
 40
25.53527834356208
 50
74.854243156964273
 51
98.81704942557036
  0
LINE
  5
EEB
  8
SAPA_FOGBAND
 10
-9.6495673972995064
 20
70.088045158835939
 30
0.0
 11
-4.6533640691231994
 21
70.088045158833211
 31
0.0
  0
LINE
  5
EEC
  8
SAPA_FOGBAND
 10
-4.6533640691231994
 20
69.938045158834484
 30
0.0
 11
-9.6495673972995064
 21
69.938045158834484
 31
0.0
  0
LINE
  5
EF1
  8
SAPA_FOGBAND
 10
-9.6495673972995064
 20
78.588045158840487
 30
0.0
 11
-5.075040543645172
 21
78.588045158836849
 31
0.0
  0
LINE
  5
EF2
  8
SAPA_FOGBAND
 10
-5.075040543645172
 20
78.438045158839032
 30
0.0
 11
-9.6495673972995064
 21
78.438045158839032
 31
0.0
  0
LINE
  5
EF6
  8
SAPA_FOGBAND
 10
56.1495675389342
 20
70.088045158835939
 30
0.0
 11
51.250898448405678
 21
70.088045158833211
 31
0.0
  0
LINE
  5
EF7
  8
SAPA_FOGBAND
 10
51.250898448405678
 20
69.938045158834484
 30
0.0
 11
56.1495675389342
 21
69.938045158834484
 31
0.0
  0
LINE
  5
EFB
  8
SAPA_FOGBAND
 10
56.1495675389342
 20
78.588045158840487
 30
0.0
 11
51.68574756573026
 21
78.588045158836849
 31
0.0
  0
LINE
  5
EFC
  8
SAPA_FOGBAND
 10
51.68574756573026
 20
78.438045158839032
 30
0.0
 11
56.1495675389342
 21
78.438045158839032
 31
0.0
  0
LINE
  5
10E2
  8
SAPA_FOGBAND
 10
56.1495675389342
 20
78.363045158838304
 30
0.0
 11
51.935116898920107
 21
78.253047773655908
 31
0.0
  0
LINE
  5
10E3
  8
SAPA_FOGBAND
 10
51.935116898920107
 20
78.253047773655908
 30
0.0
 11
51.935693397794687
 21
75.814954433234107
 31
0.0
  0
LINE
  5
10E4
  8
SAPA_FOGBAND
 10
51.935693397794687
 20
75.814954433234107
 30
0.0
 11
56.1495675389342
 21
76.940355555698716
 31
0.0
  0
LINE
  5
10E7
  8
SAPA_FOGBAND
 10
56.1495675389342
 20
80.085734761980802
 30
0.0
 11
51.935523683327567
 21
81.211181359296916
 31
0.0
  0
LINE
  5
10E8
  8
SAPA_FOGBAND
 10
51.935523683327567
 20
81.211181359296916
 30
0.0
 11
51.935087542507517
 21
78.773043312747632
 31
0.0
  0
LINE
  5
10E9
  8
SAPA_FOGBAND
 10
51.935087542507517
 20
78.773043312747632
 30
0.0
 11
56.1495675389342
 21
78.663045158841214
 31
0.0
  0
LINE
  5
10EA
  8
SAPA_FOGBAND
 10
56.949567538935298
 20
75.363045158841032
 30
0.0
 11
56.1495675389342
 21
75.363045158841032
 31
0.0
  0
LINE
  5
10EB
  8
SAPA_FOGBAND
 10
56.1495675389342
 20
75.363045158841032
 30
0.0
 11
56.1495675389342
 21
81.663045158838486
 31
0.0
  0
LINE
  5
10EC
  8
SAPA_FOGBAND
 10
56.1495675389342
 20
81.663045158838486
 30
0.0
 11
56.949567538935298
 21
81.663045158838486
 31
0.0
  0
LINE
  5
10ED
  8
SAPA_FOGBAND
 10
56.949567538935298
 20
81.663045158838486
 30
0.0
 11
56.949567538935298
 21
75.363045158841032
 31
0.0
  0
LINE
  5
10EE
  8
SAPA_FOGBAND
 10
56.1495675389342
 20
69.863045158833756
 30
0.0
 11
51.500267781595539
 21
69.75304777365227
 31
0.0
  0
LINE
  5
10EF
  8
SAPA_FOGBAND
 10
51.500267781595539
 20
69.75304777365227
 30
0.0
 11
51.500844280470119
 21
67.314954433229545
 31
0.0
  0
LINE
  5
10F0
  8
SAPA_FOGBAND
 10
51.500844280470119
 20
67.314954433229545
 30
0.0
 11
56.1495675389342
 21
68.440355555694168
 31
0.0
  0
LINE
  5
10F1
  8
SAPA_FOGBAND
 10
56.1495675389342
 20
71.585734761976255
 30
0.0
 11
51.500674566002999
 21
72.711181359292368
 31
0.0
  0
LINE
  5
10F2
  8
SAPA_FOGBAND
 10
51.500674566002999
 20
72.711181359292368
 30
0.0
 11
51.500238425182943
 21
70.273043312743994
 31
0.0
  0
LINE
  5
10F3
  8
SAPA_FOGBAND
 10
51.500238425182943
 20
70.273043312743994
 30
0.0
 11
56.1495675389342
 21
70.163045158836667
 31
0.0
  0
LINE
  5
10F4
  8
SAPA_FOGBAND
 10
56.949567538935298
 20
66.863045158837394
 30
0.0
 11
56.1495675389342
 21
66.863045158837394
 31
0.0
  0
LINE
  5
10F5
  8
SAPA_FOGBAND
 10
56.1495675389342
 20
66.863045158837394
 30
0.0
 11
56.1495675389342
 21
73.163045158833938
 31
0.0
  0
LINE
  5
10F6
  8
SAPA_FOGBAND
 10
56.1495675389342
 20
73.163045158833938
 30
0.0
 11
56.949567538935298
 21
73.163045158833938
 31
0.0
  0
LINE
  5
10F7
  8
SAPA_FOGBAND
 10
56.949567538935298
 20
73.163045158833938
 30
0.0
 11
56.949567538935298
 21
66.863045158837394
 31
0.0
  0
LINE
  5
10F8
  8
SAPA_FOGBAND
 10
-9.6495673972995064
 20
78.363045158838304
 30
0.0
 11
-5.3244098768350341
 21
78.253047773655908
 31
0.0
  0
LINE
  5
10F9
  8
SAPA_FOGBAND
 10
-5.3244098768350341
 20
78.253047773655908
 30
0.0
 11
-5.3249863757096128
 21
75.814954433234107
 31
0.0
  0
LINE
  5
10FA
  8
SAPA_FOGBAND
 10
-5.3249863757096128
 20
75.814954433234107
 30
0.0
 11
-9.6495673972995064
 21
76.940355555698716
 31
0.0
  0
LINE
  5
10FB
  8
SAPA_FOGBAND
 10
-9.6495673972995064
 20
80.085734761980802
 30
0.0
 11
-5.324816661242493
 21
81.211181359296916
 31
0.0
  0
LINE
  5
10FC
  8
SAPA_FOGBAND
 10
-5.324816661242493
 20
81.211181359296916
 30
0.0
 11
-5.3243805204224373
 21
78.773043312747632
 31
0.0
  0
LINE
  5
10FD
  8
SAPA_FOGBAND
 10
-5.3243805204224373
 20
78.773043312747632
 30
0.0
 11
-9.6495673972995064
 21
78.663045158841214
 31
0.0
  0
LINE
  5
10FE
  8
SAPA_FOGBAND
 10
-10.4495673973006
 20
75.363045158841032
 30
0.0
 11
-9.6495673972995064
 21
75.363045158841032
 31
0.0
  0
LINE
  5
10FF
  8
SAPA_FOGBAND
 10
-9.6495673972995064
 20
75.363045158841032
 30
0.0
 11
-9.6495673972995064
 21
81.663045158838486
 31
0.0
  0
LINE
  5
1100
  8
SAPA_FOGBAND
 10
-9.6495673972995064
 20
81.663045158838486
 30
0.0
 11
-10.4495673973006
 21
81.663045158838486
 31
0.0
  0
LINE
  5
1101
  8
SAPA_FOGBAND
 10
-10.4495673973006
 20
81.663045158838486
 30
0.0
 11
-10.4495673973006
 21
75.363045158841032
 31
0.0
  0
LINE
  5
1102
  8
SAPA_FOGBAND
 10
-9.6495673972995064
 20
69.863045158833756
 30
0.0
 11
-4.9027334023130598
 21
69.75304777365227
 31
0.0
  0
LINE
  5
1103
  8
SAPA_FOGBAND
 10
-4.9027334023130598
 20
69.75304777365227
 30
0.0
 11
-4.9033099011876402
 21
67.314954433229545
 31
0.0
  0
LINE
  5
1104
  8
SAPA_FOGBAND
 10
-4.9033099011876402
 20
67.314954433229545
 30
0.0
 11
-9.6495673972995064
 21
68.440355555694168
 31
0.0
  0
LINE
  5
1105
  8
SAPA_FOGBAND
 10
-9.6495673972995064
 20
71.585734761976255
 30
0.0
 11
-4.9031401867205204
 21
72.711181359292368
 31
0.0
  0
LINE
  5
1106
  8
SAPA_FOGBAND
 10
-4.9031401867205204
 20
72.711181359292368
 30
0.0
 11
-4.9027040459004629
 21
70.273043312743994
 31
0.0
  0
LINE
  5
1107
  8
SAPA_FOGBAND
 10
-4.9027040459004629
 20
70.273043312743994
 30
0.0
 11
-9.6495673972995064
 21
70.163045158836667
 31
0.0
  0
LINE
  5
1108
  8
SAPA_FOGBAND
 10
-10.4495673973006
 20
66.863045158837394
 30
0.0
 11
-9.6495673972995064
 21
66.863045158837394
 31
0.0
  0
LINE
  5
1109
  8
SAPA_FOGBAND
 10
-9.6495673972995064
 20
66.863045158837394
 30
0.0
 11
-9.6495673972995064
 21
73.163045158833938
 31
0.0
  0
LINE
  5
110A
  8
SAPA_FOGBAND
 10
-9.6495673972995064
 20
73.163045158833938
 30
0.0
 11
-10.4495673973006
 21
73.163045158833938
 31
0.0
  0
LINE
  5
110B
  8
SAPA_FOGBAND
 10
-10.4495673973006
 20
73.163045158833938
 30
0.0
 11
-10.4495673973006
 21
66.863045158837394
 31
0.0
  0
LINE
  5
110C
  8
SAPA_GLAS
 10
68.750000071209797
 20
72.717448111943213
 30
0.0
 11
71.750000071737873
 21
72.717448111970725
 31
0.0
  0
LINE
  5
110D
  8
SAPA_GLAS
 10
71.750000071737873
 20
72.717448111970725
 30
0.0
 11
71.750000071737873
 21
84.717448111970725
 31
0.0
  0
LINE
  5
110E
  8
SAPA_GLAS
 10
71.750000071737873
 20
84.717448111970725
 30
0.0
 11
68.750000071209797
 21
84.717448111943213
 31
0.0
  0
LINE
  5
110F
  8
SAPA_GLAS
 10
68.750000071209797
 20
84.717448111943213
 30
0.0
 11
68.750000071209797
 21
72.717448111943213
 31
0.0
  0
LINE
  5
1110
  8
SAPA_GLAS
 10
131.75000007113391
 20
72.718003461879334
 30
0.0
 11
128.75000007122259
 21
72.718003461907074
 31
0.0
  0
LINE
  5
1111
  8
SAPA_GLAS
 10
128.75000007122259
 20
72.718003461907074
 30
0.0
 11
128.75000007122259
 21
84.718003461907074
 31
0.0
  0
LINE
  5
1112
  8
SAPA_GLAS
 10
128.75000007122259
 20
84.718003461907074
 30
0.0
 11
131.75000007113391
 21
84.718003461879334
 31
0.0
  0
LINE
  5
1113
  8
SAPA_GLAS
 10
131.75000007113391
 20
84.718003461879334
 30
0.0
 11
131.75000007113391
 21
72.718003461879334
 31
0.0
  0
LINE
  5
1114
  8
SAPA_GLAS
 10
118.2500000716329
 20
40.99944465006979
 30
0.0
 11
118.2500000716329
 21
72.99944465006979
 31
0.0
  0
LINE
  5
1115
  8
SAPA_GLAS
 10
118.2500000716329
 20
72.99944465006979
 30
0.0
 11
126.2500000716329
 21
72.99944465006979
 31
0.0
  0
LINE
  5
1116
  8
SAPA_GLAS
 10
126.2500000716329
 20
72.99944465006979
 30
0.0
 11
126.2500000716329
 21
40.99944465006979
 31
0.0
  0
LINE
  5
1117
  8
SAPA_GLAS
 10
118.2500000716329
 20
62.999444650069563
 30
0.0
 11
103.2500000716329
 21
62.999444650069563
 31
0.0
  0
LINE
  5
1118
  8
SAPA_GLAS
 10
103.2500000716329
 20
62.999444650069563
 30
0.0
 11
103.2500000716329
 21
72.99944465006979
 31
0.0
  0
LINE
  5
1119
  8
SAPA_GLAS
 10
103.2500000716329
 20
72.99944465006979
 30
0.0
 11
118.2500000716329
 21
72.999444650069563
 31
0.0
  0
LINE
  5
111A
  8
SAPA_GLAS
 10
118.2500000716329
 20
72.999444650069563
 30
0.0
 11
118.2500000716329
 21
62.999444650069563
 31
0.0
  0
LINE
  5
111B
  8
SAPA_GLAS
 10
97.250000071632954
 20
40.99944465006979
 30
0.0
 11
97.250000071632954
 21
72.99944465006979
 31
0.0
  0
LINE
  5
111C
  8
SAPA_GLAS
 10
97.250000071632954
 20
72.99944465006979
 30
0.0
 11
103.2500000716329
 21
72.99944465006979
 31
0.0
  0
LINE
  5
111D
  8
SAPA_GLAS
 10
103.2500000716329
 20
72.99944465006979
 30
0.0
 11
103.2500000716329
 21
40.99944465006979
 31
0.0
  0
LINE
  5
111E
  8
SAPA_GLAS
 10
126.72713652898059
 20
72.999444650070217
 30
0.0
 11
127.0000000719885
 21
72.726581107062358
 31
0.0
1001
ACAD
1010
0.0
1020
0.0
1030
0.0
  0
LINE
  5
111F
  8
SAPA_GLAS
 10
126.25000007164959
 20
72.354049092267559
 30
0.0
 11
127.0000000719897
 21
71.604049091927493
 31
0.0
1001
ACAD
1010
0.0
1020
0.0
1030
0.0
  0
LINE
  5
1120
  8
SAPA_GLAS
 10
126.25000007164959
 20
71.23151707713393
 30
0.0
 11
127.0000000719909
 21
70.481517076792613
 31
0.0
1001
ACAD
1010
0.0
1020
0.0
1030
0.0
  0
LINE
  5
1121
  8
SAPA_GLAS
 10
126.25000007164959
 20
70.108985062000272
 30
0.0
 11
127.0000000719922
 21
69.358985061657762
 31
0.0
1001
ACAD
1010
0.0
1020
0.0
1030
0.0
  0
LINE
  5
1122
  8
SAPA_GLAS
 10
126.25000007164969
 20
68.986453046866643
 30
0.0
 11
127.0000000719934
 21
68.236453046522882
 31
0.0
1001
ACAD
1010
0.0
1020
0.0
1030
0.0
  0
LINE
  5
1123
  8
SAPA_GLAS
 10
126.25000007164959
 20
67.863921031732986
 30
0.0
 11
127.00000007199461
 21
67.113921031388003
 31
0.0
1001
ACAD
1010
0.0
1020
0.0
1030
0.0
  0
LINE
  5
1124
  8
SAPA_GLAS
 10
126.25000007164959
 20
66.741389016599356
 30
0.0
 11
127.0000000719958
 21
65.991389016253152
 31
0.0
1001
ACAD
1010
0.0
1020
0.0
1030
0.0
  0
LINE
  5
1125
  8
SAPA_GLAS
 10
126.25000007164969
 20
65.618857001465699
 30
0.0
 11
127.00000007199711
 21
64.868857001118272
 31
0.0
1001
ACAD
1010
0.0
1020
0.0
1030
0.0
  0
LINE
  5
1126
  8
SAPA_GLAS
 10
126.25000007164959
 20
64.496324986332041
 30
0.0
 11
127.0000000719983
 21
63.746324985983392
 31
0.0
1001
ACAD
1010
0.0
1020
0.0
1030
0.0
  0
LINE
  5
1127
  8
SAPA_GLAS
 10
126.25000007164969
 20
63.373792971198412
 30
0.0
 11
127.00000007199949
 21
62.62379297084852
 31
0.0
1001
ACAD
1010
0.0
1020
0.0
1030
0.0
  0
LINE
  5
1128
  8
SAPA_GLAS
 10
126.25000007164959
 20
62.251260956064769
 30
0.0
 11
127.0000000720008
 21
61.501260955713661
 31
0.0
1001
ACAD
1010
0.0
1020
0.0
1030
0.0
  0
LINE
  5
1129
  8
SAPA_GLAS
 10
126.25000007164969
 20
61.128728940931133
 30
0.0
 11
127.000000072002
 21
60.378728940578789
 31
0.0
1001
ACAD
1010
0.0
1020
0.0
1030
0.0
  0
LINE
  5
112A
  8
SAPA_GLAS
 10
126.25000007164959
 20
72.468443624930984
 30
0.0
 11
126.7810010967889
 21
72.999444650070274
 31
0.0
1001
ACAD
1010
0.0
1020
0.0
1030
0.0
  0
LINE
  5
112B
  8
SAPA_GLAS
 10
126.25000007164959
 20
71.345911609797326
 30
0.0
 11
127.00000007198921
 21
72.095911610136881
 31
0.0
1001
ACAD
1010
0.0
1020
0.0
1030
0.0
  0
LINE
  5
112C
  8
SAPA_GLAS
 10
126.25000007164959
 20
70.223379594663683
 30
0.0
 11
127.0000000719904
 21
70.973379595004474
 31
0.0
1001
ACAD
1010
0.0
1020
0.0
1030
0.0
  0
LINE
  5
112D
  8
SAPA_GLAS
 10
126.25000007164959
 20
69.10084757953004
 30
0.0
 11
127.00000007199159
 21
69.850847579872053
 31
0.0
1001
ACAD
1010
0.0
1020
0.0
1030
0.0
  0
LINE
  5
112E
  8
SAPA_GLAS
 10
126.25000007164959
 20
67.978315564396397
 30
0.0
 11
127.0000000719929
 21
68.728315564739631
 31
0.0
1001
ACAD
1010
0.0
1020
0.0
1030
0.0
  0
LINE
  5
112F
  8
SAPA_GLAS
 10
126.25000007164959
 20
66.855783549262753
 30
0.0
 11
127.00000007199409
 21
67.605783549607224
 31
0.0
1001
ACAD
1010
0.0
1020
0.0
1030
0.0
  0
LINE
  5
1130
  8
SAPA_GLAS
 10
126.25000007164959
 20
65.73325153412911
 30
0.0
 11
127.0000000719953
 21
66.483251534474789
 31
0.0
1001
ACAD
1010
0.0
1020
0.0
1030
0.0
  0
LINE
  5
1131
  8
SAPA_GLAS
 10
126.25000007164959
 20
64.610719518995467
 30
0.0
 11
127.0000000719965
 21
65.360719519342382
 31
0.0
1001
ACAD
1010
0.0
1020
0.0
1030
0.0
  0
LINE
  5
1132
  8
SAPA_GLAS
 10
126.25000007164959
 20
63.48818750386183
 30
0.0
 11
127.0000000719978
 21
64.238187504209975
 31
0.0
1001
ACAD
1010
0.0
1020
0.0
1030
0.0
  0
LINE
  5
1133
  8
SAPA_GLAS
 10
126.25000007164959
 20
62.365655488728173
 30
0.0
 11
127.000000071999
 21
63.115655489077547
 31
0.0
1001
ACAD
1010
0.0
1020
0.0
1030
0.0
  0
LINE
  5
1134
  8
SAPA_GLAS
 10
126.25000007164959
 20
61.24312347359453
 30
0.0
 11
127.0000000720002
 21
61.993123473945133
 31
0.0
1001
ACAD
1010
0.0
1020
0.0
1030
0.0
  0
LINE
  5
1135
  8
SAPA_GLAS
 10
126.3288532632474
 20
60.199444650058702
 30
0.0
 11
127.0000000720014
 21
60.870591458812711
 31
0.0
1001
ACAD
1010
0.0
1020
0.0
1030
0.0
  0
LINE
  5
1136
  8
SAPA_GLAS
 10
73.968131817699572
 20
72.999444650070046
 30
0.0
 11
74.250000071311106
 21
72.717576396458512
 31
0.0
1001
ACAD
1010
0.0
1020
0.0
1030
0.0
  0
LINE
  5
1137
  8
SAPA_GLAS
 10
73.500000070971822
 20
72.345044381664167
 30
0.0
 11
74.250000071311106
 21
71.595044381324854
 31
0.0
1001
ACAD
1010
0.0
1020
0.0
1030
0.0
  0
LINE
  5
1138
  8
SAPA_GLAS
 10
73.500000070970586
 20
71.222512366531745
 30
0.0
 11
74.250000071311106
 21
70.472512366191225
 31
0.0
1001
ACAD
1010
0.0
1020
0.0
1030
0.0
  0
LINE
  5
1139
  8
SAPA_GLAS
 10
73.500000070969364
 20
70.099980351399324
 30
0.0
 11
74.250000071311106
 21
69.349980351057582
 31
0.0
1001
ACAD
1010
0.0
1020
0.0
1030
0.0
  0
LINE
  5
113A
  8
SAPA_GLAS
 10
73.500000070968142
 20
68.977448336266903
 30
0.0
 11
74.250000071311106
 21
68.227448335923938
 31
0.0
1001
ACAD
1010
0.0
1020
0.0
1030
0.0
  0
LINE
  5
113B
  8
SAPA_GLAS
 10
73.500000070966919
 20
67.854916321134482
 30
0.0
 11
74.250000071311121
 21
67.104916320790295
 31
0.0
1001
ACAD
1010
0.0
1020
0.0
1030
0.0
  0
LINE
  5
113C
  8
SAPA_GLAS
 10
73.500000070965683
 20
66.732384306002061
 30
0.0
 11
74.250000071311106
 21
65.982384305656652
 31
0.0
1001
ACAD
1010
0.0
1020
0.0
1030
0.0
  0
LINE
  5
113D
  8
SAPA_GLAS
 10
73.500000070964461
 20
65.609852290869654
 30
0.0
 11
74.250000071311121
 21
64.859852290523008
 31
0.0
1001
ACAD
1010
0.0
1020
0.0
1030
0.0
  0
LINE
  5
113E
  8
SAPA_GLAS
 10
73.500000070963239
 20
64.487320275737233
 30
0.0
 11
74.250000071311106
 21
63.737320275389351
 31
0.0
1001
ACAD
1010
0.0
1020
0.0
1030
0.0
  0
LINE
  5
113F
  8
SAPA_GLAS
 10
73.500000070962017
 20
63.364788260604811
 30
0.0
 11
74.250000071311106
 21
62.614788260255722
 31
0.0
1001
ACAD
1010
0.0
1020
0.0
1030
0.0
  0
LINE
  5
1140
  8
SAPA_GLAS
 10
73.500000070960795
 20
62.24225624547239
 30
0.0
 11
74.250000071311106
 21
61.492256245122071
 31
0.0
1001
ACAD
1010
0.0
1020
0.0
1030
0.0
  0
LINE
  5
1141
  8
SAPA_GLAS
 10
73.500000070959558
 20
61.119724230339969
 30
0.0
 11
74.250000071311106
 21
60.369724229988428
 31
0.0
1001
ACAD
1010
0.0
1020
0.0
1030
0.0
  0
LINE
  5
1142
  8
SAPA_GLAS
 10
73.500000070971979
 20
72.477448335534589
 30
0.0
 11
74.021996385507393
 21
72.999444650070004
 31
0.0
1001
ACAD
1010
0.0
1020
0.0
1030
0.0
  0
LINE
  5
1143
  8
SAPA_GLAS
 10
73.500000070970742
 20
71.354916320399724
 30
0.0
 11
74.250000071311092
 21
72.104916320740074
 31
0.0
1001
ACAD
1010
0.0
1020
0.0
1030
0.0
  0
LINE
  5
1144
  8
SAPA_GLAS
 10
73.50000007096952
 20
70.232384305264844
 30
0.0
 11
74.250000071311092
 21
70.982384305606416
 31
0.0
1001
ACAD
1010
0.0
1020
0.0
1030
0.0
  0
LINE
  5
1145
  8
SAPA_GLAS
 10
73.500000070968284
 20
69.109852290129965
 30
0.0
 11
74.250000071311092
 21
69.859852290472773
 31
0.0
1001
ACAD
1010
0.0
1020
0.0
1030
0.0
  0
LINE
  5
1146
  8
SAPA_GLAS
 10
73.500000070967062
 20
67.987320274995099
 30
0.0
 11
74.250000071311106
 21
68.737320275339144
 31
0.0
1001
ACAD
1010
0.0
1020
0.0
1030
0.0
  0
LINE
  5
1147
  8
SAPA_GLAS
 10
73.500000070965825
 20
66.864788259860205
 30
0.0
 11
74.250000071311092
 21
67.614788260205486
 31
0.0
1001
ACAD
1010
0.0
1020
0.0
1030
0.0
  0
LINE
  5
1148
  8
SAPA_GLAS
 10
73.500000070964603
 20
65.742256244725354
 30
0.0
 11
74.250000071311092
 21
66.492256245071843
 31
0.0
1001
ACAD
1010
0.0
1020
0.0
1030
0.0
  0
LINE
  5
1149
  8
SAPA_GLAS
 10
73.500000070963381
 20
64.619724229590489
 30
0.0
 11
74.250000071311092
 21
65.369724229938186
 31
0.0
1001
ACAD
1010
0.0
1020
0.0
1030
0.0
  0
LINE
  5
114A
  8
SAPA_GLAS
 10
73.500000070962159
 20
63.49719221445563
 30
0.0
 11
74.250000071311106
 21
64.247192214804571
 31
0.0
1001
ACAD
1010
0.0
1020
0.0
1030
0.0
  0
LINE
  5
114B
  8
SAPA_GLAS
 10
73.500000070960922
 20
62.374660199320751
 30
0.0
 11
74.250000071311092
 21
63.124660199670913
 31
0.0
1001
ACAD
1010
0.0
1020
0.0
1030
0.0
  0
LINE
  5
114C
  8
SAPA_GLAS
 10
73.5000000709597
 20
61.252128184185892
 30
0.0
 11
74.250000071311092
 21
62.002128184537277
 31
0.0
1001
ACAD
1010
0.0
1020
0.0
1030
0.0
  0
LINE
  5
114D
  8
SAPA_GLAS
 10
73.569848551966146
 20
60.199444650058688
 30
0.0
 11
74.250000071311092
 21
60.879596169403627
 31
0.0
1001
ACAD
1010
0.0
1020
0.0
1030
0.0
  0
LINE
  5
114E
  8
SAPA_GLAS
 10
97.250000071472087
 20
62.999444650069563
 30
0.0
 11
82.250000071472058
 21
62.999444650069563
 31
0.0
  0
LINE
  5
114F
  8
SAPA_GLAS
 10
82.250000071472058
 20
62.999444650069563
 30
0.0
 11
82.250000071472058
 21
72.99944465006979
 31
0.0
  0
LINE
  5
1150
  8
SAPA_GLAS
 10
82.250000071472058
 20
72.99944465006979
 30
0.0
 11
97.250000071472087
 21
72.999444650069563
 31
0.0
  0
LINE
  5
1151
  8
SAPA_GLAS
 10
97.250000071472087
 20
72.999444650069563
 30
0.0
 11
97.250000071472087
 21
62.999444650069563
 31
0.0
  0
LINE
  5
1152
  8
SAPA_GLAS
 10
74.250000071471959
 20
40.99944465006979
 30
0.0
 11
74.250000071471959
 21
72.99944465006979
 31
0.0
  0
LINE
  5
1153
  8
SAPA_GLAS
 10
74.250000071471959
 20
72.99944465006979
 30
0.0
 11
82.250000071471959
 21
72.99944465006979
 31
0.0
  0
LINE
  5
1154
  8
SAPA_GLAS
 10
82.250000071471959
 20
72.99944465006979
 30
0.0
 11
82.250000071471959
 21
40.99944465006979
 31
0.0
  0
ARC
  5
1155
  8
SAPA_PROFIL
 62
     4
 10
83.336577554830242
 20
81.016784419713986
 30
0.0
 40
1.341625249269492
 50
241.97558124339301
 51
269.20443003921372
  0
LINE
  5
1156
  8
SAPA_PROFIL
 62
     4
 10
82.706217854133001
 20
79.832468179339685
 30
0.0
 11
80.986602611858643
 21
80.825288502368025
 31
0.0
  0
LINE
  5
1157
  8
SAPA_PROFIL
 62
     4
 10
80.986602611858643
 20
80.825288502368025
 30
0.0
 11
80.550000071480326
 21
80.825288502368025
 31
0.0
  0
ARC
  5
1158
  8
SAPA_PROFIL
 62
     4
 10
80.550000071480326
 20
80.575288502368039
 30
0.0
 40
0.25
 50
90.0
 51
180.0
  0
LINE
  5
1159
  8
SAPA_PROFIL
 62
     4
 10
80.300000071480326
 20
80.575288502368039
 30
0.0
 11
80.300000071480326
 21
76.975276502369056
 31
0.0
  0
ARC
  5
115A
  8
SAPA_PROFIL
 62
     4
 10
80.550000071480326
 20
76.975276502369056
 30
0.0
 40
0.25
 50
180.0
 51
270.0
  0
LINE
  5
115B
  8
SAPA_PROFIL
 62
     4
 10
80.550000071480326
 20
76.72527650236907
 30
0.0
 11
80.986601993058912
 21
76.725288145103605
 31
0.0
  0
LINE
  5
115C
  8
SAPA_PROFIL
 62
     4
 10
80.986601993058912
 20
76.725288145103605
 30
0.0
 11
82.70621785412618
 21
77.718108825394211
 31
0.0
  0
ARC
  5
115D
  8
SAPA_PROFIL
 62
     4
 10
83.320190604286807
 20
76.597883720900668
 30
0.0
 40
1.277445428453744
 50
90.457069007115294
 51
118.7262573819695
  0
LINE
  5
115E
  8
SAPA_PROFIL
 62
     4
 10
83.310000071480545
 20
77.875288502369131
 30
0.0
 11
117.1900000714802
 21
77.875288502369131
 31
0.0
  0
ARC
  5
115F
  8
SAPA_PROFIL
 62
     4
 10
117.17980953867389
 20
76.597883720900683
 30
0.0
 40
1.2774454284537271
 50
61.273742618030731
 51
89.542930992885317
  0
LINE
  5
1160
  8
SAPA_PROFIL
 62
     4
 10
117.79378228883451
 20
77.718108825394211
 30
0.0
 11
119.5133981499018
 21
76.725288145103605
 31
0.0
  0
LINE
  5
1161
  8
SAPA_PROFIL
 62
     4
 10
119.5133981499018
 20
76.725288145103605
 30
0.0
 11
119.9500000714804
 21
76.72527650236907
 31
0.0
  0
ARC
  5
1162
  8
SAPA_PROFIL
 62
     4
 10
119.9500000714804
 20
76.975276502369056
 30
0.0
 40
0.25
 50
270.0
 51
0.0
  0
LINE
  5
1163
  8
SAPA_PROFIL
 62
     4
 10
120.2000000714804
 20
76.975276502369056
 30
0.0
 11
120.2000000714804
 21
80.575288502368039
 31
0.0
  0
ARC
  5
1164
  8
SAPA_PROFIL
 62
     4
 10
119.9500000714804
 20
80.575288502368039
 30
0.0
 40
0.25
 50
0.0
 51
90.0
  0
LINE
  5
1165
  8
SAPA_PROFIL
 62
     4
 10
119.9500000714804
 20
80.825288502368025
 30
0.0
 11
119.5133975311021
 21
80.825288502368025
 31
0.0
  0
LINE
  5
1166
  8
SAPA_PROFIL
 62
     4
 10
119.5133975311021
 20
80.825288502368025
 30
0.0
 11
117.7937822888277
 21
79.832468179339685
 31
0.0
  0
ARC
  5
1167
  8
SAPA_PROFIL
 62
     4
 10
117.1634225881303
 20
81.016784419714924
 30
0.0
 40
1.341625249270429
 50
270.79556996077599
 51
298.02441875659679
  0
LINE
  5
1168
  8
SAPA_PROFIL
 62
     4
 10
117.182050879049
 20
79.675288502368403
 30
0.0
 11
83.317949263911245
 21
79.675288502368403
 31
0.0
  0
ARC
  5
1169
  8
SAPA_PROFIL
 10
80.006131030523534
 20
82.699444650058723
 30
0.0
 40
0.2999999999994713
 50
35.620069759074582
 51
89.999999999934857
  0
ARC
  5
116A
  8
SAPA_PROFIL
 10
80.493869112431796
 20
83.048889300118063
 30
0.0
 40
0.2999999999993958
 50
215.62006975650439
 51
270.00000000018719
  0
LINE
  5
116B
  8
SAPA_PROFIL
 10
80.493869112432776
 20
82.748889300118677
 30
0.0
 11
81.450000071468139
 21
82.748889300118677
 31
0.0
  0
ARC
  5
116C
  8
SAPA_PROFIL
 10
81.450000071474136
 20
83.048889300123435
 30
0.0
 40
0.300000000004772
 50
269.99999999885472
 51
332.87190750653571
  0
ARC
  5
116D
  8
SAPA_PROFIL
 10
81.983993676069559
 20
82.775300502368324
 30
0.0
 40
0.3000000000001473
 50
90.000000000048857
 51
152.87190750668719
  0
LINE
  5
116E
  8
SAPA_PROFIL
 10
81.983993676069289
 20
83.075300502368464
 30
0.0
 11
84.161542031026556
 21
83.075300502368464
 31
0.0
  0
ARC
  5
116F
  8
SAPA_PROFIL
 10
84.161542031025391
 20
82.775300502367642
 30
0.0
 40
0.3000000000008214
 50
70.000000000015547
 51
89.999999999777444
  0
LINE
  5
1170
  8
SAPA_PROFIL
 10
84.264148074023296
 20
83.057208288604215
 30
0.0
 11
85.691501244068377
 21
82.537694220929097
 31
0.0
  0
ARC
  5
1171
  8
SAPA_PROFIL
 10
85.588895201064034
 20
82.255786434688517
 30
0.0
 40
0.3000000000067899
 50
339.99999999976239
 51
69.999999999121982
  0
LINE
  5
1172
  8
SAPA_PROFIL
 10
85.870802987305737
 20
82.153180391687329
 30
0.0
 11
85.80239895863474
 21
81.965241867537316
 31
0.0
  0
ARC
  5
1173
  8
SAPA_PROFIL
 10
85.520491172403325
 20
82.067847910527746
 30
0.0
 40
0.2999999999934183
 50
250.00000000103731
 51
340.00000000102011
  0
LINE
  5
1174
  8
SAPA_PROFIL
 10
85.41788512941298
 20
81.785940124296303
 30
0.0
 11
84.384223246544252
 21
82.162162281961628
 31
0.0
  0
ARC
  5
1175
  8
SAPA_PROFIL
 10
84.281617203551477
 20
81.88025449572487
 30
0.0
 40
0.2999999999992413
 50
70.000000000948305
 51
160.00000000219319
  0
LINE
  5
1176
  8
SAPA_PROFIL
 10
83.999709417312488
 20
81.98286053871152
 30
0.0
 11
83.340854110076407
 21
80.172670459372497
 31
0.0
  0
ARC
  5
1177
  8
SAPA_PROFIL
 10
83.058946323840331
 20
80.275276502368911
 30
0.0
 40
0.2999999999998398
 50
270.00000000002711
 51
340.00000000025341
  0
LINE
  5
1178
  8
SAPA_PROFIL
 10
83.058946323840473
 20
79.97527650236907
 30
0.0
 11
82.639230556020948
 21
79.97527650236907
 31
0.0
  0
ARC
  5
1179
  8
SAPA_PROFIL
 10
82.639230556021687
 20
80.275276502368555
 30
0.0
 40
0.2999999999994856
 50
239.99999999986349
 51
269.99999999986159
  0
LINE
  5
117A
  8
SAPA_PROFIL
 10
82.489230556021326
 20
80.015468881234028
 30
0.0
 11
81.000000071480144
 21
80.875276502368706
 31
0.0
  0
LINE
  5
117B
  8
SAPA_PROFIL
 10
81.000000071480144
 20
80.875276502368706
 30
0.0
 11
80.550000071480326
 21
80.875288502369116
 31
0.0
  0
ARC
  5
117C
  8
SAPA_PROFIL
 10
80.550000071480795
 20
80.575288502368494
 30
0.0
 40
0.3000000000006366
 50
90.000000000086857
 51
180.0000000000868
  0
LINE
  5
117D
  8
SAPA_PROFIL
 10
80.250000071480144
 20
80.575288502368039
 30
0.0
 11
80.250000071480144
 21
76.975276502369056
 31
0.0
  0
ARC
  5
117E
  8
SAPA_PROFIL
 10
80.550000071480795
 20
76.975276502368615
 30
0.0
 40
0.3000000000006366
 50
179.99999999991309
 51
269.99999999991309
  0
LINE
  5
117F
  8
SAPA_PROFIL
 10
80.550000071480326
 20
76.675276502367979
 30
0.0
 11
81.000000071480144
 21
76.675276502367979
 31
0.0
  0
LINE
  5
1180
  8
SAPA_PROFIL
 10
81.000000071480144
 20
76.675276502367979
 30
0.0
 11
82.489260202554533
 21
77.535101239938285
 31
0.0
  0
ARC
  5
1181
  8
SAPA_PROFIL
 10
82.639260202552066
 20
77.275293618801854
 30
0.0
 40
0.2999999999997068
 50
90.003646866928733
 51
119.9999999994883
  0
LINE
  5
1182
  8
SAPA_PROFIL
 10
82.639241107601478
 20
77.575293618193882
 30
0.0
 11
82.750000071478325
 21
77.57530066798563
 31
0.0
  0
LINE
  5
1183
  8
SAPA_PROFIL
 10
82.750000071478325
 20
77.57530066798563
 30
0.0
 11
82.750000071478325
 21
75.499444650069108
 31
0.0
  0
ARC
  5
1184
  8
SAPA_PROFIL
 10
82.250000071478325
 20
75.499444650069108
 30
0.0
 40
0.5
 50
270.0
 51
0.0
  0
LINE
  5
1185
  8
SAPA_PROFIL
 10
82.250000071478325
 20
74.999444650069108
 30
0.0
 11
77.000000071813005
 21
74.999444650069108
 31
0.0
  0
ARC
  5
1186
  8
SAPA_PROFIL
 10
77.000000071813005
 20
75.499444650069108
 30
0.0
 40
0.5
 50
180.0
 51
270.0
  0
LINE
  5
1187
  8
SAPA_PROFIL
 10
76.50000007181302
 20
75.499444650069108
 30
0.0
 11
76.50000007181302
 21
75.999444653652503
 31
0.0
  0
ARC
  5
1188
  8
SAPA_PROFIL
 10
77.000000071813005
 20
75.999444653652503
 30
0.0
 40
0.5
 50
90.0
 51
180.0
  0
LINE
  5
1189
  8
SAPA_PROFIL
 10
77.000000071813005
 20
76.499444653652503
 30
0.0
 11
78.000000072220473
 21
76.499444653657974
 31
0.0
  0
LINE
  5
118A
  8
SAPA_PROFIL
 10
78.000000072220473
 20
76.499444653657974
 30
0.0
 11
78.000000072224566
 21
79.69944465411163
 31
0.0
  0
LINE
  5
118B
  8
SAPA_PROFIL
 10
78.000000072224566
 20
79.69944465411163
 30
0.0
 11
73.500000071318709
 21
79.699444654104354
 31
0.0
  0
LINE
  5
118C
  8
SAPA_PROFIL
 10
73.500000071318709
 20
79.699444654104354
 30
0.0
 11
73.500000071297336
 21
60.199444650058922
 31
0.0
  0
ARC
  5
118D
  8
SAPA_PROFIL
 10
73.300000071296353
 20
60.199444650058652
 30
0.0
 40
0.2000000000009834
 50
254.3980832556245
 51
0.0000000000773511
  0
ARC
  5
118E
  8
SAPA_PROFIL
 10
73.515161704598086
 20
60.969967506017042
 30
0.0
 40
1.0000000000005631
 50
186.24358845850639
 51
254.398083255465
  0
ARC
  5
118F
  8
SAPA_PROFIL
 10
201.7500000759326
 20
74.999444650245323
 30
0.0
 40
130.00000000411961
 50
180.00000000008731
 51
186.24358845858899
  0
LINE
  5
1190
  8
SAPA_PROFIL
 10
71.75000007181302
 20
74.99944465004728
 30
0.0
 11
71.750000071674776
 21
79.999444649967245
 31
0.0
  0
ARC
  5
1191
  8
SAPA_PROFIL
 10
74.750000071674762
 20
79.999444650058209
 30
0.0
 40
2.9999999999999849
 50
89.99999999999973
 51
180.00000000173719
  0
LINE
  5
1192
  8
SAPA_PROFIL
 10
74.750000071674776
 20
82.999444650058194
 30
0.0
 11
80.006131030523875
 21
82.999444650058194
 31
0.0
  0
ARC
  5
1193
  8
SAPA_PROFIL
 10
120.4938691124367
 20
82.699444650058723
 30
0.0
 40
0.2999999999994713
 50
90.000000000065128
 51
144.3799302409254
  0
ARC
  5
1194
  8
SAPA_PROFIL
 10
120.00613103052849
 20
83.048889300118063
 30
0.0
 40
0.2999999999993958
 50
269.9999999998127
 51
324.37993024349549
  0
LINE
  5
1195
  8
SAPA_PROFIL
 10
120.0061310305275
 20
82.748889300118677
 30
0.0
 11
119.05000007149209
 21
82.748889300118677
 31
0.0
  0
ARC
  5
1196
  8
SAPA_PROFIL
 10
119.05000007148639
 20
83.048889300123065
 30
0.0
 40
0.3000000000044025
 50
207.12809249342129
 51
270.00000000110191
  0
ARC
  5
1197
  8
SAPA_PROFIL
 10
118.5160064668911
 20
82.775300502368324
 30
0.0
 40
0.3000000000001473
 50
27.12809249331276
 51
89.999999999951143
  0
LINE
  5
1198
  8
SAPA_PROFIL
 10
118.5160064668914
 20
83.075300502368464
 30
0.0
 11
116.3384581119342
 21
83.075300502368464
 31
0.0
  0
ARC
  5
1199
  8
SAPA_PROFIL
 10
116.33845811193549
 20
82.775300502368935
 30
0.0
 40
0.2999999999995282
 50
90.00000000026597
 51
110.00000000002809
  0
LINE
  5
119A
  8
SAPA_PROFIL
 10
116.2358520689379
 20
83.057208288604215
 30
0.0
 11
114.8084988988923
 21
82.537694220929097
 31
0.0
  0
ARC
  5
119B
  8
SAPA_PROFIL
 10
114.9111049418967
 20
82.255786434688517
 30
0.0
 40
0.3000000000067899
 50
110.000000000878
 51
200.00000000023761
  0
LINE
  5
119C
  8
SAPA_PROFIL
 10
114.62919715565501
 20
82.153180391687329
 30
0.0
 11
114.697601184326
 21
81.965241867537316
 31
0.0
  0
ARC
  5
119D
  8
SAPA_PROFIL
 10
114.97950897055721
 20
82.067847910527519
 30
0.0
 40
0.2999999999931269
 50
199.99999999895391
 51
289.9999999989368
  0
LINE
  5
119E
  8
SAPA_PROFIL
 10
115.08211501354729
 20
81.785940124296303
 30
0.0
 11
116.1157768964169
 21
82.162162281961628
 31
0.0
  0
ARC
  5
119F
  8
SAPA_PROFIL
 10
116.21838293940949
 20
81.880254495725097
 30
0.0
 40
0.2999999999989499
 50
19.99999999778079
 51
109.9999999990257
  0
LINE
  5
11A0
  8
SAPA_PROFIL
 10
116.5002907256482
 20
81.98286053871152
 30
0.0
 11
117.1591460328839
 21
80.172670459372497
 31
0.0
  0
ARC
  5
11A1
  8
SAPA_PROFIL
 10
117.4410538191202
 20
80.275276502369238
 30
0.0
 40
0.3000000000001652
 50
199.99999999979039
 51
270.00000000001631
  0
LINE
  5
11A2
  8
SAPA_PROFIL
 10
117.4410538191202
 20
79.97527650236907
 30
0.0
 11
117.8607695869398
 21
79.97527650236907
 31
0.0
  0
ARC
  5
11A3
  8
SAPA_PROFIL
 10
117.860769586939
 20
80.275276502368555
 30
0.0
 40
0.2999999999994856
 50
270.00000000013841
 51
300.00000000013648
  0
LINE
  5
11A4
  8
SAPA_PROFIL
 10
118.0107695869394
 20
80.015468881234028
 30
0.0
 11
119.5000000714801
 21
80.875276502368706
 31
0.0
  0
LINE
  5
11A5
  8
SAPA_PROFIL
 10
119.5000000714801
 20
80.875276502368706
 30
0.0
 11
119.9500000714804
 21
80.875288502369116
 31
0.0
  0
ARC
  5
11A6
  8
SAPA_PROFIL
 10
119.95000007147971
 20
80.575288502368721
 30
0.0
 40
0.3000000000004093
 50
359.99999999986971
 51
89.999999999869729
  0
LINE
  5
11A7
  8
SAPA_PROFIL
 10
120.2500000714801
 20
80.575288502368039
 30
0.0
 11
120.2500000714801
 21
76.975276502369056
 31
0.0
  0
ARC
  5
11A8
  8
SAPA_PROFIL
 10
119.95000007147971
 20
76.975276502368388
 30
0.0
 40
0.3000000000004093
 50
270.00000000013029
 51
0.0000000001302755
  0
LINE
  5
11A9
  8
SAPA_PROFIL
 10
119.9500000714804
 20
76.675276502367979
 30
0.0
 11
119.5000000714801
 21
76.675276502367979
 31
0.0
  0
LINE
  5
11AA
  8
SAPA_PROFIL
 10
119.5000000714801
 20
76.675276502367979
 30
0.0
 11
118.0107399404062
 21
77.535101239938285
 31
0.0
  0
ARC
  5
11AB
  8
SAPA_PROFIL
 10
117.86073994040871
 20
77.275293618801854
 30
0.0
 40
0.2999999999997068
 50
60.000000000511719
 51
89.996353133071267
  0
LINE
  5
11AC
  8
SAPA_PROFIL
 10
117.86075903535919
 20
77.575293618193882
 30
0.0
 11
117.75000007148191
 21
77.57530066798563
 31
0.0
  0
LINE
  5
11AD
  8
SAPA_PROFIL
 10
117.75000007148191
 20
77.57530066798563
 30
0.0
 11
117.75000007148191
 21
75.499444650069108
 31
0.0
  0
ARC
  5
11AE
  8
SAPA_PROFIL
 10
118.25000007148191
 20
75.499444650069108
 30
0.0
 40
0.5
 50
180.0
 51
270.0
  0
LINE
  5
11AF
  8
SAPA_PROFIL
 10
118.25000007148191
 20
74.999444650069108
 30
0.0
 11
123.5000000711472
 21
74.999444650069108
 31
0.0
  0
ARC
  5
11B0
  8
SAPA_PROFIL
 10
123.5000000711472
 20
75.499444650069108
 30
0.0
 40
0.5
 50
270.0
 51
0.0
  0
LINE
  5
11B1
  8
SAPA_PROFIL
 10
124.0000000711472
 20
75.499444650069108
 30
0.0
 11
124.0000000711472
 21
75.999444653652503
 31
0.0
  0
ARC
  5
11B2
  8
SAPA_PROFIL
 10
123.5000000711472
 20
75.999444653652503
 30
0.0
 40
0.5
 50
0.0
 51
90.0
  0
LINE
  5
11B3
  8
SAPA_PROFIL
 10
123.5000000711472
 20
76.499444653652503
 30
0.0
 11
122.5000000707402
 21
76.499444653657974
 31
0.0
  0
LINE
  5
11B4
  8
SAPA_PROFIL
 10
122.5000000707402
 20
76.499444653657974
 30
0.0
 11
122.50000007073621
 21
79.69944465411163
 31
0.0
  0
LINE
  5
11B5
  8
SAPA_PROFIL
 10
122.50000007073621
 20
79.69944465411163
 30
0.0
 11
127.00000007164201
 21
79.699444654104354
 31
0.0
  0
LINE
  5
11B6
  8
SAPA_PROFIL
 10
127.00000007164201
 20
79.699444654104354
 30
0.0
 11
127.00000007166339
 21
60.199444650058922
 31
0.0
  0
ARC
  5
11B7
  8
SAPA_PROFIL
 10
127.20000007166441
 20
60.199444650058652
 30
0.0
 40
0.2000000000009834
 50
179.99999999992261
 51
285.6019167443755
  0
ARC
  5
11B8
  8
SAPA_PROFIL
 10
126.9848384383626
 20
60.969967506017042
 30
0.0
 40
1.0000000000005631
 50
285.601916744535
 51
353.75641154149349
  0
ARC
  5
11B9
  8
SAPA_PROFIL
 10
-1.2499999329719169
 20
74.999444650245323
 30
0.0
 40
130.00000000411961
 50
353.75641154141101
 51
359.99999999991269
  0
LINE
  5
11BA
  8
SAPA_PROFIL
 10
128.7500000711477
 20
74.99944465004728
 30
0.0
 11
128.75000007128551
 21
79.999444649967245
 31
0.0
  0
ARC
  5
11BB
  8
SAPA_PROFIL
 10
125.7500000712855
 20
79.999444650058209
 30
0.0
 40
2.9999999999999849
 50
359.99999999826269
 51
90.000000000000256
  0
LINE
  5
11BC
  8
SAPA_PROFIL
 10
125.7500000712855
 20
82.999444650058194
 30
0.0
 11
120.4938691124364
 21
82.999444650058194
 31
0.0
  0
LINE
  5
11BD
  8
SAPA_PROFIL
 62
     4
 10
59.25000000275827
 20
81.651709582441526
 30
-0.2
 11
59.25000000275827
 21
67.45170958243898
 31
-0.2
1001
RC_PROFILE
1002
{
1000
Region
1002
}
  0
ARC
  5
11BE
  8
SAPA_PROFIL
 62
     4
 10
59.75000000275827
 20
67.45170958243898
 30
-0.2
 40
0.5
 50
180.0
 51
269.99999999979161
1001
RC_PROFILE
1002
{
1000
Region
1002
}
  0
LINE
  5
11BF
  8
SAPA_PROFIL
 62
     4
 10
59.750000002756451
 20
66.95170958243898
 30
-0.2
 11
63.750000003377629
 21
66.951709582437161
 31
-0.2
1001
RC_PROFILE
1002
{
1000
Region
1002
}
  0
ARC
  5
11C0
  8
SAPA_PROFIL
 62
     4
 10
63.750000003377629
 20
67.451709582437161
 30
-0.2
 40
0.5
 50
270.0
 51
0.0
1001
RC_PROFILE
1002
{
1000
Region
1002
}
  0
LINE
  5
11C1
  8
SAPA_PROFIL
 62
     4
 10
64.250000003377636
 20
67.451709582437161
 30
-0.2
 11
64.250000003384912
 21
81.651709582439707
 31
-0.2
1001
RC_PROFILE
1002
{
1000
Region
1002
}
  0
ARC
  5
11C2
  8
SAPA_PROFIL
 62
     4
 10
63.750000003384571
 20
81.651709582441185
 30
-0.2
 40
0.5000000000003411
 50
359.99999999983072
 51
89.99999999996092
1001
RC_PROFILE
1002
{
1000
Region
1002
}
  0
LINE
  5
11C3
  8
SAPA_PROFIL
 62
     4
 10
63.750000003384912
 20
82.151709582441526
 30
-0.2
 11
59.75000000275827
 21
82.151709582441526
 31
-0.2
1001
RC_PROFILE
1002
{
1000
Region
1002
}
  0
ARC
  5
11C4
  8
SAPA_PROFIL
 62
     4
 10
59.75000000275827
 20
81.651709582441526
 30
-0.2
 40
0.5
 50
90.0
 51
180.0
1001
RC_PROFILE
1002
{
1000
Region
1002
}
  0
ARC
  5
11C5
  8
SAPA_PROFIL
 62
     4
 10
72.672740072775298
 20
107.2151831388508
 30
0.0
 40
1.2000000000004429
 50
59.999999999894989
 51
89.999999999915872
1001
GENIUS_GENOBJ-N-FIL_13
1002
{
1000
OWNER
1000
GEN
1002
}
1001
GENIUS_GENODEF_13
1002
{
1000
HIER
1070
     0
1002
}
1002
{
1000
MANEDIT
1070
     0
1002
}
1002
{
1000
NOSEL
1070
     0
1002
}
1002
{
1000
BEHIND
1070
     0
1002
}
1002
{
1000
OTHER
1070
     0
1002
}
1002
{
1000
REACTOR
1002
}
  0
LINE
  5
11C6
  8
SAPA_PROFIL
 62
     4
 10
73.272740072777424
 20
108.2544136233914
 30
0.0
 11
75.013398013420783
 21
107.2494442927941
 31
0.0
1001
GENIUS_GENOBJ-N-FIL_13
1002
{
1000
OWNER
1000
GEN
1002
}
1001
GENIUS_GENODEF_13
1002
{
1000
HIER
1070
     0
1002
}
1002
{
1000
MANEDIT
1070
     0
1002
}
1002
{
1000
NOSEL
1070
     0
1002
}
1002
{
1000
BEHIND
1070
     0
1002
}
1002
{
1000
OTHER
1070
     0
1002
}
1002
{
1000
REACTOR
1002
}
  0
LINE
  5
11C7
  8
SAPA_PROFIL
 62
     4
 10
75.013398013420783
 20
107.2494442927941
 30
0.0
 11
75.449999934999369
 21
107.2494326500596
 31
0.0
1001
GENIUS_GENOBJ-N-FIL_13
1002
{
1000
OWNER
1000
GEN
1002
}
1001
GENIUS_GENODEF_13
1002
{
1000
HIER
1070
     0
1002
}
1002
{
1000
MANEDIT
1070
     0
1002
}
1002
{
1000
NOSEL
1070
     0
1002
}
1002
{
1000
BEHIND
1070
     0
1002
}
1002
{
1000
OTHER
1070
     0
1002
}
1002
{
1000
REACTOR
1002
}
  0
ARC
  5
11C8
  8
SAPA_PROFIL
 62
     4
 10
75.449999934999369
 20
107.4994326500596
 30
0.0
 40
0.25
 50
270.0
 51
0.0
1001
GENIUS_GENOBJ-N-FIL_13
1002
{
1000
OWNER
1000
GEN
1002
}
1001
GENIUS_GENODEF_13
1002
{
1000
HIER
1070
     0
1002
}
1002
{
1000
MANEDIT
1070
     0
1002
}
1002
{
1000
NOSEL
1070
     0
1002
}
1002
{
1000
BEHIND
1070
     0
1002
}
1002
{
1000
OTHER
1070
     0
1002
}
1002
{
1000
REACTOR
1002
}
  0
LINE
  5
11C9
  8
SAPA_PROFIL
 62
     4
 10
75.699999934999369
 20
107.4994326500596
 30
0.0
 11
75.699999934999369
 21
111.0994446500585
 31
0.0
1001
GENIUS_GENOBJ-N-FIL_13
1002
{
1000
OWNER
1000
GEN
1002
}
1001
GENIUS_GENODEF_13
1002
{
1000
HIER
1070
     0
1002
}
1002
{
1000
MANEDIT
1070
     0
1002
}
1002
{
1000
NOSEL
1070
     0
1002
}
1002
{
1000
BEHIND
1070
     0
1002
}
1002
{
1000
OTHER
1070
     0
1002
}
1002
{
1000
REACTOR
1002
}
  0
ARC
  5
11CA
  8
SAPA_PROFIL
 62
     4
 10
75.449999934999369
 20
111.0994446500585
 30
0.0
 40
0.25
 50
0.0
 51
90.0
1001
GENIUS_GENOBJ-N-FIL_13
1002
{
1000
OWNER
1000
GEN
1002
}
1001
GENIUS_GENODEF_13
1002
{
1000
HIER
1070
     0
1002
}
1002
{
1000
MANEDIT
1070
     0
1002
}
1002
{
1000
NOSEL
1070
     0
1002
}
1002
{
1000
BEHIND
1070
     0
1002
}
1002
{
1000
OTHER
1070
     0
1002
}
1002
{
1000
REACTOR
1002
}
  0
LINE
  5
11CB
  8
SAPA_PROFIL
 62
     4
 10
75.449999934999369
 20
111.3494446500585
 30
0.0
 11
75.013397394620597
 21
111.3494446500585
 31
0.0
1001
GENIUS_GENOBJ-N-FIL_13
1002
{
1000
OWNER
1000
GEN
1002
}
1001
GENIUS_GENODEF_13
1002
{
1000
HIER
1070
     0
1002
}
1002
{
1000
MANEDIT
1070
     0
1002
}
1002
{
1000
NOSEL
1070
     0
1002
}
1002
{
1000
BEHIND
1070
     0
1002
}
1002
{
1000
OTHER
1070
     0
1002
}
1002
{
1000
REACTOR
1002
}
  0
LINE
  5
11CC
  8
SAPA_PROFIL
 62
     4
 10
75.013397394620597
 20
111.3494446500585
 30
0.0
 11
73.327259797219767
 21
110.37595265430851
 31
0.0
1001
GENIUS_GENOBJ-N-FIL_13
1002
{
1000
OWNER
1000
GEN
1002
}
1001
GENIUS_GENODEF_13
1002
{
1000
HIER
1070
     0
1002
}
1002
{
1000
MANEDIT
1070
     0
1002
}
1002
{
1000
NOSEL
1070
     0
1002
}
1002
{
1000
BEHIND
1070
     0
1002
}
1002
{
1000
OTHER
1070
     0
1002
}
1002
{
1000
REACTOR
1002
}
  0
ARC
  5
11CD
  8
SAPA_PROFIL
 62
     4
 10
72.727259797221024
 20
111.4151831388501
 30
0.0
 40
1.1999999999996001
 50
269.99999999994441
 51
299.99999999994168
1001
GENIUS_GENOBJ-N-FIL_13
1002
{
1000
OWNER
1000
GEN
1002
}
1001
GENIUS_GENODEF_13
1002
{
1000
HIER
1070
     0
1002
}
1002
{
1000
MANEDIT
1070
     0
1002
}
1002
{
1000
NOSEL
1070
     0
1002
}
1002
{
1000
BEHIND
1070
     0
1002
}
1002
{
1000
OTHER
1070
     0
1002
}
1002
{
1000
REACTOR
1002
}
  0
LINE
  5
11CE
  8
SAPA_PROFIL
 62
     4
 10
72.727259797219858
 20
110.21518313885051
 30
0.0
 11
50.772740208928781
 21
110.21518313885051
 31
0.0
1001
GENIUS_GENOBJ-N-FIL_13
1002
{
1000
OWNER
1000
GEN
1002
}
1001
GENIUS_GENODEF_13
1002
{
1000
HIER
1070
     0
1002
}
1002
{
1000
MANEDIT
1070
     0
1002
}
1002
{
1000
NOSEL
1070
     0
1002
}
1002
{
1000
BEHIND
1070
     0
1002
}
1002
{
1000
OTHER
1070
     0
1002
}
1002
{
1000
REACTOR
1002
}
  0
ARC
  5
11CF
  8
SAPA_PROFIL
 62
     4
 10
50.772740208927623
 20
111.4151831388501
 30
0.0
 40
1.1999999999996041
 50
240.0000000000579
 51
270.00000000005531
1001
GENIUS_GENOBJ-N-FIL_13
1002
{
1000
OWNER
1000
GEN
1002
}
1001
GENIUS_GENODEF_13
1002
{
1000
HIER
1070
     0
1002
}
1002
{
1000
MANEDIT
1070
     0
1002
}
1002
{
1000
NOSEL
1070
     0
1002
}
1002
{
1000
BEHIND
1070
     0
1002
}
1002
{
1000
OTHER
1070
     0
1002
}
1002
{
1000
REACTOR
1002
}
  0
LINE
  5
11D0
  8
SAPA_PROFIL
 62
     4
 10
50.172740208928872
 20
110.37595265430851
 30
0.0
 11
48.486602611528042
 21
111.3494446500585
 31
0.0
1001
GENIUS_GENOBJ-N-FIL_13
1002
{
1000
OWNER
1000
GEN
1002
}
1001
GENIUS_GENODEF_13
1002
{
1000
HIER
1070
     0
1002
}
1002
{
1000
MANEDIT
1070
     0
1002
}
1002
{
1000
NOSEL
1070
     0
1002
}
1002
{
1000
BEHIND
1070
     0
1002
}
1002
{
1000
OTHER
1070
     0
1002
}
1002
{
1000
REACTOR
1002
}
  0
LINE
  5
11D1
  8
SAPA_PROFIL
 62
     4
 10
48.486602611528042
 20
111.3494446500585
 30
0.0
 11
48.050000071149732
 21
111.3494446500585
 31
0.0
1001
GENIUS_GENOBJ-N-FIL_13
1002
{
1000
OWNER
1000
GEN
1002
}
1001
GENIUS_GENODEF_13
1002
{
1000
HIER
1070
     0
1002
}
1002
{
1000
MANEDIT
1070
     0
1002
}
1002
{
1000
NOSEL
1070
     0
1002
}
1002
{
1000
BEHIND
1070
     0
1002
}
1002
{
1000
OTHER
1070
     0
1002
}
1002
{
1000
REACTOR
1002
}
  0
ARC
  5
11D2
  8
SAPA_PROFIL
 62
     4
 10
48.050000071149732
 20
111.0994446500585
 30
0.0
 40
0.25
 50
90.0
 51
180.0
1001
GENIUS_GENOBJ-N-FIL_13
1002
{
1000
OWNER
1000
GEN
1002
}
1001
GENIUS_GENODEF_13
1002
{
1000
HIER
1070
     0
1002
}
1002
{
1000
MANEDIT
1070
     0
1002
}
1002
{
1000
NOSEL
1070
     0
1002
}
1002
{
1000
BEHIND
1070
     0
1002
}
1002
{
1000
OTHER
1070
     0
1002
}
1002
{
1000
REACTOR
1002
}
  0
LINE
  5
11D3
  8
SAPA_PROFIL
 62
     4
 10
47.800000071149718
 20
111.0994446500585
 30
0.0
 11
47.800000071149718
 21
107.4994326500596
 31
0.0
1001
GENIUS_GENOBJ-N-FIL_13
1002
{
1000
OWNER
1000
GEN
1002
}
1001
GENIUS_GENODEF_13
1002
{
1000
HIER
1070
     0
1002
}
1002
{
1000
MANEDIT
1070
     0
1002
}
1002
{
1000
NOSEL
1070
     0
1002
}
1002
{
1000
BEHIND
1070
     0
1002
}
1002
{
1000
OTHER
1070
     0
1002
}
1002
{
1000
REACTOR
1002
}
  0
ARC
  5
11D4
  8
SAPA_PROFIL
 62
     4
 10
48.050000071149718
 20
107.4994326500596
 30
0.0
 40
0.2499999999999929
 50
180.0
 51
270.00000000000171
1001
GENIUS_GENOBJ-N-FIL_13
1002
{
1000
OWNER
1000
GEN
1002
}
1001
GENIUS_GENODEF_13
1002
{
1000
HIER
1070
     0
1002
}
1002
{
1000
MANEDIT
1070
     0
1002
}
1002
{
1000
NOSEL
1070
     0
1002
}
1002
{
1000
BEHIND
1070
     0
1002
}
1002
{
1000
OTHER
1070
     0
1002
}
1002
{
1000
REACTOR
1002
}
  0
LINE
  5
11D5
  8
SAPA_PROFIL
 62
     4
 10
48.050000071149732
 20
107.2494326500596
 30
0.0
 11
48.486601992727849
 21
107.2494442927941
 31
0.0
1001
GENIUS_GENOBJ-N-FIL_13
1002
{
1000
OWNER
1000
GEN
1002
}
1001
GENIUS_GENODEF_13
1002
{
1000
HIER
1070
     0
1002
}
1002
{
1000
MANEDIT
1070
     0
1002
}
1002
{
1000
NOSEL
1070
     0
1002
}
1002
{
1000
BEHIND
1070
     0
1002
}
1002
{
1000
OTHER
1070
     0
1002
}
1002
{
1000
REACTOR
1002
}
  0
LINE
  5
11D6
  8
SAPA_PROFIL
 62
     4
 10
48.486601992727849
 20
107.2494442927941
 30
0.0
 11
50.22725993337167
 21
108.2544136233914
 31
0.0
1001
GENIUS_GENOBJ-N-FIL_13
1002
{
1000
OWNER
1000
GEN
1002
}
1001
GENIUS_GENODEF_13
1002
{
1000
HIER
1070
     0
1002
}
1002
{
1000
MANEDIT
1070
     0
1002
}
1002
{
1000
NOSEL
1070
     0
1002
}
1002
{
1000
BEHIND
1070
     0
1002
}
1002
{
1000
OTHER
1070
     0
1002
}
1002
{
1000
REACTOR
1002
}
  0
ARC
  5
11D7
  8
SAPA_PROFIL
 62
     4
 10
50.827259933373803
 20
107.2151831388508
 30
0.0
 40
1.200000000000442
 50
90.000000000084114
 51
120.000000000105
1001
GENIUS_GENOBJ-N-FIL_13
1002
{
1000
OWNER
1000
GEN
1002
}
1001
GENIUS_GENODEF_13
1002
{
1000
HIER
1070
     0
1002
}
1002
{
1000
MANEDIT
1070
     0
1002
}
1002
{
1000
NOSEL
1070
     0
1002
}
1002
{
1000
BEHIND
1070
     0
1002
}
1002
{
1000
OTHER
1070
     0
1002
}
1002
{
1000
REACTOR
1002
}
  0
LINE
  5
11D8
  8
SAPA_PROFIL
 62
     4
 10
50.827259933372027
 20
108.41518313885121
 30
0.0
 11
53.550000070900523
 21
108.4151831388494
 31
0.0
1001
GENIUS_GENOBJ-N-FIL_13
1002
{
1000
OWNER
1000
GEN
1002
}
1001
GENIUS_GENODEF_13
1002
{
1000
HIER
1070
     0
1002
}
1002
{
1000
MANEDIT
1070
     0
1002
}
1002
{
1000
NOSEL
1070
     0
1002
}
1002
{
1000
BEHIND
1070
     0
1002
}
1002
{
1000
OTHER
1070
     0
1002
}
1002
{
1000
REACTOR
1002
}
  0
ARC
  5
11D9
  8
SAPA_PROFIL
 62
     4
 10
53.550000070899841
 20
107.2151831388498
 30
0.0
 40
1.1999999999995901
 50
359.999999999772
 51
89.999999999967429
1001
GENIUS_GENOBJ-N-FIL_13
1002
{
1000
OWNER
1000
GEN
1002
}
1001
GENIUS_GENODEF_13
1002
{
1000
HIER
1070
     0
1002
}
1002
{
1000
MANEDIT
1070
     0
1002
}
1002
{
1000
NOSEL
1070
     0
1002
}
1002
{
1000
BEHIND
1070
     0
1002
}
1002
{
1000
OTHER
1070
     0
1002
}
1002
{
1000
REACTOR
1002
}
  0
LINE
  5
11DA
  8
SAPA_PROFIL
 62
     4
 10
54.750000070899432
 20
107.21518313884511
 30
0.0
 11
54.750000070810302
 21
81.417448111923946
 31
0.0
1001
GENIUS_GENOBJ-N-FIL_13
1002
{
1000
OWNER
1000
GEN
1002
}
1001
GENIUS_GENODEF_13
1002
{
1000
HIER
1070
     0
1002
}
1002
{
1000
MANEDIT
1070
     0
1002
}
1002
{
1000
NOSEL
1070
     0
1002
}
1002
{
1000
BEHIND
1070
     0
1002
}
1002
{
1000
OTHER
1070
     0
1002
}
1002
{
1000
REACTOR
1002
}
  0
ARC
  5
11DB
  8
SAPA_PROFIL
 62
     4
 10
55.250000070810302
 20
81.417448111923946
 30
0.0
 40
0.5
 50
180.0
 51
270.0
1001
GENIUS_GENOBJ-N-FIL_13
1002
{
1000
OWNER
1000
GEN
1002
}
1001
GENIUS_GENODEF_13
1002
{
1000
HIER
1070
     0
1002
}
1002
{
1000
MANEDIT
1070
     0
1002
}
1002
{
1000
NOSEL
1070
     0
1002
}
1002
{
1000
BEHIND
1070
     0
1002
}
1002
{
1000
OTHER
1070
     0
1002
}
1002
{
1000
REACTOR
1002
}
  0
LINE
  5
11DC
  8
SAPA_PROFIL
 62
     4
 10
55.250000070810302
 20
80.917448111923932
 30
0.0
 11
55.45000007081012
 21
80.917448111923932
 31
0.0
1001
GENIUS_GENOBJ-N-FIL_13
1002
{
1000
OWNER
1000
GEN
1002
}
1001
GENIUS_GENODEF_13
1002
{
1000
HIER
1070
     0
1002
}
1002
{
1000
MANEDIT
1070
     0
1002
}
1002
{
1000
NOSEL
1070
     0
1002
}
1002
{
1000
BEHIND
1070
     0
1002
}
1002
{
1000
OTHER
1070
     0
1002
}
1002
{
1000
REACTOR
1002
}
  0
ARC
  5
11DD
  8
SAPA_PROFIL
 62
     4
 10
55.450000070810567
 20
81.217448111923659
 30
0.0
 40
0.2999999999997271
 50
269.99999999991309
 51
359.99999999991309
1001
GENIUS_GENOBJ-N-FIL_13
1002
{
1000
OWNER
1000
GEN
1002
}
1001
GENIUS_GENODEF_13
1002
{
1000
HIER
1070
     0
1002
}
1002
{
1000
MANEDIT
1070
     0
1002
}
1002
{
1000
NOSEL
1070
     0
1002
}
1002
{
1000
BEHIND
1070
     0
1002
}
1002
{
1000
OTHER
1070
     0
1002
}
1002
{
1000
REACTOR
1002
}
  0
LINE
  5
11DE
  8
SAPA_PROFIL
 62
     4
 10
55.750000070810302
 20
81.217448111923204
 30
0.0
 11
55.750000070810302
 21
81.867448111926478
 31
0.0
1001
GENIUS_GENOBJ-N-FIL_13
1002
{
1000
OWNER
1000
GEN
1002
}
1001
GENIUS_GENODEF_13
1002
{
1000
HIER
1070
     0
1002
}
1002
{
1000
MANEDIT
1070
     0
1002
}
1002
{
1000
NOSEL
1070
     0
1002
}
1002
{
1000
BEHIND
1070
     0
1002
}
1002
{
1000
OTHER
1070
     0
1002
}
1002
{
1000
REACTOR
1002
}
  0
ARC
  5
11DF
  8
SAPA_PROFIL
 62
     4
 10
56.050000070810491
 20
81.867448111925569
 30
0.0
 40
0.3000000000001819
 50
89.999999999826301
 51
179.99999999982629
1001
GENIUS_GENOBJ-N-FIL_13
1002
{
1000
OWNER
1000
GEN
1002
}
1001
GENIUS_GENODEF_13
1002
{
1000
HIER
1070
     0
1002
}
1002
{
1000
MANEDIT
1070
     0
1002
}
1002
{
1000
NOSEL
1070
     0
1002
}
1002
{
1000
BEHIND
1070
     0
1002
}
1002
{
1000
OTHER
1070
     0
1002
}
1002
{
1000
REACTOR
1002
}
  0
LINE
  5
11E0
  8
SAPA_PROFIL
 62
     4
 10
56.050000070811393
 20
82.167448111925736
 30
0.0
 11
56.950000070807391
 21
82.167448111925736
 31
0.0
1001
GENIUS_GENOBJ-N-FIL_13
1002
{
1000
OWNER
1000
GEN
1002
}
1001
GENIUS_GENODEF_13
1002
{
1000
HIER
1070
     0
1002
}
1002
{
1000
MANEDIT
1070
     0
1002
}
1002
{
1000
NOSEL
1070
     0
1002
}
1002
{
1000
BEHIND
1070
     0
1002
}
1002
{
1000
OTHER
1070
     0
1002
}
1002
{
1000
REACTOR
1002
}
  0
ARC
  5
11E1
  8
SAPA_PROFIL
 62
     4
 10
56.950000070807391
 20
81.667448111925751
 30
0.0
 40
0.5
 50
0.0
 51
90.0
1001
GENIUS_GENOBJ-N-FIL_13
1002
{
1000
OWNER
1000
GEN
1002
}
1001
GENIUS_GENODEF_13
1002
{
1000
HIER
1070
     0
1002
}
1002
{
1000
MANEDIT
1070
     0
1002
}
1002
{
1000
NOSEL
1070
     0
1002
}
1002
{
1000
BEHIND
1070
     0
1002
}
1002
{
1000
OTHER
1070
     0
1002
}
1002
{
1000
REACTOR
1002
}
  0
LINE
  5
11E2
  8
SAPA_PROFIL
 62
     4
 10
57.450000070807391
 20
81.667448111925751
 30
0.0
 11
57.450000070807391
 21
75.667448111923932
 31
0.0
1001
GENIUS_GENOBJ-N-FIL_13
1002
{
1000
OWNER
1000
GEN
1002
}
1001
GENIUS_GENODEF_13
1002
{
1000
HIER
1070
     0
1002
}
1002
{
1000
MANEDIT
1070
     0
1002
}
1002
{
1000
NOSEL
1070
     0
1002
}
1002
{
1000
BEHIND
1070
     0
1002
}
1002
{
1000
OTHER
1070
     0
1002
}
1002
{
1000
REACTOR
1002
}
  0
ARC
  5
11E3
  8
SAPA_PROFIL
 62
     4
 10
56.950000070807391
 20
75.667448111923932
 30
0.0
 40
0.5
 50
270.0
 51
0.0
1001
GENIUS_GENOBJ-N-FIL_13
1002
{
1000
OWNER
1000
GEN
1002
}
1001
GENIUS_GENODEF_13
1002
{
1000
HIER
1070
     0
1002
}
1002
{
1000
MANEDIT
1070
     0
1002
}
1002
{
1000
NOSEL
1070
     0
1002
}
1002
{
1000
BEHIND
1070
     0
1002
}
1002
{
1000
OTHER
1070
     0
1002
}
1002
{
1000
REACTOR
1002
}
  0
LINE
  5
11E4
  8
SAPA_PROFIL
 62
     4
 10
56.950000070807391
 20
75.167448111923932
 30
0.0
 11
56.050000070808657
 21
75.167448111923932
 31
0.0
1001
GENIUS_GENOBJ-N-FIL_13
1002
{
1000
OWNER
1000
GEN
1002
}
1001
GENIUS_GENODEF_13
1002
{
1000
HIER
1070
     0
1002
}
1002
{
1000
MANEDIT
1070
     0
1002
}
1002
{
1000
NOSEL
1070
     0
1002
}
1002
{
1000
BEHIND
1070
     0
1002
}
1002
{
1000
OTHER
1070
     0
1002
}
1002
{
1000
REACTOR
1002
}
  0
ARC
  5
11E5
  8
SAPA_PROFIL
 62
     4
 10
56.050000070808778
 20
75.467448111923318
 30
0.0
 40
0.2999999999993861
 50
180.00000000036911
 51
269.99999999997829
1001
GENIUS_GENOBJ-N-FIL_13
1002
{
1000
OWNER
1000
GEN
1002
}
1001
GENIUS_GENODEF_13
1002
{
1000
HIER
1070
     0
1002
}
1002
{
1000
MANEDIT
1070
     0
1002
}
1002
{
1000
NOSEL
1070
     0
1002
}
1002
{
1000
BEHIND
1070
     0
1002
}
1002
{
1000
OTHER
1070
     0
1002
}
1002
{
1000
REACTOR
1002
}
  0
LINE
  5
11E6
  8
SAPA_PROFIL
 62
     4
 10
55.750000070809392
 20
75.467448111921385
 30
0.0
 11
55.750000070804838
 21
76.117448111924645
 31
0.0
1001
GENIUS_GENOBJ-N-FIL_13
1002
{
1000
OWNER
1000
GEN
1002
}
1001
GENIUS_GENODEF_13
1002
{
1000
HIER
1070
     0
1002
}
1002
{
1000
MANEDIT
1070
     0
1002
}
1002
{
1000
NOSEL
1070
     0
1002
}
1002
{
1000
BEHIND
1070
     0
1002
}
1002
{
1000
OTHER
1070
     0
1002
}
1002
{
1000
REACTOR
1002
}
  0
ARC
  5
11E7
  8
SAPA_PROFIL
 62
     4
 10
55.450000070805118
 20
76.117448111922386
 30
0.0
 40
0.2999999999997271
 50
0.0000000004342517
 51
90.000000000434241
1001
GENIUS_GENOBJ-N-FIL_13
1002
{
1000
OWNER
1000
GEN
1002
}
1001
GENIUS_GENODEF_13
1002
{
1000
HIER
1070
     0
1002
}
1002
{
1000
MANEDIT
1070
     0
1002
}
1002
{
1000
NOSEL
1070
     0
1002
}
1002
{
1000
BEHIND
1070
     0
1002
}
1002
{
1000
OTHER
1070
     0
1002
}
1002
{
1000
REACTOR
1002
}
  0
LINE
  5
11E8
  8
SAPA_PROFIL
 62
     4
 10
55.450000070802837
 20
76.417448111922113
 30
0.0
 11
55.250000070810302
 21
76.417448111920294
 31
0.0
1001
GENIUS_GENOBJ-N-FIL_13
1002
{
1000
OWNER
1000
GEN
1002
}
1001
GENIUS_GENODEF_13
1002
{
1000
HIER
1070
     0
1002
}
1002
{
1000
MANEDIT
1070
     0
1002
}
1002
{
1000
NOSEL
1070
     0
1002
}
1002
{
1000
BEHIND
1070
     0
1002
}
1002
{
1000
OTHER
1070
     0
1002
}
1002
{
1000
REACTOR
1002
}
  0
ARC
  5
11E9
  8
SAPA_PROFIL
 62
     4
 10
55.250000070810302
 20
75.917448111920294
 30
0.0
 40
0.5
 50
90.0
 51
180.0
1001
GENIUS_GENOBJ-N-FIL_13
1002
{
1000
OWNER
1000
GEN
1002
}
1001
GENIUS_GENODEF_13
1002
{
1000
HIER
1070
     0
1002
}
1002
{
1000
MANEDIT
1070
     0
1002
}
1002
{
1000
NOSEL
1070
     0
1002
}
1002
{
1000
BEHIND
1070
     0
1002
}
1002
{
1000
OTHER
1070
     0
1002
}
1002
{
1000
REACTOR
1002
}
  0
LINE
  5
11EA
  8
SAPA_PROFIL
 62
     4
 10
54.750000070810302
 20
75.917448111920294
 30
0.0
 11
54.750000070810302
 21
72.917448111920294
 31
0.0
1001
GENIUS_GENOBJ-N-FIL_13
1002
{
1000
OWNER
1000
GEN
1002
}
1001
GENIUS_GENODEF_13
1002
{
1000
HIER
1070
     0
1002
}
1002
{
1000
MANEDIT
1070
     0
1002
}
1002
{
1000
NOSEL
1070
     0
1002
}
1002
{
1000
BEHIND
1070
     0
1002
}
1002
{
1000
OTHER
1070
     0
1002
}
1002
{
1000
REACTOR
1002
}
  0
ARC
  5
11EB
  8
SAPA_PROFIL
 62
     4
 10
55.250000070810302
 20
72.917448111920294
 30
0.0
 40
0.5
 50
180.0
 51
270.0
1001
GENIUS_GENOBJ-N-FIL_13
1002
{
1000
OWNER
1000
GEN
1002
}
1001
GENIUS_GENODEF_13
1002
{
1000
HIER
1070
     0
1002
}
1002
{
1000
MANEDIT
1070
     0
1002
}
1002
{
1000
NOSEL
1070
     0
1002
}
1002
{
1000
BEHIND
1070
     0
1002
}
1002
{
1000
OTHER
1070
     0
1002
}
1002
{
1000
REACTOR
1002
}
  0
LINE
  5
11EC
  8
SAPA_PROFIL
 62
     4
 10
55.250000070810302
 20
72.417448111920294
 30
0.0
 11
55.45000007081012
 21
72.417448111920294
 31
0.0
1001
GENIUS_GENOBJ-N-FIL_13
1002
{
1000
OWNER
1000
GEN
1002
}
1001
GENIUS_GENODEF_13
1002
{
1000
HIER
1070
     0
1002
}
1002
{
1000
MANEDIT
1070
     0
1002
}
1002
{
1000
NOSEL
1070
     0
1002
}
1002
{
1000
BEHIND
1070
     0
1002
}
1002
{
1000
OTHER
1070
     0
1002
}
1002
{
1000
REACTOR
1002
}
  0
ARC
  5
11ED
  8
SAPA_PROFIL
 62
     4
 10
55.450000070809658
 20
72.71744811192093
 30
0.0
 40
0.3000000000006366
 50
270.0000000000868
 51
0.0000000000868503
1001
GENIUS_GENOBJ-N-FIL_13
1002
{
1000
OWNER
1000
GEN
1002
}
1001
GENIUS_GENODEF_13
1002
{
1000
HIER
1070
     0
1002
}
1002
{
1000
MANEDIT
1070
     0
1002
}
1002
{
1000
NOSEL
1070
     0
1002
}
1002
{
1000
BEHIND
1070
     0
1002
}
1002
{
1000
OTHER
1070
     0
1002
}
1002
{
1000
REACTOR
1002
}
  0
LINE
  5
11EE
  8
SAPA_PROFIL
 62
     4
 10
55.750000070810302
 20
72.717448111921385
 30
0.0
 11
55.750000070810302
 21
73.367448111921021
 31
0.0
1001
GENIUS_GENOBJ-N-FIL_13
1002
{
1000
OWNER
1000
GEN
1002
}
1001
GENIUS_GENODEF_13
1002
{
1000
HIER
1070
     0
1002
}
1002
{
1000
MANEDIT
1070
     0
1002
}
1002
{
1000
NOSEL
1070
     0
1002
}
1002
{
1000
BEHIND
1070
     0
1002
}
1002
{
1000
OTHER
1070
     0
1002
}
1002
{
1000
REACTOR
1002
}
  0
ARC
  5
11EF
  8
SAPA_PROFIL
 62
     4
 10
56.050000070810491
 20
73.367448111920112
 30
0.0
 40
0.3000000000001819
 50
89.999999999826301
 51
179.99999999982629
1001
GENIUS_GENOBJ-N-FIL_13
1002
{
1000
OWNER
1000
GEN
1002
}
1001
GENIUS_GENODEF_13
1002
{
1000
HIER
1070
     0
1002
}
1002
{
1000
MANEDIT
1070
     0
1002
}
1002
{
1000
NOSEL
1070
     0
1002
}
1002
{
1000
BEHIND
1070
     0
1002
}
1002
{
1000
OTHER
1070
     0
1002
}
1002
{
1000
REACTOR
1002
}
  0
LINE
  5
11F0
  8
SAPA_PROFIL
 62
     4
 10
56.050000070811393
 20
73.667448111920294
 30
0.0
 11
56.950000070807391
 21
73.667448111920294
 31
0.0
1001
GENIUS_GENOBJ-N-FIL_13
1002
{
1000
OWNER
1000
GEN
1002
}
1001
GENIUS_GENODEF_13
1002
{
1000
HIER
1070
     0
1002
}
1002
{
1000
MANEDIT
1070
     0
1002
}
1002
{
1000
NOSEL
1070
     0
1002
}
1002
{
1000
BEHIND
1070
     0
1002
}
1002
{
1000
OTHER
1070
     0
1002
}
1002
{
1000
REACTOR
1002
}
  0
ARC
  5
11F1
  8
SAPA_PROFIL
 62
     4
 10
56.950000070807391
 20
73.167448111920294
 30
0.0
 40
0.5
 50
0.0
 51
90.0
1001
GENIUS_GENOBJ-N-FIL_13
1002
{
1000
OWNER
1000
GEN
1002
}
1001
GENIUS_GENODEF_13
1002
{
1000
HIER
1070
     0
1002
}
1002
{
1000
MANEDIT
1070
     0
1002
}
1002
{
1000
NOSEL
1070
     0
1002
}
1002
{
1000
BEHIND
1070
     0
1002
}
1002
{
1000
OTHER
1070
     0
1002
}
1002
{
1000
REACTOR
1002
}
  0
LINE
  5
11F2
  8
SAPA_PROFIL
 62
     4
 10
57.450000070807391
 20
73.167448111920294
 30
0.0
 11
57.450000070807391
 21
67.167448111920294
 31
0.0
1001
GENIUS_GENOBJ-N-FIL_13
1002
{
1000
OWNER
1000
GEN
1002
}
1001
GENIUS_GENODEF_13
1002
{
1000
HIER
1070
     0
1002
}
1002
{
1000
MANEDIT
1070
     0
1002
}
1002
{
1000
NOSEL
1070
     0
1002
}
1002
{
1000
BEHIND
1070
     0
1002
}
1002
{
1000
OTHER
1070
     0
1002
}
1002
{
1000
REACTOR
1002
}
  0
ARC
  5
11F3
  8
SAPA_PROFIL
 62
     4
 10
56.950000070807391
 20
67.167448111920294
 30
0.0
 40
0.5
 50
270.0
 51
0.0
1001
GENIUS_GENOBJ-N-FIL_13
1002
{
1000
OWNER
1000
GEN
1002
}
1001
GENIUS_GENODEF_13
1002
{
1000
HIER
1070
     0
1002
}
1002
{
1000
MANEDIT
1070
     0
1002
}
1002
{
1000
NOSEL
1070
     0
1002
}
1002
{
1000
BEHIND
1070
     0
1002
}
1002
{
1000
OTHER
1070
     0
1002
}
1002
{
1000
REACTOR
1002
}
  0
LINE
  5
11F4
  8
SAPA_PROFIL
 62
     4
 10
56.950000070807391
 20
66.667448111920294
 30
0.0
 11
56.050000070811393
 21
66.667448111920294
 31
0.0
1001
GENIUS_GENOBJ-N-FIL_13
1002
{
1000
OWNER
1000
GEN
1002
}
1001
GENIUS_GENODEF_13
1002
{
1000
HIER
1070
     0
1002
}
1002
{
1000
MANEDIT
1070
     0
1002
}
1002
{
1000
NOSEL
1070
     0
1002
}
1002
{
1000
BEHIND
1070
     0
1002
}
1002
{
1000
OTHER
1070
     0
1002
}
1002
{
1000
REACTOR
1002
}
  0
ARC
  5
11F5
  8
SAPA_PROFIL
 62
     4
 10
56.050000070811393
 20
66.967448111921385
 30
0.0
 40
0.3000000000010914
 50
180.0
 51
270.0
1001
GENIUS_GENOBJ-N-FIL_13
1002
{
1000
OWNER
1000
GEN
1002
}
1001
GENIUS_GENODEF_13
1002
{
1000
HIER
1070
     0
1002
}
1002
{
1000
MANEDIT
1070
     0
1002
}
1002
{
1000
NOSEL
1070
     0
1002
}
1002
{
1000
BEHIND
1070
     0
1002
}
1002
{
1000
OTHER
1070
     0
1002
}
1002
{
1000
REACTOR
1002
}
  0
LINE
  5
11F6
  8
SAPA_PROFIL
 62
     4
 10
55.750000070810302
 20
66.967448111921385
 30
0.0
 11
55.750000070810302
 21
67.617448111921021
 31
0.0
1001
GENIUS_GENOBJ-N-FIL_13
1002
{
1000
OWNER
1000
GEN
1002
}
1001
GENIUS_GENODEF_13
1002
{
1000
HIER
1070
     0
1002
}
1002
{
1000
MANEDIT
1070
     0
1002
}
1002
{
1000
NOSEL
1070
     0
1002
}
1002
{
1000
BEHIND
1070
     0
1002
}
1002
{
1000
OTHER
1070
     0
1002
}
1002
{
1000
REACTOR
1002
}
  0
ARC
  5
11F7
  8
SAPA_PROFIL
 62
     4
 10
55.450000070810567
 20
67.617448111920567
 30
0.0
 40
0.2999999999997271
 50
0.0000000000868503
 51
90.000000000086857
1001
GENIUS_GENOBJ-N-FIL_13
1002
{
1000
OWNER
1000
GEN
1002
}
1001
GENIUS_GENODEF_13
1002
{
1000
HIER
1070
     0
1002
}
1002
{
1000
MANEDIT
1070
     0
1002
}
1002
{
1000
NOSEL
1070
     0
1002
}
1002
{
1000
BEHIND
1070
     0
1002
}
1002
{
1000
OTHER
1070
     0
1002
}
1002
{
1000
REACTOR
1002
}
  0
LINE
  5
11F8
  8
SAPA_PROFIL
 62
     4
 10
55.45000007081012
 20
67.917448111920294
 30
0.0
 11
55.250000070810302
 21
67.917448111920294
 31
0.0
1001
GENIUS_GENOBJ-N-FIL_13
1002
{
1000
OWNER
1000
GEN
1002
}
1001
GENIUS_GENODEF_13
1002
{
1000
HIER
1070
     0
1002
}
1002
{
1000
MANEDIT
1070
     0
1002
}
1002
{
1000
NOSEL
1070
     0
1002
}
1002
{
1000
BEHIND
1070
     0
1002
}
1002
{
1000
OTHER
1070
     0
1002
}
1002
{
1000
REACTOR
1002
}
  0
ARC
  5
11F9
  8
SAPA_PROFIL
 62
     4
 10
55.250000070810302
 20
67.417448111920294
 30
0.0
 40
0.5
 50
90.0
 51
180.0
1001
GENIUS_GENOBJ-N-FIL_13
1002
{
1000
OWNER
1000
GEN
1002
}
1001
GENIUS_GENODEF_13
1002
{
1000
HIER
1070
     0
1002
}
1002
{
1000
MANEDIT
1070
     0
1002
}
1002
{
1000
NOSEL
1070
     0
1002
}
1002
{
1000
BEHIND
1070
     0
1002
}
1002
{
1000
OTHER
1070
     0
1002
}
1002
{
1000
REACTOR
1002
}
  0
LINE
  5
11FA
  8
SAPA_PROFIL
 62
     4
 10
54.750000070810302
 20
67.417448111920294
 30
0.0
 11
54.750000070811211
 21
65.667448111920294
 31
0.0
1001
GENIUS_GENOBJ-N-FIL_13
1002
{
1000
OWNER
1000
GEN
1002
}
1001
GENIUS_GENODEF_13
1002
{
1000
HIER
1070
     0
1002
}
1002
{
1000
MANEDIT
1070
     0
1002
}
1002
{
1000
NOSEL
1070
     0
1002
}
1002
{
1000
BEHIND
1070
     0
1002
}
1002
{
1000
OTHER
1070
     0
1002
}
1002
{
1000
REACTOR
1002
}
  0
ARC
  5
11FB
  8
SAPA_PROFIL
 62
     4
 10
55.250000070978437
 20
65.667448112087527
 30
0.0
 40
0.5000000001672335
 50
180.00000001916351
 51
270.00000001908541
1001
GENIUS_GENOBJ-N-FIL_13
1002
{
1000
OWNER
1000
GEN
1002
}
1001
GENIUS_GENODEF_13
1002
{
1000
HIER
1070
     0
1002
}
1002
{
1000
MANEDIT
1070
     0
1002
}
1002
{
1000
NOSEL
1070
     0
1002
}
1002
{
1000
BEHIND
1070
     0
1002
}
1002
{
1000
OTHER
1070
     0
1002
}
1002
{
1000
REACTOR
1002
}
  0
LINE
  5
11FC
  8
SAPA_PROFIL
 62
     4
 10
55.250000071144989
 20
65.167448111920294
 30
0.0
 11
68.250000071152272
 21
65.167448111920294
 31
0.0
1001
GENIUS_GENOBJ-N-FIL_13
1002
{
1000
OWNER
1000
GEN
1002
}
1001
GENIUS_GENODEF_13
1002
{
1000
HIER
1070
     0
1002
}
1002
{
1000
MANEDIT
1070
     0
1002
}
1002
{
1000
NOSEL
1070
     0
1002
}
1002
{
1000
BEHIND
1070
     0
1002
}
1002
{
1000
OTHER
1070
     0
1002
}
1002
{
1000
REACTOR
1002
}
  0
ARC
  5
11FD
  8
SAPA_PROFIL
 62
     4
 10
68.250000071291538
 20
65.667448112057514
 30
0.0
 40
0.5000000001372201
 50
269.99999998404132
 51
359.9999999840673
1001
GENIUS_GENOBJ-N-FIL_13
1002
{
1000
OWNER
1000
GEN
1002
}
1001
GENIUS_GENODEF_13
1002
{
1000
HIER
1070
     0
1002
}
1002
{
1000
MANEDIT
1070
     0
1002
}
1002
{
1000
NOSEL
1070
     0
1002
}
1002
{
1000
BEHIND
1070
     0
1002
}
1002
{
1000
OTHER
1070
     0
1002
}
1002
{
1000
REACTOR
1002
}
  0
LINE
  5
11FE
  8
SAPA_PROFIL
 62
     4
 10
68.750000071428758
 20
65.667448111918475
 30
0.0
 11
68.750000071428758
 21
67.417448111918475
 31
0.0
1001
GENIUS_GENOBJ-N-FIL_13
1002
{
1000
OWNER
1000
GEN
1002
}
1001
GENIUS_GENODEF_13
1002
{
1000
HIER
1070
     0
1002
}
1002
{
1000
MANEDIT
1070
     0
1002
}
1002
{
1000
NOSEL
1070
     0
1002
}
1002
{
1000
BEHIND
1070
     0
1002
}
1002
{
1000
OTHER
1070
     0
1002
}
1002
{
1000
REACTOR
1002
}
  0
ARC
  5
11FF
  8
SAPA_PROFIL
 62
     4
 10
68.250000071428744
 20
67.417448111918475
 30
0.0
 40
0.5
 50
0.0
 51
90.0
1001
GENIUS_GENOBJ-N-FIL_13
1002
{
1000
OWNER
1000
GEN
1002
}
1001
GENIUS_GENODEF_13
1002
{
1000
HIER
1070
     0
1002
}
1002
{
1000
MANEDIT
1070
     0
1002
}
1002
{
1000
NOSEL
1070
     0
1002
}
1002
{
1000
BEHIND
1070
     0
1002
}
1002
{
1000
OTHER
1070
     0
1002
}
1002
{
1000
REACTOR
1002
}
  0
LINE
  5
1200
  8
SAPA_PROFIL
 62
     4
 10
68.250000071428744
 20
67.917448111918475
 30
0.0
 11
68.050000071428926
 21
67.917448111918475
 31
0.0
1001
GENIUS_GENOBJ-N-FIL_13
1002
{
1000
OWNER
1000
GEN
1002
}
1001
GENIUS_GENODEF_13
1002
{
1000
HIER
1070
     0
1002
}
1002
{
1000
MANEDIT
1070
     0
1002
}
1002
{
1000
NOSEL
1070
     0
1002
}
1002
{
1000
BEHIND
1070
     0
1002
}
1002
{
1000
OTHER
1070
     0
1002
}
1002
{
1000
REACTOR
1002
}
  0
ARC
  5
1201
  8
SAPA_PROFIL
 62
     4
 10
68.050000071428485
 20
67.617448111918733
 30
0.0
 40
0.2999999999997271
 50
89.999999999913143
 51
179.99999999991309
1001
GENIUS_GENOBJ-N-FIL_13
1002
{
1000
OWNER
1000
GEN
1002
}
1001
GENIUS_GENODEF_13
1002
{
1000
HIER
1070
     0
1002
}
1002
{
1000
MANEDIT
1070
     0
1002
}
1002
{
1000
NOSEL
1070
     0
1002
}
1002
{
1000
BEHIND
1070
     0
1002
}
1002
{
1000
OTHER
1070
     0
1002
}
1002
{
1000
REACTOR
1002
}
  0
LINE
  5
1202
  8
SAPA_PROFIL
 62
     4
 10
67.750000071428744
 20
67.617448111919202
 30
0.0
 11
67.750000071428744
 21
66.967448111919566
 31
0.0
1001
GENIUS_GENOBJ-N-FIL_13
1002
{
1000
OWNER
1000
GEN
1002
}
1001
GENIUS_GENODEF_13
1002
{
1000
HIER
1070
     0
1002
}
1002
{
1000
MANEDIT
1070
     0
1002
}
1002
{
1000
NOSEL
1070
     0
1002
}
1002
{
1000
BEHIND
1070
     0
1002
}
1002
{
1000
OTHER
1070
     0
1002
}
1002
{
1000
REACTOR
1002
}
  0
ARC
  5
1203
  8
SAPA_PROFIL
 62
     4
 10
67.450000071428576
 20
66.967448111918657
 30
0.0
 40
0.3000000000001819
 50
270.00000000017371
 51
0.0000000001737007
1001
GENIUS_GENOBJ-N-FIL_13
1002
{
1000
OWNER
1000
GEN
1002
}
1001
GENIUS_GENODEF_13
1002
{
1000
HIER
1070
     0
1002
}
1002
{
1000
MANEDIT
1070
     0
1002
}
1002
{
1000
NOSEL
1070
     0
1002
}
1002
{
1000
BEHIND
1070
     0
1002
}
1002
{
1000
OTHER
1070
     0
1002
}
1002
{
1000
REACTOR
1002
}
  0
LINE
  5
1204
  8
SAPA_PROFIL
 62
     4
 10
67.450000071429486
 20
66.667448111918475
 30
0.0
 11
66.550000071431668
 21
66.667448111918475
 31
0.0
1001
GENIUS_GENOBJ-N-FIL_13
1002
{
1000
OWNER
1000
GEN
1002
}
1001
GENIUS_GENODEF_13
1002
{
1000
HIER
1070
     0
1002
}
1002
{
1000
MANEDIT
1070
     0
1002
}
1002
{
1000
NOSEL
1070
     0
1002
}
1002
{
1000
BEHIND
1070
     0
1002
}
1002
{
1000
OTHER
1070
     0
1002
}
1002
{
1000
REACTOR
1002
}
  0
ARC
  5
1205
  8
SAPA_PROFIL
 62
     4
 10
66.550000071431668
 20
67.167448111918475
 30
0.0
 40
0.5
 50
180.0
 51
270.0
1001
GENIUS_GENOBJ-N-FIL_13
1002
{
1000
OWNER
1000
GEN
1002
}
1001
GENIUS_GENODEF_13
1002
{
1000
HIER
1070
     0
1002
}
1002
{
1000
MANEDIT
1070
     0
1002
}
1002
{
1000
NOSEL
1070
     0
1002
}
1002
{
1000
BEHIND
1070
     0
1002
}
1002
{
1000
OTHER
1070
     0
1002
}
1002
{
1000
REACTOR
1002
}
  0
LINE
  5
1206
  8
SAPA_PROFIL
 62
     4
 10
66.050000071431668
 20
67.167448111918475
 30
0.0
 11
66.050000071431668
 21
73.167448111918475
 31
0.0
1001
GENIUS_GENOBJ-N-FIL_13
1002
{
1000
OWNER
1000
GEN
1002
}
1001
GENIUS_GENODEF_13
1002
{
1000
HIER
1070
     0
1002
}
1002
{
1000
MANEDIT
1070
     0
1002
}
1002
{
1000
NOSEL
1070
     0
1002
}
1002
{
1000
BEHIND
1070
     0
1002
}
1002
{
1000
OTHER
1070
     0
1002
}
1002
{
1000
REACTOR
1002
}
  0
ARC
  5
1207
  8
SAPA_PROFIL
 62
     4
 10
66.550000071431668
 20
73.167448111918475
 30
0.0
 40
0.5
 50
90.0
 51
180.0
1001
GENIUS_GENOBJ-N-FIL_13
1002
{
1000
OWNER
1000
GEN
1002
}
1001
GENIUS_GENODEF_13
1002
{
1000
HIER
1070
     0
1002
}
1002
{
1000
MANEDIT
1070
     0
1002
}
1002
{
1000
NOSEL
1070
     0
1002
}
1002
{
1000
BEHIND
1070
     0
1002
}
1002
{
1000
OTHER
1070
     0
1002
}
1002
{
1000
REACTOR
1002
}
  0
LINE
  5
1208
  8
SAPA_PROFIL
 62
     4
 10
66.550000071431668
 20
73.667448111918475
 30
0.0
 11
67.450000071429486
 21
73.667448111918475
 31
0.0
1001
GENIUS_GENOBJ-N-FIL_13
1002
{
1000
OWNER
1000
GEN
1002
}
1001
GENIUS_GENODEF_13
1002
{
1000
HIER
1070
     0
1002
}
1002
{
1000
MANEDIT
1070
     0
1002
}
1002
{
1000
NOSEL
1070
     0
1002
}
1002
{
1000
BEHIND
1070
     0
1002
}
1002
{
1000
OTHER
1070
     0
1002
}
1002
{
1000
REACTOR
1002
}
  0
ARC
  5
1209
  8
SAPA_PROFIL
 62
     4
 10
67.450000071429486
 20
73.367448111919202
 30
0.0
 40
0.2999999999992724
 50
0.0
 51
90.0
1001
GENIUS_GENOBJ-N-FIL_13
1002
{
1000
OWNER
1000
GEN
1002
}
1001
GENIUS_GENODEF_13
1002
{
1000
HIER
1070
     0
1002
}
1002
{
1000
MANEDIT
1070
     0
1002
}
1002
{
1000
NOSEL
1070
     0
1002
}
1002
{
1000
BEHIND
1070
     0
1002
}
1002
{
1000
OTHER
1070
     0
1002
}
1002
{
1000
REACTOR
1002
}
  0
LINE
  5
120A
  8
SAPA_PROFIL
 62
     4
 10
67.750000071428744
 20
73.367448111919202
 30
0.0
 11
67.750000071428744
 21
72.717448111919566
 31
0.0
1001
GENIUS_GENOBJ-N-FIL_13
1002
{
1000
OWNER
1000
GEN
1002
}
1001
GENIUS_GENODEF_13
1002
{
1000
HIER
1070
     0
1002
}
1002
{
1000
MANEDIT
1070
     0
1002
}
1002
{
1000
NOSEL
1070
     0
1002
}
1002
{
1000
BEHIND
1070
     0
1002
}
1002
{
1000
OTHER
1070
     0
1002
}
1002
{
1000
REACTOR
1002
}
  0
ARC
  5
120B
  8
SAPA_PROFIL
 62
     4
 10
68.050000071429395
 20
72.717448111919111
 30
0.0
 40
0.3000000000006366
 50
179.99999999991309
 51
269.99999999991309
1001
GENIUS_GENOBJ-N-FIL_13
1002
{
1000
OWNER
1000
GEN
1002
}
1001
GENIUS_GENODEF_13
1002
{
1000
HIER
1070
     0
1002
}
1002
{
1000
MANEDIT
1070
     0
1002
}
1002
{
1000
NOSEL
1070
     0
1002
}
1002
{
1000
BEHIND
1070
     0
1002
}
1002
{
1000
OTHER
1070
     0
1002
}
1002
{
1000
REACTOR
1002
}
  0
LINE
  5
120C
  8
SAPA_PROFIL
 62
     4
 10
68.050000071428926
 20
72.417448111918475
 30
0.0
 11
68.250000071428744
 21
72.417448111918475
 31
0.0
1001
GENIUS_GENOBJ-N-FIL_13
1002
{
1000
OWNER
1000
GEN
1002
}
1001
GENIUS_GENODEF_13
1002
{
1000
HIER
1070
     0
1002
}
1002
{
1000
MANEDIT
1070
     0
1002
}
1002
{
1000
NOSEL
1070
     0
1002
}
1002
{
1000
BEHIND
1070
     0
1002
}
1002
{
1000
OTHER
1070
     0
1002
}
1002
{
1000
REACTOR
1002
}
  0
ARC
  5
120D
  8
SAPA_PROFIL
 62
     4
 10
68.250000071428744
 20
72.917448111918475
 30
0.0
 40
0.5
 50
270.0
 51
0.0
1001
GENIUS_GENOBJ-N-FIL_13
1002
{
1000
OWNER
1000
GEN
1002
}
1001
GENIUS_GENODEF_13
1002
{
1000
HIER
1070
     0
1002
}
1002
{
1000
MANEDIT
1070
     0
1002
}
1002
{
1000
NOSEL
1070
     0
1002
}
1002
{
1000
BEHIND
1070
     0
1002
}
1002
{
1000
OTHER
1070
     0
1002
}
1002
{
1000
REACTOR
1002
}
  0
LINE
  5
120E
  8
SAPA_PROFIL
 62
     4
 10
68.750000071428758
 20
72.917448111918475
 30
0.0
 11
68.750000071428758
 21
75.917448111918475
 31
0.0
1001
GENIUS_GENOBJ-N-FIL_13
1002
{
1000
OWNER
1000
GEN
1002
}
1001
GENIUS_GENODEF_13
1002
{
1000
HIER
1070
     0
1002
}
1002
{
1000
MANEDIT
1070
     0
1002
}
1002
{
1000
NOSEL
1070
     0
1002
}
1002
{
1000
BEHIND
1070
     0
1002
}
1002
{
1000
OTHER
1070
     0
1002
}
1002
{
1000
REACTOR
1002
}
  0
ARC
  5
120F
  8
SAPA_PROFIL
 62
     4
 10
68.250000071428744
 20
75.917448111918475
 30
0.0
 40
0.5
 50
0.0
 51
90.0
1001
GENIUS_GENOBJ-N-FIL_13
1002
{
1000
OWNER
1000
GEN
1002
}
1001
GENIUS_GENODEF_13
1002
{
1000
HIER
1070
     0
1002
}
1002
{
1000
MANEDIT
1070
     0
1002
}
1002
{
1000
NOSEL
1070
     0
1002
}
1002
{
1000
BEHIND
1070
     0
1002
}
1002
{
1000
OTHER
1070
     0
1002
}
1002
{
1000
REACTOR
1002
}
  0
LINE
  5
1210
  8
SAPA_PROFIL
 62
     4
 10
68.250000071428744
 20
76.417448111918475
 30
0.0
 11
68.050000071436216
 21
76.417448111920294
 31
0.0
1001
GENIUS_GENOBJ-N-FIL_13
1002
{
1000
OWNER
1000
GEN
1002
}
1001
GENIUS_GENODEF_13
1002
{
1000
HIER
1070
     0
1002
}
1002
{
1000
MANEDIT
1070
     0
1002
}
1002
{
1000
NOSEL
1070
     0
1002
}
1002
{
1000
BEHIND
1070
     0
1002
}
1002
{
1000
OTHER
1070
     0
1002
}
1002
{
1000
REACTOR
1002
}
  0
ARC
  5
1211
  8
SAPA_PROFIL
 62
     4
 10
68.050000071434056
 20
76.117448111920453
 30
0.0
 40
0.2999999999998408
 50
89.999999999587473
 51
179.999999999544
1001
GENIUS_GENOBJ-N-FIL_13
1002
{
1000
OWNER
1000
GEN
1002
}
1001
GENIUS_GENODEF_13
1002
{
1000
HIER
1070
     0
1002
}
1002
{
1000
MANEDIT
1070
     0
1002
}
1002
{
1000
NOSEL
1070
     0
1002
}
1002
{
1000
BEHIND
1070
     0
1002
}
1002
{
1000
OTHER
1070
     0
1002
}
1002
{
1000
REACTOR
1002
}
  0
LINE
  5
1212
  8
SAPA_PROFIL
 62
     4
 10
67.750000071434215
 20
76.11744811192284
 30
0.0
 11
67.750000071431487
 21
75.467448111921385
 31
0.0
1001
GENIUS_GENOBJ-N-FIL_13
1002
{
1000
OWNER
1000
GEN
1002
}
1001
GENIUS_GENODEF_13
1002
{
1000
HIER
1070
     0
1002
}
1002
{
1000
MANEDIT
1070
     0
1002
}
1002
{
1000
NOSEL
1070
     0
1002
}
1002
{
1000
BEHIND
1070
     0
1002
}
1002
{
1000
OTHER
1070
     0
1002
}
1002
{
1000
REACTOR
1002
}
  0
ARC
  5
1213
  8
SAPA_PROFIL
 62
     4
 10
67.45000007143085
 20
75.467448111922749
 30
0.0
 40
0.3000000000006366
 50
269.99999999991309
 51
359.99999999973937
1001
GENIUS_GENOBJ-N-FIL_13
1002
{
1000
OWNER
1000
GEN
1002
}
1001
GENIUS_GENODEF_13
1002
{
1000
HIER
1070
     0
1002
}
1002
{
1000
MANEDIT
1070
     0
1002
}
1002
{
1000
NOSEL
1070
     0
1002
}
1002
{
1000
BEHIND
1070
     0
1002
}
1002
{
1000
OTHER
1070
     0
1002
}
1002
{
1000
REACTOR
1002
}
  0
LINE
  5
1214
  8
SAPA_PROFIL
 62
     4
 10
67.450000071430395
 20
75.167448111922113
 30
0.0
 11
66.550000071431668
 21
75.167448111922113
 31
0.0
1001
GENIUS_GENOBJ-N-FIL_13
1002
{
1000
OWNER
1000
GEN
1002
}
1001
GENIUS_GENODEF_13
1002
{
1000
HIER
1070
     0
1002
}
1002
{
1000
MANEDIT
1070
     0
1002
}
1002
{
1000
NOSEL
1070
     0
1002
}
1002
{
1000
BEHIND
1070
     0
1002
}
1002
{
1000
OTHER
1070
     0
1002
}
1002
{
1000
REACTOR
1002
}
  0
ARC
  5
1215
  8
SAPA_PROFIL
 62
     4
 10
66.550000071431668
 20
75.667448111922113
 30
0.0
 40
0.5
 50
180.0
 51
270.0
1001
GENIUS_GENOBJ-N-FIL_13
1002
{
1000
OWNER
1000
GEN
1002
}
1001
GENIUS_GENODEF_13
1002
{
1000
HIER
1070
     0
1002
}
1002
{
1000
MANEDIT
1070
     0
1002
}
1002
{
1000
NOSEL
1070
     0
1002
}
1002
{
1000
BEHIND
1070
     0
1002
}
1002
{
1000
OTHER
1070
     0
1002
}
1002
{
1000
REACTOR
1002
}
  0
LINE
  5
1216
  8
SAPA_PROFIL
 62
     4
 10
66.050000071431668
 20
75.667448111922113
 30
0.0
 11
66.050000071438944
 21
81.667448111923918
 31
0.0
1001
GENIUS_GENOBJ-N-FIL_13
1002
{
1000
OWNER
1000
GEN
1002
}
1001
GENIUS_GENODEF_13
1002
{
1000
HIER
1070
     0
1002
}
1002
{
1000
MANEDIT
1070
     0
1002
}
1002
{
1000
NOSEL
1070
     0
1002
}
1002
{
1000
BEHIND
1070
     0
1002
}
1002
{
1000
OTHER
1070
     0
1002
}
1002
{
1000
REACTOR
1002
}
  0
ARC
  5
1217
  8
SAPA_PROFIL
 62
     4
 10
66.550000071438944
 20
81.667448111923918
 30
0.0
 40
0.5
 50
90.0
 51
180.0
1001
GENIUS_GENOBJ-N-FIL_13
1002
{
1000
OWNER
1000
GEN
1002
}
1001
GENIUS_GENODEF_13
1002
{
1000
HIER
1070
     0
1002
}
1002
{
1000
MANEDIT
1070
     0
1002
}
1002
{
1000
NOSEL
1070
     0
1002
}
1002
{
1000
BEHIND
1070
     0
1002
}
1002
{
1000
OTHER
1070
     0
1002
}
1002
{
1000
REACTOR
1002
}
  0
LINE
  5
1218
  8
SAPA_PROFIL
 62
     4
 10
66.550000071438944
 20
82.167448111923932
 30
0.0
 11
67.450000071435852
 21
82.167448111923932
 31
0.0
1001
GENIUS_GENOBJ-N-FIL_13
1002
{
1000
OWNER
1000
GEN
1002
}
1001
GENIUS_GENODEF_13
1002
{
1000
HIER
1070
     0
1002
}
1002
{
1000
MANEDIT
1070
     0
1002
}
1002
{
1000
NOSEL
1070
     0
1002
}
1002
{
1000
BEHIND
1070
     0
1002
}
1002
{
1000
OTHER
1070
     0
1002
}
1002
{
1000
REACTOR
1002
}
  0
ARC
  5
1219
  8
SAPA_PROFIL
 62
     4
 10
67.450000071436307
 20
81.867448111924205
 30
0.0
 40
0.2999999999997271
 50
0.0000000000868503
 51
90.000000000086857
1001
GENIUS_GENOBJ-N-FIL_13
1002
{
1000
OWNER
1000
GEN
1002
}
1001
GENIUS_GENODEF_13
1002
{
1000
HIER
1070
     0
1002
}
1002
{
1000
MANEDIT
1070
     0
1002
}
1002
{
1000
NOSEL
1070
     0
1002
}
1002
{
1000
BEHIND
1070
     0
1002
}
1002
{
1000
OTHER
1070
     0
1002
}
1002
{
1000
REACTOR
1002
}
  0
LINE
  5
121A
  8
SAPA_PROFIL
 62
     4
 10
67.750000071436034
 20
81.867448111924659
 30
0.0
 11
67.750000071436034
 21
81.217448111921385
 31
0.0
1001
GENIUS_GENOBJ-N-FIL_13
1002
{
1000
OWNER
1000
GEN
1002
}
1001
GENIUS_GENODEF_13
1002
{
1000
HIER
1070
     0
1002
}
1002
{
1000
MANEDIT
1070
     0
1002
}
1002
{
1000
NOSEL
1070
     0
1002
}
1002
{
1000
BEHIND
1070
     0
1002
}
1002
{
1000
OTHER
1070
     0
1002
}
1002
{
1000
REACTOR
1002
}
  0
ARC
  5
121B
  8
SAPA_PROFIL
 62
     4
 10
68.050000071435761
 20
81.217448111921854
 30
0.0
 40
0.2999999999997271
 50
180.0000000000868
 51
270.0000000000868
1001
GENIUS_GENOBJ-N-FIL_13
1002
{
1000
OWNER
1000
GEN
1002
}
1001
GENIUS_GENODEF_13
1002
{
1000
HIER
1070
     0
1002
}
1002
{
1000
MANEDIT
1070
     0
1002
}
1002
{
1000
NOSEL
1070
     0
1002
}
1002
{
1000
BEHIND
1070
     0
1002
}
1002
{
1000
OTHER
1070
     0
1002
}
1002
{
1000
REACTOR
1002
}
  0
LINE
  5
121C
  8
SAPA_PROFIL
 62
     4
 10
68.050000071436216
 20
80.917448111922127
 30
0.0
 11
68.250000071436034
 21
80.917448111922127
 31
0.0
1001
GENIUS_GENOBJ-N-FIL_13
1002
{
1000
OWNER
1000
GEN
1002
}
1001
GENIUS_GENODEF_13
1002
{
1000
HIER
1070
     0
1002
}
1002
{
1000
MANEDIT
1070
     0
1002
}
1002
{
1000
NOSEL
1070
     0
1002
}
1002
{
1000
BEHIND
1070
     0
1002
}
1002
{
1000
OTHER
1070
     0
1002
}
1002
{
1000
REACTOR
1002
}
  0
ARC
  5
121D
  8
SAPA_PROFIL
 62
     4
 10
68.250000071436034
 20
81.417448111922113
 30
0.0
 40
0.5
 50
270.0
 51
0.0
1001
GENIUS_GENOBJ-N-FIL_13
1002
{
1000
OWNER
1000
GEN
1002
}
1001
GENIUS_GENODEF_13
1002
{
1000
HIER
1070
     0
1002
}
1002
{
1000
MANEDIT
1070
     0
1002
}
1002
{
1000
NOSEL
1070
     0
1002
}
1002
{
1000
BEHIND
1070
     0
1002
}
1002
{
1000
OTHER
1070
     0
1002
}
1002
{
1000
REACTOR
1002
}
  0
LINE
  5
121E
  8
SAPA_PROFIL
 62
     4
 10
68.750000071436034
 20
81.417448111922113
 30
0.0
 11
68.750000071354179
 21
107.21518313884511
 31
0.0
1001
GENIUS_GENOBJ-N-FIL_13
1002
{
1000
OWNER
1000
GEN
1002
}
1001
GENIUS_GENODEF_13
1002
{
1000
HIER
1070
     0
1002
}
1002
{
1000
MANEDIT
1070
     0
1002
}
1002
{
1000
NOSEL
1070
     0
1002
}
1002
{
1000
BEHIND
1070
     0
1002
}
1002
{
1000
OTHER
1070
     0
1002
}
1002
{
1000
REACTOR
1002
}
  0
ARC
  5
121F
  8
SAPA_PROFIL
 62
     4
 10
69.950000071354225
 20
107.2151831388494
 30
0.0
 40
1.200000000000045
 50
90.000000000010857
 51
180.00000000020631
1001
GENIUS_GENOBJ-N-FIL_13
1002
{
1000
OWNER
1000
GEN
1002
}
1001
GENIUS_GENODEF_13
1002
{
1000
HIER
1070
     0
1002
}
1002
{
1000
MANEDIT
1070
     0
1002
}
1002
{
1000
NOSEL
1070
     0
1002
}
1002
{
1000
BEHIND
1070
     0
1002
}
1002
{
1000
OTHER
1070
     0
1002
}
1002
{
1000
REACTOR
1002
}
  0
LINE
  5
1220
  8
SAPA_PROFIL
 62
     4
 10
69.950000071353983
 20
108.4151831388494
 30
0.0
 11
72.678481421434071
 21
108.4151831388494
 31
0.0
1001
GENIUS_GENOBJ-N-FIL_13
1002
{
1000
OWNER
1000
GEN
1002
}
1001
GENIUS_GENODEF_13
1002
{
1000
HIER
1070
     0
1002
}
1002
{
1000
MANEDIT
1070
     0
1002
}
1002
{
1000
NOSEL
1070
     0
1002
}
1002
{
1000
BEHIND
1070
     0
1002
}
1002
{
1000
OTHER
1070
     0
1002
}
1002
{
1000
REACTOR
1002
}
  0
LINE
  5
1221
  8
SAPA_GLAS
 10
66.050000071431668
 20
72.792735405782864
 30
0.0
 11
66.924712777567265
 21
73.667448111918475
 31
0.0
1001
GRADIENTCOLOR1ACI
1070
     5
1001
GRADIENTCOLOR2ACI
1070
     2
1001
ACAD
1010
0.0
1020
0.0
1030
0.0
  0
LINE
  5
1222
  8
SAPA_GLAS
 10
66.050000071431668
 20
71.670203390649249
 30
0.0
 11
67.749987533455339
 21
73.37019085267292
 31
0.0
1001
GRADIENTCOLOR1ACI
1070
     5
1001
GRADIENTCOLOR2ACI
1070
     2
1001
ACAD
1010
0.0
1020
0.0
1030
0.0
  0
LINE
  5
1223
  8
SAPA_GLAS
 10
66.050000071431668
 20
70.54767137551562
 30
0.0
 11
67.940481739788765
 21
72.438153043872717
 31
0.0
1001
GRADIENTCOLOR1ACI
1070
     5
1001
GRADIENTCOLOR2ACI
1070
     2
1001
ACAD
1010
0.0
1020
0.0
1030
0.0
  0
LINE
  5
1224
  8
SAPA_GLAS
 10
66.050000071431668
 20
69.425139360381991
 30
0.0
 11
69.342308822998291
 21
72.717448111948613
 31
0.0
1001
GRADIENTCOLOR1ACI
1070
     5
1001
GRADIENTCOLOR2ACI
1070
     2
1001
ACAD
1010
0.0
1020
0.0
1030
0.0
  0
LINE
  5
1225
  8
SAPA_GLAS
 10
66.050000071431668
 20
68.302607345248305
 30
0.0
 11
70.464840838142322
 21
72.717448111958959
 31
0.0
1001
GRADIENTCOLOR1ACI
1070
     5
1001
GRADIENTCOLOR2ACI
1070
     2
1001
ACAD
1010
0.0
1020
0.0
1030
0.0
  0
LINE
  5
1226
  8
SAPA_GLAS
 10
66.050000071431668
 20
67.180075330114619
 30
0.0
 11
71.587372853286297
 21
72.717448111969233
 31
0.0
1001
GRADIENTCOLOR1ACI
1070
     5
1001
GRADIENTCOLOR2ACI
1070
     2
1001
ACAD
1010
0.0
1020
0.0
1030
0.0
  0
LINE
  5
1227
  8
SAPA_GLAS
 10
66.659904868369154
 20
66.667448111918475
 30
0.0
 11
71.789451013720566
 21
71.796994257269887
 31
0.0
1001
GRADIENTCOLOR1ACI
1070
     5
1001
GRADIENTCOLOR2ACI
1070
     2
1001
ACAD
1010
0.0
1020
0.0
1030
0.0
  0
LINE
  5
1228
  8
SAPA_GLAS
 10
67.658528111101134
 20
66.543539339516826
 30
0.0
 11
68.192009136725687
 21
67.077020365141379
 31
0.0
1001
GRADIENTCOLOR1ACI
1070
     5
1001
GRADIENTCOLOR2ACI
1070
     2
1001
ACAD
1010
0.0
1020
0.0
1030
0.0
  0
LINE
  5
1229
  8
SAPA_GLAS
 10
68.715344011474372
 20
67.600355239890064
 30
0.0
 11
71.820920394160325
 21
70.705931622576031
 31
0.0
1001
GRADIENTCOLOR1ACI
1070
     5
1001
GRADIENTCOLOR2ACI
1070
     2
1001
ACAD
1010
0.0
1020
0.0
1030
0.0
  0
LINE
  5
122A
  8
SAPA_GLAS
 10
68.750000071428758
 20
66.512479284710821
 30
0.0
 11
71.861197183770059
 21
69.623676397052122
 31
0.0
1001
GRADIENTCOLOR1ACI
1070
     5
1001
GRADIENTCOLOR2ACI
1070
     2
1001
ACAD
1010
0.0
1020
0.0
1030
0.0
  0
LINE
  5
122B
  8
SAPA_GLAS
 10
68.750000071428701
 20
65.389947269577135
 30
0.0
 11
71.910079375317537
 21
68.550026573465971
 31
0.0
1001
GRADIENTCOLOR1ACI
1070
     5
1001
GRADIENTCOLOR2ACI
1070
     2
1001
ACAD
1010
0.0
1020
0.0
1030
0.0
  0
LINE
  5
122C
  8
SAPA_GLAS
 10
69.650032928904182
 20
65.167448111918986
 30
0.0
 11
71.967374279996193
 21
67.484789463010998
 31
0.0
1001
GRADIENTCOLOR1ACI
1070
     5
1001
GRADIENTCOLOR2ACI
1070
     2
1001
ACAD
1010
0.0
1020
0.0
1030
0.0
  0
LINE
  5
122D
  8
SAPA_GLAS
 10
70.772564944037811
 20
65.167448111918929
 30
0.0
 11
72.03289794490405
 21
66.427781112785155
 31
0.0
1001
GRADIENTCOLOR1ACI
1070
     5
1001
GRADIENTCOLOR2ACI
1070
     2
1001
ACAD
1010
0.0
1020
0.0
1030
0.0
  0
LINE
  5
122E
  8
SAPA_GLAS
 10
71.895096959171497
 20
65.167448111918929
 30
0.0
 11
72.106474616977025
 21
65.378825769724472
 31
0.0
1001
GRADIENTCOLOR1ACI
1070
     5
1001
GRADIENTCOLOR2ACI
1070
     2
1001
ACAD
1010
0.0
1020
0.0
1030
0.0
  0
LINE
  5
122F
  8
SAPA_GLAS
 10
67.09405052595406
 20
66.667448111918418
 30
0.0
 11
66.050000071431612
 21
67.711498566440866
 31
0.0
1001
GRADIENTCOLOR1ACI
1070
     5
1001
GRADIENTCOLOR2ACI
1070
     2
1001
ACAD
1010
0.0
1020
0.0
1030
0.0
  0
LINE
  5
1230
  8
SAPA_GLAS
 10
69.716582541087234
 20
65.167448111918929
 30
0.0
 11
68.750000071428758
 21
66.134030581577406
 31
0.0
1001
GRADIENTCOLOR1ACI
1070
     5
1001
GRADIENTCOLOR2ACI
1070
     2
1001
ACAD
1010
0.0
1020
0.0
1030
0.0
  0
LINE
  5
1231
  8
SAPA_GLAS
 10
68.143280288506901
 20
66.740750364499263
 30
0.0
 11
66.050000071431725
 21
68.834030581574495
 31
0.0
1001
GRADIENTCOLOR1ACI
1070
     5
1001
GRADIENTCOLOR2ACI
1070
     2
1001
ACAD
1010
0.0
1020
0.0
1030
0.0
  0
LINE
  5
1232
  8
SAPA_GLAS
 10
70.839114556220864
 20
65.167448111918986
 30
0.0
 11
68.750000071428758
 21
67.256562596711092
 31
0.0
1001
GRADIENTCOLOR1ACI
1070
     5
1001
GRADIENTCOLOR2ACI
1070
     2
1001
ACAD
1010
0.0
1020
0.0
1030
0.0
  0
LINE
  5
1233
  8
SAPA_GLAS
 10
68.089114556221375
 20
67.917448111918475
 30
0.0
 11
66.050000071431725
 21
69.956562596708181
 31
0.0
1001
GRADIENTCOLOR1ACI
1070
     5
1001
GRADIENTCOLOR2ACI
1070
     2
1001
ACAD
1010
0.0
1020
0.0
1030
0.0
  0
LINE
  5
1234
  8
SAPA_GLAS
 10
71.961646571354493
 20
65.167448111918986
 30
0.0
 11
66.050000071431725
 21
71.079094611841811
 31
0.0
1001
GRADIENTCOLOR1ACI
1070
     5
1001
GRADIENTCOLOR2ACI
1070
     2
1001
ACAD
1010
0.0
1020
0.0
1030
0.0
  0
LINE
  5
1235
  8
SAPA_GLAS
 10
72.047897590385503
 20
66.203729108021605
 30
0.0
 11
66.050000071431725
 21
72.20162662697544
 31
0.0
1001
GRADIENTCOLOR1ACI
1070
     5
1001
GRADIENTCOLOR2ACI
1070
     2
1001
ACAD
1010
0.0
1020
0.0
1030
0.0
  0
LINE
  5
1236
  8
SAPA_GLAS
 10
71.972196660820941
 20
67.401962052719796
 30
0.0
 11
66.069262979812152
 21
73.304895733728586
 31
0.0
1001
GRADIENTCOLOR1ACI
1070
     5
1001
GRADIENTCOLOR2ACI
1070
     2
1001
ACAD
1010
0.0
1020
0.0
1030
0.0
  0
LINE
  5
1237
  8
SAPA_GLAS
 10
71.908173167458173
 20
68.588517561216236
 30
0.0
 11
68.079242616755892
 21
72.417448111918532
 31
0.0
1001
GRADIENTCOLOR1ACI
1070
     5
1001
GRADIENTCOLOR2ACI
1070
     2
1001
ACAD
1010
0.0
1020
0.0
1030
0.0
  0
LINE
  5
1238
  8
SAPA_GLAS
 10
67.750000071428744
 20
72.746690657245608
 30
0.0
 11
66.829242616755892
 21
73.667448111918475
 31
0.0
1001
GRADIENTCOLOR1ACI
1070
     5
1001
GRADIENTCOLOR2ACI
1070
     2
1001
ACAD
1010
0.0
1020
0.0
1030
0.0
  0
LINE
  5
1239
  8
SAPA_GLAS
 10
71.855475664722576
 20
69.76374707908542
 30
0.0
 11
68.901774631863418
 21
72.717448111944577
 31
0.0
1001
GRADIENTCOLOR1ACI
1070
     5
1001
GRADIENTCOLOR2ACI
1070
     2
1001
ACAD
1010
0.0
1020
0.0
1030
0.0
  0
LINE
  5
123A
  8
SAPA_GLAS
 10
71.813772665245892
 20
70.927982093695789
 30
0.0
 11
70.024306646986872
 21
72.717448111954809
 31
0.0
1001
GRADIENTCOLOR1ACI
1070
     5
1001
GRADIENTCOLOR2ACI
1070
     2
1001
ACAD
1010
0.0
1020
0.0
1030
0.0
  0
LINE
  5
123B
  8
SAPA_GLAS
 10
71.78275109249978
 20
72.081535681575531
 30
0.0
 11
71.146838662110156
 21
72.717448111965155
 31
0.0
1001
GRADIENTCOLOR1ACI
1070
     5
1001
GRADIENTCOLOR2ACI
1070
     2
1001
ACAD
1010
0.0
1020
0.0
1030
0.0
  0
LINE
  5
123C
  8
SAPA_PROFIL
 62
     4
 10
65.050000003388732
 20
83.451709582438966
 30
0.0
 11
57.550000002830302
 21
83.451709582444437
 31
0.0
  0
ARC
  5
123D
  8
SAPA_PROFIL
 62
     4
 10
57.550000002830302
 20
84.451709582444437
 30
0.0
 40
1.0
 50
180.0
 51
270.0
  0
LINE
  5
123E
  8
SAPA_PROFIL
 62
     4
 10
56.550000002830302
 20
84.451709582444437
 30
0.0
 11
56.550000002814841
 21
107.59944460936769
 31
0.0
  0
ARC
  5
123F
  8
SAPA_PROFIL
 62
     4
 10
57.350000002814561
 20
107.5994446093673
 30
0.0
 40
0.7999999999997272
 50
89.999999999967429
 51
179.9999999999674
  0
LINE
  5
1240
  8
SAPA_PROFIL
 62
     4
 10
57.350000002815023
 20
108.39944460936699
 30
0.0
 11
66.150000003333616
 21
108.39944460936699
 31
0.0
  0
ARC
  5
1241
  8
SAPA_PROFIL
 62
     4
 10
66.150000003333616
 20
107.5994446093668
 30
0.0
 40
0.8000000000001818
 50
359.99999999993491
 51
90.0
  0
LINE
  5
1242
  8
SAPA_PROFIL
 62
     4
 10
66.950000003333784
 20
107.5994446093659
 30
0.0
 11
66.950000003310151
 21
84.451709582438966
 31
0.0
  0
ARC
  5
1243
  8
SAPA_PROFIL
 62
     4
 10
65.950000003310493
 20
84.451709582440458
 30
0.0
 40
0.9999999999996589
 50
270.00000000003263
 51
359.9999999999153
  0
LINE
  5
1244
  8
SAPA_PROFIL
 62
     4
 10
65.950000003311061
 20
83.451709582440799
 30
0.0
 11
65.050000003388732
 21
83.451709582438966
 31
0.0
  0
LINE
  5
1245
  8
SAPA_PROFIL
 10
21.75000007113454
 20
122.69944465005889
 30
0.0
 11
21.750000071134991
 21
110.49944465005819
 31
0.0
  0
LINE
  5
1246
  8
SAPA_PROFIL
 10
21.750000071134991
 20
110.49944465005819
 30
0.0
 11
-10.24999992886546
 21
110.49944465005819
 31
0.0
  0
LINE
  5
1247
  8
SAPA_PROFIL
 10
-10.24999992886546
 20
110.49944465005819
 30
0.0
 11
-10.24999992886546
 21
122.69944465005889
 31
0.0
  0
LINE
  5
1248
  8
SAPA_PROFIL
 10
-10.24999992886546
 20
122.69944465005889
 30
0.0
 11
21.75000007113454
 21
122.69944465005889
 31
0.0
  0
ARC
  5
1249
  8
SAPA_PROFIL
 10
24.750000071134991
 20
112.0994446500585
 30
0.0
 40
1.0
 50
180.0
 51
270.0
  0
LINE
  5
124A
  8
SAPA_PROFIL
 10
23.750000071134991
 20
112.0994446500585
 30
0.0
 11
23.750000071134991
 21
121.0994446500585
 31
0.0
  0
ARC
  5
124B
  8
SAPA_PROFIL
 10
24.750000071134991
 20
121.0994446500585
 30
0.0
 40
1.0
 50
90.0
 51
180.0
  0
LINE
  5
124C
  8
SAPA_PROFIL
 10
24.750000071134991
 20
122.0994446500585
 30
0.0
 11
27.250000106536621
 21
122.0994446500585
 31
0.0
  0
LINE
  5
124D
  8
SAPA_PROFIL
 10
27.250000106536621
 20
122.0994446500585
 30
0.0
 11
27.250000106536621
 21
122.69944465005889
 31
0.0
  0
LINE
  5
124E
  8
SAPA_PROFIL
 10
27.250000106536621
 20
122.69944465005889
 30
0.0
 11
44.750000106536611
 21
122.69944465005889
 31
0.0
  0
LINE
  5
124F
  8
SAPA_PROFIL
 10
44.750000106536611
 20
122.69944465005889
 30
0.0
 11
44.750000106536611
 21
110.49944465005819
 31
0.0
  0
LINE
  5
1250
  8
SAPA_PROFIL
 10
44.750000106536611
 20
110.49944465005819
 30
0.0
 11
27.250000106536621
 21
110.49944465005819
 31
0.0
  0
LINE
  5
1251
  8
SAPA_PROFIL
 10
27.250000106536621
 20
110.49944465005819
 30
0.0
 11
27.250000106536621
 21
111.0994446500585
 31
0.0
  0
LINE
  5
1252
  8
SAPA_PROFIL
 10
27.250000106536621
 20
111.0994446500585
 30
0.0
 11
24.750000071134991
 21
111.0994446500585
 31
0.0
  0
ARC
  5
1253
  8
SAPA_PROFIL
 10
47.750000071148747
 20
124.9994446500564
 30
0.0
 40
0.2000000000001592
 50
179.99999999949111
 51
359.9999999994667
  0
LINE
  5
1254
  8
SAPA_PROFIL
 10
47.950000071148899
 20
124.9994446500545
 30
0.0
 11
51.535810508775967
 21
124.99946865005541
 31
0.0
  0
ARC
  5
1255
  8
SAPA_PROFIL
 10
51.535810508775832
 20
123.99946865005521
 30
0.0
 40
1.0000000000001561
 50
315.00000000001148
 51
89.999999999992653
  0
LINE
  5
1256
  8
SAPA_PROFIL
 10
52.242917289962627
 20
123.2923618688687
 30
0.0
 11
50.937868036793589
 21
121.98731261569939
 31
0.0
  0
ARC
  5
1257
  8
SAPA_PROFIL
 10
50.725736002438332
 20
122.1994446500557
 30
0.0
 40
0.2999999999996879
 50
269.99999999984942
 51
314.99999999986858
  0
LINE
  5
1258
  8
SAPA_PROFIL
 10
50.725736002437543
 20
121.899444650056
 30
0.0
 11
50.139230555690339
 21
121.8994446500551
 31
0.0
  0
ARC
  5
1259
  8
SAPA_PROFIL
 10
50.139230555692777
 20
122.199444650055
 30
0.0
 40
0.2999999999999545
 50
239.9999999995394
 51
269.99999999953587
  0
LINE
  5
125A
  8
SAPA_PROFIL
 10
49.98923055569071
 20
121.9396370289209
 30
0.0
 11
48.500000071149543
 21
122.79944465005561
 31
0.0
  0
LINE
  5
125B
  8
SAPA_PROFIL
 10
48.500000071149543
 20
122.79944465005561
 30
0.0
 11
48.050000071149732
 21
122.79945665005511
 31
0.0
  0
ARC
  5
125C
  8
SAPA_PROFIL
 10
48.050000071149732
 20
122.499456650055
 30
0.0
 40
0.3000000000001819
 50
90.0
 51
180.0
  0
LINE
  5
125D
  8
SAPA_PROFIL
 10
47.750000071149543
 20
122.499456650055
 30
0.0
 11
47.750000071149771
 21
118.899444650056
 31
0.0
  0
ARC
  5
125E
  8
SAPA_PROFIL
 10
48.050000071150301
 20
118.8994446500554
 30
0.0
 40
0.300000000000523
 50
179.9999999998914
 51
269.99999999989137
  0
LINE
  5
125F
  8
SAPA_PROFIL
 10
48.050000071149732
 20
118.59944465005491
 30
0.0
 11
48.500000071149543
 21
118.59944465005491
 31
0.0
  0
LINE
  5
1260
  8
SAPA_PROFIL
 10
48.500000071149543
 20
118.59944465005491
 30
0.0
 11
49.989260202223591
 21
119.4592693876243
 31
0.0
  0
ARC
  5
1261
  8
SAPA_PROFIL
 10
50.139260202222808
 20
119.1994617664884
 30
0.0
 40
0.3000000000000934
 50
90.003646867272053
 51
119.99999999981701
  0
LINE
  5
1262
  8
SAPA_PROFIL
 10
50.139241107270429
 20
119.4994617658808
 30
0.0
 11
50.250000071149543
 21
119.4994688156725
 31
0.0
  0
LINE
  5
1263
  8
SAPA_PROFIL
 10
50.250000071149543
 20
119.4994688156725
 30
0.0
 11
50.250000071149088
 21
117.8777568135679
 31
0.0
  0
ARC
  5
1264
  8
SAPA_PROFIL
 10
49.250000071149437
 20
117.877756813568
 30
0.0
 40
0.9999999999996447
 50
299.99999999998818
 51
359.99999999999102
  0
LINE
  5
1265
  8
SAPA_PROFIL
 10
49.750000071149088
 20
117.01173140978381
 30
0.0
 11
48.25000007114955
 21
116.1457060059997
 31
0.0
  0
ARC
  5
1266
  8
SAPA_PROFIL
 10
48.750000071149188
 20
115.27968060221551
 30
0.0
 40
0.999999999999646
 50
119.9999999999882
 51
179.99999999999099
  0
LINE
  5
1267
  8
SAPA_PROFIL
 10
47.750000071149543
 20
115.27968060221561
 30
0.0
 11
47.750000071149543
 21
114.71920869789891
 31
0.0
  0
ARC
  5
1268
  8
SAPA_PROFIL
 10
48.750000071149188
 20
114.71920869789911
 30
0.0
 40
0.9999999999996447
 50
180.0000000000089
 51
240.0000000000118
  0
LINE
  5
1269
  8
SAPA_PROFIL
 10
48.25000007114955
 20
113.8531832941148
 30
0.0
 11
49.750000071148861
 21
112.9871578903298
 31
0.0
  0
ARC
  5
126A
  8
SAPA_PROFIL
 10
49.250000071148712
 20
112.1211324865445
 30
0.0
 40
1.0000000000008329
 50
0.0000000000187271
 51
60.000000000017707
  0
LINE
  5
126B
  8
SAPA_PROFIL
 10
50.250000071149543
 20
112.12113248654479
 30
0.0
 11
50.250000071149543
 21
110.499420484442
 31
0.0
  0
LINE
  5
126C
  8
SAPA_PROFIL
 10
50.250000071149543
 20
110.499420484442
 30
0.0
 11
50.139241107270429
 21
110.49942753423279
 31
0.0
  0
ARC
  5
126D
  8
SAPA_PROFIL
 10
50.139260202222907
 20
110.7994275336243
 30
0.0
 40
0.2999999999991979
 50
240.00000000013739
 51
269.99635313270892
  0
LINE
  5
126E
  8
SAPA_PROFIL
 10
49.989260202223932
 20
110.5396199124893
 30
0.0
 11
48.500000071149543
 21
111.3994446500578
 31
0.0
  0
LINE
  5
126F
  8
SAPA_PROFIL
 10
48.500000071149543
 20
111.3994446500578
 30
0.0
 11
48.050000071149732
 21
111.3994446500587
 31
0.0
  0
ARC
  5
1270
  8
SAPA_PROFIL
 10
48.050000071149732
 20
111.0994446500585
 30
0.0
 40
0.3000000000001819
 50
90.0
 51
180.0
  0
LINE
  5
1271
  8
SAPA_PROFIL
 10
47.750000071149543
 20
111.0994446500585
 30
0.0
 11
47.750000071149771
 21
107.4994326500596
 31
0.0
  0
ARC
  5
1272
  8
SAPA_PROFIL
 10
48.050000071150301
 20
107.49943265005901
 30
0.0
 40
0.300000000000523
 50
179.9999999998914
 51
269.99999999989137
  0
LINE
  5
1273
  8
SAPA_PROFIL
 10
48.050000071149732
 20
107.1994326500585
 30
0.0
 11
48.500000071149543
 21
107.19944465005889
 31
0.0
  0
LINE
  5
1274
  8
SAPA_PROFIL
 10
48.500000071149543
 20
107.19944465005889
 30
0.0
 11
49.989230555690483
 21
108.0592522711945
 31
0.0
  0
ARC
  5
1275
  8
SAPA_PROFIL
 10
50.139230555689267
 20
107.7994446500591
 30
0.0
 40
0.2999999999994582
 50
89.999999999793715
 51
119.9999999997914
  0
LINE
  5
1276
  8
SAPA_PROFIL
 10
50.139230555690339
 20
108.0994446500585
 30
0.0
 11
50.725736002437543
 21
108.0994446500594
 31
0.0
  0
ARC
  5
1277
  8
SAPA_PROFIL
 10
50.725736002437351
 20
107.799444650059
 30
0.0
 40
0.3000000000004235
 50
44.99999999994531
 51
89.999999999963364
  0
LINE
  5
1278
  8
SAPA_PROFIL
 10
50.937868036793823
 20
108.0115766844151
 30
0.0
 11
52.24291728996274
 21
106.7065274312458
 31
0.0
  0
ARC
  5
1279
  8
SAPA_PROFIL
 10
51.535810508775903
 20
105.99942065005931
 30
0.0
 40
1.0000000000001781
 50
270.00000000000409
 51
44.999999999985612
  0
LINE
  5
127A
  8
SAPA_PROFIL
 10
51.535810508775967
 20
104.99942065005909
 30
0.0
 11
47.950000071148672
 21
104.99944465005819
 31
0.0
  0
ARC
  5
127B
  8
SAPA_PROFIL
 10
47.750000071149202
 20
104.99944465005819
 30
0.0
 40
0.199999999999477
 50
0.0
 51
180.0
  0
LINE
  5
127C
  8
SAPA_PROFIL
 10
47.550000071149718
 20
104.99944465005819
 30
0.0
 11
46.250000041599598
 21
104.99944465005819
 31
0.0
  0
ARC
  5
127D
  8
SAPA_PROFIL
 10
46.250000041743981
 20
105.9994446499142
 30
0.0
 40
0.9999999998560724
 50
179.99999999154511
 51
269.99999999172752
  0
LINE
  5
127E
  8
SAPA_PROFIL
 10
45.250000041887908
 20
105.9994446500618
 30
0.0
 11
45.250000041887908
 21
106.99944465005819
 31
0.0
  0
ARC
  5
127F
  8
SAPA_PROFIL
 10
44.250000041887908
 20
106.99944465005819
 30
0.0
 40
1.0
 50
0.0
 51
90.0
  0
LINE
  5
1280
  8
SAPA_PROFIL
 10
44.250000041887908
 20
107.99944465005819
 30
0.0
 11
38.137070331926452
 21
107.99944465005819
 31
0.0
  0
ARC
  5
1281
  8
SAPA_PROFIL
 10
38.137070331925791
 20
106.99944465005871
 30
0.0
 40
0.9999999999995168
 50
89.999999999962142
 51
154.9999999996945
  0
LINE
  5
1282
  8
SAPA_PROFIL
 10
37.230762544891832
 20
107.42206291180401
 30
0.0
 11
35.437699306545142
 21
103.5768263883042
 31
0.0
  0
ARC
  5
1283
  8
SAPA_PROFIL
 10
34.531391519510422
 20
103.9994446500491
 30
0.0
 40
1.0000000000000571
 50
269.9999999999996
 51
334.99999999973232
  0
LINE
  5
1284
  8
SAPA_PROFIL
 10
34.531391519510407
 20
102.9994446500491
 30
0.0
 11
31.48264604618203
 21
102.9994446500491
 31
0.0
  0
ARC
  5
1285
  8
SAPA_PROFIL
 10
31.482646046182481
 20
103.1994446500497
 30
0.0
 40
0.2000000000006423
 50
150.89009105946849
 51
269.99999999986869
  0
ARC
  5
1286
  8
SAPA_PROFIL
 10
28.250000071144608
 20
104.9994446500813
 30
0.0
 40
3.5000000000050888
 50
330.8900910596189
 51
355.08289966396012
  0
LINE
  5
1287
  8
SAPA_PROFIL
 10
31.737119225979541
 20
104.6994446500498
 30
0.0
 11
33.00000007114955
 21
104.6994446500498
 31
0.0
  0
ARC
  5
1288
  8
SAPA_PROFIL
 10
33.00000007114955
 20
105.1994446500498
 30
0.0
 40
0.5
 50
270.0
 51
0.0
  0
LINE
  5
1289
  8
SAPA_PROFIL
 10
33.500000071149543
 20
105.1994446500498
 30
0.0
 11
33.500000071149543
 21
107.49944465005819
 31
0.0
  0
ARC
  5
128A
  8
SAPA_PROFIL
 10
33.00000007114955
 20
107.49944465005819
 30
0.0
 40
0.5
 50
0.0
 51
90.0
  0
LINE
  5
128B
  8
SAPA_PROFIL
 10
33.00000007114955
 20
107.99944465005819
 30
0.0
 11
30.05277570891781
 21
107.99944465005819
 31
0.0
  0
ARC
  5
128C
  8
SAPA_PROFIL
 10
28.25000007114955
 20
104.99944465007989
 30
0.0
 40
3.500000000000032
 50
58.997280865433652
 51
121.00271913456631
  0
LINE
  5
128D
  8
SAPA_PROFIL
 10
26.44722443338128
 20
107.99944465005819
 30
0.0
 11
20.05277570891781
 21
107.99944465005819
 31
0.0
  0
ARC
  5
128E
  8
SAPA_PROFIL
 10
18.25000007114954
 20
104.99944465007989
 30
0.0
 40
3.500000000000032
 50
58.997280865433652
 51
121.00271913456631
  0
LINE
  5
128F
  8
SAPA_PROFIL
 10
16.44722443338128
 20
107.99944465005819
 30
0.0
 11
13.50000007114954
 21
107.99944465005819
 31
0.0
  0
ARC
  5
1290
  8
SAPA_PROFIL
 10
13.50000007114954
 20
107.49944465005819
 30
0.0
 40
0.5
 50
90.0
 51
180.0
  0
LINE
  5
1291
  8
SAPA_PROFIL
 10
13.00000007114954
 20
107.49944465005819
 30
0.0
 11
13.00000007114954
 21
105.1994446500498
 31
0.0
  0
ARC
  5
1292
  8
SAPA_PROFIL
 10
13.50000007114954
 20
105.1994446500498
 30
0.0
 40
0.5
 50
180.0
 51
270.0
  0
LINE
  5
1293
  8
SAPA_PROFIL
 10
13.50000007114954
 20
104.6994446500498
 30
0.0
 11
14.762880916319769
 21
104.69944465004799
 31
0.0
  0
ARC
  5
1294
  8
SAPA_PROFIL
 10
18.250000071150861
 20
104.9994446500823
 30
0.0
 40
3.5000000000014921
 50
184.9171003360905
 51
209.10990894043169
  0
ARC
  5
1295
  8
SAPA_PROFIL
 10
15.017354096117341
 20
103.1994446500499
 30
0.0
 40
0.2000000000008141
 50
270.00000000005042
 51
29.109908940448911
  0
LINE
  5
1296
  8
SAPA_PROFIL
 10
15.01735409611751
 20
102.9994446500491
 30
0.0
 11
11.968608622788681
 21
102.9994446500491
 31
0.0
  0
ARC
  5
1297
  8
SAPA_PROFIL
 10
11.96860862278967
 20
103.9994446500491
 30
0.0
 40
1.0000000000000711
 50
205.0000000002108
 51
269.99999999994321
  0
LINE
  5
1298
  8
SAPA_PROFIL
 10
11.06230083575451
 20
103.57682638830509
 30
0.0
 11
9.2692375974073684
 21
107.4220629118031
 31
0.0
  0
ARC
  5
1299
  8
SAPA_PROFIL
 10
8.3629298103726413
 20
106.99944465005809
 30
0.0
 40
1.0000000000000571
 50
25.000000000267701
 51
90.000000000000398
  0
LINE
  5
129A
  8
SAPA_PROFIL
 10
8.3629298103726342
 20
107.99944465005819
 30
0.0
 11
-7.9499999288502741
 21
107.99944465005819
 31
0.0
  0
LINE
  5
129B
  8
SAPA_PROFIL
 10
-7.9499999288502741
 20
107.99944465005819
 30
0.0
 11
-7.9499999288502741
 21
106.49944465005819
 31
0.0
  0
LINE
  5
129C
  8
SAPA_PROFIL
 10
-7.9499999288502741
 20
106.49944465005819
 30
0.0
 11
-8.7499999288504569
 21
106.49944465005819
 31
0.0
  0
LINE
  5
129D
  8
SAPA_PROFIL
 10
-8.7499999288504569
 20
106.49944465005819
 30
0.0
 11
-8.7499999288504569
 21
107.99944465005819
 31
0.0
  0
LINE
  5
129E
  8
SAPA_PROFIL
 10
-8.7499999288504569
 20
107.99944465005819
 30
0.0
 11
-10.44999992885027
 21
107.99944465005819
 31
0.0
  0
LINE
  5
129F
  8
SAPA_PROFIL
 10
-10.44999992885027
 20
107.99944465005819
 30
0.0
 11
-10.74999992885045
 21
83.39944465005965
 31
0.0
  0
LINE
  5
12A0
  8
SAPA_PROFIL
 10
-10.74999992885045
 20
83.39944465005965
 30
0.0
 11
-9.049999928850184
 21
83.39944465005965
 31
0.0
  0
LINE
  5
12A1
  8
SAPA_PROFIL
 10
-9.049999928850184
 20
83.39944465005965
 30
0.0
 11
-9.049999928850184
 21
85.399444650059635
 31
0.0
  0
LINE
  5
12A2
  8
SAPA_PROFIL
 10
-9.049999928850184
 20
85.399444650059635
 30
0.0
 11
-8.2499999288504569
 21
85.399444650059635
 31
0.0
  0
LINE
  5
12A3
  8
SAPA_PROFIL
 10
-8.2499999288504569
 20
85.399444650059635
 30
0.0
 11
-8.2499999288504569
 21
81.249444650067289
 31
0.0
  0
ARC
  5
12A4
  8
SAPA_PROFIL
 10
-8.7499999288504569
 20
81.249444650067289
 30
0.0
 40
0.5
 50
270.0
 51
0.0
  0
LINE
  5
12A5
  8
SAPA_PROFIL
 10
-8.7499999288504569
 20
80.749444650067275
 30
0.0
 11
-9.2499999288322652
 21
80.749444650056375
 31
0.0
  0
LINE
  5
12A6
  8
SAPA_PROFIL
 10
-9.2499999288322652
 20
80.749444650056375
 30
0.0
 11
-9.2499999288536401
 21
81.999444650030895
 31
0.0
  0
LINE
  5
12A7
  8
SAPA_PROFIL
 10
-9.2499999288536401
 20
81.999444650030895
 30
0.0
 11
-10.649999928832241
 21
81.999444650066366
 31
0.0
  0
ARC
  5
12A8
  8
SAPA_PROFIL
 10
-10.64999992882611
 20
81.699444650079968
 30
0.0
 40
0.2999999999864116
 50
90.000000001170449
 51
180.00000000262989
  0
LINE
  5
12A9
  8
SAPA_PROFIL
 10
-10.949999928812529
 20
81.699444650066198
 30
0.0
 11
-10.949999928839929
 21
75.299444650062014
 31
0.0
  0
ARC
  5
12AA
  8
SAPA_PROFIL
 10
-10.64999992884974
 20
75.299444650079309
 30
0.0
 40
0.2999999999901881
 50
180.000000003303
 51
270.00000000184349
  0
LINE
  5
12AB
  8
SAPA_PROFIL
 10
-10.64999992884009
 20
74.999444650089117
 30
0.0
 11
-9.2499999288536401
 21
74.999444650096393
 31
0.0
  0
LINE
  5
12AC
  8
SAPA_PROFIL
 10
-9.2499999288536401
 20
74.999444650096393
 30
0.0
 11
-9.2499999288322652
 21
76.249444650070927
 31
0.0
  0
LINE
  5
12AD
  8
SAPA_PROFIL
 10
-9.2499999288322652
 20
76.249444650070927
 30
0.0
 11
-8.7499999288504569
 21
76.249444650058194
 31
0.0
  0
ARC
  5
12AE
  8
SAPA_PROFIL
 10
-8.7499999288504569
 20
75.749444650058194
 30
0.0
 40
0.5
 50
0.0
 51
90.0
  0
LINE
  5
12AF
  8
SAPA_PROFIL
 10
-8.2499999288504569
 20
75.749444650058194
 30
0.0
 11
-8.2499999288500021
 21
72.749444650058194
 31
0.0
  0
ARC
  5
12B0
  8
SAPA_PROFIL
 10
-8.7499999288500021
 20
72.749444650050904
 30
0.0
 40
0.5
 50
270.0
 51
0.0000000008337633
  0
LINE
  5
12B1
  8
SAPA_PROFIL
 10
-8.7499999288500021
 20
72.249444650050918
 30
0.0
 11
-9.2499999288500021
 21
72.249444650050918
 31
0.0
  0
LINE
  5
12B2
  8
SAPA_PROFIL
 10
-9.2499999288500021
 20
72.249444650050918
 30
0.0
 11
-9.2499999288495474
 21
73.699444650048008
 31
0.0
  0
LINE
  5
12B3
  8
SAPA_PROFIL
 10
-9.2499999288495474
 20
73.699444650048008
 30
0.0
 11
-11.09999992884252
 21
73.699444650048008
 31
0.0
  0
ARC
  5
12B4
  8
SAPA_PROFIL
 10
-11.0999999288262
 20
73.399444650061412
 30
0.0
 40
0.2999999999865963
 50
90.000000003115744
 51
180.0000000031157
  0
LINE
  5
12B5
  8
SAPA_PROFIL
 10
-11.3999999288128
 20
73.399444650045098
 30
0.0
 11
-11.399999928841909
 21
71.159252271188507
 31
0.0
  0
LINE
  5
12B6
  8
SAPA_PROFIL
 10
-11.399999928841909
 20
71.159252271188507
 30
0.0
 11
-10.94999992884709
 21
70.89944465005965
 31
0.0
  0
LINE
  5
12B7
  8
SAPA_PROFIL
 10
-10.94999992884709
 20
70.89944465005965
 30
0.0
 11
-10.94999992884709
 21
69.099444650049463
 31
0.0
  0
LINE
  5
12B8
  8
SAPA_PROFIL
 10
-10.94999992884709
 20
69.099444650049463
 30
0.0
 11
-11.399999928841909
 21
68.839637028920606
 31
0.0
  0
LINE
  5
12B9
  8
SAPA_PROFIL
 10
-11.399999928841909
 20
68.839637028920606
 30
0.0
 11
-11.399999928841559
 21
66.599444650064925
 31
0.0
  0
ARC
  5
12BA
  8
SAPA_PROFIL
 10
-11.09999992885545
 20
66.599444650076322
 30
0.0
 40
0.2999999999861185
 50
180.00000000217671
 51
270.00000000288139
  0
LINE
  5
12BB
  8
SAPA_PROFIL
 10
-11.09999992884036
 20
66.299444650090209
 30
0.0
 11
-9.2499999288495474
 21
66.299444650061105
 31
0.0
  0
LINE
  5
12BC
  8
SAPA_PROFIL
 10
-9.2499999288495474
 20
66.299444650061105
 30
0.0
 11
-9.2499999288500021
 21
67.749444650058194
 31
0.0
  0
LINE
  5
12BD
  8
SAPA_PROFIL
 10
-9.2499999288500021
 20
67.749444650058194
 30
0.0
 11
-8.7499999288500021
 21
67.749444650058194
 31
0.0
  0
ARC
  5
12BE
  8
SAPA_PROFIL
 10
-8.7499999288500021
 20
67.249444650058194
 30
0.0
 40
0.5
 50
0.0
 51
90.0
  0
LINE
  5
12BF
  8
SAPA_PROFIL
 10
-8.2499999288500021
 20
67.249444650058194
 30
0.0
 11
-8.2499999288504569
 21
65.499444650058194
 31
0.0
  0
ARC
  5
12C0
  8
SAPA_PROFIL
 10
-8.7499999288504569
 20
65.499444650058194
 30
0.0
 40
0.5
 50
270.0
 51
0.0
  0
LINE
  5
12C1
  8
SAPA_PROFIL
 10
-8.7499999288504569
 20
64.999444650058194
 30
0.0
 11
-11.24999992885046
 21
64.999444650058194
 31
0.0
  0
ARC
  5
12C2
  8
SAPA_PROFIL
 10
-11.24999992885046
 20
66.999444650058194
 30
0.0
 40
2.0
 50
180.0
 51
270.0
  0
LINE
  5
12C3
  8
SAPA_PROFIL
 10
-13.24999992885045
 20
66.999444650058194
 30
0.0
 11
-13.24999992885045
 21
124.6994446500544
 31
0.0
  0
ARC
  5
12C4
  8
SAPA_PROFIL
 10
-12.94999992885027
 20
124.6994446500544
 30
0.0
 40
0.3000000000001819
 50
90.0
 51
180.0
  0
LINE
  5
12C5
  8
SAPA_PROFIL
 10
-12.94999992885027
 20
124.9994446500545
 30
0.0
 11
47.550000071148581
 21
124.99944465005819
 31
0.0
  0
LINE
  5
12C6
  8
SAPA_PROFIL
 10
101.7500000711627
 20
122.69944465005889
 30
0.0
 11
101.7500000711627
 21
110.49944465005819
 31
0.0
  0
LINE
  5
12C7
  8
SAPA_PROFIL
 10
101.7500000711627
 20
110.49944465005819
 30
0.0
 11
133.7500000711627
 21
110.49944465005819
 31
0.0
  0
LINE
  5
12C8
  8
SAPA_PROFIL
 10
133.7500000711627
 20
110.49944465005819
 30
0.0
 11
133.7500000711627
 21
122.69944465005889
 31
0.0
  0
LINE
  5
12C9
  8
SAPA_PROFIL
 10
133.7500000711627
 20
122.69944465005889
 30
0.0
 11
101.7500000711627
 21
122.69944465005889
 31
0.0
  0
ARC
  5
12CA
  8
SAPA_PROFIL
 10
98.750000071162731
 20
112.0994446500585
 30
0.0
 40
1.0
 50
270.0
 51
0.0
  0
LINE
  5
12CB
  8
SAPA_PROFIL
 10
99.750000071162731
 20
112.0994446500585
 30
0.0
 11
99.750000071162731
 21
121.0994446500585
 31
0.0
  0
ARC
  5
12CC
  8
SAPA_PROFIL
 10
98.750000071162731
 20
121.0994446500585
 30
0.0
 40
1.0
 50
0.0
 51
90.0
  0
LINE
  5
12CD
  8
SAPA_PROFIL
 10
98.750000071162731
 20
122.0994446500585
 30
0.0
 11
96.25000003576065
 21
122.0994446500585
 31
0.0
  0
LINE
  5
12CE
  8
SAPA_PROFIL
 10
96.25000003576065
 20
122.0994446500585
 30
0.0
 11
96.25000003576065
 21
122.69944465005889
 31
0.0
  0
LINE
  5
12CF
  8
SAPA_PROFIL
 10
96.25000003576065
 20
122.69944465005889
 30
0.0
 11
78.75000003576065
 21
122.69944465005889
 31
0.0
  0
LINE
  5
12D0
  8
SAPA_PROFIL
 10
78.75000003576065
 20
122.69944465005889
 30
0.0
 11
78.75000003576065
 21
110.49944465005819
 31
0.0
  0
LINE
  5
12D1
  8
SAPA_PROFIL
 10
78.75000003576065
 20
110.49944465005819
 30
0.0
 11
96.25000003576065
 21
110.49944465005819
 31
0.0
  0
LINE
  5
12D2
  8
SAPA_PROFIL
 10
96.25000003576065
 20
110.49944465005819
 30
0.0
 11
96.25000003576065
 21
111.0994446500585
 31
0.0
  0
LINE
  5
12D3
  8
SAPA_PROFIL
 10
96.25000003576065
 20
111.0994446500585
 30
0.0
 11
98.750000071162731
 21
111.0994446500585
 31
0.0
  0
LINE
  5
12D4
  8
SAPA_PROFIL
 10
110.00000007114819
 20
104.6994446500498
 30
0.0
 11
108.73711922597769
 21
104.6994446500498
 31
0.0
  0
ARC
  5
12D5
  8
SAPA_PROFIL
 10
105.2500000711475
 20
104.9994446500811
 30
0.0
 40
3.5000000000003948
 50
330.89009105957979
 51
355.08289966395671
  0
ARC
  5
12D6
  8
SAPA_PROFIL
 10
108.48264604618031
 20
103.1994446500499
 30
0.0
 40
0.2000000000007985
 50
150.89009105953929
 51
269.9999999999593
  0
LINE
  5
12D7
  8
SAPA_PROFIL
 10
108.48264604618019
 20
102.9994446500491
 30
0.0
 11
111.5313915195086
 21
102.9994446500491
 31
0.0
  0
ARC
  5
12D8
  8
SAPA_PROFIL
 10
111.53139151950781
 20
103.9994446500495
 30
0.0
 40
1.0000000000004261
 50
270.00000000004388
 51
334.99999999977632
  0
LINE
  5
12D9
  8
SAPA_PROFIL
 10
112.43769930654319
 20
103.57682638830509
 30
0.0
 11
114.2307625448904
 21
107.42206291180401
 31
0.0
  0
ARC
  5
12DA
  8
SAPA_PROFIL
 10
115.13707033192441
 20
106.99944465005861
 30
0.0
 40
0.9999999999995303
 50
89.999999999962526
 51
154.9999999996939
  0
LINE
  5
12DB
  8
SAPA_PROFIL
 10
115.1370703319251
 20
107.99944465005819
 30
0.0
 11
131.450000071148
 21
107.99944465005819
 31
0.0
  0
LINE
  5
12DC
  8
SAPA_PROFIL
 10
131.450000071148
 20
107.99944465005819
 30
0.0
 11
131.450000071148
 21
106.49944465005819
 31
0.0
  0
LINE
  5
12DD
  8
SAPA_PROFIL
 10
131.450000071148
 20
106.49944465005819
 30
0.0
 11
132.2500000711477
 21
106.49944465005819
 31
0.0
  0
LINE
  5
12DE
  8
SAPA_PROFIL
 10
132.2500000711477
 20
106.49944465005819
 30
0.0
 11
132.2500000711477
 21
107.99944465005819
 31
0.0
  0
LINE
  5
12DF
  8
SAPA_PROFIL
 10
132.2500000711477
 20
107.99944465005819
 30
0.0
 11
133.950000071148
 21
107.99944465005819
 31
0.0
  0
LINE
  5
12E0
  8
SAPA_PROFIL
 10
133.950000071148
 20
107.99944465005819
 30
0.0
 11
134.2500000711477
 21
83.39944465005965
 31
0.0
  0
LINE
  5
12E1
  8
SAPA_PROFIL
 10
134.2500000711477
 20
83.39944465005965
 30
0.0
 11
132.55000007114791
 21
83.39944465005965
 31
0.0
  0
LINE
  5
12E2
  8
SAPA_PROFIL
 10
132.55000007114791
 20
83.39944465005965
 30
0.0
 11
132.55000007114791
 21
85.399444650059635
 31
0.0
  0
LINE
  5
12E3
  8
SAPA_PROFIL
 10
132.55000007114791
 20
85.399444650059635
 30
0.0
 11
131.7500000711477
 21
85.399444650059635
 31
0.0
  0
LINE
  5
12E4
  8
SAPA_PROFIL
 10
131.7500000711477
 20
85.399444650059635
 30
0.0
 11
131.7500000711477
 21
81.249444650067289
 31
0.0
  0
ARC
  5
12E5
  8
SAPA_PROFIL
 10
132.2500000711477
 20
81.249444650067247
 30
0.0
 40
0.4999999999999716
 50
179.9999999999967
 51
270.0000000000033
  0
LINE
  5
12E6
  8
SAPA_PROFIL
 10
132.2500000711477
 20
80.749444650067275
 30
0.0
 11
132.75000007112999
 21
80.749444650056375
 31
0.0
  0
LINE
  5
12E7
  8
SAPA_PROFIL
 10
132.75000007112999
 20
80.749444650056375
 30
0.0
 11
132.75000007115131
 21
81.999444650030895
 31
0.0
  0
LINE
  5
12E8
  8
SAPA_PROFIL
 10
132.75000007115131
 20
81.999444650030895
 30
0.0
 11
134.15000007113011
 21
81.99944465006547
 31
0.0
  0
ARC
  5
12E9
  8
SAPA_PROFIL
 10
134.15000007112411
 20
81.699444650079769
 30
0.0
 40
0.2999999999856868
 50
359.99999999740533
 51
89.99999999886009
  0
LINE
  5
12EA
  8
SAPA_PROFIL
 10
134.4500000711098
 20
81.699444650066198
 30
0.0
 11
134.45000007113751
 21
75.299444650061105
 31
0.0
  0
ARC
  5
12EB
  8
SAPA_PROFIL
 10
134.1500000711479
 20
75.299444650078783
 30
0.0
 40
0.2999999999896659
 50
269.99999999807841
 51
359.999999996621
  0
LINE
  5
12EC
  8
SAPA_PROFIL
 10
134.15000007113781
 20
74.999444650089117
 30
0.0
 11
132.75000007115131
 21
74.999444650096393
 31
0.0
  0
LINE
  5
12ED
  8
SAPA_PROFIL
 10
132.75000007115131
 20
74.999444650096393
 30
0.0
 11
132.75000007112999
 21
76.249444650070927
 31
0.0
  0
LINE
  5
12EE
  8
SAPA_PROFIL
 10
132.75000007112999
 20
76.249444650070927
 30
0.0
 11
132.2500000711477
 21
76.249444650058194
 31
0.0
  0
ARC
  5
12EF
  8
SAPA_PROFIL
 10
132.2500000711477
 20
75.749444650058194
 30
0.0
 40
0.5
 50
90.0
 51
180.0
  0
LINE
  5
12F0
  8
SAPA_PROFIL
 10
131.7500000711477
 20
75.749444650058194
 30
0.0
 11
131.7500000711477
 21
72.749444650058194
 31
0.0
  0
ARC
  5
12F1
  8
SAPA_PROFIL
 10
132.2500000711477
 20
72.749444650050904
 30
0.0
 40
0.5
 50
179.99999999916619
 51
270.0
  0
LINE
  5
12F2
  8
SAPA_PROFIL
 10
132.2500000711477
 20
72.249444650050918
 30
0.0
 11
132.7500000711477
 21
72.249444650050918
 31
0.0
  0
LINE
  5
12F3
  8
SAPA_PROFIL
 10
132.7500000711477
 20
72.249444650050918
 30
0.0
 11
132.7500000711473
 21
73.699444650048008
 31
0.0
  0
LINE
  5
12F4
  8
SAPA_PROFIL
 10
132.7500000711473
 20
73.699444650048008
 30
0.0
 11
134.6000000711399
 21
73.699444650048008
 31
0.0
  0
ARC
  5
12F5
  8
SAPA_PROFIL
 10
134.6000000711237
 20
73.399444650061241
 30
0.0
 40
0.2999999999867668
 50
359.99999999691681
 51
89.999999996916827
  0
LINE
  5
12F6
  8
SAPA_PROFIL
 10
134.9000000711105
 20
73.399444650045098
 30
0.0
 11
134.9000000711392
 21
71.159252271188507
 31
0.0
  0
LINE
  5
12F7
  8
SAPA_PROFIL
 10
134.9000000711392
 20
71.159252271188507
 30
0.0
 11
134.45000007114481
 21
70.89944465005965
 31
0.0
  0
LINE
  5
12F8
  8
SAPA_PROFIL
 10
134.45000007114481
 20
70.89944465005965
 30
0.0
 11
134.45000007114481
 21
69.099444650049463
 31
0.0
  0
LINE
  5
12F9
  8
SAPA_PROFIL
 10
134.45000007114481
 20
69.099444650049463
 30
0.0
 11
134.9000000711392
 21
68.839637028920606
 31
0.0
  0
LINE
  5
12FA
  8
SAPA_PROFIL
 10
134.9000000711392
 20
68.839637028920606
 30
0.0
 11
134.9000000711392
 21
66.599444650064015
 31
0.0
  0
ARC
  5
12FB
  8
SAPA_PROFIL
 10
134.60000007115349
 20
66.599444650075824
 30
0.0
 40
0.29999999998563
 50
269.9999999970471
 51
359.9999999977419
  0
LINE
  5
12FC
  8
SAPA_PROFIL
 10
134.60000007113811
 20
66.299444650090209
 30
0.0
 11
132.7500000711473
 21
66.299444650061105
 31
0.0
  0
LINE
  5
12FD
  8
SAPA_PROFIL
 10
132.7500000711473
 20
66.299444650061105
 30
0.0
 11
132.7500000711477
 21
67.749444650058194
 31
0.0
  0
LINE
  5
12FE
  8
SAPA_PROFIL
 10
132.7500000711477
 20
67.749444650058194
 30
0.0
 11
132.2500000711477
 21
67.749444650058194
 31
0.0
  0
ARC
  5
12FF
  8
SAPA_PROFIL
 10
132.2500000711477
 20
67.249444650058209
 30
0.0
 40
0.4999999999999858
 50
90.0
 51
180.00000000000159
  0
LINE
  5
1300
  8
SAPA_PROFIL
 10
131.7500000711477
 20
67.249444650058194
 30
0.0
 11
131.7500000711477
 21
65.499444650058194
 31
0.0
  0
ARC
  5
1301
  8
SAPA_PROFIL
 10
132.2500000711477
 20
65.499444650058194
 30
0.0
 40
0.5
 50
180.0
 51
270.0
  0
LINE
  5
1302
  8
SAPA_PROFIL
 10
132.2500000711477
 20
64.999444650058194
 30
0.0
 11
134.7500000711477
 21
64.999444650058194
 31
0.0
  0
ARC
  5
1303
  8
SAPA_PROFIL
 10
134.75000007114781
 20
66.999444650058095
 30
0.0
 40
1.9999999999999001
 50
269.99999999999761
 51
0.0000000000028498
  0
LINE
  5
1304
  8
SAPA_PROFIL
 10
136.7500000711477
 20
66.999444650058194
 30
0.0
 11
136.75000007114821
 21
124.69944465005889
 31
0.0
  0
ARC
  5
1305
  8
SAPA_PROFIL
 10
136.45000007114251
 20
124.6994446500489
 30
0.0
 40
0.3000000000056389
 50
0.0000000019134217
 51
89.999999999826301
  0
LINE
  5
1306
  8
SAPA_PROFIL
 10
136.45000007114339
 20
124.9994446500545
 30
0.0
 11
75.950000071148906
 21
124.99944465005819
 31
0.0
  0
ARC
  5
1307
  8
SAPA_PROFIL
 10
75.750000071148861
 20
124.9994446500563
 30
0.0
 40
0.2000000000000455
 50
180.00000000052111
 51
0.0000000005211021
  0
LINE
  5
1308
  8
SAPA_PROFIL
 10
75.550000071148816
 20
124.9994446500545
 30
0.0
 11
71.964189633521755
 21
124.99946865005541
 31
0.0
  0
ARC
  5
1309
  8
SAPA_PROFIL
 10
71.964189633521755
 20
123.99946865005531
 30
0.0
 40
1.000000000000099
 50
90.0
 51
224.99999999999599
  0
LINE
  5
130A
  8
SAPA_PROFIL
 10
71.257082852335088
 20
123.2923618688687
 30
0.0
 11
72.562132105503906
 21
121.98731261569939
 31
0.0
  0
ARC
  5
130B
  8
SAPA_PROFIL
 10
72.774264139859284
 20
122.19944465005599
 30
0.0
 40
0.2999999999999743
 50
225.00000000015351
 51
270.00000000017099
  0
LINE
  5
130C
  8
SAPA_PROFIL
 10
72.774264139860179
 20
121.899444650056
 30
0.0
 11
73.360769586606921
 21
121.899444650056
 31
0.0
  0
ARC
  5
130D
  8
SAPA_PROFIL
 10
73.360769586606423
 20
122.19944465005629
 30
0.0
 40
0.3000000000003382
 50
270.00000000009499
 51
300.00000000009271
  0
LINE
  5
130E
  8
SAPA_PROFIL
 10
73.510769586607012
 20
121.9396370289209
 30
0.0
 11
75.000000071148179
 21
122.79944465005561
 31
0.0
  0
LINE
  5
130F
  8
SAPA_PROFIL
 10
75.000000071148179
 20
122.79944465005561
 30
0.0
 11
75.450000071147997
 21
122.799456650056
 31
0.0
  0
ARC
  5
1310
  8
SAPA_PROFIL
 10
75.450000071147556
 20
122.49945665005539
 30
0.0
 40
0.3000000000006224
 50
359.99999999991041
 51
89.999999999915872
  0
LINE
  5
1311
  8
SAPA_PROFIL
 10
75.750000071148179
 20
122.499456650055
 30
0.0
 11
75.750000071147724
 21
118.899444650056
 31
0.0
  0
ARC
  5
1312
  8
SAPA_PROFIL
 10
75.450000071147315
 20
118.8994446500553
 30
0.0
 40
0.3000000000004093
 50
270.00000000013029
 51
0.0000000001302755
  0
LINE
  5
1313
  8
SAPA_PROFIL
 10
75.450000071147997
 20
118.59944465005491
 30
0.0
 11
75.000000071147724
 21
118.59944465005491
 31
0.0
  0
LINE
  5
1314
  8
SAPA_PROFIL
 10
75.000000071147724
 20
118.59944465005491
 30
0.0
 11
73.51073994007379
 21
119.4592693876252
 31
0.0
  0
ARC
  5
1315
  8
SAPA_PROFIL
 10
73.360739940076243
 20
119.1994617664888
 30
0.0
 40
0.2999999999997262
 50
60.000000000510731
 51
89.996353133068567
  0
LINE
  5
1316
  8
SAPA_PROFIL
 10
73.360759035026831
 20
119.4994617658808
 30
0.0
 11
73.250000071148179
 21
119.4994688156725
 31
0.0
  0
LINE
  5
1317
  8
SAPA_PROFIL
 10
73.250000071148179
 20
119.4994688156725
 30
0.0
 11
73.250000071148634
 21
117.8777568135679
 31
0.0
  0
ARC
  5
1318
  8
SAPA_PROFIL
 10
74.250000071148307
 20
117.877756813568
 30
0.0
 40
0.9999999999996732
 50
180.00000000000969
 51
240.0000000000108
  0
LINE
  5
1319
  8
SAPA_PROFIL
 10
73.750000071148634
 20
117.01173140978381
 30
0.0
 11
75.250000071148179
 21
116.1457060059997
 31
0.0
  0
ARC
  5
131A
  8
SAPA_PROFIL
 10
74.750000071148506
 20
115.27968060221539
 30
0.0
 40
0.9999999999996724
 50
0.0000000000097707
 51
60.0000000000108
  0
LINE
  5
131B
  8
SAPA_PROFIL
 10
75.750000071148179
 20
115.27968060221561
 30
0.0
 11
75.750000071148179
 21
114.71920869789891
 31
0.0
  0
ARC
  5
131C
  8
SAPA_PROFIL
 10
74.750000071148506
 20
114.71920869789911
 30
0.0
 40
0.9999999999996732
 50
299.9999999999892
 51
359.99999999999022
  0
LINE
  5
131D
  8
SAPA_PROFIL
 10
75.250000071148179
 20
113.8531832941148
 30
0.0
 11
73.750000071148634
 21
112.9871578903289
 31
0.0
  0
ARC
  5
131E
  8
SAPA_PROFIL
 10
74.250000071148065
 20
112.1211324865443
 30
0.0
 40
0.999999999999884
 50
119.99999999996621
 51
179.9999999999682
  0
LINE
  5
131F
  8
SAPA_PROFIL
 10
73.250000071148179
 20
112.12113248654479
 30
0.0
 11
73.250000071148179
 21
110.499420484442
 31
0.0
  0
LINE
  5
1320
  8
SAPA_PROFIL
 10
73.250000071148179
 20
110.499420484442
 30
0.0
 11
73.360759035026831
 21
110.4994275342319
 31
0.0
  0
ARC
  5
1321
  8
SAPA_PROFIL
 10
73.360739940072861
 20
110.79942753362479
 30
0.0
 40
0.3000000000006333
 50
270.0036468675774
 51
300.00000000013551
  0
LINE
  5
1322
  8
SAPA_PROFIL
 10
73.51073994007379
 20
110.5396199124893
 30
0.0
 11
75.000000071147724
 21
111.3994446500578
 31
0.0
  0
LINE
  5
1323
  8
SAPA_PROFIL
 10
75.000000071147724
 20
111.3994446500578
 30
0.0
 11
75.450000071147997
 21
111.39944465005961
 31
0.0
  0
ARC
  5
1324
  8
SAPA_PROFIL
 10
75.450000071147315
 20
111.0994446500592
 30
0.0
 40
0.3000000000004093
 50
359.99999999986971
 51
89.999999999869729
  0
LINE
  5
1325
  8
SAPA_PROFIL
 10
75.750000071147724
 20
111.0994446500585
 30
0.0
 11
75.750000071148179
 21
107.4994326500596
 31
0.0
  0
ARC
  5
1326
  8
SAPA_PROFIL
 10
75.450000071147556
 20
107.49943265005911
 30
0.0
 40
0.3000000000006224
 50
270.00000000008413
 51
0.0000000000895644
  0
LINE
  5
1327
  8
SAPA_PROFIL
 10
75.450000071147997
 20
107.1994326500585
 30
0.0
 11
75.000000071148179
 21
107.19944465005889
 31
0.0
  0
LINE
  5
1328
  8
SAPA_PROFIL
 10
75.000000071148179
 20
107.19944465005889
 30
0.0
 11
73.510769586607012
 21
108.0592522711936
 31
0.0
  0
ARC
  5
1329
  8
SAPA_PROFIL
 10
73.360769586606423
 20
107.79944465005821
 30
0.0
 40
0.300000000000336
 50
59.99999999990731
 51
89.999999999905015
  0
LINE
  5
132A
  8
SAPA_PROFIL
 10
73.360769586606921
 20
108.0994446500585
 30
0.0
 11
72.774264139860179
 21
108.0994446500585
 31
0.0
  0
ARC
  5
132B
  8
SAPA_PROFIL
 10
72.774264139859284
 20
107.7994446500586
 30
0.0
 40
0.2999999999999687
 50
89.999999999829015
 51
134.99999999984641
  0
LINE
  5
132C
  8
SAPA_PROFIL
 10
72.562132105503906
 20
108.0115766844151
 30
0.0
 11
71.257082852335088
 21
106.7065274312458
 31
0.0
  0
ARC
  5
132D
  8
SAPA_PROFIL
 10
71.964189633521755
 20
105.99942065005921
 30
0.0
 40
1.0000000000000979
 50
135.00000000000401
 51
270.0
  0
LINE
  5
132E
  8
SAPA_PROFIL
 10
71.964189633521755
 20
104.99942065005909
 30
0.0
 11
75.550000071148816
 21
104.99944465005819
 31
0.0
  0
ARC
  5
132F
  8
SAPA_PROFIL
 10
75.750000071148406
 20
104.99944465005819
 30
0.0
 40
0.1999999999995907
 50
0.0
 51
180.0
  0
LINE
  5
1330
  8
SAPA_PROFIL
 10
75.950000071147997
 20
104.99944465005819
 30
0.0
 11
77.250000100697662
 21
104.99944465005819
 31
0.0
  0
ARC
  5
1331
  8
SAPA_PROFIL
 10
77.250000100553649
 20
105.9994446499143
 30
0.0
 40
0.9999999998561577
 50
270.00000000825128
 51
0.0000000084499959
  0
LINE
  5
1332
  8
SAPA_PROFIL
 10
78.250000100409807
 20
105.9994446500618
 30
0.0
 11
78.250000100409807
 21
106.99944465005819
 31
0.0
  0
ARC
  5
1333
  8
SAPA_PROFIL
 10
79.250000100409807
 20
106.99944465005819
 30
0.0
 40
1.0
 50
90.0
 51
180.0
  0
LINE
  5
1334
  8
SAPA_PROFIL
 10
79.250000100409807
 20
107.99944465005819
 30
0.0
 11
85.362929810370815
 21
107.99944465005819
 31
0.0
  0
ARC
  5
1335
  8
SAPA_PROFIL
 10
85.362929810371469
 20
106.99944465005871
 30
0.0
 40
0.9999999999995168
 50
25.000000000305299
 51
90.00000000003746
  0
LINE
  5
1336
  8
SAPA_PROFIL
 10
86.269237597405436
 20
107.42206291180401
 30
0.0
 11
88.062300835752694
 21
103.57682638830509
 31
0.0
  0
ARC
  5
1337
  8
SAPA_PROFIL
 10
88.968608622788082
 20
103.9994446500495
 30
0.0
 40
1.000000000000427
 50
205.00000000022371
 51
269.999999999956
  0
LINE
  5
1338
  8
SAPA_PROFIL
 10
88.968608622787315
 20
102.9994446500491
 30
0.0
 11
92.017354096115696
 21
102.9994446500491
 31
0.0
  0
ARC
  5
1339
  8
SAPA_PROFIL
 10
92.017354096115554
 20
103.1994446500499
 30
0.0
 40
0.2000000000007844
 50
270.00000000003661
 51
29.109908940462709
  0
ARC
  5
133A
  8
SAPA_PROFIL
 10
95.250000071148435
 20
104.9994446500811
 30
0.0
 40
3.5000000000004081
 50
184.91710033604321
 51
209.1099089404201
  0
LINE
  5
133B
  8
SAPA_PROFIL
 10
91.762880916318181
 20
104.6994446500498
 30
0.0
 11
90.500000071148165
 21
104.6994446500498
 31
0.0
  0
ARC
  5
133C
  8
SAPA_PROFIL
 10
90.500000071148165
 20
105.1994446500498
 30
0.0
 40
0.5
 50
180.0
 51
270.0
  0
LINE
  5
133D
  8
SAPA_PROFIL
 10
90.000000071148179
 20
105.1994446500498
 30
0.0
 11
90.000000071148179
 21
107.49944465005819
 31
0.0
  0
ARC
  5
133E
  8
SAPA_PROFIL
 10
90.500000071148165
 20
107.49944465005819
 30
0.0
 40
0.5
 50
90.0
 51
180.0
  0
LINE
  5
133F
  8
SAPA_PROFIL
 10
90.500000071148165
 20
107.99944465005819
 30
0.0
 11
93.447224433379461
 21
107.99944465005819
 31
0.0
  0
ARC
  5
1340
  8
SAPA_PROFIL
 10
95.250000071147966
 20
104.99944465008009
 30
0.0
 40
3.4999999999999671
 50
58.997280865428657
 51
121.00271913457129
  0
LINE
  5
1341
  8
SAPA_PROFIL
 10
97.052775708916457
 20
107.99944465005819
 30
0.0
 11
103.4472244333794
 21
107.99944465005819
 31
0.0
  0
ARC
  5
1342
  8
SAPA_PROFIL
 10
105.25000007114789
 20
104.99944465008009
 30
0.0
 40
3.4999999999999671
 50
58.997280865428657
 51
121.00271913457129
  0
LINE
  5
1343
  8
SAPA_PROFIL
 10
107.0527757089164
 20
107.99944465005819
 30
0.0
 11
110.00000007114819
 21
107.99944465005819
 31
0.0
  0
ARC
  5
1344
  8
SAPA_PROFIL
 10
110.00000007114819
 20
107.49944465005819
 30
0.0
 40
0.5
 50
0.0
 51
90.0
  0
LINE
  5
1345
  8
SAPA_PROFIL
 10
110.50000007114809
 20
107.49944465005819
 30
0.0
 11
110.50000007114809
 21
105.1994446500498
 31
0.0
  0
ARC
  5
1346
  8
SAPA_PROFIL
 10
110.00000007114819
 20
105.1994446500498
 30
0.0
 40
0.5
 50
270.0
 51
0.0
  0
LINE
  5
1347
  8
SAPA_GLAS
 10
128.72801972725239
 20
72.608962214119515
 30
0.0
 11
128.83706097503909
 21
72.718003461906264
 31
0.0
1001
GRADIENTCOLOR1ACI
1070
     5
1001
GRADIENTCOLOR2ACI
1070
     2
1001
ACAD
1010
0.0
1020
0.0
1030
0.0
  0
LINE
  5
1348
  8
SAPA_GLAS
 10
128.7018139095396
 20
71.460224381273164
 30
0.0
 11
129.95959299016241
 21
72.718003461895933
 31
0.0
1001
GRADIENTCOLOR1ACI
1070
     5
1001
GRADIENTCOLOR2ACI
1070
     2
1001
ACAD
1010
0.0
1020
0.0
1030
0.0
  0
LINE
  5
1349
  8
SAPA_GLAS
 10
128.66506496432609
 20
70.300943420925989
 30
0.0
 11
131.0821250052856
 21
72.718003461885417
 31
0.0
1001
GRADIENTCOLOR1ACI
1070
     5
1001
GRADIENTCOLOR2ACI
1070
     2
1001
ACAD
1010
0.0
1020
0.0
1030
0.0
  0
LINE
  5
134A
  8
SAPA_GLAS
 10
128.61746781137811
 20
69.130814252844345
 30
0.0
 11
131.8895640842353
 21
72.402910525701543
 31
0.0
1001
GRADIENTCOLOR1ACI
1070
     5
1001
GRADIENTCOLOR2ACI
1070
     2
1001
ACAD
1010
0.0
1020
0.0
1030
0.0
  0
LINE
  5
134B
  8
SAPA_GLAS
 10
132.75000007114741
 20
73.263346512613566
 30
0.0
 11
133.1860982085818
 21
73.699444650048008
 31
0.0
1001
GRADIENTCOLOR1ACI
1070
     5
1001
GRADIENTCOLOR2ACI
1070
     2
1001
ACAD
1010
0.0
1020
0.0
1030
0.0
  0
LINE
  5
134C
  8
SAPA_GLAS
 10
128.5586996196634
 20
67.949514045996011
 30
0.0
 11
134.30863022371551
 21
73.699444650048065
 31
0.0
1001
GRADIENTCOLOR1ACI
1070
     5
1001
GRADIENTCOLOR2ACI
1070
     2
1001
ACAD
1010
0.0
1020
0.0
1030
0.0
  0
LINE
  5
134D
  8
SAPA_GLAS
 10
128.48841833223511
 20
66.756700743434067
 30
0.0
 11
134.9000000711134
 21
73.168282482312293
 31
0.0
1001
GRADIENTCOLOR1ACI
1070
     5
1001
GRADIENTCOLOR2ACI
1070
     2
1001
ACAD
1010
0.0
1020
0.0
1030
0.0
  0
LINE
  5
134E
  8
SAPA_GLAS
 10
128.40626102853369
 20
65.552011424599016
 30
0.0
 11
134.90000007112769
 21
72.045750467193045
 31
0.0
1001
GRADIENTCOLOR1ACI
1070
     5
1001
GRADIENTCOLOR2ACI
1070
     2
1001
ACAD
1010
0.0
1020
0.0
1030
0.0
  0
LINE
  5
134F
  8
SAPA_GLAS
 10
129.47622626912471
 20
65.499444650056375
 30
0.0
 11
134.4500000711447
 21
70.473218452076424
 31
0.0
1001
GRADIENTCOLOR1ACI
1070
     5
1001
GRADIENTCOLOR2ACI
1070
     2
1001
ACAD
1010
0.0
1020
0.0
1030
0.0
  0
LINE
  5
1350
  8
SAPA_GLAS
 10
130.59875828425831
 20
65.499444650056319
 30
0.0
 11
131.75000007114761
 21
66.650686436945634
 31
0.0
1001
GRADIENTCOLOR1ACI
1070
     5
1001
GRADIENTCOLOR2ACI
1070
     2
1001
ACAD
1010
0.0
1020
0.0
1030
0.0
  0
LINE
  5
1351
  8
SAPA_GLAS
 10
132.7500000711477
 20
67.650686436945648
 30
0.0
 11
134.4500000711447
 21
69.350686436942738
 31
0.0
1001
GRADIENTCOLOR1ACI
1070
     5
1001
GRADIENTCOLOR2ACI
1070
     2
1001
ACAD
1010
0.0
1020
0.0
1030
0.0
  0
LINE
  5
1352
  8
SAPA_GLAS
 10
131.72129029939191
 20
65.499444650056262
 30
0.0
 11
131.7500000711477
 21
65.528154421812076
 31
0.0
1001
GRADIENTCOLOR1ACI
1070
     5
1001
GRADIENTCOLOR2ACI
1070
     2
1001
ACAD
1010
0.0
1020
0.0
1030
0.0
  0
LINE
  5
1353
  8
SAPA_GLAS
 10
132.7500000711473
 20
66.528154421811678
 30
0.0
 11
134.90000007113909
 21
68.67815442180347
 31
0.0
1001
GRADIENTCOLOR1ACI
1070
     5
1001
GRADIENTCOLOR2ACI
1070
     2
1001
ACAD
1010
0.0
1020
0.0
1030
0.0
  0
LINE
  5
1354
  8
SAPA_GLAS
 10
133.64382231454439
 20
66.299444650075088
 30
0.0
 11
134.90000007113909
 21
67.555622406669784
 31
0.0
1001
GRADIENTCOLOR1ACI
1070
     5
1001
GRADIENTCOLOR2ACI
1070
     2
1001
ACAD
1010
0.0
1020
0.0
1030
0.0
  0
LINE
  5
1355
  8
SAPA_GLAS
 10
128.8787828050329
 20
65.499444650056375
 30
0.0
 11
128.4342277795065
 21
65.943999675582745
 31
0.0
1001
GRADIENTCOLOR1ACI
1070
     5
1001
GRADIENTCOLOR2ACI
1070
     2
1001
ACAD
1010
0.0
1020
0.0
1030
0.0
  0
LINE
  5
1356
  8
SAPA_GLAS
 10
130.00131482016661
 20
65.499444650056319
 30
0.0
 11
128.50347926967271
 21
66.997280200550165
 31
0.0
1001
GRADIENTCOLOR1ACI
1070
     5
1001
GRADIENTCOLOR2ACI
1070
     2
1001
ACAD
1010
0.0
1020
0.0
1030
0.0
  0
LINE
  5
1357
  8
SAPA_GLAS
 10
131.12384683530021
 20
65.499444650056432
 30
0.0
 11
128.56458387930419
 21
68.058707606052394
 31
0.0
1001
GRADIENTCOLOR1ACI
1070
     5
1001
GRADIENTCOLOR2ACI
1070
     2
1001
ACAD
1010
0.0
1020
0.0
1030
0.0
  0
LINE
  5
1358
  8
SAPA_GLAS
 10
131.75000007114761
 20
65.995823429342579
 30
0.0
 11
128.61736149349929
 21
69.128462006990958
 31
0.0
1001
GRADIENTCOLOR1ACI
1070
     5
1001
GRADIENTCOLOR2ACI
1070
     2
1001
ACAD
1010
0.0
1020
0.0
1030
0.0
  0
LINE
  5
1359
  8
SAPA_GLAS
 10
131.7500000711477
 20
67.118355444476151
 30
0.0
 11
128.6616235136697
 21
70.206732001954151
 31
0.0
1001
GRADIENTCOLOR1ACI
1070
     5
1001
GRADIENTCOLOR2ACI
1070
     2
1001
ACAD
1010
0.0
1020
0.0
1030
0.0
  0
LINE
  5
135A
  8
SAPA_GLAS
 10
133.69144288068159
 20
66.299444650075884
 30
0.0
 11
132.7500000711475
 21
67.240887459609951
 31
0.0
1001
GRADIENTCOLOR1ACI
1070
     5
1001
GRADIENTCOLOR2ACI
1070
     2
1001
ACAD
1010
0.0
1020
0.0
1030
0.0
  0
LINE
  5
135B
  8
SAPA_GLAS
 10
132.24151488428009
 20
67.749372646477411
 30
0.0
 11
128.6971722969883
 21
71.293715233769149
 31
0.0
1001
GRADIENTCOLOR1ACI
1070
     5
1001
GRADIENTCOLOR2ACI
1070
     2
1001
ACAD
1010
0.0
1020
0.0
1030
0.0
  0
LINE
  5
135C
  8
SAPA_GLAS
 10
134.76471306519659
 20
66.348706480694489
 30
0.0
 11
128.72380054674761
 21
72.389618999143522
 31
0.0
1001
GRADIENTCOLOR1ACI
1070
     5
1001
GRADIENTCOLOR2ACI
1070
     2
1001
ACAD
1010
0.0
1020
0.0
1030
0.0
  0
LINE
  5
135D
  8
SAPA_GLAS
 10
134.90000007113909
 20
67.335951489885701
 30
0.0
 11
129.51794809912479
 21
72.718003461899968
 31
0.0
1001
GRADIENTCOLOR1ACI
1070
     5
1001
GRADIENTCOLOR2ACI
1070
     2
1001
ACAD
1010
0.0
1020
0.0
1030
0.0
  0
LINE
  5
135E
  8
SAPA_GLAS
 10
134.9000000711392
 20
68.458483505019274
 30
0.0
 11
130.6404801142688
 21
72.718003461889566
 31
0.0
1001
GRADIENTCOLOR1ACI
1070
     5
1001
GRADIENTCOLOR2ACI
1070
     2
1001
ACAD
1010
0.0
1020
0.0
1030
0.0
  0
LINE
  5
135F
  8
SAPA_GLAS
 10
134.45000007114481
 20
70.031015520147321
 30
0.0
 11
132.23121805248579
 21
72.249797538806305
 31
0.0
1001
GRADIENTCOLOR1ACI
1070
     5
1001
GRADIENTCOLOR2ACI
1070
     2
1001
ACAD
1010
0.0
1020
0.0
1030
0.0
  0
LINE
  5
1360
  8
SAPA_GLAS
 10
134.6110948452008
 20
70.992452761224911
 30
0.0
 11
132.7500000711475
 21
72.85354753527821
 31
0.0
1001
GRADIENTCOLOR1ACI
1070
     5
1001
GRADIENTCOLOR2ACI
1070
     2
1001
ACAD
1010
0.0
1020
0.0
1030
0.0
  0
LINE
  5
1361
  8
SAPA_GLAS
 10
134.90000007113059
 20
71.826079550428744
 30
0.0
 11
133.0266349715113
 21
73.699444650048065
 31
0.0
1001
GRADIENTCOLOR1ACI
1070
     5
1001
GRADIENTCOLOR2ACI
1070
     2
1001
ACAD
1010
0.0
1020
0.0
1030
0.0
  0
LINE
  5
1362
  8
SAPA_GLAS
 10
134.90000007111621
 20
72.948611565576755
 30
0.0
 11
134.1491669866449
 21
73.699444650048065
 31
0.0
1001
GRADIENTCOLOR1ACI
1070
     5
1001
GRADIENTCOLOR2ACI
1070
     2
1001
ACAD
1010
0.0
1020
0.0
1030
0.0
  0
ARC
  5
1363
  8
SAPA_PROFIL
 62
     4
 10
73.374166918408903
 20
119.2494446825624
 30
0.0
 40
0.3000000000003382
 50
59.99999999990731
 51
89.999999999905015
  0
LINE
  5
1364
  8
SAPA_PROFIL
 62
     4
 10
73.524166918409492
 20
119.50925230369781
 30
0.0
 11
75.013397459254733
 21
118.649444650056
 31
0.0
  0
LINE
  5
1365
  8
SAPA_PROFIL
 62
     4
 10
75.013397459254733
 20
118.649444650056
 30
0.0
 11
75.449999999633064
 21
118.649444650056
 31
0.0
  0
ARC
  5
1366
  8
SAPA_PROFIL
 62
     4
 10
75.449999999633064
 20
118.899444650056
 30
0.0
 40
0.25
 50
270.0
 51
0.0
  0
LINE
  5
1367
  8
SAPA_PROFIL
 62
     4
 10
75.699999999633064
 20
118.899444650056
 30
0.0
 11
75.699999999633519
 21
122.499456650055
 31
0.0
  0
ARC
  5
1368
  8
SAPA_PROFIL
 62
     4
 10
75.449999999633505
 20
122.499456650055
 30
0.0
 40
0.25
 50
0.0
 51
90.0
  0
LINE
  5
1369
  8
SAPA_PROFIL
 62
     4
 10
75.449999999633505
 20
122.749456650055
 30
0.0
 11
75.013398078054934
 21
122.7494450073204
 31
0.0
  0
LINE
  5
136A
  8
SAPA_PROFIL
 62
     4
 10
75.013398078054934
 20
122.7494450073204
 30
0.0
 11
73.524167031017214
 21
121.889637061427
 31
0.0
  0
ARC
  5
136B
  8
SAPA_PROFIL
 62
     4
 10
73.37416703101664
 20
122.1494446825623
 30
0.0
 40
0.3000000000002551
 50
270.0000000000922
 51
300.00000000009851
  0
LINE
  5
136C
  8
SAPA_PROFIL
 62
     4
 10
73.374167031017123
 20
121.84944468256209
 30
0.0
 11
50.125833039765659
 21
121.84944468256209
 31
0.0
  0
ARC
  5
136D
  8
SAPA_PROFIL
 62
     4
 10
50.125833039766142
 20
122.1494446825623
 30
0.0
 40
0.3000000000002529
 50
239.99999999990271
 51
269.99999999990911
  0
LINE
  5
136E
  8
SAPA_PROFIL
 62
     4
 10
49.975833039765583
 20
121.889637061427
 30
0.0
 11
48.486601992727849
 21
122.7494450073204
 31
0.0
  0
LINE
  5
136F
  8
SAPA_PROFIL
 62
     4
 10
48.486601992727849
 20
122.7494450073204
 30
0.0
 11
48.050000071149732
 21
122.749456650055
 31
0.0
  0
ARC
  5
1370
  8
SAPA_PROFIL
 62
     4
 10
48.050000071149718
 20
122.499456650055
 30
0.0
 40
0.25
 50
89.999999999998366
 51
180.0
  0
LINE
  5
1371
  8
SAPA_PROFIL
 62
     4
 10
47.800000071149718
 20
122.499456650055
 30
0.0
 11
47.800000071149718
 21
118.899444650056
 31
0.0
  0
ARC
  5
1372
  8
SAPA_PROFIL
 62
     4
 10
48.050000071149732
 20
118.899444650056
 30
0.0
 40
0.25
 50
180.0
 51
270.0
  0
LINE
  5
1373
  8
SAPA_PROFIL
 62
     4
 10
48.050000071149732
 20
118.649444650056
 30
0.0
 11
48.486602611528042
 21
118.649444650056
 31
0.0
  0
LINE
  5
1374
  8
SAPA_PROFIL
 62
     4
 10
48.486602611528042
 20
118.649444650056
 30
0.0
 11
49.975833152373298
 21
119.50925230369781
 31
0.0
  0
ARC
  5
1375
  8
SAPA_PROFIL
 62
     4
 10
50.125833152373893
 20
119.2494446825624
 30
0.0
 40
0.3000000000003395
 50
90.000000000096335
 51
120.00000000009381
  0
LINE
  5
1376
  8
SAPA_PROFIL
 62
     4
 10
50.125833152373389
 20
119.54944468256279
 30
0.0
 11
73.374166918409401
 21
119.54944468256279
 31
0.0
  0
DIMENSION
  5
1392
  8
SAPA_MATT
  2
*D14
 10
131.75000007113391
 20
20.999444650058191
 30
0.0
 11
134.2500000711409
 21
20.999444650058191
 31
0.0
 70
   128
 13
136.75000007114781
 23
66.999444650058194
 33
0.0
 14
131.75000007113391
 24
65.499444650056375
 34
0.0
 50
180.0
1001
ACAD
1000
DSTYLE
1002
{
1070
    40
1040
1.0
1002
}
  0
DIMENSION
  5
1393
  8
SAPA_MATT
  2
*D13
 10
68.750000071428644
 20
20.999444650058191
 30
0.0
 11
100.2500000712882
 21
23.499444650058191
 31
0.0
 70
     0
 13
131.7500000711477
 23
65.499444650056375
 33
0.0
 14
68.750000071428644
 24
65.6674481120574
 34
0.0
 50
180.0
1001
ACAD
1000
DSTYLE
1002
{
1070
   287
1070
     4
1070
    40
1040
1.0
1070
   279
1070
     1
1002
}
  0
DIMENSION
  5
1394
  8
SAPA_MATT
  2
*D12
 10
-13.24999992885046
 20
20.999444650058191
 30
0.0
 11
23.392264849625921
 21
21.7599577988683
 31
0.0
 70
   128
 13
68.750000071428644
 23
65.6674481120574
 33
0.0
 14
-13.24999992885045
 24
66.999444650058194
 34
0.0
 50
180.0
1001
ACAD
1000
DSTYLE
1002
{
1070
   287
1070
     4
1070
    40
1040
1.0
1070
   279
1070
     1
1002
}
  0
DIMENSION
  5
1395
  8
SAPA_MATT
  2
*D11
 10
-13.24999992885046
 20
8.9994446500581944
 30
0.0
 11
61.750000071148641
 21
8.9994446500581944
 31
0.0
 70
   128
 13
136.75000007114781
 23
66.999444650058194
 33
0.0
 14
-13.24999992885045
 24
66.999444650058194
 34
0.0
 50
180.0
1001
ACAD
1000
DSTYLE
1002
{
1070
    40
1040
1.0
1002
}
  0
DIMENSION
  5
1396
  8
SAPA_MATT
  2
*D10
 10
166.2500000711681
 20
59.999444650057733
 30
0.0
 11
163.75000007116799
 21
62.499444650057988
 31
0.0
 70
     0
 13
134.7500000711477
 23
64.999444650058194
 33
0.0
 14
127.20000007166431
 24
59.99944465005774
 34
0.0
 50
270.0
1001
ACAD
1000
DSTYLE
1002
{
1070
   287
1070
     4
1070
    40
1040
1.0
1070
   279
1070
     1
1002
}
  0
DIMENSION
  5
1397
  8
SAPA_MATT
  2
*D9
 10
166.2499999994206
 20
64.99944465005818
 30
0.0
 11
163.7499999994206
 21
94.999444650057299
 31
0.0
 70
     0
 13
136.4500000711426
 23
124.9994446500563
 33
0.0
 14
134.75000007114781
 24
64.999444650058194
 34
0.0
 50
270.0
1001
ACAD
1000
DSTYLE
1002
{
1070
    40
1040
1.0
1002
}
  0
DIMENSION
  5
1398
  8
SAPA_MATT
  2
*D8
 10
178.2499999994206
 20
124.9994446500563
 30
0.0
 11
175.7499999994206
 21
92.499444650057072
 31
0.0
 70
     0
 13
127.20000007166431
 23
59.99944465005774
 33
0.0
 14
136.4500000711426
 24
124.9994446500563
 34
0.0
 50
270.0
1001
ACAD
1000
DSTYLE
1002
{
1070
    40
1040
1.0
1002
}
  0
VIEWPORT
  5
C4
 67
     1
  8
0
 10
160.5543545598442
 20
116.00969601843509
 30
0.0
 40
404.96977709277462
 41
256.8421457311839
 68
     1
 69
     1
1001
ACAD
1000
MVIEW
1002
{
1070
    16
1010
0.0
1020
0.0
1030
0.0
1010
0.0
1020
0.0
1030
1.0
1040
0.0
1040
256.8421457311839
1040
160.5543545598442
1040
116.00969601843509
1040
50.0
1040
0.0
1040
0.0
1070
     0
1070
   100
1070
     1
1070
     1
1070
     0
1070
     0
1070
     0
1070
     0
1040
0.0
1040
0.0
1040
0.0
1040
10.0
1040
10.0
1040
10.0
1040
10.0
1070
     0
1002
{
1002
}
1002
}
  0
ENDSEC
  0
EOF
