  0
SECTION
  2
HEADER
  9
$ACADVER
  1
AC1009
  9
$INSBASE
 10
0.0
 20
0.0
 30
0.0
  9
$EXTMIN
 10
-137.2414789875707
 20
-0.0000000000000029
 30
-0.2
  9
$EXTMAX
 10
201.7532560781701
 20
198.5000000000002
 30
0.0000000048844772
  9
$LIMMIN
 10
0.0
 20
0.0
  9
$LIMMAX
 10
790.0
 20
790.0
  9
$ORTHOMODE
 70
     0
  9
$REGENMODE
 70
     1
  9
$FILLMODE
 70
     1
  9
$QTEXTMODE
 70
     0
  9
$MIRRTEXT
 70
     1
  9
$DRAGMODE
 70
     2
  9
$LTSCALE
 40
4.0
  9
$OSMODE
 70
   167
  9
$ATTMODE
 70
     1
  9
$TEXTSIZE
 40
3.5
  9
$TRACEWID
 40
0.05
  9
$TEXTSTYLE
  7
ISO
  9
$CLAYER
  8
0
  9
$CELTYPE
  6
BYLAYER
  9
$CECOLOR
 62
   256
  9
$DIMSCALE
 40
0.0
  9
$DIMASZ
 40
3.0
  9
$DIMEXO
 40
1.5
  9
$DIMDLI
 40
10.0
  9
$DIMRND
 40
0.0
  9
$DIMDLE
 40
0.0
  9
$DIMEXE
 40
1.5
  9
$DIMTP
 40
0.0
  9
$DIMTM
 40
0.0
  9
$DIMTXT
 40
3.0
  9
$DIMCEN
 40
-5.0
  9
$DIMTSZ
 40
0.0
  9
$DIMTOL
 70
     0
  9
$DIMLIM
 70
     0
  9
$DIMTIH
 70
     0
  9
$DIMTOH
 70
     0
  9
$DIMSE1
 70
     0
  9
$DIMSE2
 70
     0
  9
$DIMTAD
 70
     1
  9
$DIMZIN
 70
     8
  9
$DIMBLK
  1

  9
$DIMASO
 70
     1
  9
$DIMSHO
 70
     1
  9
$DIMPOST
  1

  9
$DIMAPOST
  1

  9
$DIMALT
 70
     0
  9
$DIMALTD
 70
     0
  9
$DIMALTF
 40
25.399999999999999
  9
$DIMLFAC
 40
-1.0
  9
$DIMTOFL
 70
     1
  9
$DIMTVP
 40
0.0
  9
$DIMTIX
 70
     0
  9
$DIMSOXD
 70
     0
  9
$DIMSAH
 70
     0
  9
$DIMBLK1
  1

  9
$DIMBLK2
  1

  9
$DIMSTYLE
  2
MASKIN
  9
$DIMCLRD
 70
   256
  9
$DIMCLRE
 70
   256
  9
$DIMCLRT
 70
     2
  9
$DIMTFAC
 40
1.0
  9
$DIMGAP
 40
1.0
  9
$LUNITS
 70
     2
  9
$LUPREC
 70
     8
  9
$SKETCHINC
 40
0.1
  9
$FILLETRAD
 40
0.0
  9
$AUNITS
 70
     0
  9
$AUPREC
 70
     8
  9
$MENU
  1
ACAD
  9
$ELEVATION
 40
0.0
  9
$PELEVATION
 40
0.0
  9
$THICKNESS
 40
0.0
  9
$LIMCHECK
 70
     0
  9
$BLIPMODE
 70
     0
  9
$CHAMFERA
 40
0.0
  9
$CHAMFERB
 40
0.0
  9
$SKPOLY
 70
     0
  9
$TDCREATE
 40
2458299.4382186462
  9
$TDUPDATE
 40
2458302.55555441
  9
$TDINDWG
 40
0.0295803472
  9
$TDUSRTIMER
 40
0.0295801157
  9
$USRTIMER
 70
     1
  9
$ANGBASE
 50
0.0
  9
$ANGDIR
 70
     0
  9
$PDMODE
 70
     0
  9
$PDSIZE
 40
0.0
  9
$PLINEWID
 40
0.0
  9
$COORDS
 70
     1
  9
$SPLFRAME
 70
     0
  9
$SPLINETYPE
 70
     6
  9
$SPLINESEGS
 70
     8
  9
$ATTDIA
 70
     1
  9
$ATTREQ
 70
     1
  9
$HANDLING
 70
     1
  9
$HANDSEED
  5
1631
  9
$SURFTAB1
 70
     6
  9
$SURFTAB2
 70
     6
  9
$SURFTYPE
 70
     6
  9
$SURFU
 70
     6
  9
$SURFV
 70
     6
  9
$UCSNAME
  2

  9
$UCSORG
 10
0.0
 20
0.0
 30
0.0
  9
$UCSXDIR
 10
1.0
 20
0.0
 30
0.0
  9
$UCSYDIR
 10
0.0
 20
1.0
 30
0.0
  9
$PUCSNAME
  2

  9
$PUCSORG
 10
0.0
 20
0.0
 30
0.0
  9
$PUCSXDIR
 10
1.0
 20
0.0
 30
0.0
  9
$PUCSYDIR
 10
0.0
 20
1.0
 30
0.0
  9
$USERI1
 70
     0
  9
$USERI2
 70
     0
  9
$USERI3
 70
     0
  9
$USERI4
 70
     0
  9
$USERI5
 70
     0
  9
$USERR1
 40
0.0
  9
$USERR2
 40
0.0
  9
$USERR3
 40
0.0
  9
$USERR4
 40
0.0
  9
$USERR5
 40
0.0
  9
$WORLDVIEW
 70
     1
  9
$SHADEDGE
 70
     3
  9
$SHADEDIF
 70
    70
  9
$TILEMODE
 70
     1
  9
$MAXACTVP
 70
    32
  9
$PLIMCHECK
 70
     0
  9
$PEXTMIN
 10
1.0000000000000000E+020
 20
1.0000000000000000E+020
 30
1.0000000000000000E+020
  9
$PEXTMAX
 10
-1.0000000000000000E+020
 20
-1.0000000000000000E+020
 30
-1.0000000000000000E+020
  9
$PLIMMIN
 10
-5.069427490234375
 20
-5.8737497329711914
  9
$PLIMMAX
 10
291.89889526367187
 20
204.0995779037475
  9
$UNITMODE
 70
     0
  9
$VISRETAIN
 70
     1
  9
$PLINEGEN
 70
     0
  9
$PSLTSCALE
 70
     1
  0
ENDSEC
  0
SECTION
  2
TABLES
  0
TABLE
  2
VPORT
 70
     1
  0
VPORT
  2
*ACTIVE
 70
     0
 10
0.0
 20
0.0
 11
1.0
 21
1.0
 12
32.265611131712461
 22
202.40779931414971
 13
0.0
 23
0.0
 14
1.0
 24
1.0
 15
0.0
 25
0.0
 16
0.0
 26
0.0
 36
1.0
 17
0.0
 27
0.0
 37
0.0
 40
282.21641461690422
 41
1.7265193370165739
 42
50.0
 43
0.0
 44
0.0
 50
0.0
 51
0.0
 71
     0
 72
   100
 73
     1
 74
     1
 75
     0
 76
     0
 77
     0
 78
     0
  0
ENDTAB
  0
TABLE
  2
LTYPE
 70
     1
  0
LTYPE
  2
CONTINUOUS
 70
     0
  3
Solid line
 72
    65
 73
     0
 40
0.0
  0
ENDTAB
  0
TABLE
  2
LAYER
 70
    23
  0
LAYER
  2
0
 70
     0
 62
     7
  6
CONTINUOUS
  0
LAYER
  2
DEFPOINTS
 70
     0
 62
     7
  6
CONTINUOUS
  0
LAYER
  2
SAPA_ARTIKELNR
 70
     0
 62
     4
  6
CONTINUOUS
  0
LAYER
  2
SAPA_BESLAG
 70
     0
 62
     1
  6
CONTINUOUS
  0
LAYER
  2
SAPA_ANSLUTNING
 70
     0
 62
     6
  6
CONTINUOUS
  0
LAYER
  2
SAPA_GLAS
 70
     0
 62
     4
  6
CONTINUOUS
  0
LAYER
  2
SAPA_FOGBAND
 70
     0
 62
     2
  6
CONTINUOUS
  0
LAYER
  2
SAPA_PROFIL
 70
     0
 62
     7
  6
CONTINUOUS
  0
LAYER
  2
SAPA_ISOLATOR
 70
     0
 62
     4
  6
CONTINUOUS
  0
LAYER
  2
SAPA_MATT
 70
     0
 62
     1
  6
CONTINUOUS
  0
ENDTAB
  0
TABLE
  2
STYLE
 70
     2
  0
STYLE
  2
STANDARD
 70
     0
 40
0.0
 41
1.0
 50
0.0
 71
     0
 42
0.2
  3
txt
  4

  0
STYLE
  2
ISO
 70
     0
 40
0.0
 41
1.0
 50
0.0
 71
     0
 42
3.5
  3
txt
  4

  0
ENDTAB
  0
TABLE
  2
VIEW
 70
     0
  0
ENDTAB
  0
TABLE
  2
UCS
 70
     0
  0
ENDTAB
  0
TABLE
  2
APPID
 70
    20
  0
APPID
  2
ACAD
 70
     0
  0
APPID
  2
ACAD_DSTYLE_DIMTEXT_FILL
 70
     0
  0
APPID
  2
ACAD_DSTYLE_DIMEXT_LENGTH
 70
     0
  0
APPID
  2
ACAD_DSTYLE_DIMEXT_ENABLED
 70
     0
  0
APPID
  2
ACAD_DSTYLE_DIM_LINETYPE
 70
     0
  0
APPID
  2
ACAD_DSTYLE_DIM_EXT1_LINETYPE
 70
     0
  0
APPID
  2
ACAD_DSTYLE_DIM_EXT2_LINETYPE
 70
     0
  0
APPID
  2
ACAD_DSTYLE_DIMJOGGED_JOGA
 70
     0
  0
APPID
  2
ACAD_DSTYLE_DIMARC_LENGTH_
 70
     0
  0
APPID
  2
ACAD_PSEXT
 70
     0
  0
APPID
  2
ACAD_MLEADERVER
 70
     0
  0
APPID
  2
ACAD_NAV_VCDISPLAY
 70
     0
  0
APPID
  2
GENIUS_GENODEF_13
 70
     0
  0
APPID
  2
RC_PROFILE
 70
     0
  0
APPID
  2
ACAECLAYERSTANDARD
 70
     0
  0
APPID
  2
GENIUS_GENOBJ-N-FIL_13
 70
     0
  0
APPID
  2
GENIUS_GENREC_14
 70
     0
  0
APPID
  2
GENIUS_GENOBJ-N-REC_13
 70
     0
  0
APPID
  2
ACCMTRANSPARENCY
 70
     0
  0
APPID
  2
ACAD_EXEMPT_FROM_CAD_STANDARDS
 70
     0
  0
ENDTAB
  0
TABLE
  2
DIMSTYLE
 70
     2
  0
DIMSTYLE
  2
STANDARD
 70
     0
  3

  4

  5

  6

  7

 40
1.0
 41
0.18
 42
0.0625
 43
0.38
 44
0.18
 45
0.0
 46
0.0
 47
0.0
 48
0.0
140
0.18
141
0.09
142
0.0
143
25.399999999999999
144
1.0
145
0.0
146
1.0
147
0.09
 71
     0
 72
     0
 73
     1
 74
     1
 75
     0
 76
     0
 77
     0
 78
     0
170
     0
171
     2
172
     0
173
     0
174
     0
175
     0
176
     0
177
     0
178
     0
  0
DIMSTYLE
  2
MASKIN
 70
     0
  3

  4

  5

  6

  7

 40
0.0
 41
3.0
 42
1.5
 43
10.0
 44
1.5
 45
0.0
 46
0.0
 47
0.0
 48
0.0
140
3.0
141
-5.0
142
0.0
143
25.399999999999999
144
-1.0
145
0.0
146
1.0
147
1.0
 71
     0
 72
     0
 73
     0
 74
     0
 75
     0
 76
     0
 77
     1
 78
     8
170
     0
171
     0
172
     1
173
     0
174
     0
175
     0
176
   256
177
   256
178
     2
  0
ENDTAB
  0
ENDSEC
  0
SECTION
  2
BLOCKS
  0
BLOCK
  8
0
  2
$MODEL_SPACE
 70
     0
 10
0.0
 20
0.0
 30
0.0
  3
$MODEL_SPACE
  1

  0
ENDBLK
  5
37
  8
0
  0
BLOCK
 67
     1
  8
0
  2
$PAPER_SPACE
 70
     0
 10
0.0
 20
0.0
 30
0.0
  3
$PAPER_SPACE
  1

  0
ENDBLK
  5
35
 67
     1
  8
0
  0
BLOCK
  8
0
  2
*D10
 70
     1
 10
0.0
 20
0.0
 30
0.0
  3
*D10
  1

  0
LINE
  5
143A
  8
SAPA_MATT
 10
-1.4999999353658491
 20
0.0000000000000004
 30
0.0
 11
-41.749999863851848
 21
0.0000000000000118
 31
0.0
  0
LINE
  5
143B
  8
SAPA_MATT
 10
-14.749999863851819
 20
140.0000000000004
 30
0.0
 11
-41.749999863851819
 21
140.0000000000004
 31
0.0
  0
LINE
  5
143C
  8
SAPA_MATT
 10
-40.249999863851848
 20
3.0000000000000111
 30
0.0
 11
-40.249999863851819
 21
137.0000000000004
 31
0.0
  0
SOLID
  5
143D
  8
SAPA_MATT
 10
-40.749999863851862
 20
3.0000000000000111
 30
0.0
 11
-39.749999863851848
 21
3.0000000000000111
 31
0.0
 12
-40.249999863851848
 22
0.0000000000000114
 32
0.0
 13
-40.249999863851848
 23
0.0000000000000114
 33
0.0
  0
SOLID
  5
143E
  8
SAPA_MATT
 10
-40.749999863851819
 20
137.0000000000004
 30
0.0
 11
-39.749999863851833
 21
137.0000000000004
 31
0.0
 12
-40.249999863851819
 22
140.0000000000004
 32
0.0
 13
-40.249999863851819
 23
140.0000000000004
 33
0.0
  0
INSERT
  5
143F
  8
0
  2
*U26
 10
0.0
 20
0.0
 30
0.0
  0
POINT
  5
1440
  8
DEFPOINTS
 62
     0
 10
0.0000000646341505
 20
0.0
 30
0.0
  0
POINT
  5
1441
  8
DEFPOINTS
 62
     0
 10
-13.249999863851819
 20
140.0000000000004
 30
0.0
  0
POINT
  5
1442
  8
DEFPOINTS
 62
     0
 10
-40.249999863851819
 20
140.0000000000004
 30
0.0
  0
ENDBLK
  5
1388
  8
0
  0
BLOCK
  8
0
  2
*D11
 70
     1
 10
0.0
 20
0.0
 30
0.0
  3
*D11
  1

  0
LINE
  5
158B
  8
SAPA_MATT
 10
-3.2499998638518259
 20
140.0000000000004
 30
0.0
 11
-13.23612952761502
 21
140.0000000000004
 31
0.0
  0
LINE
  5
158C
  8
SAPA_MATT
 10
3.5000001363237052
 20
150.0000000000116
 30
0.0
 11
-13.23612952761502
 21
150.0000000000116
 31
0.0
  0
LINE
  5
158D
  8
SAPA_MATT
 10
-11.73612952761502
 20
143.0000000000004
 30
0.0
 11
-11.73612952761502
 21
147.0000000000116
 31
0.0
  0
SOLID
  5
158E
  8
SAPA_MATT
 10
-12.23612952761502
 20
143.0000000000004
 30
0.0
 11
-11.23612952761502
 21
143.0000000000004
 31
0.0
 12
-11.73612952761502
 22
140.0000000000004
 32
0.0
 13
-11.73612952761502
 23
140.0000000000004
 33
0.0
  0
SOLID
  5
158F
  8
SAPA_MATT
 10
-12.23612952761502
 20
147.0000000000116
 30
0.0
 11
-11.23612952761502
 21
147.0000000000116
 31
0.0
 12
-11.73612952761502
 22
150.0000000000116
 32
0.0
 13
-11.73612952761502
 23
150.0000000000116
 33
0.0
  0
TEXT
  8
SAPA_MATT
  40
3
  5
15AC
  62
2
  72
0
  71
0
 10
-20.2361
 20
139.690
 30
0.000000
  1
10
  7
ISO
  0
POINT
  5
1591
  8
DEFPOINTS
 62
     0
 10
-1.7499998638518259
 20
140.0000000000004
 30
0.0
  0
POINT
  5
1592
  8
DEFPOINTS
 62
     0
 10
5.0000001363237061
 20
150.0000000000116
 30
0.0
  0
POINT
  5
1593
  8
DEFPOINTS
 62
     0
 10
-11.73612952761502
 20
150.0000000000116
 30
0.0
  0
ENDBLK
  5
1394
  8
0
  0
BLOCK
  8
0
  2
*D12
 70
     1
 10
0.0
 20
0.0
 30
0.0
  3
*D12
  1

  0
LINE
  5
1428
  8
SAPA_MATT
 10
-3.3749998638518259
 20
23.000000000000458
 30
0.0
 11
-13.23612952761505
 21
23.000000000000458
 31
0.0
  0
LINE
  5
1429
  8
SAPA_MATT
 10
-3.2499998638518259
 20
140.0000000000004
 30
0.0
 11
-13.23612952761502
 21
140.0000000000004
 31
0.0
  0
LINE
  5
142A
  8
SAPA_MATT
 10
-11.73612952761505
 20
26.000000000000458
 30
0.0
 11
-11.73612952761502
 21
137.0000000000004
 31
0.0
  0
SOLID
  5
142B
  8
SAPA_MATT
 10
-12.23612952761505
 20
26.000000000000458
 30
0.0
 11
-11.23612952761505
 21
26.000000000000458
 31
0.0
 12
-11.73612952761505
 22
23.000000000000458
 32
0.0
 13
-11.73612952761505
 23
23.000000000000458
 33
0.0
  0
SOLID
  5
142C
  8
SAPA_MATT
 10
-12.23612952761502
 20
137.0000000000004
 30
0.0
 11
-11.23612952761502
 21
137.0000000000004
 31
0.0
 12
-11.73612952761502
 22
140.0000000000004
 32
0.0
 13
-11.73612952761502
 23
140.0000000000004
 33
0.0
  0
INSERT
  5
142D
  8
0
  2
*U25
 10
0.0
 20
0.0
 30
0.0
  0
POINT
  5
142E
  8
DEFPOINTS
 62
     0
 10
-1.8749998638518259
 20
23.000000000000458
 30
0.0
  0
POINT
  5
142F
  8
DEFPOINTS
 62
     0
 10
-1.7499998638518259
 20
140.0000000000004
 30
0.0
  0
POINT
  5
1430
  8
DEFPOINTS
 62
     0
 10
-11.73612952761502
 20
140.0000000000004
 30
0.0
  0
ENDBLK
  5
13A0
  8
0
  0
BLOCK
  8
0
  2
*D13
 70
     1
 10
0.0
 20
0.0
 30
0.0
  3
*D13
  1

  0
LINE
  5
141F
  8
SAPA_MATT
 10
-3.249999928485976
 20
139.5000000000025
 30
0.0
 11
-3.2499999284859729
 21
194.5000000000002
 31
0.0
  0
LINE
  5
1420
  8
SAPA_MATT
 10
146.75000007151169
 20
139.50000000000219
 30
0.0
 11
146.75000007151169
 21
194.5000000000002
 31
0.0
  0
LINE
  5
1421
  8
SAPA_MATT
 10
-0.2499999284859733
 20
193.0000000000002
 30
0.0
 11
143.75000007151169
 21
193.0000000000002
 31
0.0
  0
SOLID
  5
1422
  8
SAPA_MATT
 10
-0.2499999284859733
 20
193.5000000000002
 30
0.0
 11
-0.2499999284859733
 21
192.5000000000002
 31
0.0
 12
-3.2499999284859729
 22
193.0000000000002
 32
0.0
 13
-3.2499999284859729
 23
193.0000000000002
 33
0.0
  0
SOLID
  5
1423
  8
SAPA_MATT
 10
143.75000007151169
 20
193.5000000000002
 30
0.0
 11
143.75000007151169
 21
192.5000000000002
 31
0.0
 12
146.75000007151169
 22
193.0000000000002
 32
0.0
 13
146.75000007151169
 23
193.0000000000002
 33
0.0
  0
INSERT
  5
1424
  8
0
  2
*U24
 10
0.0
 20
0.0
 30
0.0
  0
POINT
  5
1425
  8
DEFPOINTS
 62
     0
 10
-3.249999928485976
 20
138.0000000000025
 30
0.0
  0
POINT
  5
1426
  8
DEFPOINTS
 62
     0
 10
146.75000007151169
 20
138.00000000000219
 30
0.0
  0
POINT
  5
1427
  8
DEFPOINTS
 62
     0
 10
146.75000007151169
 20
193.0000000000002
 30
0.0
  0
ENDBLK
  5
13AC
  8
0
  0
BLOCK
  8
0
  2
*D14
 70
     1
 10
0.0
 20
0.0
 30
0.0
  3
*D14
  1

  0
LINE
  5
1582
  8
SAPA_MATT
 10
61.750000142697452
 20
136.5000000010341
 30
0.0
 11
61.750000142697452
 21
182.5000000000002
 31
0.0
  0
LINE
  5
1583
  8
SAPA_MATT
 10
146.7500001432727
 20
140.0
 30
0.0
 11
146.7500001432727
 21
182.5000000000002
 31
0.0
  0
LINE
  5
1584
  8
SAPA_MATT
 10
64.750000142697445
 20
181.0000000000002
 30
0.0
 11
143.7500001432727
 21
181.0000000000002
 31
0.0
  0
SOLID
  5
1585
  8
SAPA_MATT
 10
64.750000142697445
 20
181.5000000000002
 30
0.0
 11
64.750000142697445
 21
180.5000000000002
 31
0.0
 12
61.750000142697452
 22
181.0000000000002
 32
0.0
 13
61.750000142697452
 23
181.0000000000002
 33
0.0
  0
SOLID
  5
1586
  8
SAPA_MATT
 10
143.7500001432727
 20
181.5000000000002
 30
0.0
 11
143.7500001432727
 21
180.5000000000002
 31
0.0
 12
146.7500001432727
 22
181.0000000000002
 32
0.0
 13
146.7500001432727
 23
181.0000000000002
 33
0.0
  0
TEXT
  8
SAPA_MATT
  40
3
  5
15AD
  62
2
  72
0
  71
0
 10
98.2500
 20
178.190
 30
0.000000
  1
85
  7
ISO
  0
POINT
  5
1588
  8
DEFPOINTS
 62
     0
 10
61.750000142697452
 20
135.0000000010341
 30
0.0
  0
POINT
  5
1589
  8
DEFPOINTS
 62
     0
 10
146.7500001432727
 20
138.5
 30
0.0
  0
POINT
  5
158A
  8
DEFPOINTS
 62
     0
 10
146.7500001432727
 20
181.0000000000002
 30
0.0
  0
ENDBLK
  5
13B8
  8
0
  0
BLOCK
  8
0
  2
*D15
 70
     1
 10
0.0
 20
0.0
 30
0.0
  3
*D15
  1

  0
LINE
  5
1579
  8
SAPA_MATT
 10
4.7500001433595571
 20
136.5000000010341
 30
0.0
 11
4.7500001433595589
 21
182.5000000000002
 31
0.0
  0
LINE
  5
157A
  8
SAPA_MATT
 10
61.750000142697452
 20
136.5000000010341
 30
0.0
 11
61.750000142697452
 21
182.5000000000002
 31
0.0
  0
LINE
  5
157B
  8
SAPA_MATT
 10
7.7500001433595589
 20
181.0000000000002
 30
0.0
 11
58.750000142697438
 21
181.0000000000002
 31
0.0
  0
SOLID
  5
157C
  8
SAPA_MATT
 10
7.7500001433595589
 20
181.5000000000002
 30
0.0
 11
7.7500001433595589
 21
180.5000000000002
 31
0.0
 12
4.7500001433595589
 22
181.0000000000002
 32
0.0
 13
4.7500001433595589
 23
181.0000000000002
 33
0.0
  0
SOLID
  5
157D
  8
SAPA_MATT
 10
58.750000142697438
 20
181.5000000000002
 30
0.0
 11
58.750000142697438
 21
180.5000000000002
 31
0.0
 12
61.750000142697452
 22
181.0000000000002
 32
0.0
 13
61.750000142697452
 23
181.0000000000002
 33
0.0
  0
TEXT
  8
SAPA_MATT
  40
3
  5
15AE
  62
2
  72
0
  71
0
 10
27.2500
 20
178.190
 30
0.000000
  1
57
  7
ISO
  0
POINT
  5
157F
  8
DEFPOINTS
 62
     0
 10
4.7500001433595571
 20
135.0000000010341
 30
0.0
  0
POINT
  5
1580
  8
DEFPOINTS
 62
     0
 10
61.750000142697452
 20
135.0000000010341
 30
0.0
  0
POINT
  5
1581
  8
DEFPOINTS
 62
     0
 10
61.750000142697452
 20
181.0000000000002
 30
0.0
  0
ENDBLK
  5
13C4
  8
0
  0
BLOCK
  8
0
  2
*D16
 70
     1
 10
0.0
 20
0.0
 30
0.0
  3
*D16
  1

  0
LINE
  5
1404
  8
SAPA_MATT
 10
-3.2499998569710442
 20
139.50000000000219
 30
0.0
 11
-3.2499998569710411
 21
182.5000000000002
 31
0.0
  0
LINE
  5
1405
  8
SAPA_MATT
 10
4.7500001433595571
 20
136.5000000010341
 30
0.0
 11
4.7500001433595589
 21
182.5000000000002
 31
0.0
  0
LINE
  5
1406
  8
SAPA_MATT
 10
-0.2499998569710415
 20
181.0000000000002
 30
0.0
 11
1.7500001433595589
 21
181.0000000000002
 31
0.0
  0
SOLID
  5
1407
  8
SAPA_MATT
 10
-0.2499998569710415
 20
181.5000000000002
 30
0.0
 11
-0.2499998569710415
 21
180.5000000000002
 31
0.0
 12
-3.2499998569710411
 22
181.0000000000002
 32
0.0
 13
-3.2499998569710411
 23
181.0000000000002
 33
0.0
  0
SOLID
  5
1408
  8
SAPA_MATT
 10
1.7500001433595589
 20
181.5000000000002
 30
0.0
 11
1.7500001433595589
 21
180.5000000000002
 31
0.0
 12
4.7500001433595589
 22
181.0000000000002
 32
0.0
 13
4.7500001433595589
 23
181.0000000000002
 33
0.0
  0
INSERT
  5
1409
  8
0
  2
*U23
 10
0.0
 20
0.0
 30
0.0
  0
POINT
  5
140A
  8
DEFPOINTS
 62
     0
 10
-3.2499998569710442
 20
138.00000000000219
 30
0.0
  0
POINT
  5
140B
  8
DEFPOINTS
 62
     0
 10
4.7500001433595571
 20
135.0000000010341
 30
0.0
  0
POINT
  5
140C
  8
DEFPOINTS
 62
     0
 10
4.7500001433595589
 20
181.0000000000002
 30
0.0
  0
ENDBLK
  5
13D0
  8
0
  0
BLOCK
  8
0
  2
*D17
 70
     1
 10
0.0
 20
0.0
 30
0.0
  3
*D17
  1

  0
LINE
  5
13FB
  8
SAPA_MATT
 10
-91.249999928486076
 20
139.49999999998369
 30
0.0
 11
-91.249999928486076
 21
182.50000001191941
 31
0.0
  0
LINE
  5
13FC
  8
SAPA_MATT
 10
-3.2499999284860759
 20
139.99999999998369
 30
0.0
 11
-3.2499999284860732
 21
182.50000001191941
 31
0.0
  0
LINE
  5
13FD
  8
SAPA_MATT
 10
-88.249999928486076
 20
181.00000001191941
 30
0.0
 11
-6.2499999284860728
 21
181.00000001191941
 31
0.0
  0
SOLID
  5
13FE
  8
SAPA_MATT
 10
-88.249999928486076
 20
181.50000001191941
 30
0.0
 11
-88.249999928486076
 21
180.50000001191941
 31
0.0
 12
-91.249999928486076
 22
181.00000001191941
 32
0.0
 13
-91.249999928486076
 23
181.00000001191941
 33
0.0
  0
SOLID
  5
13FF
  8
SAPA_MATT
 10
-6.2499999284860728
 20
181.50000001191941
 30
0.0
 11
-6.2499999284860728
 21
180.50000001191941
 31
0.0
 12
-3.2499999284860732
 22
181.00000001191941
 32
0.0
 13
-3.2499999284860732
 23
181.00000001191941
 33
0.0
  0
INSERT
  5
1400
  8
0
  2
*U22
 10
0.0
 20
0.0
 30
0.0
  0
POINT
  5
1401
  8
DEFPOINTS
 62
     0
 10
-91.249999928486076
 20
137.99999999998369
 30
0.0
  0
POINT
  5
1402
  8
DEFPOINTS
 62
     0
 10
-3.2499999284860759
 20
138.49999999998369
 30
0.0
  0
POINT
  5
1403
  8
DEFPOINTS
 62
     0
 10
-3.2499999284860732
 20
181.00000001191941
 30
0.0
  0
ENDBLK
  5
13DC
  8
0
  0
BLOCK
  8
0
  2
*D18
 70
     1
 10
0.0
 20
0.0
 30
0.0
  3
*D18
  1

  0
LINE
  5
13F2
  8
SAPA_MATT
 10
-90.749999928474423
 20
139.99999999998369
 30
0.0
 11
-133.2414789875707
 21
139.99999999998369
 31
0.0
  0
LINE
  5
13F3
  8
SAPA_MATT
 10
-88.749999928490809
 20
79.999999999983714
 30
0.0
 11
-133.2414789875707
 21
79.999999999983714
 31
0.0
  0
LINE
  5
13F4
  8
SAPA_MATT
 10
-131.7414789875707
 20
136.99999999998369
 30
0.0
 11
-131.7414789875707
 21
82.999999999983729
 31
0.0
  0
SOLID
  5
13F5
  8
SAPA_MATT
 10
-132.2414789875707
 20
136.99999999998369
 30
0.0
 11
-131.2414789875707
 21
136.99999999998369
 31
0.0
 12
-131.7414789875707
 22
139.99999999998369
 32
0.0
 13
-131.7414789875707
 23
139.99999999998369
 33
0.0
  0
SOLID
  5
13F6
  8
SAPA_MATT
 10
-132.2414789875707
 20
82.999999999983729
 30
0.0
 11
-131.2414789875707
 21
82.999999999983729
 31
0.0
 12
-131.7414789875707
 22
79.999999999983714
 32
0.0
 13
-131.7414789875707
 23
79.999999999983714
 33
0.0
  0
INSERT
  5
13F7
  8
0
  2
*U21
 10
0.0
 20
0.0
 30
0.0
  0
POINT
  5
13F8
  8
DEFPOINTS
 62
     0
 10
-89.249999928474438
 20
139.99999999998369
 30
0.0
  0
POINT
  5
13F9
  8
DEFPOINTS
 62
     0
 10
-87.249999928490809
 20
79.999999999983714
 30
0.0
  0
POINT
  5
13FA
  8
DEFPOINTS
 62
     0
 10
-131.7414789875707
 20
79.999999999983714
 30
0.0
  0
ENDBLK
  5
13E8
  8
0
  0
BLOCK
  8
0
  2
*X19
 70
     1
 10
0.0
 20
0.0
 30
0.0
  3
*X19
  1

  0
LINE
  5
14B0
  8
0
 62
     0
 10
156.75000007151169
 20
139.79095488711579
 30
0.0
 11
156.58595721819231
 21
139.9549977404352
 31
0.0
  0
LINE
  5
14B1
  8
0
 62
     0
 10
156.75000007151169
 20
138.6684228719821
 30
0.0
 11
155.68841317915269
 21
139.7300097643411
 31
0.0
  0
LINE
  5
14B2
  8
0
 62
     0
 10
156.75000007151169
 20
137.5458908568485
 30
0.0
 11
154.7613192801858
 21
139.53457164817439
 31
0.0
  0
LINE
  5
14B3
  8
0
 62
     0
 10
156.75000007151169
 20
136.4233588417149
 30
0.0
 11
153.80237159059911
 21
139.37098732262751
 31
0.0
  0
LINE
  5
14B4
  8
0
 62
     0
 10
156.75000007151169
 20
135.30082682658119
 30
0.0
 11
152.80878479857341
 21
139.24204209951949
 31
0.0
  0
LINE
  5
14B5
  8
0
 62
     0
 10
156.75000007151169
 20
134.17829481144761
 30
0.0
 11
151.7771487365064
 21
139.1511461464529
 31
0.0
  0
LINE
  5
14B6
  8
0
 62
     0
 10
156.75000007151169
 20
133.0557627963139
 30
0.0
 11
150.7032229471497
 21
139.10253992067589
 31
0.0
  0
LINE
  5
14B7
  8
0
 62
     0
 10
156.75000007151169
 20
131.93323078118021
 30
0.0
 11
149.58163305974711
 21
139.10159779294489
 31
0.0
  0
LINE
  5
14B8
  8
0
 62
     0
 10
156.75000007151169
 20
130.81069876604661
 30
0.0
 11
148.40540457829201
 21
139.1552942592663
 31
0.0
  0
LINE
  5
14B9
  8
0
 62
     0
 10
153.5160867096524
 20
132.92208011277231
 30
0.0
 11
147.1652127030751
 21
139.27295411934949
 31
0.0
  0
LINE
  5
14BA
  8
0
 62
     0
 10
156.75000007151169
 20
129.68816675091301
 30
0.0
 11
156.18999021341349
 21
130.2481766090111
 31
0.0
  0
LINE
  5
14BB
  8
0
 62
     0
 10
152.0407395721675
 20
133.27489523512361
 30
0.0
 11
146.69452205764321
 21
138.62111274964781
 31
0.0
  0
LINE
  5
14BC
  8
0
 62
     0
 10
156.75000007151169
 20
128.5656347357793
 30
0.0
 11
156.673636229778
 21
128.64199857751299
 31
0.0
  0
LINE
  5
14BD
  8
0
 62
     0
 10
150.97638586211909
 20
133.2167169300383
 30
0.0
 11
146.75000007151169
 21
137.4431027206457
 31
0.0
  0
LINE
  5
14BE
  8
0
 62
     0
 10
150.10075455452289
 20
132.9698162225009
 30
0.0
 11
146.75000007151169
 21
136.32057070551201
 31
0.0
  0
LINE
  5
14BF
  8
0
 62
     0
 10
149.35217587509271
 20
132.59586288679739
 30
0.0
 11
146.75000007151169
 21
135.19803869037841
 31
0.0
  0
LINE
  5
14C0
  8
0
 62
     0
 10
148.70430376862251
 20
132.12120297813391
 30
0.0
 11
146.75000007151169
 21
134.0755066752447
 31
0.0
  0
LINE
  5
14C1
  8
0
 62
     0
 10
148.1448148604108
 20
131.55815987121201
 30
0.0
 11
146.75000007151169
 21
132.9529746601111
 31
0.0
  0
LINE
  5
14C2
  8
0
 62
     0
 10
147.66916178373771
 20
130.9112809327514
 30
0.0
 11
146.75000007151169
 21
131.83044264497741
 31
0.0
  0
LINE
  5
14C3
  8
0
 62
     0
 10
147.27875239819309
 20
130.17915830316241
 30
0.0
 11
146.75000007151169
 21
130.70791062984381
 31
0.0
  0
LINE
  5
14C4
  8
0
 62
     0
 10
146.98148761194051
 20
129.35389107428139
 30
0.0
 11
146.75000007151169
 21
129.58537861471021
 31
0.0
  0
LINE
  5
14C5
  8
0
 62
     0
 10
146.79522048547221
 20
128.417626185616
 30
0.0
 11
146.75000007151169
 21
128.46284659957649
 31
0.0
  0
LINE
  5
14C6
  8
0
 62
     0
 10
156.7427991217817
 20
127.9649176159822
 30
0.0
 11
156.75000007151169
 21
127.97211856571219
 31
0.0
  0
LINE
  5
14C7
  8
0
 62
     0
 10
156.61518592238571
 20
128.95983643171979
 30
0.0
 11
156.75000007151169
 21
129.09465058084581
 31
0.0
  0
LINE
  5
14C8
  8
0
 62
     0
 10
156.36341586147839
 20
129.8305983859461
 30
0.0
 11
156.75000007151169
 21
130.21718259597949
 31
0.0
  0
LINE
  5
14C9
  8
0
 62
     0
 10
156.0122932044691
 20
130.60200774407051
 30
0.0
 11
156.75000007151169
 21
131.3397146111131
 31
0.0
  0
LINE
  5
14CA
  8
0
 62
     0
 10
155.57338671912149
 20
131.2856332738566
 30
0.0
 11
156.75000007151169
 21
132.46224662624681
 31
0.0
  0
LINE
  5
14CB
  8
0
 62
     0
 10
155.05074318506641
 20
131.8855217549351
 30
0.0
 11
156.75000007151169
 21
133.58477864138041
 31
0.0
  0
LINE
  5
14CC
  8
0
 62
     0
 10
154.4424910395733
 20
132.39980162457559
 30
0.0
 11
156.75000007151169
 21
134.70731065651401
 31
0.0
  0
LINE
  5
14CD
  8
0
 62
     0
 10
153.7401225276268
 20
132.81996512776271
 30
0.0
 11
156.75000007151169
 21
135.8298426716477
 31
0.0
  0
LINE
  5
14CE
  8
0
 62
     0
 10
152.92469802044781
 20
133.12707263571741
 30
0.0
 11
156.75000007151169
 21
136.9523746867813
 31
0.0
  0
LINE
  5
14CF
  8
0
 62
     0
 10
151.95478306915749
 20
133.27968969956069
 30
0.0
 11
156.75000007151169
 21
138.07490670191501
 31
0.0
  0
LINE
  5
14D0
  8
0
 62
     0
 10
146.75000007151169
 20
128.07490670191501
 30
0.0
 11
146.76437518929299
 21
128.08928181969631
 31
0.0
  0
LINE
  5
14D1
  8
0
 62
     0
 10
150.71528958385929
 20
133.16272822939621
 30
0.0
 11
156.75000007151169
 21
139.19743871704861
 31
0.0
  0
LINE
  5
14D2
  8
0
 62
     0
 10
146.75000007151169
 20
129.19743871704861
 30
0.0
 11
147.0121675534707
 21
129.4596061990076
 31
0.0
  0
LINE
  5
14D3
  8
0
 62
     0
 10
146.75000007151169
 20
130.3199707321823
 30
0.0
 11
156.31276098090521
 21
139.88273164157579
 31
0.0
  0
LINE
  5
14D4
  8
0
 62
     0
 10
146.75000007151169
 20
131.4425027473159
 30
0.0
 11
154.86138375029219
 21
139.55388642609631
 31
0.0
  0
LINE
  5
14D5
  8
0
 62
     0
 10
146.75000007151169
 20
132.5650347624495
 30
0.0
 11
153.51435958598071
 21
139.32939427691849
 31
0.0
  0
LINE
  5
14D6
  8
0
 62
     0
 10
146.75000007151169
 20
133.68756677758321
 30
0.0
 11
152.249825574819
 21
139.18739228089049
 31
0.0
  0
LINE
  5
14D7
  8
0
 62
     0
 10
146.75000007151169
 20
134.8100987927169
 30
0.0
 11
151.0531449209727
 21
139.11324364217779
 31
0.0
  0
LINE
  5
14D8
  8
0
 62
     0
 10
146.75000007151169
 20
135.9326308078505
 30
0.0
 11
149.9139455534366
 21
139.09657628977541
 31
0.0
  0
LINE
  5
14D9
  8
0
 62
     0
 10
146.75000007151169
 20
137.0551628229841
 30
0.0
 11
148.82456122789301
 21
139.12972397936539
 31
0.0
  0
LINE
  5
14DA
  8
0
 62
     0
 10
146.75000007151169
 20
138.17769483811779
 30
0.0
 11
147.7791391871508
 21
139.2068339537569
 31
0.0
  0
LINE
  5
14DB
  8
0
 62
     0
 10
146.46874156339061
 20
139.0189683451303
 30
0.0
 11
146.7730956759959
 21
139.3233224577356
 31
0.0
  0
ENDBLK
  5
14DD
  8
0
  0
BLOCK
  8
0
  2
*X20
 70
     1
 10
0.0
 20
0.0
 30
0.0
  3
*X20
  1

  0
LINE
  5
14DF
  8
0
 62
     0
 10
156.1812285220671
 20
126.74373365256039
 30
0.0
 11
156.57810352206701
 21
127.4311413168143
 31
0.0
  0
LINE
  5
14E0
  8
0
 62
     0
 10
154.99060352206709
 20
124.6815106597987
 30
0.0
 11
155.38747852206711
 21
125.3689183240526
 31
0.0
  0
LINE
  5
14E1
  8
0
 62
     0
 10
153.79997852206711
 20
122.619287667037
 30
0.0
 11
154.1968535220671
 21
123.3066953312909
 31
0.0
  0
LINE
  5
14E2
  8
0
 62
     0
 10
156.1812288065631
 20
129.49336414532209
 30
0.0
 11
156.36830681791841
 21
129.81739276596829
 31
0.0
  0
LINE
  5
14E3
  8
0
 62
     0
 10
154.99060380656309
 20
127.4311411525604
 30
0.0
 11
155.38747880656311
 21
128.1185488168143
 31
0.0
  0
LINE
  5
14E4
  8
0
 62
     0
 10
153.79997880656319
 20
125.3689181597987
 30
0.0
 11
154.19685380656321
 21
126.05632582405261
 31
0.0
  0
LINE
  5
14E5
  8
0
 62
     0
 10
152.60935380656321
 20
123.30669516703701
 30
0.0
 11
153.0062288065632
 21
123.9941028312909
 31
0.0
  0
LINE
  5
14E6
  8
0
 62
     0
 10
154.9906040910592
 20
130.1807716453221
 30
0.0
 11
155.38747909105919
 21
130.86817930957599
 31
0.0
  0
LINE
  5
14E7
  8
0
 62
     0
 10
153.79997909105921
 20
128.11854865256041
 30
0.0
 11
154.19685409105921
 21
128.8059563168143
 31
0.0
  0
LINE
  5
14E8
  8
0
 62
     0
 10
152.6093540910592
 20
126.0563256597987
 30
0.0
 11
153.0062290910592
 21
126.7437333240526
 31
0.0
  0
LINE
  5
14E9
  8
0
 62
     0
 10
151.4187290910593
 20
123.994102667037
 30
0.0
 11
151.81560409105921
 21
124.68151033129089
 31
0.0
  0
LINE
  5
14EA
  8
0
 62
     0
 10
150.41048081648819
 20
122.2477654288363
 30
0.0
 11
150.62497909105929
 21
122.6192873385292
 31
0.0
  0
LINE
  5
14EB
  8
0
 62
     0
 10
153.7999793755553
 20
130.86817914532199
 30
0.0
 11
154.19685437555529
 21
131.55558680957591
 31
0.0
  0
LINE
  5
14EC
  8
0
 62
     0
 10
152.60935437555531
 20
128.80595615256041
 30
0.0
 11
153.00622937555531
 21
129.49336381681431
 31
0.0
  0
LINE
  5
14ED
  8
0
 62
     0
 10
151.4187293755553
 20
126.74373315979869
 30
0.0
 11
151.8156043755553
 21
127.4311408240526
 31
0.0
  0
LINE
  5
14EE
  8
0
 62
     0
 10
150.2281043755554
 20
124.681510167037
 30
0.0
 11
150.62497937555531
 21
125.3689178312909
 31
0.0
  0
LINE
  5
14EF
  8
0
 62
     0
 10
149.1698321404424
 20
122.84852888758191
 30
0.0
 11
149.43435437555539
 21
123.3066948385292
 31
0.0
  0
LINE
  5
14F0
  8
0
 62
     0
 10
152.60935466005139
 20
131.55558664532211
 30
0.0
 11
153.00622966005139
 21
132.24299430957601
 31
0.0
  0
LINE
  5
14F1
  8
0
 62
     0
 10
151.41872966005141
 20
129.49336365256039
 30
0.0
 11
151.81560466005141
 21
130.18077131681429
 31
0.0
  0
LINE
  5
14F2
  8
0
 62
     0
 10
150.2281046600514
 20
127.4311406597987
 30
0.0
 11
150.62497966005139
 21
128.1185483240526
 31
0.0
  0
LINE
  5
14F3
  8
0
 62
     0
 10
149.03747966005139
 20
125.368917667037
 30
0.0
 11
149.4343546600515
 21
126.05632533129091
 31
0.0
  0
LINE
  5
14F4
  8
0
 62
     0
 10
148.126164787329
 20
123.7904740057885
 30
0.0
 11
148.2437296600514
 21
123.9941023385292
 31
0.0
  0
LINE
  5
14F5
  8
0
 62
     0
 10
151.41872994454749
 20
132.24299414532209
 30
0.0
 11
151.81560494454749
 21
132.93040180957601
 31
0.0
  0
LINE
  5
14F6
  8
0
 62
     0
 10
150.22810494454751
 20
130.1807711525604
 30
0.0
 11
150.6249799445475
 21
130.86817881681429
 31
0.0
  0
LINE
  5
14F7
  8
0
 62
     0
 10
149.0374799445475
 20
128.11854815979871
 30
0.0
 11
149.43435494454749
 21
128.8059558240526
 31
0.0
  0
LINE
  5
14F8
  8
0
 62
     0
 10
147.84685494454749
 20
126.056325167037
 30
0.0
 11
148.24372994454751
 21
126.7437328312909
 31
0.0
  0
LINE
  5
14F9
  8
0
 62
     0
 10
150.22810522904359
 20
132.93040164532201
 30
0.0
 11
150.29131353469199
 21
133.0398816421654
 31
0.0
  0
LINE
  5
14FA
  8
0
 62
     0
 10
149.03748022904361
 20
130.86817865256029
 30
0.0
 11
149.4343552290436
 21
131.55558631681421
 31
0.0
  0
LINE
  5
14FB
  8
0
 62
     0
 10
147.8468552290436
 20
128.80595565979871
 30
0.0
 11
148.24373022904359
 21
129.49336332405261
 31
0.0
  0
LINE
  5
14FC
  8
0
 62
     0
 10
146.78797150801819
 20
126.971915255675
 30
0.0
 11
147.05310522904361
 21
127.43114033129091
 31
0.0
  0
LINE
  5
14FD
  8
0
 62
     0
 10
154.19684356470381
 20
131.55555658685881
 30
0.0
 11
153.79996856470379
 21
132.24296425111271
 31
0.0
  0
LINE
  5
14FE
  8
0
 62
     0
 10
155.38746856470379
 20
129.49333359409709
 30
0.0
 11
154.9905935647038
 21
130.18074125835099
 31
0.0
  0
LINE
  5
14FF
  8
0
 62
     0
 10
156.57809356470381
 20
127.4311106013354
 30
0.0
 11
156.18121856470381
 21
128.1185182655893
 31
0.0
  0
LINE
  5
1500
  8
0
 62
     0
 10
151.8155938491999
 20
132.9303720796205
 30
0.0
 11
151.6124209475567
 21
133.2822778679878
 31
0.0
  0
LINE
  5
1501
  8
0
 62
     0
 10
153.00621884919991
 20
130.86814908685881
 30
0.0
 11
152.60934384919989
 21
131.5555567511127
 31
0.0
  0
LINE
  5
1502
  8
0
 62
     0
 10
154.19684384919989
 20
128.80592609409709
 30
0.0
 11
153.7999688491999
 21
129.49333375835101
 31
0.0
  0
LINE
  5
1503
  8
0
 62
     0
 10
155.38746884919991
 20
126.7437031013354
 30
0.0
 11
154.99059384919991
 21
127.4311107655893
 31
0.0
  0
LINE
  5
1504
  8
0
 62
     0
 10
156.2589947621025
 20
125.2341759400753
 30
0.0
 11
156.18121884919989
 21
125.36888777282761
 31
0.0
  0
LINE
  5
1505
  8
0
 62
     0
 10
150.62496913369611
 20
132.24296457962049
 30
0.0
 11
150.22809413369609
 21
132.93037224387439
 31
0.0
  0
LINE
  5
1506
  8
0
 62
     0
 10
151.8155941336961
 20
130.1807415868588
 30
0.0
 11
151.4187191336961
 21
130.8681492511127
 31
0.0
  0
LINE
  5
1507
  8
0
 62
     0
 10
153.00621913369599
 20
128.11851859409711
 30
0.0
 11
152.60934413369611
 21
128.80592625835101
 31
0.0
  0
LINE
  5
1508
  8
0
 62
     0
 10
154.196844133696
 20
126.05629560133541
 30
0.0
 11
153.79996913369601
 21
126.7437032655893
 31
0.0
  0
LINE
  5
1509
  8
0
 62
     0
 10
155.38746913369599
 20
123.9940726085738
 30
0.0
 11
154.99059413369599
 21
124.6814802728277
 31
0.0
  0
LINE
  5
150A
  8
0
 62
     0
 10
149.43434441819221
 20
131.55555707962051
 30
0.0
 11
149.0374694181921
 21
132.24296474387441
 31
0.0
  0
LINE
  5
150B
  8
0
 62
     0
 10
150.62496941819211
 20
129.49333408685879
 30
0.0
 11
150.22809441819209
 21
130.18074175111269
 31
0.0
  0
LINE
  5
150C
  8
0
 62
     0
 10
151.81559441819209
 20
127.4311110940971
 30
0.0
 11
151.4187194181921
 21
128.118518758351
 31
0.0
  0
LINE
  5
150D
  8
0
 62
     0
 10
153.0062194181921
 20
125.3688881013354
 30
0.0
 11
152.60934441819211
 21
126.0562957655893
 31
0.0
  0
LINE
  5
150E
  8
0
 62
     0
 10
154.19684441819209
 20
123.3066651085737
 30
0.0
 11
153.79996941819209
 21
123.99407277282759
 31
0.0
  0
LINE
  5
150F
  8
0
 62
     0
 10
148.2437197026882
 20
130.86814957962051
 30
0.0
 11
147.96983920500779
 21
131.3425245168053
 31
0.0
  0
LINE
  5
1510
  8
0
 62
     0
 10
149.43434470268821
 20
128.80592658685879
 30
0.0
 11
149.03746970268821
 21
129.49333425111271
 31
0.0
  0
LINE
  5
1511
  8
0
 62
     0
 10
150.62496970268819
 20
126.7437035940971
 30
0.0
 11
150.2280947026882
 21
127.431111258351
 31
0.0
  0
LINE
  5
1512
  8
0
 62
     0
 10
151.8155947026882
 20
124.68148060133539
 30
0.0
 11
151.41871970268821
 21
125.36888826558931
 31
0.0
  0
LINE
  5
1513
  8
0
 62
     0
 10
153.00621970268821
 20
122.6192576085737
 30
0.0
 11
152.60934470268819
 21
123.3066652728276
 31
0.0
  0
LINE
  5
1514
  8
0
 62
     0
 10
148.24371998718431
 20
128.11851908685881
 30
0.0
 11
147.84684498718431
 21
128.80592675111271
 31
0.0
  0
LINE
  5
1515
  8
0
 62
     0
 10
149.43434498718429
 20
126.05629609409721
 30
0.0
 11
149.03746998718429
 21
126.743703758351
 31
0.0
  0
LINE
  5
1516
  8
0
 62
     0
 10
150.6249699871843
 20
123.9940731013355
 30
0.0
 11
150.22809498718431
 21
124.6814807655894
 31
0.0
  0
LINE
  5
1517
  8
0
 62
     0
 10
151.75183149104481
 20
122.04229172355549
 30
0.0
 11
151.41871998718429
 21
122.61925777282769
 31
0.0
  0
LINE
  5
1518
  8
0
 62
     0
 10
147.05309527168041
 20
127.4311115868588
 30
0.0
 11
146.75628934162339
 21
127.94519453770521
 31
0.0
  0
LINE
  5
1519
  8
0
 62
     0
 10
148.24372027168039
 20
125.3688885940971
 30
0.0
 11
147.84684527168039
 21
126.056296258351
 31
0.0
  0
LINE
  5
151A
  8
0
 62
     0
 10
149.4343452716804
 20
123.3066656013354
 30
0.0
 11
149.03747027168041
 21
123.99407326558929
 31
0.0
  0
LINE
  5
151B
  8
0
 62
     0
 10
153.00625014377059
 20
122.6192649999991
 30
0.0
 11
153.8000001437706
 21
122.6192649999991
 31
0.0
  0
LINE
  5
151C
  8
0
 62
     0
 10
150.62500014377059
 20
122.6192649999991
 30
0.0
 11
151.41875014377061
 21
122.6192649999991
 31
0.0
  0
LINE
  5
151D
  8
0
 62
     0
 10
155.38750014377061
 20
123.9940799999991
 30
0.0
 11
155.5377723255146
 21
123.9940799999991
 31
0.0
  0
LINE
  5
151E
  8
0
 62
     0
 10
153.00625014377059
 20
123.9940799999991
 30
0.0
 11
153.8000001437706
 21
123.9940799999991
 31
0.0
  0
LINE
  5
151F
  8
0
 62
     0
 10
150.62500014377059
 20
123.9940799999991
 30
0.0
 11
151.41875014377061
 21
123.9940799999991
 31
0.0
  0
LINE
  5
1520
  8
0
 62
     0
 10
148.2437501437706
 20
123.9940799999991
 30
0.0
 11
149.03750014377059
 21
123.9940799999991
 31
0.0
  0
LINE
  5
1521
  8
0
 62
     0
 10
155.38750014377061
 20
125.3688949999991
 30
0.0
 11
156.1812501437706
 21
125.3688949999991
 31
0.0
  0
LINE
  5
1522
  8
0
 62
     0
 10
153.00625014377059
 20
125.3688949999991
 30
0.0
 11
153.8000001437706
 21
125.3688949999991
 31
0.0
  0
LINE
  5
1523
  8
0
 62
     0
 10
150.62500014377059
 20
125.3688949999991
 30
0.0
 11
151.41875014377061
 21
125.3688949999991
 31
0.0
  0
LINE
  5
1524
  8
0
 62
     0
 10
148.2437501437706
 20
125.3688949999991
 30
0.0
 11
149.03750014377059
 21
125.3688949999991
 31
0.0
  0
LINE
  5
1525
  8
0
 62
     0
 10
155.38750014377061
 20
126.7437099999991
 30
0.0
 11
156.1812501437706
 21
126.7437099999991
 31
0.0
  0
LINE
  5
1526
  8
0
 62
     0
 10
153.00625014377059
 20
126.7437099999991
 30
0.0
 11
153.8000001437706
 21
126.7437099999991
 31
0.0
  0
LINE
  5
1527
  8
0
 62
     0
 10
150.62500014377059
 20
126.7437099999991
 30
0.0
 11
151.41875014377061
 21
126.7437099999991
 31
0.0
  0
LINE
  5
1528
  8
0
 62
     0
 10
148.2437501437706
 20
126.7437099999991
 30
0.0
 11
149.03750014377059
 21
126.7437099999991
 31
0.0
  0
LINE
  5
1529
  8
0
 62
     0
 10
155.38750014377061
 20
128.1185249999991
 30
0.0
 11
156.1812501437706
 21
128.1185249999991
 31
0.0
  0
LINE
  5
152A
  8
0
 62
     0
 10
153.00625014377059
 20
128.1185249999991
 30
0.0
 11
153.8000001437706
 21
128.1185249999991
 31
0.0
  0
LINE
  5
152B
  8
0
 62
     0
 10
150.62500014377059
 20
128.1185249999991
 30
0.0
 11
151.41875014377061
 21
128.1185249999991
 31
0.0
  0
LINE
  5
152C
  8
0
 62
     0
 10
148.2437501437706
 20
128.1185249999991
 30
0.0
 11
149.03750014377059
 21
128.1185249999991
 31
0.0
  0
LINE
  5
152D
  8
0
 62
     0
 10
155.38750014377061
 20
129.49333999999911
 30
0.0
 11
156.1812501437706
 21
129.49333999999911
 31
0.0
  0
LINE
  5
152E
  8
0
 62
     0
 10
153.00625014377059
 20
129.49333999999911
 30
0.0
 11
153.8000001437706
 21
129.49333999999911
 31
0.0
  0
LINE
  5
152F
  8
0
 62
     0
 10
150.62500014377059
 20
129.49333999999911
 30
0.0
 11
151.41875014377061
 21
129.49333999999911
 31
0.0
  0
LINE
  5
1530
  8
0
 62
     0
 10
148.2437501437706
 20
129.49333999999911
 30
0.0
 11
149.03750014377059
 21
129.49333999999911
 31
0.0
  0
LINE
  5
1531
  8
0
 62
     0
 10
155.38750014377061
 20
130.86815499999909
 30
0.0
 11
155.8577276088395
 21
130.86815499999909
 31
0.0
  0
LINE
  5
1532
  8
0
 62
     0
 10
153.00625014377059
 20
130.86815499999909
 30
0.0
 11
153.8000001437706
 21
130.86815499999909
 31
0.0
  0
LINE
  5
1533
  8
0
 62
     0
 10
150.62500014377059
 20
130.86815499999909
 30
0.0
 11
151.41875014377061
 21
130.86815499999909
 31
0.0
  0
LINE
  5
1534
  8
0
 62
     0
 10
148.2437501437706
 20
130.86815499999909
 30
0.0
 11
149.03750014377059
 21
130.86815499999909
 31
0.0
  0
LINE
  5
1535
  8
0
 62
     0
 10
153.00625014377059
 20
132.2429699999991
 30
0.0
 11
153.8000001437706
 21
132.2429699999991
 31
0.0
  0
LINE
  5
1536
  8
0
 62
     0
 10
150.62500014377059
 20
132.2429699999991
 30
0.0
 11
151.41875014377061
 21
132.2429699999991
 31
0.0
  0
LINE
  5
1537
  8
0
 62
     0
 10
148.85076889117059
 20
132.2429699999991
 30
0.0
 11
149.03750014377059
 21
132.2429699999991
 31
0.0
  0
ENDBLK
  5
1539
  8
0
  0
BLOCK
  8
0
  2
*U21
 70
     1
 10
0.0
 20
0.0
 30
0.0
  3
*U21
  1

  0
TEXT
  5
1595
  8
SAPA_MATT
 62
     2
 10
-132.7414789875707
 20
107.89999999998371
 30
0.0
 40
3.0
  1
60
 50
90.0
  7
ISO
  0
ENDBLK
  5
1597
  8
0
  0
BLOCK
  8
0
  2
*U22
 70
     1
 10
0.0
 20
0.0
 30
0.0
  3
*U22
  1

  0
TEXT
  5
1599
  8
SAPA_MATT
 62
     2
 10
-49.349999928486071
 20
182.00000001191941
 30
0.0
 40
3.0
  1
88
  7
ISO
  0
ENDBLK
  5
159B
  8
0
  0
BLOCK
  8
0
  2
*U23
 70
     1
 10
0.0
 20
0.0
 30
0.0
  3
*U23
  1

  0
TEXT
  5
159D
  8
SAPA_MATT
 62
     2
 10
-0.2999998568055159
 20
182.0000000000002
 30
0.0
 40
3.0
  1
8
  7
ISO
  0
ENDBLK
  5
159F
  8
0
  0
BLOCK
  8
0
  2
*U24
 70
     1
 10
0.0
 20
0.0
 30
0.0
  3
*U24
  1

  0
TEXT
  5
15A1
  8
SAPA_MATT
 62
     2
 10
68.900000071512892
 20
194.0000000000002
 30
0.0
 40
3.0
  1
150
  7
ISO
  0
ENDBLK
  5
15A3
  8
0
  0
BLOCK
  8
0
  2
*U25
 70
     1
 10
0.0
 20
0.0
 30
0.0
  3
*U25
  1

  0
TEXT
  5
15A5
  8
SAPA_MATT
 62
     2
 10
-12.73612952761505
 20
78.950000000000443
 30
0.0
 40
3.0
  1
117
 50
90.0
  7
ISO
  0
ENDBLK
  5
15A7
  8
0
  0
BLOCK
  8
0
  2
*U26
 70
     1
 10
0.0
 20
0.0
 30
0.0
  3
*U26
  1

  0
TEXT
  5
15A9
  8
SAPA_MATT
 62
     2
 10
-41.252272591124573
 20
62.95000000000023
 30
0.0
 40
3.0
  1
min. 130
 50
90.0
  7
ISO
  0
ENDBLK
  5
15AB
  8
0
  0
ENDSEC
  0
SECTION
  2
ENTITIES
  0
POLYLINE
  5
C41
  8
SAPA_ANSLUTNING
 66
     1
 10
0.0
 20
0.0
 30
0.0
  0
VERTEX
  5
149C
  8
SAPA_ANSLUTNING
 10
141.5647173126371
 20
79.681257931111759
 30
0.0
 42
0.3440718810694783
  0
VERTEX
  5
149D
  8
SAPA_ANSLUTNING
 10
134.75000014311439
 20
70.950591349984052
 30
0.0
  0
VERTEX
  5
149E
  8
SAPA_ANSLUTNING
 10
134.75000014311439
 20
14.0
 30
0.0
 42
-0.9999999999999998
  0
VERTEX
  5
149F
  8
SAPA_ANSLUTNING
 10
116.75000014311441
 20
14.0
 30
0.0
  0
VERTEX
  5
14A0
  8
SAPA_ANSLUTNING
 10
116.75000014311441
 20
70.950591349984052
 30
0.0
 42
0.9999999999999998
  0
VERTEX
  5
14A1
  8
SAPA_ANSLUTNING
 10
98.750000143114463
 20
70.950591349984052
 30
0.0
  0
VERTEX
  5
14A2
  8
SAPA_ANSLUTNING
 10
98.750000143114463
 20
14.0
 30
0.0
 42
-0.9999999999999998
  0
VERTEX
  5
14A3
  8
SAPA_ANSLUTNING
 10
80.750000143114448
 20
14.0
 30
0.0
  0
VERTEX
  5
14A4
  8
SAPA_ANSLUTNING
 10
80.750000143114448
 20
74.150036032519893
 30
0.0
 42
0.9999999999999998
  0
VERTEX
  5
14A5
  8
SAPA_ANSLUTNING
 10
62.750000143114441
 20
74.150036032519893
 30
0.0
  0
VERTEX
  5
14A6
  8
SAPA_ANSLUTNING
 10
62.750000143114441
 20
14.0
 30
0.0
 42
-0.9999999999999998
  0
VERTEX
  5
14A7
  8
SAPA_ANSLUTNING
 10
44.750000143114448
 20
14.0
 30
0.0
  0
VERTEX
  5
14A8
  8
SAPA_ANSLUTNING
 10
44.750000143114448
 20
70.950591349984052
 30
0.0
 42
0.9999999999999998
  0
VERTEX
  5
14A9
  8
SAPA_ANSLUTNING
 10
26.750000143114448
 20
70.950591349984052
 30
0.0
  0
VERTEX
  5
14AA
  8
SAPA_ANSLUTNING
 10
26.750000143114448
 20
14.0
 30
0.0
 42
-0.9999999999999998
  0
VERTEX
  5
14AB
  8
SAPA_ANSLUTNING
 10
8.7500001431144483
 20
14.0
 30
0.0
  0
VERTEX
  5
14AC
  8
SAPA_ANSLUTNING
 10
8.7500001431144483
 20
70.950591349984052
 30
0.0
 42
0.3440718839558106
  0
VERTEX
  5
14AD
  8
SAPA_ANSLUTNING
 10
1.9352828834635141
 20
79.681257953670865
 30
0.0
  0
SEQEND
  5
14AE
  8
SAPA_ANSLUTNING
  0
INSERT
  5
C45
  8
SAPA_ANSLUTNING
  6
CONTINUOUS
  2
*X19
 10
0.0
 20
0.0
 30
0.0
1001
ACAD
1000
HATCH
1002
{
1070
    19
1000
ANSI37
1040
0.25
1040
0.0
1000
R14_HATCH_DATA
1000
C45
1011
1.0
1021
0.0
1031
0.0
1021
0.0
1031
0.0
1011
0.0
1021
0.0
1031
0.0
1021
1.0
1031
0.0
1011
0.0
1021
0.0
1031
0.0
1021
0.0
1031
1.0
1040
0.0
1010
0.0
1020
0.0
1030
1.0
1000
ANSI37
1070
     0
1070
     0
1071
        1
1071
        1
1071
        6
1070
     3
1040
151.75000007151169
1040
127.66334876330821
1040
0.0
1040
-5.6210574168242138
1040
0.8895123513655372
1040
1.5707963267948959
1040
2.144309431218002
1070
     0
1070
     3
1040
151.75000007151169
1040
127.66334876330821
1040
0.0
1040
-5.6210574168242138
1040
0.8895123513655372
1040
2.144309431218002
1040
4.7123889803846888
1070
     0
1070
     1
1040
156.75000007151169
1040
127.6633487633089
1040
156.75000007151169
1040
139.99999999998431
1070
     2
1040
150.1216480836469
1040
163.8402727574078
1040
24.744568196341159
1040
1.2996137424103009
1040
1.731417526414984
1070
     0
1070
     2
1040
143.62157892955111
1040
137.14022955549439
1040
3.4111573553875849
1040
5.5535051997728768
1040
5.8731689080954093
1070
     0
1070
     1
1040
146.75000007151169
1040
138.49999999999909
1040
146.75000007151169
1040
127.66334876330841
1071
        0
1070
     0
1070
     1
1040
0.0
1040
0.25
1070
     0
1070
     2
1040
0.7853981633974483
1040
7.7500001437706478
1040
79.999999999999091
1040
-0.5612660075668221
1040
0.5612660075668221
1070
     0
1040
2.3561944901923439
1040
7.7500001437706478
1040
79.999999999999091
1040
-0.5612660075668221
1040
-0.5612660075668221
1070
     0
1071
        1
1040
150.74867649076029
1040
136.42036471292499
1040
0.0
1002
}
  0
LINE
  5
C46
  8
SAPA_ANSLUTNING
 10
-91.249999928486048
 20
0.0
 30
0.0
 11
156.75000007151041
 21
0.0
 31
0.0
  0
LINE
  5
C47
  8
SAPA_ANSLUTNING
 10
156.75000007151169
 20
139.99999999998411
 30
0.0
 11
201.7532560781701
 21
139.99999999998411
 31
0.0
  0
LINE
  5
C48
  8
SAPA_ANSLUTNING
 10
201.7532560781701
 20
110.9999999999841
 30
0.0
 11
156.75000007151169
 21
110.9999999999841
 31
0.0
  0
LINE
  5
C49
  8
SAPA_ANSLUTNING
 10
156.75000007151129
 20
0.0
 30
0.0
 11
156.75000007151169
 21
139.99999999998411
 31
0.0
  0
ARC
  5
C4A
  8
SAPA_ANSLUTNING
 10
150.12164808364599
 20
163.84027275741391
 30
0.0
 40
24.744568196347281
 50
260.79708316146269
 51
285.53761756269699
  0
INSERT
  5
C4B
  8
SAPA_ANSLUTNING
  6
CONTINUOUS
  2
*X20
 10
0.0
 20
0.0
 30
0.0
1001
ACAD
1000
HATCH
1002
{
1070
    19
1000
HEX
1040
0.25
1040
0.0
1000
ASC_BOUNDS
1070
     1
1070
     1
1070
     1
1005
C4C
1000
ASC_SEEDPOINT
1011
151.99211008158639
1021
0.0
1031
0.0
1021
127.78168645236489
1031
0.0
1000
R14_HATCH_DATA
1000
C4B
1011
1.0
1021
0.0
1031
0.0
1021
0.0
1031
0.0
1011
0.0
1021
0.0
1031
0.0
1021
1.0
1031
0.0
1011
0.0
1021
0.0
1031
0.0
1021
0.0
1031
1.0
1040
0.0
1010
0.0
1020
0.0
1030
1.0
1000
HEX
1070
     0
1070
     1
1071
        1
1071
        5
1071
        1
1070
     3
1040
151.75000007151169
1040
127.66334876330821
1040
0.0
1040
-5.6210574168242138
1040
0.8895123513655372
1040
0.0
1040
6.2831853071795862
1070
     1
1071
        1
1005
C4C
1070
     0
1070
     1
1040
0.0
1040
0.25
1070
     0
1070
     3
1040
0.0
1040
7.7500001437706478
1040
79.999999999999091
1040
0.0
1040
1.374814999999999
1070
     2
1040
0.79375
1040
-1.587499999999999
1040
2.0943951023931948
1040
7.7500001437706478
1040
79.999999999999091
1040
-1.190624715503902
1040
-0.6874074999999996
1070
     2
1040
0.7937499999999971
1040
-1.5874999999999939
1040
1.047197551196597
1040
8.5437501437704668
1040
79.999999999999091
1040
-1.190624715503902
1040
0.6874075000000001
1070
     2
1040
0.79375
1040
-1.587499999999999
1040
0.0591690278051155
1071
        1
1040
151.99211008158639
1040
127.78168645236489
1040
0.0
1002
}
  0
POLYLINE
  5
C4C
  8
SAPA_ANSLUTNING
 10
151.75000007151169
 20
122.04229134648399
 30
0.0
 66
     1
 70
     8
  0
VERTEX
  8
SAPA_ANSLUTNING
  5
15AF
 10
151.750
 20
122.042
 30
0.000000
  70
    32
  0
VERTEX
  8
SAPA_ANSLUTNING
  5
15B0
 10
151.995
 20
122.049
 30
0.000000
  70
    32
  0
VERTEX
  8
SAPA_ANSLUTNING
  5
15B1
 10
152.240
 20
122.069
 30
0.000000
  70
    32
  0
VERTEX
  8
SAPA_ANSLUTNING
  5
15B2
 10
152.484
 20
122.103
 30
0.000000
  70
    32
  0
VERTEX
  8
SAPA_ANSLUTNING
  5
15B3
 10
152.725
 20
122.150
 30
0.000000
  70
    32
  0
VERTEX
  8
SAPA_ANSLUTNING
  5
15B4
 10
152.965
 20
122.211
 30
0.000000
  70
    32
  0
VERTEX
  8
SAPA_ANSLUTNING
  5
15B5
 10
153.201
 20
122.284
 30
0.000000
  70
    32
  0
VERTEX
  8
SAPA_ANSLUTNING
  5
15B6
 10
153.434
 20
122.371
 30
0.000000
  70
    32
  0
VERTEX
  8
SAPA_ANSLUTNING
  5
15B7
 10
153.663
 20
122.470
 30
0.000000
  70
    32
  0
VERTEX
  8
SAPA_ANSLUTNING
  5
15B8
 10
153.888
 20
122.582
 30
0.000000
  70
    32
  0
VERTEX
  8
SAPA_ANSLUTNING
  5
15B9
 10
154.107
 20
122.706
 30
0.000000
  70
    32
  0
VERTEX
  8
SAPA_ANSLUTNING
  5
15BA
 10
154.321
 20
122.842
 30
0.000000
  70
    32
  0
VERTEX
  8
SAPA_ANSLUTNING
  5
15BB
 10
154.528
 20
122.990
 30
0.000000
  70
    32
  0
VERTEX
  8
SAPA_ANSLUTNING
  5
15BC
 10
154.728
 20
123.148
 30
0.000000
  70
    32
  0
VERTEX
  8
SAPA_ANSLUTNING
  5
15BD
 10
154.922
 20
123.318
 30
0.000000
  70
    32
  0
VERTEX
  8
SAPA_ANSLUTNING
  5
15BE
 10
155.108
 20
123.498
 30
0.000000
  70
    32
  0
VERTEX
  8
SAPA_ANSLUTNING
  5
15BF
 10
155.286
 20
123.689
 30
0.000000
  70
    32
  0
VERTEX
  8
SAPA_ANSLUTNING
  5
15C0
 10
155.455
 20
123.888
 30
0.000000
  70
    32
  0
VERTEX
  8
SAPA_ANSLUTNING
  5
15C1
 10
155.615
 20
124.097
 30
0.000000
  70
    32
  0
VERTEX
  8
SAPA_ANSLUTNING
  5
15C2
 10
155.766
 20
124.315
 30
0.000000
  70
    32
  0
VERTEX
  8
SAPA_ANSLUTNING
  5
15C3
 10
155.907
 20
124.540
 30
0.000000
  70
    32
  0
VERTEX
  8
SAPA_ANSLUTNING
  5
15C4
 10
156.039
 20
124.774
 30
0.000000
  70
    32
  0
VERTEX
  8
SAPA_ANSLUTNING
  5
15C5
 10
156.160
 20
125.014
 30
0.000000
  70
    32
  0
VERTEX
  8
SAPA_ANSLUTNING
  5
15C6
 10
156.270
 20
125.260
 30
0.000000
  70
    32
  0
VERTEX
  8
SAPA_ANSLUTNING
  5
15C7
 10
156.369
 20
125.512
 30
0.000000
  70
    32
  0
VERTEX
  8
SAPA_ANSLUTNING
  5
15C8
 10
156.458
 20
125.770
 30
0.000000
  70
    32
  0
VERTEX
  8
SAPA_ANSLUTNING
  5
15C9
 10
156.535
 20
126.032
 30
0.000000
  70
    32
  0
VERTEX
  8
SAPA_ANSLUTNING
  5
15CA
 10
156.600
 20
126.298
 30
0.000000
  70
    32
  0
VERTEX
  8
SAPA_ANSLUTNING
  5
15CB
 10
156.654
 20
126.567
 30
0.000000
  70
    32
  0
VERTEX
  8
SAPA_ANSLUTNING
  5
15CC
 10
156.696
 20
126.839
 30
0.000000
  70
    32
  0
VERTEX
  8
SAPA_ANSLUTNING
  5
15CD
 10
156.726
 20
127.112
 30
0.000000
  70
    32
  0
VERTEX
  8
SAPA_ANSLUTNING
  5
15CE
 10
156.744
 20
127.388
 30
0.000000
  70
    32
  0
VERTEX
  8
SAPA_ANSLUTNING
  5
15CF
 10
156.750
 20
127.663
 30
0.000000
  70
    32
  0
VERTEX
  8
SAPA_ANSLUTNING
  5
15D0
 10
156.744
 20
127.939
 30
0.000000
  70
    32
  0
VERTEX
  8
SAPA_ANSLUTNING
  5
15D1
 10
156.726
 20
128.214
 30
0.000000
  70
    32
  0
VERTEX
  8
SAPA_ANSLUTNING
  5
15D2
 10
156.696
 20
128.488
 30
0.000000
  70
    32
  0
VERTEX
  8
SAPA_ANSLUTNING
  5
15D3
 10
156.654
 20
128.760
 30
0.000000
  70
    32
  0
VERTEX
  8
SAPA_ANSLUTNING
  5
15D4
 10
156.600
 20
129.029
 30
0.000000
  70
    32
  0
VERTEX
  8
SAPA_ANSLUTNING
  5
15D5
 10
156.535
 20
129.295
 30
0.000000
  70
    32
  0
VERTEX
  8
SAPA_ANSLUTNING
  5
15D6
 10
156.458
 20
129.557
 30
0.000000
  70
    32
  0
VERTEX
  8
SAPA_ANSLUTNING
  5
15D7
 10
156.369
 20
129.814
 30
0.000000
  70
    32
  0
VERTEX
  8
SAPA_ANSLUTNING
  5
15D8
 10
156.270
 20
130.067
 30
0.000000
  70
    32
  0
VERTEX
  8
SAPA_ANSLUTNING
  5
15D9
 10
156.160
 20
130.313
 30
0.000000
  70
    32
  0
VERTEX
  8
SAPA_ANSLUTNING
  5
15DA
 10
156.039
 20
130.553
 30
0.000000
  70
    32
  0
VERTEX
  8
SAPA_ANSLUTNING
  5
15DB
 10
155.907
 20
130.786
 30
0.000000
  70
    32
  0
VERTEX
  8
SAPA_ANSLUTNING
  5
15DC
 10
155.766
 20
131.012
 30
0.000000
  70
    32
  0
VERTEX
  8
SAPA_ANSLUTNING
  5
15DD
 10
155.615
 20
131.229
 30
0.000000
  70
    32
  0
VERTEX
  8
SAPA_ANSLUTNING
  5
15DE
 10
155.455
 20
131.438
 30
0.000000
  70
    32
  0
VERTEX
  8
SAPA_ANSLUTNING
  5
15DF
 10
155.286
 20
131.638
 30
0.000000
  70
    32
  0
VERTEX
  8
SAPA_ANSLUTNING
  5
15E0
 10
155.108
 20
131.828
 30
0.000000
  70
    32
  0
VERTEX
  8
SAPA_ANSLUTNING
  5
15E1
 10
154.922
 20
132.008
 30
0.000000
  70
    32
  0
VERTEX
  8
SAPA_ANSLUTNING
  5
15E2
 10
154.728
 20
132.178
 30
0.000000
  70
    32
  0
VERTEX
  8
SAPA_ANSLUTNING
  5
15E3
 10
154.528
 20
132.337
 30
0.000000
  70
    32
  0
VERTEX
  8
SAPA_ANSLUTNING
  5
15E4
 10
154.321
 20
132.485
 30
0.000000
  70
    32
  0
VERTEX
  8
SAPA_ANSLUTNING
  5
15E5
 10
154.107
 20
132.621
 30
0.000000
  70
    32
  0
VERTEX
  8
SAPA_ANSLUTNING
  5
15E6
 10
153.888
 20
132.745
 30
0.000000
  70
    32
  0
VERTEX
  8
SAPA_ANSLUTNING
  5
15E7
 10
153.663
 20
132.857
 30
0.000000
  70
    32
  0
VERTEX
  8
SAPA_ANSLUTNING
  5
15E8
 10
153.434
 20
132.956
 30
0.000000
  70
    32
  0
VERTEX
  8
SAPA_ANSLUTNING
  5
15E9
 10
153.201
 20
133.042
 30
0.000000
  70
    32
  0
VERTEX
  8
SAPA_ANSLUTNING
  5
15EA
 10
152.965
 20
133.116
 30
0.000000
  70
    32
  0
VERTEX
  8
SAPA_ANSLUTNING
  5
15EB
 10
152.725
 20
133.176
 30
0.000000
  70
    32
  0
VERTEX
  8
SAPA_ANSLUTNING
  5
15EC
 10
152.484
 20
133.224
 30
0.000000
  70
    32
  0
VERTEX
  8
SAPA_ANSLUTNING
  5
15ED
 10
152.240
 20
133.257
 30
0.000000
  70
    32
  0
VERTEX
  8
SAPA_ANSLUTNING
  5
15EE
 10
151.995
 20
133.278
 30
0.000000
  70
    32
  0
VERTEX
  8
SAPA_ANSLUTNING
  5
15EF
 10
151.750
 20
133.284
 30
0.000000
  70
    32
  0
VERTEX
  8
SAPA_ANSLUTNING
  5
15F0
 10
151.505
 20
133.278
 30
0.000000
  70
    32
  0
VERTEX
  8
SAPA_ANSLUTNING
  5
15F1
 10
151.260
 20
133.257
 30
0.000000
  70
    32
  0
VERTEX
  8
SAPA_ANSLUTNING
  5
15F2
 10
151.016
 20
133.224
 30
0.000000
  70
    32
  0
VERTEX
  8
SAPA_ANSLUTNING
  5
15F3
 10
150.775
 20
133.176
 30
0.000000
  70
    32
  0
VERTEX
  8
SAPA_ANSLUTNING
  5
15F4
 10
150.535
 20
133.116
 30
0.000000
  70
    32
  0
VERTEX
  8
SAPA_ANSLUTNING
  5
15F5
 10
150.299
 20
133.042
 30
0.000000
  70
    32
  0
VERTEX
  8
SAPA_ANSLUTNING
  5
15F6
 10
150.066
 20
132.956
 30
0.000000
  70
    32
  0
VERTEX
  8
SAPA_ANSLUTNING
  5
15F7
 10
149.837
 20
132.857
 30
0.000000
  70
    32
  0
VERTEX
  8
SAPA_ANSLUTNING
  5
15F8
 10
149.612
 20
132.745
 30
0.000000
  70
    32
  0
VERTEX
  8
SAPA_ANSLUTNING
  5
15F9
 10
149.393
 20
132.621
 30
0.000000
  70
    32
  0
VERTEX
  8
SAPA_ANSLUTNING
  5
15FA
 10
149.179
 20
132.485
 30
0.000000
  70
    32
  0
VERTEX
  8
SAPA_ANSLUTNING
  5
15FB
 10
148.972
 20
132.337
 30
0.000000
  70
    32
  0
VERTEX
  8
SAPA_ANSLUTNING
  5
15FC
 10
148.772
 20
132.178
 30
0.000000
  70
    32
  0
VERTEX
  8
SAPA_ANSLUTNING
  5
15FD
 10
148.578
 20
132.008
 30
0.000000
  70
    32
  0
VERTEX
  8
SAPA_ANSLUTNING
  5
15FE
 10
148.392
 20
131.828
 30
0.000000
  70
    32
  0
VERTEX
  8
SAPA_ANSLUTNING
  5
15FF
 10
148.214
 20
131.638
 30
0.000000
  70
    32
  0
VERTEX
  8
SAPA_ANSLUTNING
  5
1600
 10
148.045
 20
131.438
 30
0.000000
  70
    32
  0
VERTEX
  8
SAPA_ANSLUTNING
  5
1601
 10
147.885
 20
131.229
 30
0.000000
  70
    32
  0
VERTEX
  8
SAPA_ANSLUTNING
  5
1602
 10
147.734
 20
131.012
 30
0.000000
  70
    32
  0
VERTEX
  8
SAPA_ANSLUTNING
  5
1603
 10
147.593
 20
130.786
 30
0.000000
  70
    32
  0
VERTEX
  8
SAPA_ANSLUTNING
  5
1604
 10
147.461
 20
130.553
 30
0.000000
  70
    32
  0
VERTEX
  8
SAPA_ANSLUTNING
  5
1605
 10
147.340
 20
130.313
 30
0.000000
  70
    32
  0
VERTEX
  8
SAPA_ANSLUTNING
  5
1606
 10
147.230
 20
130.067
 30
0.000000
  70
    32
  0
VERTEX
  8
SAPA_ANSLUTNING
  5
1607
 10
147.131
 20
129.814
 30
0.000000
  70
    32
  0
VERTEX
  8
SAPA_ANSLUTNING
  5
1608
 10
147.042
 20
129.557
 30
0.000000
  70
    32
  0
VERTEX
  8
SAPA_ANSLUTNING
  5
1609
 10
146.965
 20
129.295
 30
0.000000
  70
    32
  0
VERTEX
  8
SAPA_ANSLUTNING
  5
160A
 10
146.900
 20
129.029
 30
0.000000
  70
    32
  0
VERTEX
  8
SAPA_ANSLUTNING
  5
160B
 10
146.846
 20
128.760
 30
0.000000
  70
    32
  0
VERTEX
  8
SAPA_ANSLUTNING
  5
160C
 10
146.804
 20
128.488
 30
0.000000
  70
    32
  0
VERTEX
  8
SAPA_ANSLUTNING
  5
160D
 10
146.774
 20
128.214
 30
0.000000
  70
    32
  0
VERTEX
  8
SAPA_ANSLUTNING
  5
160E
 10
146.756
 20
127.939
 30
0.000000
  70
    32
  0
VERTEX
  8
SAPA_ANSLUTNING
  5
160F
 10
146.750
 20
127.663
 30
0.000000
  70
    32
  0
VERTEX
  8
SAPA_ANSLUTNING
  5
1610
 10
146.756
 20
127.388
 30
0.000000
  70
    32
  0
VERTEX
  8
SAPA_ANSLUTNING
  5
1611
 10
146.774
 20
127.112
 30
0.000000
  70
    32
  0
VERTEX
  8
SAPA_ANSLUTNING
  5
1612
 10
146.804
 20
126.839
 30
0.000000
  70
    32
  0
VERTEX
  8
SAPA_ANSLUTNING
  5
1613
 10
146.846
 20
126.567
 30
0.000000
  70
    32
  0
VERTEX
  8
SAPA_ANSLUTNING
  5
1614
 10
146.900
 20
126.298
 30
0.000000
  70
    32
  0
VERTEX
  8
SAPA_ANSLUTNING
  5
1615
 10
146.965
 20
126.032
 30
0.000000
  70
    32
  0
VERTEX
  8
SAPA_ANSLUTNING
  5
1616
 10
147.042
 20
125.770
 30
0.000000
  70
    32
  0
VERTEX
  8
SAPA_ANSLUTNING
  5
1617
 10
147.131
 20
125.512
 30
0.000000
  70
    32
  0
VERTEX
  8
SAPA_ANSLUTNING
  5
1618
 10
147.230
 20
125.260
 30
0.000000
  70
    32
  0
VERTEX
  8
SAPA_ANSLUTNING
  5
1619
 10
147.340
 20
125.014
 30
0.000000
  70
    32
  0
VERTEX
  8
SAPA_ANSLUTNING
  5
161A
 10
147.461
 20
124.774
 30
0.000000
  70
    32
  0
VERTEX
  8
SAPA_ANSLUTNING
  5
161B
 10
147.593
 20
124.540
 30
0.000000
  70
    32
  0
VERTEX
  8
SAPA_ANSLUTNING
  5
161C
 10
147.734
 20
124.315
 30
0.000000
  70
    32
  0
VERTEX
  8
SAPA_ANSLUTNING
  5
161D
 10
147.885
 20
124.097
 30
0.000000
  70
    32
  0
VERTEX
  8
SAPA_ANSLUTNING
  5
161E
 10
148.045
 20
123.888
 30
0.000000
  70
    32
  0
VERTEX
  8
SAPA_ANSLUTNING
  5
161F
 10
148.214
 20
123.689
 30
0.000000
  70
    32
  0
VERTEX
  8
SAPA_ANSLUTNING
  5
1620
 10
148.392
 20
123.498
 30
0.000000
  70
    32
  0
VERTEX
  8
SAPA_ANSLUTNING
  5
1621
 10
148.578
 20
123.318
 30
0.000000
  70
    32
  0
VERTEX
  8
SAPA_ANSLUTNING
  5
1622
 10
148.772
 20
123.148
 30
0.000000
  70
    32
  0
VERTEX
  8
SAPA_ANSLUTNING
  5
1623
 10
148.972
 20
122.990
 30
0.000000
  70
    32
  0
VERTEX
  8
SAPA_ANSLUTNING
  5
1624
 10
149.179
 20
122.842
 30
0.000000
  70
    32
  0
VERTEX
  8
SAPA_ANSLUTNING
  5
1625
 10
149.393
 20
122.706
 30
0.000000
  70
    32
  0
VERTEX
  8
SAPA_ANSLUTNING
  5
1626
 10
149.612
 20
122.582
 30
0.000000
  70
    32
  0
VERTEX
  8
SAPA_ANSLUTNING
  5
1627
 10
149.837
 20
122.470
 30
0.000000
  70
    32
  0
VERTEX
  8
SAPA_ANSLUTNING
  5
1628
 10
150.066
 20
122.371
 30
0.000000
  70
    32
  0
VERTEX
  8
SAPA_ANSLUTNING
  5
1629
 10
150.299
 20
122.284
 30
0.000000
  70
    32
  0
VERTEX
  8
SAPA_ANSLUTNING
  5
162A
 10
150.535
 20
122.211
 30
0.000000
  70
    32
  0
VERTEX
  8
SAPA_ANSLUTNING
  5
162B
 10
150.775
 20
122.150
 30
0.000000
  70
    32
  0
VERTEX
  8
SAPA_ANSLUTNING
  5
162C
 10
151.016
 20
122.103
 30
0.000000
  70
    32
  0
VERTEX
  8
SAPA_ANSLUTNING
  5
162D
 10
151.260
 20
122.069
 30
0.000000
  70
    32
  0
VERTEX
  8
SAPA_ANSLUTNING
  5
162E
 10
151.505
 20
122.049
 30
0.000000
  70
    32
  0
VERTEX
  8
SAPA_ANSLUTNING
  5
162F
 10
151.750
 20
122.042
 30
0.000000
  70
    32
  0
SEQEND
  8
SAPA_ANSLUTNING
  5
1630
  0
POLYLINE
  5
C4D
  8
SAPA_ANSLUTNING
 66
     1
 10
0.0
 20
0.0
 30
0.0
  0
VERTEX
  5
153A
  8
SAPA_ANSLUTNING
 10
148.25107161485261
 20
123.64793040943751
 30
0.0
 42
0.8812634091771027
  0
VERTEX
  5
153B
  8
SAPA_ANSLUTNING
 10
148.75000007151169
 20
119.71116238121751
 30
0.0
  0
VERTEX
  5
153C
  8
SAPA_ANSLUTNING
 10
154.75000007151169
 20
119.71116238121751
 30
0.0
 42
-0.9999999999999998
  0
VERTEX
  5
153D
  8
SAPA_ANSLUTNING
 10
154.75000007151169
 20
115.71116238121751
 30
0.0
  0
VERTEX
  5
153E
  8
SAPA_ANSLUTNING
 10
148.75000007151169
 20
115.71116238121751
 30
0.0
 42
0.9999999999999998
  0
VERTEX
  5
153F
  8
SAPA_ANSLUTNING
 10
148.75000007151169
 20
111.71116238121751
 30
0.0
  0
VERTEX
  5
1540
  8
SAPA_ANSLUTNING
 10
154.75000007151169
 20
111.71116238121751
 30
0.0
 42
-0.9999999999999998
  0
VERTEX
  5
1541
  8
SAPA_ANSLUTNING
 10
154.75000007151169
 20
107.71116238121751
 30
0.0
  0
VERTEX
  5
1542
  8
SAPA_ANSLUTNING
 10
148.75000007151169
 20
107.71116238121751
 30
0.0
 42
0.9999999999999998
  0
VERTEX
  5
1543
  8
SAPA_ANSLUTNING
 10
148.75000007151169
 20
103.71116238121751
 30
0.0
  0
VERTEX
  5
1544
  8
SAPA_ANSLUTNING
 10
154.75000007151169
 20
103.71116238121751
 30
0.0
 42
-0.9999999999999998
  0
VERTEX
  5
1545
  8
SAPA_ANSLUTNING
 10
154.75000007151169
 20
99.711162381217505
 30
0.0
  0
VERTEX
  5
1546
  8
SAPA_ANSLUTNING
 10
148.75000007151169
 20
99.711162381217505
 30
0.0
 42
0.9999999999999998
  0
VERTEX
  5
1547
  8
SAPA_ANSLUTNING
 10
148.75000007151169
 20
95.711162381217491
 30
0.0
  0
VERTEX
  5
1548
  8
SAPA_ANSLUTNING
 10
154.75000007151169
 20
95.711162381217491
 30
0.0
 42
-0.9999999999999998
  0
VERTEX
  5
1549
  8
SAPA_ANSLUTNING
 10
154.75000007151169
 20
91.711162381217491
 30
0.0
  0
VERTEX
  5
154A
  8
SAPA_ANSLUTNING
 10
148.75000007151169
 20
91.711162381217491
 30
0.0
 42
0.9999999999999998
  0
VERTEX
  5
154B
  8
SAPA_ANSLUTNING
 10
148.75000007151169
 20
87.711162381217491
 30
0.0
  0
VERTEX
  5
154C
  8
SAPA_ANSLUTNING
 10
154.75000007151169
 20
87.711162381217491
 30
0.0
 42
-0.9999999999999998
  0
VERTEX
  5
154D
  8
SAPA_ANSLUTNING
 10
154.75000007151169
 20
83.711162381217477
 30
0.0
  0
VERTEX
  5
154E
  8
SAPA_ANSLUTNING
 10
148.75000007151169
 20
83.711162381217477
 30
0.0
 42
0.9999999999999998
  0
VERTEX
  5
154F
  8
SAPA_ANSLUTNING
 10
148.75000007151169
 20
79.711162381217491
 30
0.0
  0
VERTEX
  5
1550
  8
SAPA_ANSLUTNING
 10
154.75000007151169
 20
79.711162381217491
 30
0.0
 42
-0.9999999999999998
  0
VERTEX
  5
1551
  8
SAPA_ANSLUTNING
 10
154.75000007151169
 20
75.711162381217491
 30
0.0
  0
VERTEX
  5
1552
  8
SAPA_ANSLUTNING
 10
148.75000007151169
 20
75.711162381217491
 30
0.0
 42
0.9999999999999998
  0
VERTEX
  5
1553
  8
SAPA_ANSLUTNING
 10
148.75000007151169
 20
71.711162381217491
 30
0.0
  0
VERTEX
  5
1554
  8
SAPA_ANSLUTNING
 10
154.75000007151169
 20
71.711162381217491
 30
0.0
 42
-0.9999999999999998
  0
VERTEX
  5
1555
  8
SAPA_ANSLUTNING
 10
154.75000007151169
 20
67.711162381217491
 30
0.0
  0
VERTEX
  5
1556
  8
SAPA_ANSLUTNING
 10
148.75000007151169
 20
67.711162381217491
 30
0.0
 42
0.9999999999999998
  0
VERTEX
  5
1557
  8
SAPA_ANSLUTNING
 10
148.75000007151169
 20
63.711162381217491
 30
0.0
  0
VERTEX
  5
1558
  8
SAPA_ANSLUTNING
 10
154.75000007151169
 20
63.711162381217491
 30
0.0
 42
-0.9999999999999998
  0
VERTEX
  5
1559
  8
SAPA_ANSLUTNING
 10
154.75000007151169
 20
59.711162381217491
 30
0.0
  0
VERTEX
  5
155A
  8
SAPA_ANSLUTNING
 10
148.75000007151169
 20
59.711162381217491
 30
0.0
 42
0.9999999999999998
  0
VERTEX
  5
155B
  8
SAPA_ANSLUTNING
 10
148.75000007151169
 20
55.711162381217491
 30
0.0
  0
VERTEX
  5
155C
  8
SAPA_ANSLUTNING
 10
154.75000007151169
 20
55.711162381217491
 30
0.0
 42
-0.9999999999999998
  0
VERTEX
  5
155D
  8
SAPA_ANSLUTNING
 10
154.75000007151169
 20
51.711162381217491
 30
0.0
  0
VERTEX
  5
155E
  8
SAPA_ANSLUTNING
 10
148.75000007151169
 20
51.711162381217491
 30
0.0
 42
0.9999999999999998
  0
VERTEX
  5
155F
  8
SAPA_ANSLUTNING
 10
148.75000007151169
 20
47.711162381217491
 30
0.0
  0
VERTEX
  5
1560
  8
SAPA_ANSLUTNING
 10
154.75000007151169
 20
47.711162381217491
 30
0.0
 42
-0.9999999999999998
  0
VERTEX
  5
1561
  8
SAPA_ANSLUTNING
 10
154.75000007151169
 20
43.711162381217491
 30
0.0
  0
VERTEX
  5
1562
  8
SAPA_ANSLUTNING
 10
148.75000007151169
 20
43.711162381217491
 30
0.0
 42
0.9999999999999998
  0
VERTEX
  5
1563
  8
SAPA_ANSLUTNING
 10
148.75000007151169
 20
39.711162381217491
 30
0.0
  0
VERTEX
  5
1564
  8
SAPA_ANSLUTNING
 10
154.75000007151169
 20
39.711162381217491
 30
0.0
 42
-0.9999999999999998
  0
VERTEX
  5
1565
  8
SAPA_ANSLUTNING
 10
154.75000007151169
 20
35.711162381217491
 30
0.0
  0
VERTEX
  5
1566
  8
SAPA_ANSLUTNING
 10
148.75000007151169
 20
35.711162381217491
 30
0.0
 42
0.9999999999999998
  0
VERTEX
  5
1567
  8
SAPA_ANSLUTNING
 10
148.75000007151169
 20
31.711162381217491
 30
0.0
  0
VERTEX
  5
1568
  8
SAPA_ANSLUTNING
 10
154.75000007151169
 20
31.711162381217491
 30
0.0
 42
-0.9999999999999998
  0
VERTEX
  5
1569
  8
SAPA_ANSLUTNING
 10
154.75000007151169
 20
27.711162381217491
 30
0.0
  0
VERTEX
  5
156A
  8
SAPA_ANSLUTNING
 10
148.75000007151169
 20
27.711162381217491
 30
0.0
 42
0.9999999999999998
  0
VERTEX
  5
156B
  8
SAPA_ANSLUTNING
 10
148.75000007151169
 20
23.711162381217491
 30
0.0
  0
VERTEX
  5
156C
  8
SAPA_ANSLUTNING
 10
154.75000007151169
 20
23.711162381217491
 30
0.0
 42
-0.9999999999999998
  0
VERTEX
  5
156D
  8
SAPA_ANSLUTNING
 10
154.75000007151169
 20
19.711162381217491
 30
0.0
  0
VERTEX
  5
156E
  8
SAPA_ANSLUTNING
 10
146.00000007151169
 20
19.711162381217491
 30
0.0
 42
0.9999999999999998
  0
VERTEX
  5
156F
  8
SAPA_ANSLUTNING
 10
146.00000007151169
 20
15.711162381217489
 30
0.0
  0
VERTEX
  5
1570
  8
SAPA_ANSLUTNING
 10
154.75000007151169
 20
15.711162381217489
 30
0.0
 42
-0.9999999999999998
  0
VERTEX
  5
1571
  8
SAPA_ANSLUTNING
 10
154.75000007151169
 20
11.711162381217489
 30
0.0
  0
VERTEX
  5
1572
  8
SAPA_ANSLUTNING
 10
146.00000007151169
 20
11.711162381217489
 30
0.0
 42
0.9999999999999998
  0
VERTEX
  5
1573
  8
SAPA_ANSLUTNING
 10
146.00000007151169
 20
7.7111623812174912
 30
0.0
  0
VERTEX
  5
1574
  8
SAPA_ANSLUTNING
 10
154.75000007151169
 20
7.7111623812174912
 30
0.0
 42
-0.9999999999999998
  0
VERTEX
  5
1575
  8
SAPA_ANSLUTNING
 10
154.75000007151169
 20
3.7111623812174912
 30
0.0
  0
VERTEX
  5
1576
  8
SAPA_ANSLUTNING
 10
146.00000007151169
 20
3.7111623812174912
 30
0.0
 42
0.759206390861857
  0
VERTEX
  5
1577
  8
SAPA_ANSLUTNING
 10
144.9646627810088
 20
0.0
 30
0.0
  0
SEQEND
  5
1578
  8
SAPA_ANSLUTNING
  0
TEXT
  5
C4F
  8
SAPA_ARTIKELNR
 10
2.8944512412426771
 20
144.737521648561
 30
0.0000000048844772
 40
3.5
  1
D9V004
 50
90.0
  7
ISO
  0
TEXT
  5
C5A
  8
SAPA_ARTIKELNR
 10
-5.4189571652532322
 20
44.757987946053618
 30
0.0000000048844772
 40
3.5
  1
D9K029
 50
90.0
  7
ISO
  0
LINE
  5
C5D
  8
SAPA_GLAS
 10
60.000000207512578
 20
149.80000000000149
 30
0.0
 11
59.250000207499397
 21
149.80000000000149
 31
0.0
  0
LINE
  5
C5E
  8
SAPA_GLAS
 10
59.250000207499397
 20
136.99999999999039
 30
0.0
 11
60.000000207498481
 21
136.99999999998951
 31
0.0
  0
LINE
  5
C60
  8
SAPA_GLAS
 10
6.5000002071478766
 20
149.80000000000149
 30
0.0
 11
7.2500002071610652
 21
149.80000000000149
 31
0.0
  0
LINE
  5
C61
  8
SAPA_GLAS
 10
7.2500002071610652
 20
136.99999999999039
 30
0.0
 11
6.5000002071619738
 21
136.99999999998951
 31
0.0
  0
CIRCLE
  5
C66
  8
SAPA_BESLAG
 10
38.250000071513568
 20
100.00000000000129
 30
0.0
 40
3.5
  0
CIRCLE
  5
C67
  8
SAPA_BESLAG
 10
28.250000071513568
 20
100.00000000000129
 30
0.0
 40
3.5
  0
CIRCLE
  5
C68
  8
SAPA_FOGBAND
 10
33.250000071499016
 20
98.800000000001546
 30
0.0
 40
0.7500000000000001
  0
LINE
  5
C6C
  8
SAPA_FOGBAND
 10
0.3504326030647462
 20
134.9113994912241
 30
0.0
 11
5.3466359312410532
 21
134.9113994912268
 31
0.0
  0
LINE
  5
C6D
  8
SAPA_FOGBAND
 10
5.3466359312410532
 20
135.0613994912255
 30
0.0
 11
0.3504326030647462
 21
135.0613994912255
 31
0.0
  0
LINE
  5
C71
  8
SAPA_FOGBAND
 10
0.3504326030647462
 20
126.4113994912195
 30
0.0
 11
4.9249594567190789
 21
126.41139949122309
 31
0.0
  0
LINE
  5
C72
  8
SAPA_FOGBAND
 10
4.9249594567190789
 20
126.561399491221
 30
0.0
 11
0.3504326030647462
 21
126.561399491221
 31
0.0
  0
LINE
  5
C76
  8
SAPA_FOGBAND
 10
66.149567539298445
 20
134.9113994912241
 30
0.0
 11
61.250898448769931
 21
134.9113994912268
 31
0.0
  0
LINE
  5
C77
  8
SAPA_FOGBAND
 10
61.250898448769931
 20
135.0613994912255
 30
0.0
 11
66.149567539298445
 21
135.0613994912255
 31
0.0
  0
LINE
  5
C7B
  8
SAPA_FOGBAND
 10
66.149567539298445
 20
126.4113994912195
 30
0.0
 11
61.685747566094513
 21
126.41139949122309
 31
0.0
  0
LINE
  5
C7C
  8
SAPA_FOGBAND
 10
61.685747566094513
 20
126.561399491221
 30
0.0
 11
66.149567539298445
 21
126.561399491221
 31
0.0
  0
CIRCLE
  5
C98
  8
SAPA_BESLAG
 10
115.2500001436901
 20
100.00000000000129
 30
0.0
 40
3.5
  0
CIRCLE
  5
C99
  8
SAPA_BESLAG
 10
105.2500001436901
 20
100.00000000000129
 30
0.0
 40
3.5
  0
CIRCLE
  5
C9A
  8
SAPA_FOGBAND
 10
110.25000014367561
 20
98.800000000001546
 30
0.0
 40
0.7500000000000001
  0
LINE
  5
C9E
  8
SAPA_FOGBAND
 10
77.350432675241336
 20
134.9113994912241
 30
0.0
 11
82.346636003417643
 21
134.9113994912268
 31
0.0
  0
LINE
  5
C9F
  8
SAPA_FOGBAND
 10
82.346636003417643
 20
135.0613994912255
 30
0.0
 11
77.350432675241336
 21
135.0613994912255
 31
0.0
  0
LINE
  5
CA3
  8
SAPA_FOGBAND
 10
77.350432675241336
 20
126.4113994912195
 30
0.0
 11
81.92495952889567
 21
126.41139949122309
 31
0.0
  0
LINE
  5
CA4
  8
SAPA_FOGBAND
 10
81.92495952889567
 20
126.561399491221
 30
0.0
 11
77.350432675241336
 21
126.561399491221
 31
0.0
  0
LINE
  5
CA7
  8
SAPA_FOGBAND
 10
143.14956761147499
 20
134.9113994912241
 30
0.0
 11
138.25089852094649
 21
134.9113994912268
 31
0.0
  0
LINE
  5
CA8
  8
SAPA_FOGBAND
 10
138.25089852094649
 20
135.0613994912255
 30
0.0
 11
143.14956761147499
 21
135.0613994912255
 31
0.0
  0
LINE
  5
CAC
  8
SAPA_FOGBAND
 10
143.14956761147499
 20
126.4113994912195
 30
0.0
 11
138.6857476382711
 21
126.41139949122309
 31
0.0
  0
LINE
  5
CAD
  8
SAPA_FOGBAND
 10
138.6857476382711
 20
126.561399491221
 30
0.0
 11
143.14956761147499
 21
126.561399491221
 31
0.0
  0
TEXT
  5
E05
  8
SAPA_ARTIKELNR
 10
-61.839521777308271
 20
84.909344335877989
 30
0.0000000048844772
 40
3.5
  1
D8A002
  7
ISO
  0
LINE
  5
E06
  8
SAPA_BESLAG
 10
-75.749999928493352
 20
138.49999999997641
 30
0.0
 11
-75.749999928493352
 21
139.99999999997641
 31
0.0
  0
LINE
  5
E07
  8
SAPA_BESLAG
 10
-33.749999928493352
 20
138.49999999997641
 30
0.0
 11
-33.749999928493352
 21
139.99999999997641
 31
0.0
  0
LINE
  5
E09
  8
SAPA_BESLAG
 10
-24.749999928471521
 20
123.9999999999764
 30
0.0
 11
-84.749999928493352
 21
123.9999999999764
 31
0.0
  0
LINE
  5
E12
  8
SAPA_ANSLUTNING
 10
-91.249999928486076
 20
139.99999999998369
 30
0.0
 11
-131.7414789875707
 21
139.99999999998369
 31
0.0
  0
LINE
  5
E13
  8
SAPA_ANSLUTNING
 10
-91.249999928486076
 20
0.0
 30
0.0
 11
-91.249999928486076
 21
140.249999999983
 31
0.0
  0
LINE
  5
1003
  8
SAPA_PROFIL
 10
-86.249999928493352
 20
137.49999999998369
 30
0.0
 11
-86.249999928486076
 21
139.49999999997641
 31
0.0
  0
ARC
  5
1004
  8
SAPA_PROFIL
 10
-86.749999928482438
 20
139.4999999999728
 30
0.0
 40
0.4999999999963621
 50
0.0000000004168817
 51
90.000000000416875
  0
LINE
  5
1005
  8
SAPA_PROFIL
 10
-86.749999928486076
 20
139.99999999996911
 30
0.0
 11
-89.249999928486076
 21
139.99999999998369
 31
0.0
  0
ARC
  5
1006
  8
SAPA_PROFIL
 10
-89.249999928486076
 20
137.99999999998369
 30
0.0
 40
2.0
 50
90.0
 51
180.0
  0
LINE
  5
1007
  8
SAPA_PROFIL
 10
-91.249999928486076
 20
137.99999999998369
 30
0.0
 11
-91.249999928486076
 21
83.999999999983714
 31
0.0
  0
ARC
  5
1008
  8
SAPA_PROFIL
 10
-87.249999928489714
 20
83.999999999980076
 30
0.0
 40
3.999999999996362
 50
179.9999999999479
 51
269.99999999994787
  0
LINE
  5
1009
  8
SAPA_PROFIL
 10
-87.249999928493352
 20
79.999999999983714
 30
0.0
 11
-22.249999928493349
 21
79.999999999983714
 31
0.0
  0
ARC
  5
100A
  8
SAPA_PROFIL
 10
-22.249999928493349
 20
83.999999999983714
 30
0.0
 40
4.0
 50
270.0
 51
0.0
  0
LINE
  5
100B
  8
SAPA_PROFIL
 10
-18.249999928493349
 20
83.999999999983714
 30
0.0
 11
-18.249999928486069
 21
134.99999999998369
 31
0.0
  0
ARC
  5
100C
  8
SAPA_PROFIL
 10
-16.249999928486069
 20
134.99999999998369
 30
0.0
 40
2.0
 50
90.0
 51
180.0
  0
LINE
  5
100D
  8
SAPA_PROFIL
 10
-16.249999928486069
 20
136.99999999998369
 30
0.0
 11
-7.7499999284860763
 21
136.99999999998369
 31
0.0
  0
ARC
  5
100E
  8
SAPA_PROFIL
 10
-7.7499999284860763
 20
134.99999999998369
 30
0.0
 40
2.0
 50
0.0
 51
90.0
  0
LINE
  5
100F
  8
SAPA_PROFIL
 10
-5.7499999284860763
 20
134.99999999998369
 30
0.0
 11
-5.7499999284788004
 21
132.20710678117581
 31
0.0
  0
ARC
  5
1010
  8
SAPA_PROFIL
 10
-6.2499999284829553
 20
132.20710678117919
 30
0.0
 40
0.5000000000041549
 50
314.99999999947067
 51
359.9999999996092
  0
LINE
  5
1011
  8
SAPA_PROFIL
 10
-5.8964465378900144
 20
131.8535533905798
 30
0.0
 11
-6.1376274927548451
 21
131.6123724357295
 31
0.0
  0
ARC
  5
1012
  8
SAPA_PROFIL
 10
-5.0769673209999029
 20
130.55171226392159
 30
0.0
 40
1.5000000000022291
 50
134.99999999857079
 51
194.99999999998499
  0
LINE
  5
1013
  8
SAPA_PROFIL
 10
-6.5258560604357712
 20
130.1634836962676
 30
0.0
 11
-5.8181482758969727
 21
127.5222822874476
 31
0.0
  0
ARC
  5
1014
  8
SAPA_PROFIL
 10
-7.7499999284633221
 20
127.0046441972583
 30
0.0
 40
1.9999999999845239
 50
359.99999999976097
 51
14.999999999650059
  0
LINE
  5
1015
  8
SAPA_PROFIL
 10
-5.7499999284788004
 20
127.00464419725
 30
0.0
 11
-5.7499999284715244
 21
122.999999999991
 31
0.0
  0
ARC
  5
1016
  8
SAPA_PROFIL
 10
-4.7499999284733434
 20
122.9999999999964
 30
0.0
 40
0.999999999998181
 50
180.00000000031261
 51
269.99999999968742
  0
LINE
  5
1017
  8
SAPA_PROFIL
 10
-4.7499999284788004
 20
121.9999999999982
 30
0.0
 11
-4.2499999285006282
 21
121.999999999991
 31
0.0
  0
ARC
  5
1018
  8
SAPA_PROFIL
 10
-4.2499999284860763
 20
122.999999999991
 30
0.0
 40
1.0
 50
269.99999999916622
 51
0.0
  0
LINE
  5
1019
  8
SAPA_PROFIL
 10
-3.2499999284860759
 20
122.999999999991
 30
0.0
 11
-3.2499999284860759
 21
138.49999999998369
 31
0.0
  0
ARC
  5
101A
  8
SAPA_PROFIL
 10
-4.7499999284860763
 20
138.49999999998369
 30
0.0
 40
1.5
 50
0.0
 51
90.0
  0
LINE
  5
101B
  8
SAPA_PROFIL
 10
-4.7499999284860763
 20
139.99999999998369
 30
0.0
 11
-19.749999928486069
 21
139.99999999998369
 31
0.0
  0
ARC
  5
101C
  8
SAPA_PROFIL
 10
-19.749999928486069
 20
138.49999999998369
 30
0.0
 40
1.5
 50
90.0
 51
180.0
  0
LINE
  5
101D
  8
SAPA_PROFIL
 10
-21.24999992848608
 20
138.49999999998369
 30
0.0
 11
-21.249999928493349
 21
84.999999999983714
 31
0.0
  0
ARC
  5
101E
  8
SAPA_PROFIL
 10
-23.249999928493349
 20
84.999999999983714
 30
0.0
 40
2.0
 50
270.0
 51
0.0
  0
LINE
  5
101F
  8
SAPA_PROFIL
 10
-23.249999928493349
 20
82.999999999983714
 30
0.0
 11
-86.249999928486076
 21
82.999999999983714
 31
0.0
  0
ARC
  5
1020
  8
SAPA_PROFIL
 10
-86.249999928482424
 20
84.999999999987352
 30
0.0
 40
2.0000000000036371
 50
179.99999999989569
 51
269.99999999989581
  0
LINE
  5
1021
  8
SAPA_PROFIL
 10
-88.249999928486076
 20
84.99999999999099
 30
0.0
 11
-88.249999928486076
 21
136.99999999998369
 31
0.0
  0
LINE
  5
1022
  8
SAPA_PROFIL
 10
-88.249999928486076
 20
136.99999999998369
 30
0.0
 11
-86.749999928493338
 21
136.99999999998369
 31
0.0
  0
ARC
  5
1023
  8
SAPA_PROFIL
 10
-86.749999928493338
 20
137.49999999998369
 30
0.0
 40
0.5
 50
270.0
 51
0.0
  0
ARC
  5
1026
  8
SAPA_PROFIL
 10
-17.749999928493349
 20
102.6999999999808
 30
0.0
 40
0.5
 50
180.0
 51
270.0
  0
LINE
  5
1027
  8
SAPA_PROFIL
 10
-18.249999928493349
 20
102.6999999999808
 30
0.0
 11
-18.249999928493349
 21
103.69999999998809
 31
0.0
  0
ARC
  5
1028
  8
SAPA_PROFIL
 10
-17.749999928492439
 20
103.6999999999872
 30
0.0
 40
0.5000000000009095
 50
90.000000000104208
 51
179.99999999989569
  0
LINE
  5
1029
  8
SAPA_PROFIL
 10
-17.749999928493349
 20
104.19999999998809
 30
0.0
 11
-5.7499999284860763
 21
104.1999999999953
 31
0.0
  0
ARC
  5
102A
  8
SAPA_PROFIL
 10
-5.7499999284860763
 20
104.6999999999953
 30
0.0
 40
0.5
 50
270.0
 51
0.0
  0
LINE
  5
102B
  8
SAPA_PROFIL
 10
-5.2499999284860763
 20
104.6999999999953
 30
0.0
 11
-5.2499999284933523
 21
110.8535898384708
 31
0.0
  0
LINE
  5
102C
  8
SAPA_PROFIL
 10
-5.2499999284933523
 20
110.8535898384708
 30
0.0
 11
-5.0499999284889858
 21
111.1999999999808
 31
0.0
  0
LINE
  5
102D
  8
SAPA_PROFIL
 10
-5.0499999284889858
 20
111.1999999999808
 30
0.0
 11
-5.2499999285006282
 21
111.5562775805648
 31
0.0
  0
LINE
  5
102E
  8
SAPA_PROFIL
 10
-5.2499999285006282
 20
111.5562775805648
 30
0.0
 11
-5.2499999284933523
 21
117.9573593128717
 31
0.0
  0
ARC
  5
102F
  8
SAPA_PROFIL
 10
-6.2499999284947236
 20
117.957359312875
 30
0.0
 40
1.000000000001372
 50
359.9999999998102
 51
44.999999999515481
  0
LINE
  5
1030
  8
SAPA_PROFIL
 10
-5.5428931473012284
 20
118.66446609405649
 30
0.0
 11
-7.5713202720668127
 21
120.69289321884391
 31
0.0
  0
ARC
  5
1031
  8
SAPA_PROFIL
 10
-5.449999928498749
 20
122.8142135623937
 30
0.0
 40
2.9999999999989719
 50
180.00000000004769
 51
224.9999999997529
  0
LINE
  5
1032
  8
SAPA_PROFIL
 10
-8.4499999284977179
 20
122.8142135623912
 30
0.0
 11
-8.4499999284904401
 21
136.79999999997929
 31
0.0
  0
ARC
  5
1033
  8
SAPA_PROFIL
 10
-8.2499999284860763
 20
136.79999999997929
 30
0.0
 40
0.2000000000043656
 50
90.0
 51
180.0
  0
LINE
  5
1034
  8
SAPA_PROFIL
 10
-8.2499999284860763
 20
136.99999999998369
 30
0.0
 11
-7.9101472394773822
 21
136.99999999998369
 31
0.0
  0
ARC
  5
1035
  8
SAPA_PROFIL
 10
-7.9101472394768493
 20
135.99999999998329
 30
0.0
 40
1.000000000000397
 50
14.99999999979606
 51
90.000000000030525
  0
LINE
  5
1036
  8
SAPA_PROFIL
 10
-6.9442214131864679
 20
136.2588190450825
 30
0.0
 11
-5.9670370153631751
 21
132.61191722396879
 31
0.0
  0
ARC
  5
1037
  8
SAPA_PROFIL
 10
-6.4499999284796168
 20
132.4825077014107
 30
0.0
 40
0.4999999999746264
 50
359.99999999807522
 51
15.000000001586161
  0
LINE
  5
1038
  8
SAPA_PROFIL
 10
-5.9499999285049929
 20
132.4825077013939
 30
0.0
 11
-5.949999928497717
 21
132.4071067811438
 31
0.0
  0
ARC
  5
1039
  8
SAPA_PROFIL
 10
-6.4499999285002207
 20
132.4071067811611
 30
0.0
 40
0.5000000000025038
 50
314.99999999939217
 51
359.9999999980198
  0
LINE
  5
103A
  8
SAPA_PROFIL
 10
-6.096446537908931
 20
132.05355339056231
 30
0.0
 11
-6.6035533190675864
 21
131.54644660941091
 31
0.0
  0
ARC
  5
103B
  8
SAPA_PROFIL
 10
-6.2499999284747441
 20
131.19289321881149
 30
0.0
 40
0.5000000000040574
 50
134.99999999946499
 51
179.99999999961241
  0
LINE
  5
103C
  8
SAPA_PROFIL
 10
-6.7499999284788004
 20
131.19289321881479
 30
0.0
 11
-6.7499999285006282
 21
123.1142135623941
 31
0.0
  0
ARC
  5
103D
  8
SAPA_PROFIL
 10
-5.7499999284948631
 20
123.1142135623854
 30
0.0
 40
1.0000000000057641
 50
179.99999999949759
 51
224.9999999994113
  0
LINE
  5
103E
  8
SAPA_PROFIL
 10
-6.4571067096927521
 20
122.407106781202
 30
0.0
 11
-4.1286795849242557
 21
120.07867965641169
 31
0.0
  0
ARC
  5
103F
  8
SAPA_PROFIL
 10
-6.2499999284788359
 20
117.95735931285721
 30
0.0
 40
2.999999999992764
 50
359.99999999999858
 51
44.99999999999855
  0
LINE
  5
1040
  8
SAPA_PROFIL
 10
-3.2499999284860759
 20
117.95735931285709
 30
0.0
 11
-3.2499999284860759
 21
103.19999999998809
 31
0.0
  0
ARC
  5
1041
  8
SAPA_PROFIL
 10
-4.2499999284860763
 20
103.19999999998809
 30
0.0
 40
1.0
 50
270.0
 51
0.0
  0
LINE
  5
1042
  8
SAPA_PROFIL
 10
-4.2499999284860763
 20
102.19999999998809
 30
0.0
 11
-17.749999928493349
 21
102.1999999999808
 31
0.0
  0
LINE
  5
1043
  8
SAPA_BESLAG
 10
-24.749999928471521
 20
82.999999999983714
 30
0.0
 11
-24.7499999284788
 21
137.99999999995461
 31
0.0
  0
ARC
  5
1044
  8
SAPA_BESLAG
 10
-25.249999928478911
 20
137.9999999999545
 30
0.0
 40
0.5000000000001066
 50
0.0000000000130276
 51
89.999999999987793
  0
LINE
  5
1045
  8
SAPA_BESLAG
 10
-25.2499999284788
 20
138.49999999995461
 30
0.0
 11
-84.249999928493338
 21
138.49999999997641
 31
0.0
  0
ARC
  5
1046
  8
SAPA_BESLAG
 10
-84.249999928493395
 20
137.9999999999765
 30
0.0
 40
0.4999999999999432
 50
89.999999999995111
 51
180.00000000000651
  0
LINE
  5
1047
  8
SAPA_BESLAG
 10
-84.749999928493352
 20
137.99999999997641
 30
0.0
 11
-84.749999928500628
 21
82.999999999983714
 31
0.0
  0
LINE
  5
1048
  8
SAPA_BESLAG
 10
-84.749999928500628
 20
82.999999999983714
 30
0.0
 11
-86.249999928486076
 21
82.999999999983714
 31
0.0
  0
LINE
  5
1049
  8
SAPA_BESLAG
 10
-86.249999928486076
 20
82.999999999983714
 30
0.0
 11
-86.249999928493352
 21
138.49999999997641
 31
0.0
  0
ARC
  5
104A
  8
SAPA_BESLAG
 10
-84.749999928493352
 20
138.49999999997641
 30
0.0
 40
1.5
 50
90.0
 51
180.0
  0
LINE
  5
104B
  8
SAPA_BESLAG
 10
-84.749999928493352
 20
139.99999999997641
 30
0.0
 11
-24.7499999284788
 21
139.99999999996911
 31
0.0
  0
ARC
  5
104C
  8
SAPA_BESLAG
 10
-24.749999928475169
 20
138.4999999999728
 30
0.0
 40
1.499999999996362
 50
0.0000000001389606
 51
90.000000000138954
  0
LINE
  5
104D
  8
SAPA_BESLAG
 10
-23.2499999284788
 20
138.49999999997641
 30
0.0
 11
-23.249999928464248
 21
82.999999999983714
 31
0.0
  0
LINE
  5
104E
  8
SAPA_BESLAG
 10
-23.249999928464248
 20
82.999999999983714
 30
0.0
 11
-24.749999928471521
 21
82.999999999983714
 31
0.0
  0
LINE
  5
104F
  8
SAPA_FOGBAND
 10
143.14956761147499
 20
126.6363994912217
 30
0.0
 11
138.9351169714609
 21
126.74639687640411
 31
0.0
  0
LINE
  5
1050
  8
SAPA_FOGBAND
 10
138.9351169714609
 20
126.74639687640411
 30
0.0
 11
138.93569347033551
 21
129.18449021682591
 31
0.0
  0
LINE
  5
1051
  8
SAPA_FOGBAND
 10
138.93569347033551
 20
129.18449021682591
 30
0.0
 11
143.14956761147499
 21
128.0590890943613
 31
0.0
  0
LINE
  5
1052
  8
SAPA_FOGBAND
 10
143.14956761147499
 20
124.9137098880792
 30
0.0
 11
138.93552375586839
 21
123.7882632907631
 31
0.0
  0
LINE
  5
1053
  8
SAPA_FOGBAND
 10
138.93552375586839
 20
123.7882632907631
 30
0.0
 11
138.9350876150483
 21
126.2264013373123
 31
0.0
  0
LINE
  5
1054
  8
SAPA_FOGBAND
 10
138.9350876150483
 20
126.2264013373123
 30
0.0
 11
143.14956761147499
 21
126.3363994912188
 31
0.0
  0
LINE
  5
1055
  8
SAPA_FOGBAND
 10
143.94956761147611
 20
129.63639949121901
 30
0.0
 11
143.14956761147499
 21
129.63639949121901
 31
0.0
  0
LINE
  5
1056
  8
SAPA_FOGBAND
 10
143.14956761147499
 20
129.63639949121901
 30
0.0
 11
143.14956761147499
 21
123.3363994912215
 31
0.0
  0
LINE
  5
1057
  8
SAPA_FOGBAND
 10
143.14956761147499
 20
123.3363994912215
 30
0.0
 11
143.94956761147611
 21
123.3363994912215
 31
0.0
  0
LINE
  5
1058
  8
SAPA_FOGBAND
 10
143.94956761147611
 20
123.3363994912215
 30
0.0
 11
143.94956761147611
 21
129.63639949121901
 31
0.0
  0
LINE
  5
1059
  8
SAPA_FOGBAND
 10
143.14956761147499
 20
135.1363994912262
 30
0.0
 11
138.50026785413641
 21
135.24639687640769
 31
0.0
  0
LINE
  5
105A
  8
SAPA_FOGBAND
 10
138.50026785413641
 20
135.24639687640769
 30
0.0
 11
138.5008443530109
 21
137.6844902168304
 31
0.0
  0
LINE
  5
105B
  8
SAPA_FOGBAND
 10
138.5008443530109
 20
137.6844902168304
 30
0.0
 11
143.14956761147499
 21
136.55908909436579
 31
0.0
  0
LINE
  5
105C
  8
SAPA_FOGBAND
 10
143.14956761147499
 20
133.4137098880837
 30
0.0
 11
138.50067463854381
 21
132.28826329076759
 31
0.0
  0
LINE
  5
105D
  8
SAPA_FOGBAND
 10
138.50067463854381
 20
132.28826329076759
 30
0.0
 11
138.50023849772381
 21
134.72640133731599
 31
0.0
  0
LINE
  5
105E
  8
SAPA_FOGBAND
 10
138.50023849772381
 20
134.72640133731599
 30
0.0
 11
143.14956761147499
 21
134.83639949122329
 31
0.0
  0
LINE
  5
105F
  8
SAPA_FOGBAND
 10
77.350432675241336
 20
126.6363994912217
 30
0.0
 11
81.675590195705794
 21
126.74639687640411
 31
0.0
  0
LINE
  5
1060
  8
SAPA_FOGBAND
 10
81.675590195705794
 20
126.74639687640411
 30
0.0
 11
81.675013696831215
 21
129.18449021682591
 31
0.0
  0
LINE
  5
1061
  8
SAPA_FOGBAND
 10
81.675013696831215
 20
129.18449021682591
 30
0.0
 11
77.350432675241336
 21
128.0590890943613
 31
0.0
  0
LINE
  5
1062
  8
SAPA_FOGBAND
 10
77.350432675241336
 20
124.9137098880792
 30
0.0
 11
81.675183411298335
 21
123.7882632907631
 31
0.0
  0
LINE
  5
1063
  8
SAPA_FOGBAND
 10
81.675183411298335
 20
123.7882632907631
 30
0.0
 11
81.675619552118405
 21
126.2264013373123
 31
0.0
  0
LINE
  5
1064
  8
SAPA_FOGBAND
 10
81.675619552118405
 20
126.2264013373123
 30
0.0
 11
77.350432675241336
 21
126.3363994912188
 31
0.0
  0
LINE
  5
1065
  8
SAPA_FOGBAND
 10
76.550432675240245
 20
129.63639949121901
 30
0.0
 11
77.350432675241336
 21
129.63639949121901
 31
0.0
  0
LINE
  5
1066
  8
SAPA_FOGBAND
 10
77.350432675241336
 20
129.63639949121901
 30
0.0
 11
77.350432675241336
 21
123.3363994912215
 31
0.0
  0
LINE
  5
1067
  8
SAPA_FOGBAND
 10
77.350432675241336
 20
123.3363994912215
 30
0.0
 11
76.550432675240245
 21
123.3363994912215
 31
0.0
  0
LINE
  5
1068
  8
SAPA_FOGBAND
 10
76.550432675240245
 20
123.3363994912215
 30
0.0
 11
76.550432675240245
 21
129.63639949121901
 31
0.0
  0
LINE
  5
1069
  8
SAPA_FOGBAND
 10
77.350432675241336
 20
135.1363994912262
 30
0.0
 11
82.097266670227782
 21
135.24639687640769
 31
0.0
  0
LINE
  5
106A
  8
SAPA_FOGBAND
 10
82.097266670227782
 20
135.24639687640769
 30
0.0
 11
82.096690171353202
 21
137.6844902168304
 31
0.0
  0
LINE
  5
106B
  8
SAPA_FOGBAND
 10
82.096690171353202
 20
137.6844902168304
 30
0.0
 11
77.350432675241336
 21
136.55908909436579
 31
0.0
  0
LINE
  5
106C
  8
SAPA_FOGBAND
 10
77.350432675241336
 20
133.4137098880837
 30
0.0
 11
82.096859885820322
 21
132.28826329076759
 31
0.0
  0
LINE
  5
106D
  8
SAPA_FOGBAND
 10
82.096859885820322
 20
132.28826329076759
 30
0.0
 11
82.097296026640379
 21
134.72640133731599
 31
0.0
  0
LINE
  5
106E
  8
SAPA_FOGBAND
 10
82.097296026640379
 20
134.72640133731599
 30
0.0
 11
77.350432675241336
 21
134.83639949122329
 31
0.0
  0
LINE
  5
106F
  8
SAPA_FOGBAND
 10
76.550432675240245
 20
138.13639949122259
 30
0.0
 11
77.350432675241336
 21
138.13639949122259
 31
0.0
  0
LINE
  5
1070
  8
SAPA_FOGBAND
 10
77.350432675241336
 20
138.13639949122259
 30
0.0
 11
77.350432675241336
 21
131.83639949122599
 31
0.0
  0
LINE
  5
1071
  8
SAPA_FOGBAND
 10
77.350432675241336
 20
131.83639949122599
 30
0.0
 11
76.550432675240245
 21
131.83639949122599
 31
0.0
  0
LINE
  5
1072
  8
SAPA_FOGBAND
 10
76.550432675240245
 20
131.83639949122599
 30
0.0
 11
76.550432675240245
 21
138.13639949122259
 31
0.0
  0
ARC
  5
1073
  8
SAPA_FOGBAND
 10
108.4249017169674
 20
101.9000000000016
 30
0.0
 40
0.2000000000002316
 50
83.103726790278898
 51
210.89814782521151
  0
ARC
  5
1074
  8
SAPA_FOGBAND
 10
105.2500001436904
 20
100.0000000000009
 30
0.0
 40
3.4999999999996532
 50
329.86727816899332
 51
30.898147825250948
  0
ARC
  5
1075
  8
SAPA_FOGBAND
 10
108.4500001436903
 20
98.142582437900344
 30
0.0
 40
0.2000000000002637
 50
149.86727816893969
 51
209.9999999999504
  0
LINE
  5
1076
  8
SAPA_FOGBAND
 10
108.2767950629331
 20
98.042582437900364
 30
0.0
 11
108.7921277737282
 21
97.15000000000191
 31
0.0
  0
ARC
  5
1077
  8
SAPA_FOGBAND
 10
109.05193539486351
 20
97.300000000001774
 30
0.0
 40
0.299999999999949
 50
209.9999999999755
 51
269.9999999999755
  0
LINE
  5
1078
  8
SAPA_FOGBAND
 10
109.05193539486341
 20
97.000000000001819
 30
0.0
 11
111.4480648925168
 21
97.000000000001819
 31
0.0
  0
ARC
  5
1079
  8
SAPA_FOGBAND
 10
111.4480648925167
 20
97.300000000001774
 30
0.0
 40
0.2999999999999545
 50
270.00000000002439
 51
330.00000000002439
  0
LINE
  5
107A
  8
SAPA_FOGBAND
 10
111.70787251365211
 20
97.15000000000191
 30
0.0
 11
112.2232052244467
 21
98.042582437900364
 31
0.0
  0
ARC
  5
107B
  8
SAPA_FOGBAND
 10
112.0500001436897
 20
98.142582437900742
 30
0.0
 40
0.200000000000262
 50
329.99999999991832
 51
30.132721830929011
  0
ARC
  5
107C
  8
SAPA_FOGBAND
 10
115.2500001436896
 20
100.00000000000129
 30
0.0
 40
3.4999999999996461
 50
149.10185217475629
 51
210.13272183101401
  0
ARC
  5
107D
  8
SAPA_FOGBAND
 10
112.07509857041271
 20
101.9000000000017
 30
0.0
 40
0.2000000000001001
 50
329.1018521747306
 51
96.896273209659867
  0
ARC
  5
107E
  8
SAPA_FOGBAND
 10
110.2500001436901
 20
116.9900303423406
 30
0.0
 40
14.999999999997661
 50
263.1037267903157
 51
276.8962732096843
  0
LINE
  5
107F
  8
SAPA_BESLAG
 10
23.050000071513288
 20
125.4999999974693
 30
0.0
 11
22.050000071236809
 21
125.4999999974693
 31
0.0
1001
GENIUS_GENREC_14
1002
{
1000
PYDIR
1011
23.050000071513288
1021
0.0
1031
0.0
1021
111.49999999751211
1031
0.0
1002
}
1002
{
1000
PXDIR
1011
22.050000071236809
1021
0.0
1031
0.0
1021
125.4999999974693
1031
0.0
1002
}
1002
{
1000
PORI
1011
23.050000071513288
1021
0.0
1031
0.0
1021
125.4999999974693
1031
0.0
1002
}
1002
{
1000
PINS
1011
23.050000071513288
1021
0.0
1031
0.0
1021
125.4999999974693
1031
0.0
1002
}
1002
{
1000
PINS2
1011
22.050000071236809
1021
0.0
1031
0.0
1021
111.49999999751211
1031
0.0
1002
}
1002
{
1000
C
1070
     1
1002
}
1001
GENIUS_GENOBJ-N-REC_13
1002
{
1000
OWNER
1000
GEN
1002
}
1001
GENIUS_GENODEF_13
1002
{
1000
HIER
1070
     0
1002
}
1002
{
1000
MANEDIT
1070
     0
1002
}
1002
{
1000
NOSEL
1070
     0
1002
}
1002
{
1000
BEHIND
1070
     0
1002
}
1002
{
1000
OTHER
1070
     0
1002
}
1002
{
1000
REACTOR
1002
}
  0
LINE
  5
1080
  8
SAPA_BESLAG
 10
22.050000071236809
 20
125.4999999974693
 30
0.0
 11
22.050000071236809
 21
111.49999999751211
 31
0.0
1001
GENIUS_GENREC_14
1002
{
1000
PYDIR
1011
23.050000071513288
1021
0.0
1031
0.0
1021
111.49999999751211
1031
0.0
1002
}
1002
{
1000
PXDIR
1011
22.050000071236809
1021
0.0
1031
0.0
1021
125.4999999974693
1031
0.0
1002
}
1002
{
1000
PORI
1011
23.050000071513288
1021
0.0
1031
0.0
1021
125.4999999974693
1031
0.0
1002
}
1002
{
1000
PINS
1011
23.050000071513288
1021
0.0
1031
0.0
1021
125.4999999974693
1031
0.0
1002
}
1002
{
1000
PINS2
1011
22.050000071236809
1021
0.0
1031
0.0
1021
111.49999999751211
1031
0.0
1002
}
1002
{
1000
C
1070
     1
1002
}
1001
GENIUS_GENOBJ-N-REC_13
1002
{
1000
OWNER
1000
GEN
1002
}
1001
GENIUS_GENODEF_13
1002
{
1000
HIER
1070
     0
1002
}
1002
{
1000
MANEDIT
1070
     0
1002
}
1002
{
1000
NOSEL
1070
     0
1002
}
1002
{
1000
BEHIND
1070
     0
1002
}
1002
{
1000
OTHER
1070
     0
1002
}
1002
{
1000
REACTOR
1002
}
  0
LINE
  5
1081
  8
SAPA_BESLAG
 10
22.050000071236809
 20
111.49999999751211
 30
0.0
 11
23.050000071513288
 21
111.49999999751211
 31
0.0
1001
GENIUS_GENREC_14
1002
{
1000
PYDIR
1011
23.050000071513288
1021
0.0
1031
0.0
1021
111.49999999751211
1031
0.0
1002
}
1002
{
1000
PXDIR
1011
22.050000071236809
1021
0.0
1031
0.0
1021
125.4999999974693
1031
0.0
1002
}
1002
{
1000
PORI
1011
23.050000071513288
1021
0.0
1031
0.0
1021
125.4999999974693
1031
0.0
1002
}
1002
{
1000
PINS
1011
23.050000071513288
1021
0.0
1031
0.0
1021
125.4999999974693
1031
0.0
1002
}
1002
{
1000
PINS2
1011
22.050000071236809
1021
0.0
1031
0.0
1021
111.49999999751211
1031
0.0
1002
}
1002
{
1000
C
1070
     1
1002
}
1001
GENIUS_GENOBJ-N-REC_13
1002
{
1000
OWNER
1000
GEN
1002
}
1001
GENIUS_GENODEF_13
1002
{
1000
HIER
1070
     0
1002
}
1002
{
1000
MANEDIT
1070
     0
1002
}
1002
{
1000
NOSEL
1070
     0
1002
}
1002
{
1000
BEHIND
1070
     0
1002
}
1002
{
1000
OTHER
1070
     0
1002
}
1002
{
1000
REACTOR
1002
}
  0
LINE
  5
1082
  8
SAPA_BESLAG
 10
23.050000071513288
 20
111.49999999751211
 30
0.0
 11
23.050000071513288
 21
125.4999999974693
 31
0.0
1001
GENIUS_GENREC_14
1002
{
1000
PYDIR
1011
23.050000071513288
1021
0.0
1031
0.0
1021
111.49999999751211
1031
0.0
1002
}
1002
{
1000
PXDIR
1011
22.050000071236809
1021
0.0
1031
0.0
1021
125.4999999974693
1031
0.0
1002
}
1002
{
1000
PORI
1011
23.050000071513288
1021
0.0
1031
0.0
1021
125.4999999974693
1031
0.0
1002
}
1002
{
1000
PINS
1011
23.050000071513288
1021
0.0
1031
0.0
1021
125.4999999974693
1031
0.0
1002
}
1002
{
1000
PINS2
1011
22.050000071236809
1021
0.0
1031
0.0
1021
111.49999999751211
1031
0.0
1002
}
1002
{
1000
C
1070
     1
1002
}
1001
GENIUS_GENOBJ-N-REC_13
1002
{
1000
OWNER
1000
GEN
1002
}
1001
GENIUS_GENODEF_13
1002
{
1000
HIER
1070
     0
1002
}
1002
{
1000
MANEDIT
1070
     0
1002
}
1002
{
1000
NOSEL
1070
     0
1002
}
1002
{
1000
BEHIND
1070
     0
1002
}
1002
{
1000
OTHER
1070
     0
1002
}
1002
{
1000
REACTOR
1002
}
  0
LINE
  5
1083
  8
SAPA_BESLAG
 10
44.450000064427961
 20
125.49999999706959
 30
0.0
 11
43.450000071513841
 21
125.49999999706959
 31
0.0
1001
GENIUS_GENREC_14
1002
{
1000
PYDIR
1011
44.450000064427961
1021
0.0
1031
0.0
1021
111.4999999970687
1031
0.0
1002
}
1002
{
1000
PXDIR
1011
43.450000071513841
1021
0.0
1031
0.0
1021
125.49999999706959
1031
0.0
1002
}
1002
{
1000
PORI
1011
44.450000064427961
1021
0.0
1031
0.0
1021
125.49999999706959
1031
0.0
1002
}
1002
{
1000
PINS
1011
44.450000064427961
1021
0.0
1031
0.0
1021
125.49999999706959
1031
0.0
1002
}
1002
{
1000
PINS2
1011
43.450000071513841
1021
0.0
1031
0.0
1021
111.4999999970687
1031
0.0
1002
}
1002
{
1000
C
1070
     1
1002
}
1001
GENIUS_GENODEF_13
1002
{
1000
HIER
1070
     0
1002
}
1002
{
1000
MANEDIT
1070
     0
1002
}
1002
{
1000
NOSEL
1070
     0
1002
}
1002
{
1000
BEHIND
1070
     0
1002
}
1002
{
1000
OTHER
1070
     0
1002
}
1002
{
1000
REACTOR
1002
}
1001
GENIUS_GENOBJ-N-REC_13
1002
{
1000
OWNER
1000
GEN
1002
}
  0
LINE
  5
1084
  8
SAPA_BESLAG
 10
43.450000071513841
 20
125.49999999706959
 30
0.0
 11
43.450000071513841
 21
111.4999999970687
 31
0.0
1001
GENIUS_GENREC_14
1002
{
1000
PYDIR
1011
44.450000064427961
1021
0.0
1031
0.0
1021
111.4999999970687
1031
0.0
1002
}
1002
{
1000
PXDIR
1011
43.450000071513841
1021
0.0
1031
0.0
1021
125.49999999706959
1031
0.0
1002
}
1002
{
1000
PORI
1011
44.450000064427961
1021
0.0
1031
0.0
1021
125.49999999706959
1031
0.0
1002
}
1002
{
1000
PINS
1011
44.450000064427961
1021
0.0
1031
0.0
1021
125.49999999706959
1031
0.0
1002
}
1002
{
1000
PINS2
1011
43.450000071513841
1021
0.0
1031
0.0
1021
111.4999999970687
1031
0.0
1002
}
1002
{
1000
C
1070
     1
1002
}
1001
GENIUS_GENODEF_13
1002
{
1000
HIER
1070
     0
1002
}
1002
{
1000
MANEDIT
1070
     0
1002
}
1002
{
1000
NOSEL
1070
     0
1002
}
1002
{
1000
BEHIND
1070
     0
1002
}
1002
{
1000
OTHER
1070
     0
1002
}
1002
{
1000
REACTOR
1002
}
1001
GENIUS_GENOBJ-N-REC_13
1002
{
1000
OWNER
1000
GEN
1002
}
  0
LINE
  5
1085
  8
SAPA_BESLAG
 10
43.450000071513841
 20
111.4999999970687
 30
0.0
 11
44.450000064427961
 21
111.4999999970687
 31
0.0
1001
GENIUS_GENREC_14
1002
{
1000
PYDIR
1011
44.450000064427961
1021
0.0
1031
0.0
1021
111.4999999970687
1031
0.0
1002
}
1002
{
1000
PXDIR
1011
43.450000071513841
1021
0.0
1031
0.0
1021
125.49999999706959
1031
0.0
1002
}
1002
{
1000
PORI
1011
44.450000064427961
1021
0.0
1031
0.0
1021
125.49999999706959
1031
0.0
1002
}
1002
{
1000
PINS
1011
44.450000064427961
1021
0.0
1031
0.0
1021
125.49999999706959
1031
0.0
1002
}
1002
{
1000
PINS2
1011
43.450000071513841
1021
0.0
1031
0.0
1021
111.4999999970687
1031
0.0
1002
}
1002
{
1000
C
1070
     1
1002
}
1001
GENIUS_GENODEF_13
1002
{
1000
HIER
1070
     0
1002
}
1002
{
1000
MANEDIT
1070
     0
1002
}
1002
{
1000
NOSEL
1070
     0
1002
}
1002
{
1000
BEHIND
1070
     0
1002
}
1002
{
1000
OTHER
1070
     0
1002
}
1002
{
1000
REACTOR
1002
}
1001
GENIUS_GENOBJ-N-REC_13
1002
{
1000
OWNER
1000
GEN
1002
}
  0
LINE
  5
1086
  8
SAPA_BESLAG
 10
44.450000064427961
 20
111.4999999970687
 30
0.0
 11
44.450000064427961
 21
125.49999999706959
 31
0.0
1001
GENIUS_GENREC_14
1002
{
1000
PYDIR
1011
44.450000064427961
1021
0.0
1031
0.0
1021
111.4999999970687
1031
0.0
1002
}
1002
{
1000
PXDIR
1011
43.450000071513841
1021
0.0
1031
0.0
1021
125.49999999706959
1031
0.0
1002
}
1002
{
1000
PORI
1011
44.450000064427961
1021
0.0
1031
0.0
1021
125.49999999706959
1031
0.0
1002
}
1002
{
1000
PINS
1011
44.450000064427961
1021
0.0
1031
0.0
1021
125.49999999706959
1031
0.0
1002
}
1002
{
1000
PINS2
1011
43.450000071513841
1021
0.0
1031
0.0
1021
111.4999999970687
1031
0.0
1002
}
1002
{
1000
C
1070
     1
1002
}
1001
GENIUS_GENODEF_13
1002
{
1000
HIER
1070
     0
1002
}
1002
{
1000
MANEDIT
1070
     0
1002
}
1002
{
1000
NOSEL
1070
     0
1002
}
1002
{
1000
BEHIND
1070
     0
1002
}
1002
{
1000
OTHER
1070
     0
1002
}
1002
{
1000
REACTOR
1002
}
1001
GENIUS_GENOBJ-N-REC_13
1002
{
1000
OWNER
1000
GEN
1002
}
  0
LINE
  5
1087
  8
SAPA_BESLAG
 10
23.050000071513288
 20
130.40001200102179
 30
0.0
 11
23.050000071513288
 21
102.7500000000077
 31
0.0
  0
LINE
  5
1088
  8
SAPA_BESLAG
 10
23.050000071513288
 20
102.7500000000077
 30
0.0
 11
23.30000007152012
 21
102.50000000000129
 31
0.0
  0
LINE
  5
1089
  8
SAPA_BESLAG
 10
23.30000007152012
 20
102.50000000000129
 30
0.0
 11
25.80051032873007
 21
102.50000000000129
 31
0.0
  0
ARC
  5
108A
  8
SAPA_BESLAG
 10
28.250000071513341
 20
100.00000000000119
 30
0.0
 40
3.5000000000001359
 50
45.584691402807067
 51
134.4153085971929
  0
LINE
  5
108B
  8
SAPA_BESLAG
 10
30.699489814296609
 20
102.50000000000129
 30
0.0
 11
35.80051032873007
 21
102.50000000000129
 31
0.0
  0
ARC
  5
108C
  8
SAPA_BESLAG
 10
38.250000071513341
 20
100.00000000000129
 30
0.0
 40
3.500000000000095
 50
45.584691402806421
 51
134.41530859719359
  0
LINE
  5
108D
  8
SAPA_BESLAG
 10
40.699489814296612
 20
102.50000000000129
 30
0.0
 11
43.20000007150702
 21
102.50000000000129
 31
0.0
  0
LINE
  5
108E
  8
SAPA_BESLAG
 10
43.20000007150702
 20
102.50000000000129
 30
0.0
 11
43.450000071513841
 21
102.7500000000077
 31
0.0
  0
LINE
  5
108F
  8
SAPA_BESLAG
 10
43.450000071513841
 20
102.7500000000077
 30
0.0
 11
43.450000071513841
 21
130.40001200102179
 31
0.0
  0
ARC
  5
1090
  8
SAPA_BESLAG
 10
49.250000064466583
 20
107.50000000350489
 30
0.0
 40
0.5000000000002274
 50
270.00000000002598
 51
0.0000000000781653
  0
LINE
  5
1091
  8
SAPA_BESLAG
 10
49.250000064466803
 20
107.0000000035047
 30
0.0
 11
44.950000064463893
 21
107.0000000035047
 31
0.0
  0
ARC
  5
1092
  8
SAPA_BESLAG
 10
44.950000064463893
 20
107.5000000035047
 30
0.0
 40
0.5
 50
180.0
 51
270.0
  0
LINE
  5
1093
  8
SAPA_BESLAG
 10
44.450000064463893
 20
107.5000000035047
 30
0.0
 11
44.450000064463893
 21
126.9341737547015
 31
0.0
  0
ARC
  5
1094
  8
SAPA_BESLAG
 10
44.95000006444112
 20
126.9341737546962
 30
0.0
 40
0.4999999999772342
 50
164.99999999845511
 51
179.99999999938601
  0
LINE
  5
1095
  8
SAPA_BESLAG
 10
44.467037151322067
 20
127.06358327725449
 30
0.0
 11
45.154548222622452
 21
129.62940952606411
 31
0.0
  0
ARC
  5
1096
  8
SAPA_BESLAG
 10
45.637511135765088
 20
129.50000000350559
 30
0.0
 40
0.5000000000000591
 50
90.000000000042334
 51
164.9999999991374
  0
LINE
  5
1097
  8
SAPA_BESLAG
 10
45.637511135764719
 20
130.00000000350559
 30
0.0
 11
47.455309315484548
 21
130.00000000350559
 31
0.0
  0
ARC
  5
1098
  8
SAPA_BESLAG
 10
47.455309315487177
 20
129.5000000035142
 30
0.0
 40
0.4999999999914167
 50
14.999999998699931
 51
90.000000000301256
  0
LINE
  5
1099
  8
SAPA_BESLAG
 10
47.938272228626367
 20
129.62940952605231
 30
0.0
 11
48.650700644585413
 21
126.9705904808656
 31
0.0
  0
ARC
  5
109A
  8
SAPA_BESLAG
 10
49.133663557733982
 20
127.1000000034025
 30
0.0
 40
0.5000000000001525
 50
194.99999999828191
 51
269.9999999999568
  0
LINE
  5
109B
  8
SAPA_BESLAG
 10
49.133663557733598
 20
126.6000000034023
 30
0.0
 11
51.366336571869397
 21
126.6000000034032
 31
0.0
  0
ARC
  5
109C
  8
SAPA_BESLAG
 10
51.366336571877397
 20
127.1000000033993
 30
0.0
 40
0.4999999999960494
 50
269.99999999908317
 51
323.130102249289
  0
ARC
  5
109D
  8
SAPA_BESLAG
 10
52.166336570781091
 20
126.5000000019439
 30
0.0
 40
0.5000000000001421
 50
89.999999988348478
 51
143.130102250227
  0
LINE
  5
109E
  8
SAPA_BESLAG
 10
52.16633657088277
 20
127.000000001944
 30
0.0
 11
59.250000066023858
 21
127.0000000005116
 31
0.0
  0
ARC
  5
109F
  8
SAPA_BESLAG
 10
59.250000065921988
 20
126.5000000005116
 30
0.0
 40
0.5
 50
0.0
 51
89.999999988327318
  0
LINE
  5
10A0
  8
SAPA_BESLAG
 10
59.750000065922002
 20
126.5000000005116
 30
0.0
 11
59.750000065907443
 21
124.1000000035051
 31
0.0
  0
ARC
  5
10A1
  8
SAPA_BESLAG
 10
59.250000065907443
 20
124.1000000035051
 30
0.0
 40
0.5
 50
270.0
 51
0.0
  0
LINE
  5
10A2
  8
SAPA_BESLAG
 10
59.250000065907443
 20
123.6000000035051
 30
0.0
 11
51.250000064466803
 21
123.600000003506
 31
0.0
  0
ARC
  5
10A3
  8
SAPA_BESLAG
 10
51.250000064466803
 20
122.100000003506
 30
0.0
 40
1.5
 50
90.0
 51
180.0
  0
LINE
  5
10A4
  8
SAPA_BESLAG
 10
49.750000064466811
 20
122.100000003506
 30
0.0
 11
49.750000064452252
 21
118.84641016497559
 31
0.0
  0
LINE
  5
10A5
  8
SAPA_BESLAG
 10
49.750000064452252
 20
118.84641016497559
 30
0.0
 11
49.550000064484259
 21
118.5000000035065
 31
0.0
  0
LINE
  5
10A6
  8
SAPA_BESLAG
 10
49.550000064484259
 20
118.5000000035065
 30
0.0
 11
49.750000064466811
 21
118.15358984198841
 31
0.0
  0
LINE
  5
10A7
  8
SAPA_BESLAG
 10
49.750000064466811
 20
118.15358984198841
 30
0.0
 11
49.750000064452252
 21
116.8464101649929
 31
0.0
  0
LINE
  5
10A8
  8
SAPA_BESLAG
 10
49.750000064452252
 20
116.8464101649929
 30
0.0
 11
49.550000064484259
 21
116.5000000035047
 31
0.0
  0
LINE
  5
10A9
  8
SAPA_BESLAG
 10
49.550000064484259
 20
116.5000000035047
 30
0.0
 11
49.750000064466811
 21
116.1535898419865
 31
0.0
  0
LINE
  5
10AA
  8
SAPA_BESLAG
 10
49.750000064466811
 20
116.1535898419865
 30
0.0
 11
49.750000064466811
 21
107.5000000035056
 31
0.0
  0
ARC
  5
10AB
  8
SAPA_BESLAG
 10
17.25000006400137
 20
107.50000000350489
 30
0.0
 40
0.5000000000002274
 50
179.99999999992181
 51
269.99999999997391
  0
LINE
  5
10AC
  8
SAPA_BESLAG
 10
17.250000064001139
 20
107.0000000035047
 30
0.0
 11
21.550000064004049
 21
107.0000000035047
 31
0.0
  0
ARC
  5
10AD
  8
SAPA_BESLAG
 10
21.550000064004049
 20
107.5000000035047
 30
0.0
 40
0.5
 50
270.0
 51
0.0
  0
LINE
  5
10AE
  8
SAPA_BESLAG
 10
22.050000064004049
 20
107.5000000035047
 30
0.0
 11
22.050000064004049
 21
126.9341737547015
 31
0.0
  0
ARC
  5
10AF
  8
SAPA_BESLAG
 10
21.550000064026818
 20
126.9341737546962
 30
0.0
 40
0.4999999999772342
 50
0.0000000006139234
 51
15.00000000154491
  0
LINE
  5
10B0
  8
SAPA_BESLAG
 10
22.032962977145871
 20
127.06358327725449
 30
0.0
 11
21.345451905845501
 21
129.62940952606411
 31
0.0
  0
ARC
  5
10B1
  8
SAPA_BESLAG
 10
20.862488992702851
 20
129.50000000350559
 30
0.0
 40
0.5000000000000626
 50
15.000000000862469
 51
89.999999999957254
  0
LINE
  5
10B2
  8
SAPA_BESLAG
 10
20.86248899270322
 20
130.00000000350559
 30
0.0
 11
19.04469081298339
 21
130.00000000350559
 31
0.0
  0
ARC
  5
10B3
  8
SAPA_BESLAG
 10
19.044690812980761
 20
129.5000000035142
 30
0.0
 40
0.4999999999914167
 50
89.999999999698744
 51
165.00000000130001
  0
LINE
  5
10B4
  8
SAPA_BESLAG
 10
18.561727899841571
 20
129.62940952605231
 30
0.0
 11
17.84929948388298
 21
126.9705904808656
 31
0.0
  0
ARC
  5
10B5
  8
SAPA_BESLAG
 10
17.366336570734202
 20
127.1000000034028
 30
0.0
 40
0.5000000000004458
 50
270.00000000001711
 51
345.00000000169331
  0
LINE
  5
10B6
  8
SAPA_BESLAG
 10
17.366336570734351
 20
126.6000000034023
 30
0.0
 11
15.133663556598551
 21
126.6000000034032
 31
0.0
  0
ARC
  5
10B7
  8
SAPA_BESLAG
 10
15.133663556590539
 20
127.1000000033993
 30
0.0
 40
0.4999999999960494
 50
216.8698977507112
 51
270.00000000091723
  0
ARC
  5
10B8
  8
SAPA_BESLAG
 10
14.333663557686849
 20
126.5000000019439
 30
0.0
 40
0.5000000000001407
 50
36.869897749773067
 51
90.000000011651721
  0
LINE
  5
10B9
  8
SAPA_BESLAG
 10
14.333663557585171
 20
127.000000001944
 30
0.0
 11
7.2500000624440872
 21
127.0000000005116
 31
0.0
  0
ARC
  5
10BA
  8
SAPA_BESLAG
 10
7.2500000625459498
 20
126.5000000005116
 30
0.0
 40
0.5
 50
90.000000011672682
 51
180.0
  0
LINE
  5
10BB
  8
SAPA_BESLAG
 10
6.7500000625459498
 20
126.5000000005116
 30
0.0
 11
6.7500000625605017
 21
124.1000000035051
 31
0.0
  0
ARC
  5
10BC
  8
SAPA_BESLAG
 10
7.2500000625605017
 20
124.1000000035051
 30
0.0
 40
0.5
 50
180.0
 51
270.0
  0
LINE
  5
10BD
  8
SAPA_BESLAG
 10
7.2500000625605017
 20
123.6000000035051
 30
0.0
 11
15.25000006400114
 21
123.600000003506
 31
0.0
  0
ARC
  5
10BE
  8
SAPA_BESLAG
 10
15.25000006400114
 20
122.100000003506
 30
0.0
 40
1.5
 50
0.0
 51
90.0
  0
LINE
  5
10BF
  8
SAPA_BESLAG
 10
16.750000064001139
 20
122.100000003506
 30
0.0
 11
16.750000064015691
 21
118.84641016497559
 31
0.0
  0
LINE
  5
10C0
  8
SAPA_BESLAG
 10
16.750000064015691
 20
118.84641016497559
 30
0.0
 11
16.95000006398368
 21
118.5000000035065
 31
0.0
  0
LINE
  5
10C1
  8
SAPA_BESLAG
 10
16.95000006398368
 20
118.5000000035065
 30
0.0
 11
16.750000064001139
 21
118.15358984198841
 31
0.0
  0
LINE
  5
10C2
  8
SAPA_BESLAG
 10
16.750000064001139
 20
118.15358984198841
 30
0.0
 11
16.750000064015691
 21
116.8464101649929
 31
0.0
  0
LINE
  5
10C3
  8
SAPA_BESLAG
 10
16.750000064015691
 20
116.8464101649929
 30
0.0
 11
16.95000006398368
 21
116.5000000035047
 31
0.0
  0
LINE
  5
10C4
  8
SAPA_BESLAG
 10
16.95000006398368
 20
116.5000000035047
 30
0.0
 11
16.750000064001139
 21
116.1535898419865
 31
0.0
  0
LINE
  5
10C5
  8
SAPA_BESLAG
 10
16.750000064001139
 20
116.1535898419865
 30
0.0
 11
16.750000064001139
 21
107.5000000035056
 31
0.0
  0
LINE
  5
10C6
  8
SAPA_FOGBAND
 10
66.149567539298445
 20
126.6363994912217
 30
0.0
 11
61.935116899284367
 21
126.74639687640411
 31
0.0
  0
LINE
  5
10C7
  8
SAPA_FOGBAND
 10
61.935116899284367
 20
126.74639687640411
 30
0.0
 11
61.935693398158939
 21
129.18449021682591
 31
0.0
  0
LINE
  5
10C8
  8
SAPA_FOGBAND
 10
61.935693398158939
 20
129.18449021682591
 30
0.0
 11
66.149567539298445
 21
128.0590890943613
 31
0.0
  0
LINE
  5
10C9
  8
SAPA_FOGBAND
 10
66.149567539298445
 20
124.9137098880792
 30
0.0
 11
61.935523683691819
 21
123.7882632907631
 31
0.0
  0
LINE
  5
10CA
  8
SAPA_FOGBAND
 10
61.935523683691819
 20
123.7882632907631
 30
0.0
 11
61.93508754287177
 21
126.2264013373123
 31
0.0
  0
LINE
  5
10CB
  8
SAPA_FOGBAND
 10
61.93508754287177
 20
126.2264013373123
 30
0.0
 11
66.149567539298445
 21
126.3363994912188
 31
0.0
  0
LINE
  5
10CC
  8
SAPA_FOGBAND
 10
66.949567539299551
 20
129.63639949121901
 30
0.0
 11
66.149567539298445
 21
129.63639949121901
 31
0.0
  0
LINE
  5
10CD
  8
SAPA_FOGBAND
 10
66.149567539298445
 20
129.63639949121901
 30
0.0
 11
66.149567539298445
 21
123.3363994912215
 31
0.0
  0
LINE
  5
10CE
  8
SAPA_FOGBAND
 10
66.149567539298445
 20
123.3363994912215
 30
0.0
 11
66.949567539299551
 21
123.3363994912215
 31
0.0
  0
LINE
  5
10CF
  8
SAPA_FOGBAND
 10
66.949567539299551
 20
123.3363994912215
 30
0.0
 11
66.949567539299551
 21
129.63639949121901
 31
0.0
  0
LINE
  5
10D0
  8
SAPA_FOGBAND
 10
66.149567539298445
 20
135.1363994912262
 30
0.0
 11
61.500267781959792
 21
135.24639687640769
 31
0.0
  0
LINE
  5
10D1
  8
SAPA_FOGBAND
 10
61.500267781959792
 20
135.24639687640769
 30
0.0
 11
61.500844280834372
 21
137.6844902168304
 31
0.0
  0
LINE
  5
10D2
  8
SAPA_FOGBAND
 10
61.500844280834372
 20
137.6844902168304
 30
0.0
 11
66.149567539298445
 21
136.55908909436579
 31
0.0
  0
LINE
  5
10D3
  8
SAPA_FOGBAND
 10
66.149567539298445
 20
133.4137098880837
 30
0.0
 11
61.500674566367252
 21
132.28826329076759
 31
0.0
  0
LINE
  5
10D4
  8
SAPA_FOGBAND
 10
61.500674566367252
 20
132.28826329076759
 30
0.0
 11
61.500238425547202
 21
134.72640133731599
 31
0.0
  0
LINE
  5
10D5
  8
SAPA_FOGBAND
 10
61.500238425547202
 20
134.72640133731599
 30
0.0
 11
66.149567539298445
 21
134.83639949122329
 31
0.0
  0
LINE
  5
10D6
  8
SAPA_FOGBAND
 10
66.949567539299551
 20
138.13639949122259
 30
0.0
 11
66.149567539298445
 21
138.13639949122259
 31
0.0
  0
LINE
  5
10D7
  8
SAPA_FOGBAND
 10
66.149567539298445
 20
138.13639949122259
 30
0.0
 11
66.149567539298445
 21
131.83639949122599
 31
0.0
  0
LINE
  5
10D8
  8
SAPA_FOGBAND
 10
66.149567539298445
 20
131.83639949122599
 30
0.0
 11
66.949567539299551
 21
131.83639949122599
 31
0.0
  0
LINE
  5
10D9
  8
SAPA_FOGBAND
 10
66.949567539299551
 20
131.83639949122599
 30
0.0
 11
66.949567539299551
 21
138.13639949122259
 31
0.0
  0
LINE
  5
10DA
  8
SAPA_FOGBAND
 10
0.3504326030647462
 20
126.6363994912217
 30
0.0
 11
4.6755901235292177
 21
126.74639687640411
 31
0.0
  0
LINE
  5
10DB
  8
SAPA_FOGBAND
 10
4.6755901235292177
 20
126.74639687640411
 30
0.0
 11
4.6750136246546381
 21
129.18449021682591
 31
0.0
  0
LINE
  5
10DC
  8
SAPA_FOGBAND
 10
4.6750136246546381
 20
129.18449021682591
 30
0.0
 11
0.3504326030647462
 21
128.0590890943613
 31
0.0
  0
LINE
  5
10DD
  8
SAPA_FOGBAND
 10
0.3504326030647462
 20
124.9137098880792
 30
0.0
 11
4.6751833391217579
 21
123.7882632907631
 31
0.0
  0
LINE
  5
10DE
  8
SAPA_FOGBAND
 10
4.6751833391217579
 20
123.7882632907631
 30
0.0
 11
4.6756194799418154
 21
126.2264013373123
 31
0.0
  0
LINE
  5
10DF
  8
SAPA_FOGBAND
 10
4.6756194799418154
 20
126.2264013373123
 30
0.0
 11
0.3504326030647462
 21
126.3363994912188
 31
0.0
  0
LINE
  5
10E0
  8
SAPA_FOGBAND
 10
-0.4495673969363452
 20
129.63639949121901
 30
0.0
 11
0.3504326030647462
 21
129.63639949121901
 31
0.0
  0
LINE
  5
10E1
  8
SAPA_FOGBAND
 10
0.3504326030647462
 20
129.63639949121901
 30
0.0
 11
0.3504326030647462
 21
123.3363994912215
 31
0.0
  0
LINE
  5
10E2
  8
SAPA_FOGBAND
 10
0.3504326030647462
 20
123.3363994912215
 30
0.0
 11
-0.4495673969363452
 21
123.3363994912215
 31
0.0
  0
LINE
  5
10E3
  8
SAPA_FOGBAND
 10
-0.4495673969363452
 20
123.3363994912215
 30
0.0
 11
-0.4495673969363452
 21
129.63639949121901
 31
0.0
  0
LINE
  5
10E4
  8
SAPA_FOGBAND
 10
0.3504326030647462
 20
135.1363994912262
 30
0.0
 11
5.0972665980511911
 21
135.24639687640769
 31
0.0
  0
LINE
  5
10E5
  8
SAPA_FOGBAND
 10
5.0972665980511911
 20
135.24639687640769
 30
0.0
 11
5.0966900991766124
 21
137.6844902168304
 31
0.0
  0
LINE
  5
10E6
  8
SAPA_FOGBAND
 10
5.0966900991766124
 20
137.6844902168304
 30
0.0
 11
0.3504326030647462
 21
136.55908909436579
 31
0.0
  0
LINE
  5
10E7
  8
SAPA_FOGBAND
 10
0.3504326030647462
 20
133.4137098880837
 30
0.0
 11
5.0968598136437322
 21
132.28826329076759
 31
0.0
  0
LINE
  5
10E8
  8
SAPA_FOGBAND
 10
5.0968598136437322
 20
132.28826329076759
 30
0.0
 11
5.0972959544637879
 21
134.72640133731599
 31
0.0
  0
LINE
  5
10E9
  8
SAPA_FOGBAND
 10
5.0972959544637879
 20
134.72640133731599
 30
0.0
 11
0.3504326030647462
 21
134.83639949122329
 31
0.0
  0
LINE
  5
10EA
  8
SAPA_FOGBAND
 10
-0.4495673969363452
 20
138.13639949122259
 30
0.0
 11
0.3504326030647462
 21
138.13639949122259
 31
0.0
  0
LINE
  5
10EB
  8
SAPA_FOGBAND
 10
0.3504326030647462
 20
138.13639949122259
 30
0.0
 11
0.3504326030647462
 21
131.83639949122599
 31
0.0
  0
LINE
  5
10EC
  8
SAPA_FOGBAND
 10
0.3504326030647462
 20
131.83639949122599
 30
0.0
 11
-0.4495673969363452
 21
131.83639949122599
 31
0.0
  0
LINE
  5
10ED
  8
SAPA_FOGBAND
 10
-0.4495673969363452
 20
131.83639949122599
 30
0.0
 11
-0.4495673969363452
 21
138.13639949122259
 31
0.0
  0
ARC
  5
10EE
  8
SAPA_FOGBAND
 10
31.42490164479079
 20
101.9000000000016
 30
0.0
 40
0.200000000000232
 50
83.103726790277889
 51
210.89814782521211
  0
ARC
  5
10EF
  8
SAPA_FOGBAND
 10
28.250000071513821
 20
100.0000000000009
 30
0.0
 40
3.4999999999996558
 50
329.86727816899332
 51
30.89814782525092
  0
ARC
  5
10F0
  8
SAPA_FOGBAND
 10
31.450000071513781
 20
98.142582437900344
 30
0.0
 40
0.2000000000002668
 50
149.8672781689402
 51
209.99999999995001
  0
LINE
  5
10F1
  8
SAPA_FOGBAND
 10
31.276794990756571
 20
98.042582437900364
 30
0.0
 11
31.792127701551639
 21
97.15000000000191
 31
0.0
  0
ARC
  5
10F2
  8
SAPA_FOGBAND
 10
32.051935322687001
 20
97.300000000001774
 30
0.0
 40
0.2999999999999552
 50
209.99999999997479
 51
269.99999999997431
  0
LINE
  5
10F3
  8
SAPA_FOGBAND
 10
32.051935322686859
 20
97.000000000001819
 30
0.0
 11
34.448064820340278
 21
97.000000000001819
 31
0.0
  0
ARC
  5
10F4
  8
SAPA_FOGBAND
 10
34.448064820340143
 20
97.300000000001774
 30
0.0
 40
0.2999999999999545
 50
270.00000000002581
 51
330.00000000002512
  0
LINE
  5
10F5
  8
SAPA_FOGBAND
 10
34.707872441475502
 20
97.15000000000191
 30
0.0
 11
35.223205152270111
 21
98.042582437900364
 31
0.0
  0
ARC
  5
10F6
  8
SAPA_FOGBAND
 10
35.050000071513139
 20
98.142582437900742
 30
0.0
 40
0.200000000000262
 50
329.99999999991832
 51
30.132721830929011
  0
ARC
  5
10F7
  8
SAPA_FOGBAND
 10
38.250000071513092
 20
100.00000000000129
 30
0.0
 40
3.4999999999996461
 50
149.10185217475629
 51
210.13272183101401
  0
ARC
  5
10F8
  8
SAPA_FOGBAND
 10
35.075098498236123
 20
101.9000000000017
 30
0.0
 40
0.2000000000001001
 50
329.1018521747306
 51
96.896273209659867
  0
ARC
  5
10F9
  8
SAPA_FOGBAND
 10
33.250000071513568
 20
116.9900303423406
 30
0.0
 40
14.999999999997661
 50
263.1037267903157
 51
276.8962732096843
  0
LINE
  5
10FA
  8
SAPA_GLAS
 10
15.250000207177431
 20
168.99999999999039
 30
0.0
 11
15.250000207177431
 21
136.99999999999039
 31
0.0
  0
LINE
  5
10FB
  8
SAPA_GLAS
 10
15.250000207177431
 20
136.99999999999039
 30
0.0
 11
7.2500002071774361
 21
136.99999999999039
 31
0.0
  0
LINE
  5
10FC
  8
SAPA_GLAS
 10
7.2500002071774361
 20
136.99999999999039
 30
0.0
 11
7.2500002071774361
 21
168.99999999999039
 31
0.0
  0
LINE
  5
10FD
  8
SAPA_GLAS
 10
15.250000207177431
 20
146.99999999999039
 30
0.0
 11
30.25000020717744
 21
146.99999999999039
 31
0.0
  0
LINE
  5
10FE
  8
SAPA_GLAS
 10
30.25000020717744
 20
146.99999999999039
 30
0.0
 11
30.25000020717744
 21
136.99999999999039
 31
0.0
  0
LINE
  5
10FF
  8
SAPA_GLAS
 10
30.25000020717744
 20
136.99999999999039
 30
0.0
 11
15.250000207177431
 21
136.99999999999039
 31
0.0
  0
LINE
  5
1100
  8
SAPA_GLAS
 10
15.250000207177431
 20
136.99999999999039
 30
0.0
 11
15.250000207177431
 21
146.99999999999039
 31
0.0
  0
LINE
  5
1101
  8
SAPA_GLAS
 10
36.250000207177443
 20
168.99999999999039
 30
0.0
 11
36.250000207177443
 21
136.99999999999039
 31
0.0
  0
LINE
  5
1102
  8
SAPA_GLAS
 10
36.250000207177443
 20
136.99999999999039
 30
0.0
 11
30.25000020717744
 21
136.99999999999039
 31
0.0
  0
LINE
  5
1103
  8
SAPA_GLAS
 10
30.25000020717744
 20
136.99999999999039
 30
0.0
 11
30.25000020717744
 21
168.99999999999039
 31
0.0
  0
LINE
  5
1104
  8
SAPA_GLAS
 10
6.832322464756003
 20
136.99999999998991
 30
0.0
 11
6.500000206821908
 21
137.33232225792401
 31
0.0
1001
ACAD
1010
0.0
1020
0.0
1030
0.0
  0
LINE
  5
1105
  8
SAPA_GLAS
 10
7.2500002071610652
 20
137.70485427271851
 30
0.0
 11
6.5000002068206717
 21
138.45485427305891
 31
0.0
1001
ACAD
1010
0.0
1020
0.0
1030
0.0
  0
LINE
  5
1106
  8
SAPA_GLAS
 10
7.2500002071610652
 20
138.82738628785211
 30
0.0
 11
6.5000002068194362
 21
139.57738628819379
 31
0.0
1001
ACAD
1010
0.0
1020
0.0
1030
0.0
  0
LINE
  5
1107
  8
SAPA_GLAS
 10
7.2500002071610652
 20
139.94991830298579
 30
0.0
 11
6.5000002068181919
 21
140.6999183033287
 31
0.0
1001
ACAD
1010
0.0
1020
0.0
1030
0.0
  0
LINE
  5
1108
  8
SAPA_GLAS
 10
7.2500002071610652
 20
141.07245031811939
 30
0.0
 11
6.5000002068169698
 21
141.8224503184635
 31
0.0
1001
ACAD
1010
0.0
1020
0.0
1030
0.0
  0
LINE
  5
1109
  8
SAPA_GLAS
 10
7.2500002071610581
 20
142.19498233325311
 30
0.0
 11
6.5000002068157343
 21
142.9449823335984
 31
0.0
1001
ACAD
1010
0.0
1020
0.0
1030
0.0
  0
LINE
  5
110A
  8
SAPA_GLAS
 10
7.2500002071610652
 20
143.31751434838671
 30
0.0
 11
6.5000002068144971
 21
144.06751434873331
 31
0.0
1001
ACAD
1010
0.0
1020
0.0
1030
0.0
  0
LINE
  5
110B
  8
SAPA_GLAS
 10
7.2500002071610581
 20
144.44004636352039
 30
0.0
 11
6.5000002068132536
 21
145.19004636386819
 31
0.0
1001
ACAD
1010
0.0
1020
0.0
1030
0.0
  0
LINE
  5
110C
  8
SAPA_GLAS
 10
7.2500002071610501
 20
145.562578378654
 30
0.0
 11
6.5000002068120253
 21
146.31257837900301
 31
0.0
1001
ACAD
1010
0.0
1020
0.0
1030
0.0
  0
LINE
  5
110D
  8
SAPA_GLAS
 10
7.2500002071610581
 20
146.68511039378771
 30
0.0
 11
6.5000002068107881
 21
147.43511039413789
 31
0.0
1001
ACAD
1010
0.0
1020
0.0
1030
0.0
  0
LINE
  5
110E
  8
SAPA_GLAS
 10
7.2500002071610501
 20
147.80764240892131
 30
0.0
 11
6.5000002068095446
 21
148.5576424092728
 31
0.0
1001
ACAD
1010
0.0
1020
0.0
1030
0.0
  0
LINE
  5
110F
  8
SAPA_GLAS
 10
7.2500002071610581
 20
148.93017442405491
 30
0.0
 11
6.500000206808302
 21
149.68017442440771
 31
0.0
1001
ACAD
1010
0.0
1020
0.0
1030
0.0
  0
LINE
  5
1110
  8
SAPA_GLAS
 10
7.2500002071610608
 20
137.47154231020289
 30
0.0
 11
6.778457896948022
 21
136.99999999998991
 31
0.0
1001
ACAD
1010
0.0
1020
0.0
1030
0.0
  0
LINE
  5
1111
  8
SAPA_GLAS
 10
7.2500002071610536
 20
138.59407432533649
 30
0.0
 11
6.5000002068213467
 21
137.8440743249968
 31
0.0
1001
ACAD
1010
0.0
1020
0.0
1030
0.0
  0
LINE
  5
1112
  8
SAPA_GLAS
 10
7.2500002071610608
 20
139.71660634047021
 30
0.0
 11
6.5000002068201113
 21
138.9666063401292
 31
0.0
1001
ACAD
1010
0.0
1020
0.0
1030
0.0
  0
LINE
  5
1113
  8
SAPA_GLAS
 10
7.2500002071610536
 20
140.83913835560381
 30
0.0
 11
6.500000206818874
 21
140.08913835526161
 31
0.0
1001
ACAD
1010
0.0
1020
0.0
1030
0.0
  0
LINE
  5
1114
  8
SAPA_GLAS
 10
7.2500002071610608
 20
141.96167037073749
 30
0.0
 11
6.5000002068176377
 21
141.2116703703941
 31
0.0
1001
ACAD
1010
0.0
1020
0.0
1030
0.0
  0
LINE
  5
1115
  8
SAPA_GLAS
 10
7.2500002071610536
 20
143.08420238587109
 30
0.0
 11
6.5000002068164022
 21
142.33420238552651
 31
0.0
1001
ACAD
1010
0.0
1020
0.0
1030
0.0
  0
LINE
  5
1116
  8
SAPA_GLAS
 10
7.2500002071610608
 20
144.2067344010047
 30
0.0
 11
6.5000002068151694
 21
143.45673440065889
 31
0.0
1001
ACAD
1010
0.0
1020
0.0
1030
0.0
  0
LINE
  5
1117
  8
SAPA_GLAS
 10
7.2500002071610536
 20
145.32926641613841
 30
0.0
 11
6.5000002068139286
 21
144.5792664157913
 31
0.0
1001
ACAD
1010
0.0
1020
0.0
1030
0.0
  0
LINE
  5
1118
  8
SAPA_GLAS
 10
7.2500002071610608
 20
146.45179843127201
 30
0.0
 11
6.5000002068126959
 21
145.7017984309237
 31
0.0
1001
ACAD
1010
0.0
1020
0.0
1030
0.0
  0
LINE
  5
1119
  8
SAPA_GLAS
 10
7.2500002071610679
 20
147.5743304464057
 30
0.0
 11
6.500000206811456
 21
146.82433044605611
 31
0.0
1001
ACAD
1010
0.0
1020
0.0
1030
0.0
  0
LINE
  5
111A
  8
SAPA_GLAS
 10
7.2500002071610608
 20
148.6968624615393
 30
0.0
 11
6.5000002068102196
 21
147.94686246118849
 31
0.0
1001
ACAD
1010
0.0
1020
0.0
1030
0.0
  0
LINE
  5
111B
  8
SAPA_GLAS
 10
7.2306057304896081
 20
149.80000000000149
 30
0.0
 11
6.5000002068089797
 21
149.06939447632089
 31
0.0
1001
ACAD
1010
0.0
1020
0.0
1030
0.0
  0
LINE
  5
111C
  8
SAPA_GLAS
 10
59.591327176037183
 20
136.99999999999
 30
0.0
 11
59.250000207499411
 21
137.3413269685278
 31
0.0
1001
ACAD
1010
0.0
1020
0.0
1030
0.0
  0
LINE
  5
111D
  8
SAPA_GLAS
 10
60.000000207838958
 20
137.7138589833219
 30
0.0
 11
59.250000207499411
 21
138.4638589836614
 31
0.0
1001
ACAD
1010
0.0
1020
0.0
1030
0.0
  0
LINE
  5
111E
  8
SAPA_GLAS
 10
60.000000207840202
 20
138.83639099845431
 30
0.0
 11
59.250000207499411
 21
139.58639099879511
 31
0.0
1001
ACAD
1010
0.0
1020
0.0
1030
0.0
  0
LINE
  5
111F
  8
SAPA_GLAS
 10
60.000000207841438
 20
139.95892301358671
 30
0.0
 11
59.250000207499397
 21
140.70892301392871
 31
0.0
1001
ACAD
1010
0.0
1020
0.0
1030
0.0
  0
LINE
  5
1120
  8
SAPA_GLAS
 10
60.000000207842668
 20
141.08145502871909
 30
0.0
 11
59.250000207499411
 21
141.8314550290624
 31
0.0
1001
ACAD
1010
0.0
1020
0.0
1030
0.0
  0
LINE
  5
1121
  8
SAPA_GLAS
 10
60.000000207843911
 20
142.2039870438515
 30
0.0
 11
59.250000207499397
 21
142.953987044196
 31
0.0
1001
ACAD
1010
0.0
1020
0.0
1030
0.0
  0
LINE
  5
1122
  8
SAPA_GLAS
 10
60.000000207845147
 20
143.32651905898391
 30
0.0
 11
59.250000207499397
 21
144.0765190593296
 31
0.0
1001
ACAD
1010
0.0
1020
0.0
1030
0.0
  0
LINE
  5
1123
  8
SAPA_GLAS
 10
60.000000207846377
 20
144.44905107411631
 30
0.0
 11
59.250000207499397
 21
145.19905107446331
 31
0.0
1001
ACAD
1010
0.0
1020
0.0
1030
0.0
  0
LINE
  5
1124
  8
SAPA_GLAS
 10
60.00000020784762
 20
145.57158308924869
 30
0.0
 11
59.250000207499397
 21
146.32158308959691
 31
0.0
1001
ACAD
1010
0.0
1020
0.0
1030
0.0
  0
LINE
  5
1125
  8
SAPA_GLAS
 10
60.000000207848849
 20
146.6941151043811
 30
0.0
 11
59.250000207499383
 21
147.4441151047306
 31
0.0
1001
ACAD
1010
0.0
1020
0.0
1030
0.0
  0
LINE
  5
1126
  8
SAPA_GLAS
 10
60.000000207850093
 20
147.8166471195135
 30
0.0
 11
59.250000207499397
 21
148.5666471198642
 31
0.0
1001
ACAD
1010
0.0
1020
0.0
1030
0.0
  0
LINE
  5
1127
  8
SAPA_GLAS
 10
60.000000207851343
 20
148.93917913464591
 30
0.0
 11
59.250000207499397
 21
149.68917913499789
 31
0.0
1001
ACAD
1010
0.0
1020
0.0
1030
0.0
  0
LINE
  5
1128
  8
SAPA_GLAS
 10
60.000000207838681
 20
137.46253759959919
 30
0.0
 11
59.537462608229532
 21
136.99999999999011
 31
0.0
1001
ACAD
1010
0.0
1020
0.0
1030
0.0
  0
LINE
  5
1129
  8
SAPA_GLAS
 10
60.000000207839939
 20
138.5850696147341
 30
0.0
 11
59.250000207499397
 21
137.8350696143936
 31
0.0
1001
ACAD
1010
0.0
1020
0.0
1030
0.0
  0
LINE
  5
112A
  8
SAPA_GLAS
 10
60.000000207841168
 20
139.707601629869
 30
0.0
 11
59.250000207499397
 21
138.9576016295272
 31
0.0
1001
ACAD
1010
0.0
1020
0.0
1030
0.0
  0
LINE
  5
112B
  8
SAPA_GLAS
 10
60.000000207842398
 20
140.83013364500391
 30
0.0
 11
59.25000020749939
 21
140.08013364466089
 31
0.0
1001
ACAD
1010
0.0
1020
0.0
1030
0.0
  0
LINE
  5
112C
  8
SAPA_GLAS
 10
60.000000207843641
 20
141.95266566013879
 30
0.0
 11
59.250000207499397
 21
141.20266565979449
 31
0.0
1001
ACAD
1010
0.0
1020
0.0
1030
0.0
  0
LINE
  5
112D
  8
SAPA_GLAS
 10
60.00000020784487
 20
143.0751976752737
 30
0.0
 11
59.250000207499411
 21
142.32519767492809
 31
0.0
1001
ACAD
1010
0.0
1020
0.0
1030
0.0
  0
LINE
  5
112E
  8
SAPA_GLAS
 10
60.000000207846107
 20
144.19772969040849
 30
0.0
 11
59.250000207499397
 21
143.44772969006181
 31
0.0
1001
ACAD
1010
0.0
1020
0.0
1030
0.0
  0
LINE
  5
112F
  8
SAPA_GLAS
 10
60.00000020784735
 20
145.3202617055434
 30
0.0
 11
59.250000207499411
 21
144.57026170519549
 31
0.0
1001
ACAD
1010
0.0
1020
0.0
1030
0.0
  0
LINE
  5
1130
  8
SAPA_GLAS
 10
60.000000207848593
 20
146.44279372067831
 30
0.0
 11
59.250000207499397
 21
145.69279372032909
 31
0.0
1001
ACAD
1010
0.0
1020
0.0
1030
0.0
  0
LINE
  5
1131
  8
SAPA_GLAS
 10
60.000000207849823
 20
147.56532573581319
 30
0.0
 11
59.250000207499411
 21
146.81532573546269
 31
0.0
1001
ACAD
1010
0.0
1020
0.0
1030
0.0
  0
LINE
  5
1132
  8
SAPA_GLAS
 10
60.000000207851059
 20
148.6878577509481
 30
0.0
 11
59.250000207499397
 21
147.93785775059641
 31
0.0
1001
ACAD
1010
0.0
1020
0.0
1030
0.0
  0
LINE
  5
1133
  8
SAPA_GLAS
 10
59.989610441770893
 20
149.80000000000149
 30
0.0
 11
59.250000207499411
 21
149.06038976573001
 31
0.0
1001
ACAD
1010
0.0
1020
0.0
1030
0.0
  0
LINE
  5
1134
  8
SAPA_GLAS
 10
36.250000207338417
 20
146.99999999999039
 30
0.0
 11
51.250000207338417
 21
146.99999999999039
 31
0.0
  0
LINE
  5
1135
  8
SAPA_GLAS
 10
51.250000207338417
 20
146.99999999999039
 30
0.0
 11
51.250000207338417
 21
136.99999999999039
 31
0.0
  0
LINE
  5
1136
  8
SAPA_GLAS
 10
51.250000207338417
 20
136.99999999999039
 30
0.0
 11
36.250000207338417
 21
136.99999999999039
 31
0.0
  0
LINE
  5
1137
  8
SAPA_GLAS
 10
36.250000207338417
 20
136.99999999999039
 30
0.0
 11
36.250000207338417
 21
146.99999999999039
 31
0.0
  0
LINE
  5
1138
  8
SAPA_GLAS
 10
59.250000207338417
 20
168.99999999999039
 30
0.0
 11
59.250000207338417
 21
136.99999999999039
 31
0.0
  0
LINE
  5
1139
  8
SAPA_GLAS
 10
59.250000207338417
 20
136.99999999999039
 30
0.0
 11
51.250000207338417
 21
136.99999999999039
 31
0.0
  0
LINE
  5
113A
  8
SAPA_GLAS
 10
51.250000207338417
 20
136.99999999999039
 30
0.0
 11
51.250000207338417
 21
168.99999999999039
 31
0.0
  0
LINE
  5
113B
  8
SAPA_PROFIL
 10
51.56226206112251
 20
127.0000000010218
 30
0.0
 11
49.464189705402532
 21
127.0000000010218
 31
0.0
  0
ARC
  5
113C
  8
SAPA_PROFIL
 10
49.46418970540244
 20
128.0000000010217
 30
0.0
 40
0.9999999999998863
 50
135.00000000001
 51
270.00000000000529
  0
LINE
  5
113D
  8
SAPA_PROFIL
 10
48.757082924215858
 20
128.707106782208
 30
0.0
 11
50.062132177384683
 21
130.0121560353773
 31
0.0
  0
ARC
  5
113E
  8
SAPA_PROFIL
 10
50.274264211741162
 20
129.8000240010212
 30
0.0
 40
0.3000000000004365
 50
90.000000000037986
 51
135.00000000005369
  0
LINE
  5
113F
  8
SAPA_PROFIL
 10
50.274264211740949
 20
130.10002400102161
 30
0.0
 11
50.860769658487698
 21
130.10002400102161
 31
0.0
  0
ARC
  5
1140
  8
SAPA_PROFIL
 10
50.860769658487193
 20
129.80002400102131
 30
0.0
 40
0.300000000000324
 50
59.999999999904773
 51
89.99999999990365
  0
LINE
  5
1141
  8
SAPA_PROFIL
 10
51.010769658487789
 20
130.05983162215671
 30
0.0
 11
52.500000143028949
 21
129.20002400102149
 31
0.0
  0
LINE
  5
1142
  8
SAPA_PROFIL
 10
52.500000143028949
 20
129.20002400102149
 30
0.0
 11
52.950000143028767
 21
129.20001200102161
 31
0.0
  0
ARC
  5
1143
  8
SAPA_PROFIL
 10
52.950000143028547
 20
129.5000120010215
 30
0.0
 40
0.2999999999999545
 50
270.00000000004201
 51
0.0000000000434252
  0
LINE
  5
1144
  8
SAPA_PROFIL
 10
53.250000143028501
 20
129.50001200102179
 30
0.0
 11
53.250000143028501
 21
133.10002400102161
 31
0.0
  0
ARC
  5
1145
  8
SAPA_PROFIL
 10
52.950000143028539
 20
133.10002400102189
 30
0.0
 40
0.2999999999999545
 50
359.99999999995657
 51
89.999999999956557
  0
LINE
  5
1146
  8
SAPA_PROFIL
 10
52.950000143028767
 20
133.40002400102179
 30
0.0
 11
52.500000143028501
 21
133.40002400102179
 31
0.0
  0
LINE
  5
1147
  8
SAPA_PROFIL
 10
52.500000143028501
 20
133.40002400102179
 30
0.0
 11
51.010740011954113
 21
132.54019926345291
 31
0.0
  0
ARC
  5
1148
  8
SAPA_PROFIL
 10
50.860740011954249
 20
132.80000688458779
 30
0.0
 40
0.2999999999995393
 50
270.00364686745928
 51
300.00000000001921
  0
LINE
  5
1149
  8
SAPA_PROFIL
 10
50.860759106907608
 20
132.50000688519589
 30
0.0
 11
50.750000143028501
 21
132.49999983540511
 31
0.0
  0
LINE
  5
114A
  8
SAPA_PROFIL
 10
50.750000143028501
 20
132.49999983540511
 30
0.0
 11
50.750000143028501
 21
134.5000000010109
 31
0.0
  0
ARC
  5
114B
  8
SAPA_PROFIL
 10
51.250000143028501
 20
134.5000000010109
 30
0.0
 40
0.5
 50
90.0
 51
180.0
  0
LINE
  5
114C
  8
SAPA_PROFIL
 10
51.250000143028501
 20
135.0000000010109
 30
0.0
 11
56.500000141654247
 21
135.0000000010109
 31
0.0
  0
ARC
  5
114D
  8
SAPA_PROFIL
 10
56.500000141654247
 20
134.5000000010109
 30
0.0
 40
0.5
 50
0.0
 51
90.0
  0
LINE
  5
114E
  8
SAPA_PROFIL
 10
57.000000141654247
 20
134.5000000010109
 30
0.0
 11
57.000000141654247
 21
134.00000000099499
 31
0.0
  0
ARC
  5
114F
  8
SAPA_PROFIL
 10
56.50000014165424
 20
134.00000000099499
 30
0.0
 40
0.5000000000000142
 50
270.00000000000171
 51
359.99999999999682
  0
LINE
  5
1150
  8
SAPA_PROFIL
 10
56.500000141654247
 20
133.50000000099499
 30
0.0
 11
55.700000141659068
 21
133.50000000099499
 31
0.0
  0
ARC
  5
1151
  8
SAPA_PROFIL
 10
55.700000141659068
 20
133.30000000099469
 30
0.0
 40
0.2000000000002728
 50
90.0
 51
180.0
  0
LINE
  5
1152
  8
SAPA_PROFIL
 10
55.500000141658802
 20
133.30000000099469
 30
0.0
 11
55.500000141658802
 21
130.50000000099999
 31
0.0
  0
ARC
  5
1153
  8
SAPA_PROFIL
 10
55.700000141659068
 20
130.50000000099999
 30
0.0
 40
0.2000000000002728
 50
180.0
 51
270.0
  0
LINE
  5
1154
  8
SAPA_PROFIL
 10
55.700000141659068
 20
130.30000000099969
 30
0.0
 11
59.800000143188299
 21
130.30000000099969
 31
0.0
  0
ARC
  5
1155
  8
SAPA_PROFIL
 10
59.800000143188377
 20
130.5000000009999
 30
0.0
 40
0.2000000000001876
 50
269.9999999999776
 51
359.99999999989421
  0
LINE
  5
1156
  8
SAPA_PROFIL
 10
60.000000143188572
 20
130.50000000099951
 30
0.0
 11
60.000000143217669
 21
149.80000000101609
 31
0.0
  0
ARC
  5
1157
  8
SAPA_PROFIL
 10
60.200000143217622
 20
149.8000000010158
 30
0.0
 40
0.1999999999999389
 50
74.398083255366544
 51
179.99999999991039
  0
ARC
  5
1158
  8
SAPA_PROFIL
 10
59.984838509913232
 20
149.029477145057
 30
0.0
 40
1.0000000000005591
 50
6.2435884584807457
 51
74.398083255273434
  0
ARC
  5
1159
  8
SAPA_PROFIL
 10
-68.249999861422793
 20
135.00000000083659
 30
0.0
 40
130.00000000412021
 50
0.0000000000870466
 51
6.2435884585852781
  0
LINE
  5
115A
  8
SAPA_PROFIL
 10
61.750000142697452
 20
135.0000000010341
 30
0.0
 11
61.750000143050329
 21
122.19999999977109
 31
0.0
  0
ARC
  5
115B
  8
SAPA_PROFIL
 10
61.550000143049601
 20
122.1999999997601
 30
0.0
 40
0.2000000000007276
 50
270.0
 51
0.0000000031266125
  0
LINE
  5
115C
  8
SAPA_PROFIL
 10
61.550000143049601
 20
121.9999999997594
 30
0.0
 11
61.215470196789738
 21
121.9999999997612
 31
0.0
  0
ARC
  5
115D
  8
SAPA_PROFIL
 10
61.215470196789703
 20
122.1999999997601
 30
0.0
 40
0.1999999999988517
 50
209.9999999981853
 51
270.00000000000807
  0
LINE
  5
115E
  8
SAPA_PROFIL
 10
61.042265116030649
 20
122.0999999997661
 30
0.0
 11
60.026795062437941
 21
123.85884572616079
 31
0.0
  0
ARC
  5
115F
  8
SAPA_PROFIL
 10
60.200000143200221
 20
123.9588457261611
 30
0.0
 40
0.2000000000048241
 50
179.99999999998781
 51
209.9999999993083
  0
LINE
  5
1160
  8
SAPA_PROFIL
 10
60.000000143195393
 20
123.9588457261611
 30
0.0
 11
60.000000143199479
 21
126.8000000010211
 31
0.0
  0
ARC
  5
1161
  8
SAPA_PROFIL
 10
59.800000143198758
 20
126.8000000010211
 30
0.0
 40
0.2000000000007276
 50
0.0
 51
90.0
  0
LINE
  5
1162
  8
SAPA_PROFIL
 10
59.800000143198758
 20
127.0000000010218
 30
0.0
 11
53.493869183990228
 21
127.0000000010218
 31
0.0
  0
ARC
  5
1163
  8
SAPA_PROFIL
 10
53.493869183990277
 20
127.30000000102081
 30
0.0
 40
0.299999999999045
 50
215.62006975860589
 51
269.99999999998909
  0
ARC
  5
1164
  8
SAPA_PROFIL
 10
53.006131102080509
 20
126.9505553509586
 30
0.0
 40
0.3000000000027633
 50
35.620069757262357
 51
90.000000000540084
  0
LINE
  5
1165
  8
SAPA_PROFIL
 10
53.006131102077688
 20
127.25055535096131
 30
0.0
 11
52.050000143038687
 21
127.25055535096131
 31
0.0
  0
ARC
  5
1166
  8
SAPA_PROFIL
 10
52.05000014303436
 20
126.9505553509556
 30
0.0
 40
0.3000000000056673
 50
89.999999999173554
 51
144.37993024191951
  0
ARC
  5
1167
  8
SAPA_PROFIL
 10
51.562262061122667
 20
127.3000000010217
 30
0.0
 40
0.29999999999987
 50
269.99999999996868
 51
324.3799302418476
  0
ARC
  5
1168
  8
SAPA_PROFIL
 62
     4
 10
16.336577626376489
 20
129.05851608367581
 30
0.0
 40
1.3416252492699461
 50
90.795569960695872
 51
118.0244187565166
  0
LINE
  5
1169
  8
SAPA_PROFIL
 62
     4
 10
15.7062179256809
 20
130.24283232405151
 30
0.0
 11
13.986602683407
 21
129.25001200102179
 31
0.0
  0
LINE
  5
116A
  8
SAPA_PROFIL
 62
     4
 10
13.986602683407
 20
129.25001200102179
 30
0.0
 11
13.550000143028679
 21
129.25001200102179
 31
0.0
  0
ARC
  5
116B
  8
SAPA_PROFIL
 62
     4
 10
13.550000143028679
 20
129.50001200102179
 30
0.0
 40
0.25
 50
180.0
 51
270.0
  0
LINE
  5
116C
  8
SAPA_PROFIL
 62
     4
 10
13.300000143028679
 20
129.50001200102179
 30
0.0
 11
13.30000014302823
 21
133.10002400102161
 31
0.0
  0
ARC
  5
116D
  8
SAPA_PROFIL
 62
     4
 10
13.550000143028219
 20
133.10002400102161
 30
0.0
 40
0.2499999999999964
 50
89.999999999999204
 51
180.0
  0
LINE
  5
116E
  8
SAPA_PROFIL
 62
     4
 10
13.55000014302823
 20
133.35002400102161
 30
0.0
 11
13.98660206460681
 21
133.35001235828659
 31
0.0
  0
LINE
  5
116F
  8
SAPA_PROFIL
 62
     4
 10
13.98660206460681
 20
133.35001235828659
 30
0.0
 11
15.70621792567453
 21
132.3571916779965
 31
0.0
  0
ARC
  5
1170
  8
SAPA_PROFIL
 62
     4
 10
16.32019067583493
 20
133.47741678248909
 30
0.0
 40
1.2774454284528469
 50
241.27374261802041
 51
269.54293099287452
  0
LINE
  5
1171
  8
SAPA_PROFIL
 62
     4
 10
16.310000143028439
 20
132.20001200102161
 30
0.0
 11
50.190000143028549
 21
132.20001200102161
 31
0.0
  0
ARC
  5
1172
  8
SAPA_PROFIL
 62
     4
 10
50.179809610222073
 20
133.47741678248909
 30
0.0
 40
1.2774454284528201
 50
270.4570690071256
 51
298.72625738198019
  0
LINE
  5
1173
  8
SAPA_PROFIL
 62
     4
 10
50.793782360382458
 20
132.3571916779965
 30
0.0
 11
52.513398221450188
 21
133.35001235828659
 31
0.0
  0
LINE
  5
1174
  8
SAPA_PROFIL
 62
     4
 10
52.513398221450188
 20
133.35001235828659
 30
0.0
 11
52.950000143028767
 21
133.35002400102161
 31
0.0
  0
ARC
  5
1175
  8
SAPA_PROFIL
 62
     4
 10
52.950000143028781
 20
133.10002400102161
 30
0.0
 40
0.25
 50
0.0
 51
90.000000000001606
  0
LINE
  5
1176
  8
SAPA_PROFIL
 62
     4
 10
53.200000143028767
 20
133.10002400102161
 30
0.0
 11
53.200000143028767
 21
129.50001200102179
 31
0.0
  0
ARC
  5
1177
  8
SAPA_PROFIL
 62
     4
 10
52.950000143028767
 20
129.50001200102179
 30
0.0
 40
0.25
 50
270.0
 51
0.0
  0
LINE
  5
1178
  8
SAPA_PROFIL
 62
     4
 10
52.950000143028767
 20
129.25001200102179
 30
0.0
 11
52.513397602650002
 21
129.25001200102179
 31
0.0
  0
LINE
  5
1179
  8
SAPA_PROFIL
 62
     4
 10
52.513397602650002
 20
129.25001200102179
 30
0.0
 11
50.793782360376099
 21
130.24283232405151
 31
0.0
  0
ARC
  5
117A
  8
SAPA_PROFIL
 62
     4
 10
50.163422659680514
 20
129.05851608367581
 30
0.0
 40
1.3416252492699461
 50
61.975581243483369
 51
89.204430039304114
  0
LINE
  5
117B
  8
SAPA_PROFIL
 62
     4
 10
50.182050950597379
 20
130.40001200102179
 30
0.0
 11
16.317949335459609
 21
130.40001200102179
 31
0.0
  0
LINE
  5
117C
  8
SAPA_PROFIL
 10
14.93773822493494
 20
127.0000000010218
 30
0.0
 11
17.035810580654921
 21
127.0000000010218
 31
0.0
  0
ARC
  5
117D
  8
SAPA_PROFIL
 10
17.03581058065501
 20
128.0000000010217
 30
0.0
 40
0.9999999999998863
 50
269.99999999999471
 51
44.999999999989917
  0
LINE
  5
117E
  8
SAPA_PROFIL
 10
17.742917361841592
 20
128.707106782208
 30
0.0
 11
16.43786810867277
 21
130.0121560353773
 31
0.0
  0
ARC
  5
117F
  8
SAPA_PROFIL
 10
16.225736074316298
 20
129.8000240010212
 30
0.0
 40
0.3000000000004365
 50
44.999999999946269
 51
89.999999999962014
  0
LINE
  5
1180
  8
SAPA_PROFIL
 10
16.225736074316501
 20
130.10002400102161
 30
0.0
 11
15.639230627569299
 21
130.10002400102161
 31
0.0
  0
ARC
  5
1181
  8
SAPA_PROFIL
 10
15.639230627570029
 20
129.80002400102211
 30
0.0
 40
0.2999999999994998
 50
90.000000000139096
 51
120.0000000001357
  0
LINE
  5
1182
  8
SAPA_PROFIL
 10
15.48923062756967
 20
130.05983162215671
 30
0.0
 11
14.000000143028499
 21
129.20002400102149
 31
0.0
  0
LINE
  5
1183
  8
SAPA_PROFIL
 10
14.000000143028499
 20
129.20002400102149
 30
0.0
 11
13.550000143028679
 21
129.20001200102161
 31
0.0
  0
ARC
  5
1184
  8
SAPA_PROFIL
 10
13.550000143028671
 20
129.50001200102179
 30
0.0
 40
0.3000000000001819
 50
180.0
 51
270.00000000000102
  0
LINE
  5
1185
  8
SAPA_PROFIL
 10
13.250000143028499
 20
129.50001200102179
 30
0.0
 11
13.250000143028499
 21
133.10002400102161
 31
0.0
  0
ARC
  5
1186
  8
SAPA_PROFIL
 10
13.550000143028679
 20
133.10002400102161
 30
0.0
 40
0.3000000000001819
 50
90.0
 51
180.0
  0
LINE
  5
1187
  8
SAPA_PROFIL
 10
13.550000143028679
 20
133.40002400102179
 30
0.0
 11
14.000000143028499
 21
133.40002400102179
 31
0.0
  0
LINE
  5
1188
  8
SAPA_PROFIL
 10
14.000000143028499
 20
133.40002400102179
 30
0.0
 11
15.48926027410289
 21
132.54019926345291
 31
0.0
  0
ARC
  5
1189
  8
SAPA_PROFIL
 10
15.63926027410275
 20
132.80000688458779
 30
0.0
 40
0.2999999999995402
 50
239.99999999998059
 51
269.99635313254032
  0
LINE
  5
118A
  8
SAPA_PROFIL
 10
15.639241179149391
 20
132.50000688519589
 30
0.0
 11
15.750000143028499
 21
132.49999983540511
 31
0.0
  0
LINE
  5
118B
  8
SAPA_PROFIL
 10
15.750000143028499
 20
132.49999983540511
 30
0.0
 11
15.750000143028499
 21
134.5000000010109
 31
0.0
  0
ARC
  5
118C
  8
SAPA_PROFIL
 10
15.250000143028499
 20
134.5000000010109
 30
0.0
 40
0.5
 50
0.0
 51
90.0
  0
LINE
  5
118D
  8
SAPA_PROFIL
 10
15.250000143028499
 20
135.0000000010109
 30
0.0
 11
10.000000144403201
 21
135.0000000010109
 31
0.0
  0
ARC
  5
118E
  8
SAPA_PROFIL
 10
10.000000144403201
 20
134.5000000010109
 30
0.0
 40
0.5
 50
90.0
 51
180.0
  0
LINE
  5
118F
  8
SAPA_PROFIL
 10
9.5000001444032023
 20
134.5000000010109
 30
0.0
 11
9.5000001444032023
 21
134.00000000099499
 31
0.0
  0
ARC
  5
1190
  8
SAPA_PROFIL
 10
10.000000144403209
 20
134.00000000099499
 30
0.0
 40
0.5000000000000142
 50
180.00000000000321
 51
269.99999999999841
  0
LINE
  5
1191
  8
SAPA_PROFIL
 10
10.000000144403201
 20
133.50000000099499
 30
0.0
 11
10.80000014439838
 21
133.50000000099499
 31
0.0
  0
ARC
  5
1192
  8
SAPA_PROFIL
 10
10.80000014439838
 20
133.30000000099469
 30
0.0
 40
0.2000000000002728
 50
0.0
 51
90.0
  0
LINE
  5
1193
  8
SAPA_PROFIL
 10
11.000000144398649
 20
133.30000000099469
 30
0.0
 11
11.000000144398649
 21
130.50000000099999
 31
0.0
  0
ARC
  5
1194
  8
SAPA_PROFIL
 10
10.80000014439838
 20
130.50000000099999
 30
0.0
 40
0.2000000000002728
 50
270.0
 51
0.0
  0
LINE
  5
1195
  8
SAPA_PROFIL
 10
10.80000014439838
 20
130.30000000099969
 30
0.0
 11
6.7000001428687019
 21
130.30000000099969
 31
0.0
  0
ARC
  5
1196
  8
SAPA_PROFIL
 10
6.7000001428688494
 20
130.50000000099971
 30
0.0
 40
0.1999999999999602
 50
180.0000000000407
 51
269.99999999995799
  0
LINE
  5
1197
  8
SAPA_PROFIL
 10
6.5000001428688838
 20
130.50000000099951
 30
0.0
 11
6.50000014283978
 21
149.80000000101609
 31
0.0
  0
ARC
  5
1198
  8
SAPA_PROFIL
 10
6.3000001428398393
 20
149.8000000010158
 30
0.0
 40
0.1999999999999415
 50
0.0000000000895644
 51
105.6019167446327
  0
ARC
  5
1199
  8
SAPA_PROFIL
 10
6.5151617761439899
 20
149.02947714505669
 30
0.0
 40
1.0000000000007989
 50
105.6019167447092
 51
173.75641154150281
  0
ARC
  5
119A
  8
SAPA_PROFIL
 10
134.7500001474798
 20
135.00000000083659
 30
0.0
 40
130.00000000412021
 50
173.75641154141471
 51
179.99999999991289
  0
LINE
  5
119B
  8
SAPA_PROFIL
 10
4.7500001433595571
 20
135.0000000010341
 30
0.0
 11
4.7500001430066732
 21
122.19999999977109
 31
0.0
  0
ARC
  5
119C
  8
SAPA_PROFIL
 10
4.9500001430073999
 20
122.1999999997601
 30
0.0
 40
0.2000000000007276
 50
179.99999999687341
 51
270.0
  0
LINE
  5
119D
  8
SAPA_PROFIL
 10
4.9500001430073999
 20
121.9999999997594
 30
0.0
 11
5.2845300892672631
 21
121.9999999997612
 31
0.0
  0
ARC
  5
119E
  8
SAPA_PROFIL
 10
5.2845300892672933
 20
122.1999999997601
 30
0.0
 40
0.1999999999988517
 50
269.99999999999159
 51
330.0000000018145
  0
LINE
  5
119F
  8
SAPA_PROFIL
 10
5.4577351700263534
 20
122.0999999997661
 30
0.0
 11
6.4732052236190611
 21
123.85884572616079
 31
0.0
  0
ARC
  5
11A0
  8
SAPA_PROFIL
 10
6.300000142856784
 20
123.9588457261611
 30
0.0
 40
0.2000000000048272
 50
330.00000000069218
 51
0.0000000000122133
  0
LINE
  5
11A1
  8
SAPA_PROFIL
 10
6.5000001428616079
 20
123.9588457261611
 30
0.0
 11
6.500000142857516
 21
126.8000000010211
 31
0.0
  0
ARC
  5
11A2
  8
SAPA_PROFIL
 10
6.7000001428582419
 20
126.8000000010211
 30
0.0
 40
0.2000000000007267
 50
89.999999999999744
 51
180.0
  0
LINE
  5
11A3
  8
SAPA_PROFIL
 10
6.7000001428582427
 20
127.0000000010218
 30
0.0
 11
13.006131102066769
 21
127.0000000010218
 31
0.0
  0
ARC
  5
11A4
  8
SAPA_PROFIL
 10
13.006131102066719
 20
127.30000000102081
 30
0.0
 40
0.299999999999045
 50
270.0000000000108
 51
324.37993024139411
  0
ARC
  5
11A5
  8
SAPA_PROFIL
 10
13.493869183976489
 20
126.9505553509586
 30
0.0
 40
0.3000000000027662
 50
89.999999999460584
 51
144.379930242738
  0
LINE
  5
11A6
  8
SAPA_PROFIL
 10
13.49386918397931
 20
127.25055535096131
 30
0.0
 11
14.450000143018309
 21
127.25055535096131
 31
0.0
  0
ARC
  5
11A7
  8
SAPA_PROFIL
 10
14.450000143022869
 20
126.9505553509552
 30
0.0
 40
0.3000000000061078
 50
35.620069758123762
 51
90.000000000870202
  0
ARC
  5
11A8
  8
SAPA_PROFIL
 10
14.93773822493478
 20
127.3000000010217
 30
0.0
 40
0.29999999999987
 50
215.6200697581524
 51
270.00000000003121
  0
LINE
  5
11A9
  8
SAPA_FOGBAND
 10
143.9495676114766
 20
138.13639949122259
 30
0.0
 11
143.14956761147641
 21
138.13639949122259
 31
0.0
  0
LINE
  5
11AA
  8
SAPA_FOGBAND
 10
143.14956761147641
 20
138.13639949122259
 30
0.0
 11
143.14956761147641
 21
131.83639949122701
 31
0.0
  0
LINE
  5
11AB
  8
SAPA_FOGBAND
 10
143.14956761147641
 20
131.83639949122701
 30
0.0
 11
143.9495676114766
 21
131.83639949122701
 31
0.0
  0
LINE
  5
11AC
  8
SAPA_FOGBAND
 10
143.9495676114766
 20
131.83639949122701
 30
0.0
 11
143.9495676114766
 21
138.13639949122259
 31
0.0
  0
LINE
  5
11AD
  8
SAPA_PROFIL
 10
49.5
 20
4.5
 30
0.0
 11
49.5
 21
0.5
 31
0.0
  0
ARC
  5
11AE
  8
SAPA_PROFIL
 10
49.0
 20
0.5
 30
0.0
 40
0.5
 50
270.0
 51
0.0
  0
LINE
  5
11AF
  8
SAPA_PROFIL
 10
49.0
 20
0.0
 30
0.0
 11
0.0
 21
0.0
 31
0.0
  0
ARC
  5
11B0
  8
SAPA_PROFIL
 10
0.0
 20
0.5
 30
0.0
 40
0.5
 50
180.0
 51
270.0
  0
LINE
  5
11B1
  8
SAPA_PROFIL
 10
-0.5
 20
0.5
 30
0.0
 11
-0.5
 21
49.5
 31
0.0
  0
ARC
  5
11B2
  8
SAPA_PROFIL
 10
0.0
 20
49.5
 30
0.0
 40
0.5
 50
90.0
 51
180.0
  0
LINE
  5
11B3
  8
SAPA_PROFIL
 10
0.0
 20
50.0
 30
0.0
 11
4.0
 21
50.0
 31
0.0
  0
ARC
  5
11B4
  8
SAPA_PROFIL
 10
4.0
 20
49.5
 30
0.0
 40
0.5
 50
0.0
 51
90.0
  0
LINE
  5
11B5
  8
SAPA_PROFIL
 10
4.5
 20
49.5
 30
0.0
 11
4.5
 21
10.0
 31
0.0
  0
ARC
  5
11B6
  8
SAPA_PROFIL
 10
9.5
 20
10.0
 30
0.0
 40
5.0
 50
180.0
 51
270.0
  0
LINE
  5
11B7
  8
SAPA_PROFIL
 10
9.5
 20
5.0
 30
0.0
 11
49.0
 21
5.0
 31
0.0
  0
ARC
  5
11B8
  8
SAPA_PROFIL
 10
49.0
 20
4.5
 30
0.0
 40
0.5
 50
0.0
 51
90.0
  0
LINE
  5
11B9
  8
SAPA_PROFIL
 10
93.999999999997726
 20
4.5
 30
0.0
 11
93.999999999997726
 21
0.5
 31
0.0
  0
ARC
  5
11BA
  8
SAPA_PROFIL
 10
94.499999999997726
 20
0.5
 30
0.0
 40
0.5
 50
180.0
 51
270.0
  0
LINE
  5
11BB
  8
SAPA_PROFIL
 10
94.499999999997726
 20
0.0
 30
0.0
 11
143.4999999999977
 21
0.0
 31
0.0
  0
ARC
  5
11BC
  8
SAPA_PROFIL
 10
143.4999999999977
 20
0.5
 30
0.0
 40
0.5
 50
270.0
 51
0.0
  0
LINE
  5
11BD
  8
SAPA_PROFIL
 10
143.9999999999977
 20
0.5
 30
0.0
 11
143.9999999999977
 21
49.5
 31
0.0
  0
ARC
  5
11BE
  8
SAPA_PROFIL
 10
143.4999999999977
 20
49.5
 30
0.0
 40
0.5
 50
0.0
 51
90.0
  0
LINE
  5
11BF
  8
SAPA_PROFIL
 10
143.4999999999977
 20
50.0
 30
0.0
 11
139.4999999999977
 21
50.0
 31
0.0
  0
ARC
  5
11C0
  8
SAPA_PROFIL
 10
139.4999999999977
 20
49.5
 30
0.0
 40
0.5
 50
90.0
 51
180.0
  0
LINE
  5
11C1
  8
SAPA_PROFIL
 10
138.9999999999977
 20
49.5
 30
0.0
 11
138.9999999999977
 21
10.0
 31
0.0
  0
ARC
  5
11C2
  8
SAPA_PROFIL
 10
133.9999999999977
 20
10.0
 30
0.0
 40
5.0
 50
270.0
 51
0.0
  0
LINE
  5
11C3
  8
SAPA_PROFIL
 10
133.9999999999977
 20
5.0
 30
0.0
 11
94.499999999997726
 21
5.0
 31
0.0
  0
ARC
  5
11C4
  8
SAPA_PROFIL
 10
94.499999999997726
 20
4.5
 30
0.0
 40
0.5
 50
90.0
 51
180.0
  0
LINE
  5
11C5
  8
SAPA_PROFIL
 10
54.750000106901091
 20
82.300000000002015
 30
0.0
 11
54.750000106901091
 21
82.300000000002015
 31
0.0
  0
LINE
  5
11C6
  8
SAPA_PROFIL
 10
54.750000106901091
 20
82.300000000002015
 30
0.0
 11
54.750000106901091
 21
94.500000000001819
 31
0.0
  0
LINE
  5
11C7
  8
SAPA_PROFIL
 10
54.750000106901091
 20
94.500000000001819
 30
0.0
 11
37.250000106901098
 21
94.500000000001819
 31
0.0
  0
LINE
  5
11C8
  8
SAPA_PROFIL
 10
37.250000106901098
 20
94.500000000001819
 30
0.0
 11
37.250000106901098
 21
93.900000000001896
 31
0.0
  0
LINE
  5
11C9
  8
SAPA_PROFIL
 10
37.250000106901098
 20
93.900000000001896
 30
0.0
 11
34.750000071499016
 21
93.900000000001896
 31
0.0
  0
ARC
  5
11CA
  8
SAPA_PROFIL
 10
34.750000071499016
 20
92.900000000001896
 30
0.0
 40
1.0
 50
90.000000000000398
 51
180.0
  0
LINE
  5
11CB
  8
SAPA_PROFIL
 10
33.750000071499016
 20
92.900000000001896
 30
0.0
 11
33.750000071499016
 21
83.900000000001896
 31
0.0
  0
ARC
  5
11CC
  8
SAPA_PROFIL
 10
34.750000071499016
 20
83.900000000001896
 30
0.0
 40
1.0
 50
180.0
 51
270.0
  0
LINE
  5
11CD
  8
SAPA_PROFIL
 10
34.750000071499016
 20
82.900000000001896
 30
0.0
 11
37.250000106901098
 21
82.900000000001896
 31
0.0
  0
LINE
  5
11CE
  8
SAPA_PROFIL
 10
37.250000106901098
 20
82.900000000001896
 30
0.0
 11
37.250000106901098
 21
82.300000000002015
 31
0.0
  0
LINE
  5
11CF
  8
SAPA_PROFIL
 10
37.250000106901098
 20
82.300000000002015
 30
0.0
 11
54.750000106901091
 21
82.300000000002015
 31
0.0
  0
LINE
  5
11D0
  8
SAPA_PROFIL
 10
54.750000106901091
 20
82.300000000002015
 30
0.0
 11
54.750000106901091
 21
82.300000000002015
 31
0.0
  0
LINE
  5
11D1
  8
SAPA_PROFIL
 10
-0.2499999285009835
 20
82.300000000002015
 30
0.0
 11
31.75000007149902
 21
82.300000000002015
 31
0.0
  0
LINE
  5
11D2
  8
SAPA_PROFIL
 10
31.75000007149902
 20
82.300000000002015
 30
0.0
 11
31.75000007149902
 21
94.500000000001819
 31
0.0
  0
LINE
  5
11D3
  8
SAPA_PROFIL
 10
31.75000007149902
 20
94.500000000001819
 30
0.0
 11
-0.2499999285009835
 21
94.500000000001819
 31
0.0
  0
LINE
  5
11D4
  8
SAPA_PROFIL
 10
-0.2499999285009835
 20
94.500000000001819
 30
0.0
 11
-0.2499999285009835
 21
82.300000000002015
 31
0.0
  0
ARC
  5
11D5
  8
SAPA_PROFIL
 10
23.500000071513568
 20
97.500000000001819
 30
0.0
 40
0.5
 50
180.0
 51
270.0
  0
LINE
  5
11D6
  8
SAPA_PROFIL
 10
23.000000071513568
 20
97.500000000001819
 30
0.0
 11
23.000000071513568
 21
99.800000000011096
 31
0.0
  0
ARC
  5
11D7
  8
SAPA_PROFIL
 10
23.500000071513568
 20
99.800000000011096
 30
0.0
 40
0.5
 50
90.0
 51
180.0
  0
LINE
  5
11D8
  8
SAPA_PROFIL
 10
23.500000071513568
 20
100.3000000000111
 30
0.0
 11
24.762880916684029
 21
100.3000000000111
 31
0.0
  0
ARC
  5
11D9
  8
SAPA_PROFIL
 10
28.250000071514229
 20
99.999999999979764
 30
0.0
 40
3.5000000000003548
 50
150.89009105957959
 51
175.08289966395691
  0
ARC
  5
11DA
  8
SAPA_PROFIL
 10
25.01735409648154
 20
101.8000000000108
 30
0.0
 40
0.2000000000005668
 50
330.89009105957689
 51
89.999999999998977
  0
LINE
  5
11DB
  8
SAPA_PROFIL
 10
25.01735409648154
 20
102.0000000000113
 30
0.0
 11
21.968608623153159
 21
102.0000000000113
 31
0.0
  0
ARC
  5
11DC
  8
SAPA_PROFIL
 10
21.968608623153209
 20
101.0000000000114
 30
0.0
 40
0.9999999999999715
 50
90.000000000002856
 51
154.99999999973531
  0
LINE
  5
11DD
  8
SAPA_PROFIL
 10
21.062300836118538
 20
101.4226182617562
 30
0.0
 11
19.26923759777128
 21
97.577381738256932
 31
0.0
  0
ARC
  5
11DE
  8
SAPA_PROFIL
 10
18.36292981073683
 20
98.000000000001435
 30
0.0
 40
0.9999999999996196
 50
270.00000000001631
 51
334.99999999974841
  0
LINE
  5
11DF
  8
SAPA_PROFIL
 10
18.362929810737111
 20
97.000000000001819
 30
0.0
 11
2.0500000715137499
 21
97.000000000001819
 31
0.0
  0
LINE
  5
11E0
  8
SAPA_PROFIL
 10
2.0500000715137499
 20
97.000000000001819
 30
0.0
 11
2.0500000715137499
 21
98.500000000001819
 31
0.0
  0
LINE
  5
11E1
  8
SAPA_PROFIL
 10
2.0500000715137499
 20
98.500000000001819
 30
0.0
 11
1.250000071513568
 21
98.500000000001819
 31
0.0
  0
LINE
  5
11E2
  8
SAPA_PROFIL
 10
1.250000071513568
 20
98.500000000001819
 30
0.0
 11
1.250000071513568
 21
97.000000000001819
 31
0.0
  0
LINE
  5
11E3
  8
SAPA_PROFIL
 10
1.250000071513568
 20
97.000000000001819
 30
0.0
 11
-0.4499999284862497
 21
97.000000000001819
 31
0.0
  0
LINE
  5
11E4
  8
SAPA_PROFIL
 10
-0.4499999284862497
 20
97.000000000001819
 30
0.0
 11
-0.7499999284864316
 21
121.6000000000017
 31
0.0
  0
LINE
  5
11E5
  8
SAPA_PROFIL
 10
-0.7499999284864316
 20
121.6000000000017
 30
0.0
 11
0.9500000715138413
 21
121.6000000000017
 31
0.0
  0
LINE
  5
11E6
  8
SAPA_PROFIL
 10
0.9500000715138413
 20
121.6000000000017
 30
0.0
 11
0.9500000715138413
 21
119.6000000000017
 31
0.0
  0
LINE
  5
11E7
  8
SAPA_PROFIL
 10
0.9500000715138413
 20
119.6000000000017
 30
0.0
 11
1.750000071513568
 21
119.6000000000017
 31
0.0
  0
LINE
  5
11E8
  8
SAPA_PROFIL
 10
1.750000071513568
 20
119.6000000000017
 30
0.0
 11
1.7500000715140229
 21
123.7499999999927
 31
0.0
  0
ARC
  5
11E9
  8
SAPA_PROFIL
 10
1.25000007151404
 20
123.7499999999927
 30
0.0
 40
0.4999999999999823
 50
359.99999999999841
 51
90.000000000002046
  0
LINE
  5
11EA
  8
SAPA_PROFIL
 10
1.2500000715140229
 20
124.2499999999927
 30
0.0
 11
0.7500000715317583
 21
124.2500000000045
 31
0.0
  0
LINE
  5
11EB
  8
SAPA_PROFIL
 10
0.7500000715317583
 20
124.2500000000045
 30
0.0
 11
0.7500000715103852
 21
123.00000000003
 31
0.0
  0
LINE
  5
11EC
  8
SAPA_PROFIL
 10
0.7500000715103852
 20
123.00000000003
 30
0.0
 11
-0.6499999284683327
 21
122.9999999999945
 31
0.0
  0
ARC
  5
11ED
  8
SAPA_PROFIL
 10
-0.6499999284619143
 20
123.2999999999807
 30
0.0
 40
0.2999999999861416
 50
179.9999999973185
 51
269.99999999877417
  0
LINE
  5
11EE
  8
SAPA_PROFIL
 10
-0.9499999284480509
 20
123.2999999999947
 30
0.0
 11
-0.9499999284757905
 21
129.69999999999979
 31
0.0
  0
ARC
  5
11EF
  8
SAPA_PROFIL
 10
-0.6499999284861112
 20
129.69999999998211
 30
0.0
 40
0.2999999999896794
 50
89.999999998081023
 51
179.9999999966237
  0
LINE
  5
11F0
  8
SAPA_PROFIL
 10
-0.6499999284760634
 20
129.99999999997181
 30
0.0
 11
0.7500000715103852
 21
129.99999999996399
 31
0.0
  0
LINE
  5
11F1
  8
SAPA_PROFIL
 10
0.7500000715103852
 20
129.99999999996399
 30
0.0
 11
0.7500000715317583
 21
128.74999999999
 31
0.0
  0
LINE
  5
11F2
  8
SAPA_PROFIL
 10
0.7500000715317583
 20
128.74999999999
 30
0.0
 11
1.2500000715140229
 21
128.75000000000179
 31
0.0
  0
ARC
  5
11F3
  8
SAPA_PROFIL
 10
1.250000071513792
 20
129.25000000000159
 30
0.0
 40
0.4999999999997727
 50
270.00000000002649
 51
0.0000000000260551
  0
LINE
  5
11F4
  8
SAPA_PROFIL
 10
1.750000071513568
 20
129.25000000000179
 30
0.0
 11
1.7500000715140229
 21
132.25000000000179
 31
0.0
  0
ARC
  5
11F5
  8
SAPA_PROFIL
 10
1.250000071514026
 20
132.25000000000909
 30
0.0
 40
0.4999999999999965
 50
359.99999999916622
 51
90.000000000000398
  0
LINE
  5
11F6
  8
SAPA_PROFIL
 10
1.2500000715140229
 20
132.75000000000909
 30
0.0
 11
0.7500000715140232
 21
132.75000000000909
 31
0.0
  0
LINE
  5
11F7
  8
SAPA_PROFIL
 10
0.7500000715140232
 20
132.75000000000909
 30
0.0
 11
0.7500000715144779
 21
131.30000000001201
 31
0.0
  0
LINE
  5
11F8
  8
SAPA_PROFIL
 10
0.7500000715144779
 20
131.30000000001201
 30
0.0
 11
-1.099999928478155
 21
131.30000000001201
 31
0.0
  0
ARC
  5
11F9
  8
SAPA_PROFIL
 10
-1.099999928462003
 20
131.5999999999988
 30
0.0
 40
0.2999999999867668
 50
179.99999999691681
 51
269.99999999691522
  0
LINE
  5
11FA
  8
SAPA_PROFIL
 10
-1.3999999284487781
 20
131.60000000001489
 30
0.0
 11
-1.3999999284774269
 21
133.84019237887151
 31
0.0
  0
LINE
  5
11FB
  8
SAPA_PROFIL
 10
-1.3999999284774269
 20
133.84019237887151
 30
0.0
 11
-0.9499999284830664
 21
134.10000000000031
 31
0.0
  0
LINE
  5
11FC
  8
SAPA_PROFIL
 10
-0.9499999284830664
 20
134.10000000000031
 30
0.0
 11
-0.9499999284830664
 21
135.90000000001049
 31
0.0
  0
LINE
  5
11FD
  8
SAPA_PROFIL
 10
-0.9499999284830664
 20
135.90000000001049
 30
0.0
 11
-1.3999999284774269
 21
136.15980762113941
 31
0.0
  0
LINE
  5
11FE
  8
SAPA_PROFIL
 10
-1.3999999284774269
 20
136.15980762113941
 30
0.0
 11
-1.3999999284774269
 21
138.399999999996
 31
0.0
  0
ARC
  5
11FF
  8
SAPA_PROFIL
 10
-1.0999999284917901
 20
138.3999999999842
 30
0.0
 40
0.2999999999856371
 50
89.999999997048448
 51
179.9999999977419
  0
LINE
  5
1200
  8
SAPA_PROFIL
 10
-1.099999928476336
 20
138.6999999999698
 30
0.0
 11
0.7500000715144779
 21
138.69999999999891
 31
0.0
  0
LINE
  5
1201
  8
SAPA_PROFIL
 10
0.7500000715144779
 20
138.69999999999891
 30
0.0
 11
0.7500000715140232
 21
137.25000000000179
 31
0.0
  0
LINE
  5
1202
  8
SAPA_PROFIL
 10
0.7500000715140232
 20
137.25000000000179
 30
0.0
 11
1.2500000715140229
 21
137.25000000000179
 31
0.0
  0
ARC
  5
1203
  8
SAPA_PROFIL
 10
1.25000007151404
 20
137.75000000000179
 30
0.0
 40
0.4999999999999716
 50
269.99999999999801
 51
0.0000000000032569
  0
LINE
  5
1204
  8
SAPA_PROFIL
 10
1.7500000715140229
 20
137.75000000000179
 30
0.0
 11
1.7500000715140229
 21
139.50000000000179
 31
0.0
  0
ARC
  5
1205
  8
SAPA_PROFIL
 10
1.250000071514008
 20
139.50000000000179
 30
0.0
 40
0.5000000000000142
 50
0.0
 51
89.999999999998366
  0
LINE
  5
1206
  8
SAPA_PROFIL
 10
1.2500000715140229
 20
140.00000000000179
 30
0.0
 11
-1.249999928485976
 21
140.0000000000023
 31
0.0
  0
ARC
  5
1207
  8
SAPA_PROFIL
 10
-1.2499999284860619
 20
138.0000000000023
 30
0.0
 40
1.9999999999999141
 50
89.999999999997556
 51
180.00000000000239
  0
LINE
  5
1208
  8
SAPA_PROFIL
 10
-3.249999928485976
 20
138.00000000000219
 30
0.0
 11
-3.2499999284864312
 21
24.375000000000458
 31
0.0
  0
ARC
  5
1209
  8
SAPA_PROFIL
 10
-1.874999928486204
 20
24.37500000000043
 30
0.0
 40
1.3750000000002269
 50
179.99999999999909
 51
0.0000000000008882
  0
LINE
  5
120A
  8
SAPA_PROFIL
 10
-0.4999999284859769
 20
24.375000000000458
 30
0.0
 11
-0.4999999284859769
 21
76.000000000006366
 31
0.0
  0
ARC
  5
120B
  8
SAPA_PROFIL
 10
3.5000000715140791
 20
76.00000000000631
 30
0.0
 40
4.000000000000056
 50
89.999999999994287
 51
179.9999999999992
  0
LINE
  5
120C
  8
SAPA_PROFIL
 10
3.500000071514477
 20
80.000000000006366
 30
0.0
 11
57.550000071512841
 21
80.000000000001819
 31
0.0
  0
ARC
  5
120D
  8
SAPA_PROFIL
 10
57.750000071512879
 20
80.000000000003638
 30
0.0
 40
0.2000000000000455
 50
0.0000000005211021
 51
180.00000000052111
  0
LINE
  5
120E
  8
SAPA_PROFIL
 10
57.950000071512932
 20
80.000000000005457
 30
0.0
 11
61.535810509139992
 21
79.999976000005063
 31
0.0
  0
ARC
  5
120F
  8
SAPA_PROFIL
 10
61.535810509139992
 20
80.999976000005162
 30
0.0
 40
1.000000000000099
 50
270.0000000000004
 51
44.99999999999568
  0
LINE
  5
1210
  8
SAPA_PROFIL
 10
62.242917290326659
 20
81.70708278119173
 30
0.0
 11
60.937868037157841
 21
83.012132034361002
 31
0.0
  0
ARC
  5
1211
  8
SAPA_PROFIL
 10
60.725736002801909
 20
82.800000000004701
 30
0.0
 40
0.3000000000002104
 50
45.000000000050854
 51
90.000000000066478
  0
LINE
  5
1212
  8
SAPA_PROFIL
 10
60.725736002801568
 20
83.100000000004897
 30
0.0
 11
60.139230556054827
 21
83.100000000004897
 31
0.0
  0
ARC
  5
1213
  8
SAPA_PROFIL
 10
60.139230556055331
 20
82.800000000004545
 30
0.0
 40
0.3000000000003524
 50
90.000000000096335
 51
120.0000000000925
  0
LINE
  5
1214
  8
SAPA_PROFIL
 10
59.989230556054729
 20
83.059807621139939
 30
0.0
 11
58.500000071513568
 21
82.20000000000482
 31
0.0
  0
LINE
  5
1215
  8
SAPA_PROFIL
 10
58.500000071513568
 20
82.20000000000482
 30
0.0
 11
58.05000007151375
 21
82.199988000005305
 31
0.0
  0
ARC
  5
1216
  8
SAPA_PROFIL
 10
58.050000071513523
 20
82.499988000005246
 30
0.0
 40
0.2999999999999403
 50
180.0000000000407
 51
270.00000000004479
  0
LINE
  5
1217
  8
SAPA_PROFIL
 10
57.750000071513568
 20
82.499988000005018
 30
0.0
 11
57.750000071514023
 21
86.100000000005366
 31
0.0
  0
ARC
  5
1218
  8
SAPA_PROFIL
 10
58.05000007151375
 20
86.100000000005366
 30
0.0
 40
0.2999999999997271
 50
90.0
 51
180.0
  0
LINE
  5
1219
  8
SAPA_PROFIL
 10
58.05000007151375
 20
86.400000000005093
 30
0.0
 11
58.500000071514023
 21
86.400000000005093
 31
0.0
  0
LINE
  5
121A
  8
SAPA_PROFIL
 10
58.500000071514023
 20
86.400000000005093
 30
0.0
 11
59.989260202587957
 21
85.540175262436151
 31
0.0
  0
ARC
  5
121B
  8
SAPA_PROFIL
 10
60.139260202588041
 20
85.7999828835719
 30
0.0
 40
0.3000000000004038
 50
240.00000000002609
 51
269.99635313258409
  0
LINE
  5
121C
  8
SAPA_PROFIL
 10
60.139241107634909
 20
85.49998288417919
 30
0.0
 11
60.250000071513568
 21
85.499975834388366
 31
0.0
  0
LINE
  5
121D
  8
SAPA_PROFIL
 10
60.250000071513568
 20
85.499975834388366
 30
0.0
 11
60.250000071513107
 21
87.121687836493024
 31
0.0
  0
ARC
  5
121E
  8
SAPA_PROFIL
 10
59.250000071513448
 20
87.121687836492868
 30
0.0
 40
0.999999999999666
 50
0.0000000000097707
 51
60.000000000011141
  0
LINE
  5
121F
  8
SAPA_PROFIL
 10
59.750000071513121
 20
87.987713240277117
 30
0.0
 11
58.250000071513568
 21
88.853738644061195
 31
0.0
  0
ARC
  5
1220
  8
SAPA_PROFIL
 10
58.750000071513249
 20
89.719764047845445
 30
0.0
 40
0.9999999999996795
 50
180.00000000000969
 51
240.00000000001009
  0
LINE
  5
1221
  8
SAPA_PROFIL
 10
57.750000071513568
 20
89.719764047845274
 30
0.0
 11
57.750000071513568
 21
90.280235952161533
 31
0.0
  0
ARC
  5
1222
  8
SAPA_PROFIL
 10
58.750000071513632
 20
90.280235952161604
 30
0.0
 40
1.0000000000000711
 50
120.0000000000024
 51
180.00000000000321
  0
LINE
  5
1223
  8
SAPA_PROFIL
 10
58.250000071513568
 20
91.146261355946081
 30
0.0
 11
59.750000071513121
 21
92.012286759731069
 31
0.0
  0
ARC
  5
1224
  8
SAPA_PROFIL
 10
59.250000071513689
 20
92.878312163515702
 30
0.0
 40
0.9999999999998768
 50
299.9999999999655
 51
359.99999999996822
  0
LINE
  5
1225
  8
SAPA_PROFIL
 10
60.250000071513568
 20
92.878312163515147
 30
0.0
 11
60.250000071513568
 21
94.500024165618925
 31
0.0
  0
LINE
  5
1226
  8
SAPA_PROFIL
 10
60.250000071513568
 20
94.500024165618925
 30
0.0
 11
60.139241107634909
 21
94.500017115828086
 31
0.0
  0
ARC
  5
1227
  8
SAPA_PROFIL
 10
60.139260202588893
 20
94.200017116435134
 30
0.0
 40
0.3000000000006333
 50
90.003646867578723
 51
120.00000000013669
  0
LINE
  5
1228
  8
SAPA_PROFIL
 10
59.989260202587957
 20
94.459824737570685
 30
0.0
 11
58.500000071514023
 21
93.600000000002169
 31
0.0
  0
LINE
  5
1229
  8
SAPA_PROFIL
 10
58.500000071514023
 20
93.600000000002169
 30
0.0
 11
58.05000007151375
 21
93.600000000001728
 31
0.0
  0
ARC
  5
122A
  8
SAPA_PROFIL
 10
58.050000071513978
 20
93.900000000001697
 30
0.0
 40
0.2999999999999545
 50
179.99999999995649
 51
269.99999999995657
  0
LINE
  5
122B
  8
SAPA_PROFIL
 10
57.750000071514023
 20
93.900000000001896
 30
0.0
 11
57.750000071513568
 21
97.500012000001789
 31
0.0
  0
ARC
  5
122C
  8
SAPA_PROFIL
 10
58.050000071513743
 20
97.500012000001803
 30
0.0
 40
0.3000000000001748
 50
89.999999999998636
 51
180.0000000000027
  0
LINE
  5
122D
  8
SAPA_PROFIL
 10
58.05000007151375
 20
97.800012000001985
 30
0.0
 11
58.500000071513568
 21
97.800000000002001
 31
0.0
  0
LINE
  5
122E
  8
SAPA_PROFIL
 10
58.500000071513568
 20
97.800000000002001
 30
0.0
 11
59.989230556054729
 21
96.940192378866868
 31
0.0
  0
ARC
  5
122F
  8
SAPA_PROFIL
 10
60.139230556054478
 20
97.200000000002476
 30
0.0
 40
0.3000000000000979
 50
240.0000000000675
 51
270.00000000006639
  0
LINE
  5
1230
  8
SAPA_PROFIL
 10
60.139230556054827
 20
96.900000000002365
 30
0.0
 11
60.725736002801568
 21
96.900000000002365
 31
0.0
  0
ARC
  5
1231
  8
SAPA_PROFIL
 10
60.725736002801909
 20
97.200000000002561
 30
0.0
 40
0.3000000000001961
 50
269.99999999993349
 51
314.999999999951
  0
LINE
  5
1232
  8
SAPA_PROFIL
 10
60.937868037157841
 20
96.987867965646274
 30
0.0
 11
62.242917290326659
 21
98.292917218815546
 31
0.0
  0
ARC
  5
1233
  8
SAPA_PROFIL
 10
61.535810509140077
 20
99.000024000001901
 30
0.0
 40
0.9999999999998724
 50
315.00000000000949
 51
90.000000000005286
  0
LINE
  5
1234
  8
SAPA_PROFIL
 10
61.535810509139992
 20
100.0000240000017
 30
0.0
 11
57.950000071512932
 21
100.0000000000018
 31
0.0
  0
ARC
  5
1235
  8
SAPA_PROFIL
 10
57.750000071513341
 20
100.0000000000018
 30
0.0
 40
0.1999999999995907
 50
180.0
 51
0.0
  0
LINE
  5
1236
  8
SAPA_PROFIL
 10
57.55000007151375
 20
100.0000000000018
 30
0.0
 11
56.250000041964078
 21
100.0000000000018
 31
0.0
  0
ARC
  5
1237
  8
SAPA_PROFIL
 10
56.250000042108113
 20
99.000000000145661
 30
0.0
 40
0.9999999998561577
 50
90.000000008251746
 51
180.00000000845
  0
LINE
  5
1238
  8
SAPA_PROFIL
 10
55.250000042251941
 20
98.999999999998195
 30
0.0
 11
55.250000042251941
 21
98.000000000001805
 31
0.0
  0
ARC
  5
1239
  8
SAPA_PROFIL
 10
54.250000042251941
 20
98.000000000001805
 30
0.0
 40
1.0
 50
270.0
 51
0.0
  0
LINE
  5
123A
  8
SAPA_PROFIL
 10
54.250000042251941
 20
97.000000000001819
 30
0.0
 11
48.137070332290932
 21
97.000000000001819
 31
0.0
  0
ARC
  5
123B
  8
SAPA_PROFIL
 10
48.137070332291003
 20
98.000000000001805
 30
0.0
 40
0.9999999999999857
 50
205.00000000026509
 51
269.99999999999642
  0
LINE
  5
123C
  8
SAPA_PROFIL
 10
47.230762545256312
 20
97.577381738256932
 30
0.0
 11
45.437699306909053
 21
101.4226182617562
 31
0.0
  0
ARC
  5
123D
  8
SAPA_PROFIL
 10
44.531391519874369
 20
101.0000000000114
 30
0.0
 40
0.999999999999982
 50
25.000000000265221
 51
89.999999999996746
  0
LINE
  5
123E
  8
SAPA_PROFIL
 10
44.531391519874433
 20
102.0000000000113
 30
0.0
 11
41.482646046546051
 21
102.0000000000113
 31
0.0
  0
ARC
  5
123F
  8
SAPA_PROFIL
 10
41.482646046546037
 20
101.8000000000108
 30
0.0
 40
0.2000000000005571
 50
89.999999999997968
 51
209.10990894042459
  0
ARC
  5
1240
  8
SAPA_PROFIL
 10
38.250000071513362
 20
99.999999999979764
 30
0.0
 40
3.500000000000357
 50
4.9171003360431147
 51
29.109908940420279
  0
LINE
  5
1241
  8
SAPA_PROFIL
 10
41.737119226343559
 20
100.3000000000111
 30
0.0
 11
43.000000071513561
 21
100.3000000000111
 31
0.0
  0
ARC
  5
1242
  8
SAPA_PROFIL
 10
43.000000071513561
 20
99.800000000011096
 30
0.0
 40
0.5
 50
0.0
 51
90.0
  0
LINE
  5
1243
  8
SAPA_PROFIL
 10
43.500000071513568
 20
99.800000000011096
 30
0.0
 11
43.500000071513568
 21
97.500000000001819
 31
0.0
  0
ARC
  5
1244
  8
SAPA_PROFIL
 10
43.000000071513561
 20
97.500000000001819
 30
0.0
 40
0.5
 50
270.0
 51
0.0
  0
LINE
  5
1245
  8
SAPA_PROFIL
 10
43.000000071513561
 20
97.000000000001819
 30
0.0
 11
40.05277570928228
 21
97.000000000001819
 31
0.0
  0
ARC
  5
1246
  8
SAPA_PROFIL
 10
38.250000071513803
 20
99.999999999979892
 30
0.0
 40
3.5000000000000031
 50
238.99728086542899
 51
301.00271913457101
  0
LINE
  5
1247
  8
SAPA_PROFIL
 10
36.447224433745312
 20
97.000000000001819
 30
0.0
 11
30.05277570928229
 21
97.000000000001819
 31
0.0
  0
ARC
  5
1248
  8
SAPA_PROFIL
 10
28.250000071513799
 20
99.999999999979892
 30
0.0
 40
3.4999999999999911
 50
238.99728086542891
 51
301.00271913457112
  0
LINE
  5
1249
  8
SAPA_PROFIL
 10
26.447224433745308
 20
97.000000000001819
 30
0.0
 11
23.500000071513568
 21
97.000000000001819
 31
0.0
  0
LINE
  5
124A
  8
SAPA_PROFIL
 10
88.750000036125115
 20
82.300000000002015
 30
0.0
 11
88.750000036125115
 21
82.300000000002015
 31
0.0
  0
LINE
  5
124B
  8
SAPA_PROFIL
 10
88.750000036125115
 20
82.300000000002015
 30
0.0
 11
88.750000036125115
 21
94.500000000001819
 31
0.0
  0
LINE
  5
124C
  8
SAPA_PROFIL
 10
88.750000036125115
 20
94.500000000001819
 30
0.0
 11
106.2500000361251
 21
94.500000000001819
 31
0.0
  0
LINE
  5
124D
  8
SAPA_PROFIL
 10
106.2500000361251
 20
94.500000000001819
 30
0.0
 11
106.2500000361251
 21
93.900000000001896
 31
0.0
  0
LINE
  5
124E
  8
SAPA_PROFIL
 10
106.2500000361251
 20
93.900000000001896
 30
0.0
 11
108.7500000715272
 21
93.900000000001896
 31
0.0
  0
ARC
  5
124F
  8
SAPA_PROFIL
 10
108.7500000715272
 20
92.900000000001896
 30
0.0
 40
1.0
 50
0.0
 51
90.0
  0
LINE
  5
1250
  8
SAPA_PROFIL
 10
109.7500000715272
 20
92.900000000001896
 30
0.0
 11
109.7500000715272
 21
83.900000000001896
 31
0.0
  0
ARC
  5
1251
  8
SAPA_PROFIL
 10
108.7500000715272
 20
83.900000000001896
 30
0.0
 40
1.0
 50
270.0
 51
0.0
  0
LINE
  5
1252
  8
SAPA_PROFIL
 10
108.7500000715272
 20
82.900000000001896
 30
0.0
 11
106.2500000361251
 21
82.900000000001896
 31
0.0
  0
LINE
  5
1253
  8
SAPA_PROFIL
 10
106.2500000361251
 20
82.900000000001896
 30
0.0
 11
106.2500000361251
 21
82.300000000002015
 31
0.0
  0
LINE
  5
1254
  8
SAPA_PROFIL
 10
106.2500000361251
 20
82.300000000002015
 30
0.0
 11
88.750000036125115
 21
82.300000000002015
 31
0.0
  0
LINE
  5
1255
  8
SAPA_PROFIL
 10
88.750000036125115
 20
82.300000000002015
 30
0.0
 11
88.750000036125115
 21
82.300000000002015
 31
0.0
  0
LINE
  5
1256
  8
SAPA_PROFIL
 10
143.75000007152721
 20
82.300000000002015
 30
0.0
 11
111.7500000715272
 21
82.300000000002015
 31
0.0
  0
LINE
  5
1257
  8
SAPA_PROFIL
 10
111.7500000715272
 20
82.300000000002015
 30
0.0
 11
111.7500000715272
 21
94.500000000001819
 31
0.0
  0
LINE
  5
1258
  8
SAPA_PROFIL
 10
111.7500000715272
 20
94.500000000001819
 30
0.0
 11
143.75000007152721
 21
94.500000000001819
 31
0.0
  0
LINE
  5
1259
  8
SAPA_PROFIL
 10
143.75000007152721
 20
94.500000000001819
 30
0.0
 11
143.75000007152721
 21
82.300000000002015
 31
0.0
  0
ARC
  5
125A
  8
SAPA_PROFIL
 10
85.750000071512886
 20
80.000000000003638
 30
0.0
 40
0.2000000000000455
 50
359.99999999947892
 51
179.99999999947889
  0
LINE
  5
125B
  8
SAPA_PROFIL
 10
85.550000071512827
 20
80.000000000005457
 30
0.0
 11
81.964189633885795
 21
79.999976000005063
 31
0.0
  0
ARC
  5
125C
  8
SAPA_PROFIL
 10
81.964189633885795
 20
80.999976000005162
 30
0.0
 40
1.000000000000099
 50
135.00000000000401
 51
270.0
  0
LINE
  5
125D
  8
SAPA_PROFIL
 10
81.257082852699114
 20
81.70708278119173
 30
0.0
 11
82.562132105867931
 21
83.012132034361002
 31
0.0
  0
ARC
  5
125E
  8
SAPA_PROFIL
 10
82.774264140223835
 20
82.800000000004715
 30
0.0
 40
0.3000000000001953
 50
89.999999999932157
 51
134.99999999995009
  0
LINE
  5
125F
  8
SAPA_PROFIL
 10
82.774264140224204
 20
83.100000000004897
 30
0.0
 11
83.360769586971387
 21
83.100000000004897
 31
0.0
  0
ARC
  5
1260
  8
SAPA_PROFIL
 10
83.360769586970676
 20
82.800000000005426
 30
0.0
 40
0.2999999999994856
 50
59.999999999863498
 51
89.999999999861586
  0
LINE
  5
1261
  8
SAPA_PROFIL
 10
83.510769586971037
 20
83.059807621139939
 30
0.0
 11
85.000000071512204
 21
82.20000000000482
 31
0.0
  0
LINE
  5
1262
  8
SAPA_PROFIL
 10
85.000000071512204
 20
82.20000000000482
 30
0.0
 11
85.450000071512022
 21
82.199988000005305
 31
0.0
  0
ARC
  5
1263
  8
SAPA_PROFIL
 10
85.450000071512264
 20
82.499988000005246
 30
0.0
 40
0.2999999999999403
 50
269.9999999999539
 51
359.9999999999593
  0
LINE
  5
1264
  8
SAPA_PROFIL
 10
85.750000071512204
 20
82.499988000005018
 30
0.0
 11
85.750000071512204
 21
86.100000000005366
 31
0.0
  0
ARC
  5
1265
  8
SAPA_PROFIL
 10
85.45000007151225
 20
86.100000000005139
 30
0.0
 40
0.2999999999999545
 50
0.0000000000434252
 51
90.000000000043414
  0
LINE
  5
1266
  8
SAPA_PROFIL
 10
85.450000071512022
 20
86.400000000005093
 30
0.0
 11
85.000000071512204
 21
86.400000000005093
 31
0.0
  0
LINE
  5
1267
  8
SAPA_PROFIL
 10
85.000000071512204
 20
86.400000000005093
 30
0.0
 11
83.510739940437816
 21
85.540175262436151
 31
0.0
  0
ARC
  5
1268
  8
SAPA_PROFIL
 10
83.360739940437952
 20
85.799982883571047
 30
0.0
 40
0.2999999999995552
 50
270.0036468674607
 51
300.00000000001887
  0
LINE
  5
1269
  8
SAPA_PROFIL
 10
83.360759035391297
 20
85.49998288417919
 30
0.0
 11
83.250000071512204
 21
85.499975834388366
 31
0.0
  0
LINE
  5
126A
  8
SAPA_PROFIL
 10
83.250000071512204
 20
85.499975834388366
 30
0.0
 11
83.250000071512645
 21
87.121687836493024
 31
0.0
  0
ARC
  5
126B
  8
SAPA_PROFIL
 10
84.250000071512332
 20
87.121687836492868
 30
0.0
 40
0.9999999999996732
 50
119.9999999999892
 51
179.99999999999019
  0
LINE
  5
126C
  8
SAPA_PROFIL
 10
83.750000071512659
 20
87.987713240277117
 30
0.0
 11
85.250000071512204
 21
88.853738644061195
 31
0.0
  0
ARC
  5
126D
  8
SAPA_PROFIL
 10
84.750000071512531
 20
89.719764047845445
 30
0.0
 40
0.9999999999996724
 50
299.9999999999892
 51
359.99999999999022
  0
LINE
  5
126E
  8
SAPA_PROFIL
 10
85.750000071512204
 20
89.719764047845274
 30
0.0
 11
85.750000071512204
 21
90.280235952161533
 31
0.0
  0
ARC
  5
126F
  8
SAPA_PROFIL
 10
84.750000071512133
 20
90.280235952161604
 30
0.0
 40
1.0000000000000711
 50
359.99999999999682
 51
59.999999999997563
  0
LINE
  5
1270
  8
SAPA_PROFIL
 10
85.250000071512204
 20
91.146261355946081
 30
0.0
 11
83.750000071512659
 21
92.012286759731069
 31
0.0
  0
ARC
  5
1271
  8
SAPA_PROFIL
 10
84.250000071512105
 20
92.878312163515702
 30
0.0
 40
0.999999999999884
 50
180.00000000003169
 51
240.00000000003379
  0
LINE
  5
1272
  8
SAPA_PROFIL
 10
83.250000071512204
 20
92.878312163515147
 30
0.0
 11
83.250000071512204
 21
94.500024165618925
 31
0.0
  0
LINE
  5
1273
  8
SAPA_PROFIL
 10
83.250000071512204
 20
94.500024165618925
 30
0.0
 11
83.360759035391297
 21
94.500017115828086
 31
0.0
  0
ARC
  5
1274
  8
SAPA_PROFIL
 10
83.360739940437114
 20
94.200017116436001
 30
0.0
 40
0.2999999999997807
 50
59.999999999820652
 51
89.996353132379184
  0
LINE
  5
1275
  8
SAPA_PROFIL
 10
83.510739940437816
 20
94.459824737570685
 30
0.0
 11
85.000000071512204
 21
93.600000000002169
 31
0.0
  0
LINE
  5
1276
  8
SAPA_PROFIL
 10
85.000000071512204
 20
93.600000000002169
 30
0.0
 11
85.450000071512022
 21
93.600000000001728
 31
0.0
  0
ARC
  5
1277
  8
SAPA_PROFIL
 10
85.450000071512022
 20
93.900000000001896
 30
0.0
 40
0.3000000000001819
 50
270.0
 51
0.0
  0
LINE
  5
1278
  8
SAPA_PROFIL
 10
85.750000071512204
 20
93.900000000001896
 30
0.0
 11
85.750000071512204
 21
97.500012000001789
 31
0.0
  0
ARC
  5
1279
  8
SAPA_PROFIL
 10
85.450000071512036
 20
97.500012000001803
 30
0.0
 40
0.3000000000001677
 50
359.99999999999733
 51
90.000000000002728
  0
LINE
  5
127A
  8
SAPA_PROFIL
 10
85.450000071512022
 20
97.800012000001985
 30
0.0
 11
85.000000071512204
 21
97.800000000002001
 31
0.0
  0
LINE
  5
127B
  8
SAPA_PROFIL
 10
85.000000071512204
 20
97.800000000002001
 30
0.0
 11
83.510769586971037
 21
96.940192378866868
 31
0.0
  0
ARC
  5
127C
  8
SAPA_PROFIL
 10
83.360769586971514
 20
97.200000000001623
 30
0.0
 40
0.2999999999992616
 50
269.99999999997829
 51
299.99999999997613
  0
LINE
  5
127D
  8
SAPA_PROFIL
 10
83.360769586971387
 20
96.900000000002365
 30
0.0
 11
82.774264140224204
 21
96.900000000002365
 31
0.0
  0
ARC
  5
127E
  8
SAPA_PROFIL
 10
82.774264140223835
 20
97.200000000002561
 30
0.0
 40
0.3000000000001961
 50
225.00000000004991
 51
270.00000000006781
  0
LINE
  5
127F
  8
SAPA_PROFIL
 10
82.562132105867931
 20
96.987867965646274
 30
0.0
 11
81.257082852699114
 21
98.292917218815546
 31
0.0
  0
ARC
  5
1280
  8
SAPA_PROFIL
 10
81.964189633885681
 20
99.000024000001901
 30
0.0
 40
0.9999999999998674
 50
89.999999999994287
 51
224.99999999999079
  0
LINE
  5
1281
  8
SAPA_PROFIL
 10
81.964189633885795
 20
100.0000240000017
 30
0.0
 11
85.550000071512827
 21
100.0000000000018
 31
0.0
  0
ARC
  5
1282
  8
SAPA_PROFIL
 10
85.750000071512645
 20
100.0000000000018
 30
0.0
 40
0.1999999999998181
 50
180.0
 51
0.0
  0
LINE
  5
1283
  8
SAPA_PROFIL
 10
85.950000071512477
 20
100.0000000000018
 30
0.0
 11
87.250000101062142
 21
100.0000000000018
 31
0.0
  0
ARC
  5
1284
  8
SAPA_PROFIL
 10
87.250000100917902
 20
99.000000000145889
 30
0.0
 40
0.9999999998559304
 50
359.99999999153698
 51
89.999999991735649
  0
LINE
  5
1285
  8
SAPA_PROFIL
 10
88.250000100773832
 20
98.999999999998195
 30
0.0
 11
88.250000100773832
 21
98.000000000001805
 31
0.0
  0
ARC
  5
1286
  8
SAPA_PROFIL
 10
89.250000100773832
 20
98.000000000001805
 30
0.0
 40
1.0
 50
180.0
 51
270.0
  0
LINE
  5
1287
  8
SAPA_PROFIL
 10
89.250000100773832
 20
97.000000000001819
 30
0.0
 11
95.362929810735295
 21
97.000000000001819
 31
0.0
  0
ARC
  5
1288
  8
SAPA_PROFIL
 10
95.362929810735011
 20
98.000000000001435
 30
0.0
 40
0.9999999999996163
 50
270.00000000001631
 51
334.99999999974841
  0
LINE
  5
1289
  8
SAPA_PROFIL
 10
96.269237597769461
 20
97.577381738256932
 30
0.0
 11
98.062300836116734
 21
101.4226182617562
 31
0.0
  0
ARC
  5
128A
  8
SAPA_PROFIL
 10
98.968608623151397
 20
101.0000000000114
 30
0.0
 40
0.999999999999976
 50
90.000000000003254
 51
154.99999999973551
  0
LINE
  5
128B
  8
SAPA_PROFIL
 10
98.968608623151354
 20
102.0000000000113
 30
0.0
 11
102.01735409647971
 21
102.0000000000113
 31
0.0
  0
ARC
  5
128C
  8
SAPA_PROFIL
 10
102.01735409647991
 20
101.8000000000107
 30
0.0
 40
0.200000000000685
 50
330.8900910596401
 51
90.000000000065128
  0
ARC
  5
128D
  8
SAPA_PROFIL
 10
105.2500000715127
 20
99.999999999978684
 30
0.0
 40
3.500000000000727
 50
150.89009105956279
 51
175.0828996639396
  0
LINE
  5
128E
  8
SAPA_PROFIL
 10
101.76288091668221
 20
100.3000000000111
 30
0.0
 11
100.5000000715122
 21
100.3000000000111
 31
0.0
  0
ARC
  5
128F
  8
SAPA_PROFIL
 10
100.5000000715122
 20
99.800000000011096
 30
0.0
 40
0.5
 50
90.0
 51
180.0
  0
LINE
  5
1290
  8
SAPA_PROFIL
 10
100.0000000715122
 20
99.800000000011096
 30
0.0
 11
100.0000000715122
 21
97.500000000001819
 31
0.0
  0
ARC
  5
1291
  8
SAPA_PROFIL
 10
100.5000000715122
 20
97.500000000001819
 30
0.0
 40
0.5
 50
180.0
 51
270.0
  0
LINE
  5
1292
  8
SAPA_PROFIL
 10
100.5000000715122
 20
97.000000000001819
 30
0.0
 11
103.4472244337439
 21
97.000000000001819
 31
0.0
  0
ARC
  5
1293
  8
SAPA_PROFIL
 10
105.2500000715122
 20
99.99999999997948
 30
0.0
 40
3.4999999999995328
 50
238.99728086542879
 51
301.00271913457129
  0
LINE
  5
1294
  8
SAPA_PROFIL
 10
107.0527757092804
 20
97.000000000001819
 30
0.0
 11
113.4472244337439
 21
97.000000000001819
 31
0.0
  0
ARC
  5
1295
  8
SAPA_PROFIL
 10
115.2500000715122
 20
99.99999999997948
 30
0.0
 40
3.4999999999995328
 50
238.99728086542879
 51
301.00271913457129
  0
LINE
  5
1296
  8
SAPA_PROFIL
 10
117.0527757092804
 20
97.000000000001819
 30
0.0
 11
120.0000000715122
 21
97.000000000001819
 31
0.0
  0
ARC
  5
1297
  8
SAPA_PROFIL
 10
120.0000000715122
 20
97.500000000001819
 30
0.0
 40
0.5
 50
270.0
 51
0.0
  0
LINE
  5
1298
  8
SAPA_PROFIL
 10
120.5000000715122
 20
97.500000000001819
 30
0.0
 11
120.5000000715122
 21
99.800000000011096
 31
0.0
  0
ARC
  5
1299
  8
SAPA_PROFIL
 10
120.0000000715122
 20
99.800000000011096
 30
0.0
 40
0.5
 50
0.0
 51
90.0
  0
LINE
  5
129A
  8
SAPA_PROFIL
 10
120.0000000715122
 20
100.3000000000111
 30
0.0
 11
118.7371192263417
 21
100.3000000000111
 31
0.0
  0
ARC
  5
129B
  8
SAPA_PROFIL
 10
115.25000007151149
 20
99.999999999979735
 30
0.0
 40
3.5000000000003948
 50
4.9171003360432968
 51
29.109908940420201
  0
ARC
  5
129C
  8
SAPA_PROFIL
 10
118.4826460465442
 20
101.8000000000108
 30
0.0
 40
0.2000000000005637
 50
90.0
 51
209.10990894042359
  0
LINE
  5
129D
  8
SAPA_PROFIL
 10
118.4826460465442
 20
102.0000000000113
 30
0.0
 11
121.531391519873
 21
102.0000000000113
 31
0.0
  0
ARC
  5
129E
  8
SAPA_PROFIL
 10
121.5313915198728
 20
101.0000000000117
 30
0.0
 40
0.9999999999996163
 50
25.000000000251539
 51
89.999999999983714
  0
LINE
  5
129F
  8
SAPA_PROFIL
 10
122.43769930690721
 20
101.4226182617562
 30
0.0
 11
124.23076254525451
 21
97.577381738256932
 31
0.0
  0
ARC
  5
12A0
  8
SAPA_PROFIL
 10
125.1370703322892
 20
98.000000000001805
 30
0.0
 40
0.999999999999982
 50
205.0000000002652
 51
269.99999999999682
  0
LINE
  5
12A1
  8
SAPA_PROFIL
 10
125.1370703322891
 20
97.000000000001819
 30
0.0
 11
141.45000007151239
 21
97.000000000001819
 31
0.0
  0
LINE
  5
12A2
  8
SAPA_PROFIL
 10
141.45000007151239
 20
97.000000000001819
 30
0.0
 11
141.45000007151239
 21
98.500000000001819
 31
0.0
  0
LINE
  5
12A3
  8
SAPA_PROFIL
 10
141.45000007151239
 20
98.500000000001819
 30
0.0
 11
142.2500000715122
 21
98.500000000001819
 31
0.0
  0
LINE
  5
12A4
  8
SAPA_PROFIL
 10
142.2500000715122
 20
98.500000000001819
 30
0.0
 11
142.2500000715122
 21
97.000000000001819
 31
0.0
  0
LINE
  5
12A5
  8
SAPA_PROFIL
 10
142.2500000715122
 20
97.000000000001819
 30
0.0
 11
143.95000007151251
 21
97.000000000001819
 31
0.0
  0
LINE
  5
12A6
  8
SAPA_PROFIL
 10
143.95000007151251
 20
97.000000000001819
 30
0.0
 11
144.2500000715122
 21
121.6000000000017
 31
0.0
  0
LINE
  5
12A7
  8
SAPA_PROFIL
 10
144.2500000715122
 20
121.6000000000017
 30
0.0
 11
142.5500000715119
 21
121.6000000000017
 31
0.0
  0
LINE
  5
12A8
  8
SAPA_PROFIL
 10
142.5500000715119
 20
121.6000000000017
 30
0.0
 11
142.5500000715119
 21
119.6000000000017
 31
0.0
  0
LINE
  5
12A9
  8
SAPA_PROFIL
 10
142.5500000715119
 20
119.6000000000017
 30
0.0
 11
141.7500000715122
 21
119.6000000000017
 31
0.0
  0
LINE
  5
12AA
  8
SAPA_PROFIL
 10
141.7500000715122
 20
119.6000000000017
 30
0.0
 11
141.7500000715122
 21
123.7499999999927
 31
0.0
  0
ARC
  5
12AB
  8
SAPA_PROFIL
 10
142.2500000715122
 20
123.7499999999927
 30
0.0
 40
0.4999999999999716
 50
89.999999999996746
 51
180.00000000000159
  0
LINE
  5
12AC
  8
SAPA_PROFIL
 10
142.2500000715122
 20
124.2499999999927
 30
0.0
 11
142.75000007149399
 21
124.2500000000045
 31
0.0
  0
LINE
  5
12AD
  8
SAPA_PROFIL
 10
142.75000007149399
 20
124.2500000000045
 30
0.0
 11
142.75000007151539
 21
123.00000000003
 31
0.0
  0
LINE
  5
12AE
  8
SAPA_PROFIL
 10
142.75000007151539
 20
123.00000000003
 30
0.0
 11
144.15000007149411
 21
122.9999999999945
 31
0.0
  0
ARC
  5
12AF
  8
SAPA_PROFIL
 10
144.15000007148791
 20
123.2999999999809
 30
0.0
 40
0.2999999999863689
 50
270.00000000118331
 51
0.0000000026380793
  0
LINE
  5
12B0
  8
SAPA_PROFIL
 10
144.45000007147431
 20
123.2999999999947
 30
0.0
 11
144.45000007150151
 21
129.69999999999979
 31
0.0
  0
ARC
  5
12B1
  8
SAPA_PROFIL
 10
144.1500000715119
 20
129.69999999998211
 30
0.0
 40
0.2999999999896659
 50
0.0000000033763072
 51
90.000000001921563
  0
LINE
  5
12B2
  8
SAPA_PROFIL
 10
144.15000007150181
 20
129.99999999997181
 30
0.0
 11
142.75000007151539
 21
129.99999999996399
 31
0.0
  0
LINE
  5
12B3
  8
SAPA_PROFIL
 10
142.75000007151539
 20
129.99999999996399
 30
0.0
 11
142.75000007149399
 21
128.74999999999
 31
0.0
  0
LINE
  5
12B4
  8
SAPA_PROFIL
 10
142.75000007149399
 20
128.74999999999
 30
0.0
 11
142.25000007151169
 21
128.75000000000179
 31
0.0
  0
ARC
  5
12B5
  8
SAPA_PROFIL
 10
142.25000007151201
 20
129.25000000000159
 30
0.0
 40
0.4999999999997727
 50
179.99999999997391
 51
269.99999999997391
  0
LINE
  5
12B6
  8
SAPA_PROFIL
 10
141.7500000715122
 20
129.25000000000179
 30
0.0
 11
141.75000007151169
 21
132.25000000000179
 31
0.0
  0
ARC
  5
12B7
  8
SAPA_PROFIL
 10
142.25000007151169
 20
132.25000000000909
 30
0.0
 40
0.5
 50
90.0
 51
180.00000000083369
  0
LINE
  5
12B8
  8
SAPA_PROFIL
 10
142.25000007151169
 20
132.75000000000909
 30
0.0
 11
142.75000007151169
 21
132.75000000000909
 31
0.0
  0
LINE
  5
12B9
  8
SAPA_PROFIL
 10
142.75000007151169
 20
132.75000000000909
 30
0.0
 11
142.75000007151169
 21
131.30000000001201
 31
0.0
  0
LINE
  5
12BA
  8
SAPA_PROFIL
 10
142.75000007151169
 20
131.30000000001201
 30
0.0
 11
144.6000000715039
 21
131.30000000001201
 31
0.0
  0
ARC
  5
12BB
  8
SAPA_PROFIL
 10
144.60000007148781
 20
131.5999999999988
 30
0.0
 40
0.2999999999867668
 50
270.00000000308307
 51
0.0000000030831873
  0
LINE
  5
12BC
  8
SAPA_PROFIL
 10
144.90000007147449
 20
131.60000000001489
 30
0.0
 11
144.9000000715032
 21
133.84019237887151
 31
0.0
  0
LINE
  5
12BD
  8
SAPA_PROFIL
 10
144.9000000715032
 20
133.84019237887151
 30
0.0
 11
144.45000007150881
 21
134.10000000000031
 31
0.0
  0
LINE
  5
12BE
  8
SAPA_PROFIL
 10
144.45000007150881
 20
134.10000000000031
 30
0.0
 11
144.45000007150881
 21
135.90000000001049
 31
0.0
  0
LINE
  5
12BF
  8
SAPA_PROFIL
 10
144.45000007150881
 20
135.90000000001049
 30
0.0
 11
144.9000000715032
 21
136.15980762113941
 31
0.0
  0
LINE
  5
12C0
  8
SAPA_PROFIL
 10
144.9000000715032
 20
136.15980762113941
 30
0.0
 11
144.9000000715032
 21
138.399999999996
 31
0.0
  0
ARC
  5
12C1
  8
SAPA_PROFIL
 10
144.60000007151751
 20
138.3999999999842
 30
0.0
 40
0.29999999998563
 50
0.000000002258109
 51
90.000000002952902
  0
LINE
  5
12C2
  8
SAPA_PROFIL
 10
144.60000007150211
 20
138.6999999999698
 30
0.0
 11
142.75000007151129
 21
138.69999999999891
 31
0.0
  0
LINE
  5
12C3
  8
SAPA_PROFIL
 10
142.75000007151129
 20
138.69999999999891
 30
0.0
 11
142.75000007151169
 21
137.25000000000179
 31
0.0
  0
LINE
  5
12C4
  8
SAPA_PROFIL
 10
142.75000007151169
 20
137.25000000000179
 30
0.0
 11
142.25000007151169
 21
137.25000000000179
 31
0.0
  0
ARC
  5
12C5
  8
SAPA_PROFIL
 10
142.25000007151169
 20
137.75000000000179
 30
0.0
 40
0.5
 50
180.0
 51
270.0
  0
LINE
  5
12C6
  8
SAPA_PROFIL
 10
141.75000007151169
 20
137.75000000000179
 30
0.0
 11
141.75000007151169
 21
139.50000000000179
 31
0.0
  0
ARC
  5
12C7
  8
SAPA_PROFIL
 10
142.25000007151169
 20
139.50000000000179
 30
0.0
 40
0.5
 50
90.0
 51
180.0
  0
LINE
  5
12C8
  8
SAPA_PROFIL
 10
142.25000007151169
 20
140.00000000000179
 30
0.0
 11
144.75000007151169
 21
140.0000000000023
 31
0.0
  0
ARC
  5
12C9
  8
SAPA_PROFIL
 10
144.75000007151181
 20
138.0000000000023
 30
0.0
 40
1.9999999999999141
 50
359.99999999999761
 51
90.000000000002444
  0
LINE
  5
12CA
  8
SAPA_PROFIL
 10
146.75000007151169
 20
138.00000000000219
 30
0.0
 11
146.7500000715122
 21
24.375000000000458
 31
0.0
  0
ARC
  5
12CB
  8
SAPA_PROFIL
 10
145.37500007151201
 20
24.375000000000441
 30
0.0
 40
1.3750000000002269
 50
179.9999999999996
 51
0.0000000000004441
  0
LINE
  5
12CC
  8
SAPA_PROFIL
 10
144.00000007151169
 20
24.375000000000458
 30
0.0
 11
144.00000007151169
 21
76.000000000006366
 31
0.0
  0
ARC
  5
12CD
  8
SAPA_PROFIL
 10
140.00000007151189
 20
76.000000000006523
 30
0.0
 40
3.999999999999829
 50
359.99999999999778
 51
90.000000000002444
  0
LINE
  5
12CE
  8
SAPA_PROFIL
 10
140.00000007151169
 20
80.000000000006366
 30
0.0
 11
85.950000071512932
 21
80.000000000001819
 31
0.0
  0
ARC
  5
12CF
  8
SAPA_ISOLATOR
 10
60.125833224252837
 20
82.850036032520464
 30
0.0
 40
0.3000000000003382
 50
90.000000000094985
 51
120.0000000000926
  0
LINE
  5
12D0
  8
SAPA_ISOLATOR
 10
59.975833224252248
 20
83.109843653655844
 30
0.0
 11
58.486602683407
 21
82.250036000013566
 31
0.0
  0
LINE
  5
12D1
  8
SAPA_ISOLATOR
 10
58.486602683407
 20
82.250036000013566
 30
0.0
 11
58.050000143028683
 21
82.250036000013566
 31
0.0
  0
ARC
  5
12D2
  8
SAPA_ISOLATOR
 10
58.050000143028683
 20
82.500036000013537
 30
0.0
 40
0.25
 50
180.0
 51
270.0
  0
LINE
  5
12D3
  8
SAPA_ISOLATOR
 10
57.800000143028683
 20
82.500036000013537
 30
0.0
 11
57.800000143028683
 21
86.10004800001343
 31
0.0
  0
ARC
  5
12D4
  8
SAPA_ISOLATOR
 10
58.050000143028669
 20
86.10004800001343
 30
0.0
 40
0.2499999999999929
 50
89.999999999998366
 51
180.0
  0
LINE
  5
12D5
  8
SAPA_ISOLATOR
 10
58.050000143028683
 20
86.35004800001343
 30
0.0
 11
58.486602064606821
 21
86.350036357278441
 31
0.0
  0
LINE
  5
12D6
  8
SAPA_ISOLATOR
 10
58.486602064606821
 20
86.350036357278441
 30
0.0
 11
59.975833111644533
 21
85.490228411385033
 31
0.0
  0
ARC
  5
12D7
  8
SAPA_ISOLATOR
 10
60.125833111644262
 20
85.750036032520555
 30
0.0
 40
0.3000000000000256
 50
240.0000000000642
 51
270.00000000007049
  0
LINE
  5
12D8
  8
SAPA_ISOLATOR
 10
60.125833111644617
 20
85.450036032520529
 30
0.0
 11
83.374167102896067
 21
85.450036032520529
 31
0.0
  0
ARC
  5
12D9
  8
SAPA_ISOLATOR
 10
83.37416710289645
 20
85.750036032520555
 30
0.0
 40
0.3000000000000256
 50
269.9999999999294
 51
299.99999999993582
  0
LINE
  5
12DA
  8
SAPA_ISOLATOR
 10
83.524167102896172
 20
85.490228411385033
 30
0.0
 11
85.013398149933892
 21
86.350036357278441
 31
0.0
  0
LINE
  5
12DB
  8
SAPA_ISOLATOR
 10
85.013398149933892
 20
86.350036357278441
 30
0.0
 11
85.450000071512477
 21
86.35004800001343
 31
0.0
  0
ARC
  5
12DC
  8
SAPA_ISOLATOR
 10
85.450000071512477
 20
86.10004800001343
 30
0.0
 40
0.25
 50
0.0
 51
90.0
  0
LINE
  5
12DD
  8
SAPA_ISOLATOR
 10
85.700000071512477
 20
86.10004800001343
 30
0.0
 11
85.700000071512477
 21
82.500036000013537
 31
0.0
  0
ARC
  5
12DE
  8
SAPA_ISOLATOR
 10
85.450000071512477
 20
82.500036000013537
 30
0.0
 40
0.25
 50
270.0
 51
0.0
  0
LINE
  5
12DF
  8
SAPA_ISOLATOR
 10
85.450000071512477
 20
82.250036000013566
 30
0.0
 11
85.013397531133705
 21
82.250036000013566
 31
0.0
  0
LINE
  5
12E0
  8
SAPA_ISOLATOR
 10
85.013397531133705
 20
82.250036000013566
 30
0.0
 11
83.524166990288904
 21
83.109843653655844
 31
0.0
  0
ARC
  5
12E1
  8
SAPA_ISOLATOR
 10
83.374166990288089
 20
82.850036032519625
 30
0.0
 40
0.3000000000011758
 50
59.999999999949772
 51
89.999999999948443
  0
LINE
  5
12E2
  8
SAPA_ISOLATOR
 10
83.374166990288344
 20
83.150036032520802
 30
0.0
 11
60.125833224252347
 21
83.150036032520802
 31
0.0
  0
LINE
  5
12E3
  8
SAPA_ISOLATOR
 10
74.250000139903477
 20
123.3477350676189
 30
-0.2
 11
74.250000139903477
 21
137.54773506762101
 31
-0.2
1001
RC_PROFILE
1002
{
1000
Region
1002
}
  0
ARC
  5
12E4
  8
SAPA_ISOLATOR
 10
73.750000139903477
 20
137.54773506762101
 30
-0.2
 40
0.5
 50
0.0
 51
89.999999999791555
1001
RC_PROFILE
1002
{
1000
Region
1002
}
  0
LINE
  5
12E5
  8
SAPA_ISOLATOR
 10
73.750000139905296
 20
138.04773506762101
 30
-0.2
 11
69.750000139284111
 21
138.04773506762371
 31
-0.2
1001
RC_PROFILE
1002
{
1000
Region
1002
}
  0
ARC
  5
12E6
  8
SAPA_ISOLATOR
 10
69.750000139284111
 20
137.54773506762371
 30
-0.2
 40
0.5
 50
90.0
 51
180.0
1001
RC_PROFILE
1002
{
1000
Region
1002
}
  0
LINE
  5
12E7
  8
SAPA_ISOLATOR
 10
69.250000139284111
 20
137.54773506762371
 30
-0.2
 11
69.250000139276835
 21
123.34773506762031
 31
-0.2
1001
RC_PROFILE
1002
{
1000
Region
1002
}
  0
ARC
  5
12E8
  8
SAPA_ISOLATOR
 10
69.750000139276949
 20
123.347735067619
 30
-0.2
 40
0.5000000000001137
 50
179.9999999998567
 51
269.99999999998698
1001
RC_PROFILE
1002
{
1000
Region
1002
}
  0
LINE
  5
12E9
  8
SAPA_ISOLATOR
 10
69.750000139276835
 20
122.8477350676189
 30
-0.2
 11
73.750000139903477
 21
122.8477350676189
 31
-0.2
1001
RC_PROFILE
1002
{
1000
Region
1002
}
  0
ARC
  5
12EA
  8
SAPA_ISOLATOR
 10
73.750000139903477
 20
123.3477350676189
 30
-0.2
 40
0.5
 50
270.0
 51
0.0
1001
RC_PROFILE
1002
{
1000
Region
1002
}
  0
ARC
  5
12EB
  8
SAPA_PROFIL
 62
     4
 10
60.827260069883913
 20
97.784261511209891
 30
0.0
 40
1.199999999999761
 50
240.00000000001651
 51
270.00000000003729
1001
GENIUS_GENOBJ-N-FIL_13
1002
{
1000
OWNER
1000
GEN
1002
}
1001
GENIUS_GENODEF_13
1002
{
1000
HIER
1070
     0
1002
}
1002
{
1000
MANEDIT
1070
     0
1002
}
1002
{
1000
NOSEL
1070
     0
1002
}
1002
{
1000
BEHIND
1070
     0
1002
}
1002
{
1000
OTHER
1070
     0
1002
}
1002
{
1000
REACTOR
1002
}
  0
LINE
  5
12EC
  8
SAPA_PROFIL
 62
     4
 10
60.227260069884323
 20
96.745031026668585
 30
0.0
 11
58.486602129240957
 21
97.750000357266799
 31
0.0
1001
GENIUS_GENOBJ-N-FIL_13
1002
{
1000
OWNER
1000
GEN
1002
}
1001
GENIUS_GENODEF_13
1002
{
1000
HIER
1070
     0
1002
}
1002
{
1000
MANEDIT
1070
     0
1002
}
1002
{
1000
NOSEL
1070
     0
1002
}
1002
{
1000
BEHIND
1070
     0
1002
}
1002
{
1000
OTHER
1070
     0
1002
}
1002
{
1000
REACTOR
1002
}
  0
LINE
  5
12ED
  8
SAPA_PROFIL
 62
     4
 10
58.486602129240957
 20
97.750000357266799
 30
0.0
 11
58.050000207662379
 21
97.750012000001789
 31
0.0
1001
GENIUS_GENOBJ-N-FIL_13
1002
{
1000
OWNER
1000
GEN
1002
}
1001
GENIUS_GENODEF_13
1002
{
1000
HIER
1070
     0
1002
}
1002
{
1000
MANEDIT
1070
     0
1002
}
1002
{
1000
NOSEL
1070
     0
1002
}
1002
{
1000
BEHIND
1070
     0
1002
}
1002
{
1000
OTHER
1070
     0
1002
}
1002
{
1000
REACTOR
1002
}
  0
ARC
  5
12EE
  8
SAPA_PROFIL
 62
     4
 10
58.050000207662372
 20
97.500012000001789
 30
0.0
 40
0.25
 50
89.999999999998366
 51
180.0
1001
GENIUS_GENOBJ-N-FIL_13
1002
{
1000
OWNER
1000
GEN
1002
}
1001
GENIUS_GENODEF_13
1002
{
1000
HIER
1070
     0
1002
}
1002
{
1000
MANEDIT
1070
     0
1002
}
1002
{
1000
NOSEL
1070
     0
1002
}
1002
{
1000
BEHIND
1070
     0
1002
}
1002
{
1000
OTHER
1070
     0
1002
}
1002
{
1000
REACTOR
1002
}
  0
LINE
  5
12EF
  8
SAPA_PROFIL
 62
     4
 10
57.800000207662372
 20
97.500012000001789
 30
0.0
 11
57.800000207662372
 21
93.900000000001896
 31
0.0
1001
GENIUS_GENOBJ-N-FIL_13
1002
{
1000
OWNER
1000
GEN
1002
}
1001
GENIUS_GENODEF_13
1002
{
1000
HIER
1070
     0
1002
}
1002
{
1000
MANEDIT
1070
     0
1002
}
1002
{
1000
NOSEL
1070
     0
1002
}
1002
{
1000
BEHIND
1070
     0
1002
}
1002
{
1000
OTHER
1070
     0
1002
}
1002
{
1000
REACTOR
1002
}
  0
ARC
  5
12F0
  8
SAPA_PROFIL
 62
     4
 10
58.050000207662379
 20
93.900000000001896
 30
0.0
 40
0.25
 50
180.0
 51
270.0
1001
GENIUS_GENOBJ-N-FIL_13
1002
{
1000
OWNER
1000
GEN
1002
}
1001
GENIUS_GENODEF_13
1002
{
1000
HIER
1070
     0
1002
}
1002
{
1000
MANEDIT
1070
     0
1002
}
1002
{
1000
NOSEL
1070
     0
1002
}
1002
{
1000
BEHIND
1070
     0
1002
}
1002
{
1000
OTHER
1070
     0
1002
}
1002
{
1000
REACTOR
1002
}
  0
LINE
  5
12F1
  8
SAPA_PROFIL
 62
     4
 10
58.050000207662379
 20
93.650000000001924
 30
0.0
 11
58.48660274804115
 21
93.650000000001924
 31
0.0
1001
GENIUS_GENOBJ-N-FIL_13
1002
{
1000
OWNER
1000
GEN
1002
}
1001
GENIUS_GENODEF_13
1002
{
1000
HIER
1070
     0
1002
}
1002
{
1000
MANEDIT
1070
     0
1002
}
1002
{
1000
NOSEL
1070
     0
1002
}
1002
{
1000
BEHIND
1070
     0
1002
}
1002
{
1000
OTHER
1070
     0
1002
}
1002
{
1000
REACTOR
1002
}
  0
LINE
  5
12F2
  8
SAPA_PROFIL
 62
     4
 10
58.48660274804115
 20
93.650000000001924
 30
0.0
 11
60.17274034544198
 21
94.623491995751905
 31
0.0
1001
GENIUS_GENOBJ-N-FIL_13
1002
{
1000
OWNER
1000
GEN
1002
}
1001
GENIUS_GENODEF_13
1002
{
1000
HIER
1070
     0
1002
}
1002
{
1000
MANEDIT
1070
     0
1002
}
1002
{
1000
NOSEL
1070
     0
1002
}
1002
{
1000
BEHIND
1070
     0
1002
}
1002
{
1000
OTHER
1070
     0
1002
}
1002
{
1000
REACTOR
1002
}
  0
ARC
  5
12F3
  8
SAPA_PROFIL
 62
     4
 10
60.772740345442429
 20
93.584261511210784
 30
0.0
 40
1.200000000000059
 50
90.000000000025764
 51
120.00000000002311
1001
GENIUS_GENOBJ-N-FIL_13
1002
{
1000
OWNER
1000
GEN
1002
}
1001
GENIUS_GENODEF_13
1002
{
1000
HIER
1070
     0
1002
}
1002
{
1000
MANEDIT
1070
     0
1002
}
1002
{
1000
NOSEL
1070
     0
1002
}
1002
{
1000
BEHIND
1070
     0
1002
}
1002
{
1000
OTHER
1070
     0
1002
}
1002
{
1000
REACTOR
1002
}
  0
LINE
  5
12F4
  8
SAPA_PROFIL
 62
     4
 10
60.772740345441882
 20
94.784261511210843
 30
0.0
 11
82.727259933732967
 21
94.784261511210843
 31
0.0
1001
GENIUS_GENOBJ-N-FIL_13
1002
{
1000
OWNER
1000
GEN
1002
}
1001
GENIUS_GENODEF_13
1002
{
1000
HIER
1070
     0
1002
}
1002
{
1000
MANEDIT
1070
     0
1002
}
1002
{
1000
NOSEL
1070
     0
1002
}
1002
{
1000
BEHIND
1070
     0
1002
}
1002
{
1000
OTHER
1070
     0
1002
}
1002
{
1000
REACTOR
1002
}
  0
ARC
  5
12F5
  8
SAPA_PROFIL
 62
     4
 10
82.727259933732427
 20
93.584261511210784
 30
0.0
 40
1.200000000000059
 50
59.999999999976893
 51
89.999999999974222
1001
GENIUS_GENOBJ-N-FIL_13
1002
{
1000
OWNER
1000
GEN
1002
}
1001
GENIUS_GENODEF_13
1002
{
1000
HIER
1070
     0
1002
}
1002
{
1000
MANEDIT
1070
     0
1002
}
1002
{
1000
NOSEL
1070
     0
1002
}
1002
{
1000
BEHIND
1070
     0
1002
}
1002
{
1000
OTHER
1070
     0
1002
}
1002
{
1000
REACTOR
1002
}
  0
LINE
  5
12F6
  8
SAPA_PROFIL
 62
     4
 10
83.327259933732876
 20
94.623491995751905
 30
0.0
 11
85.013397531133705
 21
93.650000000001924
 31
0.0
1001
GENIUS_GENOBJ-N-FIL_13
1002
{
1000
OWNER
1000
GEN
1002
}
1001
GENIUS_GENODEF_13
1002
{
1000
HIER
1070
     0
1002
}
1002
{
1000
MANEDIT
1070
     0
1002
}
1002
{
1000
NOSEL
1070
     0
1002
}
1002
{
1000
BEHIND
1070
     0
1002
}
1002
{
1000
OTHER
1070
     0
1002
}
1002
{
1000
REACTOR
1002
}
  0
LINE
  5
12F7
  8
SAPA_PROFIL
 62
     4
 10
85.013397531133705
 20
93.650000000001924
 30
0.0
 11
85.450000071512022
 21
93.650000000001924
 31
0.0
1001
GENIUS_GENOBJ-N-FIL_13
1002
{
1000
OWNER
1000
GEN
1002
}
1001
GENIUS_GENODEF_13
1002
{
1000
HIER
1070
     0
1002
}
1002
{
1000
MANEDIT
1070
     0
1002
}
1002
{
1000
NOSEL
1070
     0
1002
}
1002
{
1000
BEHIND
1070
     0
1002
}
1002
{
1000
OTHER
1070
     0
1002
}
1002
{
1000
REACTOR
1002
}
  0
ARC
  5
12F8
  8
SAPA_PROFIL
 62
     4
 10
85.450000071512022
 20
93.900000000001896
 30
0.0
 40
0.25
 50
270.0
 51
0.0
1001
GENIUS_GENOBJ-N-FIL_13
1002
{
1000
OWNER
1000
GEN
1002
}
1001
GENIUS_GENODEF_13
1002
{
1000
HIER
1070
     0
1002
}
1002
{
1000
MANEDIT
1070
     0
1002
}
1002
{
1000
NOSEL
1070
     0
1002
}
1002
{
1000
BEHIND
1070
     0
1002
}
1002
{
1000
OTHER
1070
     0
1002
}
1002
{
1000
REACTOR
1002
}
  0
LINE
  5
12F9
  8
SAPA_PROFIL
 62
     4
 10
85.700000071512022
 20
93.900000000001896
 30
0.0
 11
85.700000071512022
 21
97.500012000001789
 31
0.0
1001
GENIUS_GENOBJ-N-FIL_13
1002
{
1000
OWNER
1000
GEN
1002
}
1001
GENIUS_GENODEF_13
1002
{
1000
HIER
1070
     0
1002
}
1002
{
1000
MANEDIT
1070
     0
1002
}
1002
{
1000
NOSEL
1070
     0
1002
}
1002
{
1000
BEHIND
1070
     0
1002
}
1002
{
1000
OTHER
1070
     0
1002
}
1002
{
1000
REACTOR
1002
}
  0
ARC
  5
12FA
  8
SAPA_PROFIL
 62
     4
 10
85.450000071512022
 20
97.500012000001789
 30
0.0
 40
0.25
 50
0.0
 51
90.0
1001
GENIUS_GENOBJ-N-FIL_13
1002
{
1000
OWNER
1000
GEN
1002
}
1001
GENIUS_GENODEF_13
1002
{
1000
HIER
1070
     0
1002
}
1002
{
1000
MANEDIT
1070
     0
1002
}
1002
{
1000
NOSEL
1070
     0
1002
}
1002
{
1000
BEHIND
1070
     0
1002
}
1002
{
1000
OTHER
1070
     0
1002
}
1002
{
1000
REACTOR
1002
}
  0
LINE
  5
12FB
  8
SAPA_PROFIL
 62
     4
 10
85.450000071512022
 20
97.750012000001789
 30
0.0
 11
85.013398149933892
 21
97.750000357266799
 31
0.0
1001
GENIUS_GENOBJ-N-FIL_13
1002
{
1000
OWNER
1000
GEN
1002
}
1001
GENIUS_GENODEF_13
1002
{
1000
HIER
1070
     0
1002
}
1002
{
1000
MANEDIT
1070
     0
1002
}
1002
{
1000
NOSEL
1070
     0
1002
}
1002
{
1000
BEHIND
1070
     0
1002
}
1002
{
1000
OTHER
1070
     0
1002
}
1002
{
1000
REACTOR
1002
}
  0
LINE
  5
12FC
  8
SAPA_PROFIL
 62
     4
 10
85.013398149933892
 20
97.750000357266799
 30
0.0
 11
83.272740209290077
 21
96.745031026668585
 31
0.0
1001
GENIUS_GENOBJ-N-FIL_13
1002
{
1000
OWNER
1000
GEN
1002
}
1001
GENIUS_GENODEF_13
1002
{
1000
HIER
1070
     0
1002
}
1002
{
1000
MANEDIT
1070
     0
1002
}
1002
{
1000
NOSEL
1070
     0
1002
}
1002
{
1000
BEHIND
1070
     0
1002
}
1002
{
1000
OTHER
1070
     0
1002
}
1002
{
1000
REACTOR
1002
}
  0
ARC
  5
12FD
  8
SAPA_PROFIL
 62
     4
 10
82.672740209290495
 20
97.784261511209891
 30
0.0
 40
1.199999999999761
 50
269.99999999996271
 51
299.99999999998352
1001
GENIUS_GENOBJ-N-FIL_13
1002
{
1000
OWNER
1000
GEN
1002
}
1001
GENIUS_GENODEF_13
1002
{
1000
HIER
1070
     0
1002
}
1002
{
1000
MANEDIT
1070
     0
1002
}
1002
{
1000
NOSEL
1070
     0
1002
}
1002
{
1000
BEHIND
1070
     0
1002
}
1002
{
1000
OTHER
1070
     0
1002
}
1002
{
1000
REACTOR
1002
}
  0
LINE
  5
12FE
  8
SAPA_PROFIL
 62
     4
 10
82.672740209289714
 20
96.584261511210116
 30
0.0
 11
79.950000071761224
 21
96.58426151121057
 31
0.0
1001
GENIUS_GENOBJ-N-FIL_13
1002
{
1000
OWNER
1000
GEN
1002
}
1001
GENIUS_GENODEF_13
1002
{
1000
HIER
1070
     0
1002
}
1002
{
1000
MANEDIT
1070
     0
1002
}
1002
{
1000
NOSEL
1070
     0
1002
}
1002
{
1000
BEHIND
1070
     0
1002
}
1002
{
1000
OTHER
1070
     0
1002
}
1002
{
1000
REACTOR
1002
}
  0
ARC
  5
12FF
  8
SAPA_PROFIL
 62
     4
 10
79.950000071761906
 20
97.784261511210175
 30
0.0
 40
1.1999999999995901
 50
179.999999999772
 51
269.99999999996737
1001
GENIUS_GENOBJ-N-FIL_13
1002
{
1000
OWNER
1000
GEN
1002
}
1001
GENIUS_GENODEF_13
1002
{
1000
HIER
1070
     0
1002
}
1002
{
1000
MANEDIT
1070
     0
1002
}
1002
{
1000
NOSEL
1070
     0
1002
}
1002
{
1000
BEHIND
1070
     0
1002
}
1002
{
1000
OTHER
1070
     0
1002
}
1002
{
1000
REACTOR
1002
}
  0
LINE
  5
1300
  8
SAPA_PROFIL
 62
     4
 10
78.750000071762315
 20
97.784261511214936
 30
0.0
 11
78.750000071851446
 21
123.58199653813649
 31
0.0
1001
GENIUS_GENOBJ-N-FIL_13
1002
{
1000
OWNER
1000
GEN
1002
}
1001
GENIUS_GENODEF_13
1002
{
1000
HIER
1070
     0
1002
}
1002
{
1000
MANEDIT
1070
     0
1002
}
1002
{
1000
NOSEL
1070
     0
1002
}
1002
{
1000
BEHIND
1070
     0
1002
}
1002
{
1000
OTHER
1070
     0
1002
}
1002
{
1000
REACTOR
1002
}
  0
ARC
  5
1301
  8
SAPA_PROFIL
 62
     4
 10
78.250000071851446
 20
123.58199653813649
 30
0.0
 40
0.5
 50
0.0
 51
90.0
1001
GENIUS_GENOBJ-N-FIL_13
1002
{
1000
OWNER
1000
GEN
1002
}
1001
GENIUS_GENODEF_13
1002
{
1000
HIER
1070
     0
1002
}
1002
{
1000
MANEDIT
1070
     0
1002
}
1002
{
1000
NOSEL
1070
     0
1002
}
1002
{
1000
BEHIND
1070
     0
1002
}
1002
{
1000
OTHER
1070
     0
1002
}
1002
{
1000
REACTOR
1002
}
  0
LINE
  5
1302
  8
SAPA_PROFIL
 62
     4
 10
78.250000071851446
 20
124.08199653813649
 30
0.0
 11
78.050000071851628
 21
124.08199653813701
 31
0.0
1001
GENIUS_GENOBJ-N-FIL_13
1002
{
1000
OWNER
1000
GEN
1002
}
1001
GENIUS_GENODEF_13
1002
{
1000
HIER
1070
     0
1002
}
1002
{
1000
MANEDIT
1070
     0
1002
}
1002
{
1000
NOSEL
1070
     0
1002
}
1002
{
1000
BEHIND
1070
     0
1002
}
1002
{
1000
OTHER
1070
     0
1002
}
1002
{
1000
REACTOR
1002
}
  0
ARC
  5
1303
  8
SAPA_PROFIL
 62
     4
 10
78.050000071851628
 20
123.7819965381368
 30
0.0
 40
0.3000000000001819
 50
90.0
 51
180.0
1001
GENIUS_GENOBJ-N-FIL_13
1002
{
1000
OWNER
1000
GEN
1002
}
1001
GENIUS_GENODEF_13
1002
{
1000
HIER
1070
     0
1002
}
1002
{
1000
MANEDIT
1070
     0
1002
}
1002
{
1000
NOSEL
1070
     0
1002
}
1002
{
1000
BEHIND
1070
     0
1002
}
1002
{
1000
OTHER
1070
     0
1002
}
1002
{
1000
REACTOR
1002
}
  0
LINE
  5
1304
  8
SAPA_PROFIL
 62
     4
 10
77.750000071851446
 20
123.7819965381368
 30
0.0
 11
77.750000071851446
 21
123.1319965381344
 31
0.0
1001
GENIUS_GENOBJ-N-FIL_13
1002
{
1000
OWNER
1000
GEN
1002
}
1001
GENIUS_GENODEF_13
1002
{
1000
HIER
1070
     0
1002
}
1002
{
1000
MANEDIT
1070
     0
1002
}
1002
{
1000
NOSEL
1070
     0
1002
}
1002
{
1000
BEHIND
1070
     0
1002
}
1002
{
1000
OTHER
1070
     0
1002
}
1002
{
1000
REACTOR
1002
}
  0
ARC
  5
1305
  8
SAPA_PROFIL
 62
     4
 10
77.450000071851036
 20
123.1319965381351
 30
0.0
 40
0.3000000000004093
 50
269.99999999986971
 51
359.99999999986971
1001
GENIUS_GENOBJ-N-FIL_13
1002
{
1000
OWNER
1000
GEN
1002
}
1001
GENIUS_GENODEF_13
1002
{
1000
HIER
1070
     0
1002
}
1002
{
1000
MANEDIT
1070
     0
1002
}
1002
{
1000
NOSEL
1070
     0
1002
}
1002
{
1000
BEHIND
1070
     0
1002
}
1002
{
1000
OTHER
1070
     0
1002
}
1002
{
1000
REACTOR
1002
}
  0
LINE
  5
1306
  8
SAPA_PROFIL
 62
     4
 10
77.450000071850354
 20
122.8319965381347
 30
0.0
 11
76.550000071854356
 21
122.8319965381356
 31
0.0
1001
GENIUS_GENOBJ-N-FIL_13
1002
{
1000
OWNER
1000
GEN
1002
}
1001
GENIUS_GENODEF_13
1002
{
1000
HIER
1070
     0
1002
}
1002
{
1000
MANEDIT
1070
     0
1002
}
1002
{
1000
NOSEL
1070
     0
1002
}
1002
{
1000
BEHIND
1070
     0
1002
}
1002
{
1000
OTHER
1070
     0
1002
}
1002
{
1000
REACTOR
1002
}
  0
ARC
  5
1307
  8
SAPA_PROFIL
 62
     4
 10
76.550000071853901
 20
123.3319965381352
 30
0.0
 40
0.4999999999995453
 50
180.0000000000521
 51
270.00000000005213
1001
GENIUS_GENOBJ-N-FIL_13
1002
{
1000
OWNER
1000
GEN
1002
}
1001
GENIUS_GENODEF_13
1002
{
1000
HIER
1070
     0
1002
}
1002
{
1000
MANEDIT
1070
     0
1002
}
1002
{
1000
NOSEL
1070
     0
1002
}
1002
{
1000
BEHIND
1070
     0
1002
}
1002
{
1000
OTHER
1070
     0
1002
}
1002
{
1000
REACTOR
1002
}
  0
LINE
  5
1308
  8
SAPA_PROFIL
 62
     4
 10
76.050000071854356
 20
123.3319965381347
 30
0.0
 11
76.050000071854356
 21
129.33199653813651
 31
0.0
1001
GENIUS_GENOBJ-N-FIL_13
1002
{
1000
OWNER
1000
GEN
1002
}
1001
GENIUS_GENODEF_13
1002
{
1000
HIER
1070
     0
1002
}
1002
{
1000
MANEDIT
1070
     0
1002
}
1002
{
1000
NOSEL
1070
     0
1002
}
1002
{
1000
BEHIND
1070
     0
1002
}
1002
{
1000
OTHER
1070
     0
1002
}
1002
{
1000
REACTOR
1002
}
  0
ARC
  5
1309
  8
SAPA_PROFIL
 62
     4
 10
76.550000071854356
 20
129.33199653813651
 30
0.0
 40
0.5
 50
90.0
 51
180.0
1001
GENIUS_GENOBJ-N-FIL_13
1002
{
1000
OWNER
1000
GEN
1002
}
1001
GENIUS_GENODEF_13
1002
{
1000
HIER
1070
     0
1002
}
1002
{
1000
MANEDIT
1070
     0
1002
}
1002
{
1000
NOSEL
1070
     0
1002
}
1002
{
1000
BEHIND
1070
     0
1002
}
1002
{
1000
OTHER
1070
     0
1002
}
1002
{
1000
REACTOR
1002
}
  0
LINE
  5
130A
  8
SAPA_PROFIL
 62
     4
 10
76.550000071854356
 20
129.83199653813651
 30
0.0
 11
77.450000071853083
 21
129.83199653813651
 31
0.0
1001
GENIUS_GENOBJ-N-FIL_13
1002
{
1000
OWNER
1000
GEN
1002
}
1001
GENIUS_GENODEF_13
1002
{
1000
HIER
1070
     0
1002
}
1002
{
1000
MANEDIT
1070
     0
1002
}
1002
{
1000
NOSEL
1070
     0
1002
}
1002
{
1000
BEHIND
1070
     0
1002
}
1002
{
1000
OTHER
1070
     0
1002
}
1002
{
1000
REACTOR
1002
}
  0
ARC
  5
130B
  8
SAPA_PROFIL
 62
     4
 10
77.450000071852742
 20
129.53199653813689
 30
0.0
 40
0.2999999999996135
 50
0.0000000003256888
 51
89.999999999934857
1001
GENIUS_GENOBJ-N-FIL_13
1002
{
1000
OWNER
1000
GEN
1002
}
1001
GENIUS_GENODEF_13
1002
{
1000
HIER
1070
     0
1002
}
1002
{
1000
MANEDIT
1070
     0
1002
}
1002
{
1000
NOSEL
1070
     0
1002
}
1002
{
1000
BEHIND
1070
     0
1002
}
1002
{
1000
OTHER
1070
     0
1002
}
1002
{
1000
REACTOR
1002
}
  0
LINE
  5
130C
  8
SAPA_PROFIL
 62
     4
 10
77.750000071852355
 20
129.5319965381386
 30
0.0
 11
77.750000071856903
 21
128.88199653813669
 31
0.0
1001
GENIUS_GENOBJ-N-FIL_13
1002
{
1000
OWNER
1000
GEN
1002
}
1001
GENIUS_GENODEF_13
1002
{
1000
HIER
1070
     0
1002
}
1002
{
1000
MANEDIT
1070
     0
1002
}
1002
{
1000
NOSEL
1070
     0
1002
}
1002
{
1000
BEHIND
1070
     0
1002
}
1002
{
1000
OTHER
1070
     0
1002
}
1002
{
1000
REACTOR
1002
}
  0
ARC
  5
130D
  8
SAPA_PROFIL
 62
     4
 10
78.050000071856857
 20
128.88199653813871
 30
0.0
 40
0.2999999999999545
 50
180.0000000003908
 51
270.0000000003908
1001
GENIUS_GENOBJ-N-FIL_13
1002
{
1000
OWNER
1000
GEN
1002
}
1001
GENIUS_GENODEF_13
1002
{
1000
HIER
1070
     0
1002
}
1002
{
1000
MANEDIT
1070
     0
1002
}
1002
{
1000
NOSEL
1070
     0
1002
}
1002
{
1000
BEHIND
1070
     0
1002
}
1002
{
1000
OTHER
1070
     0
1002
}
1002
{
1000
REACTOR
1002
}
  0
LINE
  5
130E
  8
SAPA_PROFIL
 62
     4
 10
78.050000071858904
 20
128.58199653813881
 30
0.0
 11
78.250000071851446
 21
128.58199653813969
 31
0.0
1001
GENIUS_GENOBJ-N-FIL_13
1002
{
1000
OWNER
1000
GEN
1002
}
1001
GENIUS_GENODEF_13
1002
{
1000
HIER
1070
     0
1002
}
1002
{
1000
MANEDIT
1070
     0
1002
}
1002
{
1000
NOSEL
1070
     0
1002
}
1002
{
1000
BEHIND
1070
     0
1002
}
1002
{
1000
OTHER
1070
     0
1002
}
1002
{
1000
REACTOR
1002
}
  0
ARC
  5
130F
  8
SAPA_PROFIL
 62
     4
 10
78.250000071851446
 20
129.08199653813969
 30
0.0
 40
0.5
 50
270.0
 51
0.0
1001
GENIUS_GENOBJ-N-FIL_13
1002
{
1000
OWNER
1000
GEN
1002
}
1001
GENIUS_GENODEF_13
1002
{
1000
HIER
1070
     0
1002
}
1002
{
1000
MANEDIT
1070
     0
1002
}
1002
{
1000
NOSEL
1070
     0
1002
}
1002
{
1000
BEHIND
1070
     0
1002
}
1002
{
1000
OTHER
1070
     0
1002
}
1002
{
1000
REACTOR
1002
}
  0
LINE
  5
1310
  8
SAPA_PROFIL
 62
     4
 10
78.750000071851446
 20
129.08199653813969
 30
0.0
 11
78.750000071851446
 21
132.08199653813969
 31
0.0
1001
GENIUS_GENOBJ-N-FIL_13
1002
{
1000
OWNER
1000
GEN
1002
}
1001
GENIUS_GENODEF_13
1002
{
1000
HIER
1070
     0
1002
}
1002
{
1000
MANEDIT
1070
     0
1002
}
1002
{
1000
NOSEL
1070
     0
1002
}
1002
{
1000
BEHIND
1070
     0
1002
}
1002
{
1000
OTHER
1070
     0
1002
}
1002
{
1000
REACTOR
1002
}
  0
ARC
  5
1311
  8
SAPA_PROFIL
 62
     4
 10
78.250000071851446
 20
132.08199653813969
 30
0.0
 40
0.5
 50
0.0
 51
90.0
1001
GENIUS_GENOBJ-N-FIL_13
1002
{
1000
OWNER
1000
GEN
1002
}
1001
GENIUS_GENODEF_13
1002
{
1000
HIER
1070
     0
1002
}
1002
{
1000
MANEDIT
1070
     0
1002
}
1002
{
1000
NOSEL
1070
     0
1002
}
1002
{
1000
BEHIND
1070
     0
1002
}
1002
{
1000
OTHER
1070
     0
1002
}
1002
{
1000
REACTOR
1002
}
  0
LINE
  5
1312
  8
SAPA_PROFIL
 62
     4
 10
78.250000071851446
 20
132.58199653813969
 30
0.0
 11
78.050000071851628
 21
132.58199653813969
 31
0.0
1001
GENIUS_GENOBJ-N-FIL_13
1002
{
1000
OWNER
1000
GEN
1002
}
1001
GENIUS_GENODEF_13
1002
{
1000
HIER
1070
     0
1002
}
1002
{
1000
MANEDIT
1070
     0
1002
}
1002
{
1000
NOSEL
1070
     0
1002
}
1002
{
1000
BEHIND
1070
     0
1002
}
1002
{
1000
OTHER
1070
     0
1002
}
1002
{
1000
REACTOR
1002
}
  0
ARC
  5
1313
  8
SAPA_PROFIL
 62
     4
 10
78.050000071851628
 20
132.28199653813951
 30
0.0
 40
0.3000000000001819
 50
90.0
 51
180.0
1001
GENIUS_GENOBJ-N-FIL_13
1002
{
1000
OWNER
1000
GEN
1002
}
1001
GENIUS_GENODEF_13
1002
{
1000
HIER
1070
     0
1002
}
1002
{
1000
MANEDIT
1070
     0
1002
}
1002
{
1000
NOSEL
1070
     0
1002
}
1002
{
1000
BEHIND
1070
     0
1002
}
1002
{
1000
OTHER
1070
     0
1002
}
1002
{
1000
REACTOR
1002
}
  0
LINE
  5
1314
  8
SAPA_PROFIL
 62
     4
 10
77.750000071851446
 20
132.28199653813951
 30
0.0
 11
77.750000071851446
 21
131.6319965381399
 31
0.0
1001
GENIUS_GENOBJ-N-FIL_13
1002
{
1000
OWNER
1000
GEN
1002
}
1001
GENIUS_GENODEF_13
1002
{
1000
HIER
1070
     0
1002
}
1002
{
1000
MANEDIT
1070
     0
1002
}
1002
{
1000
NOSEL
1070
     0
1002
}
1002
{
1000
BEHIND
1070
     0
1002
}
1002
{
1000
OTHER
1070
     0
1002
}
1002
{
1000
REACTOR
1002
}
  0
ARC
  5
1315
  8
SAPA_PROFIL
 62
     4
 10
77.450000071850809
 20
131.6319965381403
 30
0.0
 40
0.3000000000006366
 50
269.99999999991309
 51
359.99999999991309
1001
GENIUS_GENOBJ-N-FIL_13
1002
{
1000
OWNER
1000
GEN
1002
}
1001
GENIUS_GENODEF_13
1002
{
1000
HIER
1070
     0
1002
}
1002
{
1000
MANEDIT
1070
     0
1002
}
1002
{
1000
NOSEL
1070
     0
1002
}
1002
{
1000
BEHIND
1070
     0
1002
}
1002
{
1000
OTHER
1070
     0
1002
}
1002
{
1000
REACTOR
1002
}
  0
LINE
  5
1316
  8
SAPA_PROFIL
 62
     4
 10
77.450000071850354
 20
131.33199653813969
 30
0.0
 11
76.550000071854356
 21
131.33199653813969
 31
0.0
1001
GENIUS_GENOBJ-N-FIL_13
1002
{
1000
OWNER
1000
GEN
1002
}
1001
GENIUS_GENODEF_13
1002
{
1000
HIER
1070
     0
1002
}
1002
{
1000
MANEDIT
1070
     0
1002
}
1002
{
1000
NOSEL
1070
     0
1002
}
1002
{
1000
BEHIND
1070
     0
1002
}
1002
{
1000
OTHER
1070
     0
1002
}
1002
{
1000
REACTOR
1002
}
  0
ARC
  5
1317
  8
SAPA_PROFIL
 62
     4
 10
76.550000071854356
 20
131.83199653813969
 30
0.0
 40
0.5
 50
180.0
 51
270.0
1001
GENIUS_GENOBJ-N-FIL_13
1002
{
1000
OWNER
1000
GEN
1002
}
1001
GENIUS_GENODEF_13
1002
{
1000
HIER
1070
     0
1002
}
1002
{
1000
MANEDIT
1070
     0
1002
}
1002
{
1000
NOSEL
1070
     0
1002
}
1002
{
1000
BEHIND
1070
     0
1002
}
1002
{
1000
OTHER
1070
     0
1002
}
1002
{
1000
REACTOR
1002
}
  0
LINE
  5
1318
  8
SAPA_PROFIL
 62
     4
 10
76.050000071854356
 20
131.83199653813969
 30
0.0
 11
76.050000071854356
 21
137.83199653813969
 31
0.0
1001
GENIUS_GENOBJ-N-FIL_13
1002
{
1000
OWNER
1000
GEN
1002
}
1001
GENIUS_GENODEF_13
1002
{
1000
HIER
1070
     0
1002
}
1002
{
1000
MANEDIT
1070
     0
1002
}
1002
{
1000
NOSEL
1070
     0
1002
}
1002
{
1000
BEHIND
1070
     0
1002
}
1002
{
1000
OTHER
1070
     0
1002
}
1002
{
1000
REACTOR
1002
}
  0
ARC
  5
1319
  8
SAPA_PROFIL
 62
     4
 10
76.550000071854356
 20
137.83199653813969
 30
0.0
 40
0.5
 50
90.0
 51
180.0
1001
GENIUS_GENOBJ-N-FIL_13
1002
{
1000
OWNER
1000
GEN
1002
}
1001
GENIUS_GENODEF_13
1002
{
1000
HIER
1070
     0
1002
}
1002
{
1000
MANEDIT
1070
     0
1002
}
1002
{
1000
NOSEL
1070
     0
1002
}
1002
{
1000
BEHIND
1070
     0
1002
}
1002
{
1000
OTHER
1070
     0
1002
}
1002
{
1000
REACTOR
1002
}
  0
LINE
  5
131A
  8
SAPA_PROFIL
 62
     4
 10
76.550000071854356
 20
138.33199653813969
 30
0.0
 11
77.450000071850354
 21
138.33199653813969
 31
0.0
1001
GENIUS_GENOBJ-N-FIL_13
1002
{
1000
OWNER
1000
GEN
1002
}
1001
GENIUS_GENODEF_13
1002
{
1000
HIER
1070
     0
1002
}
1002
{
1000
MANEDIT
1070
     0
1002
}
1002
{
1000
NOSEL
1070
     0
1002
}
1002
{
1000
BEHIND
1070
     0
1002
}
1002
{
1000
OTHER
1070
     0
1002
}
1002
{
1000
REACTOR
1002
}
  0
ARC
  5
131B
  8
SAPA_PROFIL
 62
     4
 10
77.450000071850809
 20
138.03199653813911
 30
0.0
 40
0.3000000000006366
 50
0.0000000000868503
 51
90.000000000086857
1001
GENIUS_GENOBJ-N-FIL_13
1002
{
1000
OWNER
1000
GEN
1002
}
1001
GENIUS_GENODEF_13
1002
{
1000
HIER
1070
     0
1002
}
1002
{
1000
MANEDIT
1070
     0
1002
}
1002
{
1000
NOSEL
1070
     0
1002
}
1002
{
1000
BEHIND
1070
     0
1002
}
1002
{
1000
OTHER
1070
     0
1002
}
1002
{
1000
REACTOR
1002
}
  0
LINE
  5
131C
  8
SAPA_PROFIL
 62
     4
 10
77.750000071851446
 20
138.03199653813951
 30
0.0
 11
77.750000071851446
 21
137.3819965381399
 31
0.0
1001
GENIUS_GENOBJ-N-FIL_13
1002
{
1000
OWNER
1000
GEN
1002
}
1001
GENIUS_GENODEF_13
1002
{
1000
HIER
1070
     0
1002
}
1002
{
1000
MANEDIT
1070
     0
1002
}
1002
{
1000
NOSEL
1070
     0
1002
}
1002
{
1000
BEHIND
1070
     0
1002
}
1002
{
1000
OTHER
1070
     0
1002
}
1002
{
1000
REACTOR
1002
}
  0
ARC
  5
131D
  8
SAPA_PROFIL
 62
     4
 10
78.050000071851628
 20
137.3819965381399
 30
0.0
 40
0.3000000000001819
 50
180.0
 51
270.0
1001
GENIUS_GENOBJ-N-FIL_13
1002
{
1000
OWNER
1000
GEN
1002
}
1001
GENIUS_GENODEF_13
1002
{
1000
HIER
1070
     0
1002
}
1002
{
1000
MANEDIT
1070
     0
1002
}
1002
{
1000
NOSEL
1070
     0
1002
}
1002
{
1000
BEHIND
1070
     0
1002
}
1002
{
1000
OTHER
1070
     0
1002
}
1002
{
1000
REACTOR
1002
}
  0
LINE
  5
131E
  8
SAPA_PROFIL
 62
     4
 10
78.050000071851628
 20
137.08199653813969
 30
0.0
 11
78.250000071851446
 21
137.08199653813969
 31
0.0
1001
GENIUS_GENOBJ-N-FIL_13
1002
{
1000
OWNER
1000
GEN
1002
}
1001
GENIUS_GENODEF_13
1002
{
1000
HIER
1070
     0
1002
}
1002
{
1000
MANEDIT
1070
     0
1002
}
1002
{
1000
NOSEL
1070
     0
1002
}
1002
{
1000
BEHIND
1070
     0
1002
}
1002
{
1000
OTHER
1070
     0
1002
}
1002
{
1000
REACTOR
1002
}
  0
ARC
  5
131F
  8
SAPA_PROFIL
 62
     4
 10
78.250000071851446
 20
137.58199653813969
 30
0.0
 40
0.5
 50
270.0
 51
0.0
1001
GENIUS_GENOBJ-N-FIL_13
1002
{
1000
OWNER
1000
GEN
1002
}
1001
GENIUS_GENODEF_13
1002
{
1000
HIER
1070
     0
1002
}
1002
{
1000
MANEDIT
1070
     0
1002
}
1002
{
1000
NOSEL
1070
     0
1002
}
1002
{
1000
BEHIND
1070
     0
1002
}
1002
{
1000
OTHER
1070
     0
1002
}
1002
{
1000
REACTOR
1002
}
  0
LINE
  5
1320
  8
SAPA_PROFIL
 62
     4
 10
78.750000071851446
 20
137.58199653813969
 30
0.0
 11
78.750000071850536
 21
139.33199653813969
 31
0.0
1001
GENIUS_GENOBJ-N-FIL_13
1002
{
1000
OWNER
1000
GEN
1002
}
1001
GENIUS_GENODEF_13
1002
{
1000
HIER
1070
     0
1002
}
1002
{
1000
MANEDIT
1070
     0
1002
}
1002
{
1000
NOSEL
1070
     0
1002
}
1002
{
1000
BEHIND
1070
     0
1002
}
1002
{
1000
OTHER
1070
     0
1002
}
1002
{
1000
REACTOR
1002
}
  0
ARC
  5
1321
  8
SAPA_PROFIL
 62
     4
 10
78.250000071683303
 20
139.33199653797249
 30
0.0
 40
0.5000000001672335
 50
0.0000000191635289
 51
90.000000019085377
1001
GENIUS_GENOBJ-N-FIL_13
1002
{
1000
OWNER
1000
GEN
1002
}
1001
GENIUS_GENODEF_13
1002
{
1000
HIER
1070
     0
1002
}
1002
{
1000
MANEDIT
1070
     0
1002
}
1002
{
1000
NOSEL
1070
     0
1002
}
1002
{
1000
BEHIND
1070
     0
1002
}
1002
{
1000
OTHER
1070
     0
1002
}
1002
{
1000
REACTOR
1002
}
  0
LINE
  5
1322
  8
SAPA_PROFIL
 62
     4
 10
78.250000071516752
 20
139.83199653813969
 30
0.0
 11
65.250000071509476
 21
139.83199653813969
 31
0.0
1001
GENIUS_GENOBJ-N-FIL_13
1002
{
1000
OWNER
1000
GEN
1002
}
1001
GENIUS_GENODEF_13
1002
{
1000
HIER
1070
     0
1002
}
1002
{
1000
MANEDIT
1070
     0
1002
}
1002
{
1000
NOSEL
1070
     0
1002
}
1002
{
1000
BEHIND
1070
     0
1002
}
1002
{
1000
OTHER
1070
     0
1002
}
1002
{
1000
REACTOR
1002
}
  0
ARC
  5
1323
  8
SAPA_PROFIL
 62
     4
 10
65.250000071370209
 20
139.3319965380025
 30
0.0
 40
0.5000000001372201
 50
89.999999984041267
 51
179.9999999840673
1001
GENIUS_GENOBJ-N-FIL_13
1002
{
1000
OWNER
1000
GEN
1002
}
1001
GENIUS_GENODEF_13
1002
{
1000
HIER
1070
     0
1002
}
1002
{
1000
MANEDIT
1070
     0
1002
}
1002
{
1000
NOSEL
1070
     0
1002
}
1002
{
1000
BEHIND
1070
     0
1002
}
1002
{
1000
OTHER
1070
     0
1002
}
1002
{
1000
REACTOR
1002
}
  0
LINE
  5
1324
  8
SAPA_PROFIL
 62
     4
 10
64.750000071232975
 20
139.33199653814151
 30
0.0
 11
64.750000071232975
 21
137.58199653814151
 31
0.0
1001
GENIUS_GENOBJ-N-FIL_13
1002
{
1000
OWNER
1000
GEN
1002
}
1001
GENIUS_GENODEF_13
1002
{
1000
HIER
1070
     0
1002
}
1002
{
1000
MANEDIT
1070
     0
1002
}
1002
{
1000
NOSEL
1070
     0
1002
}
1002
{
1000
BEHIND
1070
     0
1002
}
1002
{
1000
OTHER
1070
     0
1002
}
1002
{
1000
REACTOR
1002
}
  0
ARC
  5
1325
  8
SAPA_PROFIL
 62
     4
 10
65.250000071232989
 20
137.58199653814151
 30
0.0
 40
0.5
 50
180.0
 51
270.0
1001
GENIUS_GENOBJ-N-FIL_13
1002
{
1000
OWNER
1000
GEN
1002
}
1001
GENIUS_GENODEF_13
1002
{
1000
HIER
1070
     0
1002
}
1002
{
1000
MANEDIT
1070
     0
1002
}
1002
{
1000
NOSEL
1070
     0
1002
}
1002
{
1000
BEHIND
1070
     0
1002
}
1002
{
1000
OTHER
1070
     0
1002
}
1002
{
1000
REACTOR
1002
}
  0
LINE
  5
1326
  8
SAPA_PROFIL
 62
     4
 10
65.250000071232989
 20
137.08199653814151
 30
0.0
 11
65.450000071232807
 21
137.08199653814151
 31
0.0
1001
GENIUS_GENOBJ-N-FIL_13
1002
{
1000
OWNER
1000
GEN
1002
}
1001
GENIUS_GENODEF_13
1002
{
1000
HIER
1070
     0
1002
}
1002
{
1000
MANEDIT
1070
     0
1002
}
1002
{
1000
NOSEL
1070
     0
1002
}
1002
{
1000
BEHIND
1070
     0
1002
}
1002
{
1000
OTHER
1070
     0
1002
}
1002
{
1000
REACTOR
1002
}
  0
ARC
  5
1327
  8
SAPA_PROFIL
 62
     4
 10
65.450000071232807
 20
137.38199653814169
 30
0.0
 40
0.3000000000001819
 50
270.0
 51
0.0
1001
GENIUS_GENOBJ-N-FIL_13
1002
{
1000
OWNER
1000
GEN
1002
}
1001
GENIUS_GENODEF_13
1002
{
1000
HIER
1070
     0
1002
}
1002
{
1000
MANEDIT
1070
     0
1002
}
1002
{
1000
NOSEL
1070
     0
1002
}
1002
{
1000
BEHIND
1070
     0
1002
}
1002
{
1000
OTHER
1070
     0
1002
}
1002
{
1000
REACTOR
1002
}
  0
LINE
  5
1328
  8
SAPA_PROFIL
 62
     4
 10
65.750000071232989
 20
137.38199653814169
 30
0.0
 11
65.750000071232989
 21
138.0319965381413
 31
0.0
1001
GENIUS_GENOBJ-N-FIL_13
1002
{
1000
OWNER
1000
GEN
1002
}
1001
GENIUS_GENODEF_13
1002
{
1000
HIER
1070
     0
1002
}
1002
{
1000
MANEDIT
1070
     0
1002
}
1002
{
1000
NOSEL
1070
     0
1002
}
1002
{
1000
BEHIND
1070
     0
1002
}
1002
{
1000
OTHER
1070
     0
1002
}
1002
{
1000
REACTOR
1002
}
  0
ARC
  5
1329
  8
SAPA_PROFIL
 62
     4
 10
66.050000071232716
 20
138.03199653814181
 30
0.0
 40
0.2999999999997271
 50
90.000000000086857
 51
180.0000000000868
1001
GENIUS_GENOBJ-N-FIL_13
1002
{
1000
OWNER
1000
GEN
1002
}
1001
GENIUS_GENODEF_13
1002
{
1000
HIER
1070
     0
1002
}
1002
{
1000
MANEDIT
1070
     0
1002
}
1002
{
1000
NOSEL
1070
     0
1002
}
1002
{
1000
BEHIND
1070
     0
1002
}
1002
{
1000
OTHER
1070
     0
1002
}
1002
{
1000
REACTOR
1002
}
  0
LINE
  5
132A
  8
SAPA_PROFIL
 62
     4
 10
66.050000071232262
 20
138.33199653814151
 30
0.0
 11
66.950000071230079
 21
138.33199653814151
 31
0.0
1001
GENIUS_GENOBJ-N-FIL_13
1002
{
1000
OWNER
1000
GEN
1002
}
1001
GENIUS_GENODEF_13
1002
{
1000
HIER
1070
     0
1002
}
1002
{
1000
MANEDIT
1070
     0
1002
}
1002
{
1000
NOSEL
1070
     0
1002
}
1002
{
1000
BEHIND
1070
     0
1002
}
1002
{
1000
OTHER
1070
     0
1002
}
1002
{
1000
REACTOR
1002
}
  0
ARC
  5
132B
  8
SAPA_PROFIL
 62
     4
 10
66.950000071230079
 20
137.83199653814151
 30
0.0
 40
0.5
 50
0.0
 51
90.0
1001
GENIUS_GENOBJ-N-FIL_13
1002
{
1000
OWNER
1000
GEN
1002
}
1001
GENIUS_GENODEF_13
1002
{
1000
HIER
1070
     0
1002
}
1002
{
1000
MANEDIT
1070
     0
1002
}
1002
{
1000
NOSEL
1070
     0
1002
}
1002
{
1000
BEHIND
1070
     0
1002
}
1002
{
1000
OTHER
1070
     0
1002
}
1002
{
1000
REACTOR
1002
}
  0
LINE
  5
132C
  8
SAPA_PROFIL
 62
     4
 10
67.450000071230079
 20
137.83199653814151
 30
0.0
 11
67.450000071230079
 21
131.83199653814151
 31
0.0
1001
GENIUS_GENOBJ-N-FIL_13
1002
{
1000
OWNER
1000
GEN
1002
}
1001
GENIUS_GENODEF_13
1002
{
1000
HIER
1070
     0
1002
}
1002
{
1000
MANEDIT
1070
     0
1002
}
1002
{
1000
NOSEL
1070
     0
1002
}
1002
{
1000
BEHIND
1070
     0
1002
}
1002
{
1000
OTHER
1070
     0
1002
}
1002
{
1000
REACTOR
1002
}
  0
ARC
  5
132D
  8
SAPA_PROFIL
 62
     4
 10
66.950000071230079
 20
131.83199653814151
 30
0.0
 40
0.5
 50
270.0
 51
0.0
1001
GENIUS_GENOBJ-N-FIL_13
1002
{
1000
OWNER
1000
GEN
1002
}
1001
GENIUS_GENODEF_13
1002
{
1000
HIER
1070
     0
1002
}
1002
{
1000
MANEDIT
1070
     0
1002
}
1002
{
1000
NOSEL
1070
     0
1002
}
1002
{
1000
BEHIND
1070
     0
1002
}
1002
{
1000
OTHER
1070
     0
1002
}
1002
{
1000
REACTOR
1002
}
  0
LINE
  5
132E
  8
SAPA_PROFIL
 62
     4
 10
66.950000071230079
 20
131.33199653814151
 30
0.0
 11
66.050000071232262
 21
131.33199653814151
 31
0.0
1001
GENIUS_GENOBJ-N-FIL_13
1002
{
1000
OWNER
1000
GEN
1002
}
1001
GENIUS_GENODEF_13
1002
{
1000
HIER
1070
     0
1002
}
1002
{
1000
MANEDIT
1070
     0
1002
}
1002
{
1000
NOSEL
1070
     0
1002
}
1002
{
1000
BEHIND
1070
     0
1002
}
1002
{
1000
OTHER
1070
     0
1002
}
1002
{
1000
REACTOR
1002
}
  0
ARC
  5
132F
  8
SAPA_PROFIL
 62
     4
 10
66.050000071232716
 20
131.63199653814121
 30
0.0
 40
0.2999999999997271
 50
179.99999999991309
 51
269.99999999991309
1001
GENIUS_GENOBJ-N-FIL_13
1002
{
1000
OWNER
1000
GEN
1002
}
1001
GENIUS_GENODEF_13
1002
{
1000
HIER
1070
     0
1002
}
1002
{
1000
MANEDIT
1070
     0
1002
}
1002
{
1000
NOSEL
1070
     0
1002
}
1002
{
1000
BEHIND
1070
     0
1002
}
1002
{
1000
OTHER
1070
     0
1002
}
1002
{
1000
REACTOR
1002
}
  0
LINE
  5
1330
  8
SAPA_PROFIL
 62
     4
 10
65.750000071232989
 20
131.63199653814169
 30
0.0
 11
65.750000071232989
 21
132.2819965381413
 31
0.0
1001
GENIUS_GENOBJ-N-FIL_13
1002
{
1000
OWNER
1000
GEN
1002
}
1001
GENIUS_GENODEF_13
1002
{
1000
HIER
1070
     0
1002
}
1002
{
1000
MANEDIT
1070
     0
1002
}
1002
{
1000
NOSEL
1070
     0
1002
}
1002
{
1000
BEHIND
1070
     0
1002
}
1002
{
1000
OTHER
1070
     0
1002
}
1002
{
1000
REACTOR
1002
}
  0
ARC
  5
1331
  8
SAPA_PROFIL
 62
     4
 10
65.450000071232807
 20
132.2819965381413
 30
0.0
 40
0.3000000000001819
 50
0.0
 51
90.0
1001
GENIUS_GENOBJ-N-FIL_13
1002
{
1000
OWNER
1000
GEN
1002
}
1001
GENIUS_GENODEF_13
1002
{
1000
HIER
1070
     0
1002
}
1002
{
1000
MANEDIT
1070
     0
1002
}
1002
{
1000
NOSEL
1070
     0
1002
}
1002
{
1000
BEHIND
1070
     0
1002
}
1002
{
1000
OTHER
1070
     0
1002
}
1002
{
1000
REACTOR
1002
}
  0
LINE
  5
1332
  8
SAPA_PROFIL
 62
     4
 10
65.450000071232807
 20
132.58199653814151
 30
0.0
 11
65.250000071232989
 21
132.58199653814151
 31
0.0
1001
GENIUS_GENOBJ-N-FIL_13
1002
{
1000
OWNER
1000
GEN
1002
}
1001
GENIUS_GENODEF_13
1002
{
1000
HIER
1070
     0
1002
}
1002
{
1000
MANEDIT
1070
     0
1002
}
1002
{
1000
NOSEL
1070
     0
1002
}
1002
{
1000
BEHIND
1070
     0
1002
}
1002
{
1000
OTHER
1070
     0
1002
}
1002
{
1000
REACTOR
1002
}
  0
ARC
  5
1333
  8
SAPA_PROFIL
 62
     4
 10
65.250000071232989
 20
132.08199653814151
 30
0.0
 40
0.5
 50
90.0
 51
180.0
1001
GENIUS_GENOBJ-N-FIL_13
1002
{
1000
OWNER
1000
GEN
1002
}
1001
GENIUS_GENODEF_13
1002
{
1000
HIER
1070
     0
1002
}
1002
{
1000
MANEDIT
1070
     0
1002
}
1002
{
1000
NOSEL
1070
     0
1002
}
1002
{
1000
BEHIND
1070
     0
1002
}
1002
{
1000
OTHER
1070
     0
1002
}
1002
{
1000
REACTOR
1002
}
  0
LINE
  5
1334
  8
SAPA_PROFIL
 62
     4
 10
64.750000071232975
 20
132.08199653814151
 30
0.0
 11
64.750000071232975
 21
129.08199653814151
 31
0.0
1001
GENIUS_GENOBJ-N-FIL_13
1002
{
1000
OWNER
1000
GEN
1002
}
1001
GENIUS_GENODEF_13
1002
{
1000
HIER
1070
     0
1002
}
1002
{
1000
MANEDIT
1070
     0
1002
}
1002
{
1000
NOSEL
1070
     0
1002
}
1002
{
1000
BEHIND
1070
     0
1002
}
1002
{
1000
OTHER
1070
     0
1002
}
1002
{
1000
REACTOR
1002
}
  0
ARC
  5
1335
  8
SAPA_PROFIL
 62
     4
 10
65.250000071232989
 20
129.08199653814151
 30
0.0
 40
0.5
 50
180.0
 51
270.0
1001
GENIUS_GENOBJ-N-FIL_13
1002
{
1000
OWNER
1000
GEN
1002
}
1001
GENIUS_GENODEF_13
1002
{
1000
HIER
1070
     0
1002
}
1002
{
1000
MANEDIT
1070
     0
1002
}
1002
{
1000
NOSEL
1070
     0
1002
}
1002
{
1000
BEHIND
1070
     0
1002
}
1002
{
1000
OTHER
1070
     0
1002
}
1002
{
1000
REACTOR
1002
}
  0
LINE
  5
1336
  8
SAPA_PROFIL
 62
     4
 10
65.250000071232989
 20
128.58199653814151
 30
0.0
 11
65.450000071225531
 21
128.5819965381406
 31
0.0
1001
GENIUS_GENOBJ-N-FIL_13
1002
{
1000
OWNER
1000
GEN
1002
}
1001
GENIUS_GENODEF_13
1002
{
1000
HIER
1070
     0
1002
}
1002
{
1000
MANEDIT
1070
     0
1002
}
1002
{
1000
NOSEL
1070
     0
1002
}
1002
{
1000
BEHIND
1070
     0
1002
}
1002
{
1000
OTHER
1070
     0
1002
}
1002
{
1000
REACTOR
1002
}
  0
ARC
  5
1337
  8
SAPA_PROFIL
 62
     4
 10
65.450000071227464
 20
128.8819965381407
 30
0.0
 40
0.3000000000000682
 50
269.99999999963092
 51
359.99999999958737
1001
GENIUS_GENOBJ-N-FIL_13
1002
{
1000
OWNER
1000
GEN
1002
}
1001
GENIUS_GENODEF_13
1002
{
1000
HIER
1070
     0
1002
}
1002
{
1000
MANEDIT
1070
     0
1002
}
1002
{
1000
NOSEL
1070
     0
1002
}
1002
{
1000
BEHIND
1070
     0
1002
}
1002
{
1000
OTHER
1070
     0
1002
}
1002
{
1000
REACTOR
1002
}
  0
LINE
  5
1338
  8
SAPA_PROFIL
 62
     4
 10
65.750000071227532
 20
128.88199653813851
 30
0.0
 11
65.750000071230261
 21
129.53199653813951
 31
0.0
1001
GENIUS_GENOBJ-N-FIL_13
1002
{
1000
OWNER
1000
GEN
1002
}
1001
GENIUS_GENODEF_13
1002
{
1000
HIER
1070
     0
1002
}
1002
{
1000
MANEDIT
1070
     0
1002
}
1002
{
1000
NOSEL
1070
     0
1002
}
1002
{
1000
BEHIND
1070
     0
1002
}
1002
{
1000
OTHER
1070
     0
1002
}
1002
{
1000
REACTOR
1002
}
  0
ARC
  5
1339
  8
SAPA_PROFIL
 62
     4
 10
66.050000071230897
 20
129.5319965381382
 30
0.0
 40
0.3000000000006366
 50
89.999999999913143
 51
179.9999999997394
1001
GENIUS_GENOBJ-N-FIL_13
1002
{
1000
OWNER
1000
GEN
1002
}
1001
GENIUS_GENODEF_13
1002
{
1000
HIER
1070
     0
1002
}
1002
{
1000
MANEDIT
1070
     0
1002
}
1002
{
1000
NOSEL
1070
     0
1002
}
1002
{
1000
BEHIND
1070
     0
1002
}
1002
{
1000
OTHER
1070
     0
1002
}
1002
{
1000
REACTOR
1002
}
  0
LINE
  5
133A
  8
SAPA_PROFIL
 62
     4
 10
66.050000071231352
 20
129.83199653813881
 30
0.0
 11
66.950000071230079
 21
129.83199653813881
 31
0.0
1001
GENIUS_GENOBJ-N-FIL_13
1002
{
1000
OWNER
1000
GEN
1002
}
1001
GENIUS_GENODEF_13
1002
{
1000
HIER
1070
     0
1002
}
1002
{
1000
MANEDIT
1070
     0
1002
}
1002
{
1000
NOSEL
1070
     0
1002
}
1002
{
1000
BEHIND
1070
     0
1002
}
1002
{
1000
OTHER
1070
     0
1002
}
1002
{
1000
REACTOR
1002
}
  0
ARC
  5
133B
  8
SAPA_PROFIL
 62
     4
 10
66.950000071230079
 20
129.33199653813881
 30
0.0
 40
0.5
 50
0.0
 51
90.0
1001
GENIUS_GENOBJ-N-FIL_13
1002
{
1000
OWNER
1000
GEN
1002
}
1001
GENIUS_GENODEF_13
1002
{
1000
HIER
1070
     0
1002
}
1002
{
1000
MANEDIT
1070
     0
1002
}
1002
{
1000
NOSEL
1070
     0
1002
}
1002
{
1000
BEHIND
1070
     0
1002
}
1002
{
1000
OTHER
1070
     0
1002
}
1002
{
1000
REACTOR
1002
}
  0
LINE
  5
133C
  8
SAPA_PROFIL
 62
     4
 10
67.450000071230079
 20
129.33199653813881
 30
0.0
 11
67.450000071222803
 21
123.33199653813649
 31
0.0
1001
GENIUS_GENOBJ-N-FIL_13
1002
{
1000
OWNER
1000
GEN
1002
}
1001
GENIUS_GENODEF_13
1002
{
1000
HIER
1070
     0
1002
}
1002
{
1000
MANEDIT
1070
     0
1002
}
1002
{
1000
NOSEL
1070
     0
1002
}
1002
{
1000
BEHIND
1070
     0
1002
}
1002
{
1000
OTHER
1070
     0
1002
}
1002
{
1000
REACTOR
1002
}
  0
ARC
  5
133D
  8
SAPA_PROFIL
 62
     4
 10
66.950000071222803
 20
123.33199653813649
 30
0.0
 40
0.5
 50
270.0
 51
0.0
1001
GENIUS_GENOBJ-N-FIL_13
1002
{
1000
OWNER
1000
GEN
1002
}
1001
GENIUS_GENODEF_13
1002
{
1000
HIER
1070
     0
1002
}
1002
{
1000
MANEDIT
1070
     0
1002
}
1002
{
1000
NOSEL
1070
     0
1002
}
1002
{
1000
BEHIND
1070
     0
1002
}
1002
{
1000
OTHER
1070
     0
1002
}
1002
{
1000
REACTOR
1002
}
  0
LINE
  5
133E
  8
SAPA_PROFIL
 62
     4
 10
66.950000071222803
 20
122.83199653813649
 30
0.0
 11
66.050000071225895
 21
122.83199653813649
 31
0.0
1001
GENIUS_GENOBJ-N-FIL_13
1002
{
1000
OWNER
1000
GEN
1002
}
1001
GENIUS_GENODEF_13
1002
{
1000
HIER
1070
     0
1002
}
1002
{
1000
MANEDIT
1070
     0
1002
}
1002
{
1000
NOSEL
1070
     0
1002
}
1002
{
1000
BEHIND
1070
     0
1002
}
1002
{
1000
OTHER
1070
     0
1002
}
1002
{
1000
REACTOR
1002
}
  0
ARC
  5
133F
  8
SAPA_PROFIL
 62
     4
 10
66.050000071225895
 20
123.1319965381367
 30
0.0
 40
0.3000000000001819
 50
180.0
 51
270.0
1001
GENIUS_GENOBJ-N-FIL_13
1002
{
1000
OWNER
1000
GEN
1002
}
1001
GENIUS_GENODEF_13
1002
{
1000
HIER
1070
     0
1002
}
1002
{
1000
MANEDIT
1070
     0
1002
}
1002
{
1000
NOSEL
1070
     0
1002
}
1002
{
1000
BEHIND
1070
     0
1002
}
1002
{
1000
OTHER
1070
     0
1002
}
1002
{
1000
REACTOR
1002
}
  0
LINE
  5
1340
  8
SAPA_PROFIL
 62
     4
 10
65.750000071225713
 20
123.1319965381367
 30
0.0
 11
65.750000071225713
 21
123.7819965381386
 31
0.0
1001
GENIUS_GENOBJ-N-FIL_13
1002
{
1000
OWNER
1000
GEN
1002
}
1001
GENIUS_GENODEF_13
1002
{
1000
HIER
1070
     0
1002
}
1002
{
1000
MANEDIT
1070
     0
1002
}
1002
{
1000
NOSEL
1070
     0
1002
}
1002
{
1000
BEHIND
1070
     0
1002
}
1002
{
1000
OTHER
1070
     0
1002
}
1002
{
1000
REACTOR
1002
}
  0
ARC
  5
1341
  8
SAPA_PROFIL
 62
     4
 10
65.450000071225531
 20
123.7819965381386
 30
0.0
 40
0.3000000000001819
 50
0.0
 51
90.0
1001
GENIUS_GENOBJ-N-FIL_13
1002
{
1000
OWNER
1000
GEN
1002
}
1001
GENIUS_GENODEF_13
1002
{
1000
HIER
1070
     0
1002
}
1002
{
1000
MANEDIT
1070
     0
1002
}
1002
{
1000
NOSEL
1070
     0
1002
}
1002
{
1000
BEHIND
1070
     0
1002
}
1002
{
1000
OTHER
1070
     0
1002
}
1002
{
1000
REACTOR
1002
}
  0
LINE
  5
1342
  8
SAPA_PROFIL
 62
     4
 10
65.450000071225531
 20
124.0819965381388
 30
0.0
 11
65.250000071225713
 21
124.0819965381388
 31
0.0
1001
GENIUS_GENOBJ-N-FIL_13
1002
{
1000
OWNER
1000
GEN
1002
}
1001
GENIUS_GENODEF_13
1002
{
1000
HIER
1070
     0
1002
}
1002
{
1000
MANEDIT
1070
     0
1002
}
1002
{
1000
NOSEL
1070
     0
1002
}
1002
{
1000
BEHIND
1070
     0
1002
}
1002
{
1000
OTHER
1070
     0
1002
}
1002
{
1000
REACTOR
1002
}
  0
ARC
  5
1343
  8
SAPA_PROFIL
 62
     4
 10
65.250000071225713
 20
123.5819965381388
 30
0.0
 40
0.5
 50
90.0
 51
180.0
1001
GENIUS_GENOBJ-N-FIL_13
1002
{
1000
OWNER
1000
GEN
1002
}
1001
GENIUS_GENODEF_13
1002
{
1000
HIER
1070
     0
1002
}
1002
{
1000
MANEDIT
1070
     0
1002
}
1002
{
1000
NOSEL
1070
     0
1002
}
1002
{
1000
BEHIND
1070
     0
1002
}
1002
{
1000
OTHER
1070
     0
1002
}
1002
{
1000
REACTOR
1002
}
  0
LINE
  5
1344
  8
SAPA_PROFIL
 62
     4
 10
64.750000071225713
 20
123.5819965381388
 30
0.0
 11
64.750000071307554
 21
97.784261511214936
 31
0.0
1001
GENIUS_GENOBJ-N-FIL_13
1002
{
1000
OWNER
1000
GEN
1002
}
1001
GENIUS_GENODEF_13
1002
{
1000
HIER
1070
     0
1002
}
1002
{
1000
MANEDIT
1070
     0
1002
}
1002
{
1000
NOSEL
1070
     0
1002
}
1002
{
1000
BEHIND
1070
     0
1002
}
1002
{
1000
OTHER
1070
     0
1002
}
1002
{
1000
REACTOR
1002
}
  0
ARC
  5
1345
  8
SAPA_PROFIL
 62
     4
 10
63.55000007130775
 20
97.784261511210843
 30
0.0
 40
1.1999999999998181
 50
270.0
 51
0.0000000001954133
1001
GENIUS_GENOBJ-N-FIL_13
1002
{
1000
OWNER
1000
GEN
1002
}
1001
GENIUS_GENODEF_13
1002
{
1000
HIER
1070
     0
1002
}
1002
{
1000
MANEDIT
1070
     0
1002
}
1002
{
1000
NOSEL
1070
     0
1002
}
1002
{
1000
BEHIND
1070
     0
1002
}
1002
{
1000
OTHER
1070
     0
1002
}
1002
{
1000
REACTOR
1002
}
  0
LINE
  5
1346
  8
SAPA_PROFIL
 62
     4
 10
63.55000007130775
 20
96.584261511211025
 30
0.0
 11
60.821518721227683
 21
96.58426151121057
 31
0.0
1001
GENIUS_GENOBJ-N-FIL_13
1002
{
1000
OWNER
1000
GEN
1002
}
1001
GENIUS_GENODEF_13
1002
{
1000
HIER
1070
     0
1002
}
1002
{
1000
MANEDIT
1070
     0
1002
}
1002
{
1000
NOSEL
1070
     0
1002
}
1002
{
1000
BEHIND
1070
     0
1002
}
1002
{
1000
OTHER
1070
     0
1002
}
1002
{
1000
REACTOR
1002
}
  0
LINE
  5
1347
  8
SAPA_PROFIL
 62
     4
 10
68.450000139273016
 20
121.54773506762101
 30
0.0
 11
75.950000139831445
 21
121.5477350676169
 31
0.0
  0
ARC
  5
1348
  8
SAPA_PROFIL
 62
     4
 10
75.950000139831445
 20
120.5477350676169
 30
0.0
 40
1.0
 50
0.0
 51
90.0
  0
LINE
  5
1349
  8
SAPA_PROFIL
 62
     4
 10
76.950000139831445
 20
120.5477350676169
 30
0.0
 11
76.950000139846907
 21
97.400000040693143
 31
0.0
  0
ARC
  5
134A
  8
SAPA_PROFIL
 62
     4
 10
76.150000139846725
 20
97.400000040693143
 30
0.0
 40
0.8000000000001818
 50
270.0
 51
0.0
  0
LINE
  5
134B
  8
SAPA_PROFIL
 62
     4
 10
76.150000139846725
 20
96.600000040692976
 30
0.0
 11
67.350000139328131
 21
96.600000040692976
 31
0.0
  0
ARC
  5
134C
  8
SAPA_PROFIL
 62
     4
 10
67.350000139328131
 20
97.400000040693143
 30
0.0
 40
0.8000000000001818
 50
179.9999999999348
 51
270.0
  0
LINE
  5
134D
  8
SAPA_PROFIL
 62
     4
 10
66.550000139327949
 20
97.400000040694081
 30
0.0
 11
66.550000139351596
 21
120.54773506762101
 31
0.0
  0
ARC
  5
134E
  8
SAPA_PROFIL
 62
     4
 10
67.550000139351255
 20
120.5477350676195
 30
0.0
 40
0.9999999999996589
 50
90.000000000032571
 51
179.9999999999153
  0
LINE
  5
134F
  8
SAPA_PROFIL
 62
     4
 10
67.550000139350686
 20
121.5477350676192
 30
0.0
 11
68.450000139273016
 21
121.54773506762101
 31
0.0
  0
DIMENSION
  5
137D
  8
SAPA_MATT
  2
*D18
 10
-131.7414789875707
 20
79.999999999983714
 30
0.0
 11
-134.2414789875707
 21
109.9999999999837
 31
0.0
 70
     0
 13
-89.249999928474438
 23
139.99999999998369
 33
0.0
 14
-87.249999928490809
 24
79.999999999983714
 34
0.0
 50
90.0
1001
ACAD
1000
DSTYLE
1002
{
1070
    40
1040
1.0
1002
}
  0
DIMENSION
  5
137E
  8
SAPA_MATT
  2
*D17
 10
-3.2499999284860732
 20
181.00000001191941
 30
0.0
 11
-47.249999928486083
 21
183.50000001191941
 31
0.0
 70
     0
 13
-91.249999928486076
 23
137.99999999998369
 33
0.0
 14
-3.2499999284860759
 24
138.49999999998369
 34
0.0
1001
ACAD
1000
DSTYLE
1002
{
1070
    40
1040
1.0
1002
}
  0
DIMENSION
  5
137F
  8
SAPA_MATT
  2
*D16
 10
4.7500001433595589
 20
181.0000000000002
 30
0.0
 11
0.7500001431944839
 21
181.0000000000002
 31
0.0
 70
   128
 13
-3.2499998569710442
 23
138.00000000000219
 33
0.0
 14
4.7500001433595571
 24
135.0000000010341
 34
0.0
1001
ACAD
1000
DSTYLE
1002
{
1070
    40
1040
1.0
1002
}
  0
DIMENSION
  5
1380
  8
SAPA_MATT
  2
*D15
 10
61.750000142697452
 20
181.0000000000002
 30
0.0
 11
33.250000143028501
 21
183.5000000000002
 31
0.0
 70
     0
 13
4.7500001433595571
 23
135.0000000010341
 33
0.0
 14
61.750000142697452
 24
135.0000000010341
 34
0.0
1001
ACAD
1000
DSTYLE
1002
{
1070
   287
1070
     4
1070
    40
1040
1.0
1070
   279
1070
     1
1002
}
  0
DIMENSION
  5
1381
  8
SAPA_MATT
  2
*D14
 10
146.7500001432727
 20
181.0000000000002
 30
0.0
 11
104.250000142985
 21
183.5000000000002
 31
0.0
 70
     0
 13
61.750000142697452
 23
135.0000000010341
 33
0.0
 14
146.7500001432727
 24
138.5
 34
0.0
1001
ACAD
1000
DSTYLE
1002
{
1070
   287
1070
     4
1070
    40
1040
1.0
1070
   279
1070
     1
1002
}
  0
DIMENSION
  5
1382
  8
SAPA_MATT
  2
*D13
 10
146.75000007151169
 20
193.0000000000002
 30
0.0
 11
71.750000071512886
 21
195.5000000000002
 31
0.0
 70
     0
 13
-3.249999928485976
 23
138.0000000000025
 33
0.0
 14
146.75000007151169
 24
138.00000000000219
 34
0.0
1001
ACAD
1000
DSTYLE
1002
{
1070
    40
1040
1.0
1002
}
  0
DIMENSION
  5
1383
  8
SAPA_MATT
  2
*D12
 10
-11.73612952761502
 20
140.0000000000004
 30
0.0
 11
-11.73612952761505
 21
81.500000000000455
 31
0.0
 70
   128
 13
-1.8749998638518259
 23
23.000000000000458
 33
0.0
 14
-1.7499998638518259
 24
140.0000000000004
 34
0.0
 50
90.0
1001
ACAD
1000
DSTYLE
1002
{
1070
    40
1040
1.0
1002
}
  0
DIMENSION
  5
1384
  8
SAPA_MATT
  2
*D11
 10
-11.73612952761502
 20
150.0000000000116
 30
0.0
 11
-14.23612952761504
 21
145.000000000006
 31
0.0
 70
     0
 13
-1.7499998638518259
 23
140.0000000000004
 33
0.0
 14
5.0000001363237061
 24
150.0000000000116
 34
0.0
 50
90.0
1001
ACAD
1000
DSTYLE
1002
{
1070
   287
1070
     4
1070
    40
1040
1.0
1070
   279
1070
     1
1002
}
  0
DIMENSION
  5
1385
  8
SAPA_MATT
  2
*D10
 10
-40.249999863851819
 20
140.0000000000004
 30
0.0
 11
-42.75113622748821
 21
70.000000000000227
 31
0.0
 70
     0
  1
min. 130
 13
0.0000000646341505
 23
0.0
 33
0.0
 14
-13.249999863851819
 24
140.0000000000004
 34
0.0
 50
90.0
1001
ACAD
1000
DSTYLE
1002
{
1070
    40
1040
1.0
1002
}
  0
VIEWPORT
  5
C4
 67
     1
  8
0
 10
160.5543545598442
 20
116.00969601843509
 30
0.0
 40
404.96977709277462
 41
256.8421457311839
 68
     1
 69
     1
1001
ACAD
1000
MVIEW
1002
{
1070
    16
1010
0.0
1020
0.0
1030
0.0
1010
0.0
1020
0.0
1030
1.0
1040
0.0
1040
256.8421457311839
1040
160.5543545598442
1040
116.00969601843509
1040
50.0
1040
0.0
1040
0.0
1070
     0
1070
   100
1070
     1
1070
     1
1070
     0
1070
     0
1070
     0
1070
     0
1040
0.0
1040
0.0
1040
0.0
1040
10.0
1040
10.0
1040
10.0
1040
10.0
1070
     0
1002
{
1002
}
1002
}
  0
ENDSEC
  0
EOF
